  0
SECTION
  2
HEADER
  9
$ACADVER
  1
AC1015
  9
$ACADMAINTVER
 70
    20
  9
$DWGCODEPAGE
  3
ANSI_932
  9
$INSBASE
 10
0.0
 20
0.0
 30
0.0
  9
$EXTMIN
 10
-0.6050426229303412
 20
-0.4060512110099808
 30
-0.0000000000000011
  9
$EXTMAX
 10
4455.253478783233
 20
3150.377507149022
 30
0.0000000000000141
  9
$LIMMIN
 10
0.0
 20
0.0
  9
$LIMMAX
 10
420.0
 20
297.0
  9
$ORTHOMODE
 70
     1
  9
$REGENMODE
 70
     1
  9
$FILLMODE
 70
     1
  9
$QTEXTMODE
 70
     0
  9
$MIRRTEXT
 70
     1
  9
$LTSCALE
 40
0.5
  9
$ATTMODE
 70
     1
  9
$TEXTSIZE
 40
2.799999999999999
  9
$TRACEWID
 40
1.0
  9
$TEXTSTYLE
  7
SANWA
  9
$CLAYER
  8
0
  9
$CELTYPE
  6
BYLAYER
  9
$CECOLOR
 62
   256
  9
$CELTSCALE
 40
15.0
  9
$DISPSILH
 70
     0
  9
$DIMSCALE
 40
15.0
  9
$DIMASZ
 40
1.5
  9
$DIMEXO
 40
1.0
  9
$DIMDLI
 40
5.0
  9
$DIMRND
 40
0.0
  9
$DIMDLE
 40
0.0
  9
$DIMEXE
 40
0.5
  9
$DIMTP
 40
0.0
  9
$DIMTM
 40
0.0
  9
$DIMTXT
 40
2.0
  9
$DIMCEN
 40
0.0
  9
$DIMTSZ
 40
0.0
  9
$DIMTOL
 70
     0
  9
$DIMLIM
 70
     0
  9
$DIMTIH
 70
     0
  9
$DIMTOH
 70
     0
  9
$DIMSE1
 70
     0
  9
$DIMSE2
 70
     0
  9
$DIMTAD
 70
     1
  9
$DIMZIN
 70
     8
  9
$DIMBLK
  1

  9
$DIMASO
 70
     1
  9
$DIMSHO
 70
     1
  9
$DIMPOST
  1

  9
$DIMAPOST
  1

  9
$DIMALT
 70
     0
  9
$DIMALTD
 70
     2
  9
$DIMALTF
 40
0.0394
  9
$DIMLFAC
 40
1.0
  9
$DIMTOFL
 70
     1
  9
$DIMTVP
 40
0.0
  9
$DIMTIX
 70
     1
  9
$DIMSOXD
 70
     0
  9
$DIMSAH
 70
     0
  9
$DIMBLK1
  1

  9
$DIMBLK2
  1

  9
$DIMSTYLE
  2
SANWA
  9
$DIMCLRD
 70
   256
  9
$DIMCLRE
 70
   256
  9
$DIMCLRT
 70
   256
  9
$DIMTFAC
 40
1.0
  9
$DIMGAP
 40
1.0
  9
$DIMJUST
 70
     0
  9
$DIMSD1
 70
     0
  9
$DIMSD2
 70
     0
  9
$DIMTOLJ
 70
     1
  9
$DIMTZIN
 70
     0
  9
$DIMALTZ
 70
     0
  9
$DIMALTTZ
 70
     0
  9
$DIMUPT
 70
     0
  9
$DIMDEC
 70
     4
  9
$DIMTDEC
 70
     4
  9
$DIMALTU
 70
     2
  9
$DIMALTTD
 70
     2
  9
$DIMTXSTY
  7
SANWA
  9
$DIMAUNIT
 70
     0
  9
$DIMADEC
 70
     0
  9
$DIMALTRND
 40
0.0
  9
$DIMAZIN
 70
     0
  9
$DIMDSEP
 70
    46
  9
$DIMATFIT
 70
     3
  9
$DIMFRAC
 70
     0
  9
$DIMLDRBLK
  1

  9
$DIMLUNIT
 70
     2
  9
$DIMLWD
 70
    -2
  9
$DIMLWE
 70
    -2
  9
$DIMTMOVE
 70
     0
  9
$LUNITS
 70
     2
  9
$LUPREC
 70
     4
  9
$SKETCHINC
 40
1.0
  9
$FILLETRAD
 40
10.0
  9
$AUNITS
 70
     0
  9
$AUPREC
 70
     0
  9
$MENU
  1
acad
  9
$ELEVATION
 40
0.0
  9
$PELEVATION
 40
0.0
  9
$THICKNESS
 40
0.0
  9
$LIMCHECK
 70
     0
  9
$CHAMFERA
 40
0.0
  9
$CHAMFERB
 40
0.0
  9
$CHAMFERC
 40
0.0
  9
$CHAMFERD
 40
0.0
  9
$SKPOLY
 70
     1
  9
$TDCREATE
 40
2451974.413417940
  9
$TDUCREATE
 40
2451974.038417940
  9
$TDUPDATE
 40
2455412.454962107
  9
$TDUUPDATE
 40
2455412.079962107
  9
$TDINDWG
 40
0.0568751157
  9
$TDUSRTIMER
 40
0.0568751157
  9
$USRTIMER
 70
     1
  9
$ANGBASE
 50
0.0
  9
$ANGDIR
 70
     0
  9
$PDMODE
 70
     0
  9
$PDSIZE
 40
0.0
  9
$PLINEWID
 40
0.0
  9
$SPLFRAME
 70
     0
  9
$SPLINETYPE
 70
     6
  9
$SPLINESEGS
 70
     8
  9
$HANDSEED
  5
9E5F
  9
$SURFTAB1
 70
     6
  9
$SURFTAB2
 70
     6
  9
$SURFTYPE
 70
     6
  9
$SURFU
 70
     6
  9
$SURFV
 70
     6
  9
$UCSBASE
  2

  9
$UCSNAME
  2

  9
$UCSORG
 10
0.0
 20
0.0
 30
0.0
  9
$UCSXDIR
 10
1.0
 20
0.0
 30
0.0
  9
$UCSYDIR
 10
0.0
 20
1.0
 30
0.0
  9
$UCSORTHOREF
  2

  9
$UCSORTHOVIEW
 70
     0
  9
$UCSORGTOP
 10
0.0
 20
0.0
 30
0.0
  9
$UCSORGBOTTOM
 10
0.0
 20
0.0
 30
0.0
  9
$UCSORGLEFT
 10
0.0
 20
0.0
 30
0.0
  9
$UCSORGRIGHT
 10
0.0
 20
0.0
 30
0.0
  9
$UCSORGFRONT
 10
0.0
 20
0.0
 30
0.0
  9
$UCSORGBACK
 10
0.0
 20
0.0
 30
0.0
  9
$PUCSBASE
  2

  9
$PUCSNAME
  2

  9
$PUCSORG
 10
0.0
 20
0.0
 30
0.0
  9
$PUCSXDIR
 10
1.0
 20
0.0
 30
0.0
  9
$PUCSYDIR
 10
0.0
 20
1.0
 30
0.0
  9
$PUCSORTHOREF
  2

  9
$PUCSORTHOVIEW
 70
     0
  9
$PUCSORGTOP
 10
0.0
 20
0.0
 30
0.0
  9
$PUCSORGBOTTOM
 10
0.0
 20
0.0
 30
0.0
  9
$PUCSORGLEFT
 10
0.0
 20
0.0
 30
0.0
  9
$PUCSORGRIGHT
 10
0.0
 20
0.0
 30
0.0
  9
$PUCSORGFRONT
 10
0.0
 20
0.0
 30
0.0
  9
$PUCSORGBACK
 10
0.0
 20
0.0
 30
0.0
  9
$USERI1
 70
     0
  9
$USERI2
 70
     0
  9
$USERI3
 70
     0
  9
$USERI4
 70
     0
  9
$USERI5
 70
     0
  9
$USERR1
 40
0.0
  9
$USERR2
 40
0.0
  9
$USERR3
 40
0.0
  9
$USERR4
 40
0.0
  9
$USERR5
 40
0.0
  9
$WORLDVIEW
 70
     1
  9
$SHADEDGE
 70
     3
  9
$SHADEDIF
 70
    70
  9
$TILEMODE
 70
     1
  9
$MAXACTVP
 70
    48
  9
$PINSBASE
 10
0.0
 20
0.0
 30
0.0
  9
$PLIMCHECK
 70
     0
  9
$PEXTMIN
 10
-0.4874453695083503
 20
-3608.606190953344
 30
-0.0000000349181948
  9
$PEXTMAX
 10
9913.830025361917
 20
3046.274182619196
 30
0.0000000814935746
  9
$PLIMMIN
 10
-168.1740386119829
 20
-3776.292520834142
  9
$PLIMMAX
 10
10084.43808968229
 20
3471.848517023121
  9
$UNITMODE
 70
     0
  9
$VISRETAIN
 70
     1
  9
$PLINEGEN
 70
     0
  9
$PSLTSCALE
 70
     1
  9
$TREEDEPTH
 70
  3020
  9
$CMLSTYLE
  2
STANDARD
  9
$CMLJUST
 70
     0
  9
$CMLSCALE
 40
1.0
  9
$PROXYGRAPHICS
 70
     1
  9
$MEASUREMENT
 70
     1
  9
$CELWEIGHT
370
    -1
  9
$ENDCAPS
280
     0
  9
$JOINSTYLE
280
     0
  9
$LWDISPLAY
290
     0
  9
$INSUNITS
 70
     0
  9
$HYPERLINKBASE
  1

  9
$STYLESHEET
  1
sanwa3.ctb
  9
$XEDIT
290
     1
  9
$CEPSNTYPE
380
     0
  9
$PSTYLEMODE
290
     1
  9
$FINGERPRINTGUID
  2
{4BA597E0-62E3-477F-96B9-2E2419F0C7E8}
  9
$VERSIONGUID
  2
{CA361734-5394-46B1-B485-2C570381AB6C}
  9
$EXTNAMES
290
     1
  9
$PSVPSCALE
 40
0.0
  9
$OLESTARTUP
290
     0
  0
ENDSEC
  0
SECTION
  2
CLASSES
  0
CLASS
  1
DICTIONARYVAR
  2
AcDbDictionaryVar
  3
ObjectDBX Classes
 90
        0
280
     0
281
     0
  0
CLASS
  1
ACDBDICTIONARYWDFLT
  2
AcDbDictionaryWithDefault
  3
ObjectDBX Classes
 90
        0
280
     0
281
     0
  0
CLASS
  1
ACDBPLACEHOLDER
  2
AcDbPlaceHolder
  3
ObjectDBX Classes
 90
        0
280
     0
281
     0
  0
CLASS
  1
LAYOUT
  2
AcDbLayout
  3
ObjectDBX Classes
 90
        0
280
     0
281
     0
  0
CLASS
  1
MATERIAL
  2
AcDbMaterial
  3
ObjectDBX Classes
 90
     1153
280
     0
281
     0
  0
CLASS
  1
VISUALSTYLE
  2
AcDbVisualStyle
  3
ObjectDBX Classes
 90
     4095
280
     0
281
     0
  0
CLASS
  1
TABLESTYLE
  2
AcDbTableStyle
  3
ObjectDBX Classes
 90
     4095
280
     0
281
     0
  0
CLASS
  1
SCALE
  2
AcDbScale
  3
ObjectDBX Classes
 90
     1153
280
     0
281
     0
  0
CLASS
  1
MLEADERSTYLE
  2
AcDbMLeaderStyle
  3
ACDB_MLEADERSTYLE_CLASS
 90
     4095
280
     0
281
     0
  0
CLASS
  1
CELLSTYLEMAP
  2
AcDbCellStyleMap
  3
ObjectDBX Classes
 90
     1152
280
     0
281
     0
  0
ENDSEC
  0
SECTION
  2
TABLES
  0
TABLE
  2
VPORT
  5
746D
330
0
100
AcDbSymbolTable
 70
     1
  0
VPORT
  5
9A5C
330
746D
100
AcDbSymbolTableRecord
100
AcDbViewportTableRecord
  2
*Active
 70
     0
 10
0.0
 20
0.0
 11
1.0
 21
1.0
 12
2227.324206511576
 22
1574.985725321041
 13
0.0
 23
0.0
 14
10.0
 24
10.0
 15
10.0
 25
10.0
 16
0.0
 26
0.0
 36
1.0
 17
0.0
 27
0.0
 37
0.0
 40
3706.238140741949
 41
1.353070175438596
 42
50.0
 43
0.0
 44
0.0
 50
0.0
 51
0.0
 71
     0
 72
   100
 73
     1
 74
     0
 75
     0
 76
     0
 77
     0
 78
     0
281
     0
 65
     1
110
0.0
120
0.0
130
0.0
111
1.0
121
0.0
131
0.0
112
0.0
122
1.0
132
0.0
 79
     0
146
0.0
  0
ENDTAB
  0
TABLE
  2
LTYPE
  5
746A
330
0
100
AcDbSymbolTable
 70
     5
  0
LTYPE
  5
7477
330
746A
100
AcDbSymbolTableRecord
100
AcDbLinetypeTableRecord
  2
BYBLOCK
 70
     0
  3

 72
    65
 73
     0
 40
0.0
  0
LTYPE
  5
7478
330
746A
100
AcDbSymbolTableRecord
100
AcDbLinetypeTableRecord
  2
BYLAYER
 70
     0
  3

 72
    65
 73
     0
 40
0.0
  0
LTYPE
  5
7479
330
746A
100
AcDbSymbolTableRecord
100
AcDbLinetypeTableRecord
  2
CONTINUOUS
 70
     0
  3
Solid line
 72
    65
 73
     0
 40
0.0
  0
LTYPE
  5
7D54
330
746A
100
AcDbSymbolTableRecord
100
AcDbLinetypeTableRecord
  2
CENTER2
 70
     0
  3
Center (.5x) ___ _ ___ _ ___ _ ___ _ ___ _ ___
 72
    65
 73
     4
 40
28.575
 49
19.05
 74
     0
 49
-3.174999999999999
 74
     0
 49
3.174999999999999
 74
     0
 49
-3.174999999999999
 74
     0
  0
LTYPE
  5
7D55
330
746A
100
AcDbSymbolTableRecord
100
AcDbLinetypeTableRecord
  2
DOT
 70
     0
  3
Dot . . . . . . . . . . . . . . . . . . . . . .
 72
    65
 73
     2
 40
6.349999999999999
 49
0.0
 74
     0
 49
-6.349999999999999
 74
     0
  0
LTYPE
  5
7D56
330
746A
100
AcDbSymbolTableRecord
100
AcDbLinetypeTableRecord
  2
HIDDEN2
 70
     0
  3
Hidden (.5x) _ _ _ _ _ _ _ _ _ _ _ _ _ _ _ _ _
 72
    65
 73
     2
 40
4.762499999999999
 49
3.174999999999999
 74
     0
 49
-1.587499999999999
 74
     0
  0
LTYPE
  5
7D57
330
746A
100
AcDbSymbolTableRecord
100
AcDbLinetypeTableRecord
  2
PHANTOM2
 70
     0
  3
Phantom (.5x) ___ _ _ ___ _ _ ___ _ _ ___ _ _
 72
    65
 73
     6
 40
31.75
 49
15.875
 74
     0
 49
-3.174999999999999
 74
     0
 49
3.174999999999999
 74
     0
 49
-3.174999999999999
 74
     0
 49
3.174999999999999
 74
     0
 49
-3.174999999999999
 74
     0
  0
ENDTAB
  0
TABLE
  2
LAYER
  5
7467
330
0
100
AcDbSymbolTable
 70
     7
  0
LAYER
  5
7474
102
{ACAD_XDICTIONARY
360
9E24
102
}
330
7467
100
AcDbSymbolTableRecord
100
AcDbLayerTableRecord
  2
0
 70
     0
 62
     7
  6
CONTINUOUS
370
    -3
390
8779
  0
LAYER
  5
7485
330
7467
100
AcDbSymbolTableRecord
100
AcDbLayerTableRecord
  2
DEFPOINTS
 70
     0
 62
     7
  6
CONTINUOUS
290
     0
370
    -3
390
8779
  0
LAYER
  5
7486
102
{ACAD_XDICTIONARY
360
9E26
102
}
330
7467
100
AcDbSymbolTableRecord
100
AcDbLayerTableRecord
  2
OBJECT
 70
     0
 62
     7
  6
CONTINUOUS
370
    -3
390
8779
  0
LAYER
  5
7950
102
{ACAD_XDICTIONARY
360
9E28
102
}
330
7467
100
AcDbSymbolTableRecord
100
AcDbLayerTableRecord
  2
枠
 70
     0
 62
     3
  6
CONTINUOUS
370
    -3
390
8779
  0
LAYER
  5
7D58
102
{ACAD_XDICTIONARY
360
9E2A
102
}
330
7467
100
AcDbSymbolTableRecord
100
AcDbLayerTableRecord
  2
寸法引出
 70
     0
 62
     2
  6
CONTINUOUS
370
    -3
390
8779
  0
LAYER
  5
7D59
102
{ACAD_XDICTIONARY
360
9E2C
102
}
330
7467
100
AcDbSymbolTableRecord
100
AcDbLayerTableRecord
  2
鉄筋
 70
     0
 62
     4
  6
CONTINUOUS
370
    -3
390
8779
  0
LAYER
  5
7D5A
102
{ACAD_XDICTIONARY
360
9E2E
102
}
330
7467
100
AcDbSymbolTableRecord
100
AcDbLayerTableRecord
  2
補助線
 70
     0
 62
     6
  6
CONTINUOUS
370
    -3
390
8779
  0
ENDTAB
  0
TABLE
  2
STYLE
  5
7468
330
0
100
AcDbSymbolTable
 70
     5
  0
STYLE
  5
7475
330
7468
100
AcDbSymbolTableRecord
100
AcDbTextStyleTableRecord
  2
STANDARD
 70
     0
 40
0.0
 41
1.0
 50
0.0
 71
     0
 42
3.5
  3
txt
  4

  0
STYLE
  5
7481
330
7468
100
AcDbSymbolTableRecord
100
AcDbTextStyleTableRecord
  2
ADESK1
 70
     0
 40
0.0
 41
1.0
 50
0.0
 71
     0
 42
5.0
  3
romans
  4
bigfont
  0
STYLE
  5
7731
330
7468
100
AcDbSymbolTableRecord
100
AcDbTextStyleTableRecord
  2
SANWA
 70
     0
 40
0.0
 41
1.0
 50
0.0
 71
     0
 42
2.799999999999999
  3
MS Mincho.ttf
  4

1001
ACAD
1000
MS Mincho
1071
    32785
  0
STYLE
  5
7D45
330
7468
100
AcDbSymbolTableRecord
100
AcDbTextStyleTableRecord
  2

 70
     1
 40
0.0
 41
1.0
 50
0.0
 71
     0
 42
3.5
  3
ltypeshp.shx
  4

  0
ENDTAB
  0
TABLE
  2
VIEW
  5
746B
330
0
100
AcDbSymbolTable
 70
     0
  0
ENDTAB
  0
TABLE
  2
UCS
  5
746C
330
0
100
AcDbSymbolTable
 70
     0
  0
ENDTAB
  0
TABLE
  2
APPID
  5
746E
330
0
100
AcDbSymbolTable
 70
     3
  0
APPID
  5
7476
330
746E
100
AcDbSymbolTableRecord
100
AcDbRegAppTableRecord
  2
ACAD
 70
     0
  0
APPID
  5
9AB0
330
746E
100
AcDbSymbolTableRecord
100
AcDbRegAppTableRecord
  2
ACAD_MLEADERVER
 70
     0
  0
APPID
  5
9E4C
330
746E
100
AcDbSymbolTableRecord
100
AcDbRegAppTableRecord
  2
ACAD_PSEXT
 70
     0
  0
ENDTAB
  0
TABLE
  2
DIMSTYLE
  5
746F
330
0
100
AcDbSymbolTable
 70
     5
100
AcDbDimStyleTable
 71
     1
340
796F
  0
DIMSTYLE
105
7484
330
746F
100
AcDbSymbolTableRecord
100
AcDbDimStyleTableRecord
  2
JIS
 70
     0
 41
2.5
 42
1.0
 43
7.0
 44
1.0
 73
     0
 74
     0
 77
     1
 78
     8
140
2.5
141
0.0
143
0.0394
147
0.0
172
     1
174
     1
176
     2
177
     2
178
     2
340
7731
  0
DIMSTYLE
105
796F
102
{ACAD_REACTORS
330
9013
330
8F58
330
8F59
330
8F5C
330
8F5D
330
8F5E
330
8F5F
330
8F61
330
8FBC
330
8FBD
330
8FC2
330
8FC3
330
8FC5
330
8FC6
330
8FC7
330
8FC8
330
8FCC
330
8FCE
330
8FCF
330
8FD0
330
8FD2
330
8FD6
330
8FD7
330
8FD8
330
8FDD
330
8FE5
330
8FF6
330
8FF9
330
8FFA
330
8FFF
330
9007
330
9009
102
}
330
746F
100
AcDbSymbolTableRecord
100
AcDbDimStyleTableRecord
  2
SANWA
 70
     0
 41
2.5
 42
1.0
 43
7.0
 44
1.0
 73
     0
 74
     0
 77
     1
 78
     8
140
2.5
141
0.0
143
0.0394
147
0.0
172
     1
174
     1
176
     2
177
     2
178
     2
340
7731
  0
DIMSTYLE
105
7C9D
330
746F
100
AcDbSymbolTableRecord
100
AcDbDimStyleTableRecord
  2
SANWA$4
 70
     0
 41
2.5
 42
1.0
 43
5.0
 44
1.0
 73
     0
 74
     0
 77
     1
 78
     8
140
2.5
141
0.0
143
0.0394
147
1.0
172
     1
174
     1
176
     2
177
     2
178
     2
289
     2
340
7731
  0
DIMSTYLE
105
7CB5
330
746F
100
AcDbSymbolTableRecord
100
AcDbDimStyleTableRecord
  2
SANWA$3
 70
     0
 41
2.5
 42
1.0
 43
7.0
 44
1.0
 73
     0
 74
     0
 77
     1
 78
     8
140
2.5
141
0.0
143
0.0394
147
0.0
172
     1
174
     1
176
     2
177
     2
178
     2
289
     0
340
7731
  0
ENDTAB
  0
TABLE
  2
BLOCK_RECORD
  5
7466
330
0
100
AcDbSymbolTable
 70
   290
  0
BLOCK_RECORD
  5
747D
330
7466
100
AcDbSymbolTableRecord
100
AcDbBlockTableRecord
  2
*MODEL_SPACE
340
877C
  0
BLOCK_RECORD
  5
747A
330
7466
100
AcDbSymbolTableRecord
100
AcDbBlockTableRecord
  2
*PAPER_SPACE
340
877D
  0
BLOCK_RECORD
  5
7493
330
7466
100
AcDbSymbolTableRecord
100
AcDbBlockTableRecord
  2
TITLE_BLOCK
340
0
  0
BLOCK_RECORD
  5
9264
330
7466
100
AcDbSymbolTableRecord
100
AcDbBlockTableRecord
  2
*D193
340
0
  0
BLOCK_RECORD
  5
926F
330
7466
100
AcDbSymbolTableRecord
100
AcDbBlockTableRecord
  2
*D194
340
0
  0
BLOCK_RECORD
  5
927A
330
7466
100
AcDbSymbolTableRecord
100
AcDbBlockTableRecord
  2
*D195
340
0
  0
BLOCK_RECORD
  5
9286
330
7466
100
AcDbSymbolTableRecord
100
AcDbBlockTableRecord
  2
*D196
340
0
  0
BLOCK_RECORD
  5
9293
330
7466
100
AcDbSymbolTableRecord
100
AcDbBlockTableRecord
  2
*D197
340
0
  0
BLOCK_RECORD
  5
929F
330
7466
100
AcDbSymbolTableRecord
100
AcDbBlockTableRecord
  2
*D198
340
0
  0
BLOCK_RECORD
  5
92AA
330
7466
100
AcDbSymbolTableRecord
100
AcDbBlockTableRecord
  2
*D199
340
0
  0
BLOCK_RECORD
  5
92B6
330
7466
100
AcDbSymbolTableRecord
100
AcDbBlockTableRecord
  2
*D200
340
0
  0
BLOCK_RECORD
  5
92C2
330
7466
100
AcDbSymbolTableRecord
100
AcDbBlockTableRecord
  2
*D201
340
0
  0
BLOCK_RECORD
  5
92CE
330
7466
100
AcDbSymbolTableRecord
100
AcDbBlockTableRecord
  2
*D202
340
0
  0
BLOCK_RECORD
  5
92D9
330
7466
100
AcDbSymbolTableRecord
100
AcDbBlockTableRecord
  2
*D203
340
0
  0
BLOCK_RECORD
  5
92E7
330
7466
100
AcDbSymbolTableRecord
100
AcDbBlockTableRecord
  2
*D204
340
0
  0
BLOCK_RECORD
  5
92F4
330
7466
100
AcDbSymbolTableRecord
100
AcDbBlockTableRecord
  2
*D205
340
0
  0
BLOCK_RECORD
  5
92FF
330
7466
100
AcDbSymbolTableRecord
100
AcDbBlockTableRecord
  2
*D206
340
0
  0
BLOCK_RECORD
  5
930B
330
7466
100
AcDbSymbolTableRecord
100
AcDbBlockTableRecord
  2
*D207
340
0
  0
BLOCK_RECORD
  5
9317
330
7466
100
AcDbSymbolTableRecord
100
AcDbBlockTableRecord
  2
*D208
340
0
  0
BLOCK_RECORD
  5
9325
330
7466
100
AcDbSymbolTableRecord
100
AcDbBlockTableRecord
  2
*D209
340
0
  0
BLOCK_RECORD
  5
9331
330
7466
100
AcDbSymbolTableRecord
100
AcDbBlockTableRecord
  2
*D210
340
0
  0
BLOCK_RECORD
  5
933C
330
7466
100
AcDbSymbolTableRecord
100
AcDbBlockTableRecord
  2
*D211
340
0
  0
BLOCK_RECORD
  5
9348
330
7466
100
AcDbSymbolTableRecord
100
AcDbBlockTableRecord
  2
*D212
340
0
  0
BLOCK_RECORD
  5
9353
330
7466
100
AcDbSymbolTableRecord
100
AcDbBlockTableRecord
  2
*D213
340
0
  0
BLOCK_RECORD
  5
935E
330
7466
100
AcDbSymbolTableRecord
100
AcDbBlockTableRecord
  2
*D214
340
0
  0
BLOCK_RECORD
  5
936A
330
7466
100
AcDbSymbolTableRecord
100
AcDbBlockTableRecord
  2
*D215
340
0
  0
BLOCK_RECORD
  5
9376
330
7466
100
AcDbSymbolTableRecord
100
AcDbBlockTableRecord
  2
*D216
340
0
  0
BLOCK_RECORD
  5
9383
330
7466
100
AcDbSymbolTableRecord
100
AcDbBlockTableRecord
  2
*D217
340
0
  0
BLOCK_RECORD
  5
938F
330
7466
100
AcDbSymbolTableRecord
100
AcDbBlockTableRecord
  2
*D218
340
0
  0
BLOCK_RECORD
  5
939D
330
7466
100
AcDbSymbolTableRecord
100
AcDbBlockTableRecord
  2
*D219
340
0
  0
BLOCK_RECORD
  5
93AB
330
7466
100
AcDbSymbolTableRecord
100
AcDbBlockTableRecord
  2
*D220
340
0
  0
BLOCK_RECORD
  5
93B7
330
7466
100
AcDbSymbolTableRecord
100
AcDbBlockTableRecord
  2
*D221
340
0
  0
BLOCK_RECORD
  5
93C3
330
7466
100
AcDbSymbolTableRecord
100
AcDbBlockTableRecord
  2
*D222
340
0
  0
BLOCK_RECORD
  5
93D0
330
7466
100
AcDbSymbolTableRecord
100
AcDbBlockTableRecord
  2
*D223
340
0
  0
BLOCK_RECORD
  5
93DC
330
7466
100
AcDbSymbolTableRecord
100
AcDbBlockTableRecord
  2
*D224
340
0
  0
BLOCK_RECORD
  5
93EA
330
7466
100
AcDbSymbolTableRecord
100
AcDbBlockTableRecord
  2
*D225
340
0
  0
BLOCK_RECORD
  5
93F7
330
7466
100
AcDbSymbolTableRecord
100
AcDbBlockTableRecord
  2
*D226
340
0
  0
BLOCK_RECORD
  5
9403
330
7466
100
AcDbSymbolTableRecord
100
AcDbBlockTableRecord
  2
*D227
340
0
  0
BLOCK_RECORD
  5
940F
330
7466
100
AcDbSymbolTableRecord
100
AcDbBlockTableRecord
  2
*D228
340
0
  0
BLOCK_RECORD
  5
941A
330
7466
100
AcDbSymbolTableRecord
100
AcDbBlockTableRecord
  2
*D229
340
0
  0
BLOCK_RECORD
  5
9426
330
7466
100
AcDbSymbolTableRecord
100
AcDbBlockTableRecord
  2
*D230
340
0
  0
BLOCK_RECORD
  5
9432
330
7466
100
AcDbSymbolTableRecord
100
AcDbBlockTableRecord
  2
*D231
340
0
  0
BLOCK_RECORD
  5
943E
330
7466
100
AcDbSymbolTableRecord
100
AcDbBlockTableRecord
  2
*D232
340
0
  0
BLOCK_RECORD
  5
9449
330
7466
100
AcDbSymbolTableRecord
100
AcDbBlockTableRecord
  2
*D233
340
0
  0
BLOCK_RECORD
  5
9457
330
7466
100
AcDbSymbolTableRecord
100
AcDbBlockTableRecord
  2
*D234
340
0
  0
BLOCK_RECORD
  5
9463
330
7466
100
AcDbSymbolTableRecord
100
AcDbBlockTableRecord
  2
*D235
340
0
  0
BLOCK_RECORD
  5
946F
330
7466
100
AcDbSymbolTableRecord
100
AcDbBlockTableRecord
  2
*D236
340
0
  0
BLOCK_RECORD
  5
947A
330
7466
100
AcDbSymbolTableRecord
100
AcDbBlockTableRecord
  2
*D237
340
0
  0
BLOCK_RECORD
  5
9486
330
7466
100
AcDbSymbolTableRecord
100
AcDbBlockTableRecord
  2
*D238
340
0
  0
BLOCK_RECORD
  5
9494
330
7466
100
AcDbSymbolTableRecord
100
AcDbBlockTableRecord
  2
*D239
340
0
  0
BLOCK_RECORD
  5
94A2
330
7466
100
AcDbSymbolTableRecord
100
AcDbBlockTableRecord
  2
*D240
340
0
  0
BLOCK_RECORD
  5
94AF
330
7466
100
AcDbSymbolTableRecord
100
AcDbBlockTableRecord
  2
*D241
340
0
  0
BLOCK_RECORD
  5
94BB
330
7466
100
AcDbSymbolTableRecord
100
AcDbBlockTableRecord
  2
*D242
340
0
  0
BLOCK_RECORD
  5
94C6
330
7466
100
AcDbSymbolTableRecord
100
AcDbBlockTableRecord
  2
*D243
340
0
  0
BLOCK_RECORD
  5
94D1
330
7466
100
AcDbSymbolTableRecord
100
AcDbBlockTableRecord
  2
*D244
340
0
  0
BLOCK_RECORD
  5
94DD
330
7466
100
AcDbSymbolTableRecord
100
AcDbBlockTableRecord
  2
*D245
340
0
  0
BLOCK_RECORD
  5
94E9
330
7466
100
AcDbSymbolTableRecord
100
AcDbBlockTableRecord
  2
*D246
340
0
  0
BLOCK_RECORD
  5
94F4
330
7466
100
AcDbSymbolTableRecord
100
AcDbBlockTableRecord
  2
*D247
340
0
  0
BLOCK_RECORD
  5
9500
330
7466
100
AcDbSymbolTableRecord
100
AcDbBlockTableRecord
  2
*D248
340
0
  0
BLOCK_RECORD
  5
950D
330
7466
100
AcDbSymbolTableRecord
100
AcDbBlockTableRecord
  2
*D249
340
0
  0
BLOCK_RECORD
  5
9518
330
7466
100
AcDbSymbolTableRecord
100
AcDbBlockTableRecord
  2
*D250
340
0
  0
BLOCK_RECORD
  5
9524
330
7466
100
AcDbSymbolTableRecord
100
AcDbBlockTableRecord
  2
*D251
340
0
  0
BLOCK_RECORD
  5
952F
330
7466
100
AcDbSymbolTableRecord
100
AcDbBlockTableRecord
  2
*D252
340
0
  0
BLOCK_RECORD
  5
953A
330
7466
100
AcDbSymbolTableRecord
100
AcDbBlockTableRecord
  2
*D253
340
0
  0
BLOCK_RECORD
  5
9546
330
7466
100
AcDbSymbolTableRecord
100
AcDbBlockTableRecord
  2
*D254
340
0
  0
BLOCK_RECORD
  5
9552
330
7466
100
AcDbSymbolTableRecord
100
AcDbBlockTableRecord
  2
*D255
340
0
  0
BLOCK_RECORD
  5
955D
330
7466
100
AcDbSymbolTableRecord
100
AcDbBlockTableRecord
  2
*D256
340
0
  0
BLOCK_RECORD
  5
956A
330
7466
100
AcDbSymbolTableRecord
100
AcDbBlockTableRecord
  2
*D257
340
0
  0
BLOCK_RECORD
  5
9575
330
7466
100
AcDbSymbolTableRecord
100
AcDbBlockTableRecord
  2
*D258
340
0
  0
BLOCK_RECORD
  5
9580
330
7466
100
AcDbSymbolTableRecord
100
AcDbBlockTableRecord
  2
*D259
340
0
  0
BLOCK_RECORD
  5
958C
330
7466
100
AcDbSymbolTableRecord
100
AcDbBlockTableRecord
  2
*D260
340
0
  0
BLOCK_RECORD
  5
9598
330
7466
100
AcDbSymbolTableRecord
100
AcDbBlockTableRecord
  2
*D261
340
0
  0
BLOCK_RECORD
  5
95A4
330
7466
100
AcDbSymbolTableRecord
100
AcDbBlockTableRecord
  2
*D262
340
0
  0
BLOCK_RECORD
  5
95B2
330
7466
100
AcDbSymbolTableRecord
100
AcDbBlockTableRecord
  2
*D263
340
0
  0
BLOCK_RECORD
  5
95BD
330
7466
100
AcDbSymbolTableRecord
100
AcDbBlockTableRecord
  2
*D264
340
0
  0
BLOCK_RECORD
  5
95CA
330
7466
100
AcDbSymbolTableRecord
100
AcDbBlockTableRecord
  2
*D265
340
0
  0
BLOCK_RECORD
  5
95D6
330
7466
100
AcDbSymbolTableRecord
100
AcDbBlockTableRecord
  2
*D266
340
0
  0
BLOCK_RECORD
  5
95E1
330
7466
100
AcDbSymbolTableRecord
100
AcDbBlockTableRecord
  2
*D267
340
0
  0
BLOCK_RECORD
  5
95EE
330
7466
100
AcDbSymbolTableRecord
100
AcDbBlockTableRecord
  2
*D268
340
0
  0
BLOCK_RECORD
  5
95F9
330
7466
100
AcDbSymbolTableRecord
100
AcDbBlockTableRecord
  2
*D269
340
0
  0
BLOCK_RECORD
  5
9606
330
7466
100
AcDbSymbolTableRecord
100
AcDbBlockTableRecord
  2
*D270
340
0
  0
BLOCK_RECORD
  5
9612
330
7466
100
AcDbSymbolTableRecord
100
AcDbBlockTableRecord
  2
*D271
340
0
  0
BLOCK_RECORD
  5
961E
330
7466
100
AcDbSymbolTableRecord
100
AcDbBlockTableRecord
  2
*D272
340
0
  0
BLOCK_RECORD
  5
962B
330
7466
100
AcDbSymbolTableRecord
100
AcDbBlockTableRecord
  2
*D273
340
0
  0
BLOCK_RECORD
  5
9636
330
7466
100
AcDbSymbolTableRecord
100
AcDbBlockTableRecord
  2
*D274
340
0
  0
BLOCK_RECORD
  5
9641
330
7466
100
AcDbSymbolTableRecord
100
AcDbBlockTableRecord
  2
*D275
340
0
  0
BLOCK_RECORD
  5
964D
330
7466
100
AcDbSymbolTableRecord
100
AcDbBlockTableRecord
  2
*D276
340
0
  0
BLOCK_RECORD
  5
9659
330
7466
100
AcDbSymbolTableRecord
100
AcDbBlockTableRecord
  2
*D277
340
0
  0
BLOCK_RECORD
  5
9667
330
7466
100
AcDbSymbolTableRecord
100
AcDbBlockTableRecord
  2
*D278
340
0
  0
BLOCK_RECORD
  5
9673
330
7466
100
AcDbSymbolTableRecord
100
AcDbBlockTableRecord
  2
*D279
340
0
  0
BLOCK_RECORD
  5
967F
330
7466
100
AcDbSymbolTableRecord
100
AcDbBlockTableRecord
  2
*D280
340
0
  0
BLOCK_RECORD
  5
968D
330
7466
100
AcDbSymbolTableRecord
100
AcDbBlockTableRecord
  2
*D281
340
0
  0
BLOCK_RECORD
  5
9699
330
7466
100
AcDbSymbolTableRecord
100
AcDbBlockTableRecord
  2
*D282
340
0
  0
BLOCK_RECORD
  5
96A5
330
7466
100
AcDbSymbolTableRecord
100
AcDbBlockTableRecord
  2
*D283
340
0
  0
BLOCK_RECORD
  5
96B3
330
7466
100
AcDbSymbolTableRecord
100
AcDbBlockTableRecord
  2
*D284
340
0
  0
BLOCK_RECORD
  5
96BF
330
7466
100
AcDbSymbolTableRecord
100
AcDbBlockTableRecord
  2
*D285
340
0
  0
BLOCK_RECORD
  5
96CD
330
7466
100
AcDbSymbolTableRecord
100
AcDbBlockTableRecord
  2
*D286
340
0
  0
BLOCK_RECORD
  5
96D9
330
7466
100
AcDbSymbolTableRecord
100
AcDbBlockTableRecord
  2
*D287
340
0
  0
BLOCK_RECORD
  5
96E5
330
7466
100
AcDbSymbolTableRecord
100
AcDbBlockTableRecord
  2
*D288
340
0
  0
ENDTAB
  0
ENDSEC
  0
SECTION
  2
BLOCKS
  0
BLOCK
  5
7489
330
747D
100
AcDbEntity
  8
0
100
AcDbBlockBegin
  2
*MODEL_SPACE
 70
     0
 10
0.0
 20
0.0
 30
0.0
  3
*MODEL_SPACE
  1

  0
ENDBLK
  5
748A
330
747D
100
AcDbEntity
  8
0
100
AcDbBlockEnd
  0
BLOCK
  5
7487
330
747A
100
AcDbEntity
 67
     1
  8
0
100
AcDbBlockBegin
  2
*PAPER_SPACE
 70
     2
 10
0.0
 20
0.0
 30
0.0
  3
*PAPER_SPACE
  1

  0
ENDBLK
  5
7488
330
747A
100
AcDbEntity
 67
     1
  8
0
100
AcDbBlockEnd
  0
BLOCK
  5
7494
330
7493
100
AcDbEntity
  8
0
100
AcDbBlockBegin
  2
TITLE_BLOCK
 70
     2
 10
0.0
 20
0.0
 30
0.0
  3
TITLE_BLOCK
  1

  0
LINE
  5
7495
330
7493
100
AcDbEntity
  8
0
 62
     0
100
AcDbLine
 10
402.7943262411347
 20
16.00000000000008
 30
0.0
 11
410.0
 21
16.00000000000008
 31
0.0
  0
LINE
  5
7496
330
7493
100
AcDbEntity
  8
0
 62
     0
100
AcDbLine
 10
410.0
 20
10.0
 30
0.0
 11
410.0
 21
49.00000000000036
 31
0.0
  0
LINE
  5
7497
330
7493
100
AcDbEntity
  8
0
 62
     0
100
AcDbLine
 10
410.0
 20
49.00000000000036
 30
0.0
 11
410.0
 21
10.0
 31
0.0
  0
LINE
  5
7498
330
7493
100
AcDbEntity
  8
0
 62
     0
100
AcDbLine
 10
402.7943262411347
 20
22.00000000000012
 30
0.0
 11
402.7943262411347
 21
10.0
 31
0.0
  0
LINE
  5
7499
330
7493
100
AcDbEntity
  8
0
 62
     0
100
AcDbLine
 10
336.1418439716306
 20
49.00000000000036
 30
0.0
 11
336.1418439716306
 21
22.00000000000012
 31
0.0
  0
LINE
  5
749A
330
7493
100
AcDbEntity
  8
0
 62
     0
100
AcDbLine
 10
325.3333333333326
 20
37.00000000000024
 30
0.0
 11
325.3333333333326
 21
25.00000000000012
 31
0.0
  0
LINE
  5
749B
330
7493
100
AcDbEntity
  8
0
 62
     0
100
AcDbLine
 10
318.1276595744673
 20
49.00000000000036
 30
0.0
 11
318.1276595744673
 21
25.00000000000012
 31
0.0
  0
LINE
  5
749C
330
7493
100
AcDbEntity
  8
0
 62
     0
100
AcDbLine
 10
318.1276595744673
 20
25.00000000000012
 30
0.0
 11
348.7517730496447
 21
25.00000000000012
 31
0.0
  0
LINE
  5
749D
330
7493
100
AcDbEntity
  8
0
 62
     0
100
AcDbLine
 10
280.2978723404242
 20
28.00000000000016
 30
0.0
 11
348.7517730496447
 21
28.00000000000016
 31
0.0
  0
LINE
  5
749E
330
7493
100
AcDbEntity
  8
0
 62
     0
100
AcDbLine
 10
280.2978723404242
 20
31.0000000000002
 30
0.0
 11
348.7517730496447
 21
31.0000000000002
 31
0.0
  0
LINE
  5
749F
330
7493
100
AcDbEntity
  8
0
 62
     0
100
AcDbLine
 10
280.2978723404242
 20
34.00000000000024
 30
0.0
 11
348.7517730496447
 21
34.00000000000024
 31
0.0
  0
LINE
  5
74A0
330
7493
100
AcDbEntity
  8
0
 62
     0
100
AcDbLine
 10
280.2978723404242
 20
19.00000000000008
 30
0.0
 11
318.1276595744673
 21
19.00000000000012
 31
0.0
  0
LINE
  5
74A1
330
7493
100
AcDbEntity
  8
0
 62
     0
100
AcDbLine
 10
280.2978723404242
 20
22.00000000000008
 30
0.0
 11
318.1276595744673
 21
22.00000000000012
 31
0.0
  0
LINE
  5
74A2
330
7493
100
AcDbEntity
  8
0
 62
     0
100
AcDbLine
 10
280.2978723404242
 20
25.00000000000012
 30
0.0
 11
318.1276595744673
 21
25.00000000000012
 31
0.0
  0
TEXT
  5
74A3
330
7493
100
AcDbEntity
  8
0
 62
     0
100
AcDbText
 10
342.2447163844405
 20
10.55220101068186
 30
0.0
 40
1.791674070777747
  1
照査
  7
ADESK1
 72
     1
 11
344.1558353932701
 21
10.55220101068186
 31
0.0
100
AcDbText
  0
TEXT
  5
74A4
330
7493
100
AcDbEntity
  8
0
 62
     0
100
AcDbText
 10
332.2960689314087
 20
10.48329012996929
 30
0.0
 40
1.791674070777747
  1
設計
  7
ADESK1
 72
     1
 11
334.2071879402383
 21
10.48329012996929
 31
0.0
100
AcDbText
  0
TEXT
  5
74A5
330
7493
100
AcDbEntity
  8
0
 62
     0
100
AcDbText
 10
321.7174935280942
 20
10.48329012996929
 30
0.0
 40
1.791674070777747
  1
製図
  7
ADESK1
 72
     1
 11
323.5688900678979
 21
10.48329012996929
 31
0.0
100
AcDbText
  0
LINE
  5
74A6
330
7493
100
AcDbEntity
  8
0
 62
     0
100
AcDbLine
 10
280.2978723404242
 20
10.0
 30
0.0
 11
280.2978723404242
 21
13.00000000000004
 31
0.0
  0
LINE
  5
74A7
330
7493
100
AcDbEntity
  8
0
 62
     0
100
AcDbLine
 10
280.2978723404242
 20
16.00000000000008
 30
0.0
 11
318.1276595744673
 21
16.00000000000008
 31
0.0
  0
LINE
  5
74A8
330
7493
100
AcDbEntity
  8
0
 62
     0
100
AcDbLine
 10
339.4042553191484
 20
22.00000000000008
 30
0.0
 11
339.4042553191484
 21
10.0
 31
0.0
  0
LINE
  5
74A9
330
7493
100
AcDbEntity
  8
0
 62
     0
100
AcDbLine
 10
328.7659574468078
 20
22.00000000000008
 30
0.0
 11
328.7659574468078
 21
10.0
 31
0.0
  0
LINE
  5
74AA
330
7493
100
AcDbEntity
  8
0
 62
     0
100
AcDbLine
 10
348.7517730496447
 20
49.00000000000036
 30
0.0
 11
348.7517730496447
 21
10.0
 31
0.0
  0
LINE
  5
74AB
330
7493
100
AcDbEntity
  8
0
 62
     0
100
AcDbLine
 10
280.2978723404242
 20
49.00000000000036
 30
0.0
 11
280.2978723404242
 21
10.0
 31
0.0
  0
LINE
  5
74AC
330
7493
100
AcDbEntity
  8
0
 62
     0
100
AcDbLine
 10
318.1276595744673
 20
25.00000000000012
 30
0.0
 11
318.1276595744673
 21
10.0
 31
0.0
  0
LINE
  5
74AD
330
7493
100
AcDbEntity
  8
0
 62
     0
100
AcDbLine
 10
312.7234042553184
 20
37.00000000000024
 30
0.0
 11
312.7234042553184
 21
10.0
 31
0.0
  0
LINE
  5
74AE
330
7493
100
AcDbEntity
  8
0
 62
     0
100
AcDbLine
 10
285.7021276595731
 20
37.00000000000024
 30
0.0
 11
285.7021276595731
 21
10.0
 31
0.0
  0
LINE
  5
74AF
330
7493
100
AcDbEntity
  8
0
 62
     0
100
AcDbLine
 10
303.7163120567366
 20
37.00000000000024
 30
0.0
 11
303.7163120567366
 21
10.0
 31
0.0
  0
LINE
  5
74B0
330
7493
100
AcDbEntity
  8
0
 62
     0
100
AcDbLine
 10
410.0
 20
49.00000000000036
 30
0.0
 11
280.2978723404242
 21
49.00000000000036
 31
0.0
  0
LINE
  5
74B1
330
7493
100
AcDbEntity
  8
0
 62
     0
100
AcDbLine
 10
280.2978723404242
 20
10.0
 30
0.0
 11
410.0
 21
10.0
 31
0.0
  0
LINE
  5
74B2
330
7493
100
AcDbEntity
  8
0
 62
     0
100
AcDbLine
 10
318.1276595744673
 20
22.00000000000012
 30
0.0
 11
410.0
 21
22.00000000000012
 31
0.0
  0
LINE
  5
74B3
330
7493
100
AcDbEntity
  8
0
 62
     0
100
AcDbLine
 10
280.2978723404242
 20
37.00000000000024
 30
0.0
 11
410.0
 21
37.00000000000024
 31
0.0
  0
LINE
  5
74B4
330
7493
100
AcDbEntity
  8
0
 62
     0
100
AcDbLine
 10
280.2978723404242
 20
13.00000000000004
 30
0.0
 11
410.0
 21
13.00000000000004
 31
0.0
  0
LINE
  5
74B5
330
7493
100
AcDbEntity
  8
0
 62
     0
100
AcDbLine
 10
280.2978723404242
 20
49.00000000000036
 30
0.0
 11
410.0
 21
49.00000000000036
 31
0.0
  0
TEXT
  5
74B6
330
7493
100
AcDbEntity
  8
0
100
AcDbText
 10
411.3708251683467
 20
33.08333333333334
 30
0.0
 40
3.0
  1
F
  7
ADESK1
 72
     1
 11
412.8708251683468
 21
33.08333333333334
 31
0.0
100
AcDbText
  0
TEXT
  5
74B7
330
7493
100
AcDbEntity
  8
0
100
AcDbText
 10
411.3708251683467
 20
79.25
 30
0.0
 40
3.0
  1
E
  7
ADESK1
 72
     1
 11
412.8708251683468
 21
79.25
 31
0.0
100
AcDbText
  0
TEXT
  5
74B8
330
7493
100
AcDbEntity
  8
0
100
AcDbText
 10
411.2993965969182
 20
125.4166666666666
 30
0.0
 40
3.0
  1
D
  7
ADESK1
 72
     1
 11
412.8708251683468
 21
125.4166666666666
 31
0.0
100
AcDbText
  0
TEXT
  5
74B9
330
7493
100
AcDbEntity
  8
0
100
AcDbText
 10
411.3708251683467
 20
171.5833333333333
 30
0.0
 40
3.0
  1
C
  7
ADESK1
 72
     1
 11
412.8708251683468
 21
171.5833333333333
 31
0.0
100
AcDbText
  0
TEXT
  5
74BA
330
7493
100
AcDbEntity
  8
0
100
AcDbText
 10
411.2993965969182
 20
217.75
 30
0.0
 40
3.0
  1
B
  7
ADESK1
 72
     1
 11
412.8708251683468
 21
217.75
 31
0.0
100
AcDbText
  0
TEXT
  5
74BB
330
7493
100
AcDbEntity
  8
0
100
AcDbText
 10
411.5851108826324
 20
263.9166666666666
 30
0.0
 40
3.0
  1
A
  7
ADESK1
 72
     1
 11
412.8708251683468
 21
263.9166666666666
 31
0.0
100
AcDbText
  0
TEXT
  5
74BC
330
7493
100
AcDbEntity
  8
0
100
AcDbText
 10
384.5089285714286
 20
6.019997240728748
 30
0.0
 40
3.0
  1
8
  7
ADESK1
 72
     1
 11
385.9375
 21
6.019997240728748
 31
0.0
100
AcDbText
  0
TEXT
  5
74BD
330
7493
100
AcDbEntity
  8
0
100
AcDbText
 10
336.3839285714286
 20
6.019997240728748
 30
0.0
 40
3.0
  1
7
  7
ADESK1
 72
     1
 11
337.8125
 21
6.019997240728748
 31
0.0
100
AcDbText
  0
TEXT
  5
74BE
330
7493
100
AcDbEntity
  8
0
100
AcDbText
 10
288.1875
 20
6.019997240728748
 30
0.0
 40
3.0
  1
6
  7
ADESK1
 72
     1
 11
289.6875
 21
6.019997240728748
 31
0.0
100
AcDbText
  0
TEXT
  5
74BF
330
7493
100
AcDbEntity
  8
0
100
AcDbText
 10
240.1339285714286
 20
6.019997240728748
 30
0.0
 40
3.0
  1
5
  7
ADESK1
 72
     1
 11
241.5625
 21
6.019997240728748
 31
0.0
100
AcDbText
  0
TEXT
  5
74C0
330
7493
100
AcDbEntity
  8
0
100
AcDbText
 10
191.9375
 20
6.019997240728748
 30
0.0
 40
3.0
  1
4
  7
ADESK1
 72
     1
 11
193.4375
 21
6.019997240728748
 31
0.0
100
AcDbText
  0
TEXT
  5
74C1
330
7493
100
AcDbEntity
  8
0
100
AcDbText
 10
143.8839285714285
 20
6.019997240728748
 30
0.0
 40
3.0
  1
3
  7
ADESK1
 72
     1
 11
145.3125
 21
6.019997240728748
 31
0.0
100
AcDbText
  0
TEXT
  5
74C2
330
7493
100
AcDbEntity
  8
0
100
AcDbText
 10
95.75892857142857
 20
6.019997240728748
 30
0.0
 40
3.0
  1
2
  7
ADESK1
 72
     1
 11
97.1875
 21
6.019997240728748
 31
0.0
100
AcDbText
  0
TEXT
  5
74C3
330
7493
100
AcDbEntity
  8
0
100
AcDbText
 10
47.84821428571429
 20
6.019997240728748
 30
0.0
 40
3.0
  1
1
  7
ADESK1
 72
     1
 11
49.0625
 21
6.019997240728748
 31
0.0
100
AcDbText
  0
TEXT
  5
74C4
330
7493
100
AcDbEntity
  8
0
100
AcDbText
 10
21.1071613595339
 20
33.08333333333334
 30
0.0
 40
3.0
  1
F
  7
ADESK1
 72
     1
 11
22.6071613595339
 21
33.08333333333334
 31
0.0
100
AcDbText
  0
TEXT
  5
74C5
330
7493
100
AcDbEntity
  8
0
100
AcDbText
 10
21.1071613595339
 20
79.25
 30
0.0
 40
3.0
  1
E
  7
ADESK1
 72
     1
 11
22.6071613595339
 21
79.25
 31
0.0
100
AcDbText
  0
TEXT
  5
74C6
330
7493
100
AcDbEntity
  8
0
100
AcDbText
 10
21.03573278810533
 20
125.4166666666666
 30
0.0
 40
3.0
  1
D
  7
ADESK1
 72
     1
 11
22.6071613595339
 21
125.4166666666666
 31
0.0
100
AcDbText
  0
TEXT
  5
74C7
330
7493
100
AcDbEntity
  8
0
100
AcDbText
 10
21.1071613595339
 20
171.5833333333333
 30
0.0
 40
3.0
  1
C
  7
ADESK1
 72
     1
 11
22.6071613595339
 21
171.5833333333333
 31
0.0
100
AcDbText
  0
TEXT
  5
74C8
330
7493
100
AcDbEntity
  8
0
100
AcDbText
 10
21.03573278810533
 20
217.75
 30
0.0
 40
3.0
  1
B
  7
ADESK1
 72
     1
 11
22.6071613595339
 21
217.75
 31
0.0
100
AcDbText
  0
TEXT
  5
74C9
330
7493
100
AcDbEntity
  8
0
100
AcDbText
 10
384.5089285714286
 20
288.0
 30
0.0
 40
3.0
  1
8
  7
ADESK1
 72
     1
 11
385.9375
 21
288.0
 31
0.0
100
AcDbText
  0
TEXT
  5
74CA
330
7493
100
AcDbEntity
  8
0
100
AcDbText
 10
336.3839285714286
 20
288.0
 30
0.0
 40
3.0
  1
7
  7
ADESK1
 72
     1
 11
337.8125
 21
288.0
 31
0.0
100
AcDbText
  0
TEXT
  5
74CB
330
7493
100
AcDbEntity
  8
0
100
AcDbText
 10
288.1875
 20
288.0
 30
0.0
 40
3.0
  1
6
  7
ADESK1
 72
     1
 11
289.6875
 21
288.0
 31
0.0
100
AcDbText
  0
TEXT
  5
74CC
330
7493
100
AcDbEntity
  8
0
100
AcDbText
 10
240.1339285714286
 20
288.0
 30
0.0
 40
3.0
  1
5
  7
ADESK1
 72
     1
 11
241.5625
 21
288.0
 31
0.0
100
AcDbText
  0
TEXT
  5
74CD
330
7493
100
AcDbEntity
  8
0
100
AcDbText
 10
191.9375
 20
288.0
 30
0.0
 40
3.0
  1
4
  7
ADESK1
 72
     1
 11
193.4375
 21
288.0
 31
0.0
100
AcDbText
  0
TEXT
  5
74CE
330
7493
100
AcDbEntity
  8
0
100
AcDbText
 10
143.8839285714285
 20
288.0
 30
0.0
 40
3.0
  1
3
  7
ADESK1
 72
     1
 11
145.3125
 21
288.0
 31
0.0
100
AcDbText
  0
TEXT
  5
74CF
330
7493
100
AcDbEntity
  8
0
100
AcDbText
 10
95.75892857142857
 20
288.0
 30
0.0
 40
3.0
  1
2
  7
ADESK1
 72
     1
 11
97.1875
 21
288.0
 31
0.0
100
AcDbText
  0
TEXT
  5
74D0
330
7493
100
AcDbEntity
  8
0
100
AcDbText
 10
21.32144707381961
 20
263.9166666666666
 30
0.0
 40
3.0
  1
A
  7
ADESK1
 72
     1
 11
22.6071613595339
 21
263.9166666666666
 31
0.0
100
AcDbText
  0
TEXT
  5
74D1
330
7493
100
AcDbEntity
  8
0
100
AcDbText
 10
47.84821428571429
 20
288.0
 30
0.0
 40
3.0
  1
1
  7
ADESK1
 72
     1
 11
49.0625
 21
288.0
 31
0.0
100
AcDbText
  0
LINE
  5
74D2
330
7493
100
AcDbEntity
  8
0
100
AcDbLine
 10
73.125
 20
287.0
 30
0.0
 11
73.125
 21
292.0
 31
0.0
  0
LINE
  5
74D3
330
7493
100
AcDbEntity
  8
0
100
AcDbLine
 10
121.25
 20
287.0
 30
0.0
 11
121.25
 21
292.0
 31
0.0
  0
LINE
  5
74D4
330
7493
100
AcDbEntity
  8
0
100
AcDbLine
 10
169.375
 20
287.0
 30
0.0
 11
169.375
 21
292.0
 31
0.0
  0
LINE
  5
74D5
330
7493
100
AcDbEntity
  8
0
100
AcDbLine
 10
217.5
 20
287.0
 30
0.0
 11
217.5
 21
292.0
 31
0.0
  0
LINE
  5
74D6
330
7493
100
AcDbEntity
  8
0
100
AcDbLine
 10
265.625
 20
287.0
 30
0.0
 11
265.625
 21
292.0
 31
0.0
  0
LINE
  5
74D7
330
7493
100
AcDbEntity
  8
0
100
AcDbLine
 10
313.75
 20
287.0
 30
0.0
 11
313.75
 21
292.0
 31
0.0
  0
LINE
  5
74D8
330
7493
100
AcDbEntity
  8
0
100
AcDbLine
 10
361.875
 20
287.0
 30
0.0
 11
361.875
 21
292.0
 31
0.0
  0
LINE
  5
74D9
330
7493
100
AcDbEntity
  8
0
100
AcDbLine
 10
361.875
 20
10.0
 30
0.0
 11
361.875
 21
5.0
 31
0.0
  0
LINE
  5
74DA
330
7493
100
AcDbEntity
  8
0
100
AcDbLine
 10
313.75
 20
10.0
 30
0.0
 11
313.75
 21
5.0
 31
0.0
  0
LINE
  5
74DB
330
7493
100
AcDbEntity
  8
0
100
AcDbLine
 10
265.625
 20
10.0
 30
0.0
 11
265.625
 21
5.0
 31
0.0
  0
LINE
  5
74DC
330
7493
100
AcDbEntity
  8
0
100
AcDbLine
 10
217.5
 20
10.0
 30
0.0
 11
217.5
 21
5.0
 31
0.0
  0
LINE
  5
74DD
330
7493
100
AcDbEntity
  8
0
100
AcDbLine
 10
169.375
 20
10.0
 30
0.0
 11
169.375
 21
5.0
 31
0.0
  0
LINE
  5
74DE
330
7493
100
AcDbEntity
  8
0
100
AcDbLine
 10
121.25
 20
10.0
 30
0.0
 11
121.25
 21
5.0
 31
0.0
  0
LINE
  5
74DF
330
7493
100
AcDbEntity
  8
0
100
AcDbLine
 10
73.125
 20
10.0
 30
0.0
 11
73.125
 21
5.0
 31
0.0
  0
LINE
  5
74E0
330
7493
100
AcDbEntity
  8
0
100
AcDbLine
 10
410.0
 20
240.8333333333334
 30
0.0
 11
415.0
 21
240.8333333333334
 31
0.0
  0
LINE
  5
74E1
330
7493
100
AcDbEntity
  8
0
100
AcDbLine
 10
410.0
 20
194.6666666666667
 30
0.0
 11
415.0
 21
194.6666666666667
 31
0.0
  0
LINE
  5
74E2
330
7493
100
AcDbEntity
  8
0
100
AcDbLine
 10
410.0
 20
148.5
 30
0.0
 11
415.0
 21
148.5
 31
0.0
  0
LINE
  5
74E3
330
7493
100
AcDbEntity
  8
0
100
AcDbLine
 10
410.0
 20
102.3333333333333
 30
0.0
 11
415.0
 21
102.3333333333333
 31
0.0
  0
LINE
  5
74E4
330
7493
100
AcDbEntity
  8
0
100
AcDbLine
 10
410.0
 20
56.16666666666668
 30
0.0
 11
415.0
 21
56.16666666666668
 31
0.0
  0
LINE
  5
74E5
330
7493
100
AcDbEntity
  8
0
100
AcDbLine
 10
25.0
 20
56.16666666666667
 30
0.0
 11
20.0
 21
56.16666666666667
 31
0.0
  0
LINE
  5
74E6
330
7493
100
AcDbEntity
  8
0
100
AcDbLine
 10
25.0
 20
102.3333333333333
 30
0.0
 11
20.0
 21
102.3333333333333
 31
0.0
  0
LINE
  5
74E7
330
7493
100
AcDbEntity
  8
0
100
AcDbLine
 10
25.0
 20
148.5
 30
0.0
 11
20.0
 21
148.5
 31
0.0
  0
LINE
  5
74E8
330
7493
100
AcDbEntity
  8
0
100
AcDbLine
 10
25.0
 20
194.6666666666666
 30
0.0
 11
20.0
 21
194.6666666666666
 31
0.0
  0
LINE
  5
74E9
330
7493
100
AcDbEntity
  8
0
100
AcDbLine
 10
25.0
 20
240.8333333333333
 30
0.0
 11
20.0
 21
240.8333333333333
 31
0.0
  0
TEXT
  5
74EA
330
7493
100
AcDbEntity
  8
0
100
AcDbText
 10
1.0
 20
1.0
 30
0.0
 40
3.0
  1
この図枠はサンプルです。社内の規格やプロッタの出力範囲に合わせて適当に変更してご利用ください。
  7
ADESK1
100
AcDbText
  0
LINE
  5
74EB
330
7493
100
AcDbEntity
  8
0
100
AcDbLine
 10
25.0
 20
148.5
 30
0.0
 11
0.0
 21
148.5
 31
0.0
  0
LINE
  5
74EC
330
7493
100
AcDbEntity
  8
0
100
AcDbLine
 10
410.0
 20
148.5
 30
0.0
 11
420.0
 21
148.5
 31
0.0
  0
LINE
  5
74ED
330
7493
100
AcDbEntity
  8
0
100
AcDbLine
 10
217.5
 20
287.0
 30
0.0
 11
217.5
 21
297.0
 31
0.0
  0
LINE
  5
74EE
330
7493
100
AcDbEntity
  8
0
100
AcDbLine
 10
217.5
 20
10.0
 30
0.0
 11
217.5
 21
0.0
 31
0.0
  0
LINE
  5
74EF
330
7493
100
AcDbEntity
  8
OBJECT
100
AcDbLine
 10
130.0
 20
40.0
 30
0.0
 11
130.0
 21
10.0
 31
0.0
  0
LINE
  5
74F0
330
7493
100
AcDbEntity
  8
OBJECT
100
AcDbLine
 10
120.0
 20
10.0
 30
0.0
 11
120.0
 21
40.0
 31
0.0
  0
LINE
  5
74F1
330
7493
100
AcDbEntity
  8
OBJECT
100
AcDbLine
 10
44.5
 20
37.0
 30
0.0
 11
45.49999999999999
 21
37.0
 31
0.0
  0
LINE
  5
74F2
330
7493
100
AcDbEntity
  8
OBJECT
100
AcDbLine
 10
44.5
 20
31.0
 30
0.0
 11
45.49999999999999
 21
31.0
 31
0.0
  0
LINE
  5
74F3
330
7493
100
AcDbEntity
  8
OBJECT
100
AcDbLine
 10
39.5
 20
37.0
 30
0.0
 11
40.49999999999999
 21
37.0
 31
0.0
  0
LINE
  5
74F4
330
7493
100
AcDbEntity
  8
OBJECT
100
AcDbLine
 10
39.5
 20
31.0
 30
0.0
 11
40.49999999999999
 21
31.0
 31
0.0
  0
LINE
  5
74F5
330
7493
100
AcDbEntity
  8
OBJECT
100
AcDbLine
 10
44.5
 20
25.0
 30
0.0
 11
45.49999999999999
 21
25.0
 31
0.0
  0
LINE
  5
74F6
330
7493
100
AcDbEntity
  8
OBJECT
100
AcDbLine
 10
39.5
 20
25.0
 30
0.0
 11
40.49999999999999
 21
25.0
 31
0.0
  0
LINE
  5
74F7
330
7493
100
AcDbEntity
  8
OBJECT
100
AcDbLine
 10
44.5
 20
19.0
 30
0.0
 11
45.49999999999999
 21
19.0
 31
0.0
  0
LINE
  5
74F8
330
7493
100
AcDbEntity
  8
OBJECT
100
AcDbLine
 10
39.5
 20
19.0
 30
0.0
 11
40.49999999999999
 21
19.0
 31
0.0
  0
LINE
  5
74F9
330
7493
100
AcDbEntity
  8
OBJECT
100
AcDbLine
 10
28.0
 20
29.53589800000001
 30
0.0
 11
30.0
 21
33.0
 31
0.0
  0
LINE
  5
74FA
330
7493
100
AcDbEntity
  8
OBJECT
100
AcDbLine
 10
28.0
 20
29.53589800000001
 30
0.0
 11
32.0
 21
29.53589800000001
 31
0.0
  0
LINE
  5
74FB
330
7493
100
AcDbEntity
  8
OBJECT
100
AcDbLine
 10
32.0
 20
29.53589800000001
 30
0.0
 11
30.0
 21
33.0
 31
0.0
  0
LINE
  5
74FC
330
7493
100
AcDbEntity
  8
OBJECT
100
AcDbLine
 10
28.0
 20
35.535898
 30
0.0
 11
32.0
 21
35.535898
 31
0.0
  0
LINE
  5
74FD
330
7493
100
AcDbEntity
  8
OBJECT
100
AcDbLine
 10
32.0
 20
35.535898
 30
0.0
 11
30.0
 21
39.0
 31
0.0
  0
LINE
  5
74FE
330
7493
100
AcDbEntity
  8
OBJECT
100
AcDbLine
 10
28.0
 20
35.535898
 30
0.0
 11
30.0
 21
39.0
 31
0.0
  0
LINE
  5
74FF
330
7493
100
AcDbEntity
  8
OBJECT
100
AcDbLine
 10
28.0
 20
23.535898
 30
0.0
 11
30.0
 21
27.0
 31
0.0
  0
LINE
  5
7500
330
7493
100
AcDbEntity
  8
OBJECT
100
AcDbLine
 10
28.0
 20
23.535898
 30
0.0
 11
32.0
 21
23.535898
 31
0.0
  0
LINE
  5
7501
330
7493
100
AcDbEntity
  8
OBJECT
100
AcDbLine
 10
32.0
 20
23.535898
 30
0.0
 11
30.0
 21
27.0
 31
0.0
  0
LINE
  5
7502
330
7493
100
AcDbEntity
  8
OBJECT
100
AcDbLine
 10
28.0
 20
17.535898
 30
0.0
 11
30.0
 21
21.0
 31
0.0
  0
LINE
  5
7503
330
7493
100
AcDbEntity
  8
OBJECT
100
AcDbLine
 10
28.0
 20
17.535898
 30
0.0
 11
32.0
 21
17.535898
 31
0.0
  0
LINE
  5
7504
330
7493
100
AcDbEntity
  8
OBJECT
100
AcDbLine
 10
32.0
 20
17.535898
 30
0.0
 11
30.0
 21
21.0
 31
0.0
  0
LINE
  5
7505
330
7493
100
AcDbEntity
  8
OBJECT
100
AcDbLine
 10
44.5
 20
13.0
 30
0.0
 11
45.49999999999999
 21
13.0
 31
0.0
  0
LINE
  5
7506
330
7493
100
AcDbEntity
  8
OBJECT
100
AcDbLine
 10
39.5
 20
13.0
 30
0.0
 11
40.49999999999999
 21
13.0
 31
0.0
  0
LINE
  5
7507
330
7493
100
AcDbEntity
  8
OBJECT
100
AcDbLine
 10
28.0
 20
11.535898
 30
0.0
 11
32.0
 21
11.535898
 31
0.0
  0
LINE
  5
7508
330
7493
100
AcDbEntity
  8
OBJECT
100
AcDbLine
 10
80.0
 20
10.0
 30
0.0
 11
80.0
 21
40.0
 31
0.0
  0
LINE
  5
7509
330
7493
100
AcDbEntity
  8
OBJECT
100
AcDbLine
 10
50.0
 20
10.0
 30
0.0
 11
50.0
 21
40.0
 31
0.0
  0
LINE
  5
750A
330
7493
100
AcDbEntity
  8
OBJECT
100
AcDbLine
 10
35.0
 20
10.0
 30
0.0
 11
35.0
 21
40.0
 31
0.0
  0
LINE
  5
750B
330
7493
100
AcDbEntity
  8
OBJECT
100
AcDbLine
 10
32.0
 20
11.535898
 30
0.0
 11
30.0
 21
15.0
 31
0.0
  0
LINE
  5
750C
330
7493
100
AcDbEntity
  8
OBJECT
100
AcDbLine
 10
28.0
 20
11.535898
 30
0.0
 11
30.0
 21
15.0
 31
0.0
  0
LINE
  5
750D
330
7493
100
AcDbEntity
  8
OBJECT
100
AcDbLine
 10
130.0
 20
40.0
 30
0.0
 11
25.0
 21
40.0
 31
0.0
  0
LINE
  5
750E
330
7493
100
AcDbEntity
  8
OBJECT
100
AcDbLine
 10
130.0
 20
34.0
 30
0.0
 11
25.0
 21
34.0
 31
0.0
  0
LINE
  5
750F
330
7493
100
AcDbEntity
  8
OBJECT
100
AcDbLine
 10
130.0
 20
28.0
 30
0.0
 11
25.0
 21
28.0
 31
0.0
  0
LINE
  5
7510
330
7493
100
AcDbEntity
  8
OBJECT
100
AcDbLine
 10
130.0
 20
22.0
 30
0.0
 11
25.0
 21
22.0
 31
0.0
  0
LINE
  5
7511
330
7493
100
AcDbEntity
  8
OBJECT
100
AcDbLine
 10
130.0
 20
16.0
 30
0.0
 11
25.0
 21
16.0
 31
0.0
  0
ATTDEF
  5
7512
330
7493
100
AcDbEntity
  8
0
 62
     0
100
AcDbText
 10
19.0
 20
118.0
 30
0.0
 40
3.0
  1

 50
90.0
  7
ADESK1
100
AcDbAttributeDefinition
  3

  2
FNAME
 70
     8
  0
ATTDEF
  5
7513
330
7493
100
AcDbEntity
  8
0
 62
     0
100
AcDbText
 10
19.0
 20
70.0
 30
0.0
 40
3.0
  1

 50
90.0
  7
ADESK1
100
AcDbAttributeDefinition
  3

  2
REVDATE
 70
     8
  0
ATTDEF
  5
7514
330
7493
100
AcDbEntity
  8
0
 62
     0
100
AcDbText
 10
19.0
 20
10.0
 30
0.0
 40
3.0
  1

 50
90.0
  7
ADESK1
100
AcDbAttributeDefinition
  3

  2
USER
 70
     8
  0
LINE
  5
7515
330
7493
100
AcDbEntity
  8
0
100
AcDbLine
 10
410.0
 20
297.0
 30
0.0
 11
420.0
 21
297.0
 31
0.0
  0
LINE
  5
7516
330
7493
100
AcDbEntity
  8
0
100
AcDbLine
 10
420.0
 20
10.0
 30
0.0
 11
420.0
 21
0.0
 31
0.0
  0
LINE
  5
7517
330
7493
100
AcDbEntity
  8
0
100
AcDbLine
 10
25.0
 20
0.0
 30
0.0
 11
0.0
 21
0.0
 31
0.0
  0
LINE
  5
7518
330
7493
100
AcDbEntity
  8
0
100
AcDbLine
 10
0.0
 20
287.0
 30
0.0
 11
0.0
 21
297.0
 31
0.0
  0
LINE
  5
7519
330
7493
100
AcDbEntity
  8
0
100
AcDbLine
 10
25.0
 20
287.0
 30
0.0
 11
410.0
 21
287.0
 31
0.0
  0
LINE
  5
751A
330
7493
100
AcDbEntity
  8
0
100
AcDbLine
 10
410.0
 20
287.0
 30
0.0
 11
410.0
 21
10.0
 31
0.0
  0
LINE
  5
751B
330
7493
100
AcDbEntity
  8
0
100
AcDbLine
 10
410.0
 20
10.0
 30
0.0
 11
25.0
 21
10.0
 31
0.0
  0
LINE
  5
751C
330
7493
100
AcDbEntity
  8
0
100
AcDbLine
 10
25.0
 20
10.0
 30
0.0
 11
25.0
 21
287.0
 31
0.0
  0
LINE
  5
751D
330
7493
100
AcDbEntity
  8
0
100
AcDbLine
 10
420.0
 20
0.0
 30
0.0
 11
410.0
 21
0.0
 31
0.0
  0
LINE
  5
751E
330
7493
100
AcDbEntity
  8
0
100
AcDbLine
 10
420.0
 20
297.0
 30
0.0
 11
420.0
 21
287.0
 31
0.0
  0
LINE
  5
751F
330
7493
100
AcDbEntity
  8
0
100
AcDbLine
 10
0.0
 20
297.0
 30
0.0
 11
25.0
 21
297.0
 31
0.0
  0
LINE
  5
7520
330
7493
100
AcDbEntity
  8
0
100
AcDbLine
 10
0.0
 20
0.0
 30
0.0
 11
0.0
 21
10.0
 31
0.0
  0
ENDBLK
  5
7521
330
7493
100
AcDbEntity
  8
0
100
AcDbBlockEnd
  0
BLOCK
  5
926D
330
9264
100
AcDbEntity
  8
0
 48
15.0
100
AcDbBlockBegin
  2
*D193
 70
     1
 10
0.0
 20
0.0
 30
0.0
  3
*D193
  1

  0
LINE
  5
9E01
330
9264
100
AcDbEntity
  8
寸法引出
 48
15.0
370
    -2
100
AcDbLine
 10
8159.18198544969
 20
5571.248968094955
 30
0.0
 11
8159.18198544969
 21
5482.381193247146
 31
0.0
  0
LINE
  5
9E02
330
9264
100
AcDbEntity
  8
寸法引出
 48
15.0
370
    -2
100
AcDbLine
 10
7888.68198544969
 20
5489.881193247145
 30
0.0
 11
8136.681985449689
 21
5489.881193247145
 31
0.0
  0
SOLID
  5
9E03
330
9264
100
AcDbEntity
  8
寸法引出
 48
15.0
100
AcDbTrace
 10
7888.68198544969
 20
5493.631193247145
 30
0.0
 11
7888.68198544969
 21
5486.131193247145
 31
0.0
 12
7866.181985449689
 22
5489.881193247145
 32
0.0
 13
7866.181985449689
 23
5489.881193247145
 33
0.0
  0
SOLID
  5
9E04
330
9264
100
AcDbEntity
  8
寸法引出
 48
15.0
100
AcDbTrace
 10
8136.681985449689
 20
5493.631193247145
 30
0.0
 11
8136.681985449689
 21
5486.131193247145
 31
0.0
 12
8159.18198544969
 22
5489.881193247145
 32
0.0
 13
8159.18198544969
 23
5489.881193247145
 33
0.0
  0
MTEXT
  5
9E05
330
9264
100
AcDbEntity
  8
寸法引出
 48
15.0
100
AcDbMText
 10
8012.68198544969
 20
5519.881193247146
 30
0.0
 40
30.0
 41
0.0
 71
     5
 72
     1
  1
\A1;293
  7
SANWA
 73
     1
 44
1.0
1001
ACAD
1000
MTEXTBEGIN
1070
    73
1070
     1
1070
    44
1040
1.0
1070
    74
1070
     0
1000
MTEXTEND
  0
POINT
  5
9E06
330
9264
100
AcDbEntity
  8
DEFPOINTS
 62
     0
 48
15.0
100
AcDbPoint
 10
7866.181985449689
 20
5586.248968094956
 30
0.0
  0
POINT
  5
9E07
330
9264
100
AcDbEntity
  8
DEFPOINTS
 62
     0
 48
15.0
100
AcDbPoint
 10
8159.18198544969
 20
5586.248968094956
 30
0.0
  0
POINT
  5
9E08
330
9264
100
AcDbEntity
  8
DEFPOINTS
 62
     0
 48
15.0
100
AcDbPoint
 10
8159.18198544969
 20
5489.881193247145
 30
0.0
  0
ENDBLK
  5
926E
330
9264
100
AcDbEntity
  8
0
 48
15.0
100
AcDbBlockEnd
  0
BLOCK
  5
9278
330
926F
100
AcDbEntity
  8
0
 48
15.0
100
AcDbBlockBegin
  2
*D194
 70
     1
 10
0.0
 20
0.0
 30
0.0
  3
*D194
  1

  0
LINE
  5
9E09
330
926F
100
AcDbEntity
  8
寸法引出
 48
15.0
370
    -2
100
AcDbLine
 10
7866.181985449689
 20
5571.248968094955
 30
0.0
 11
7866.181985449689
 21
5482.381193247146
 31
0.0
  0
LINE
  5
9E0A
330
926F
100
AcDbEntity
  8
寸法引出
 48
15.0
370
    -2
100
AcDbLine
 10
7594.681985449689
 20
5489.881193247145
 30
0.0
 11
7843.68198544969
 21
5489.881193247145
 31
0.0
  0
SOLID
  5
9E0B
330
926F
100
AcDbEntity
  8
寸法引出
 48
15.0
100
AcDbTrace
 10
7594.681985449689
 20
5493.631193247145
 30
0.0
 11
7594.681985449689
 21
5486.131193247145
 31
0.0
 12
7572.18198544969
 22
5489.881193247145
 32
0.0
 13
7572.18198544969
 23
5489.881193247145
 33
0.0
  0
SOLID
  5
9E0C
330
926F
100
AcDbEntity
  8
寸法引出
 48
15.0
100
AcDbTrace
 10
7843.68198544969
 20
5493.631193247145
 30
0.0
 11
7843.68198544969
 21
5486.131193247145
 31
0.0
 12
7866.181985449689
 22
5489.881193247145
 32
0.0
 13
7866.181985449689
 23
5489.881193247145
 33
0.0
  0
MTEXT
  5
9E0D
330
926F
100
AcDbEntity
  8
寸法引出
 48
15.0
100
AcDbMText
 10
7719.18198544969
 20
5519.881193247146
 30
0.0
 40
30.0
 41
0.0
 71
     5
 72
     1
  1
\A1;294
  7
SANWA
 73
     1
 44
1.0
1001
ACAD
1000
MTEXTBEGIN
1070
    73
1070
     1
1070
    44
1040
1.0
1070
    74
1070
     0
1000
MTEXTEND
  0
POINT
  5
9E0E
330
926F
100
AcDbEntity
  8
DEFPOINTS
 62
     0
 48
15.0
100
AcDbPoint
 10
7572.18198544969
 20
5586.248968094956
 30
0.0
  0
POINT
  5
9E0F
330
926F
100
AcDbEntity
  8
DEFPOINTS
 62
     0
 48
15.0
100
AcDbPoint
 10
7866.181985449689
 20
5586.248968094956
 30
0.0
  0
POINT
  5
9E10
330
926F
100
AcDbEntity
  8
DEFPOINTS
 62
     0
 48
15.0
100
AcDbPoint
 10
7866.181985449689
 20
5489.881193247145
 30
0.0
  0
ENDBLK
  5
9279
330
926F
100
AcDbEntity
  8
0
 48
15.0
100
AcDbBlockEnd
  0
BLOCK
  5
9284
330
927A
100
AcDbEntity
  8
0
 48
15.0
100
AcDbBlockBegin
  2
*D195
 70
     1
 10
0.0
 20
0.0
 30
0.0
  3
*D195
  1

  0
LINE
  5
9E11
330
927A
100
AcDbEntity
  8
寸法引出
 48
15.0
370
    -2
100
AcDbLine
 10
8234.181985449691
 20
5726.248968094956
 30
0.0
 11
8344.831087633227
 21
5726.248968094956
 31
0.0
  0
LINE
  5
9E12
330
927A
100
AcDbEntity
  8
寸法引出
 48
15.0
370
    -2
100
AcDbLine
 10
8234.181985449691
 20
5586.248968094956
 30
0.0
 11
8344.831087633227
 21
5586.248968094956
 31
0.0
  0
LINE
  5
9E13
330
927A
100
AcDbEntity
  8
寸法引出
 48
15.0
370
    -2
100
AcDbLine
 10
8337.331087633227
 20
5703.748968094956
 30
0.0
 11
8337.331087633227
 21
5608.748968094956
 31
0.0
  0
SOLID
  5
9E14
330
927A
100
AcDbEntity
  8
寸法引出
 48
15.0
100
AcDbTrace
 10
8333.581087633227
 20
5703.748968094956
 30
0.0
 11
8341.081087633227
 21
5703.748968094956
 31
0.0
 12
8337.331087633227
 22
5726.248968094956
 32
0.0
 13
8337.331087633227
 23
5726.248968094956
 33
0.0
  0
SOLID
  5
9E15
330
927A
100
AcDbEntity
  8
寸法引出
 48
15.0
100
AcDbTrace
 10
8333.581087633227
 20
5608.748968094956
 30
0.0
 11
8341.081087633227
 21
5608.748968094956
 31
0.0
 12
8337.331087633227
 22
5586.248968094956
 32
0.0
 13
8337.331087633227
 23
5586.248968094956
 33
0.0
  0
MTEXT
  5
9E16
330
927A
100
AcDbEntity
  8
寸法引出
 48
15.0
100
AcDbMText
 10
8307.331087633226
 20
5656.248968094956
 30
0.0
 40
30.0
 41
0.0
 71
     5
 72
     1
  1
\A1;140
  7
SANWA
 11
0.0000000000000001
 21
1.0
 31
0.0
 73
     1
 44
1.0
1001
ACAD
1000
MTEXTBEGIN
1070
    73
1070
     1
1070
    44
1040
1.0
1070
    74
1070
     0
1000
MTEXTEND
  0
POINT
  5
9E17
330
927A
100
AcDbEntity
  8
DEFPOINTS
 62
     0
 48
15.0
100
AcDbPoint
 10
8219.18198544969
 20
5726.248968094956
 30
0.0
  0
POINT
  5
9E18
330
927A
100
AcDbEntity
  8
DEFPOINTS
 62
     0
 48
15.0
100
AcDbPoint
 10
8219.18198544969
 20
5586.248968094956
 30
0.0
  0
POINT
  5
9E19
330
927A
100
AcDbEntity
  8
DEFPOINTS
 62
     0
 48
15.0
100
AcDbPoint
 10
8337.331087633227
 20
5586.248968094956
 30
0.0
  0
ENDBLK
  5
9285
330
927A
100
AcDbEntity
  8
0
 48
15.0
100
AcDbBlockEnd
  0
BLOCK
  5
9291
330
9286
100
AcDbEntity
  8
0
 48
15.0
100
AcDbBlockBegin
  2
*D196
 70
     1
 10
0.0
 20
0.0
 30
0.0
  3
*D196
  1

  0
LINE
  5
9E1A
330
9286
100
AcDbEntity
  8
寸法引出
 48
15.0
370
    -2
100
AcDbLine
 10
8219.18198544969
 20
5571.248968094955
 30
0.0
 11
8219.18198544969
 21
5482.381193247146
 31
0.0
  0
LINE
  5
9E1B
330
9286
100
AcDbEntity
  8
寸法引出
 48
15.0
370
    -2
100
AcDbLine
 10
8136.681985449689
 20
5489.881193247145
 30
0.0
 11
8114.18198544969
 21
5489.881193247145
 31
0.0
  0
LINE
  5
9E1C
330
9286
100
AcDbEntity
  8
寸法引出
 48
15.0
370
    -2
100
AcDbLine
 10
8241.681985449689
 20
5489.881193247145
 30
0.0
 11
8264.18198544969
 21
5489.881193247145
 31
0.0
  0
LINE
  5
9E1D
330
9286
100
AcDbEntity
  8
寸法引出
 48
15.0
370
    -2
100
AcDbLine
 10
8159.18198544969
 20
5489.881193247145
 30
0.0
 11
8219.18198544969
 21
5489.881193247145
 31
0.0
  0
SOLID
  5
9E1E
330
9286
100
AcDbEntity
  8
寸法引出
 48
15.0
100
AcDbTrace
 10
8136.681985449689
 20
5493.631193247145
 30
0.0
 11
8136.681985449689
 21
5486.131193247145
 31
0.0
 12
8159.18198544969
 22
5489.881193247145
 32
0.0
 13
8159.18198544969
 23
5489.881193247145
 33
0.0
  0
SOLID
  5
9E1F
330
9286
100
AcDbEntity
  8
寸法引出
 48
15.0
100
AcDbTrace
 10
8241.681985449689
 20
5493.631193247145
 30
0.0
 11
8241.681985449689
 21
5486.131193247145
 31
0.0
 12
8219.18198544969
 22
5489.881193247145
 32
0.0
 13
8219.18198544969
 23
5489.881193247145
 33
0.0
  0
MTEXT
  5
9E20
330
9286
100
AcDbEntity
  8
寸法引出
 48
15.0
100
AcDbMText
 10
8189.181985449691
 20
5519.881193247146
 30
0.0
 40
30.0
 41
0.0
 71
     5
 72
     1
  1
\A1;60
  7
SANWA
 73
     1
 44
1.0
1001
ACAD
1000
MTEXTBEGIN
1070
    73
1070
     1
1070
    44
1040
1.0
1070
    74
1070
     0
1000
MTEXTEND
  0
POINT
  5
9E21
330
9286
100
AcDbEntity
  8
DEFPOINTS
 62
     0
 48
15.0
100
AcDbPoint
 10
8159.18198544969
 20
5586.248968094956
 30
0.0
  0
POINT
  5
9E22
330
9286
100
AcDbEntity
  8
DEFPOINTS
 62
     0
 48
15.0
100
AcDbPoint
 10
8219.18198544969
 20
5586.248968094956
 30
0.0
  0
POINT
  5
9E23
330
9286
100
AcDbEntity
  8
DEFPOINTS
 62
     0
 48
15.0
100
AcDbPoint
 10
8219.18198544969
 20
5489.881193247145
 30
0.0
  0
ENDBLK
  5
9292
330
9286
100
AcDbEntity
  8
0
 48
15.0
100
AcDbBlockEnd
  0
BLOCK
  5
929D
330
9293
100
AcDbEntity
  8
0
 48
15.0
100
AcDbBlockBegin
  2
*D197
 70
     1
 10
0.0
 20
0.0
 30
0.0
  3
*D197
  1

  0
LINE
  5
9BD6
330
9293
100
AcDbEntity
  8
寸法引出
 48
15.0
370
    -2
100
AcDbLine
 10
3532.190960854839
 20
2277.660492837419
 30
0.0
 11
3642.840063038377
 21
2277.660492837419
 31
0.0
  0
LINE
  5
9BD7
330
9293
100
AcDbEntity
  8
寸法引出
 48
15.0
370
    -2
100
AcDbLine
 10
3532.190960854839
 20
2137.660492837419
 30
0.0
 11
3642.840063038377
 21
2137.660492837419
 31
0.0
  0
LINE
  5
9BD8
330
9293
100
AcDbEntity
  8
寸法引出
 48
15.0
370
    -2
100
AcDbLine
 10
3635.340063038377
 20
2255.160492837418
 30
0.0
 11
3635.340063038377
 21
2160.160492837419
 31
0.0
  0
SOLID
  5
9BD9
330
9293
100
AcDbEntity
  8
寸法引出
 48
15.0
100
AcDbTrace
 10
3631.590063038377
 20
2255.160492837418
 30
0.0
 11
3639.090063038377
 21
2255.160492837418
 31
0.0
 12
3635.340063038377
 22
2277.660492837419
 32
0.0
 13
3635.340063038377
 23
2277.660492837419
 33
0.0
  0
SOLID
  5
9BDA
330
9293
100
AcDbEntity
  8
寸法引出
 48
15.0
100
AcDbTrace
 10
3631.590063038377
 20
2160.160492837419
 30
0.0
 11
3639.090063038377
 21
2160.160492837419
 31
0.0
 12
3635.340063038377
 22
2137.660492837419
 32
0.0
 13
3635.340063038377
 23
2137.660492837419
 33
0.0
  0
MTEXT
  5
9BDB
330
9293
100
AcDbEntity
  8
寸法引出
 48
15.0
100
AcDbMText
 10
3605.340063038376
 20
2207.660492837419
 30
0.0
 40
30.0
 41
0.0
 71
     5
 72
     1
  1
\A1;140
  7
SANWA
 11
0.0000000000000001
 21
1.0
 31
0.0
 73
     1
 44
1.0
1001
ACAD
1000
MTEXTBEGIN
1070
    73
1070
     1
1070
    44
1040
1.0
1070
    74
1070
     0
1000
MTEXTEND
  0
POINT
  5
9BDC
330
9293
100
AcDbEntity
  8
DEFPOINTS
 62
     0
 48
15.0
100
AcDbPoint
 10
3517.190960854839
 20
2277.660492837419
 30
0.0
  0
POINT
  5
9BDD
330
9293
100
AcDbEntity
  8
DEFPOINTS
 62
     0
 48
15.0
100
AcDbPoint
 10
3517.190960854839
 20
2137.660492837419
 30
0.0
  0
POINT
  5
9BDE
330
9293
100
AcDbEntity
  8
DEFPOINTS
 62
     0
 48
15.0
100
AcDbPoint
 10
3635.340063038377
 20
2137.660492837419
 30
0.0
  0
ENDBLK
  5
929E
330
9293
100
AcDbEntity
  8
0
 48
15.0
100
AcDbBlockEnd
  0
BLOCK
  5
92A8
330
929F
100
AcDbEntity
  8
0
 48
15.0
100
AcDbBlockBegin
  2
*D198
 70
     1
 10
0.0
 20
0.0
 30
0.0
  3
*D198
  1

  0
LINE
  5
9BDF
330
929F
100
AcDbEntity
  8
寸法引出
 48
15.0
370
    -2
100
AcDbLine
 10
1306.369096113077
 20
4138.801030019953
 30
0.0
 11
1199.77348145064
 21
4138.801030019953
 31
0.0
  0
LINE
  5
9BE0
330
929F
100
AcDbEntity
  8
寸法引出
 48
15.0
370
    -2
100
AcDbLine
 10
1207.27348145064
 20
4876.301030019953
 30
0.0
 11
1207.27348145064
 21
4161.301030019953
 31
0.0
  0
SOLID
  5
9BE1
330
929F
100
AcDbEntity
  8
寸法引出
 48
15.0
100
AcDbTrace
 10
1203.52348145064
 20
4876.301030019953
 30
0.0
 11
1211.02348145064
 21
4876.301030019953
 31
0.0
 12
1207.27348145064
 22
4898.801030019953
 32
0.0
 13
1207.27348145064
 23
4898.801030019953
 33
0.0
  0
SOLID
  5
9BE2
330
929F
100
AcDbEntity
  8
寸法引出
 48
15.0
100
AcDbTrace
 10
1203.52348145064
 20
4161.301030019953
 30
0.0
 11
1211.02348145064
 21
4161.301030019953
 31
0.0
 12
1207.27348145064
 22
4138.801030019953
 32
0.0
 13
1207.27348145064
 23
4138.801030019953
 33
0.0
  0
MTEXT
  5
9BE3
330
929F
100
AcDbEntity
  8
寸法引出
 48
15.0
100
AcDbMText
 10
1177.273481450639
 20
4518.801030019953
 30
0.0
 40
30.0
 41
0.0
 71
     5
 72
     1
  1
\A1;760
  7
SANWA
 11
0.0000000000000001
 21
1.0
 31
0.0
 73
     1
 44
1.0
1001
ACAD
1000
MTEXTBEGIN
1070
    73
1070
     1
1070
    44
1040
1.0
1070
    74
1070
     0
1000
MTEXTEND
  0
POINT
  5
9BE4
330
929F
100
AcDbEntity
  8
DEFPOINTS
 62
     0
 48
15.0
100
AcDbPoint
 10
1321.369096113077
 20
4898.801030019953
 30
0.0
  0
POINT
  5
9BE5
330
929F
100
AcDbEntity
  8
DEFPOINTS
 62
     0
 48
15.0
100
AcDbPoint
 10
1321.369096113077
 20
4138.801030019953
 30
0.0
  0
POINT
  5
9BE6
330
929F
100
AcDbEntity
  8
DEFPOINTS
 62
     0
 48
15.0
100
AcDbPoint
 10
1207.27348145064
 20
4138.801030019953
 30
0.0
  0
ENDBLK
  5
92A9
330
929F
100
AcDbEntity
  8
0
 48
15.0
100
AcDbBlockEnd
  0
BLOCK
  5
92B4
330
92AA
100
AcDbEntity
  8
0
 48
15.0
100
AcDbBlockBegin
  2
*D199
 70
     1
 10
0.0
 20
0.0
 30
0.0
  3
*D199
  1

  0
LINE
  5
9BE7
330
92AA
100
AcDbEntity
  8
寸法引出
 48
15.0
370
    -2
100
AcDbLine
 10
2076.369096113077
 20
5018.801030019953
 30
0.0
 11
2181.103754470078
 21
5018.801030019953
 31
0.0
  0
LINE
  5
9BE8
330
92AA
100
AcDbEntity
  8
寸法引出
 48
15.0
370
    -2
100
AcDbLine
 10
2076.369096113077
 20
4018.801030019953
 30
0.0
 11
2181.103754470078
 21
4018.801030019953
 31
0.0
  0
LINE
  5
9BE9
330
92AA
100
AcDbEntity
  8
寸法引出
 48
15.0
370
    -2
100
AcDbLine
 10
2173.603754470077
 20
4996.301030019953
 30
0.0
 11
2173.603754470077
 21
4041.301030019953
 31
0.0
  0
SOLID
  5
9BEA
330
92AA
100
AcDbEntity
  8
寸法引出
 48
15.0
100
AcDbTrace
 10
2169.853754470078
 20
4996.301030019953
 30
0.0
 11
2177.353754470078
 21
4996.301030019953
 31
0.0
 12
2173.603754470077
 22
5018.801030019953
 32
0.0
 13
2173.603754470077
 23
5018.801030019953
 33
0.0
  0
SOLID
  5
9BEB
330
92AA
100
AcDbEntity
  8
寸法引出
 48
15.0
100
AcDbTrace
 10
2169.853754470078
 20
4041.301030019953
 30
0.0
 11
2177.353754470078
 21
4041.301030019953
 31
0.0
 12
2173.603754470077
 22
4018.801030019953
 32
0.0
 13
2173.603754470077
 23
4018.801030019953
 33
0.0
  0
MTEXT
  5
9BEC
330
92AA
100
AcDbEntity
  8
寸法引出
 48
15.0
100
AcDbMText
 10
2143.603754470077
 20
4518.801030019954
 30
0.0
 40
30.0
 41
0.0
 71
     5
 72
     1
  1
\A1;1000
  7
SANWA
 11
0.0000000000000001
 21
1.0
 31
0.0
 73
     1
 44
1.0
1001
ACAD
1000
MTEXTBEGIN
1070
    73
1070
     1
1070
    44
1040
1.0
1070
    74
1070
     0
1000
MTEXTEND
  0
POINT
  5
9BED
330
92AA
100
AcDbEntity
  8
DEFPOINTS
 62
     0
 48
15.0
100
AcDbPoint
 10
2061.369096113077
 20
5018.801030019953
 30
0.0
  0
POINT
  5
9BEE
330
92AA
100
AcDbEntity
  8
DEFPOINTS
 62
     0
 48
15.0
100
AcDbPoint
 10
2061.369096113077
 20
4018.801030019953
 30
0.0
  0
POINT
  5
9BEF
330
92AA
100
AcDbEntity
  8
DEFPOINTS
 62
     0
 48
15.0
100
AcDbPoint
 10
2173.603754470077
 20
4018.801030019953
 30
0.0
  0
ENDBLK
  5
92B5
330
92AA
100
AcDbEntity
  8
0
 48
15.0
100
AcDbBlockEnd
  0
BLOCK
  5
92C0
330
92B6
100
AcDbEntity
  8
0
 48
15.0
100
AcDbBlockBegin
  2
*D200
 70
     1
 10
0.0
 20
0.0
 30
0.0
  3
*D200
  1

  0
LINE
  5
9BF0
330
92B6
100
AcDbEntity
  8
寸法引出
 48
15.0
370
    -2
100
AcDbLine
 10
1321.369096113077
 20
4003.801030019952
 30
0.0
 11
1321.369096113077
 21
3831.925799252142
 31
0.0
  0
LINE
  5
9BF1
330
92B6
100
AcDbEntity
  8
寸法引出
 48
15.0
370
    -2
100
AcDbLine
 10
2061.369096113077
 20
4003.801030019952
 30
0.0
 11
2061.369096113077
 21
3831.925799252142
 31
0.0
  0
LINE
  5
9BF2
330
92B6
100
AcDbEntity
  8
寸法引出
 48
15.0
370
    -2
100
AcDbLine
 10
1343.869096113077
 20
3839.425799252142
 30
0.0
 11
2038.869096113077
 21
3839.425799252142
 31
0.0
  0
SOLID
  5
9BF3
330
92B6
100
AcDbEntity
  8
寸法引出
 48
15.0
100
AcDbTrace
 10
1343.869096113077
 20
3843.175799252142
 30
0.0
 11
1343.869096113077
 21
3835.675799252142
 31
0.0
 12
1321.369096113077
 22
3839.425799252142
 32
0.0
 13
1321.369096113077
 23
3839.425799252142
 33
0.0
  0
SOLID
  5
9BF4
330
92B6
100
AcDbEntity
  8
寸法引出
 48
15.0
100
AcDbTrace
 10
2038.869096113077
 20
3843.175799252142
 30
0.0
 11
2038.869096113077
 21
3835.675799252142
 31
0.0
 12
2061.369096113077
 22
3839.425799252142
 32
0.0
 13
2061.369096113077
 23
3839.425799252142
 33
0.0
  0
MTEXT
  5
9BF5
330
92B6
100
AcDbEntity
  8
寸法引出
 48
15.0
100
AcDbMText
 10
1691.369096113077
 20
3869.425799252141
 30
0.0
 40
30.0
 41
0.0
 71
     5
 72
     1
  1
\A1;740
  7
SANWA
 73
     1
 44
1.0
1001
ACAD
1000
MTEXTBEGIN
1070
    73
1070
     1
1070
    44
1040
1.0
1070
    74
1070
     0
1000
MTEXTEND
  0
POINT
  5
9BF6
330
92B6
100
AcDbEntity
  8
DEFPOINTS
 62
     0
 48
15.0
100
AcDbPoint
 10
1321.369096113077
 20
4018.801030019953
 30
0.0
  0
POINT
  5
9BF7
330
92B6
100
AcDbEntity
  8
DEFPOINTS
 62
     0
 48
15.0
100
AcDbPoint
 10
2061.369096113077
 20
4018.801030019953
 30
0.0
  0
POINT
  5
9BF8
330
92B6
100
AcDbEntity
  8
DEFPOINTS
 62
     0
 48
15.0
100
AcDbPoint
 10
2061.369096113077
 20
3839.425799252142
 30
0.0
  0
ENDBLK
  5
92C1
330
92B6
100
AcDbEntity
  8
0
 48
15.0
100
AcDbBlockEnd
  0
BLOCK
  5
92CC
330
92C2
100
AcDbEntity
  8
0
 48
15.0
100
AcDbBlockBegin
  2
*D201
 70
     1
 10
0.0
 20
0.0
 30
0.0
  3
*D201
  1

  0
LINE
  5
9BF9
330
92C2
100
AcDbEntity
  8
寸法引出
 48
15.0
370
    -2
100
AcDbLine
 10
1356.369096113077
 20
4003.801030019952
 30
0.0
 11
1356.369096113077
 21
3895.306502874876
 31
0.0
  0
LINE
  5
9BFA
330
92C2
100
AcDbEntity
  8
寸法引出
 48
15.0
370
    -2
100
AcDbLine
 10
2026.369096113077
 20
4003.801030019952
 30
0.0
 11
2026.369096113077
 21
3895.306502874876
 31
0.0
  0
LINE
  5
9BFB
330
92C2
100
AcDbEntity
  8
寸法引出
 48
15.0
370
    -2
100
AcDbLine
 10
1378.869096113077
 20
3902.806502874875
 30
0.0
 11
2003.869096113077
 21
3902.806502874875
 31
0.0
  0
SOLID
  5
9BFC
330
92C2
100
AcDbEntity
  8
寸法引出
 48
15.0
100
AcDbTrace
 10
1378.869096113077
 20
3906.556502874875
 30
0.0
 11
1378.869096113077
 21
3899.056502874876
 31
0.0
 12
1356.369096113077
 22
3902.806502874875
 32
0.0
 13
1356.369096113077
 23
3902.806502874875
 33
0.0
  0
SOLID
  5
9BFD
330
92C2
100
AcDbEntity
  8
寸法引出
 48
15.0
100
AcDbTrace
 10
2003.869096113077
 20
3906.556502874875
 30
0.0
 11
2003.869096113077
 21
3899.056502874876
 31
0.0
 12
2026.369096113077
 22
3902.806502874875
 32
0.0
 13
2026.369096113077
 23
3902.806502874875
 33
0.0
  0
MTEXT
  5
9BFE
330
92C2
100
AcDbEntity
  8
寸法引出
 48
15.0
100
AcDbMText
 10
1691.369096113077
 20
3932.806502874875
 30
0.0
 40
30.0
 41
0.0
 71
     5
 72
     1
  1
\A1;670
  7
SANWA
 73
     1
 44
1.0
1001
ACAD
1000
MTEXTBEGIN
1070
    73
1070
     1
1070
    44
1040
1.0
1070
    74
1070
     0
1000
MTEXTEND
  0
POINT
  5
9BFF
330
92C2
100
AcDbEntity
  8
DEFPOINTS
 62
     0
 48
15.0
100
AcDbPoint
 10
1356.369096113077
 20
4018.801030019953
 30
0.0
  0
POINT
  5
9C00
330
92C2
100
AcDbEntity
  8
DEFPOINTS
 62
     0
 48
15.0
100
AcDbPoint
 10
2026.369096113077
 20
4018.801030019953
 30
0.0
  0
POINT
  5
9C01
330
92C2
100
AcDbEntity
  8
DEFPOINTS
 62
     0
 48
15.0
100
AcDbPoint
 10
2026.369096113077
 20
3902.806502874875
 30
0.0
  0
ENDBLK
  5
92CD
330
92C2
100
AcDbEntity
  8
0
 48
15.0
100
AcDbBlockEnd
  0
BLOCK
  5
92D7
330
92CE
100
AcDbEntity
  8
0
 48
15.0
100
AcDbBlockBegin
  2
*D202
 70
     1
 10
0.0
 20
0.0
 30
0.0
  3
*D202
  1

  0
LINE
  5
9C02
330
92CE
100
AcDbEntity
  8
寸法引出
 48
15.0
370
    -2
100
AcDbLine
 10
1306.369096113077
 20
4018.801030019953
 30
0.0
 11
1199.77348145064
 21
4018.801030019953
 31
0.0
  0
LINE
  5
9C03
330
92CE
100
AcDbEntity
  8
寸法引出
 48
15.0
370
    -2
100
AcDbLine
 10
1207.27348145064
 20
4116.301030019953
 30
0.0
 11
1207.27348145064
 21
4041.301030019953
 31
0.0
  0
SOLID
  5
9C04
330
92CE
100
AcDbEntity
  8
寸法引出
 48
15.0
100
AcDbTrace
 10
1203.52348145064
 20
4116.301030019953
 30
0.0
 11
1211.02348145064
 21
4116.301030019953
 31
0.0
 12
1207.27348145064
 22
4138.801030019953
 32
0.0
 13
1207.27348145064
 23
4138.801030019953
 33
0.0
  0
SOLID
  5
9C05
330
92CE
100
AcDbEntity
  8
寸法引出
 48
15.0
100
AcDbTrace
 10
1203.52348145064
 20
4041.301030019953
 30
0.0
 11
1211.02348145064
 21
4041.301030019953
 31
0.0
 12
1207.27348145064
 22
4018.801030019953
 32
0.0
 13
1207.27348145064
 23
4018.801030019953
 33
0.0
  0
MTEXT
  5
9C06
330
92CE
100
AcDbEntity
  8
寸法引出
 48
15.0
100
AcDbMText
 10
1177.273481450639
 20
4078.801030019953
 30
0.0
 40
30.0
 41
0.0
 71
     5
 72
     1
  1
\A1;120
  7
SANWA
 11
0.0000000000000001
 21
1.0
 31
0.0
 73
     1
 44
1.0
1001
ACAD
1000
MTEXTBEGIN
1070
    73
1070
     1
1070
    44
1040
1.0
1070
    74
1070
     0
1000
MTEXTEND
  0
POINT
  5
9C07
330
92CE
100
AcDbEntity
  8
DEFPOINTS
 62
     0
 48
15.0
100
AcDbPoint
 10
1321.369096113077
 20
4138.801030019953
 30
0.0
  0
POINT
  5
9C08
330
92CE
100
AcDbEntity
  8
DEFPOINTS
 62
     0
 48
15.0
100
AcDbPoint
 10
1321.369096113077
 20
4018.801030019953
 30
0.0
  0
POINT
  5
9C09
330
92CE
100
AcDbEntity
  8
DEFPOINTS
 62
     0
 48
15.0
100
AcDbPoint
 10
1207.27348145064
 20
4018.801030019953
 30
0.0
  0
ENDBLK
  5
92D8
330
92CE
100
AcDbEntity
  8
0
 48
15.0
100
AcDbBlockEnd
  0
BLOCK
  5
92E5
330
92D9
100
AcDbEntity
  8
0
 48
15.0
100
AcDbBlockBegin
  2
*D203
 70
     1
 10
0.0
 20
0.0
 30
0.0
  3
*D203
  1

  0
LINE
  5
9C0A
330
92D9
100
AcDbEntity
  8
寸法引出
 48
15.0
370
    -2
100
AcDbLine
 10
1321.369096113077
 20
4003.801030019952
 30
0.0
 11
1321.369096113077
 21
3895.306502874876
 31
0.0
  0
LINE
  5
9C0B
330
92D9
100
AcDbEntity
  8
寸法引出
 48
15.0
370
    -2
100
AcDbLine
 10
1356.369096113077
 20
4003.801030019952
 30
0.0
 11
1356.369096113077
 21
3895.306502874876
 31
0.0
  0
LINE
  5
9C0C
330
92D9
100
AcDbEntity
  8
寸法引出
 48
15.0
370
    -2
100
AcDbLine
 10
1298.869096113077
 20
3902.806502874875
 30
0.0
 11
1276.369096113077
 21
3902.806502874875
 31
0.0
  0
LINE
  5
9C0D
330
92D9
100
AcDbEntity
  8
寸法引出
 48
15.0
370
    -2
100
AcDbLine
 10
1378.869096113077
 20
3902.806502874875
 30
0.0
 11
1401.369096113077
 21
3902.806502874875
 31
0.0
  0
LINE
  5
9C0E
330
92D9
100
AcDbEntity
  8
寸法引出
 48
15.0
370
    -2
100
AcDbLine
 10
1321.369096113077
 20
3902.806502874875
 30
0.0
 11
1356.369096113077
 21
3902.806502874875
 31
0.0
  0
SOLID
  5
9C0F
330
92D9
100
AcDbEntity
  8
寸法引出
 48
15.0
100
AcDbTrace
 10
1298.869096113077
 20
3906.556502874875
 30
0.0
 11
1298.869096113077
 21
3899.056502874876
 31
0.0
 12
1321.369096113077
 22
3902.806502874875
 32
0.0
 13
1321.369096113077
 23
3902.806502874875
 33
0.0
  0
SOLID
  5
9C10
330
92D9
100
AcDbEntity
  8
寸法引出
 48
15.0
100
AcDbTrace
 10
1378.869096113077
 20
3906.556502874875
 30
0.0
 11
1378.869096113077
 21
3899.056502874876
 31
0.0
 12
1356.369096113077
 22
3902.806502874875
 32
0.0
 13
1356.369096113077
 23
3902.806502874875
 33
0.0
  0
MTEXT
  5
9C11
330
92D9
100
AcDbEntity
  8
寸法引出
 48
15.0
100
AcDbMText
 10
1338.869096113077
 20
3932.806502874875
 30
0.0
 40
30.0
 41
0.0
 71
     5
 72
     1
  1
\A1;35
  7
SANWA
 73
     1
 44
1.0
1001
ACAD
1000
MTEXTBEGIN
1070
    73
1070
     1
1070
    44
1040
1.0
1070
    74
1070
     0
1000
MTEXTEND
  0
POINT
  5
9C12
330
92D9
100
AcDbEntity
  8
DEFPOINTS
 62
     0
 48
15.0
100
AcDbPoint
 10
1321.369096113077
 20
4018.801030019953
 30
0.0
  0
POINT
  5
9C13
330
92D9
100
AcDbEntity
  8
DEFPOINTS
 62
     0
 48
15.0
100
AcDbPoint
 10
1356.369096113077
 20
4018.801030019953
 30
0.0
  0
POINT
  5
9C14
330
92D9
100
AcDbEntity
  8
DEFPOINTS
 62
     0
 48
15.0
100
AcDbPoint
 10
1356.369096113077
 20
3902.806502874875
 30
0.0
  0
ENDBLK
  5
92E6
330
92D9
100
AcDbEntity
  8
0
 48
15.0
100
AcDbBlockEnd
  0
BLOCK
  5
92F2
330
92E7
100
AcDbEntity
  8
0
 48
15.0
100
AcDbBlockBegin
  2
*D204
 70
     1
 10
0.0
 20
0.0
 30
0.0
  3
*D204
  1

  0
LINE
  5
9C15
330
92E7
100
AcDbEntity
  8
寸法引出
 48
15.0
370
    -2
100
AcDbLine
 10
2061.369096113077
 20
4003.801030019952
 30
0.0
 11
2061.369096113077
 21
3895.306502874876
 31
0.0
  0
LINE
  5
9C16
330
92E7
100
AcDbEntity
  8
寸法引出
 48
15.0
370
    -2
100
AcDbLine
 10
2003.869096113077
 20
3902.806502874875
 30
0.0
 11
1981.369096113077
 21
3902.806502874875
 31
0.0
  0
LINE
  5
9C17
330
92E7
100
AcDbEntity
  8
寸法引出
 48
15.0
370
    -2
100
AcDbLine
 10
2083.869096113077
 20
3902.806502874875
 30
0.0
 11
2106.369096113077
 21
3902.806502874875
 31
0.0
  0
LINE
  5
9C18
330
92E7
100
AcDbEntity
  8
寸法引出
 48
15.0
370
    -2
100
AcDbLine
 10
2026.369096113077
 20
3902.806502874875
 30
0.0
 11
2061.369096113077
 21
3902.806502874875
 31
0.0
  0
SOLID
  5
9C19
330
92E7
100
AcDbEntity
  8
寸法引出
 48
15.0
100
AcDbTrace
 10
2003.869096113077
 20
3906.556502874875
 30
0.0
 11
2003.869096113077
 21
3899.056502874876
 31
0.0
 12
2026.369096113077
 22
3902.806502874875
 32
0.0
 13
2026.369096113077
 23
3902.806502874875
 33
0.0
  0
SOLID
  5
9C1A
330
92E7
100
AcDbEntity
  8
寸法引出
 48
15.0
100
AcDbTrace
 10
2083.869096113077
 20
3906.556502874875
 30
0.0
 11
2083.869096113077
 21
3899.056502874876
 31
0.0
 12
2061.369096113077
 22
3902.806502874875
 32
0.0
 13
2061.369096113077
 23
3902.806502874875
 33
0.0
  0
MTEXT
  5
9C1B
330
92E7
100
AcDbEntity
  8
寸法引出
 48
15.0
100
AcDbMText
 10
2043.869096113077
 20
3932.806502874875
 30
0.0
 40
30.0
 41
0.0
 71
     5
 72
     1
  1
\A1;35
  7
SANWA
 73
     1
 44
1.0
1001
ACAD
1000
MTEXTBEGIN
1070
    73
1070
     1
1070
    44
1040
1.0
1070
    74
1070
     0
1000
MTEXTEND
  0
POINT
  5
9C1C
330
92E7
100
AcDbEntity
  8
DEFPOINTS
 62
     0
 48
15.0
100
AcDbPoint
 10
2026.369096113077
 20
4018.801030019953
 30
0.0
  0
POINT
  5
9C1D
330
92E7
100
AcDbEntity
  8
DEFPOINTS
 62
     0
 48
15.0
100
AcDbPoint
 10
2061.369096113077
 20
4018.801030019953
 30
0.0
  0
POINT
  5
9C1E
330
92E7
100
AcDbEntity
  8
DEFPOINTS
 62
     0
 48
15.0
100
AcDbPoint
 10
2061.369096113077
 20
3902.806502874875
 30
0.0
  0
ENDBLK
  5
92F3
330
92E7
100
AcDbEntity
  8
0
 48
15.0
100
AcDbBlockEnd
  0
BLOCK
  5
92FD
330
92F4
100
AcDbEntity
  8
0
 48
15.0
100
AcDbBlockBegin
  2
*D205
 70
     1
 10
0.0
 20
0.0
 30
0.0
  3
*D205
  1

  0
LINE
  5
9C1F
330
92F4
100
AcDbEntity
  8
寸法引出
 48
15.0
370
    -2
100
AcDbLine
 10
2061.369096113077
 20
5033.801030019953
 30
0.0
 11
2061.369096113077
 21
5128.037674464398
 31
0.0
  0
LINE
  5
9C20
330
92F4
100
AcDbEntity
  8
寸法引出
 48
15.0
370
    -2
100
AcDbLine
 10
1746.369096113077
 20
5120.537674464398
 30
0.0
 11
2038.869096113077
 21
5120.537674464398
 31
0.0
  0
SOLID
  5
9C21
330
92F4
100
AcDbEntity
  8
寸法引出
 48
15.0
100
AcDbTrace
 10
1746.369096113077
 20
5124.287674464397
 30
0.0
 11
1746.369096113077
 21
5116.787674464398
 31
0.0
 12
1723.869096113077
 22
5120.537674464398
 32
0.0
 13
1723.869096113077
 23
5120.537674464398
 33
0.0
  0
SOLID
  5
9C22
330
92F4
100
AcDbEntity
  8
寸法引出
 48
15.0
100
AcDbTrace
 10
2038.869096113077
 20
5124.287674464397
 30
0.0
 11
2038.869096113077
 21
5116.787674464398
 31
0.0
 12
2061.369096113077
 22
5120.537674464398
 32
0.0
 13
2061.369096113077
 23
5120.537674464398
 33
0.0
  0
MTEXT
  5
9C23
330
92F4
100
AcDbEntity
  8
寸法引出
 48
15.0
100
AcDbMText
 10
1892.619096113077
 20
5150.537674464398
 30
0.0
 40
30.0
 41
0.0
 71
     5
 72
     1
  1
\A1;337.5
  7
SANWA
 73
     1
 44
1.0
1001
ACAD
1000
MTEXTBEGIN
1070
    73
1070
     1
1070
    44
1040
1.0
1070
    74
1070
     0
1000
MTEXTEND
  0
POINT
  5
9C24
330
92F4
100
AcDbEntity
  8
DEFPOINTS
 62
     0
 48
15.0
100
AcDbPoint
 10
1723.869096113077
 20
5018.801030019953
 30
0.0
  0
POINT
  5
9C25
330
92F4
100
AcDbEntity
  8
DEFPOINTS
 62
     0
 48
15.0
100
AcDbPoint
 10
2061.369096113077
 20
5018.801030019953
 30
0.0
  0
POINT
  5
9C26
330
92F4
100
AcDbEntity
  8
DEFPOINTS
 62
     0
 48
15.0
100
AcDbPoint
 10
2061.369096113077
 20
5120.537674464398
 30
0.0
  0
ENDBLK
  5
92FE
330
92F4
100
AcDbEntity
  8
0
 48
15.0
100
AcDbBlockEnd
  0
BLOCK
  5
9309
330
92FF
100
AcDbEntity
  8
0
 48
15.0
100
AcDbBlockBegin
  2
*D206
 70
     1
 10
0.0
 20
0.0
 30
0.0
  3
*D206
  1

  0
LINE
  5
9C27
330
92FF
100
AcDbEntity
  8
寸法引出
 48
15.0
370
    -2
100
AcDbLine
 10
1321.369096113077
 20
5033.801030019953
 30
0.0
 11
1321.369096113077
 21
5128.037674464398
 31
0.0
  0
LINE
  5
9C28
330
92FF
100
AcDbEntity
  8
寸法引出
 48
15.0
370
    -2
100
AcDbLine
 10
1658.869096113077
 20
5033.801030019953
 30
0.0
 11
1658.869096113077
 21
5128.037674464398
 31
0.0
  0
LINE
  5
9C29
330
92FF
100
AcDbEntity
  8
寸法引出
 48
15.0
370
    -2
100
AcDbLine
 10
1343.869096113077
 20
5120.537674464398
 30
0.0
 11
1636.369096113076
 21
5120.537674464398
 31
0.0
  0
SOLID
  5
9C2A
330
92FF
100
AcDbEntity
  8
寸法引出
 48
15.0
100
AcDbTrace
 10
1343.869096113077
 20
5124.287674464397
 30
0.0
 11
1343.869096113077
 21
5116.787674464398
 31
0.0
 12
1321.369096113077
 22
5120.537674464398
 32
0.0
 13
1321.369096113077
 23
5120.537674464398
 33
0.0
  0
SOLID
  5
9C2B
330
92FF
100
AcDbEntity
  8
寸法引出
 48
15.0
100
AcDbTrace
 10
1636.369096113076
 20
5124.287674464397
 30
0.0
 11
1636.369096113076
 21
5116.787674464398
 31
0.0
 12
1658.869096113077
 22
5120.537674464398
 32
0.0
 13
1658.869096113077
 23
5120.537674464398
 33
0.0
  0
MTEXT
  5
9C2C
330
92FF
100
AcDbEntity
  8
寸法引出
 48
15.0
100
AcDbMText
 10
1490.119096113077
 20
5150.537674464398
 30
0.0
 40
30.0
 41
0.0
 71
     5
 72
     1
  1
\A1;337.5
  7
SANWA
 73
     1
 44
1.0
1001
ACAD
1000
MTEXTBEGIN
1070
    73
1070
     1
1070
    44
1040
1.0
1070
    74
1070
     0
1000
MTEXTEND
  0
POINT
  5
9C2D
330
92FF
100
AcDbEntity
  8
DEFPOINTS
 62
     0
 48
15.0
100
AcDbPoint
 10
1321.369096113077
 20
5018.801030019953
 30
0.0
  0
POINT
  5
9C2E
330
92FF
100
AcDbEntity
  8
DEFPOINTS
 62
     0
 48
15.0
100
AcDbPoint
 10
1658.869096113077
 20
5018.801030019953
 30
0.0
  0
POINT
  5
9C2F
330
92FF
100
AcDbEntity
  8
DEFPOINTS
 62
     0
 48
15.0
100
AcDbPoint
 10
1658.869096113077
 20
5120.537674464398
 30
0.0
  0
ENDBLK
  5
930A
330
92FF
100
AcDbEntity
  8
0
 48
15.0
100
AcDbBlockEnd
  0
BLOCK
  5
9315
330
930B
100
AcDbEntity
  8
0
 48
15.0
100
AcDbBlockBegin
  2
*D207
 70
     1
 10
0.0
 20
0.0
 30
0.0
  3
*D207
  1

  0
LINE
  5
9C30
330
930B
100
AcDbEntity
  8
寸法引出
 48
15.0
370
    -2
100
AcDbLine
 10
1306.369096113077
 20
5018.801030019953
 30
0.0
 11
1199.77348145064
 21
5018.801030019953
 31
0.0
  0
LINE
  5
9C31
330
930B
100
AcDbEntity
  8
寸法引出
 48
15.0
370
    -2
100
AcDbLine
 10
1306.369096113077
 20
4898.801030019953
 30
0.0
 11
1199.77348145064
 21
4898.801030019953
 31
0.0
  0
LINE
  5
9C32
330
930B
100
AcDbEntity
  8
寸法引出
 48
15.0
370
    -2
100
AcDbLine
 10
1207.27348145064
 20
4996.301030019953
 30
0.0
 11
1207.27348145064
 21
4921.301030019953
 31
0.0
  0
SOLID
  5
9C33
330
930B
100
AcDbEntity
  8
寸法引出
 48
15.0
100
AcDbTrace
 10
1203.52348145064
 20
4996.301030019953
 30
0.0
 11
1211.02348145064
 21
4996.301030019953
 31
0.0
 12
1207.27348145064
 22
5018.801030019953
 32
0.0
 13
1207.27348145064
 23
5018.801030019953
 33
0.0
  0
SOLID
  5
9C34
330
930B
100
AcDbEntity
  8
寸法引出
 48
15.0
100
AcDbTrace
 10
1203.52348145064
 20
4921.301030019953
 30
0.0
 11
1211.02348145064
 21
4921.301030019953
 31
0.0
 12
1207.27348145064
 22
4898.801030019953
 32
0.0
 13
1207.27348145064
 23
4898.801030019953
 33
0.0
  0
MTEXT
  5
9C35
330
930B
100
AcDbEntity
  8
寸法引出
 48
15.0
100
AcDbMText
 10
1177.273481450639
 20
4958.801030019952
 30
0.0
 40
30.0
 41
0.0
 71
     5
 72
     1
  1
\A1;120
  7
SANWA
 11
0.0000000000000001
 21
1.0
 31
0.0
 73
     1
 44
1.0
1001
ACAD
1000
MTEXTBEGIN
1070
    73
1070
     1
1070
    44
1040
1.0
1070
    74
1070
     0
1000
MTEXTEND
  0
POINT
  5
9C36
330
930B
100
AcDbEntity
  8
DEFPOINTS
 62
     0
 48
15.0
100
AcDbPoint
 10
1321.369096113077
 20
5018.801030019953
 30
0.0
  0
POINT
  5
9C37
330
930B
100
AcDbEntity
  8
DEFPOINTS
 62
     0
 48
15.0
100
AcDbPoint
 10
1321.369096113077
 20
4898.801030019953
 30
0.0
  0
POINT
  5
9C38
330
930B
100
AcDbEntity
  8
DEFPOINTS
 62
     0
 48
15.0
100
AcDbPoint
 10
1207.27348145064
 20
4898.801030019953
 30
0.0
  0
ENDBLK
  5
9316
330
930B
100
AcDbEntity
  8
0
 48
15.0
100
AcDbBlockEnd
  0
BLOCK
  5
9323
330
9317
100
AcDbEntity
  8
0
 48
15.0
100
AcDbBlockBegin
  2
*D208
 70
     1
 10
0.0
 20
0.0
 30
0.0
  3
*D208
  1

  0
LINE
  5
9C39
330
9317
100
AcDbEntity
  8
寸法引出
 48
15.0
370
    -2
100
AcDbLine
 10
1658.869096113077
 20
5033.801030019953
 30
0.0
 11
1658.869096113077
 21
5128.037674464398
 31
0.0
  0
LINE
  5
9C3A
330
9317
100
AcDbEntity
  8
寸法引出
 48
15.0
370
    -2
100
AcDbLine
 10
1723.869096113077
 20
5033.801030019953
 30
0.0
 11
1723.869096113077
 21
5128.037674464398
 31
0.0
  0
LINE
  5
9C3B
330
9317
100
AcDbEntity
  8
寸法引出
 48
15.0
370
    -2
100
AcDbLine
 10
1636.369096113076
 20
5120.537674464398
 30
0.0
 11
1613.869096113077
 21
5120.537674464398
 31
0.0
  0
LINE
  5
9C3C
330
9317
100
AcDbEntity
  8
寸法引出
 48
15.0
370
    -2
100
AcDbLine
 10
1746.369096113077
 20
5120.537674464398
 30
0.0
 11
1768.869096113077
 21
5120.537674464398
 31
0.0
  0
LINE
  5
9C3D
330
9317
100
AcDbEntity
  8
寸法引出
 48
15.0
370
    -2
100
AcDbLine
 10
1658.869096113077
 20
5120.537674464398
 30
0.0
 11
1723.869096113077
 21
5120.537674464398
 31
0.0
  0
SOLID
  5
9C3E
330
9317
100
AcDbEntity
  8
寸法引出
 48
15.0
100
AcDbTrace
 10
1636.369096113076
 20
5124.287674464397
 30
0.0
 11
1636.369096113076
 21
5116.787674464398
 31
0.0
 12
1658.869096113077
 22
5120.537674464398
 32
0.0
 13
1658.869096113077
 23
5120.537674464398
 33
0.0
  0
SOLID
  5
9C3F
330
9317
100
AcDbEntity
  8
寸法引出
 48
15.0
100
AcDbTrace
 10
1746.369096113077
 20
5124.287674464397
 30
0.0
 11
1746.369096113077
 21
5116.787674464398
 31
0.0
 12
1723.869096113077
 22
5120.537674464398
 32
0.0
 13
1723.869096113077
 23
5120.537674464398
 33
0.0
  0
MTEXT
  5
9C40
330
9317
100
AcDbEntity
  8
寸法引出
 48
15.0
100
AcDbMText
 10
1691.369096113077
 20
5150.537674464398
 30
0.0
 40
30.0
 41
0.0
 71
     5
 72
     1
  1
\A1;65
  7
SANWA
 73
     1
 44
1.0
1001
ACAD
1000
MTEXTBEGIN
1070
    73
1070
     1
1070
    44
1040
1.0
1070
    74
1070
     0
1000
MTEXTEND
  0
POINT
  5
9C41
330
9317
100
AcDbEntity
  8
DEFPOINTS
 62
     0
 48
15.0
100
AcDbPoint
 10
1658.869096113077
 20
5018.801030019953
 30
0.0
  0
POINT
  5
9C42
330
9317
100
AcDbEntity
  8
DEFPOINTS
 62
     0
 48
15.0
100
AcDbPoint
 10
1723.869096113077
 20
5018.801030019953
 30
0.0
  0
POINT
  5
9C43
330
9317
100
AcDbEntity
  8
DEFPOINTS
 62
     0
 48
15.0
100
AcDbPoint
 10
1723.869096113077
 20
5120.537674464398
 30
0.0
  0
ENDBLK
  5
9324
330
9317
100
AcDbEntity
  8
0
 48
15.0
100
AcDbBlockEnd
  0
BLOCK
  5
932F
330
9325
100
AcDbEntity
  8
0
 48
15.0
100
AcDbBlockBegin
  2
*D209
 70
     1
 10
0.0
 20
0.0
 30
0.0
  3
*D209
  1

  0
LINE
  5
9C44
330
9325
100
AcDbEntity
  8
寸法引出
 48
15.0
370
    -2
100
AcDbLine
 10
2517.190960854839
 20
5741.248968094955
 30
0.0
 11
2517.190960854839
 21
5821.991711786314
 31
0.0
  0
LINE
  5
9C45
330
9325
100
AcDbEntity
  8
寸法引出
 48
15.0
370
    -2
100
AcDbLine
 10
3517.190960854839
 20
5741.248968094955
 30
0.0
 11
3517.190960854839
 21
5821.991711786314
 31
0.0
  0
LINE
  5
9C46
330
9325
100
AcDbEntity
  8
寸法引出
 48
15.0
370
    -2
100
AcDbLine
 10
2539.690960854839
 20
5814.491711786314
 30
0.0
 11
3494.690960854839
 21
5814.491711786314
 31
0.0
  0
SOLID
  5
9C47
330
9325
100
AcDbEntity
  8
寸法引出
 48
15.0
100
AcDbTrace
 10
2539.690960854839
 20
5818.241711786314
 30
0.0
 11
2539.690960854839
 21
5810.741711786314
 31
0.0
 12
2517.190960854839
 22
5814.491711786314
 32
0.0
 13
2517.190960854839
 23
5814.491711786314
 33
0.0
  0
SOLID
  5
9C48
330
9325
100
AcDbEntity
  8
寸法引出
 48
15.0
100
AcDbTrace
 10
3494.690960854839
 20
5818.241711786314
 30
0.0
 11
3494.690960854839
 21
5810.741711786314
 31
0.0
 12
3517.190960854839
 22
5814.491711786314
 32
0.0
 13
3517.190960854839
 23
5814.491711786314
 33
0.0
  0
MTEXT
  5
9C49
330
9325
100
AcDbEntity
  8
寸法引出
 48
15.0
100
AcDbMText
 10
3017.190960854839
 20
5844.491711786314
 30
0.0
 40
30.0
 41
0.0
 71
     5
 72
     1
  1
\A1;1000
  7
SANWA
 73
     1
 44
1.0
1001
ACAD
1000
MTEXTBEGIN
1070
    73
1070
     1
1070
    44
1040
1.0
1070
    74
1070
     0
1000
MTEXTEND
  0
POINT
  5
9C4A
330
9325
100
AcDbEntity
  8
DEFPOINTS
 62
     0
 48
15.0
100
AcDbPoint
 10
2517.190960854839
 20
5726.248968094956
 30
0.0
  0
POINT
  5
9C4B
330
9325
100
AcDbEntity
  8
DEFPOINTS
 62
     0
 48
15.0
100
AcDbPoint
 10
3517.190960854839
 20
5726.248968094956
 30
0.0
  0
POINT
  5
9C4C
330
9325
100
AcDbEntity
  8
DEFPOINTS
 62
     0
 48
15.0
100
AcDbPoint
 10
3517.190960854839
 20
5814.491711786314
 30
0.0
  0
ENDBLK
  5
9330
330
9325
100
AcDbEntity
  8
0
 48
15.0
100
AcDbBlockEnd
  0
BLOCK
  5
933A
330
9331
100
AcDbEntity
  8
0
 48
15.0
100
AcDbBlockBegin
  2
*D210
 70
     1
 10
0.0
 20
0.0
 30
0.0
  3
*D210
  1

  0
LINE
  5
9C4D
330
9331
100
AcDbEntity
  8
寸法引出
 48
15.0
370
    -2
100
AcDbLine
 10
3397.190960854839
 20
5571.248968094955
 30
0.0
 11
3397.190960854839
 21
5483.425203833299
 31
0.0
  0
LINE
  5
9C4E
330
9331
100
AcDbEntity
  8
寸法引出
 48
15.0
370
    -2
100
AcDbLine
 10
2659.690960854839
 20
5490.925203833299
 30
0.0
 11
3374.690960854838
 21
5490.925203833299
 31
0.0
  0
SOLID
  5
9C4F
330
9331
100
AcDbEntity
  8
寸法引出
 48
15.0
100
AcDbTrace
 10
2659.690960854839
 20
5494.675203833299
 30
0.0
 11
2659.690960854839
 21
5487.175203833299
 31
0.0
 12
2637.190960854839
 22
5490.925203833299
 32
0.0
 13
2637.190960854839
 23
5490.925203833299
 33
0.0
  0
SOLID
  5
9C50
330
9331
100
AcDbEntity
  8
寸法引出
 48
15.0
100
AcDbTrace
 10
3374.690960854838
 20
5494.675203833299
 30
0.0
 11
3374.690960854838
 21
5487.175203833299
 31
0.0
 12
3397.190960854839
 22
5490.925203833299
 32
0.0
 13
3397.190960854839
 23
5490.925203833299
 33
0.0
  0
MTEXT
  5
9C51
330
9331
100
AcDbEntity
  8
寸法引出
 48
15.0
100
AcDbMText
 10
3017.190960854839
 20
5520.925203833299
 30
0.0
 40
30.0
 41
0.0
 71
     5
 72
     1
  1
\A1;760
  7
SANWA
 73
     1
 44
1.0
1001
ACAD
1000
MTEXTBEGIN
1070
    73
1070
     1
1070
    44
1040
1.0
1070
    74
1070
     0
1000
MTEXTEND
  0
POINT
  5
9C52
330
9331
100
AcDbEntity
  8
DEFPOINTS
 62
     0
 48
15.0
100
AcDbPoint
 10
2637.190960854839
 20
5586.248968094956
 30
0.0
  0
POINT
  5
9C53
330
9331
100
AcDbEntity
  8
DEFPOINTS
 62
     0
 48
15.0
100
AcDbPoint
 10
3397.190960854839
 20
5586.248968094956
 30
0.0
  0
POINT
  5
9C54
330
9331
100
AcDbEntity
  8
DEFPOINTS
 62
     0
 48
15.0
100
AcDbPoint
 10
3397.190960854839
 20
5490.925203833299
 30
0.0
  0
ENDBLK
  5
933B
330
9331
100
AcDbEntity
  8
0
 48
15.0
100
AcDbBlockEnd
  0
BLOCK
  5
9346
330
933C
100
AcDbEntity
  8
0
 48
15.0
100
AcDbBlockBegin
  2
*D211
 70
     1
 10
0.0
 20
0.0
 30
0.0
  3
*D211
  1

  0
LINE
  5
9C55
330
933C
100
AcDbEntity
  8
寸法引出
 48
15.0
370
    -2
100
AcDbLine
 10
1321.369096113077
 20
5741.248968094955
 30
0.0
 11
1321.369096113077
 21
5885.032563701489
 31
0.0
  0
LINE
  5
9C56
330
933C
100
AcDbEntity
  8
寸法引出
 48
15.0
370
    -2
100
AcDbLine
 10
2061.369096113077
 20
5741.248968094955
 30
0.0
 11
2061.369096113077
 21
5885.032563701489
 31
0.0
  0
LINE
  5
9C57
330
933C
100
AcDbEntity
  8
寸法引出
 48
15.0
370
    -2
100
AcDbLine
 10
1343.869096113077
 20
5877.532563701489
 30
0.0
 11
2038.869096113077
 21
5877.532563701489
 31
0.0
  0
SOLID
  5
9C58
330
933C
100
AcDbEntity
  8
寸法引出
 48
15.0
100
AcDbTrace
 10
1343.869096113077
 20
5881.282563701489
 30
0.0
 11
1343.869096113077
 21
5873.782563701489
 31
0.0
 12
1321.369096113077
 22
5877.532563701489
 32
0.0
 13
1321.369096113077
 23
5877.532563701489
 33
0.0
  0
SOLID
  5
9C59
330
933C
100
AcDbEntity
  8
寸法引出
 48
15.0
100
AcDbTrace
 10
2038.869096113077
 20
5881.282563701489
 30
0.0
 11
2038.869096113077
 21
5873.782563701489
 31
0.0
 12
2061.369096113077
 22
5877.532563701489
 32
0.0
 13
2061.369096113077
 23
5877.532563701489
 33
0.0
  0
MTEXT
  5
9C5A
330
933C
100
AcDbEntity
  8
寸法引出
 48
15.0
100
AcDbMText
 10
1691.369096113077
 20
5907.532563701489
 30
0.0
 40
30.0
 41
0.0
 71
     5
 72
     1
  1
\A1;740
  7
SANWA
 73
     1
 44
1.0
1001
ACAD
1000
MTEXTBEGIN
1070
    73
1070
     1
1070
    44
1040
1.0
1070
    74
1070
     0
1000
MTEXTEND
  0
POINT
  5
9C5B
330
933C
100
AcDbEntity
  8
DEFPOINTS
 62
     0
 48
15.0
100
AcDbPoint
 10
1321.369096113077
 20
5726.248968094956
 30
0.0
  0
POINT
  5
9C5C
330
933C
100
AcDbEntity
  8
DEFPOINTS
 62
     0
 48
15.0
100
AcDbPoint
 10
2061.369096113077
 20
5726.248968094956
 30
0.0
  0
POINT
  5
9C5D
330
933C
100
AcDbEntity
  8
DEFPOINTS
 62
     0
 48
15.0
100
AcDbPoint
 10
2061.369096113077
 20
5877.532563701489
 30
0.0
  0
ENDBLK
  5
9347
330
933C
100
AcDbEntity
  8
0
 48
15.0
100
AcDbBlockEnd
  0
BLOCK
  5
9351
330
9348
100
AcDbEntity
  8
0
 48
15.0
100
AcDbBlockBegin
  2
*D212
 70
     1
 10
0.0
 20
0.0
 30
0.0
  3
*D212
  1

  0
LINE
  5
9C5E
330
9348
100
AcDbEntity
  8
寸法引出
 48
15.0
370
    -2
100
AcDbLine
 10
2061.369096113077
 20
5571.248968094955
 30
0.0
 11
2061.369096113077
 21
5427.750741623416
 31
0.0
  0
LINE
  5
9C5F
330
9348
100
AcDbEntity
  8
寸法引出
 48
15.0
370
    -2
100
AcDbLine
 10
1761.869096113077
 20
5435.250741623416
 30
0.0
 11
2038.869096113077
 21
5435.250741623416
 31
0.0
  0
SOLID
  5
9C60
330
9348
100
AcDbEntity
  8
寸法引出
 48
15.0
100
AcDbTrace
 10
1761.869096113077
 20
5439.000741623416
 30
0.0
 11
1761.869096113077
 21
5431.500741623416
 31
0.0
 12
1739.369096113077
 22
5435.250741623416
 32
0.0
 13
1739.369096113077
 23
5435.250741623416
 33
0.0
  0
SOLID
  5
9C61
330
9348
100
AcDbEntity
  8
寸法引出
 48
15.0
100
AcDbTrace
 10
2038.869096113077
 20
5439.000741623416
 30
0.0
 11
2038.869096113077
 21
5431.500741623416
 31
0.0
 12
2061.369096113077
 22
5435.250741623416
 32
0.0
 13
2061.369096113077
 23
5435.250741623416
 33
0.0
  0
MTEXT
  5
9C62
330
9348
100
AcDbEntity
  8
寸法引出
 48
15.0
100
AcDbMText
 10
1900.369096113077
 20
5465.250741623416
 30
0.0
 40
30.0
 41
0.0
 71
     5
 72
     1
  1
\A1;322
  7
SANWA
 73
     1
 44
1.0
1001
ACAD
1000
MTEXTBEGIN
1070
    73
1070
     1
1070
    44
1040
1.0
1070
    74
1070
     0
1000
MTEXTEND
  0
POINT
  5
9C63
330
9348
100
AcDbEntity
  8
DEFPOINTS
 62
     0
 48
15.0
100
AcDbPoint
 10
1739.369096113077
 20
5586.248968094956
 30
0.0
  0
POINT
  5
9C64
330
9348
100
AcDbEntity
  8
DEFPOINTS
 62
     0
 48
15.0
100
AcDbPoint
 10
2061.369096113077
 20
5586.248968094956
 30
0.0
  0
POINT
  5
9C65
330
9348
100
AcDbEntity
  8
DEFPOINTS
 62
     0
 48
15.0
100
AcDbPoint
 10
2061.369096113077
 20
5435.250741623416
 30
0.0
  0
ENDBLK
  5
9352
330
9348
100
AcDbEntity
  8
0
 48
15.0
100
AcDbBlockEnd
  0
BLOCK
  5
935C
330
9353
100
AcDbEntity
  8
0
 48
15.0
100
AcDbBlockBegin
  2
*D213
 70
     1
 10
0.0
 20
0.0
 30
0.0
  3
*D213
  1

  0
LINE
  5
9C66
330
9353
100
AcDbEntity
  8
寸法引出
 48
15.0
370
    -2
100
AcDbLine
 10
2061.369096113077
 20
5741.248968094955
 30
0.0
 11
2061.369096113077
 21
5826.540535004836
 31
0.0
  0
LINE
  5
9C67
330
9353
100
AcDbEntity
  8
寸法引出
 48
15.0
370
    -2
100
AcDbLine
 10
1746.369096113077
 20
5819.040535004836
 30
0.0
 11
2038.869096113077
 21
5819.040535004836
 31
0.0
  0
SOLID
  5
9C68
330
9353
100
AcDbEntity
  8
寸法引出
 48
15.0
100
AcDbTrace
 10
1746.369096113077
 20
5822.790535004836
 30
0.0
 11
1746.369096113077
 21
5815.290535004836
 31
0.0
 12
1723.869096113077
 22
5819.040535004836
 32
0.0
 13
1723.869096113077
 23
5819.040535004836
 33
0.0
  0
SOLID
  5
9C69
330
9353
100
AcDbEntity
  8
寸法引出
 48
15.0
100
AcDbTrace
 10
2038.869096113077
 20
5822.790535004836
 30
0.0
 11
2038.869096113077
 21
5815.290535004836
 31
0.0
 12
2061.369096113077
 22
5819.040535004836
 32
0.0
 13
2061.369096113077
 23
5819.040535004836
 33
0.0
  0
MTEXT
  5
9C6A
330
9353
100
AcDbEntity
  8
寸法引出
 48
15.0
100
AcDbMText
 10
1892.619096113077
 20
5849.040535004836
 30
0.0
 40
30.0
 41
0.0
 71
     5
 72
     1
  1
\A1;337.5
  7
SANWA
 73
     1
 44
1.0
1001
ACAD
1000
MTEXTBEGIN
1070
    73
1070
     1
1070
    44
1040
1.0
1070
    74
1070
     0
1000
MTEXTEND
  0
POINT
  5
9C6B
330
9353
100
AcDbEntity
  8
DEFPOINTS
 62
     0
 48
15.0
100
AcDbPoint
 10
1723.869096113077
 20
5706.248968094956
 30
0.0
  0
POINT
  5
9C6C
330
9353
100
AcDbEntity
  8
DEFPOINTS
 62
     0
 48
15.0
100
AcDbPoint
 10
2061.369096113077
 20
5726.248968094956
 30
0.0
  0
POINT
  5
9C6D
330
9353
100
AcDbEntity
  8
DEFPOINTS
 62
     0
 48
15.0
100
AcDbPoint
 10
2061.369096113077
 20
5819.040535004836
 30
0.0
  0
ENDBLK
  5
935D
330
9353
100
AcDbEntity
  8
0
 48
15.0
100
AcDbBlockEnd
  0
BLOCK
  5
9368
330
935E
100
AcDbEntity
  8
0
 48
15.0
100
AcDbBlockBegin
  2
*D214
 70
     1
 10
0.0
 20
0.0
 30
0.0
  3
*D214
  1

  0
LINE
  5
9C6E
330
935E
100
AcDbEntity
  8
寸法引出
 48
15.0
370
    -2
100
AcDbLine
 10
1321.369096113077
 20
5571.248968094955
 30
0.0
 11
1321.369096113077
 21
5427.750741623416
 31
0.0
  0
LINE
  5
9C6F
330
935E
100
AcDbEntity
  8
寸法引出
 48
15.0
370
    -2
100
AcDbLine
 10
1643.369096113077
 20
5571.248968094955
 30
0.0
 11
1643.369096113077
 21
5427.750741623416
 31
0.0
  0
LINE
  5
9C70
330
935E
100
AcDbEntity
  8
寸法引出
 48
15.0
370
    -2
100
AcDbLine
 10
1343.869096113077
 20
5435.250741623416
 30
0.0
 11
1620.869096113077
 21
5435.250741623416
 31
0.0
  0
SOLID
  5
9C71
330
935E
100
AcDbEntity
  8
寸法引出
 48
15.0
100
AcDbTrace
 10
1343.869096113077
 20
5439.000741623416
 30
0.0
 11
1343.869096113077
 21
5431.500741623416
 31
0.0
 12
1321.369096113077
 22
5435.250741623416
 32
0.0
 13
1321.369096113077
 23
5435.250741623416
 33
0.0
  0
SOLID
  5
9C72
330
935E
100
AcDbEntity
  8
寸法引出
 48
15.0
100
AcDbTrace
 10
1620.869096113077
 20
5439.000741623416
 30
0.0
 11
1620.869096113077
 21
5431.500741623416
 31
0.0
 12
1643.369096113077
 22
5435.250741623416
 32
0.0
 13
1643.369096113077
 23
5435.250741623416
 33
0.0
  0
MTEXT
  5
9C73
330
935E
100
AcDbEntity
  8
寸法引出
 48
15.0
100
AcDbMText
 10
1482.369096113077
 20
5465.250741623416
 30
0.0
 40
30.0
 41
0.0
 71
     5
 72
     1
  1
\A1;322
  7
SANWA
 73
     1
 44
1.0
1001
ACAD
1000
MTEXTBEGIN
1070
    73
1070
     1
1070
    44
1040
1.0
1070
    74
1070
     0
1000
MTEXTEND
  0
POINT
  5
9C74
330
935E
100
AcDbEntity
  8
DEFPOINTS
 62
     0
 48
15.0
100
AcDbPoint
 10
1321.369096113077
 20
5586.248968094956
 30
0.0
  0
POINT
  5
9C75
330
935E
100
AcDbEntity
  8
DEFPOINTS
 62
     0
 48
15.0
100
AcDbPoint
 10
1643.369096113077
 20
5586.248968094956
 30
0.0
  0
POINT
  5
9C76
330
935E
100
AcDbEntity
  8
DEFPOINTS
 62
     0
 48
15.0
100
AcDbPoint
 10
1643.369096113077
 20
5435.250741623416
 30
0.0
  0
ENDBLK
  5
9369
330
935E
100
AcDbEntity
  8
0
 48
15.0
100
AcDbBlockEnd
  0
BLOCK
  5
9374
330
936A
100
AcDbEntity
  8
0
 48
15.0
100
AcDbBlockBegin
  2
*D215
 70
     1
 10
0.0
 20
0.0
 30
0.0
  3
*D215
  1

  0
LINE
  5
9C77
330
936A
100
AcDbEntity
  8
寸法引出
 48
15.0
370
    -2
100
AcDbLine
 10
1321.369096113077
 20
5741.248968094955
 30
0.0
 11
1321.369096113077
 21
5826.540535004836
 31
0.0
  0
LINE
  5
9C78
330
936A
100
AcDbEntity
  8
寸法引出
 48
15.0
370
    -2
100
AcDbLine
 10
1658.869096113077
 20
5721.248968094956
 30
0.0
 11
1658.869096113077
 21
5826.540535004836
 31
0.0
  0
LINE
  5
9C79
330
936A
100
AcDbEntity
  8
寸法引出
 48
15.0
370
    -2
100
AcDbLine
 10
1343.869096113077
 20
5819.040535004836
 30
0.0
 11
1636.369096113076
 21
5819.040535004836
 31
0.0
  0
SOLID
  5
9C7A
330
936A
100
AcDbEntity
  8
寸法引出
 48
15.0
100
AcDbTrace
 10
1343.869096113077
 20
5822.790535004836
 30
0.0
 11
1343.869096113077
 21
5815.290535004836
 31
0.0
 12
1321.369096113077
 22
5819.040535004836
 32
0.0
 13
1321.369096113077
 23
5819.040535004836
 33
0.0
  0
SOLID
  5
9C7B
330
936A
100
AcDbEntity
  8
寸法引出
 48
15.0
100
AcDbTrace
 10
1636.369096113076
 20
5822.790535004836
 30
0.0
 11
1636.369096113076
 21
5815.290535004836
 31
0.0
 12
1658.869096113077
 22
5819.040535004836
 32
0.0
 13
1658.869096113077
 23
5819.040535004836
 33
0.0
  0
MTEXT
  5
9C7C
330
936A
100
AcDbEntity
  8
寸法引出
 48
15.0
100
AcDbMText
 10
1490.119096113077
 20
5849.040535004836
 30
0.0
 40
30.0
 41
0.0
 71
     5
 72
     1
  1
\A1;337.5
  7
SANWA
 73
     1
 44
1.0
1001
ACAD
1000
MTEXTBEGIN
1070
    73
1070
     1
1070
    44
1040
1.0
1070
    74
1070
     0
1000
MTEXTEND
  0
POINT
  5
9C7D
330
936A
100
AcDbEntity
  8
DEFPOINTS
 62
     0
 48
15.0
100
AcDbPoint
 10
1321.369096113077
 20
5726.248968094956
 30
0.0
  0
POINT
  5
9C7E
330
936A
100
AcDbEntity
  8
DEFPOINTS
 62
     0
 48
15.0
100
AcDbPoint
 10
1658.869096113077
 20
5706.248968094956
 30
0.0
  0
POINT
  5
9C7F
330
936A
100
AcDbEntity
  8
DEFPOINTS
 62
     0
 48
15.0
100
AcDbPoint
 10
1658.869096113077
 20
5819.040535004836
 30
0.0
  0
ENDBLK
  5
9375
330
936A
100
AcDbEntity
  8
0
 48
15.0
100
AcDbBlockEnd
  0
BLOCK
  5
9381
330
9376
100
AcDbEntity
  8
0
 48
15.0
100
AcDbBlockBegin
  2
*D216
 70
     1
 10
0.0
 20
0.0
 30
0.0
  3
*D216
  1

  0
LINE
  5
9C80
330
9376
100
AcDbEntity
  8
寸法引出
 48
15.0
370
    -2
100
AcDbLine
 10
1306.369096113077
 20
5726.248968094956
 30
0.0
 11
1229.259794480416
 21
5726.248968094956
 31
0.0
  0
LINE
  5
9C81
330
9376
100
AcDbEntity
  8
寸法引出
 48
15.0
370
    -2
100
AcDbLine
 10
1236.759794480416
 20
5683.748968094956
 30
0.0
 11
1236.759794480416
 21
5661.248968094955
 31
0.0
  0
LINE
  5
9C82
330
9376
100
AcDbEntity
  8
寸法引出
 48
15.0
370
    -2
100
AcDbLine
 10
1236.759794480416
 20
5748.748968094956
 30
0.0
 11
1236.759794480416
 21
5771.248968094956
 31
0.0
  0
LINE
  5
9C83
330
9376
100
AcDbEntity
  8
寸法引出
 48
15.0
370
    -2
100
AcDbLine
 10
1236.759794480416
 20
5706.248968094956
 30
0.0
 11
1236.759794480416
 21
5726.248968094956
 31
0.0
  0
SOLID
  5
9C84
330
9376
100
AcDbEntity
  8
寸法引出
 48
15.0
100
AcDbTrace
 10
1233.009794480415
 20
5683.748968094956
 30
0.0
 11
1240.509794480415
 21
5683.748968094956
 31
0.0
 12
1236.759794480416
 22
5706.248968094956
 32
0.0
 13
1236.759794480416
 23
5706.248968094956
 33
0.0
  0
SOLID
  5
9C85
330
9376
100
AcDbEntity
  8
寸法引出
 48
15.0
100
AcDbTrace
 10
1233.009794480415
 20
5748.748968094956
 30
0.0
 11
1240.509794480415
 21
5748.748968094956
 31
0.0
 12
1236.759794480416
 22
5726.248968094956
 32
0.0
 13
1236.759794480416
 23
5726.248968094956
 33
0.0
  0
MTEXT
  5
9C86
330
9376
100
AcDbEntity
  8
寸法引出
 48
15.0
100
AcDbMText
 10
1206.759794480414
 20
5716.248968094955
 30
0.0
 40
30.0
 41
0.0
 71
     5
 72
     1
  1
\A1;20
  7
SANWA
 11
0.0000000000000001
 21
1.0
 31
0.0
 73
     1
 44
1.0
1001
ACAD
1000
MTEXTBEGIN
1070
    73
1070
     1
1070
    44
1040
1.0
1070
    74
1070
     0
1000
MTEXTEND
  0
POINT
  5
9C87
330
9376
100
AcDbEntity
  8
DEFPOINTS
 62
     0
 48
15.0
100
AcDbPoint
 10
1321.369096113077
 20
5706.248968094956
 30
0.0
  0
POINT
  5
9C88
330
9376
100
AcDbEntity
  8
DEFPOINTS
 62
     0
 48
15.0
100
AcDbPoint
 10
1321.369096113077
 20
5726.248968094956
 30
0.0
  0
POINT
  5
9C89
330
9376
100
AcDbEntity
  8
DEFPOINTS
 62
     0
 48
15.0
100
AcDbPoint
 10
1236.759794480416
 20
5726.248968094956
 30
0.0
  0
ENDBLK
  5
9382
330
9376
100
AcDbEntity
  8
0
 48
15.0
100
AcDbBlockEnd
  0
BLOCK
  5
938D
330
9383
100
AcDbEntity
  8
0
 48
15.0
100
AcDbBlockBegin
  2
*D217
 70
     1
 10
0.0
 20
0.0
 30
0.0
  3
*D217
  1

  0
LINE
  5
9C8A
330
9383
100
AcDbEntity
  8
寸法引出
 48
15.0
370
    -2
100
AcDbLine
 10
1306.369096113077
 20
5586.248968094956
 30
0.0
 11
1229.259794480415
 21
5586.248968094956
 31
0.0
  0
LINE
  5
9C8B
330
9383
100
AcDbEntity
  8
寸法引出
 48
15.0
370
    -2
100
AcDbLine
 10
1306.369096113077
 20
5706.248968094956
 30
0.0
 11
1229.259794480416
 21
5706.248968094956
 31
0.0
  0
LINE
  5
9C8C
330
9383
100
AcDbEntity
  8
寸法引出
 48
15.0
370
    -2
100
AcDbLine
 10
1236.759794480415
 20
5608.748968094956
 30
0.0
 11
1236.759794480416
 21
5683.748968094956
 31
0.0
  0
SOLID
  5
9C8D
330
9383
100
AcDbEntity
  8
寸法引出
 48
15.0
100
AcDbTrace
 10
1233.009794480415
 20
5608.748968094956
 30
0.0
 11
1240.509794480415
 21
5608.748968094956
 31
0.0
 12
1236.759794480415
 22
5586.248968094956
 32
0.0
 13
1236.759794480415
 23
5586.248968094956
 33
0.0
  0
SOLID
  5
9C8E
330
9383
100
AcDbEntity
  8
寸法引出
 48
15.0
100
AcDbTrace
 10
1233.009794480415
 20
5683.748968094956
 30
0.0
 11
1240.509794480415
 21
5683.748968094956
 31
0.0
 12
1236.759794480416
 22
5706.248968094956
 32
0.0
 13
1236.759794480416
 23
5706.248968094956
 33
0.0
  0
MTEXT
  5
9C8F
330
9383
100
AcDbEntity
  8
寸法引出
 48
15.0
100
AcDbMText
 10
1206.759794480414
 20
5646.248968094956
 30
0.0
 40
30.0
 41
0.0
 71
     5
 72
     1
  1
\A1;120
  7
SANWA
 11
0.0000000000000001
 21
1.0
 31
0.0
 73
     1
 44
1.0
1001
ACAD
1000
MTEXTBEGIN
1070
    73
1070
     1
1070
    44
1040
1.0
1070
    74
1070
     0
1000
MTEXTEND
  0
POINT
  5
9C90
330
9383
100
AcDbEntity
  8
DEFPOINTS
 62
     0
 48
15.0
100
AcDbPoint
 10
1321.369096113077
 20
5586.248968094956
 30
0.0
  0
POINT
  5
9C91
330
9383
100
AcDbEntity
  8
DEFPOINTS
 62
     0
 48
15.0
100
AcDbPoint
 10
1321.369096113077
 20
5706.248968094956
 30
0.0
  0
POINT
  5
9C92
330
9383
100
AcDbEntity
  8
DEFPOINTS
 62
     0
 48
15.0
100
AcDbPoint
 10
1236.759794480416
 20
5706.248968094956
 30
0.0
  0
ENDBLK
  5
938E
330
9383
100
AcDbEntity
  8
0
 48
15.0
100
AcDbBlockEnd
  0
BLOCK
  5
939B
330
938F
100
AcDbEntity
  8
0
 48
15.0
100
AcDbBlockBegin
  2
*D218
 70
     1
 10
0.0
 20
0.0
 30
0.0
  3
*D218
  1

  0
LINE
  5
9C93
330
938F
100
AcDbEntity
  8
寸法引出
 48
15.0
370
    -2
100
AcDbLine
 10
1321.369096113077
 20
5571.248968094955
 30
0.0
 11
1321.369096113077
 21
5485.216593074924
 31
0.0
  0
LINE
  5
9C94
330
938F
100
AcDbEntity
  8
寸法引出
 48
15.0
370
    -2
100
AcDbLine
 10
1356.369096113077
 20
5571.248968094955
 30
0.0
 11
1356.369096113077
 21
5485.216593074924
 31
0.0
  0
LINE
  5
9C95
330
938F
100
AcDbEntity
  8
寸法引出
 48
15.0
370
    -2
100
AcDbLine
 10
1298.869096113077
 20
5492.716593074924
 30
0.0
 11
1276.369096113077
 21
5492.716593074924
 31
0.0
  0
LINE
  5
9C96
330
938F
100
AcDbEntity
  8
寸法引出
 48
15.0
370
    -2
100
AcDbLine
 10
1378.869096113077
 20
5492.716593074924
 30
0.0
 11
1401.369096113077
 21
5492.716593074924
 31
0.0
  0
LINE
  5
9C97
330
938F
100
AcDbEntity
  8
寸法引出
 48
15.0
370
    -2
100
AcDbLine
 10
1321.369096113077
 20
5492.716593074924
 30
0.0
 11
1356.369096113077
 21
5492.716593074924
 31
0.0
  0
SOLID
  5
9C98
330
938F
100
AcDbEntity
  8
寸法引出
 48
15.0
100
AcDbTrace
 10
1298.869096113077
 20
5496.466593074924
 30
0.0
 11
1298.869096113077
 21
5488.966593074924
 31
0.0
 12
1321.369096113077
 22
5492.716593074924
 32
0.0
 13
1321.369096113077
 23
5492.716593074924
 33
0.0
  0
SOLID
  5
9C99
330
938F
100
AcDbEntity
  8
寸法引出
 48
15.0
100
AcDbTrace
 10
1378.869096113077
 20
5496.466593074924
 30
0.0
 11
1378.869096113077
 21
5488.966593074924
 31
0.0
 12
1356.369096113077
 22
5492.716593074924
 32
0.0
 13
1356.369096113077
 23
5492.716593074924
 33
0.0
  0
MTEXT
  5
9C9A
330
938F
100
AcDbEntity
  8
寸法引出
 48
15.0
100
AcDbMText
 10
1338.869096113077
 20
5522.716593074925
 30
0.0
 40
30.0
 41
0.0
 71
     5
 72
     1
  1
\A1;35
  7
SANWA
 73
     1
 44
1.0
1001
ACAD
1000
MTEXTBEGIN
1070
    73
1070
     1
1070
    44
1040
1.0
1070
    74
1070
     0
1000
MTEXTEND
  0
POINT
  5
9C9B
330
938F
100
AcDbEntity
  8
DEFPOINTS
 62
     0
 48
15.0
100
AcDbPoint
 10
1321.369096113077
 20
5586.248968094956
 30
0.0
  0
POINT
  5
9C9C
330
938F
100
AcDbEntity
  8
DEFPOINTS
 62
     0
 48
15.0
100
AcDbPoint
 10
1356.369096113077
 20
5586.248968094956
 30
0.0
  0
POINT
  5
9C9D
330
938F
100
AcDbEntity
  8
DEFPOINTS
 62
     0
 48
15.0
100
AcDbPoint
 10
1356.369096113077
 20
5492.716593074924
 30
0.0
  0
ENDBLK
  5
939C
330
938F
100
AcDbEntity
  8
0
 48
15.0
100
AcDbBlockEnd
  0
BLOCK
  5
93A9
330
939D
100
AcDbEntity
  8
0
 48
15.0
100
AcDbBlockBegin
  2
*D219
 70
     1
 10
0.0
 20
0.0
 30
0.0
  3
*D219
  1

  0
LINE
  5
9C9E
330
939D
100
AcDbEntity
  8
寸法引出
 48
15.0
370
    -2
100
AcDbLine
 10
1738.869096113077
 20
5668.248968094956
 30
0.0
 11
1811.676137544257
 21
5668.248968094956
 31
0.0
  0
LINE
  5
9C9F
330
939D
100
AcDbEntity
  8
寸法引出
 48
15.0
370
    -2
100
AcDbLine
 10
1749.369096113077
 20
5665.948968094956
 30
0.0
 11
1811.676137544257
 21
5665.948968094956
 31
0.0
  0
LINE
  5
9CA0
330
939D
100
AcDbEntity
  8
寸法引出
 48
15.0
370
    -2
100
AcDbLine
 10
1804.176137544257
 20
5690.748968094956
 30
0.0
 11
1804.176137544257
 21
5713.248968094956
 31
0.0
  0
LINE
  5
9CA1
330
939D
100
AcDbEntity
  8
寸法引出
 48
15.0
370
    -2
100
AcDbLine
 10
1804.176137544257
 20
5643.448968094957
 30
0.0
 11
1804.176137544257
 21
5620.948968094957
 31
0.0
  0
LINE
  5
9CA2
330
939D
100
AcDbEntity
  8
寸法引出
 48
15.0
370
    -2
100
AcDbLine
 10
1804.176137544257
 20
5668.248968094956
 30
0.0
 11
1804.176137544257
 21
5665.948968094956
 31
0.0
  0
SOLID
  5
9CA3
330
939D
100
AcDbEntity
  8
寸法引出
 48
15.0
100
AcDbTrace
 10
1800.426137544257
 20
5690.748968094956
 30
0.0
 11
1807.926137544257
 21
5690.748968094956
 31
0.0
 12
1804.176137544257
 22
5668.248968094956
 32
0.0
 13
1804.176137544257
 23
5668.248968094956
 33
0.0
  0
SOLID
  5
9CA4
330
939D
100
AcDbEntity
  8
寸法引出
 48
15.0
100
AcDbTrace
 10
1800.426137544257
 20
5643.448968094957
 30
0.0
 11
1807.926137544257
 21
5643.448968094957
 31
0.0
 12
1804.176137544257
 22
5665.948968094956
 32
0.0
 13
1804.176137544257
 23
5665.948968094956
 33
0.0
  0
MTEXT
  5
9CA5
330
939D
100
AcDbEntity
  8
寸法引出
 48
15.0
100
AcDbMText
 10
1774.176137544256
 20
5667.098968094956
 30
0.0
 40
30.0
 41
0.0
 71
     5
 72
     1
  1
\A1;2.3
  7
SANWA
 11
0.0000000000000001
 21
1.0
 31
0.0
 73
     1
 44
1.0
1001
ACAD
1000
MTEXTBEGIN
1070
    73
1070
     1
1070
    44
1040
1.0
1070
    74
1070
     0
1000
MTEXTEND
  0
POINT
  5
9CA6
330
939D
100
AcDbEntity
  8
DEFPOINTS
 62
     0
 48
15.0
100
AcDbPoint
 10
1723.869096113077
 20
5668.248968094956
 30
0.0
  0
POINT
  5
9CA7
330
939D
100
AcDbEntity
  8
DEFPOINTS
 62
     0
 48
15.0
100
AcDbPoint
 10
1734.369096113077
 20
5665.948968094956
 30
0.0
  0
POINT
  5
9CA8
330
939D
100
AcDbEntity
  8
DEFPOINTS
 62
     0
 48
15.0
100
AcDbPoint
 10
1804.176137544257
 20
5665.948968094956
 30
0.0
  0
ENDBLK
  5
93AA
330
939D
100
AcDbEntity
  8
0
 48
15.0
100
AcDbBlockEnd
  0
BLOCK
  5
93B5
330
93AB
100
AcDbEntity
  8
0
 48
15.0
100
AcDbBlockBegin
  2
*D220
 70
     1
 10
0.0
 20
0.0
 30
0.0
  3
*D220
  1

  0
LINE
  5
9CA9
330
93AB
100
AcDbEntity
  8
寸法引出
 48
15.0
370
    -2
100
AcDbLine
 10
1643.369096113077
 20
5571.248968094955
 30
0.0
 11
1643.369096113077
 21
5427.750741623416
 31
0.0
  0
LINE
  5
9CAA
330
93AB
100
AcDbEntity
  8
寸法引出
 48
15.0
370
    -2
100
AcDbLine
 10
1739.369096113077
 20
5571.248968094955
 30
0.0
 11
1739.369096113077
 21
5427.750741623416
 31
0.0
  0
LINE
  5
9CAB
330
93AB
100
AcDbEntity
  8
寸法引出
 48
15.0
370
    -2
100
AcDbLine
 10
1665.869096113077
 20
5435.250741623416
 30
0.0
 11
1716.869096113077
 21
5435.250741623416
 31
0.0
  0
SOLID
  5
9CAC
330
93AB
100
AcDbEntity
  8
寸法引出
 48
15.0
100
AcDbTrace
 10
1665.869096113077
 20
5439.000741623416
 30
0.0
 11
1665.869096113077
 21
5431.500741623416
 31
0.0
 12
1643.369096113077
 22
5435.250741623416
 32
0.0
 13
1643.369096113077
 23
5435.250741623416
 33
0.0
  0
SOLID
  5
9CAD
330
93AB
100
AcDbEntity
  8
寸法引出
 48
15.0
100
AcDbTrace
 10
1716.869096113077
 20
5439.000741623416
 30
0.0
 11
1716.869096113077
 21
5431.500741623416
 31
0.0
 12
1739.369096113077
 22
5435.250741623416
 32
0.0
 13
1739.369096113077
 23
5435.250741623416
 33
0.0
  0
MTEXT
  5
9CAE
330
93AB
100
AcDbEntity
  8
寸法引出
 48
15.0
100
AcDbMText
 10
1691.369096113077
 20
5465.250741623416
 30
0.0
 40
30.0
 41
0.0
 71
     5
 72
     1
  1
\A1;96
  7
SANWA
 73
     1
 44
1.0
1001
ACAD
1000
MTEXTBEGIN
1070
    73
1070
     1
1070
    44
1040
1.0
1070
    74
1070
     0
1000
MTEXTEND
  0
POINT
  5
9CAF
330
93AB
100
AcDbEntity
  8
DEFPOINTS
 62
     0
 48
15.0
100
AcDbPoint
 10
1643.369096113077
 20
5586.248968094956
 30
0.0
  0
POINT
  5
9CB0
330
93AB
100
AcDbEntity
  8
DEFPOINTS
 62
     0
 48
15.0
100
AcDbPoint
 10
1739.369096113077
 20
5586.248968094956
 30
0.0
  0
POINT
  5
9CB1
330
93AB
100
AcDbEntity
  8
DEFPOINTS
 62
     0
 48
15.0
100
AcDbPoint
 10
1739.369096113077
 20
5435.250741623416
 30
0.0
  0
ENDBLK
  5
93B6
330
93AB
100
AcDbEntity
  8
0
 48
15.0
100
AcDbBlockEnd
  0
BLOCK
  5
93C1
330
93B7
100
AcDbEntity
  8
0
 48
15.0
100
AcDbBlockBegin
  2
*D221
 70
     1
 10
0.0
 20
0.0
 30
0.0
  3
*D221
  1

  0
LINE
  5
9CB2
330
93B7
100
AcDbEntity
  8
寸法引出
 48
15.0
370
    -2
100
AcDbLine
 10
1648.369096113077
 20
5580.248968094956
 30
0.0
 11
1648.369096113077
 21
5485.216593074924
 31
0.0
  0
LINE
  5
9CB3
330
93B7
100
AcDbEntity
  8
寸法引出
 48
15.0
370
    -2
100
AcDbLine
 10
1734.369096113077
 20
5580.248968094956
 30
0.0
 11
1734.369096113077
 21
5485.216593074924
 31
0.0
  0
LINE
  5
9CB4
330
93B7
100
AcDbEntity
  8
寸法引出
 48
15.0
370
    -2
100
AcDbLine
 10
1670.869096113077
 20
5492.716593074924
 30
0.0
 11
1711.869096113077
 21
5492.716593074924
 31
0.0
  0
SOLID
  5
9CB5
330
93B7
100
AcDbEntity
  8
寸法引出
 48
15.0
100
AcDbTrace
 10
1670.869096113077
 20
5496.466593074924
 30
0.0
 11
1670.869096113077
 21
5488.966593074924
 31
0.0
 12
1648.369096113077
 22
5492.716593074924
 32
0.0
 13
1648.369096113077
 23
5492.716593074924
 33
0.0
  0
SOLID
  5
9CB6
330
93B7
100
AcDbEntity
  8
寸法引出
 48
15.0
100
AcDbTrace
 10
1711.869096113077
 20
5496.466593074924
 30
0.0
 11
1711.869096113077
 21
5488.966593074924
 31
0.0
 12
1734.369096113077
 22
5492.716593074924
 32
0.0
 13
1734.369096113077
 23
5492.716593074924
 33
0.0
  0
MTEXT
  5
9CB7
330
93B7
100
AcDbEntity
  8
寸法引出
 48
15.0
100
AcDbMText
 10
1691.369096113077
 20
5522.716593074925
 30
0.0
 40
30.0
 41
0.0
 71
     5
 72
     1
  1
\A1;86
  7
SANWA
 73
     1
 44
1.0
1001
ACAD
1000
MTEXTBEGIN
1070
    73
1070
     1
1070
    44
1040
1.0
1070
    74
1070
     0
1000
MTEXTEND
  0
POINT
  5
9CB8
330
93B7
100
AcDbEntity
  8
DEFPOINTS
 62
     0
 48
15.0
100
AcDbPoint
 10
1648.369096113077
 20
5595.248968094955
 30
0.0
  0
POINT
  5
9CB9
330
93B7
100
AcDbEntity
  8
DEFPOINTS
 62
     0
 48
15.0
100
AcDbPoint
 10
1734.369096113077
 20
5595.248968094955
 30
0.0
  0
POINT
  5
9CBA
330
93B7
100
AcDbEntity
  8
DEFPOINTS
 62
     0
 48
15.0
100
AcDbPoint
 10
1734.369096113077
 20
5492.716593074924
 30
0.0
  0
ENDBLK
  5
93C2
330
93B7
100
AcDbEntity
  8
0
 48
15.0
100
AcDbBlockEnd
  0
BLOCK
  5
93CE
330
93C3
100
AcDbEntity
  8
0
 48
15.0
100
AcDbBlockBegin
  2
*D222
 70
     1
 10
0.0
 20
0.0
 30
0.0
  3
*D222
  1

  0
LINE
  5
9CBB
330
93C3
100
AcDbEntity
  8
寸法引出
 48
15.0
370
    -2
100
AcDbLine
 10
1723.869096113077
 20
5721.248968094956
 30
0.0
 11
1723.869096113077
 21
5826.540535004836
 31
0.0
  0
LINE
  5
9CBC
330
93C3
100
AcDbEntity
  8
寸法引出
 48
15.0
370
    -2
100
AcDbLine
 10
1636.369096113076
 20
5819.040535004836
 30
0.0
 11
1613.869096113077
 21
5819.040535004836
 31
0.0
  0
LINE
  5
9CBD
330
93C3
100
AcDbEntity
  8
寸法引出
 48
15.0
370
    -2
100
AcDbLine
 10
1746.369096113077
 20
5819.040535004836
 30
0.0
 11
1768.869096113077
 21
5819.040535004836
 31
0.0
  0
LINE
  5
9CBE
330
93C3
100
AcDbEntity
  8
寸法引出
 48
15.0
370
    -2
100
AcDbLine
 10
1658.869096113077
 20
5819.040535004836
 30
0.0
 11
1723.869096113077
 21
5819.040535004836
 31
0.0
  0
SOLID
  5
9CBF
330
93C3
100
AcDbEntity
  8
寸法引出
 48
15.0
100
AcDbTrace
 10
1636.369096113076
 20
5822.790535004836
 30
0.0
 11
1636.369096113076
 21
5815.290535004836
 31
0.0
 12
1658.869096113077
 22
5819.040535004836
 32
0.0
 13
1658.869096113077
 23
5819.040535004836
 33
0.0
  0
SOLID
  5
9CC0
330
93C3
100
AcDbEntity
  8
寸法引出
 48
15.0
100
AcDbTrace
 10
1746.369096113077
 20
5822.790535004836
 30
0.0
 11
1746.369096113077
 21
5815.290535004836
 31
0.0
 12
1723.869096113077
 22
5819.040535004836
 32
0.0
 13
1723.869096113077
 23
5819.040535004836
 33
0.0
  0
MTEXT
  5
9CC1
330
93C3
100
AcDbEntity
  8
寸法引出
 48
15.0
100
AcDbMText
 10
1691.369096113077
 20
5849.040535004836
 30
0.0
 40
30.0
 41
0.0
 71
     5
 72
     1
  1
\A1;65
  7
SANWA
 73
     1
 44
1.0
1001
ACAD
1000
MTEXTBEGIN
1070
    73
1070
     1
1070
    44
1040
1.0
1070
    74
1070
     0
1000
MTEXTEND
  0
POINT
  5
9CC2
330
93C3
100
AcDbEntity
  8
DEFPOINTS
 62
     0
 48
15.0
100
AcDbPoint
 10
1658.869096113077
 20
5706.248968094956
 30
0.0
  0
POINT
  5
9CC3
330
93C3
100
AcDbEntity
  8
DEFPOINTS
 62
     0
 48
15.0
100
AcDbPoint
 10
1723.869096113077
 20
5706.248968094956
 30
0.0
  0
POINT
  5
9CC4
330
93C3
100
AcDbEntity
  8
DEFPOINTS
 62
     0
 48
15.0
100
AcDbPoint
 10
1723.869096113077
 20
5819.040535004836
 30
0.0
  0
ENDBLK
  5
93CF
330
93C3
100
AcDbEntity
  8
0
 48
15.0
100
AcDbBlockEnd
  0
BLOCK
  5
93DA
330
93D0
100
AcDbEntity
  8
0
 48
15.0
100
AcDbBlockBegin
  2
*D223
 70
     1
 10
0.0
 20
0.0
 30
0.0
  3
*D223
  1

  0
LINE
  5
9CC5
330
93D0
100
AcDbEntity
  8
寸法引出
 48
15.0
370
    -2
100
AcDbLine
 10
2076.369096113077
 20
5726.248968094956
 30
0.0
 11
2160.918645053088
 21
5726.248968094956
 31
0.0
  0
LINE
  5
9CC6
330
93D0
100
AcDbEntity
  8
寸法引出
 48
15.0
370
    -2
100
AcDbLine
 10
2076.369096113077
 20
5586.248968094956
 30
0.0
 11
2160.918645053088
 21
5586.248968094956
 31
0.0
  0
LINE
  5
9CC7
330
93D0
100
AcDbEntity
  8
寸法引出
 48
15.0
370
    -2
100
AcDbLine
 10
2153.418645053088
 20
5703.748968094956
 30
0.0
 11
2153.418645053088
 21
5608.748968094956
 31
0.0
  0
SOLID
  5
9CC8
330
93D0
100
AcDbEntity
  8
寸法引出
 48
15.0
100
AcDbTrace
 10
2149.668645053088
 20
5703.748968094956
 30
0.0
 11
2157.168645053088
 21
5703.748968094956
 31
0.0
 12
2153.418645053088
 22
5726.248968094956
 32
0.0
 13
2153.418645053088
 23
5726.248968094956
 33
0.0
  0
SOLID
  5
9CC9
330
93D0
100
AcDbEntity
  8
寸法引出
 48
15.0
100
AcDbTrace
 10
2149.668645053088
 20
5608.748968094956
 30
0.0
 11
2157.168645053088
 21
5608.748968094956
 31
0.0
 12
2153.418645053088
 22
5586.248968094956
 32
0.0
 13
2153.418645053088
 23
5586.248968094956
 33
0.0
  0
MTEXT
  5
9CCA
330
93D0
100
AcDbEntity
  8
寸法引出
 48
15.0
100
AcDbMText
 10
2123.418645053087
 20
5656.248968094956
 30
0.0
 40
30.0
 41
0.0
 71
     5
 72
     1
  1
\A1;140
  7
SANWA
 11
0.0000000000000001
 21
1.0
 31
0.0
 73
     1
 44
1.0
1001
ACAD
1000
MTEXTBEGIN
1070
    73
1070
     1
1070
    44
1040
1.0
1070
    74
1070
     0
1000
MTEXTEND
  0
POINT
  5
9CCB
330
93D0
100
AcDbEntity
  8
DEFPOINTS
 62
     0
 48
15.0
100
AcDbPoint
 10
2061.369096113077
 20
5726.248968094956
 30
0.0
  0
POINT
  5
9CCC
330
93D0
100
AcDbEntity
  8
DEFPOINTS
 62
     0
 48
15.0
100
AcDbPoint
 10
2061.369096113077
 20
5586.248968094956
 30
0.0
  0
POINT
  5
9CCD
330
93D0
100
AcDbEntity
  8
DEFPOINTS
 62
     0
 48
15.0
100
AcDbPoint
 10
2153.418645053088
 20
5586.248968094956
 30
0.0
  0
ENDBLK
  5
93DB
330
93D0
100
AcDbEntity
  8
0
 48
15.0
100
AcDbBlockEnd
  0
BLOCK
  5
93E8
330
93DC
100
AcDbEntity
  8
0
 48
15.0
100
AcDbBlockBegin
  2
*D224
 70
     1
 10
0.0
 20
0.0
 30
0.0
  3
*D224
  1

  0
LINE
  5
9CCE
330
93DC
100
AcDbEntity
  8
寸法引出
 48
15.0
370
    -2
100
AcDbLine
 10
2026.369096113077
 20
5571.248968094955
 30
0.0
 11
2026.369096113077
 21
5485.216593074924
 31
0.0
  0
LINE
  5
9CCF
330
93DC
100
AcDbEntity
  8
寸法引出
 48
15.0
370
    -2
100
AcDbLine
 10
2061.369096113077
 20
5571.248968094955
 30
0.0
 11
2061.369096113077
 21
5485.216593074924
 31
0.0
  0
LINE
  5
9CD0
330
93DC
100
AcDbEntity
  8
寸法引出
 48
15.0
370
    -2
100
AcDbLine
 10
2003.869096113077
 20
5492.716593074924
 30
0.0
 11
1981.369096113077
 21
5492.716593074924
 31
0.0
  0
LINE
  5
9CD1
330
93DC
100
AcDbEntity
  8
寸法引出
 48
15.0
370
    -2
100
AcDbLine
 10
2083.869096113077
 20
5492.716593074924
 30
0.0
 11
2106.369096113077
 21
5492.716593074924
 31
0.0
  0
LINE
  5
9CD2
330
93DC
100
AcDbEntity
  8
寸法引出
 48
15.0
370
    -2
100
AcDbLine
 10
2026.369096113077
 20
5492.716593074924
 30
0.0
 11
2061.369096113077
 21
5492.716593074924
 31
0.0
  0
SOLID
  5
9CD3
330
93DC
100
AcDbEntity
  8
寸法引出
 48
15.0
100
AcDbTrace
 10
2003.869096113077
 20
5496.466593074924
 30
0.0
 11
2003.869096113077
 21
5488.966593074924
 31
0.0
 12
2026.369096113077
 22
5492.716593074924
 32
0.0
 13
2026.369096113077
 23
5492.716593074924
 33
0.0
  0
SOLID
  5
9CD4
330
93DC
100
AcDbEntity
  8
寸法引出
 48
15.0
100
AcDbTrace
 10
2083.869096113077
 20
5496.466593074924
 30
0.0
 11
2083.869096113077
 21
5488.966593074924
 31
0.0
 12
2061.369096113077
 22
5492.716593074924
 32
0.0
 13
2061.369096113077
 23
5492.716593074924
 33
0.0
  0
MTEXT
  5
9CD5
330
93DC
100
AcDbEntity
  8
寸法引出
 48
15.0
100
AcDbMText
 10
2043.869096113077
 20
5522.716593074925
 30
0.0
 40
30.0
 41
0.0
 71
     5
 72
     1
  1
\A1;35
  7
SANWA
 73
     1
 44
1.0
1001
ACAD
1000
MTEXTBEGIN
1070
    73
1070
     1
1070
    44
1040
1.0
1070
    74
1070
     0
1000
MTEXTEND
  0
POINT
  5
9CD6
330
93DC
100
AcDbEntity
  8
DEFPOINTS
 62
     0
 48
15.0
100
AcDbPoint
 10
2026.369096113077
 20
5586.248968094956
 30
0.0
  0
POINT
  5
9CD7
330
93DC
100
AcDbEntity
  8
DEFPOINTS
 62
     0
 48
15.0
100
AcDbPoint
 10
2061.369096113077
 20
5586.248968094956
 30
0.0
  0
POINT
  5
9CD8
330
93DC
100
AcDbEntity
  8
DEFPOINTS
 62
     0
 48
15.0
100
AcDbPoint
 10
2061.369096113077
 20
5492.716593074924
 30
0.0
  0
ENDBLK
  5
93E9
330
93DC
100
AcDbEntity
  8
0
 48
15.0
100
AcDbBlockEnd
  0
BLOCK
  5
93F5
330
93EA
100
AcDbEntity
  8
0
 48
15.0
100
AcDbBlockBegin
  2
*D225
 70
     1
 10
0.0
 20
0.0
 30
0.0
  3
*D225
  1

  0
LINE
  5
9CD9
330
93EA
100
AcDbEntity
  8
寸法引出
 48
15.0
370
    -2
100
AcDbLine
 10
2502.190960854838
 20
5726.248968094956
 30
0.0
 11
2421.931582317739
 21
5726.248968094956
 31
0.0
  0
LINE
  5
9CDA
330
93EA
100
AcDbEntity
  8
寸法引出
 48
15.0
370
    -2
100
AcDbLine
 10
2429.431582317739
 20
5683.748968094956
 30
0.0
 11
2429.431582317739
 21
5661.248968094955
 31
0.0
  0
LINE
  5
9CDB
330
93EA
100
AcDbEntity
  8
寸法引出
 48
15.0
370
    -2
100
AcDbLine
 10
2429.431582317739
 20
5748.748968094956
 30
0.0
 11
2429.431582317739
 21
5771.248968094956
 31
0.0
  0
LINE
  5
9CDC
330
93EA
100
AcDbEntity
  8
寸法引出
 48
15.0
370
    -2
100
AcDbLine
 10
2429.431582317739
 20
5706.248968094956
 30
0.0
 11
2429.431582317739
 21
5726.248968094956
 31
0.0
  0
SOLID
  5
9CDD
330
93EA
100
AcDbEntity
  8
寸法引出
 48
15.0
100
AcDbTrace
 10
2425.681582317739
 20
5683.748968094956
 30
0.0
 11
2433.181582317739
 21
5683.748968094956
 31
0.0
 12
2429.431582317739
 22
5706.248968094956
 32
0.0
 13
2429.431582317739
 23
5706.248968094956
 33
0.0
  0
SOLID
  5
9CDE
330
93EA
100
AcDbEntity
  8
寸法引出
 48
15.0
100
AcDbTrace
 10
2425.681582317739
 20
5748.748968094956
 30
0.0
 11
2433.181582317739
 21
5748.748968094956
 31
0.0
 12
2429.431582317739
 22
5726.248968094956
 32
0.0
 13
2429.431582317739
 23
5726.248968094956
 33
0.0
  0
MTEXT
  5
9CDF
330
93EA
100
AcDbEntity
  8
寸法引出
 48
15.0
100
AcDbMText
 10
2399.431582317738
 20
5716.248968094957
 30
0.0
 40
30.0
 41
0.0
 71
     5
 72
     1
  1
\A1;20
  7
SANWA
 11
0.0000000000000001
 21
1.0
 31
0.0
 73
     1
 44
1.0
1001
ACAD
1000
MTEXTBEGIN
1070
    73
1070
     1
1070
    44
1040
1.0
1070
    74
1070
     0
1000
MTEXTEND
  0
POINT
  5
9CE0
330
93EA
100
AcDbEntity
  8
DEFPOINTS
 62
     0
 48
15.0
100
AcDbPoint
 10
2517.190960854839
 20
5706.248968094956
 30
0.0
  0
POINT
  5
9CE1
330
93EA
100
AcDbEntity
  8
DEFPOINTS
 62
     0
 48
15.0
100
AcDbPoint
 10
2517.190960854839
 20
5726.248968094956
 30
0.0
  0
POINT
  5
9CE2
330
93EA
100
AcDbEntity
  8
DEFPOINTS
 62
     0
 48
15.0
100
AcDbPoint
 10
2429.431582317739
 20
5726.248968094956
 30
0.0
  0
ENDBLK
  5
93F6
330
93EA
100
AcDbEntity
  8
0
 48
15.0
100
AcDbBlockEnd
  0
BLOCK
  5
9401
330
93F7
100
AcDbEntity
  8
0
 48
15.0
100
AcDbBlockBegin
  2
*D226
 70
     1
 10
0.0
 20
0.0
 30
0.0
  3
*D226
  1

  0
LINE
  5
9CE3
330
93F7
100
AcDbEntity
  8
寸法引出
 48
15.0
370
    -2
100
AcDbLine
 10
2502.190960854838
 20
5586.248968094956
 30
0.0
 11
2421.931582317739
 21
5586.248968094956
 31
0.0
  0
LINE
  5
9CE4
330
93F7
100
AcDbEntity
  8
寸法引出
 48
15.0
370
    -2
100
AcDbLine
 10
2502.190960854838
 20
5706.248968094956
 30
0.0
 11
2421.931582317739
 21
5706.248968094956
 31
0.0
  0
LINE
  5
9CE5
330
93F7
100
AcDbEntity
  8
寸法引出
 48
15.0
370
    -2
100
AcDbLine
 10
2429.431582317739
 20
5608.748968094956
 30
0.0
 11
2429.431582317739
 21
5683.748968094956
 31
0.0
  0
SOLID
  5
9CE6
330
93F7
100
AcDbEntity
  8
寸法引出
 48
15.0
100
AcDbTrace
 10
2425.681582317739
 20
5608.748968094956
 30
0.0
 11
2433.181582317739
 21
5608.748968094956
 31
0.0
 12
2429.431582317739
 22
5586.248968094956
 32
0.0
 13
2429.431582317739
 23
5586.248968094956
 33
0.0
  0
SOLID
  5
9CE7
330
93F7
100
AcDbEntity
  8
寸法引出
 48
15.0
100
AcDbTrace
 10
2425.681582317739
 20
5683.748968094956
 30
0.0
 11
2433.181582317739
 21
5683.748968094956
 31
0.0
 12
2429.431582317739
 22
5706.248968094956
 32
0.0
 13
2429.431582317739
 23
5706.248968094956
 33
0.0
  0
MTEXT
  5
9CE8
330
93F7
100
AcDbEntity
  8
寸法引出
 48
15.0
100
AcDbMText
 10
2399.431582317738
 20
5646.248968094957
 30
0.0
 40
30.0
 41
0.0
 71
     5
 72
     1
  1
\A1;120
  7
SANWA
 11
0.0000000000000001
 21
1.0
 31
0.0
 73
     1
 44
1.0
1001
ACAD
1000
MTEXTBEGIN
1070
    73
1070
     1
1070
    44
1040
1.0
1070
    74
1070
     0
1000
MTEXTEND
  0
POINT
  5
9CE9
330
93F7
100
AcDbEntity
  8
DEFPOINTS
 62
     0
 48
15.0
100
AcDbPoint
 10
2517.190960854839
 20
5586.248968094956
 30
0.0
  0
POINT
  5
9CEA
330
93F7
100
AcDbEntity
  8
DEFPOINTS
 62
     0
 48
15.0
100
AcDbPoint
 10
2517.190960854839
 20
5706.248968094956
 30
0.0
  0
POINT
  5
9CEB
330
93F7
100
AcDbEntity
  8
DEFPOINTS
 62
     0
 48
15.0
100
AcDbPoint
 10
2429.431582317739
 20
5706.248968094956
 30
0.0
  0
ENDBLK
  5
9402
330
93F7
100
AcDbEntity
  8
0
 48
15.0
100
AcDbBlockEnd
  0
BLOCK
  5
940D
330
9403
100
AcDbEntity
  8
0
 48
15.0
100
AcDbBlockBegin
  2
*D227
 70
     1
 10
0.0
 20
0.0
 30
0.0
  3
*D227
  1

  0
LINE
  5
9CEC
330
9403
100
AcDbEntity
  8
寸法引出
 48
15.0
370
    -2
100
AcDbLine
 10
2517.190960854839
 20
5571.248968094955
 30
0.0
 11
2517.190960854839
 21
5483.425203833299
 31
0.0
  0
LINE
  5
9CED
330
9403
100
AcDbEntity
  8
寸法引出
 48
15.0
370
    -2
100
AcDbLine
 10
2637.190960854839
 20
5571.248968094955
 30
0.0
 11
2637.190960854839
 21
5483.425203833299
 31
0.0
  0
LINE
  5
9CEE
330
9403
100
AcDbEntity
  8
寸法引出
 48
15.0
370
    -2
100
AcDbLine
 10
2539.690960854839
 20
5490.925203833299
 30
0.0
 11
2614.690960854839
 21
5490.925203833299
 31
0.0
  0
SOLID
  5
9CEF
330
9403
100
AcDbEntity
  8
寸法引出
 48
15.0
100
AcDbTrace
 10
2539.690960854839
 20
5494.675203833299
 30
0.0
 11
2539.690960854839
 21
5487.175203833299
 31
0.0
 12
2517.190960854839
 22
5490.925203833299
 32
0.0
 13
2517.190960854839
 23
5490.925203833299
 33
0.0
  0
SOLID
  5
9CF0
330
9403
100
AcDbEntity
  8
寸法引出
 48
15.0
100
AcDbTrace
 10
2614.690960854839
 20
5494.675203833299
 30
0.0
 11
2614.690960854839
 21
5487.175203833299
 31
0.0
 12
2637.190960854839
 22
5490.925203833299
 32
0.0
 13
2637.190960854839
 23
5490.925203833299
 33
0.0
  0
MTEXT
  5
9CF1
330
9403
100
AcDbEntity
  8
寸法引出
 48
15.0
100
AcDbMText
 10
2577.190960854839
 20
5520.925203833299
 30
0.0
 40
30.0
 41
0.0
 71
     5
 72
     1
  1
\A1;120
  7
SANWA
 73
     1
 44
1.0
1001
ACAD
1000
MTEXTBEGIN
1070
    73
1070
     1
1070
    44
1040
1.0
1070
    74
1070
     0
1000
MTEXTEND
  0
POINT
  5
9CF2
330
9403
100
AcDbEntity
  8
DEFPOINTS
 62
     0
 48
15.0
100
AcDbPoint
 10
2517.190960854839
 20
5586.248968094956
 30
0.0
  0
POINT
  5
9CF3
330
9403
100
AcDbEntity
  8
DEFPOINTS
 62
     0
 48
15.0
100
AcDbPoint
 10
2637.190960854839
 20
5586.248968094956
 30
0.0
  0
POINT
  5
9CF4
330
9403
100
AcDbEntity
  8
DEFPOINTS
 62
     0
 48
15.0
100
AcDbPoint
 10
2637.190960854839
 20
5490.925203833299
 30
0.0
  0
ENDBLK
  5
940E
330
9403
100
AcDbEntity
  8
0
 48
15.0
100
AcDbBlockEnd
  0
BLOCK
  5
9418
330
940F
100
AcDbEntity
  8
0
 48
15.0
100
AcDbBlockBegin
  2
*D228
 70
     1
 10
0.0
 20
0.0
 30
0.0
  3
*D228
  1

  0
LINE
  5
9CF5
330
940F
100
AcDbEntity
  8
寸法引出
 48
15.0
370
    -2
100
AcDbLine
 10
3517.190960854839
 20
5571.248968094955
 30
0.0
 11
3517.190960854839
 21
5483.425203833299
 31
0.0
  0
LINE
  5
9CF6
330
940F
100
AcDbEntity
  8
寸法引出
 48
15.0
370
    -2
100
AcDbLine
 10
3419.690960854839
 20
5490.925203833299
 30
0.0
 11
3494.690960854839
 21
5490.925203833299
 31
0.0
  0
SOLID
  5
9CF7
330
940F
100
AcDbEntity
  8
寸法引出
 48
15.0
100
AcDbTrace
 10
3419.690960854839
 20
5494.675203833299
 30
0.0
 11
3419.690960854839
 21
5487.175203833299
 31
0.0
 12
3397.190960854839
 22
5490.925203833299
 32
0.0
 13
3397.190960854839
 23
5490.925203833299
 33
0.0
  0
SOLID
  5
9CF8
330
940F
100
AcDbEntity
  8
寸法引出
 48
15.0
100
AcDbTrace
 10
3494.690960854839
 20
5494.675203833299
 30
0.0
 11
3494.690960854839
 21
5487.175203833299
 31
0.0
 12
3517.190960854839
 22
5490.925203833299
 32
0.0
 13
3517.190960854839
 23
5490.925203833299
 33
0.0
  0
MTEXT
  5
9CF9
330
940F
100
AcDbEntity
  8
寸法引出
 48
15.0
100
AcDbMText
 10
3457.190960854839
 20
5520.925203833299
 30
0.0
 40
30.0
 41
0.0
 71
     5
 72
     1
  1
\A1;120
  7
SANWA
 73
     1
 44
1.0
1001
ACAD
1000
MTEXTBEGIN
1070
    73
1070
     1
1070
    44
1040
1.0
1070
    74
1070
     0
1000
MTEXTEND
  0
POINT
  5
9CFA
330
940F
100
AcDbEntity
  8
DEFPOINTS
 62
     0
 48
15.0
100
AcDbPoint
 10
3397.190960854839
 20
5586.248968094956
 30
0.0
  0
POINT
  5
9CFB
330
940F
100
AcDbEntity
  8
DEFPOINTS
 62
     0
 48
15.0
100
AcDbPoint
 10
3517.190960854839
 20
5586.248968094956
 30
0.0
  0
POINT
  5
9CFC
330
940F
100
AcDbEntity
  8
DEFPOINTS
 62
     0
 48
15.0
100
AcDbPoint
 10
3517.190960854839
 20
5490.925203833299
 30
0.0
  0
ENDBLK
  5
9419
330
940F
100
AcDbEntity
  8
0
 48
15.0
100
AcDbBlockEnd
  0
BLOCK
  5
9424
330
941A
100
AcDbEntity
  8
0
 48
15.0
100
AcDbBlockBegin
  2
*D229
 70
     1
 10
0.0
 20
0.0
 30
0.0
  3
*D229
  1

  0
LINE
  5
9CFD
330
941A
100
AcDbEntity
  8
寸法引出
 48
15.0
370
    -2
100
AcDbLine
 10
3532.190960854839
 20
5726.248968094956
 30
0.0
 11
3642.840063038377
 21
5726.248968094956
 31
0.0
  0
LINE
  5
9CFE
330
941A
100
AcDbEntity
  8
寸法引出
 48
15.0
370
    -2
100
AcDbLine
 10
3532.190960854839
 20
5586.248968094956
 30
0.0
 11
3642.840063038377
 21
5586.248968094956
 31
0.0
  0
LINE
  5
9CFF
330
941A
100
AcDbEntity
  8
寸法引出
 48
15.0
370
    -2
100
AcDbLine
 10
3635.340063038377
 20
5703.748968094956
 30
0.0
 11
3635.340063038377
 21
5608.748968094956
 31
0.0
  0
SOLID
  5
9D00
330
941A
100
AcDbEntity
  8
寸法引出
 48
15.0
100
AcDbTrace
 10
3631.590063038377
 20
5703.748968094956
 30
0.0
 11
3639.090063038377
 21
5703.748968094956
 31
0.0
 12
3635.340063038377
 22
5726.248968094956
 32
0.0
 13
3635.340063038377
 23
5726.248968094956
 33
0.0
  0
SOLID
  5
9D01
330
941A
100
AcDbEntity
  8
寸法引出
 48
15.0
100
AcDbTrace
 10
3631.590063038377
 20
5608.748968094956
 30
0.0
 11
3639.090063038377
 21
5608.748968094956
 31
0.0
 12
3635.340063038377
 22
5586.248968094956
 32
0.0
 13
3635.340063038377
 23
5586.248968094956
 33
0.0
  0
MTEXT
  5
9D02
330
941A
100
AcDbEntity
  8
寸法引出
 48
15.0
100
AcDbMText
 10
3605.340063038376
 20
5656.248968094956
 30
0.0
 40
30.0
 41
0.0
 71
     5
 72
     1
  1
\A1;140
  7
SANWA
 11
0.0000000000000001
 21
1.0
 31
0.0
 73
     1
 44
1.0
1001
ACAD
1000
MTEXTBEGIN
1070
    73
1070
     1
1070
    44
1040
1.0
1070
    74
1070
     0
1000
MTEXTEND
  0
POINT
  5
9D03
330
941A
100
AcDbEntity
  8
DEFPOINTS
 62
     0
 48
15.0
100
AcDbPoint
 10
3517.190960854839
 20
5726.248968094956
 30
0.0
  0
POINT
  5
9D04
330
941A
100
AcDbEntity
  8
DEFPOINTS
 62
     0
 48
15.0
100
AcDbPoint
 10
3517.190960854839
 20
5586.248968094956
 30
0.0
  0
POINT
  5
9D05
330
941A
100
AcDbEntity
  8
DEFPOINTS
 62
     0
 48
15.0
100
AcDbPoint
 10
3635.340063038377
 20
5586.248968094956
 30
0.0
  0
ENDBLK
  5
9425
330
941A
100
AcDbEntity
  8
0
 48
15.0
100
AcDbBlockEnd
  0
BLOCK
  5
9430
330
9426
100
AcDbEntity
  8
0
 48
15.0
100
AcDbBlockBegin
  2
*D230
 70
     1
 10
0.0
 20
0.0
 30
0.0
  3
*D230
  1

  0
LINE
  5
9D06
330
9426
100
AcDbEntity
  8
寸法引出
 48
15.0
370
    -2
100
AcDbLine
 10
7219.181985449688
 20
5741.248968094955
 30
0.0
 11
7219.181985449688
 21
5864.852209816439
 31
0.0
  0
LINE
  5
9D07
330
9426
100
AcDbEntity
  8
寸法引出
 48
15.0
370
    -2
100
AcDbLine
 10
8219.18198544969
 20
5741.248968094955
 30
0.0
 11
8219.18198544969
 21
5864.852209816439
 31
0.0
  0
LINE
  5
9D08
330
9426
100
AcDbEntity
  8
寸法引出
 48
15.0
370
    -2
100
AcDbLine
 10
7241.681985449689
 20
5857.35220981644
 30
0.0
 11
8196.681985449691
 21
5857.35220981644
 31
0.0
  0
SOLID
  5
9D09
330
9426
100
AcDbEntity
  8
寸法引出
 48
15.0
100
AcDbTrace
 10
7241.681985449689
 20
5861.10220981644
 30
0.0
 11
7241.681985449689
 21
5853.60220981644
 31
0.0
 12
7219.181985449688
 22
5857.35220981644
 32
0.0
 13
7219.181985449688
 23
5857.35220981644
 33
0.0
  0
SOLID
  5
9D0A
330
9426
100
AcDbEntity
  8
寸法引出
 48
15.0
100
AcDbTrace
 10
8196.681985449691
 20
5861.10220981644
 30
0.0
 11
8196.681985449691
 21
5853.60220981644
 31
0.0
 12
8219.18198544969
 22
5857.35220981644
 32
0.0
 13
8219.18198544969
 23
5857.35220981644
 33
0.0
  0
MTEXT
  5
9D0B
330
9426
100
AcDbEntity
  8
寸法引出
 48
15.0
100
AcDbMText
 10
7719.18198544969
 20
5887.352209816439
 30
0.0
 40
30.0
 41
0.0
 71
     5
 72
     1
  1
\A1;1000
  7
SANWA
 73
     1
 44
1.0
1001
ACAD
1000
MTEXTBEGIN
1070
    73
1070
     1
1070
    44
1040
1.0
1070
    74
1070
     0
1000
MTEXTEND
  0
POINT
  5
9D0C
330
9426
100
AcDbEntity
  8
DEFPOINTS
 62
     0
 48
15.0
100
AcDbPoint
 10
7219.181985449688
 20
5726.248968094956
 30
0.0
  0
POINT
  5
9D0D
330
9426
100
AcDbEntity
  8
DEFPOINTS
 62
     0
 48
15.0
100
AcDbPoint
 10
8219.18198544969
 20
5726.248968094956
 30
0.0
  0
POINT
  5
9D0E
330
9426
100
AcDbEntity
  8
DEFPOINTS
 62
     0
 48
15.0
100
AcDbPoint
 10
8219.18198544969
 20
5857.35220981644
 30
0.0
  0
ENDBLK
  5
9431
330
9426
100
AcDbEntity
  8
0
 48
15.0
100
AcDbBlockEnd
  0
BLOCK
  5
943C
330
9432
100
AcDbEntity
  8
0
 48
15.0
100
AcDbBlockBegin
  2
*D231
 70
     1
 10
0.0
 20
0.0
 30
0.0
  3
*D231
  1

  0
LINE
  5
9D0F
330
9432
100
AcDbEntity
  8
寸法引出
 48
15.0
370
    -2
100
AcDbLine
 10
7254.181985449689
 20
5741.248968094955
 30
0.0
 11
7254.181985449689
 21
5813.453129106164
 31
0.0
  0
LINE
  5
9D10
330
9432
100
AcDbEntity
  8
寸法引出
 48
15.0
370
    -2
100
AcDbLine
 10
8184.181985449692
 20
5741.248968094955
 30
0.0
 11
8184.181985449692
 21
5813.453129106164
 31
0.0
  0
LINE
  5
9D11
330
9432
100
AcDbEntity
  8
寸法引出
 48
15.0
370
    -2
100
AcDbLine
 10
7276.681985449688
 20
5805.953129106165
 30
0.0
 11
8161.681985449693
 21
5805.953129106165
 31
0.0
  0
SOLID
  5
9D12
330
9432
100
AcDbEntity
  8
寸法引出
 48
15.0
100
AcDbTrace
 10
7276.681985449688
 20
5809.703129106164
 30
0.0
 11
7276.681985449688
 21
5802.203129106165
 31
0.0
 12
7254.181985449689
 22
5805.953129106165
 32
0.0
 13
7254.181985449689
 23
5805.953129106165
 33
0.0
  0
SOLID
  5
9D13
330
9432
100
AcDbEntity
  8
寸法引出
 48
15.0
100
AcDbTrace
 10
8161.681985449693
 20
5809.703129106164
 30
0.0
 11
8161.681985449693
 21
5802.203129106165
 31
0.0
 12
8184.181985449692
 22
5805.953129106165
 32
0.0
 13
8184.181985449692
 23
5805.953129106165
 33
0.0
  0
MTEXT
  5
9D14
330
9432
100
AcDbEntity
  8
寸法引出
 48
15.0
100
AcDbMText
 10
7719.18198544969
 20
5835.953129106165
 30
0.0
 40
30.0
 41
0.0
 71
     5
 72
     1
  1
\A1;930
  7
SANWA
 73
     1
 44
1.0
1001
ACAD
1000
MTEXTBEGIN
1070
    73
1070
     1
1070
    44
1040
1.0
1070
    74
1070
     0
1000
MTEXTEND
  0
POINT
  5
9D15
330
9432
100
AcDbEntity
  8
DEFPOINTS
 62
     0
 48
15.0
100
AcDbPoint
 10
7254.181985449689
 20
5726.248968094956
 30
0.0
  0
POINT
  5
9D16
330
9432
100
AcDbEntity
  8
DEFPOINTS
 62
     0
 48
15.0
100
AcDbPoint
 10
8184.181985449692
 20
5726.248968094956
 30
0.0
  0
POINT
  5
9D17
330
9432
100
AcDbEntity
  8
DEFPOINTS
 62
     0
 48
15.0
100
AcDbPoint
 10
8184.181985449692
 20
5805.953129106165
 30
0.0
  0
ENDBLK
  5
943D
330
9432
100
AcDbEntity
  8
0
 48
15.0
100
AcDbBlockEnd
  0
BLOCK
  5
9447
330
943E
100
AcDbEntity
  8
0
 48
15.0
100
AcDbBlockBegin
  2
*D232
 70
     1
 10
0.0
 20
0.0
 30
0.0
  3
*D232
  1

  0
LINE
  5
9D18
330
943E
100
AcDbEntity
  8
寸法引出
 48
15.0
370
    -2
100
AcDbLine
 10
7572.18198544969
 20
5571.248968094955
 30
0.0
 11
7572.18198544969
 21
5482.381193247146
 31
0.0
  0
LINE
  5
9D19
330
943E
100
AcDbEntity
  8
寸法引出
 48
15.0
370
    -2
100
AcDbLine
 10
7301.681985449689
 20
5489.881193247145
 30
0.0
 11
7549.681985449691
 21
5489.881193247145
 31
0.0
  0
SOLID
  5
9D1A
330
943E
100
AcDbEntity
  8
寸法引出
 48
15.0
100
AcDbTrace
 10
7301.681985449689
 20
5493.631193247145
 30
0.0
 11
7301.681985449689
 21
5486.131193247145
 31
0.0
 12
7279.181985449689
 22
5489.881193247145
 32
0.0
 13
7279.181985449689
 23
5489.881193247145
 33
0.0
  0
SOLID
  5
9D1B
330
943E
100
AcDbEntity
  8
寸法引出
 48
15.0
100
AcDbTrace
 10
7549.681985449691
 20
5493.631193247145
 30
0.0
 11
7549.681985449691
 21
5486.131193247145
 31
0.0
 12
7572.18198544969
 22
5489.881193247145
 32
0.0
 13
7572.18198544969
 23
5489.881193247145
 33
0.0
  0
MTEXT
  5
9D1C
330
943E
100
AcDbEntity
  8
寸法引出
 48
15.0
100
AcDbMText
 10
7425.681985449689
 20
5519.881193247146
 30
0.0
 40
30.0
 41
0.0
 71
     5
 72
     1
  1
\A1;293
  7
SANWA
 73
     1
 44
1.0
1001
ACAD
1000
MTEXTBEGIN
1070
    73
1070
     1
1070
    44
1040
1.0
1070
    74
1070
     0
1000
MTEXTEND
  0
POINT
  5
9D1D
330
943E
100
AcDbEntity
  8
DEFPOINTS
 62
     0
 48
15.0
100
AcDbPoint
 10
7279.181985449689
 20
5586.248968094956
 30
0.0
  0
POINT
  5
9D1E
330
943E
100
AcDbEntity
  8
DEFPOINTS
 62
     0
 48
15.0
100
AcDbPoint
 10
7572.18198544969
 20
5586.248968094956
 30
0.0
  0
POINT
  5
9D1F
330
943E
100
AcDbEntity
  8
DEFPOINTS
 62
     0
 48
15.0
100
AcDbPoint
 10
7572.18198544969
 20
5489.881193247145
 30
0.0
  0
ENDBLK
  5
9448
330
943E
100
AcDbEntity
  8
0
 48
15.0
100
AcDbBlockEnd
  0
BLOCK
  5
9455
330
9449
100
AcDbEntity
  8
0
 48
15.0
100
AcDbBlockBegin
  2
*D233
 70
     1
 10
0.0
 20
0.0
 30
0.0
  3
*D233
  1

  0
LINE
  5
9D20
330
9449
100
AcDbEntity
  8
寸法引出
 48
15.0
370
    -2
100
AcDbLine
 10
7219.181985449688
 20
5571.248968094955
 30
0.0
 11
7219.181985449688
 21
5482.381193247146
 31
0.0
  0
LINE
  5
9D21
330
9449
100
AcDbEntity
  8
寸法引出
 48
15.0
370
    -2
100
AcDbLine
 10
7279.181985449689
 20
5571.248968094955
 30
0.0
 11
7279.181985449689
 21
5482.381193247146
 31
0.0
  0
LINE
  5
9D22
330
9449
100
AcDbEntity
  8
寸法引出
 48
15.0
370
    -2
100
AcDbLine
 10
7196.681985449689
 20
5489.881193247145
 30
0.0
 11
7174.181985449689
 21
5489.881193247145
 31
0.0
  0
LINE
  5
9D23
330
9449
100
AcDbEntity
  8
寸法引出
 48
15.0
370
    -2
100
AcDbLine
 10
7301.681985449689
 20
5489.881193247145
 30
0.0
 11
7324.18198544969
 21
5489.881193247145
 31
0.0
  0
LINE
  5
9D24
330
9449
100
AcDbEntity
  8
寸法引出
 48
15.0
370
    -2
100
AcDbLine
 10
7219.181985449688
 20
5489.881193247145
 30
0.0
 11
7279.181985449689
 21
5489.881193247145
 31
0.0
  0
SOLID
  5
9D25
330
9449
100
AcDbEntity
  8
寸法引出
 48
15.0
100
AcDbTrace
 10
7196.681985449689
 20
5493.631193247145
 30
0.0
 11
7196.681985449689
 21
5486.131193247145
 31
0.0
 12
7219.181985449688
 22
5489.881193247145
 32
0.0
 13
7219.181985449688
 23
5489.881193247145
 33
0.0
  0
SOLID
  5
9D26
330
9449
100
AcDbEntity
  8
寸法引出
 48
15.0
100
AcDbTrace
 10
7301.681985449689
 20
5493.631193247145
 30
0.0
 11
7301.681985449689
 21
5486.131193247145
 31
0.0
 12
7279.181985449689
 22
5489.881193247145
 32
0.0
 13
7279.181985449689
 23
5489.881193247145
 33
0.0
  0
MTEXT
  5
9D27
330
9449
100
AcDbEntity
  8
寸法引出
 48
15.0
100
AcDbMText
 10
7249.181985449689
 20
5519.881193247146
 30
0.0
 40
30.0
 41
0.0
 71
     5
 72
     1
  1
\A1;60
  7
SANWA
 73
     1
 44
1.0
1001
ACAD
1000
MTEXTBEGIN
1070
    73
1070
     1
1070
    44
1040
1.0
1070
    74
1070
     0
1000
MTEXTEND
  0
POINT
  5
9D28
330
9449
100
AcDbEntity
  8
DEFPOINTS
 62
     0
 48
15.0
100
AcDbPoint
 10
7219.181985449688
 20
5586.248968094956
 30
0.0
  0
POINT
  5
9D29
330
9449
100
AcDbEntity
  8
DEFPOINTS
 62
     0
 48
15.0
100
AcDbPoint
 10
7279.181985449689
 20
5586.248968094956
 30
0.0
  0
POINT
  5
9D2A
330
9449
100
AcDbEntity
  8
DEFPOINTS
 62
     0
 48
15.0
100
AcDbPoint
 10
7279.181985449689
 20
5489.881193247145
 30
0.0
  0
ENDBLK
  5
9456
330
9449
100
AcDbEntity
  8
0
 48
15.0
100
AcDbBlockEnd
  0
BLOCK
  5
9461
330
9457
100
AcDbEntity
  8
0
 48
15.0
100
AcDbBlockBegin
  2
*D234
 70
     1
 10
0.0
 20
0.0
 30
0.0
  3
*D234
  1

  0
LINE
  5
9D2B
330
9457
100
AcDbEntity
  8
寸法引出
 48
15.0
370
    -2
100
AcDbLine
 10
6008.360120707927
 20
4053.801030019953
 30
0.0
 11
5880.257377989164
 21
4053.801030019953
 31
0.0
  0
LINE
  5
9D2C
330
9457
100
AcDbEntity
  8
寸法引出
 48
15.0
370
    -2
100
AcDbLine
 10
6008.360120707927
 20
4983.801030019953
 30
0.0
 11
5880.257377989164
 21
4983.801030019953
 31
0.0
  0
LINE
  5
9D2D
330
9457
100
AcDbEntity
  8
寸法引出
 48
15.0
370
    -2
100
AcDbLine
 10
5887.757377989164
 20
4076.301030019953
 30
0.0
 11
5887.757377989164
 21
4961.301030019953
 31
0.0
  0
SOLID
  5
9D2E
330
9457
100
AcDbEntity
  8
寸法引出
 48
15.0
100
AcDbTrace
 10
5884.007377989164
 20
4076.301030019953
 30
0.0
 11
5891.507377989165
 21
4076.301030019953
 31
0.0
 12
5887.757377989164
 22
4053.801030019953
 32
0.0
 13
5887.757377989164
 23
4053.801030019953
 33
0.0
  0
SOLID
  5
9D2F
330
9457
100
AcDbEntity
  8
寸法引出
 48
15.0
100
AcDbTrace
 10
5884.007377989164
 20
4961.301030019953
 30
0.0
 11
5891.507377989165
 21
4961.301030019953
 31
0.0
 12
5887.757377989164
 22
4983.801030019953
 32
0.0
 13
5887.757377989164
 23
4983.801030019953
 33
0.0
  0
MTEXT
  5
9D30
330
9457
100
AcDbEntity
  8
寸法引出
 48
15.0
100
AcDbMText
 10
5857.757377989163
 20
4518.801030019954
 30
0.0
 40
30.0
 41
0.0
 71
     5
 72
     1
  1
\A1;930
  7
SANWA
 11
0.0000000000000001
 21
1.0
 31
0.0
 73
     1
 44
1.0
1001
ACAD
1000
MTEXTBEGIN
1070
    73
1070
     1
1070
    44
1040
1.0
1070
    74
1070
     0
1000
MTEXTEND
  0
POINT
  5
9D31
330
9457
100
AcDbEntity
  8
DEFPOINTS
 62
     0
 48
15.0
100
AcDbPoint
 10
6023.360120707927
 20
4053.801030019953
 30
0.0
  0
POINT
  5
9D32
330
9457
100
AcDbEntity
  8
DEFPOINTS
 62
     0
 48
15.0
100
AcDbPoint
 10
6023.360120707927
 20
4983.801030019953
 30
0.0
  0
POINT
  5
9D33
330
9457
100
AcDbEntity
  8
DEFPOINTS
 62
     0
 48
15.0
100
AcDbPoint
 10
5887.757377989164
 20
4983.801030019953
 30
0.0
  0
ENDBLK
  5
9462
330
9457
100
AcDbEntity
  8
0
 48
15.0
100
AcDbBlockEnd
  0
BLOCK
  5
946D
330
9463
100
AcDbEntity
  8
0
 48
15.0
100
AcDbBlockBegin
  2
*D235
 70
     1
 10
0.0
 20
0.0
 30
0.0
  3
*D235
  1

  0
LINE
  5
9D34
330
9463
100
AcDbEntity
  8
寸法引出
 48
15.0
370
    -2
100
AcDbLine
 10
6778.360120707927
 20
5018.801030019953
 30
0.0
 11
7020.581618139655
 21
5018.801030019953
 31
0.0
  0
LINE
  5
9D35
330
9463
100
AcDbEntity
  8
寸法引出
 48
15.0
370
    -2
100
AcDbLine
 10
6778.360120707927
 20
4018.801030019953
 30
0.0
 11
7020.581618139655
 21
4018.801030019953
 31
0.0
  0
LINE
  5
9D36
330
9463
100
AcDbEntity
  8
寸法引出
 48
15.0
370
    -2
100
AcDbLine
 10
7013.081618139655
 20
4996.301030019953
 30
0.0
 11
7013.081618139655
 21
4041.301030019953
 31
0.0
  0
SOLID
  5
9D37
330
9463
100
AcDbEntity
  8
寸法引出
 48
15.0
100
AcDbTrace
 10
7009.331618139654
 20
4996.301030019953
 30
0.0
 11
7016.831618139654
 21
4996.301030019953
 31
0.0
 12
7013.081618139655
 22
5018.801030019953
 32
0.0
 13
7013.081618139655
 23
5018.801030019953
 33
0.0
  0
SOLID
  5
9D38
330
9463
100
AcDbEntity
  8
寸法引出
 48
15.0
100
AcDbTrace
 10
7009.331618139654
 20
4041.301030019953
 30
0.0
 11
7016.831618139654
 21
4041.301030019953
 31
0.0
 12
7013.081618139655
 22
4018.801030019953
 32
0.0
 13
7013.081618139655
 23
4018.801030019953
 33
0.0
  0
MTEXT
  5
9D39
330
9463
100
AcDbEntity
  8
寸法引出
 48
15.0
100
AcDbMText
 10
6983.081618139654
 20
4518.801030019955
 30
0.0
 40
30.0
 41
0.0
 71
     5
 72
     1
  1
\A1;1000
  7
SANWA
 11
0.0000000000000001
 21
1.0
 31
0.0
 73
     1
 44
1.0
1001
ACAD
1000
MTEXTBEGIN
1070
    73
1070
     1
1070
    44
1040
1.0
1070
    74
1070
     0
1000
MTEXTEND
  0
POINT
  5
9D3A
330
9463
100
AcDbEntity
  8
DEFPOINTS
 62
     0
 48
15.0
100
AcDbPoint
 10
6763.360120707928
 20
5018.801030019953
 30
0.0
  0
POINT
  5
9D3B
330
9463
100
AcDbEntity
  8
DEFPOINTS
 62
     0
 48
15.0
100
AcDbPoint
 10
6763.360120707928
 20
4018.801030019953
 30
0.0
  0
POINT
  5
9D3C
330
9463
100
AcDbEntity
  8
DEFPOINTS
 62
     0
 48
15.0
100
AcDbPoint
 10
7013.081618139655
 20
4018.801030019953
 30
0.0
  0
ENDBLK
  5
946E
330
9463
100
AcDbEntity
  8
0
 48
15.0
100
AcDbBlockEnd
  0
BLOCK
  5
9478
330
946F
100
AcDbEntity
  8
0
 48
15.0
100
AcDbBlockBegin
  2
*D236
 70
     1
 10
0.0
 20
0.0
 30
0.0
  3
*D236
  1

  0
LINE
  5
9D3D
330
946F
100
AcDbEntity
  8
寸法引出
 48
15.0
370
    -2
100
AcDbLine
 10
6778.360120707927
 20
4371.801030019953
 30
0.0
 11
6951.50800088721
 21
4371.801030019953
 31
0.0
  0
LINE
  5
9D3E
330
946F
100
AcDbEntity
  8
寸法引出
 48
15.0
370
    -2
100
AcDbLine
 10
6944.00800088721
 20
4101.301030019953
 30
0.0
 11
6944.00800088721
 21
4349.301030019953
 31
0.0
  0
SOLID
  5
9D3F
330
946F
100
AcDbEntity
  8
寸法引出
 48
15.0
100
AcDbTrace
 10
6940.258000887211
 20
4101.301030019953
 30
0.0
 11
6947.758000887209
 21
4101.301030019953
 31
0.0
 12
6944.00800088721
 22
4078.801030019953
 32
0.0
 13
6944.00800088721
 23
4078.801030019953
 33
0.0
  0
SOLID
  5
9D40
330
946F
100
AcDbEntity
  8
寸法引出
 48
15.0
100
AcDbTrace
 10
6940.258000887211
 20
4349.301030019953
 30
0.0
 11
6947.758000887209
 21
4349.301030019953
 31
0.0
 12
6944.00800088721
 22
4371.801030019953
 32
0.0
 13
6944.00800088721
 23
4371.801030019953
 33
0.0
  0
MTEXT
  5
9D41
330
946F
100
AcDbEntity
  8
寸法引出
 48
15.0
100
AcDbMText
 10
6914.008000887209
 20
4225.301030019955
 30
0.0
 40
30.0
 41
0.0
 71
     5
 72
     1
  1
\A1;293
  7
SANWA
 11
0.0000000000000001
 21
1.0
 31
0.0
 73
     1
 44
1.0
1001
ACAD
1000
MTEXTBEGIN
1070
    73
1070
     1
1070
    44
1040
1.0
1070
    74
1070
     0
1000
MTEXTEND
  0
POINT
  5
9D42
330
946F
100
AcDbEntity
  8
DEFPOINTS
 62
     0
 48
15.0
100
AcDbPoint
 10
6763.360120707928
 20
4078.801030019953
 30
0.0
  0
POINT
  5
9D43
330
946F
100
AcDbEntity
  8
DEFPOINTS
 62
     0
 48
15.0
100
AcDbPoint
 10
6763.360120707928
 20
4371.801030019953
 30
0.0
  0
POINT
  5
9D44
330
946F
100
AcDbEntity
  8
DEFPOINTS
 62
     0
 48
15.0
100
AcDbPoint
 10
6944.00800088721
 20
4371.801030019953
 30
0.0
  0
ENDBLK
  5
9479
330
946F
100
AcDbEntity
  8
0
 48
15.0
100
AcDbBlockEnd
  0
BLOCK
  5
9484
330
947A
100
AcDbEntity
  8
0
 48
15.0
100
AcDbBlockBegin
  2
*D237
 70
     1
 10
0.0
 20
0.0
 30
0.0
  3
*D237
  1

  0
LINE
  5
9D45
330
947A
100
AcDbEntity
  8
寸法引出
 48
15.0
370
    -2
100
AcDbLine
 10
6043.360120707927
 20
4003.801030019952
 30
0.0
 11
6043.360120707927
 21
3875.093447499334
 31
0.0
  0
LINE
  5
9D46
330
947A
100
AcDbEntity
  8
寸法引出
 48
15.0
370
    -2
100
AcDbLine
 10
6743.360120707928
 20
4003.801030019952
 30
0.0
 11
6743.360120707928
 21
3875.093447499334
 31
0.0
  0
LINE
  5
9D47
330
947A
100
AcDbEntity
  8
寸法引出
 48
15.0
370
    -2
100
AcDbLine
 10
6065.860120707927
 20
3882.593447499334
 30
0.0
 11
6720.860120707927
 21
3882.593447499334
 31
0.0
  0
SOLID
  5
9D48
330
947A
100
AcDbEntity
  8
寸法引出
 48
15.0
100
AcDbTrace
 10
6065.860120707927
 20
3886.343447499334
 30
0.0
 11
6065.860120707927
 21
3878.843447499334
 31
0.0
 12
6043.360120707927
 22
3882.593447499334
 32
0.0
 13
6043.360120707927
 23
3882.593447499334
 33
0.0
  0
SOLID
  5
9D49
330
947A
100
AcDbEntity
  8
寸法引出
 48
15.0
100
AcDbTrace
 10
6720.860120707927
 20
3886.343447499334
 30
0.0
 11
6720.860120707927
 21
3878.843447499334
 31
0.0
 12
6743.360120707928
 22
3882.593447499334
 32
0.0
 13
6743.360120707928
 23
3882.593447499334
 33
0.0
  0
MTEXT
  5
9D4A
330
947A
100
AcDbEntity
  8
寸法引出
 48
15.0
100
AcDbMText
 10
6393.360120707928
 20
3912.593447499334
 30
0.0
 40
30.0
 41
0.0
 71
     5
 72
     1
  1
\A1;700
  7
SANWA
 73
     1
 44
1.0
1001
ACAD
1000
MTEXTBEGIN
1070
    73
1070
     1
1070
    44
1040
1.0
1070
    74
1070
     0
1000
MTEXTEND
  0
POINT
  5
9D4B
330
947A
100
AcDbEntity
  8
DEFPOINTS
 62
     0
 48
15.0
100
AcDbPoint
 10
6043.360120707927
 20
4018.801030019953
 30
0.0
  0
POINT
  5
9D4C
330
947A
100
AcDbEntity
  8
DEFPOINTS
 62
     0
 48
15.0
100
AcDbPoint
 10
6743.360120707928
 20
4018.801030019953
 30
0.0
  0
POINT
  5
9D4D
330
947A
100
AcDbEntity
  8
DEFPOINTS
 62
     0
 48
15.0
100
AcDbPoint
 10
6743.360120707928
 20
3882.593447499334
 30
0.0
  0
ENDBLK
  5
9485
330
947A
100
AcDbEntity
  8
0
 48
15.0
100
AcDbBlockEnd
  0
BLOCK
  5
9492
330
9486
100
AcDbEntity
  8
0
 48
15.0
100
AcDbBlockBegin
  2
*D238
 70
     1
 10
0.0
 20
0.0
 30
0.0
  3
*D238
  1

  0
LINE
  5
9D4E
330
9486
100
AcDbEntity
  8
寸法引出
 48
15.0
370
    -2
100
AcDbLine
 10
6023.360120707927
 20
4003.801030019952
 30
0.0
 11
6023.360120707927
 21
3875.093447499334
 31
0.0
  0
LINE
  5
9D4F
330
9486
100
AcDbEntity
  8
寸法引出
 48
15.0
370
    -2
100
AcDbLine
 10
6043.360120707927
 20
4003.801030019952
 30
0.0
 11
6043.360120707927
 21
3875.093447499334
 31
0.0
  0
LINE
  5
9D50
330
9486
100
AcDbEntity
  8
寸法引出
 48
15.0
370
    -2
100
AcDbLine
 10
6000.860120707927
 20
3882.593447499334
 30
0.0
 11
5978.360120707927
 21
3882.593447499334
 31
0.0
  0
LINE
  5
9D51
330
9486
100
AcDbEntity
  8
寸法引出
 48
15.0
370
    -2
100
AcDbLine
 10
6065.860120707927
 20
3882.593447499334
 30
0.0
 11
6088.360120707927
 21
3882.593447499334
 31
0.0
  0
LINE
  5
9D52
330
9486
100
AcDbEntity
  8
寸法引出
 48
15.0
370
    -2
100
AcDbLine
 10
6023.360120707927
 20
3882.593447499334
 30
0.0
 11
6043.360120707927
 21
3882.593447499334
 31
0.0
  0
SOLID
  5
9D53
330
9486
100
AcDbEntity
  8
寸法引出
 48
15.0
100
AcDbTrace
 10
6000.860120707927
 20
3886.343447499334
 30
0.0
 11
6000.860120707927
 21
3878.843447499334
 31
0.0
 12
6023.360120707927
 22
3882.593447499334
 32
0.0
 13
6023.360120707927
 23
3882.593447499334
 33
0.0
  0
SOLID
  5
9D54
330
9486
100
AcDbEntity
  8
寸法引出
 48
15.0
100
AcDbTrace
 10
6065.860120707927
 20
3886.343447499334
 30
0.0
 11
6065.860120707927
 21
3878.843447499334
 31
0.0
 12
6043.360120707927
 22
3882.593447499334
 32
0.0
 13
6043.360120707927
 23
3882.593447499334
 33
0.0
  0
MTEXT
  5
9D55
330
9486
100
AcDbEntity
  8
寸法引出
 48
15.0
100
AcDbMText
 10
6033.360120707928
 20
3912.593447499334
 30
0.0
 40
30.0
 41
0.0
 71
     5
 72
     1
  1
\A1;20
  7
SANWA
 73
     1
 44
1.0
1001
ACAD
1000
MTEXTBEGIN
1070
    73
1070
     1
1070
    44
1040
1.0
1070
    74
1070
     0
1000
MTEXTEND
  0
POINT
  5
9D56
330
9486
100
AcDbEntity
  8
DEFPOINTS
 62
     0
 48
15.0
100
AcDbPoint
 10
6023.360120707927
 20
4018.801030019953
 30
0.0
  0
POINT
  5
9D57
330
9486
100
AcDbEntity
  8
DEFPOINTS
 62
     0
 48
15.0
100
AcDbPoint
 10
6043.360120707927
 20
4018.801030019953
 30
0.0
  0
POINT
  5
9D58
330
9486
100
AcDbEntity
  8
DEFPOINTS
 62
     0
 48
15.0
100
AcDbPoint
 10
6043.360120707927
 20
3882.593447499334
 30
0.0
  0
ENDBLK
  5
9493
330
9486
100
AcDbEntity
  8
0
 48
15.0
100
AcDbBlockEnd
  0
BLOCK
  5
94A0
330
9494
100
AcDbEntity
  8
0
 48
15.0
100
AcDbBlockBegin
  2
*D239
 70
     1
 10
0.0
 20
0.0
 30
0.0
  3
*D239
  1

  0
LINE
  5
9D59
330
9494
100
AcDbEntity
  8
寸法引出
 48
15.0
370
    -2
100
AcDbLine
 10
6778.360120707927
 20
4018.801030019953
 30
0.0
 11
6951.50800088721
 21
4018.801030019953
 31
0.0
  0
LINE
  5
9D5A
330
9494
100
AcDbEntity
  8
寸法引出
 48
15.0
370
    -2
100
AcDbLine
 10
6778.360120707927
 20
4078.801030019953
 30
0.0
 11
6951.50800088721
 21
4078.801030019953
 31
0.0
  0
LINE
  5
9D5B
330
9494
100
AcDbEntity
  8
寸法引出
 48
15.0
370
    -2
100
AcDbLine
 10
6944.00800088721
 20
3996.301030019953
 30
0.0
 11
6944.00800088721
 21
3973.801030019954
 31
0.0
  0
LINE
  5
9D5C
330
9494
100
AcDbEntity
  8
寸法引出
 48
15.0
370
    -2
100
AcDbLine
 10
6944.00800088721
 20
4101.301030019953
 30
0.0
 11
6944.00800088721
 21
4123.801030019953
 31
0.0
  0
LINE
  5
9D5D
330
9494
100
AcDbEntity
  8
寸法引出
 48
15.0
370
    -2
100
AcDbLine
 10
6944.00800088721
 20
4018.801030019953
 30
0.0
 11
6944.00800088721
 21
4078.801030019953
 31
0.0
  0
SOLID
  5
9D5E
330
9494
100
AcDbEntity
  8
寸法引出
 48
15.0
100
AcDbTrace
 10
6940.258000887211
 20
3996.301030019953
 30
0.0
 11
6947.758000887209
 21
3996.301030019953
 31
0.0
 12
6944.00800088721
 22
4018.801030019953
 32
0.0
 13
6944.00800088721
 23
4018.801030019953
 33
0.0
  0
SOLID
  5
9D5F
330
9494
100
AcDbEntity
  8
寸法引出
 48
15.0
100
AcDbTrace
 10
6940.258000887211
 20
4101.301030019953
 30
0.0
 11
6947.758000887209
 21
4101.301030019953
 31
0.0
 12
6944.00800088721
 22
4078.801030019953
 32
0.0
 13
6944.00800088721
 23
4078.801030019953
 33
0.0
  0
MTEXT
  5
9D60
330
9494
100
AcDbEntity
  8
寸法引出
 48
15.0
100
AcDbMText
 10
6914.008000887209
 20
4048.801030019954
 30
0.0
 40
30.0
 41
0.0
 71
     5
 72
     1
  1
\A1;60
  7
SANWA
 11
0.0000000000000001
 21
1.0
 31
0.0
 73
     1
 44
1.0
1001
ACAD
1000
MTEXTBEGIN
1070
    73
1070
     1
1070
    44
1040
1.0
1070
    74
1070
     0
1000
MTEXTEND
  0
POINT
  5
9D61
330
9494
100
AcDbEntity
  8
DEFPOINTS
 62
     0
 48
15.0
100
AcDbPoint
 10
6763.360120707928
 20
4018.801030019953
 30
0.0
  0
POINT
  5
9D62
330
9494
100
AcDbEntity
  8
DEFPOINTS
 62
     0
 48
15.0
100
AcDbPoint
 10
6763.360120707928
 20
4078.801030019953
 30
0.0
  0
POINT
  5
9D63
330
9494
100
AcDbEntity
  8
DEFPOINTS
 62
     0
 48
15.0
100
AcDbPoint
 10
6944.00800088721
 20
4078.801030019953
 30
0.0
  0
ENDBLK
  5
94A1
330
9494
100
AcDbEntity
  8
0
 48
15.0
100
AcDbBlockEnd
  0
BLOCK
  5
94AD
330
94A2
100
AcDbEntity
  8
0
 48
15.0
100
AcDbBlockBegin
  2
*D240
 70
     1
 10
0.0
 20
0.0
 30
0.0
  3
*D240
  1

  0
LINE
  5
9D64
330
94A2
100
AcDbEntity
  8
寸法引出
 48
15.0
370
    -2
100
AcDbLine
 10
6763.360120707928
 20
4003.801030019952
 30
0.0
 11
6763.360120707928
 21
3875.093447499334
 31
0.0
  0
LINE
  5
9D65
330
94A2
100
AcDbEntity
  8
寸法引出
 48
15.0
370
    -2
100
AcDbLine
 10
6720.860120707927
 20
3882.593447499334
 30
0.0
 11
6698.360120707928
 21
3882.593447499334
 31
0.0
  0
LINE
  5
9D66
330
94A2
100
AcDbEntity
  8
寸法引出
 48
15.0
370
    -2
100
AcDbLine
 10
6785.860120707927
 20
3882.593447499334
 30
0.0
 11
6808.360120707927
 21
3882.593447499334
 31
0.0
  0
LINE
  5
9D67
330
94A2
100
AcDbEntity
  8
寸法引出
 48
15.0
370
    -2
100
AcDbLine
 10
6743.360120707928
 20
3882.593447499334
 30
0.0
 11
6763.360120707928
 21
3882.593447499334
 31
0.0
  0
SOLID
  5
9D68
330
94A2
100
AcDbEntity
  8
寸法引出
 48
15.0
100
AcDbTrace
 10
6720.860120707927
 20
3886.343447499334
 30
0.0
 11
6720.860120707927
 21
3878.843447499334
 31
0.0
 12
6743.360120707928
 22
3882.593447499334
 32
0.0
 13
6743.360120707928
 23
3882.593447499334
 33
0.0
  0
SOLID
  5
9D69
330
94A2
100
AcDbEntity
  8
寸法引出
 48
15.0
100
AcDbTrace
 10
6785.860120707927
 20
3886.343447499334
 30
0.0
 11
6785.860120707927
 21
3878.843447499334
 31
0.0
 12
6763.360120707928
 22
3882.593447499334
 32
0.0
 13
6763.360120707928
 23
3882.593447499334
 33
0.0
  0
MTEXT
  5
9D6A
330
94A2
100
AcDbEntity
  8
寸法引出
 48
15.0
100
AcDbMText
 10
6753.360120707927
 20
3912.593447499334
 30
0.0
 40
30.0
 41
0.0
 71
     5
 72
     1
  1
\A1;20
  7
SANWA
 73
     1
 44
1.0
1001
ACAD
1000
MTEXTBEGIN
1070
    73
1070
     1
1070
    44
1040
1.0
1070
    74
1070
     0
1000
MTEXTEND
  0
POINT
  5
9D6B
330
94A2
100
AcDbEntity
  8
DEFPOINTS
 62
     0
 48
15.0
100
AcDbPoint
 10
6743.360120707928
 20
4018.801030019953
 30
0.0
  0
POINT
  5
9D6C
330
94A2
100
AcDbEntity
  8
DEFPOINTS
 62
     0
 48
15.0
100
AcDbPoint
 10
6763.360120707928
 20
4018.801030019953
 30
0.0
  0
POINT
  5
9D6D
330
94A2
100
AcDbEntity
  8
DEFPOINTS
 62
     0
 48
15.0
100
AcDbPoint
 10
6763.360120707928
 20
3882.593447499334
 30
0.0
  0
ENDBLK
  5
94AE
330
94A2
100
AcDbEntity
  8
0
 48
15.0
100
AcDbBlockEnd
  0
BLOCK
  5
94B9
330
94AF
100
AcDbEntity
  8
0
 48
15.0
100
AcDbBlockBegin
  2
*D241
 70
     1
 10
0.0
 20
0.0
 30
0.0
  3
*D241
  1

  0
LINE
  5
9D6E
330
94AF
100
AcDbEntity
  8
寸法引出
 48
15.0
370
    -2
100
AcDbLine
 10
6023.360120707927
 20
5033.801030019953
 30
0.0
 11
6023.360120707927
 21
5173.114617267998
 31
0.0
  0
LINE
  5
9D6F
330
94AF
100
AcDbEntity
  8
寸法引出
 48
15.0
370
    -2
100
AcDbLine
 10
6763.360120707928
 20
5033.801030019953
 30
0.0
 11
6763.360120707928
 21
5173.114617267998
 31
0.0
  0
LINE
  5
9D70
330
94AF
100
AcDbEntity
  8
寸法引出
 48
15.0
370
    -2
100
AcDbLine
 10
6045.860120707928
 20
5165.614617267998
 30
0.0
 11
6740.860120707927
 21
5165.614617267998
 31
0.0
  0
SOLID
  5
9D71
330
94AF
100
AcDbEntity
  8
寸法引出
 48
15.0
100
AcDbTrace
 10
6045.860120707928
 20
5169.364617267998
 30
0.0
 11
6045.860120707928
 21
5161.864617267998
 31
0.0
 12
6023.360120707927
 22
5165.614617267998
 32
0.0
 13
6023.360120707927
 23
5165.614617267998
 33
0.0
  0
SOLID
  5
9D72
330
94AF
100
AcDbEntity
  8
寸法引出
 48
15.0
100
AcDbTrace
 10
6740.860120707927
 20
5169.364617267998
 30
0.0
 11
6740.860120707927
 21
5161.864617267998
 31
0.0
 12
6763.360120707928
 22
5165.614617267998
 32
0.0
 13
6763.360120707928
 23
5165.614617267998
 33
0.0
  0
MTEXT
  5
9D73
330
94AF
100
AcDbEntity
  8
寸法引出
 48
15.0
100
AcDbMText
 10
6393.360120707928
 20
5195.614617267999
 30
0.0
 40
30.0
 41
0.0
 71
     5
 72
     1
  1
\A1;740
  7
SANWA
 73
     1
 44
1.0
1001
ACAD
1000
MTEXTBEGIN
1070
    73
1070
     1
1070
    44
1040
1.0
1070
    74
1070
     0
1000
MTEXTEND
  0
POINT
  5
9D74
330
94AF
100
AcDbEntity
  8
DEFPOINTS
 62
     0
 48
15.0
100
AcDbPoint
 10
6023.360120707927
 20
5018.801030019953
 30
0.0
  0
POINT
  5
9D75
330
94AF
100
AcDbEntity
  8
DEFPOINTS
 62
     0
 48
15.0
100
AcDbPoint
 10
6763.360120707928
 20
5018.801030019953
 30
0.0
  0
POINT
  5
9D76
330
94AF
100
AcDbEntity
  8
DEFPOINTS
 62
     0
 48
15.0
100
AcDbPoint
 10
6763.360120707928
 20
5165.614617267998
 30
0.0
  0
ENDBLK
  5
94BA
330
94AF
100
AcDbEntity
  8
0
 48
15.0
100
AcDbBlockEnd
  0
BLOCK
  5
94C4
330
94BB
100
AcDbEntity
  8
0
 48
15.0
100
AcDbBlockBegin
  2
*D242
 70
     1
 10
0.0
 20
0.0
 30
0.0
  3
*D242
  1

  0
LINE
  5
9D77
330
94BB
100
AcDbEntity
  8
寸法引出
 48
15.0
370
    -2
100
AcDbLine
 10
6680.360120707928
 20
5033.801030019953
 30
0.0
 11
6680.360120707928
 21
5114.963939157659
 31
0.0
  0
LINE
  5
9D78
330
94BB
100
AcDbEntity
  8
寸法引出
 48
15.0
370
    -2
100
AcDbLine
 10
6518.360120707928
 20
5107.46393915766
 30
0.0
 11
6657.860120707929
 21
5107.46393915766
 31
0.0
  0
SOLID
  5
9D79
330
94BB
100
AcDbEntity
  8
寸法引出
 48
15.0
100
AcDbTrace
 10
6518.360120707928
 20
5111.213939157659
 30
0.0
 11
6518.360120707928
 21
5103.71393915766
 31
0.0
 12
6495.860120707927
 22
5107.46393915766
 32
0.0
 13
6495.860120707927
 23
5107.46393915766
 33
0.0
  0
SOLID
  5
9D7A
330
94BB
100
AcDbEntity
  8
寸法引出
 48
15.0
100
AcDbTrace
 10
6657.860120707929
 20
5111.213939157659
 30
0.0
 11
6657.860120707929
 21
5103.71393915766
 31
0.0
 12
6680.360120707928
 22
5107.46393915766
 32
0.0
 13
6680.360120707928
 23
5107.46393915766
 33
0.0
  0
MTEXT
  5
9D7B
330
94BB
100
AcDbEntity
  8
寸法引出
 48
15.0
100
AcDbMText
 10
6588.110120707928
 20
5137.463939157659
 30
0.0
 40
30.0
 41
0.0
 71
     5
 72
     1
  1
\A1;184.5
  7
SANWA
 73
     1
 44
1.0
1001
ACAD
1000
MTEXTBEGIN
1070
    73
1070
     1
1070
    44
1040
1.0
1070
    74
1070
     0
1000
MTEXTEND
  0
POINT
  5
9D7C
330
94BB
100
AcDbEntity
  8
DEFPOINTS
 62
     0
 48
15.0
100
AcDbPoint
 10
6495.860120707927
 20
5018.801030019953
 30
0.0
  0
POINT
  5
9D7D
330
94BB
100
AcDbEntity
  8
DEFPOINTS
 62
     0
 48
15.0
100
AcDbPoint
 10
6680.360120707928
 20
5018.801030019953
 30
0.0
  0
POINT
  5
9D7E
330
94BB
100
AcDbEntity
  8
DEFPOINTS
 62
     0
 48
15.0
100
AcDbPoint
 10
6680.360120707928
 20
5107.46393915766
 30
0.0
  0
ENDBLK
  5
94C5
330
94BB
100
AcDbEntity
  8
0
 48
15.0
100
AcDbBlockEnd
  0
BLOCK
  5
94CF
330
94C6
100
AcDbEntity
  8
0
 48
15.0
100
AcDbBlockBegin
  2
*D243
 70
     1
 10
0.0
 20
0.0
 30
0.0
  3
*D243
  1

  0
LINE
  5
9D7F
330
94C6
100
AcDbEntity
  8
寸法引出
 48
15.0
370
    -2
100
AcDbLine
 10
6290.860120707929
 20
5033.801030019953
 30
0.0
 11
6290.860120707929
 21
5114.963939157659
 31
0.0
  0
LINE
  5
9D80
330
94C6
100
AcDbEntity
  8
寸法引出
 48
15.0
370
    -2
100
AcDbLine
 10
6128.860120707928
 20
5107.46393915766
 30
0.0
 11
6268.360120707928
 21
5107.46393915766
 31
0.0
  0
SOLID
  5
9D81
330
94C6
100
AcDbEntity
  8
寸法引出
 48
15.0
100
AcDbTrace
 10
6128.860120707928
 20
5111.213939157659
 30
0.0
 11
6128.860120707928
 21
5103.71393915766
 31
0.0
 12
6106.360120707928
 22
5107.46393915766
 32
0.0
 13
6106.360120707928
 23
5107.46393915766
 33
0.0
  0
SOLID
  5
9D82
330
94C6
100
AcDbEntity
  8
寸法引出
 48
15.0
100
AcDbTrace
 10
6268.360120707928
 20
5111.213939157659
 30
0.0
 11
6268.360120707928
 21
5103.71393915766
 31
0.0
 12
6290.860120707929
 22
5107.46393915766
 32
0.0
 13
6290.860120707929
 23
5107.46393915766
 33
0.0
  0
MTEXT
  5
9D83
330
94C6
100
AcDbEntity
  8
寸法引出
 48
15.0
100
AcDbMText
 10
6198.610120707929
 20
5137.463939157659
 30
0.0
 40
30.0
 41
0.0
 71
     5
 72
     1
  1
\A1;184.5
  7
SANWA
 73
     1
 44
1.0
1001
ACAD
1000
MTEXTBEGIN
1070
    73
1070
     1
1070
    44
1040
1.0
1070
    74
1070
     0
1000
MTEXTEND
  0
POINT
  5
9D84
330
94C6
100
AcDbEntity
  8
DEFPOINTS
 62
     0
 48
15.0
100
AcDbPoint
 10
6106.360120707928
 20
5018.801030019953
 30
0.0
  0
POINT
  5
9D85
330
94C6
100
AcDbEntity
  8
DEFPOINTS
 62
     0
 48
15.0
100
AcDbPoint
 10
6290.860120707929
 20
5018.801030019953
 30
0.0
  0
POINT
  5
9D86
330
94C6
100
AcDbEntity
  8
DEFPOINTS
 62
     0
 48
15.0
100
AcDbPoint
 10
6290.860120707929
 20
5107.46393915766
 30
0.0
  0
ENDBLK
  5
94D0
330
94C6
100
AcDbEntity
  8
0
 48
15.0
100
AcDbBlockEnd
  0
BLOCK
  5
94DB
330
94D1
100
AcDbEntity
  8
0
 48
15.0
100
AcDbBlockBegin
  2
*D244
 70
     1
 10
0.0
 20
0.0
 30
0.0
  3
*D244
  1

  0
LINE
  5
9D87
330
94D1
100
AcDbEntity
  8
寸法引出
 48
15.0
370
    -2
100
AcDbLine
 10
6023.360120707927
 20
5033.801030019953
 30
0.0
 11
6023.360120707927
 21
5114.963939157659
 31
0.0
  0
LINE
  5
9D88
330
94D1
100
AcDbEntity
  8
寸法引出
 48
15.0
370
    -2
100
AcDbLine
 10
6106.360120707928
 20
5033.801030019953
 30
0.0
 11
6106.360120707928
 21
5114.963939157659
 31
0.0
  0
LINE
  5
9D89
330
94D1
100
AcDbEntity
  8
寸法引出
 48
15.0
370
    -2
100
AcDbLine
 10
6045.860120707928
 20
5107.46393915766
 30
0.0
 11
6083.860120707928
 21
5107.46393915766
 31
0.0
  0
SOLID
  5
9D8A
330
94D1
100
AcDbEntity
  8
寸法引出
 48
15.0
100
AcDbTrace
 10
6045.860120707928
 20
5111.213939157659
 30
0.0
 11
6045.860120707928
 21
5103.71393915766
 31
0.0
 12
6023.360120707927
 22
5107.46393915766
 32
0.0
 13
6023.360120707927
 23
5107.46393915766
 33
0.0
  0
SOLID
  5
9D8B
330
94D1
100
AcDbEntity
  8
寸法引出
 48
15.0
100
AcDbTrace
 10
6083.860120707928
 20
5111.213939157659
 30
0.0
 11
6083.860120707928
 21
5103.71393915766
 31
0.0
 12
6106.360120707928
 22
5107.46393915766
 32
0.0
 13
6106.360120707928
 23
5107.46393915766
 33
0.0
  0
MTEXT
  5
9D8C
330
94D1
100
AcDbEntity
  8
寸法引出
 48
15.0
100
AcDbMText
 10
6064.860120707928
 20
5137.463939157659
 30
0.0
 40
30.0
 41
0.0
 71
     5
 72
     1
  1
\A1;83
  7
SANWA
 73
     1
 44
1.0
1001
ACAD
1000
MTEXTBEGIN
1070
    73
1070
     1
1070
    44
1040
1.0
1070
    74
1070
     0
1000
MTEXTEND
  0
POINT
  5
9D8D
330
94D1
100
AcDbEntity
  8
DEFPOINTS
 62
     0
 48
15.0
100
AcDbPoint
 10
6023.360120707927
 20
5018.801030019953
 30
0.0
  0
POINT
  5
9D8E
330
94D1
100
AcDbEntity
  8
DEFPOINTS
 62
     0
 48
15.0
100
AcDbPoint
 10
6106.360120707928
 20
5018.801030019953
 30
0.0
  0
POINT
  5
9D8F
330
94D1
100
AcDbEntity
  8
DEFPOINTS
 62
     0
 48
15.0
100
AcDbPoint
 10
6106.360120707928
 20
5107.46393915766
 30
0.0
  0
ENDBLK
  5
94DC
330
94D1
100
AcDbEntity
  8
0
 48
15.0
100
AcDbBlockEnd
  0
BLOCK
  5
94E7
330
94DD
100
AcDbEntity
  8
0
 48
15.0
100
AcDbBlockBegin
  2
*D245
 70
     1
 10
0.0
 20
0.0
 30
0.0
  3
*D245
  1

  0
LINE
  5
9D90
330
94DD
100
AcDbEntity
  8
寸法引出
 48
15.0
370
    -2
100
AcDbLine
 10
6290.860120707929
 20
5033.801030019953
 30
0.0
 11
6290.860120707929
 21
5114.963939157659
 31
0.0
  0
LINE
  5
9D91
330
94DD
100
AcDbEntity
  8
寸法引出
 48
15.0
370
    -2
100
AcDbLine
 10
6495.860120707927
 20
5033.801030019953
 30
0.0
 11
6495.860120707927
 21
5114.963939157659
 31
0.0
  0
LINE
  5
9D92
330
94DD
100
AcDbEntity
  8
寸法引出
 48
15.0
370
    -2
100
AcDbLine
 10
6313.360120707928
 20
5107.46393915766
 30
0.0
 11
6473.360120707927
 21
5107.46393915766
 31
0.0
  0
SOLID
  5
9D93
330
94DD
100
AcDbEntity
  8
寸法引出
 48
15.0
100
AcDbTrace
 10
6313.360120707928
 20
5111.213939157659
 30
0.0
 11
6313.360120707928
 21
5103.71393915766
 31
0.0
 12
6290.860120707929
 22
5107.46393915766
 32
0.0
 13
6290.860120707929
 23
5107.46393915766
 33
0.0
  0
SOLID
  5
9D94
330
94DD
100
AcDbEntity
  8
寸法引出
 48
15.0
100
AcDbTrace
 10
6473.360120707927
 20
5111.213939157659
 30
0.0
 11
6473.360120707927
 21
5103.71393915766
 31
0.0
 12
6495.860120707927
 22
5107.46393915766
 32
0.0
 13
6495.860120707927
 23
5107.46393915766
 33
0.0
  0
MTEXT
  5
9D95
330
94DD
100
AcDbEntity
  8
寸法引出
 48
15.0
100
AcDbMText
 10
6393.360120707928
 20
5137.463939157659
 30
0.0
 40
30.0
 41
0.0
 71
     5
 72
     1
  1
\A1;205
  7
SANWA
 73
     1
 44
1.0
1001
ACAD
1000
MTEXTBEGIN
1070
    73
1070
     1
1070
    44
1040
1.0
1070
    74
1070
     0
1000
MTEXTEND
  0
POINT
  5
9D96
330
94DD
100
AcDbEntity
  8
DEFPOINTS
 62
     0
 48
15.0
100
AcDbPoint
 10
6290.860120707929
 20
5018.801030019953
 30
0.0
  0
POINT
  5
9D97
330
94DD
100
AcDbEntity
  8
DEFPOINTS
 62
     0
 48
15.0
100
AcDbPoint
 10
6495.860120707927
 20
5018.801030019953
 30
0.0
  0
POINT
  5
9D98
330
94DD
100
AcDbEntity
  8
DEFPOINTS
 62
     0
 48
15.0
100
AcDbPoint
 10
6495.860120707927
 20
5107.46393915766
 30
0.0
  0
ENDBLK
  5
94E8
330
94DD
100
AcDbEntity
  8
0
 48
15.0
100
AcDbBlockEnd
  0
BLOCK
  5
94F2
330
94E9
100
AcDbEntity
  8
0
 48
15.0
100
AcDbBlockBegin
  2
*D246
 70
     1
 10
0.0
 20
0.0
 30
0.0
  3
*D246
  1

  0
LINE
  5
9D99
330
94E9
100
AcDbEntity
  8
寸法引出
 48
15.0
370
    -2
100
AcDbLine
 10
6778.360120707927
 20
4958.801030019952
 30
0.0
 11
6951.50800088721
 21
4958.801030019952
 31
0.0
  0
LINE
  5
9D9A
330
94E9
100
AcDbEntity
  8
寸法引出
 48
15.0
370
    -2
100
AcDbLine
 10
6944.00800088721
 20
4688.301030019952
 30
0.0
 11
6944.00800088721
 21
4936.301030019953
 31
0.0
  0
SOLID
  5
9D9B
330
94E9
100
AcDbEntity
  8
寸法引出
 48
15.0
100
AcDbTrace
 10
6940.258000887211
 20
4688.301030019952
 30
0.0
 11
6947.758000887209
 21
4688.301030019952
 31
0.0
 12
6944.00800088721
 22
4665.801030019952
 32
0.0
 13
6944.00800088721
 23
4665.801030019952
 33
0.0
  0
SOLID
  5
9D9C
330
94E9
100
AcDbEntity
  8
寸法引出
 48
15.0
100
AcDbTrace
 10
6940.258000887211
 20
4936.301030019953
 30
0.0
 11
6947.758000887209
 21
4936.301030019953
 31
0.0
 12
6944.00800088721
 22
4958.801030019952
 32
0.0
 13
6944.00800088721
 23
4958.801030019952
 33
0.0
  0
MTEXT
  5
9D9D
330
94E9
100
AcDbEntity
  8
寸法引出
 48
15.0
100
AcDbMText
 10
6914.008000887209
 20
4812.301030019956
 30
0.0
 40
30.0
 41
0.0
 71
     5
 72
     1
  1
\A1;293
  7
SANWA
 11
0.0000000000000001
 21
1.0
 31
0.0
 73
     1
 44
1.0
1001
ACAD
1000
MTEXTBEGIN
1070
    73
1070
     1
1070
    44
1040
1.0
1070
    74
1070
     0
1000
MTEXTEND
  0
POINT
  5
9D9E
330
94E9
100
AcDbEntity
  8
DEFPOINTS
 62
     0
 48
15.0
100
AcDbPoint
 10
6763.360120707928
 20
4665.801030019952
 30
0.0
  0
POINT
  5
9D9F
330
94E9
100
AcDbEntity
  8
DEFPOINTS
 62
     0
 48
15.0
100
AcDbPoint
 10
6763.360120707928
 20
4958.801030019952
 30
0.0
  0
POINT
  5
9DA0
330
94E9
100
AcDbEntity
  8
DEFPOINTS
 62
     0
 48
15.0
100
AcDbPoint
 10
6944.00800088721
 20
4958.801030019952
 30
0.0
  0
ENDBLK
  5
94F3
330
94E9
100
AcDbEntity
  8
0
 48
15.0
100
AcDbBlockEnd
  0
BLOCK
  5
94FE
330
94F4
100
AcDbEntity
  8
0
 48
15.0
100
AcDbBlockBegin
  2
*D247
 70
     1
 10
0.0
 20
0.0
 30
0.0
  3
*D247
  1

  0
LINE
  5
9DA1
330
94F4
100
AcDbEntity
  8
寸法引出
 48
15.0
370
    -2
100
AcDbLine
 10
6778.360120707927
 20
4371.801030019953
 30
0.0
 11
6951.50800088721
 21
4371.801030019953
 31
0.0
  0
LINE
  5
9DA2
330
94F4
100
AcDbEntity
  8
寸法引出
 48
15.0
370
    -2
100
AcDbLine
 10
6778.360120707927
 20
4665.801030019952
 30
0.0
 11
6951.50800088721
 21
4665.801030019952
 31
0.0
  0
LINE
  5
9DA3
330
94F4
100
AcDbEntity
  8
寸法引出
 48
15.0
370
    -2
100
AcDbLine
 10
6944.00800088721
 20
4394.301030019953
 30
0.0
 11
6944.00800088721
 21
4643.301030019953
 31
0.0
  0
SOLID
  5
9DA4
330
94F4
100
AcDbEntity
  8
寸法引出
 48
15.0
100
AcDbTrace
 10
6940.258000887211
 20
4394.301030019953
 30
0.0
 11
6947.758000887209
 21
4394.301030019953
 31
0.0
 12
6944.00800088721
 22
4371.801030019953
 32
0.0
 13
6944.00800088721
 23
4371.801030019953
 33
0.0
  0
SOLID
  5
9DA5
330
94F4
100
AcDbEntity
  8
寸法引出
 48
15.0
100
AcDbTrace
 10
6940.258000887211
 20
4643.301030019953
 30
0.0
 11
6947.758000887209
 21
4643.301030019953
 31
0.0
 12
6944.00800088721
 22
4665.801030019952
 32
0.0
 13
6944.00800088721
 23
4665.801030019952
 33
0.0
  0
MTEXT
  5
9DA6
330
94F4
100
AcDbEntity
  8
寸法引出
 48
15.0
100
AcDbMText
 10
6914.008000887209
 20
4518.801030019955
 30
0.0
 40
30.0
 41
0.0
 71
     5
 72
     1
  1
\A1;294
  7
SANWA
 11
0.0000000000000001
 21
1.0
 31
0.0
 73
     1
 44
1.0
1001
ACAD
1000
MTEXTBEGIN
1070
    73
1070
     1
1070
    44
1040
1.0
1070
    74
1070
     0
1000
MTEXTEND
  0
POINT
  5
9DA7
330
94F4
100
AcDbEntity
  8
DEFPOINTS
 62
     0
 48
15.0
100
AcDbPoint
 10
6763.360120707928
 20
4371.801030019953
 30
0.0
  0
POINT
  5
9DA8
330
94F4
100
AcDbEntity
  8
DEFPOINTS
 62
     0
 48
15.0
100
AcDbPoint
 10
6763.360120707928
 20
4665.801030019952
 30
0.0
  0
POINT
  5
9DA9
330
94F4
100
AcDbEntity
  8
DEFPOINTS
 62
     0
 48
15.0
100
AcDbPoint
 10
6944.00800088721
 20
4665.801030019952
 30
0.0
  0
ENDBLK
  5
94FF
330
94F4
100
AcDbEntity
  8
0
 48
15.0
100
AcDbBlockEnd
  0
BLOCK
  5
950B
330
9500
100
AcDbEntity
  8
0
 48
15.0
100
AcDbBlockBegin
  2
*D248
 70
     1
 10
0.0
 20
0.0
 30
0.0
  3
*D248
  1

  0
LINE
  5
9DAA
330
9500
100
AcDbEntity
  8
寸法引出
 48
15.0
370
    -2
100
AcDbLine
 10
6778.360120707927
 20
5018.801030019953
 30
0.0
 11
6951.50800088721
 21
5018.801030019953
 31
0.0
  0
LINE
  5
9DAB
330
9500
100
AcDbEntity
  8
寸法引出
 48
15.0
370
    -2
100
AcDbLine
 10
6944.00800088721
 20
4936.301030019953
 30
0.0
 11
6944.00800088721
 21
4913.801030019953
 31
0.0
  0
LINE
  5
9DAC
330
9500
100
AcDbEntity
  8
寸法引出
 48
15.0
370
    -2
100
AcDbLine
 10
6944.00800088721
 20
5041.301030019953
 30
0.0
 11
6944.00800088721
 21
5063.801030019953
 31
0.0
  0
LINE
  5
9DAD
330
9500
100
AcDbEntity
  8
寸法引出
 48
15.0
370
    -2
100
AcDbLine
 10
6944.00800088721
 20
4958.801030019952
 30
0.0
 11
6944.00800088721
 21
5018.801030019953
 31
0.0
  0
SOLID
  5
9DAE
330
9500
100
AcDbEntity
  8
寸法引出
 48
15.0
100
AcDbTrace
 10
6940.258000887211
 20
4936.301030019953
 30
0.0
 11
6947.758000887209
 21
4936.301030019953
 31
0.0
 12
6944.00800088721
 22
4958.801030019952
 32
0.0
 13
6944.00800088721
 23
4958.801030019952
 33
0.0
  0
SOLID
  5
9DAF
330
9500
100
AcDbEntity
  8
寸法引出
 48
15.0
100
AcDbTrace
 10
6940.258000887211
 20
5041.301030019953
 30
0.0
 11
6947.758000887209
 21
5041.301030019953
 31
0.0
 12
6944.00800088721
 22
5018.801030019953
 32
0.0
 13
6944.00800088721
 23
5018.801030019953
 33
0.0
  0
MTEXT
  5
9DB0
330
9500
100
AcDbEntity
  8
寸法引出
 48
15.0
100
AcDbMText
 10
6914.008000887209
 20
4988.801030019955
 30
0.0
 40
30.0
 41
0.0
 71
     5
 72
     1
  1
\A1;60
  7
SANWA
 11
0.0000000000000001
 21
1.0
 31
0.0
 73
     1
 44
1.0
1001
ACAD
1000
MTEXTBEGIN
1070
    73
1070
     1
1070
    44
1040
1.0
1070
    74
1070
     0
1000
MTEXTEND
  0
POINT
  5
9DB1
330
9500
100
AcDbEntity
  8
DEFPOINTS
 62
     0
 48
15.0
100
AcDbPoint
 10
6763.360120707928
 20
4958.801030019952
 30
0.0
  0
POINT
  5
9DB2
330
9500
100
AcDbEntity
  8
DEFPOINTS
 62
     0
 48
15.0
100
AcDbPoint
 10
6763.360120707928
 20
5018.801030019953
 30
0.0
  0
POINT
  5
9DB3
330
9500
100
AcDbEntity
  8
DEFPOINTS
 62
     0
 48
15.0
100
AcDbPoint
 10
6944.00800088721
 20
5018.801030019953
 30
0.0
  0
ENDBLK
  5
950C
330
9500
100
AcDbEntity
  8
0
 48
15.0
100
AcDbBlockEnd
  0
BLOCK
  5
9516
330
950D
100
AcDbEntity
  8
0
 48
15.0
100
AcDbBlockBegin
  2
*D249
 70
     1
 10
0.0
 20
0.0
 30
0.0
  3
*D249
  1

  0
LINE
  5
9DB4
330
950D
100
AcDbEntity
  8
寸法引出
 48
15.0
370
    -2
100
AcDbLine
 10
6763.360120707928
 20
5033.801030019953
 30
0.0
 11
6763.360120707928
 21
5114.963939157659
 31
0.0
  0
LINE
  5
9DB5
330
950D
100
AcDbEntity
  8
寸法引出
 48
15.0
370
    -2
100
AcDbLine
 10
6702.860120707928
 20
5107.46393915766
 30
0.0
 11
6740.860120707927
 21
5107.46393915766
 31
0.0
  0
SOLID
  5
9DB6
330
950D
100
AcDbEntity
  8
寸法引出
 48
15.0
100
AcDbTrace
 10
6702.860120707928
 20
5111.213939157659
 30
0.0
 11
6702.860120707928
 21
5103.71393915766
 31
0.0
 12
6680.360120707928
 22
5107.46393915766
 32
0.0
 13
6680.360120707928
 23
5107.46393915766
 33
0.0
  0
SOLID
  5
9DB7
330
950D
100
AcDbEntity
  8
寸法引出
 48
15.0
100
AcDbTrace
 10
6740.860120707927
 20
5111.213939157659
 30
0.0
 11
6740.860120707927
 21
5103.71393915766
 31
0.0
 12
6763.360120707928
 22
5107.46393915766
 32
0.0
 13
6763.360120707928
 23
5107.46393915766
 33
0.0
  0
MTEXT
  5
9DB8
330
950D
100
AcDbEntity
  8
寸法引出
 48
15.0
100
AcDbMText
 10
6721.860120707929
 20
5137.463939157659
 30
0.0
 40
30.0
 41
0.0
 71
     5
 72
     1
  1
\A1;83
  7
SANWA
 73
     1
 44
1.0
1001
ACAD
1000
MTEXTBEGIN
1070
    73
1070
     1
1070
    44
1040
1.0
1070
    74
1070
     0
1000
MTEXTEND
  0
POINT
  5
9DB9
330
950D
100
AcDbEntity
  8
DEFPOINTS
 62
     0
 48
15.0
100
AcDbPoint
 10
6680.360120707928
 20
5018.801030019953
 30
0.0
  0
POINT
  5
9DBA
330
950D
100
AcDbEntity
  8
DEFPOINTS
 62
     0
 48
15.0
100
AcDbPoint
 10
6763.360120707928
 20
5018.801030019953
 30
0.0
  0
POINT
  5
9DBB
330
950D
100
AcDbEntity
  8
DEFPOINTS
 62
     0
 48
15.0
100
AcDbPoint
 10
6763.360120707928
 20
5107.46393915766
 30
0.0
  0
ENDBLK
  5
9517
330
950D
100
AcDbEntity
  8
0
 48
15.0
100
AcDbBlockEnd
  0
BLOCK
  5
9522
330
9518
100
AcDbEntity
  8
0
 48
15.0
100
AcDbBlockBegin
  2
*D250
 70
     1
 10
0.0
 20
0.0
 30
0.0
  3
*D250
  1

  0
LINE
  5
9DBC
330
9518
100
AcDbEntity
  8
寸法引出
 48
15.0
370
    -2
100
AcDbLine
 10
6023.360120707927
 20
5741.248968094955
 30
0.0
 11
6023.360120707927
 21
5887.111733594709
 31
0.0
  0
LINE
  5
9DBD
330
9518
100
AcDbEntity
  8
寸法引出
 48
15.0
370
    -2
100
AcDbLine
 10
6763.360120707928
 20
5741.248968094955
 30
0.0
 11
6763.360120707928
 21
5887.111733594709
 31
0.0
  0
LINE
  5
9DBE
330
9518
100
AcDbEntity
  8
寸法引出
 48
15.0
370
    -2
100
AcDbLine
 10
6045.860120707928
 20
5879.61173359471
 30
0.0
 11
6740.860120707927
 21
5879.61173359471
 31
0.0
  0
SOLID
  5
9DBF
330
9518
100
AcDbEntity
  8
寸法引出
 48
15.0
100
AcDbTrace
 10
6045.860120707928
 20
5883.36173359471
 30
0.0
 11
6045.860120707928
 21
5875.861733594709
 31
0.0
 12
6023.360120707927
 22
5879.61173359471
 32
0.0
 13
6023.360120707927
 23
5879.61173359471
 33
0.0
  0
SOLID
  5
9DC0
330
9518
100
AcDbEntity
  8
寸法引出
 48
15.0
100
AcDbTrace
 10
6740.860120707927
 20
5883.36173359471
 30
0.0
 11
6740.860120707927
 21
5875.861733594709
 31
0.0
 12
6763.360120707928
 22
5879.61173359471
 32
0.0
 13
6763.360120707928
 23
5879.61173359471
 33
0.0
  0
MTEXT
  5
9DC1
330
9518
100
AcDbEntity
  8
寸法引出
 48
15.0
100
AcDbMText
 10
6393.360120707928
 20
5909.611733594709
 30
0.0
 40
30.0
 41
0.0
 71
     5
 72
     1
  1
\A1;740
  7
SANWA
 73
     1
 44
1.0
1001
ACAD
1000
MTEXTBEGIN
1070
    73
1070
     1
1070
    44
1040
1.0
1070
    74
1070
     0
1000
MTEXTEND
  0
POINT
  5
9DC2
330
9518
100
AcDbEntity
  8
DEFPOINTS
 62
     0
 48
15.0
100
AcDbPoint
 10
6023.360120707927
 20
5726.248968094956
 30
0.0
  0
POINT
  5
9DC3
330
9518
100
AcDbEntity
  8
DEFPOINTS
 62
     0
 48
15.0
100
AcDbPoint
 10
6763.360120707928
 20
5726.248968094956
 30
0.0
  0
POINT
  5
9DC4
330
9518
100
AcDbEntity
  8
DEFPOINTS
 62
     0
 48
15.0
100
AcDbPoint
 10
6763.360120707928
 20
5879.61173359471
 30
0.0
  0
ENDBLK
  5
9523
330
9518
100
AcDbEntity
  8
0
 48
15.0
100
AcDbBlockEnd
  0
BLOCK
  5
952D
330
9524
100
AcDbEntity
  8
0
 48
15.0
100
AcDbBlockBegin
  2
*D251
 70
     1
 10
0.0
 20
0.0
 30
0.0
  3
*D251
  1

  0
LINE
  5
9DC5
330
9524
100
AcDbEntity
  8
寸法引出
 48
15.0
370
    -2
100
AcDbLine
 10
6763.360120707928
 20
5571.248968094955
 30
0.0
 11
6763.360120707928
 21
5482.381193247146
 31
0.0
  0
LINE
  5
9DC6
330
9524
100
AcDbEntity
  8
寸法引出
 48
15.0
370
    -2
100
AcDbLine
 10
6518.360120707928
 20
5489.881193247145
 30
0.0
 11
6740.860120707927
 21
5489.881193247145
 31
0.0
  0
SOLID
  5
9DC7
330
9524
100
AcDbEntity
  8
寸法引出
 48
15.0
100
AcDbTrace
 10
6518.360120707928
 20
5493.631193247145
 30
0.0
 11
6518.360120707928
 21
5486.131193247145
 31
0.0
 12
6495.860120707927
 22
5489.881193247145
 32
0.0
 13
6495.860120707927
 23
5489.881193247145
 33
0.0
  0
SOLID
  5
9DC8
330
9524
100
AcDbEntity
  8
寸法引出
 48
15.0
100
AcDbTrace
 10
6740.860120707927
 20
5493.631193247145
 30
0.0
 11
6740.860120707927
 21
5486.131193247145
 31
0.0
 12
6763.360120707928
 22
5489.881193247145
 32
0.0
 13
6763.360120707928
 23
5489.881193247145
 33
0.0
  0
MTEXT
  5
9DC9
330
9524
100
AcDbEntity
  8
寸法引出
 48
15.0
100
AcDbMText
 10
6629.610120707927
 20
5519.881193247146
 30
0.0
 40
30.0
 41
0.0
 71
     5
 72
     1
  1
\A1;267.5
  7
SANWA
 73
     1
 44
1.0
1001
ACAD
1000
MTEXTBEGIN
1070
    73
1070
     1
1070
    44
1040
1.0
1070
    74
1070
     0
1000
MTEXTEND
  0
POINT
  5
9DCA
330
9524
100
AcDbEntity
  8
DEFPOINTS
 62
     0
 48
15.0
100
AcDbPoint
 10
6495.860120707927
 20
5586.248968094956
 30
0.0
  0
POINT
  5
9DCB
330
9524
100
AcDbEntity
  8
DEFPOINTS
 62
     0
 48
15.0
100
AcDbPoint
 10
6763.360120707928
 20
5586.248968094956
 30
0.0
  0
POINT
  5
9DCC
330
9524
100
AcDbEntity
  8
DEFPOINTS
 62
     0
 48
15.0
100
AcDbPoint
 10
6763.360120707928
 20
5489.881193247145
 30
0.0
  0
ENDBLK
  5
952E
330
9524
100
AcDbEntity
  8
0
 48
15.0
100
AcDbBlockEnd
  0
BLOCK
  5
9538
330
952F
100
AcDbEntity
  8
0
 48
15.0
100
AcDbBlockBegin
  2
*D252
 70
     1
 10
0.0
 20
0.0
 30
0.0
  3
*D252
  1

  0
LINE
  5
9DCD
330
952F
100
AcDbEntity
  8
寸法引出
 48
15.0
370
    -2
100
AcDbLine
 10
6680.360120707927
 20
5736.330449576438
 30
0.0
 11
6680.360120707927
 21
5831.241271417553
 31
0.0
  0
LINE
  5
9DCE
330
952F
100
AcDbEntity
  8
寸法引出
 48
15.0
370
    -2
100
AcDbLine
 10
6128.860120707927
 20
5823.741271417553
 30
0.0
 11
6657.860120707927
 21
5823.741271417553
 31
0.0
  0
SOLID
  5
9DCF
330
952F
100
AcDbEntity
  8
寸法引出
 48
15.0
100
AcDbTrace
 10
6128.860120707927
 20
5827.491271417553
 30
0.0
 11
6128.860120707927
 21
5819.991271417553
 31
0.0
 12
6106.360120707927
 22
5823.741271417553
 32
0.0
 13
6106.360120707927
 23
5823.741271417553
 33
0.0
  0
SOLID
  5
9DD0
330
952F
100
AcDbEntity
  8
寸法引出
 48
15.0
100
AcDbTrace
 10
6657.860120707927
 20
5827.491271417553
 30
0.0
 11
6657.860120707927
 21
5819.991271417553
 31
0.0
 12
6680.360120707927
 22
5823.741271417553
 32
0.0
 13
6680.360120707927
 23
5823.741271417553
 33
0.0
  0
MTEXT
  5
9DD1
330
952F
100
AcDbEntity
  8
寸法引出
 48
15.0
100
AcDbMText
 10
6393.360120707928
 20
5853.741271417554
 30
0.0
 40
30.0
 41
0.0
 71
     5
 72
     1
  1
\A1;574
  7
SANWA
 73
     1
 44
1.0
1001
ACAD
1000
MTEXTBEGIN
1070
    73
1070
     1
1070
    44
1040
1.0
1070
    74
1070
     0
1000
MTEXTEND
  0
POINT
  5
9DD2
330
952F
100
AcDbEntity
  8
DEFPOINTS
 62
     0
 48
15.0
100
AcDbPoint
 10
6106.360120707927
 20
5721.330449576438
 30
0.0
  0
POINT
  5
9DD3
330
952F
100
AcDbEntity
  8
DEFPOINTS
 62
     0
 48
15.0
100
AcDbPoint
 10
6680.360120707927
 20
5721.330449576438
 30
0.0
  0
POINT
  5
9DD4
330
952F
100
AcDbEntity
  8
DEFPOINTS
 62
     0
 48
15.0
100
AcDbPoint
 10
6680.360120707927
 20
5823.741271417553
 30
0.0
  0
ENDBLK
  5
9539
330
952F
100
AcDbEntity
  8
0
 48
15.0
100
AcDbBlockEnd
  0
BLOCK
  5
9544
330
953A
100
AcDbEntity
  8
0
 48
15.0
100
AcDbBlockBegin
  2
*D253
 70
     1
 10
0.0
 20
0.0
 30
0.0
  3
*D253
  1

  0
LINE
  5
9DD5
330
953A
100
AcDbEntity
  8
寸法引出
 48
15.0
370
    -2
100
AcDbLine
 10
6023.360120707927
 20
5571.248968094955
 30
0.0
 11
6023.360120707927
 21
5482.381193247146
 31
0.0
  0
LINE
  5
9DD6
330
953A
100
AcDbEntity
  8
寸法引出
 48
15.0
370
    -2
100
AcDbLine
 10
6290.860120707927
 20
5571.248968094955
 30
0.0
 11
6290.860120707927
 21
5482.381193247146
 31
0.0
  0
LINE
  5
9DD7
330
953A
100
AcDbEntity
  8
寸法引出
 48
15.0
370
    -2
100
AcDbLine
 10
6045.860120707928
 20
5489.881193247145
 30
0.0
 11
6268.360120707928
 21
5489.881193247145
 31
0.0
  0
SOLID
  5
9DD8
330
953A
100
AcDbEntity
  8
寸法引出
 48
15.0
100
AcDbTrace
 10
6045.860120707928
 20
5493.631193247145
 30
0.0
 11
6045.860120707928
 21
5486.131193247145
 31
0.0
 12
6023.360120707927
 22
5489.881193247145
 32
0.0
 13
6023.360120707927
 23
5489.881193247145
 33
0.0
  0
SOLID
  5
9DD9
330
953A
100
AcDbEntity
  8
寸法引出
 48
15.0
100
AcDbTrace
 10
6268.360120707928
 20
5493.631193247145
 30
0.0
 11
6268.360120707928
 21
5486.131193247145
 31
0.0
 12
6290.860120707927
 22
5489.881193247145
 32
0.0
 13
6290.860120707927
 23
5489.881193247145
 33
0.0
  0
MTEXT
  5
9DDA
330
953A
100
AcDbEntity
  8
寸法引出
 48
15.0
100
AcDbMText
 10
6157.110120707927
 20
5519.881193247146
 30
0.0
 40
30.0
 41
0.0
 71
     5
 72
     1
  1
\A1;267.5
  7
SANWA
 73
     1
 44
1.0
1001
ACAD
1000
MTEXTBEGIN
1070
    73
1070
     1
1070
    44
1040
1.0
1070
    74
1070
     0
1000
MTEXTEND
  0
POINT
  5
9DDB
330
953A
100
AcDbEntity
  8
DEFPOINTS
 62
     0
 48
15.0
100
AcDbPoint
 10
6023.360120707927
 20
5586.248968094956
 30
0.0
  0
POINT
  5
9DDC
330
953A
100
AcDbEntity
  8
DEFPOINTS
 62
     0
 48
15.0
100
AcDbPoint
 10
6290.860120707927
 20
5586.248968094956
 30
0.0
  0
POINT
  5
9DDD
330
953A
100
AcDbEntity
  8
DEFPOINTS
 62
     0
 48
15.0
100
AcDbPoint
 10
6290.860120707927
 20
5489.881193247145
 30
0.0
  0
ENDBLK
  5
9545
330
953A
100
AcDbEntity
  8
0
 48
15.0
100
AcDbBlockEnd
  0
BLOCK
  5
9550
330
9546
100
AcDbEntity
  8
0
 48
15.0
100
AcDbBlockBegin
  2
*D254
 70
     1
 10
0.0
 20
0.0
 30
0.0
  3
*D254
  1

  0
LINE
  5
9DDE
330
9546
100
AcDbEntity
  8
寸法引出
 48
15.0
370
    -2
100
AcDbLine
 10
6023.360120707927
 20
5741.248968094955
 30
0.0
 11
6023.360120707927
 21
5831.241271417553
 31
0.0
  0
LINE
  5
9DDF
330
9546
100
AcDbEntity
  8
寸法引出
 48
15.0
370
    -2
100
AcDbLine
 10
6106.360120707927
 20
5736.330449576438
 30
0.0
 11
6106.360120707927
 21
5831.241271417553
 31
0.0
  0
LINE
  5
9DE0
330
9546
100
AcDbEntity
  8
寸法引出
 48
15.0
370
    -2
100
AcDbLine
 10
6045.860120707928
 20
5823.741271417553
 30
0.0
 11
6083.860120707927
 21
5823.741271417553
 31
0.0
  0
SOLID
  5
9DE1
330
9546
100
AcDbEntity
  8
寸法引出
 48
15.0
100
AcDbTrace
 10
6045.860120707928
 20
5827.491271417553
 30
0.0
 11
6045.860120707928
 21
5819.991271417553
 31
0.0
 12
6023.360120707927
 22
5823.741271417553
 32
0.0
 13
6023.360120707927
 23
5823.741271417553
 33
0.0
  0
SOLID
  5
9DE2
330
9546
100
AcDbEntity
  8
寸法引出
 48
15.0
100
AcDbTrace
 10
6083.860120707927
 20
5827.491271417553
 30
0.0
 11
6083.860120707927
 21
5819.991271417553
 31
0.0
 12
6106.360120707927
 22
5823.741271417553
 32
0.0
 13
6106.360120707927
 23
5823.741271417553
 33
0.0
  0
MTEXT
  5
9DE3
330
9546
100
AcDbEntity
  8
寸法引出
 48
15.0
100
AcDbMText
 10
6064.860120707927
 20
5853.741271417554
 30
0.0
 40
30.0
 41
0.0
 71
     5
 72
     1
  1
\A1;83
  7
SANWA
 73
     1
 44
1.0
1001
ACAD
1000
MTEXTBEGIN
1070
    73
1070
     1
1070
    44
1040
1.0
1070
    74
1070
     0
1000
MTEXTEND
  0
POINT
  5
9DE4
330
9546
100
AcDbEntity
  8
DEFPOINTS
 62
     0
 48
15.0
100
AcDbPoint
 10
6023.360120707927
 20
5726.248968094956
 30
0.0
  0
POINT
  5
9DE5
330
9546
100
AcDbEntity
  8
DEFPOINTS
 62
     0
 48
15.0
100
AcDbPoint
 10
6106.360120707927
 20
5721.330449576438
 30
0.0
  0
POINT
  5
9DE6
330
9546
100
AcDbEntity
  8
DEFPOINTS
 62
     0
 48
15.0
100
AcDbPoint
 10
6106.360120707927
 20
5823.741271417553
 30
0.0
  0
ENDBLK
  5
9551
330
9546
100
AcDbEntity
  8
0
 48
15.0
100
AcDbBlockEnd
  0
BLOCK
  5
955B
330
9552
100
AcDbEntity
  8
0
 48
15.0
100
AcDbBlockBegin
  2
*D255
 70
     1
 10
0.0
 20
0.0
 30
0.0
  3
*D255
  1

  0
LINE
  5
9DE7
330
9552
100
AcDbEntity
  8
寸法引出
 48
15.0
370
    -2
100
AcDbLine
 10
6495.860120707927
 20
5571.248968094955
 30
0.0
 11
6495.860120707927
 21
5482.381193247146
 31
0.0
  0
LINE
  5
9DE8
330
9552
100
AcDbEntity
  8
寸法引出
 48
15.0
370
    -2
100
AcDbLine
 10
6313.360120707927
 20
5489.881193247145
 30
0.0
 11
6473.360120707927
 21
5489.881193247145
 31
0.0
  0
SOLID
  5
9DE9
330
9552
100
AcDbEntity
  8
寸法引出
 48
15.0
100
AcDbTrace
 10
6313.360120707927
 20
5493.631193247145
 30
0.0
 11
6313.360120707927
 21
5486.131193247145
 31
0.0
 12
6290.860120707927
 22
5489.881193247145
 32
0.0
 13
6290.860120707927
 23
5489.881193247145
 33
0.0
  0
SOLID
  5
9DEA
330
9552
100
AcDbEntity
  8
寸法引出
 48
15.0
100
AcDbTrace
 10
6473.360120707927
 20
5493.631193247145
 30
0.0
 11
6473.360120707927
 21
5486.131193247145
 31
0.0
 12
6495.860120707927
 22
5489.881193247145
 32
0.0
 13
6495.860120707927
 23
5489.881193247145
 33
0.0
  0
MTEXT
  5
9DEB
330
9552
100
AcDbEntity
  8
寸法引出
 48
15.0
100
AcDbMText
 10
6393.360120707928
 20
5519.881193247146
 30
0.0
 40
30.0
 41
0.0
 71
     5
 72
     1
  1
\A1;205
  7
SANWA
 73
     1
 44
1.0
1001
ACAD
1000
MTEXTBEGIN
1070
    73
1070
     1
1070
    44
1040
1.0
1070
    74
1070
     0
1000
MTEXTEND
  0
POINT
  5
9DEC
330
9552
100
AcDbEntity
  8
DEFPOINTS
 62
     0
 48
15.0
100
AcDbPoint
 10
6290.860120707927
 20
5586.248968094956
 30
0.0
  0
POINT
  5
9DED
330
9552
100
AcDbEntity
  8
DEFPOINTS
 62
     0
 48
15.0
100
AcDbPoint
 10
6495.860120707927
 20
5586.248968094956
 30
0.0
  0
POINT
  5
9DEE
330
9552
100
AcDbEntity
  8
DEFPOINTS
 62
     0
 48
15.0
100
AcDbPoint
 10
6495.860120707927
 20
5489.881193247145
 30
0.0
  0
ENDBLK
  5
955C
330
9552
100
AcDbEntity
  8
0
 48
15.0
100
AcDbBlockEnd
  0
BLOCK
  5
9568
330
955D
100
AcDbEntity
  8
0
 48
15.0
100
AcDbBlockBegin
  2
*D256
 70
     1
 10
0.0
 20
0.0
 30
0.0
  3
*D256
  1

  0
LINE
  5
9DEF
330
955D
100
AcDbEntity
  8
寸法引出
 48
15.0
370
    -2
100
AcDbLine
 10
6778.360120707927
 20
5665.948968094956
 30
0.0
 11
6881.865109341423
 21
5665.948968094956
 31
0.0
  0
LINE
  5
9DF0
330
955D
100
AcDbEntity
  8
寸法引出
 48
15.0
370
    -2
100
AcDbLine
 10
6874.365109341423
 20
5592.448968094956
 30
0.0
 11
6874.365109341423
 21
5569.948968094957
 31
0.0
  0
LINE
  5
9DF1
330
955D
100
AcDbEntity
  8
寸法引出
 48
15.0
370
    -2
100
AcDbLine
 10
6874.365109341423
 20
5688.448968094956
 30
0.0
 11
6874.365109341423
 21
5710.948968094957
 31
0.0
  0
LINE
  5
9DF2
330
955D
100
AcDbEntity
  8
寸法引出
 48
15.0
370
    -2
100
AcDbLine
 10
6874.365109341423
 20
5614.948968094957
 30
0.0
 11
6874.365109341423
 21
5665.948968094956
 31
0.0
  0
SOLID
  5
9DF3
330
955D
100
AcDbEntity
  8
寸法引出
 48
15.0
100
AcDbTrace
 10
6870.615109341423
 20
5592.448968094956
 30
0.0
 11
6878.115109341422
 21
5592.448968094956
 31
0.0
 12
6874.365109341423
 22
5614.948968094957
 32
0.0
 13
6874.365109341423
 23
5614.948968094957
 33
0.0
  0
SOLID
  5
9DF4
330
955D
100
AcDbEntity
  8
寸法引出
 48
15.0
100
AcDbTrace
 10
6870.615109341423
 20
5688.448968094956
 30
0.0
 11
6878.115109341422
 21
5688.448968094956
 31
0.0
 12
6874.365109341423
 22
5665.948968094956
 32
0.0
 13
6874.365109341423
 23
5665.948968094956
 33
0.0
  0
MTEXT
  5
9DF5
330
955D
100
AcDbEntity
  8
寸法引出
 48
15.0
100
AcDbMText
 10
6844.365109341421
 20
5640.448968094958
 30
0.0
 40
30.0
 41
0.0
 71
     5
 72
     1
  1
\A1;51
  7
SANWA
 11
0.0000000000000001
 21
1.0
 31
0.0
 73
     1
 44
1.0
1001
ACAD
1000
MTEXTBEGIN
1070
    73
1070
     1
1070
    44
1040
1.0
1070
    74
1070
     0
1000
MTEXTEND
  0
POINT
  5
9DF6
330
955D
100
AcDbEntity
  8
DEFPOINTS
 62
     0
 48
15.0
100
AcDbPoint
 10
6763.360120707928
 20
5614.948968094957
 30
0.0
  0
POINT
  5
9DF7
330
955D
100
AcDbEntity
  8
DEFPOINTS
 62
     0
 48
15.0
100
AcDbPoint
 10
6763.360120707928
 20
5665.948968094956
 30
0.0
  0
POINT
  5
9DF8
330
955D
100
AcDbEntity
  8
DEFPOINTS
 62
     0
 48
15.0
100
AcDbPoint
 10
6874.365109341423
 20
5665.948968094956
 30
0.0
  0
ENDBLK
  5
9569
330
955D
100
AcDbEntity
  8
0
 48
15.0
100
AcDbBlockEnd
  0
BLOCK
  5
9573
330
956A
100
AcDbEntity
  8
0
 48
15.0
100
AcDbBlockBegin
  2
*D257
 70
     1
 10
0.0
 20
0.0
 30
0.0
  3
*D257
  1

  0
LINE
  5
9DF9
330
956A
100
AcDbEntity
  8
寸法引出
 48
15.0
370
    -2
100
AcDbLine
 10
6763.360120707928
 20
5741.248968094955
 30
0.0
 11
6763.360120707928
 21
5831.241271417553
 31
0.0
  0
LINE
  5
9DFA
330
956A
100
AcDbEntity
  8
寸法引出
 48
15.0
370
    -2
100
AcDbLine
 10
6702.860120707928
 20
5823.741271417553
 30
0.0
 11
6740.860120707927
 21
5823.741271417553
 31
0.0
  0
SOLID
  5
9DFB
330
956A
100
AcDbEntity
  8
寸法引出
 48
15.0
100
AcDbTrace
 10
6702.860120707928
 20
5827.491271417553
 30
0.0
 11
6702.860120707928
 21
5819.991271417553
 31
0.0
 12
6680.360120707927
 22
5823.741271417553
 32
0.0
 13
6680.360120707927
 23
5823.741271417553
 33
0.0
  0
SOLID
  5
9DFC
330
956A
100
AcDbEntity
  8
寸法引出
 48
15.0
100
AcDbTrace
 10
6740.860120707927
 20
5827.491271417553
 30
0.0
 11
6740.860120707927
 21
5819.991271417553
 31
0.0
 12
6763.360120707928
 22
5823.741271417553
 32
0.0
 13
6763.360120707928
 23
5823.741271417553
 33
0.0
  0
MTEXT
  5
9DFD
330
956A
100
AcDbEntity
  8
寸法引出
 48
15.0
100
AcDbMText
 10
6721.860120707927
 20
5853.741271417554
 30
0.0
 40
30.0
 41
0.0
 71
     5
 72
     1
  1
\A1;83
  7
SANWA
 73
     1
 44
1.0
1001
ACAD
1000
MTEXTBEGIN
1070
    73
1070
     1
1070
    44
1040
1.0
1070
    74
1070
     0
1000
MTEXTEND
  0
POINT
  5
9DFE
330
956A
100
AcDbEntity
  8
DEFPOINTS
 62
     0
 48
15.0
100
AcDbPoint
 10
6680.360120707927
 20
5721.330449576438
 30
0.0
  0
POINT
  5
9DFF
330
956A
100
AcDbEntity
  8
DEFPOINTS
 62
     0
 48
15.0
100
AcDbPoint
 10
6763.360120707928
 20
5726.248968094956
 30
0.0
  0
POINT
  5
9E00
330
956A
100
AcDbEntity
  8
DEFPOINTS
 62
     0
 48
15.0
100
AcDbPoint
 10
6763.360120707928
 20
5823.741271417553
 30
0.0
  0
ENDBLK
  5
9574
330
956A
100
AcDbEntity
  8
0
 48
15.0
100
AcDbBlockEnd
  0
BLOCK
  5
957E
330
9575
100
AcDbEntity
  8
0
 48
15.0
100
AcDbBlockBegin
  2
*D258
 70
     1
 10
0.0
 20
0.0
 30
0.0
  3
*D258
  1

  0
LINE
  5
9AB8
330
9575
100
AcDbEntity
  8
寸法引出
 48
15.0
370
    -2
100
AcDbLine
 10
1306.369096113077
 20
690.2125547624154
 30
0.0
 11
1199.77348145064
 21
690.2125547624156
 31
0.0
  0
LINE
  5
9AB9
330
9575
100
AcDbEntity
  8
寸法引出
 48
15.0
370
    -2
100
AcDbLine
 10
1207.27348145064
 20
1427.712554762415
 30
0.0
 11
1207.27348145064
 21
712.7125547624156
 31
0.0
  0
SOLID
  5
9ABA
330
9575
100
AcDbEntity
  8
寸法引出
 48
15.0
100
AcDbTrace
 10
1203.52348145064
 20
1427.712554762415
 30
0.0
 11
1211.02348145064
 21
1427.712554762415
 31
0.0
 12
1207.27348145064
 22
1450.212554762415
 32
0.0
 13
1207.27348145064
 23
1450.212554762415
 33
0.0
  0
SOLID
  5
9ABB
330
9575
100
AcDbEntity
  8
寸法引出
 48
15.0
100
AcDbTrace
 10
1203.52348145064
 20
712.7125547624156
 30
0.0
 11
1211.02348145064
 21
712.7125547624156
 31
0.0
 12
1207.27348145064
 22
690.2125547624156
 32
0.0
 13
1207.27348145064
 23
690.2125547624156
 33
0.0
  0
MTEXT
  5
9ABC
330
9575
100
AcDbEntity
  8
寸法引出
 48
15.0
100
AcDbMText
 10
1177.27348145064
 20
1070.212554762416
 30
0.0
 40
30.0
 41
0.0
 71
     5
 72
     1
  1
\A1;760
  7
SANWA
 11
0.0000000000000001
 21
1.0
 31
0.0
 73
     1
 44
1.0
1001
ACAD
1000
MTEXTBEGIN
1070
    73
1070
     1
1070
    44
1040
1.0
1070
    74
1070
     0
1000
MTEXTEND
  0
POINT
  5
9ABD
330
9575
100
AcDbEntity
  8
DEFPOINTS
 62
     0
 48
15.0
100
AcDbPoint
 10
1321.369096113077
 20
1450.212554762415
 30
0.0
  0
POINT
  5
9ABE
330
9575
100
AcDbEntity
  8
DEFPOINTS
 62
     0
 48
15.0
100
AcDbPoint
 10
1321.369096113077
 20
690.2125547624154
 30
0.0
  0
POINT
  5
9ABF
330
9575
100
AcDbEntity
  8
DEFPOINTS
 62
     0
 48
15.0
100
AcDbPoint
 10
1207.27348145064
 20
690.2125547624156
 30
0.0
  0
ENDBLK
  5
957F
330
9575
100
AcDbEntity
  8
0
 48
15.0
100
AcDbBlockEnd
  0
BLOCK
  5
958A
330
9580
100
AcDbEntity
  8
0
 48
15.0
100
AcDbBlockBegin
  2
*D259
 70
     1
 10
0.0
 20
0.0
 30
0.0
  3
*D259
  1

  0
LINE
  5
9AC0
330
9580
100
AcDbEntity
  8
寸法引出
 48
15.0
370
    -2
100
AcDbLine
 10
2076.369096113077
 20
1570.212554762415
 30
0.0
 11
2181.103754470078
 21
1570.212554762415
 31
0.0
  0
LINE
  5
9AC1
330
9580
100
AcDbEntity
  8
寸法引出
 48
15.0
370
    -2
100
AcDbLine
 10
2076.369096113077
 20
570.2125547624155
 30
0.0
 11
2181.103754470078
 21
570.2125547624155
 31
0.0
  0
LINE
  5
9AC2
330
9580
100
AcDbEntity
  8
寸法引出
 48
15.0
370
    -2
100
AcDbLine
 10
2173.603754470078
 20
1547.712554762415
 30
0.0
 11
2173.603754470077
 21
592.7125547624155
 31
0.0
  0
SOLID
  5
9AC3
330
9580
100
AcDbEntity
  8
寸法引出
 48
15.0
100
AcDbTrace
 10
2169.853754470078
 20
1547.712554762415
 30
0.0
 11
2177.353754470078
 21
1547.712554762415
 31
0.0
 12
2173.603754470078
 22
1570.212554762415
 32
0.0
 13
2173.603754470078
 23
1570.212554762415
 33
0.0
  0
SOLID
  5
9AC4
330
9580
100
AcDbEntity
  8
寸法引出
 48
15.0
100
AcDbTrace
 10
2169.853754470078
 20
592.7125547624155
 30
0.0
 11
2177.353754470078
 21
592.7125547624155
 31
0.0
 12
2173.603754470077
 22
570.2125547624155
 32
0.0
 13
2173.603754470077
 23
570.2125547624155
 33
0.0
  0
MTEXT
  5
9AC5
330
9580
100
AcDbEntity
  8
寸法引出
 48
15.0
100
AcDbMText
 10
2143.603754470078
 20
1070.212554762416
 30
0.0
 40
30.0
 41
0.0
 71
     5
 72
     1
  1
\A1;1000
  7
SANWA
 11
0.0000000000000001
 21
1.0
 31
0.0
 73
     1
 44
1.0
1001
ACAD
1000
MTEXTBEGIN
1070
    73
1070
     1
1070
    44
1040
1.0
1070
    74
1070
     0
1000
MTEXTEND
  0
POINT
  5
9AC6
330
9580
100
AcDbEntity
  8
DEFPOINTS
 62
     0
 48
15.0
100
AcDbPoint
 10
2061.369096113077
 20
1570.212554762415
 30
0.0
  0
POINT
  5
9AC7
330
9580
100
AcDbEntity
  8
DEFPOINTS
 62
     0
 48
15.0
100
AcDbPoint
 10
2061.369096113077
 20
570.2125547624155
 30
0.0
  0
POINT
  5
9AC8
330
9580
100
AcDbEntity
  8
DEFPOINTS
 62
     0
 48
15.0
100
AcDbPoint
 10
2173.603754470077
 20
570.2125547624155
 30
0.0
  0
ENDBLK
  5
958B
330
9580
100
AcDbEntity
  8
0
 48
15.0
100
AcDbBlockEnd
  0
BLOCK
  5
9596
330
958C
100
AcDbEntity
  8
0
 48
15.0
100
AcDbBlockBegin
  2
*D260
 70
     1
 10
0.0
 20
0.0
 30
0.0
  3
*D260
  1

  0
LINE
  5
9AC9
330
958C
100
AcDbEntity
  8
寸法引出
 48
15.0
370
    -2
100
AcDbLine
 10
1321.369096113077
 20
555.2125547624155
 30
0.0
 11
1321.369096113077
 21
383.3373239946041
 31
0.0
  0
LINE
  5
9ACA
330
958C
100
AcDbEntity
  8
寸法引出
 48
15.0
370
    -2
100
AcDbLine
 10
2061.369096113077
 20
555.2125547624155
 30
0.0
 11
2061.369096113077
 21
383.3373239946041
 31
0.0
  0
LINE
  5
9ACB
330
958C
100
AcDbEntity
  8
寸法引出
 48
15.0
370
    -2
100
AcDbLine
 10
1343.869096113077
 20
390.837323994604
 30
0.0
 11
2038.869096113077
 21
390.837323994604
 31
0.0
  0
SOLID
  5
9ACC
330
958C
100
AcDbEntity
  8
寸法引出
 48
15.0
100
AcDbTrace
 10
1343.869096113077
 20
394.587323994604
 30
0.0
 11
1343.869096113077
 21
387.087323994604
 31
0.0
 12
1321.369096113077
 22
390.837323994604
 32
0.0
 13
1321.369096113077
 23
390.837323994604
 33
0.0
  0
SOLID
  5
9ACD
330
958C
100
AcDbEntity
  8
寸法引出
 48
15.0
100
AcDbTrace
 10
2038.869096113077
 20
394.587323994604
 30
0.0
 11
2038.869096113077
 21
387.087323994604
 31
0.0
 12
2061.369096113077
 22
390.837323994604
 32
0.0
 13
2061.369096113077
 23
390.837323994604
 33
0.0
  0
MTEXT
  5
9ACE
330
958C
100
AcDbEntity
  8
寸法引出
 48
15.0
100
AcDbMText
 10
1691.369096113077
 20
420.837323994604
 30
0.0
 40
30.0
 41
0.0
 71
     5
 72
     1
  1
\A1;740
  7
SANWA
 73
     1
 44
1.0
1001
ACAD
1000
MTEXTBEGIN
1070
    73
1070
     1
1070
    44
1040
1.0
1070
    74
1070
     0
1000
MTEXTEND
  0
POINT
  5
9ACF
330
958C
100
AcDbEntity
  8
DEFPOINTS
 62
     0
 48
15.0
100
AcDbPoint
 10
1321.369096113077
 20
570.2125547624155
 30
0.0
  0
POINT
  5
9AD0
330
958C
100
AcDbEntity
  8
DEFPOINTS
 62
     0
 48
15.0
100
AcDbPoint
 10
2061.369096113077
 20
570.2125547624155
 30
0.0
  0
POINT
  5
9AD1
330
958C
100
AcDbEntity
  8
DEFPOINTS
 62
     0
 48
15.0
100
AcDbPoint
 10
2061.369096113077
 20
390.837323994604
 30
0.0
  0
ENDBLK
  5
9597
330
958C
100
AcDbEntity
  8
0
 48
15.0
100
AcDbBlockEnd
  0
BLOCK
  5
95A2
330
9598
100
AcDbEntity
  8
0
 48
15.0
100
AcDbBlockBegin
  2
*D261
 70
     1
 10
0.0
 20
0.0
 30
0.0
  3
*D261
  1

  0
LINE
  5
9AD2
330
9598
100
AcDbEntity
  8
寸法引出
 48
15.0
370
    -2
100
AcDbLine
 10
1356.369096113077
 20
555.2125547624155
 30
0.0
 11
1356.369096113077
 21
446.7180276173376
 31
0.0
  0
LINE
  5
9AD3
330
9598
100
AcDbEntity
  8
寸法引出
 48
15.0
370
    -2
100
AcDbLine
 10
2026.369096113077
 20
555.2125547624155
 30
0.0
 11
2026.369096113077
 21
446.7180276173376
 31
0.0
  0
LINE
  5
9AD4
330
9598
100
AcDbEntity
  8
寸法引出
 48
15.0
370
    -2
100
AcDbLine
 10
1378.869096113077
 20
454.2180276173375
 30
0.0
 11
2003.869096113077
 21
454.2180276173375
 31
0.0
  0
SOLID
  5
9AD5
330
9598
100
AcDbEntity
  8
寸法引出
 48
15.0
100
AcDbTrace
 10
1378.869096113077
 20
457.9680276173376
 30
0.0
 11
1378.869096113077
 21
450.4680276173376
 31
0.0
 12
1356.369096113077
 22
454.2180276173375
 32
0.0
 13
1356.369096113077
 23
454.2180276173375
 33
0.0
  0
SOLID
  5
9AD6
330
9598
100
AcDbEntity
  8
寸法引出
 48
15.0
100
AcDbTrace
 10
2003.869096113077
 20
457.9680276173376
 30
0.0
 11
2003.869096113077
 21
450.4680276173376
 31
0.0
 12
2026.369096113077
 22
454.2180276173375
 32
0.0
 13
2026.369096113077
 23
454.2180276173375
 33
0.0
  0
MTEXT
  5
9AD7
330
9598
100
AcDbEntity
  8
寸法引出
 48
15.0
100
AcDbMText
 10
1691.369096113077
 20
484.2180276173376
 30
0.0
 40
30.0
 41
0.0
 71
     5
 72
     1
  1
\A1;670
  7
SANWA
 73
     1
 44
1.0
1001
ACAD
1000
MTEXTBEGIN
1070
    73
1070
     1
1070
    44
1040
1.0
1070
    74
1070
     0
1000
MTEXTEND
  0
POINT
  5
9AD8
330
9598
100
AcDbEntity
  8
DEFPOINTS
 62
     0
 48
15.0
100
AcDbPoint
 10
1356.369096113077
 20
570.2125547624155
 30
0.0
  0
POINT
  5
9AD9
330
9598
100
AcDbEntity
  8
DEFPOINTS
 62
     0
 48
15.0
100
AcDbPoint
 10
2026.369096113077
 20
570.2125547624155
 30
0.0
  0
POINT
  5
9ADA
330
9598
100
AcDbEntity
  8
DEFPOINTS
 62
     0
 48
15.0
100
AcDbPoint
 10
2026.369096113077
 20
454.2180276173375
 30
0.0
  0
ENDBLK
  5
95A3
330
9598
100
AcDbEntity
  8
0
 48
15.0
100
AcDbBlockEnd
  0
BLOCK
  5
95B0
330
95A4
100
AcDbEntity
  8
0
 48
15.0
100
AcDbBlockBegin
  2
*D262
 70
     1
 10
0.0
 20
0.0
 30
0.0
  3
*D262
  1

  0
LINE
  5
9ADB
330
95A4
100
AcDbEntity
  8
寸法引出
 48
15.0
370
    -2
100
AcDbLine
 10
1321.369096113077
 20
555.2125547624155
 30
0.0
 11
1321.369096113077
 21
446.7180276173376
 31
0.0
  0
LINE
  5
9ADC
330
95A4
100
AcDbEntity
  8
寸法引出
 48
15.0
370
    -2
100
AcDbLine
 10
1356.369096113077
 20
555.2125547624155
 30
0.0
 11
1356.369096113077
 21
446.7180276173376
 31
0.0
  0
LINE
  5
9ADD
330
95A4
100
AcDbEntity
  8
寸法引出
 48
15.0
370
    -2
100
AcDbLine
 10
1298.869096113077
 20
454.2180276173375
 30
0.0
 11
1276.369096113077
 21
454.2180276173375
 31
0.0
  0
LINE
  5
9ADE
330
95A4
100
AcDbEntity
  8
寸法引出
 48
15.0
370
    -2
100
AcDbLine
 10
1378.869096113077
 20
454.2180276173375
 30
0.0
 11
1401.369096113077
 21
454.2180276173375
 31
0.0
  0
LINE
  5
9ADF
330
95A4
100
AcDbEntity
  8
寸法引出
 48
15.0
370
    -2
100
AcDbLine
 10
1321.369096113077
 20
454.2180276173375
 30
0.0
 11
1356.369096113077
 21
454.2180276173375
 31
0.0
  0
SOLID
  5
9AE0
330
95A4
100
AcDbEntity
  8
寸法引出
 48
15.0
100
AcDbTrace
 10
1298.869096113077
 20
457.9680276173376
 30
0.0
 11
1298.869096113077
 21
450.4680276173376
 31
0.0
 12
1321.369096113077
 22
454.2180276173375
 32
0.0
 13
1321.369096113077
 23
454.2180276173375
 33
0.0
  0
SOLID
  5
9AE1
330
95A4
100
AcDbEntity
  8
寸法引出
 48
15.0
100
AcDbTrace
 10
1378.869096113077
 20
457.9680276173376
 30
0.0
 11
1378.869096113077
 21
450.4680276173376
 31
0.0
 12
1356.369096113077
 22
454.2180276173375
 32
0.0
 13
1356.369096113077
 23
454.2180276173375
 33
0.0
  0
MTEXT
  5
9AE2
330
95A4
100
AcDbEntity
  8
寸法引出
 48
15.0
100
AcDbMText
 10
1338.869096113077
 20
484.2180276173376
 30
0.0
 40
30.0
 41
0.0
 71
     5
 72
     1
  1
\A1;35
  7
SANWA
 73
     1
 44
1.0
1001
ACAD
1000
MTEXTBEGIN
1070
    73
1070
     1
1070
    44
1040
1.0
1070
    74
1070
     0
1000
MTEXTEND
  0
POINT
  5
9AE3
330
95A4
100
AcDbEntity
  8
DEFPOINTS
 62
     0
 48
15.0
100
AcDbPoint
 10
1321.369096113077
 20
570.2125547624155
 30
0.0
  0
POINT
  5
9AE4
330
95A4
100
AcDbEntity
  8
DEFPOINTS
 62
     0
 48
15.0
100
AcDbPoint
 10
1356.369096113077
 20
570.2125547624155
 30
0.0
  0
POINT
  5
9AE5
330
95A4
100
AcDbEntity
  8
DEFPOINTS
 62
     0
 48
15.0
100
AcDbPoint
 10
1356.369096113077
 20
454.2180276173375
 30
0.0
  0
ENDBLK
  5
95B1
330
95A4
100
AcDbEntity
  8
0
 48
15.0
100
AcDbBlockEnd
  0
BLOCK
  5
95BB
330
95B2
100
AcDbEntity
  8
0
 48
15.0
100
AcDbBlockBegin
  2
*D263
 70
     1
 10
0.0
 20
0.0
 30
0.0
  3
*D263
  1

  0
LINE
  5
9AE6
330
95B2
100
AcDbEntity
  8
寸法引出
 48
15.0
370
    -2
100
AcDbLine
 10
1306.369096113077
 20
570.2125547624155
 30
0.0
 11
1199.77348145064
 21
570.2125547624156
 31
0.0
  0
LINE
  5
9AE7
330
95B2
100
AcDbEntity
  8
寸法引出
 48
15.0
370
    -2
100
AcDbLine
 10
1207.27348145064
 20
667.7125547624155
 30
0.0
 11
1207.27348145064
 21
592.7125547624155
 31
0.0
  0
SOLID
  5
9AE8
330
95B2
100
AcDbEntity
  8
寸法引出
 48
15.0
100
AcDbTrace
 10
1203.52348145064
 20
667.7125547624155
 30
0.0
 11
1211.02348145064
 21
667.7125547624155
 31
0.0
 12
1207.27348145064
 22
690.2125547624156
 32
0.0
 13
1207.27348145064
 23
690.2125547624156
 33
0.0
  0
SOLID
  5
9AE9
330
95B2
100
AcDbEntity
  8
寸法引出
 48
15.0
100
AcDbTrace
 10
1203.52348145064
 20
592.7125547624155
 30
0.0
 11
1211.02348145064
 21
592.7125547624155
 31
0.0
 12
1207.27348145064
 22
570.2125547624156
 32
0.0
 13
1207.27348145064
 23
570.2125547624156
 33
0.0
  0
MTEXT
  5
9AEA
330
95B2
100
AcDbEntity
  8
寸法引出
 48
15.0
100
AcDbMText
 10
1177.27348145064
 20
630.2125547624157
 30
0.0
 40
30.0
 41
0.0
 71
     5
 72
     1
  1
\A1;120
  7
SANWA
 11
0.0000000000000001
 21
1.0
 31
0.0
 73
     1
 44
1.0
1001
ACAD
1000
MTEXTBEGIN
1070
    73
1070
     1
1070
    44
1040
1.0
1070
    74
1070
     0
1000
MTEXTEND
  0
POINT
  5
9AEB
330
95B2
100
AcDbEntity
  8
DEFPOINTS
 62
     0
 48
15.0
100
AcDbPoint
 10
1321.369096113077
 20
690.2125547624154
 30
0.0
  0
POINT
  5
9AEC
330
95B2
100
AcDbEntity
  8
DEFPOINTS
 62
     0
 48
15.0
100
AcDbPoint
 10
1321.369096113077
 20
570.2125547624155
 30
0.0
  0
POINT
  5
9AED
330
95B2
100
AcDbEntity
  8
DEFPOINTS
 62
     0
 48
15.0
100
AcDbPoint
 10
1207.27348145064
 20
570.2125547624156
 30
0.0
  0
ENDBLK
  5
95BC
330
95B2
100
AcDbEntity
  8
0
 48
15.0
100
AcDbBlockEnd
  0
BLOCK
  5
95C8
330
95BD
100
AcDbEntity
  8
0
 48
15.0
100
AcDbBlockBegin
  2
*D264
 70
     1
 10
0.0
 20
0.0
 30
0.0
  3
*D264
  1

  0
LINE
  5
9AEE
330
95BD
100
AcDbEntity
  8
寸法引出
 48
15.0
370
    -2
100
AcDbLine
 10
2061.369096113077
 20
555.2125547624155
 30
0.0
 11
2061.369096113077
 21
446.7180276173376
 31
0.0
  0
LINE
  5
9AEF
330
95BD
100
AcDbEntity
  8
寸法引出
 48
15.0
370
    -2
100
AcDbLine
 10
2003.869096113077
 20
454.2180276173375
 30
0.0
 11
1981.369096113077
 21
454.2180276173375
 31
0.0
  0
LINE
  5
9AF0
330
95BD
100
AcDbEntity
  8
寸法引出
 48
15.0
370
    -2
100
AcDbLine
 10
2083.869096113077
 20
454.2180276173375
 30
0.0
 11
2106.369096113077
 21
454.2180276173375
 31
0.0
  0
LINE
  5
9AF1
330
95BD
100
AcDbEntity
  8
寸法引出
 48
15.0
370
    -2
100
AcDbLine
 10
2026.369096113077
 20
454.2180276173375
 30
0.0
 11
2061.369096113077
 21
454.2180276173375
 31
0.0
  0
SOLID
  5
9AF2
330
95BD
100
AcDbEntity
  8
寸法引出
 48
15.0
100
AcDbTrace
 10
2003.869096113077
 20
457.9680276173376
 30
0.0
 11
2003.869096113077
 21
450.4680276173376
 31
0.0
 12
2026.369096113077
 22
454.2180276173375
 32
0.0
 13
2026.369096113077
 23
454.2180276173375
 33
0.0
  0
SOLID
  5
9AF3
330
95BD
100
AcDbEntity
  8
寸法引出
 48
15.0
100
AcDbTrace
 10
2083.869096113077
 20
457.9680276173376
 30
0.0
 11
2083.869096113077
 21
450.4680276173376
 31
0.0
 12
2061.369096113077
 22
454.2180276173375
 32
0.0
 13
2061.369096113077
 23
454.2180276173375
 33
0.0
  0
MTEXT
  5
9AF4
330
95BD
100
AcDbEntity
  8
寸法引出
 48
15.0
100
AcDbMText
 10
2043.869096113077
 20
484.2180276173376
 30
0.0
 40
30.0
 41
0.0
 71
     5
 72
     1
  1
\A1;35
  7
SANWA
 73
     1
 44
1.0
1001
ACAD
1000
MTEXTBEGIN
1070
    73
1070
     1
1070
    44
1040
1.0
1070
    74
1070
     0
1000
MTEXTEND
  0
POINT
  5
9AF5
330
95BD
100
AcDbEntity
  8
DEFPOINTS
 62
     0
 48
15.0
100
AcDbPoint
 10
2026.369096113077
 20
570.2125547624155
 30
0.0
  0
POINT
  5
9AF6
330
95BD
100
AcDbEntity
  8
DEFPOINTS
 62
     0
 48
15.0
100
AcDbPoint
 10
2061.369096113077
 20
570.2125547624155
 30
0.0
  0
POINT
  5
9AF7
330
95BD
100
AcDbEntity
  8
DEFPOINTS
 62
     0
 48
15.0
100
AcDbPoint
 10
2061.369096113077
 20
454.2180276173375
 30
0.0
  0
ENDBLK
  5
95C9
330
95BD
100
AcDbEntity
  8
0
 48
15.0
100
AcDbBlockEnd
  0
BLOCK
  5
95D4
330
95CA
100
AcDbEntity
  8
0
 48
15.0
100
AcDbBlockBegin
  2
*D265
 70
     1
 10
0.0
 20
0.0
 30
0.0
  3
*D265
  1

  0
LINE
  5
9AF8
330
95CA
100
AcDbEntity
  8
寸法引出
 48
15.0
370
    -2
100
AcDbLine
 10
2517.190960854839
 20
2292.660492837419
 30
0.0
 11
2517.190960854839
 21
2373.403236528777
 31
0.0
  0
LINE
  5
9AF9
330
95CA
100
AcDbEntity
  8
寸法引出
 48
15.0
370
    -2
100
AcDbLine
 10
3517.190960854839
 20
2292.660492837419
 30
0.0
 11
3517.190960854839
 21
2373.403236528777
 31
0.0
  0
LINE
  5
9AFA
330
95CA
100
AcDbEntity
  8
寸法引出
 48
15.0
370
    -2
100
AcDbLine
 10
2539.690960854839
 20
2365.903236528777
 30
0.0
 11
3494.690960854839
 21
2365.903236528777
 31
0.0
  0
SOLID
  5
9AFB
330
95CA
100
AcDbEntity
  8
寸法引出
 48
15.0
100
AcDbTrace
 10
2539.690960854839
 20
2369.653236528777
 30
0.0
 11
2539.690960854839
 21
2362.153236528777
 31
0.0
 12
2517.190960854839
 22
2365.903236528777
 32
0.0
 13
2517.190960854839
 23
2365.903236528777
 33
0.0
  0
SOLID
  5
9AFC
330
95CA
100
AcDbEntity
  8
寸法引出
 48
15.0
100
AcDbTrace
 10
3494.690960854839
 20
2369.653236528777
 30
0.0
 11
3494.690960854839
 21
2362.153236528777
 31
0.0
 12
3517.190960854839
 22
2365.903236528777
 32
0.0
 13
3517.190960854839
 23
2365.903236528777
 33
0.0
  0
MTEXT
  5
9AFD
330
95CA
100
AcDbEntity
  8
寸法引出
 48
15.0
100
AcDbMText
 10
3017.190960854839
 20
2395.903236528777
 30
0.0
 40
30.0
 41
0.0
 71
     5
 72
     1
  1
\A1;1000
  7
SANWA
 73
     1
 44
1.0
1001
ACAD
1000
MTEXTBEGIN
1070
    73
1070
     1
1070
    44
1040
1.0
1070
    74
1070
     0
1000
MTEXTEND
  0
POINT
  5
9AFE
330
95CA
100
AcDbEntity
  8
DEFPOINTS
 62
     0
 48
15.0
100
AcDbPoint
 10
2517.190960854839
 20
2277.660492837419
 30
0.0
  0
POINT
  5
9AFF
330
95CA
100
AcDbEntity
  8
DEFPOINTS
 62
     0
 48
15.0
100
AcDbPoint
 10
3517.190960854839
 20
2277.660492837419
 30
0.0
  0
POINT
  5
9B00
330
95CA
100
AcDbEntity
  8
DEFPOINTS
 62
     0
 48
15.0
100
AcDbPoint
 10
3517.190960854839
 20
2365.903236528777
 30
0.0
  0
ENDBLK
  5
95D5
330
95CA
100
AcDbEntity
  8
0
 48
15.0
100
AcDbBlockEnd
  0
BLOCK
  5
95DF
330
95D6
100
AcDbEntity
  8
0
 48
15.0
100
AcDbBlockBegin
  2
*D266
 70
     1
 10
0.0
 20
0.0
 30
0.0
  3
*D266
  1

  0
LINE
  5
9B01
330
95D6
100
AcDbEntity
  8
寸法引出
 48
15.0
370
    -2
100
AcDbLine
 10
3397.190960854839
 20
2122.660492837419
 30
0.0
 11
3397.190960854839
 21
2034.836728575761
 31
0.0
  0
LINE
  5
9B02
330
95D6
100
AcDbEntity
  8
寸法引出
 48
15.0
370
    -2
100
AcDbLine
 10
2659.690960854839
 20
2042.336728575762
 30
0.0
 11
3374.690960854838
 21
2042.336728575762
 31
0.0
  0
SOLID
  5
9B03
330
95D6
100
AcDbEntity
  8
寸法引出
 48
15.0
100
AcDbTrace
 10
2659.690960854839
 20
2046.086728575761
 30
0.0
 11
2659.690960854839
 21
2038.586728575761
 31
0.0
 12
2637.190960854839
 22
2042.336728575762
 32
0.0
 13
2637.190960854839
 23
2042.336728575762
 33
0.0
  0
SOLID
  5
9B04
330
95D6
100
AcDbEntity
  8
寸法引出
 48
15.0
100
AcDbTrace
 10
3374.690960854838
 20
2046.086728575761
 30
0.0
 11
3374.690960854838
 21
2038.586728575761
 31
0.0
 12
3397.190960854839
 22
2042.336728575762
 32
0.0
 13
3397.190960854839
 23
2042.336728575762
 33
0.0
  0
MTEXT
  5
9B05
330
95D6
100
AcDbEntity
  8
寸法引出
 48
15.0
100
AcDbMText
 10
3017.190960854839
 20
2072.336728575761
 30
0.0
 40
30.0
 41
0.0
 71
     5
 72
     1
  1
\A1;760
  7
SANWA
 73
     1
 44
1.0
1001
ACAD
1000
MTEXTBEGIN
1070
    73
1070
     1
1070
    44
1040
1.0
1070
    74
1070
     0
1000
MTEXTEND
  0
POINT
  5
9B06
330
95D6
100
AcDbEntity
  8
DEFPOINTS
 62
     0
 48
15.0
100
AcDbPoint
 10
2637.190960854839
 20
2137.660492837419
 30
0.0
  0
POINT
  5
9B07
330
95D6
100
AcDbEntity
  8
DEFPOINTS
 62
     0
 48
15.0
100
AcDbPoint
 10
3397.190960854839
 20
2137.660492837419
 30
0.0
  0
POINT
  5
9B08
330
95D6
100
AcDbEntity
  8
DEFPOINTS
 62
     0
 48
15.0
100
AcDbPoint
 10
3397.190960854839
 20
2042.336728575762
 30
0.0
  0
ENDBLK
  5
95E0
330
95D6
100
AcDbEntity
  8
0
 48
15.0
100
AcDbBlockEnd
  0
BLOCK
  5
95EC
330
95E1
100
AcDbEntity
  8
0
 48
15.0
100
AcDbBlockBegin
  2
*D267
 70
     1
 10
0.0
 20
0.0
 30
0.0
  3
*D267
  1

  0
LINE
  5
9B09
330
95E1
100
AcDbEntity
  8
寸法引出
 48
15.0
370
    -2
100
AcDbLine
 10
1723.869096113077
 20
2272.660492837418
 30
0.0
 11
1723.869096113077
 21
2377.952059747299
 31
0.0
  0
LINE
  5
9B0A
330
95E1
100
AcDbEntity
  8
寸法引出
 48
15.0
370
    -2
100
AcDbLine
 10
1636.369096113076
 20
2370.452059747299
 30
0.0
 11
1613.869096113077
 21
2370.452059747299
 31
0.0
  0
LINE
  5
9B0B
330
95E1
100
AcDbEntity
  8
寸法引出
 48
15.0
370
    -2
100
AcDbLine
 10
1746.369096113077
 20
2370.452059747299
 30
0.0
 11
1768.869096113077
 21
2370.452059747299
 31
0.0
  0
LINE
  5
9B0C
330
95E1
100
AcDbEntity
  8
寸法引出
 48
15.0
370
    -2
100
AcDbLine
 10
1658.869096113077
 20
2370.452059747299
 30
0.0
 11
1723.869096113077
 21
2370.452059747299
 31
0.0
  0
SOLID
  5
9B0D
330
95E1
100
AcDbEntity
  8
寸法引出
 48
15.0
100
AcDbTrace
 10
1636.369096113076
 20
2374.202059747299
 30
0.0
 11
1636.369096113076
 21
2366.702059747299
 31
0.0
 12
1658.869096113077
 22
2370.452059747299
 32
0.0
 13
1658.869096113077
 23
2370.452059747299
 33
0.0
  0
SOLID
  5
9B0E
330
95E1
100
AcDbEntity
  8
寸法引出
 48
15.0
100
AcDbTrace
 10
1746.369096113077
 20
2374.202059747299
 30
0.0
 11
1746.369096113077
 21
2366.702059747299
 31
0.0
 12
1723.869096113077
 22
2370.452059747299
 32
0.0
 13
1723.869096113077
 23
2370.452059747299
 33
0.0
  0
MTEXT
  5
9B0F
330
95E1
100
AcDbEntity
  8
寸法引出
 48
15.0
100
AcDbMText
 10
1691.369096113077
 20
2400.452059747299
 30
0.0
 40
30.0
 41
0.0
 71
     5
 72
     1
  1
\A1;65
  7
SANWA
 73
     1
 44
1.0
1001
ACAD
1000
MTEXTBEGIN
1070
    73
1070
     1
1070
    44
1040
1.0
1070
    74
1070
     0
1000
MTEXTEND
  0
POINT
  5
9B10
330
95E1
100
AcDbEntity
  8
DEFPOINTS
 62
     0
 48
15.0
100
AcDbPoint
 10
1658.869096113077
 20
2257.660492837418
 30
0.0
  0
POINT
  5
9B11
330
95E1
100
AcDbEntity
  8
DEFPOINTS
 62
     0
 48
15.0
100
AcDbPoint
 10
1723.869096113077
 20
2257.660492837419
 30
0.0
  0
POINT
  5
9B12
330
95E1
100
AcDbEntity
  8
DEFPOINTS
 62
     0
 48
15.0
100
AcDbPoint
 10
1723.869096113077
 20
2370.452059747299
 30
0.0
  0
ENDBLK
  5
95ED
330
95E1
100
AcDbEntity
  8
0
 48
15.0
100
AcDbBlockEnd
  0
BLOCK
  5
95F7
330
95EE
100
AcDbEntity
  8
0
 48
15.0
100
AcDbBlockBegin
  2
*D268
 70
     1
 10
0.0
 20
0.0
 30
0.0
  3
*D268
  1

  0
LINE
  5
9B13
330
95EE
100
AcDbEntity
  8
寸法引出
 48
15.0
370
    -2
100
AcDbLine
 10
2061.369096113077
 20
2292.660492837419
 30
0.0
 11
2061.369096113077
 21
2377.952059747299
 31
0.0
  0
LINE
  5
9B14
330
95EE
100
AcDbEntity
  8
寸法引出
 48
15.0
370
    -2
100
AcDbLine
 10
1746.369096113077
 20
2370.452059747299
 30
0.0
 11
2038.869096113077
 21
2370.452059747299
 31
0.0
  0
SOLID
  5
9B15
330
95EE
100
AcDbEntity
  8
寸法引出
 48
15.0
100
AcDbTrace
 10
1746.369096113077
 20
2374.202059747299
 30
0.0
 11
1746.369096113077
 21
2366.702059747299
 31
0.0
 12
1723.869096113077
 22
2370.452059747299
 32
0.0
 13
1723.869096113077
 23
2370.452059747299
 33
0.0
  0
SOLID
  5
9B16
330
95EE
100
AcDbEntity
  8
寸法引出
 48
15.0
100
AcDbTrace
 10
2038.869096113077
 20
2374.202059747299
 30
0.0
 11
2038.869096113077
 21
2366.702059747299
 31
0.0
 12
2061.369096113077
 22
2370.452059747299
 32
0.0
 13
2061.369096113077
 23
2370.452059747299
 33
0.0
  0
MTEXT
  5
9B17
330
95EE
100
AcDbEntity
  8
寸法引出
 48
15.0
100
AcDbMText
 10
1892.619096113077
 20
2400.452059747299
 30
0.0
 40
30.0
 41
0.0
 71
     5
 72
     1
  1
\A1;337.5
  7
SANWA
 73
     1
 44
1.0
1001
ACAD
1000
MTEXTBEGIN
1070
    73
1070
     1
1070
    44
1040
1.0
1070
    74
1070
     0
1000
MTEXTEND
  0
POINT
  5
9B18
330
95EE
100
AcDbEntity
  8
DEFPOINTS
 62
     0
 48
15.0
100
AcDbPoint
 10
1723.869096113077
 20
2257.660492837419
 30
0.0
  0
POINT
  5
9B19
330
95EE
100
AcDbEntity
  8
DEFPOINTS
 62
     0
 48
15.0
100
AcDbPoint
 10
2061.369096113077
 20
2277.660492837419
 30
0.0
  0
POINT
  5
9B1A
330
95EE
100
AcDbEntity
  8
DEFPOINTS
 62
     0
 48
15.0
100
AcDbPoint
 10
2061.369096113077
 20
2370.452059747299
 30
0.0
  0
ENDBLK
  5
95F8
330
95EE
100
AcDbEntity
  8
0
 48
15.0
100
AcDbBlockEnd
  0
BLOCK
  5
9604
330
95F9
100
AcDbEntity
  8
0
 48
15.0
100
AcDbBlockBegin
  2
*D269
 70
     1
 10
0.0
 20
0.0
 30
0.0
  3
*D269
  1

  0
LINE
  5
9B1B
330
95F9
100
AcDbEntity
  8
寸法引出
 48
15.0
370
    -2
100
AcDbLine
 10
1306.369096113077
 20
2277.660492837419
 30
0.0
 11
1229.259794480416
 21
2277.660492837419
 31
0.0
  0
LINE
  5
9B1C
330
95F9
100
AcDbEntity
  8
寸法引出
 48
15.0
370
    -2
100
AcDbLine
 10
1236.759794480416
 20
2235.160492837419
 30
0.0
 11
1236.759794480416
 21
2212.660492837418
 31
0.0
  0
LINE
  5
9B1D
330
95F9
100
AcDbEntity
  8
寸法引出
 48
15.0
370
    -2
100
AcDbLine
 10
1236.759794480416
 20
2300.160492837418
 30
0.0
 11
1236.759794480416
 21
2322.660492837419
 31
0.0
  0
LINE
  5
9B1E
330
95F9
100
AcDbEntity
  8
寸法引出
 48
15.0
370
    -2
100
AcDbLine
 10
1236.759794480416
 20
2257.660492837419
 30
0.0
 11
1236.759794480416
 21
2277.660492837419
 31
0.0
  0
SOLID
  5
9B1F
330
95F9
100
AcDbEntity
  8
寸法引出
 48
15.0
100
AcDbTrace
 10
1233.009794480415
 20
2235.160492837419
 30
0.0
 11
1240.509794480415
 21
2235.160492837419
 31
0.0
 12
1236.759794480416
 22
2257.660492837419
 32
0.0
 13
1236.759794480416
 23
2257.660492837419
 33
0.0
  0
SOLID
  5
9B20
330
95F9
100
AcDbEntity
  8
寸法引出
 48
15.0
100
AcDbTrace
 10
1233.009794480415
 20
2300.160492837418
 30
0.0
 11
1240.509794480415
 21
2300.160492837418
 31
0.0
 12
1236.759794480416
 22
2277.660492837419
 32
0.0
 13
1236.759794480416
 23
2277.660492837419
 33
0.0
  0
MTEXT
  5
9B21
330
95F9
100
AcDbEntity
  8
寸法引出
 48
15.0
100
AcDbMText
 10
1206.759794480415
 20
2267.660492837419
 30
0.0
 40
30.0
 41
0.0
 71
     5
 72
     1
  1
\A1;20
  7
SANWA
 11
0.0000000000000001
 21
1.0
 31
0.0
 73
     1
 44
1.0
1001
ACAD
1000
MTEXTBEGIN
1070
    73
1070
     1
1070
    44
1040
1.0
1070
    74
1070
     0
1000
MTEXTEND
  0
POINT
  5
9B22
330
95F9
100
AcDbEntity
  8
DEFPOINTS
 62
     0
 48
15.0
100
AcDbPoint
 10
1321.369096113077
 20
2257.660492837419
 30
0.0
  0
POINT
  5
9B23
330
95F9
100
AcDbEntity
  8
DEFPOINTS
 62
     0
 48
15.0
100
AcDbPoint
 10
1321.369096113077
 20
2277.660492837419
 30
0.0
  0
POINT
  5
9B24
330
95F9
100
AcDbEntity
  8
DEFPOINTS
 62
     0
 48
15.0
100
AcDbPoint
 10
1236.759794480416
 20
2277.660492837419
 30
0.0
  0
ENDBLK
  5
9605
330
95F9
100
AcDbEntity
  8
0
 48
15.0
100
AcDbBlockEnd
  0
BLOCK
  5
9610
330
9606
100
AcDbEntity
  8
0
 48
15.0
100
AcDbBlockBegin
  2
*D270
 70
     1
 10
0.0
 20
0.0
 30
0.0
  3
*D270
  1

  0
LINE
  5
9B25
330
9606
100
AcDbEntity
  8
寸法引出
 48
15.0
370
    -2
100
AcDbLine
 10
1321.369096113077
 20
2292.660492837419
 30
0.0
 11
1321.369096113077
 21
2377.952059747299
 31
0.0
  0
LINE
  5
9B26
330
9606
100
AcDbEntity
  8
寸法引出
 48
15.0
370
    -2
100
AcDbLine
 10
1658.869096113077
 20
2272.660492837418
 30
0.0
 11
1658.869096113077
 21
2377.952059747299
 31
0.0
  0
LINE
  5
9B27
330
9606
100
AcDbEntity
  8
寸法引出
 48
15.0
370
    -2
100
AcDbLine
 10
1343.869096113077
 20
2370.452059747299
 30
0.0
 11
1636.369096113076
 21
2370.452059747299
 31
0.0
  0
SOLID
  5
9B28
330
9606
100
AcDbEntity
  8
寸法引出
 48
15.0
100
AcDbTrace
 10
1343.869096113077
 20
2374.202059747299
 30
0.0
 11
1343.869096113077
 21
2366.702059747299
 31
0.0
 12
1321.369096113077
 22
2370.452059747299
 32
0.0
 13
1321.369096113077
 23
2370.452059747299
 33
0.0
  0
SOLID
  5
9B29
330
9606
100
AcDbEntity
  8
寸法引出
 48
15.0
100
AcDbTrace
 10
1636.369096113076
 20
2374.202059747299
 30
0.0
 11
1636.369096113076
 21
2366.702059747299
 31
0.0
 12
1658.869096113077
 22
2370.452059747299
 32
0.0
 13
1658.869096113077
 23
2370.452059747299
 33
0.0
  0
MTEXT
  5
9B2A
330
9606
100
AcDbEntity
  8
寸法引出
 48
15.0
100
AcDbMText
 10
1490.119096113077
 20
2400.452059747299
 30
0.0
 40
30.0
 41
0.0
 71
     5
 72
     1
  1
\A1;337.5
  7
SANWA
 73
     1
 44
1.0
1001
ACAD
1000
MTEXTBEGIN
1070
    73
1070
     1
1070
    44
1040
1.0
1070
    74
1070
     0
1000
MTEXTEND
  0
POINT
  5
9B2B
330
9606
100
AcDbEntity
  8
DEFPOINTS
 62
     0
 48
15.0
100
AcDbPoint
 10
1321.369096113077
 20
2277.660492837419
 30
0.0
  0
POINT
  5
9B2C
330
9606
100
AcDbEntity
  8
DEFPOINTS
 62
     0
 48
15.0
100
AcDbPoint
 10
1658.869096113077
 20
2257.660492837418
 30
0.0
  0
POINT
  5
9B2D
330
9606
100
AcDbEntity
  8
DEFPOINTS
 62
     0
 48
15.0
100
AcDbPoint
 10
1658.869096113077
 20
2370.452059747299
 30
0.0
  0
ENDBLK
  5
9611
330
9606
100
AcDbEntity
  8
0
 48
15.0
100
AcDbBlockEnd
  0
BLOCK
  5
961C
330
9612
100
AcDbEntity
  8
0
 48
15.0
100
AcDbBlockBegin
  2
*D271
 70
     1
 10
0.0
 20
0.0
 30
0.0
  3
*D271
  1

  0
LINE
  5
9B2E
330
9612
100
AcDbEntity
  8
寸法引出
 48
15.0
370
    -2
100
AcDbLine
 10
1321.369096113077
 20
2292.660492837419
 30
0.0
 11
1321.369096113077
 21
2436.444088443951
 31
0.0
  0
LINE
  5
9B2F
330
9612
100
AcDbEntity
  8
寸法引出
 48
15.0
370
    -2
100
AcDbLine
 10
2061.369096113077
 20
2292.660492837419
 30
0.0
 11
2061.369096113077
 21
2436.444088443951
 31
0.0
  0
LINE
  5
9B30
330
9612
100
AcDbEntity
  8
寸法引出
 48
15.0
370
    -2
100
AcDbLine
 10
1343.869096113077
 20
2428.944088443952
 30
0.0
 11
2038.869096113077
 21
2428.944088443952
 31
0.0
  0
SOLID
  5
9B31
330
9612
100
AcDbEntity
  8
寸法引出
 48
15.0
100
AcDbTrace
 10
1343.869096113077
 20
2432.694088443952
 30
0.0
 11
1343.869096113077
 21
2425.194088443952
 31
0.0
 12
1321.369096113077
 22
2428.944088443952
 32
0.0
 13
1321.369096113077
 23
2428.944088443952
 33
0.0
  0
SOLID
  5
9B32
330
9612
100
AcDbEntity
  8
寸法引出
 48
15.0
100
AcDbTrace
 10
2038.869096113077
 20
2432.694088443952
 30
0.0
 11
2038.869096113077
 21
2425.194088443952
 31
0.0
 12
2061.369096113077
 22
2428.944088443952
 32
0.0
 13
2061.369096113077
 23
2428.944088443952
 33
0.0
  0
MTEXT
  5
9B33
330
9612
100
AcDbEntity
  8
寸法引出
 48
15.0
100
AcDbMText
 10
1691.369096113077
 20
2458.944088443951
 30
0.0
 40
30.0
 41
0.0
 71
     5
 72
     1
  1
\A1;740
  7
SANWA
 73
     1
 44
1.0
1001
ACAD
1000
MTEXTBEGIN
1070
    73
1070
     1
1070
    44
1040
1.0
1070
    74
1070
     0
1000
MTEXTEND
  0
POINT
  5
9B34
330
9612
100
AcDbEntity
  8
DEFPOINTS
 62
     0
 48
15.0
100
AcDbPoint
 10
1321.369096113077
 20
2277.660492837419
 30
0.0
  0
POINT
  5
9B35
330
9612
100
AcDbEntity
  8
DEFPOINTS
 62
     0
 48
15.0
100
AcDbPoint
 10
2061.369096113077
 20
2277.660492837419
 30
0.0
  0
POINT
  5
9B36
330
9612
100
AcDbEntity
  8
DEFPOINTS
 62
     0
 48
15.0
100
AcDbPoint
 10
2061.369096113077
 20
2428.944088443952
 30
0.0
  0
ENDBLK
  5
961D
330
9612
100
AcDbEntity
  8
0
 48
15.0
100
AcDbBlockEnd
  0
BLOCK
  5
9629
330
961E
100
AcDbEntity
  8
0
 48
15.0
100
AcDbBlockBegin
  2
*D272
 70
     1
 10
0.0
 20
0.0
 30
0.0
  3
*D272
  1

  0
LINE
  5
9B37
330
961E
100
AcDbEntity
  8
寸法引出
 48
15.0
370
    -2
100
AcDbLine
 10
2502.190960854838
 20
2277.660492837419
 30
0.0
 11
2421.931582317739
 21
2277.660492837419
 31
0.0
  0
LINE
  5
9B38
330
961E
100
AcDbEntity
  8
寸法引出
 48
15.0
370
    -2
100
AcDbLine
 10
2429.431582317739
 20
2235.160492837419
 30
0.0
 11
2429.431582317739
 21
2212.660492837418
 31
0.0
  0
LINE
  5
9B39
330
961E
100
AcDbEntity
  8
寸法引出
 48
15.0
370
    -2
100
AcDbLine
 10
2429.431582317739
 20
2300.160492837418
 30
0.0
 11
2429.431582317739
 21
2322.660492837419
 31
0.0
  0
LINE
  5
9B3A
330
961E
100
AcDbEntity
  8
寸法引出
 48
15.0
370
    -2
100
AcDbLine
 10
2429.431582317739
 20
2257.660492837419
 30
0.0
 11
2429.431582317739
 21
2277.660492837419
 31
0.0
  0
SOLID
  5
9B3B
330
961E
100
AcDbEntity
  8
寸法引出
 48
15.0
100
AcDbTrace
 10
2425.681582317739
 20
2235.160492837419
 30
0.0
 11
2433.181582317739
 21
2235.160492837419
 31
0.0
 12
2429.431582317739
 22
2257.660492837419
 32
0.0
 13
2429.431582317739
 23
2257.660492837419
 33
0.0
  0
SOLID
  5
9B3C
330
961E
100
AcDbEntity
  8
寸法引出
 48
15.0
100
AcDbTrace
 10
2425.681582317739
 20
2300.160492837418
 30
0.0
 11
2433.181582317739
 21
2300.160492837418
 31
0.0
 12
2429.431582317739
 22
2277.660492837419
 32
0.0
 13
2429.431582317739
 23
2277.660492837419
 33
0.0
  0
MTEXT
  5
9B3D
330
961E
100
AcDbEntity
  8
寸法引出
 48
15.0
100
AcDbMText
 10
2399.431582317738
 20
2267.660492837419
 30
0.0
 40
30.0
 41
0.0
 71
     5
 72
     1
  1
\A1;20
  7
SANWA
 11
0.0000000000000001
 21
1.0
 31
0.0
 73
     1
 44
1.0
1001
ACAD
1000
MTEXTBEGIN
1070
    73
1070
     1
1070
    44
1040
1.0
1070
    74
1070
     0
1000
MTEXTEND
  0
POINT
  5
9B3E
330
961E
100
AcDbEntity
  8
DEFPOINTS
 62
     0
 48
15.0
100
AcDbPoint
 10
2517.190960854839
 20
2257.660492837419
 30
0.0
  0
POINT
  5
9B3F
330
961E
100
AcDbEntity
  8
DEFPOINTS
 62
     0
 48
15.0
100
AcDbPoint
 10
2517.190960854839
 20
2277.660492837419
 30
0.0
  0
POINT
  5
9B40
330
961E
100
AcDbEntity
  8
DEFPOINTS
 62
     0
 48
15.0
100
AcDbPoint
 10
2429.431582317739
 20
2277.660492837419
 30
0.0
  0
ENDBLK
  5
962A
330
961E
100
AcDbEntity
  8
0
 48
15.0
100
AcDbBlockEnd
  0
BLOCK
  5
9634
330
962B
100
AcDbEntity
  8
0
 48
15.0
100
AcDbBlockBegin
  2
*D273
 70
     1
 10
0.0
 20
0.0
 30
0.0
  3
*D273
  1

  0
LINE
  5
9B41
330
962B
100
AcDbEntity
  8
寸法引出
 48
15.0
370
    -2
100
AcDbLine
 10
2061.369096113077
 20
1585.212554762415
 30
0.0
 11
2061.369096113077
 21
1679.44919920686
 31
0.0
  0
LINE
  5
9B42
330
962B
100
AcDbEntity
  8
寸法引出
 48
15.0
370
    -2
100
AcDbLine
 10
1746.369096113077
 20
1671.94919920686
 30
0.0
 11
2038.869096113077
 21
1671.94919920686
 31
0.0
  0
SOLID
  5
9B43
330
962B
100
AcDbEntity
  8
寸法引出
 48
15.0
100
AcDbTrace
 10
1746.369096113077
 20
1675.69919920686
 30
0.0
 11
1746.369096113077
 21
1668.199199206861
 31
0.0
 12
1723.869096113077
 22
1671.94919920686
 32
0.0
 13
1723.869096113077
 23
1671.94919920686
 33
0.0
  0
SOLID
  5
9B44
330
962B
100
AcDbEntity
  8
寸法引出
 48
15.0
100
AcDbTrace
 10
2038.869096113077
 20
1675.69919920686
 30
0.0
 11
2038.869096113077
 21
1668.199199206861
 31
0.0
 12
2061.369096113077
 22
1671.94919920686
 32
0.0
 13
2061.369096113077
 23
1671.94919920686
 33
0.0
  0
MTEXT
  5
9B45
330
962B
100
AcDbEntity
  8
寸法引出
 48
15.0
100
AcDbMText
 10
1892.619096113077
 20
1701.94919920686
 30
0.0
 40
30.0
 41
0.0
 71
     5
 72
     1
  1
\A1;337.5
  7
SANWA
 73
     1
 44
1.0
1001
ACAD
1000
MTEXTBEGIN
1070
    73
1070
     1
1070
    44
1040
1.0
1070
    74
1070
     0
1000
MTEXTEND
  0
POINT
  5
9B46
330
962B
100
AcDbEntity
  8
DEFPOINTS
 62
     0
 48
15.0
100
AcDbPoint
 10
1723.869096113077
 20
1570.212554762415
 30
0.0
  0
POINT
  5
9B47
330
962B
100
AcDbEntity
  8
DEFPOINTS
 62
     0
 48
15.0
100
AcDbPoint
 10
2061.369096113077
 20
1570.212554762415
 30
0.0
  0
POINT
  5
9B48
330
962B
100
AcDbEntity
  8
DEFPOINTS
 62
     0
 48
15.0
100
AcDbPoint
 10
2061.369096113077
 20
1671.94919920686
 30
0.0
  0
ENDBLK
  5
9635
330
962B
100
AcDbEntity
  8
0
 48
15.0
100
AcDbBlockEnd
  0
BLOCK
  5
963F
330
9636
100
AcDbEntity
  8
0
 48
15.0
100
AcDbBlockBegin
  2
*D274
 70
     1
 10
0.0
 20
0.0
 30
0.0
  3
*D274
  1

  0
LINE
  5
9B49
330
9636
100
AcDbEntity
  8
寸法引出
 48
15.0
370
    -2
100
AcDbLine
 10
2061.369096113077
 20
2122.660492837419
 30
0.0
 11
2061.369096113077
 21
1979.162266365878
 31
0.0
  0
LINE
  5
9B4A
330
9636
100
AcDbEntity
  8
寸法引出
 48
15.0
370
    -2
100
AcDbLine
 10
1761.869096113077
 20
1986.662266365879
 30
0.0
 11
2038.869096113077
 21
1986.662266365879
 31
0.0
  0
SOLID
  5
9B4B
330
9636
100
AcDbEntity
  8
寸法引出
 48
15.0
100
AcDbTrace
 10
1761.869096113077
 20
1990.412266365878
 30
0.0
 11
1761.869096113077
 21
1982.912266365879
 31
0.0
 12
1739.369096113077
 22
1986.662266365879
 32
0.0
 13
1739.369096113077
 23
1986.662266365879
 33
0.0
  0
SOLID
  5
9B4C
330
9636
100
AcDbEntity
  8
寸法引出
 48
15.0
100
AcDbTrace
 10
2038.869096113077
 20
1990.412266365878
 30
0.0
 11
2038.869096113077
 21
1982.912266365879
 31
0.0
 12
2061.369096113077
 22
1986.662266365879
 32
0.0
 13
2061.369096113077
 23
1986.662266365879
 33
0.0
  0
MTEXT
  5
9B4D
330
9636
100
AcDbEntity
  8
寸法引出
 48
15.0
100
AcDbMText
 10
1900.369096113077
 20
2016.662266365878
 30
0.0
 40
30.0
 41
0.0
 71
     5
 72
     1
  1
\A1;322
  7
SANWA
 73
     1
 44
1.0
1001
ACAD
1000
MTEXTBEGIN
1070
    73
1070
     1
1070
    44
1040
1.0
1070
    74
1070
     0
1000
MTEXTEND
  0
POINT
  5
9B4E
330
9636
100
AcDbEntity
  8
DEFPOINTS
 62
     0
 48
15.0
100
AcDbPoint
 10
1739.369096113077
 20
2137.660492837419
 30
0.0
  0
POINT
  5
9B4F
330
9636
100
AcDbEntity
  8
DEFPOINTS
 62
     0
 48
15.0
100
AcDbPoint
 10
2061.369096113077
 20
2137.660492837419
 30
0.0
  0
POINT
  5
9B50
330
9636
100
AcDbEntity
  8
DEFPOINTS
 62
     0
 48
15.0
100
AcDbPoint
 10
2061.369096113077
 20
1986.662266365879
 30
0.0
  0
ENDBLK
  5
9640
330
9636
100
AcDbEntity
  8
0
 48
15.0
100
AcDbBlockEnd
  0
BLOCK
  5
964B
330
9641
100
AcDbEntity
  8
0
 48
15.0
100
AcDbBlockBegin
  2
*D275
 70
     1
 10
0.0
 20
0.0
 30
0.0
  3
*D275
  1

  0
LINE
  5
9B51
330
9641
100
AcDbEntity
  8
寸法引出
 48
15.0
370
    -2
100
AcDbLine
 10
1321.369096113077
 20
1585.212554762415
 30
0.0
 11
1321.369096113077
 21
1679.44919920686
 31
0.0
  0
LINE
  5
9B52
330
9641
100
AcDbEntity
  8
寸法引出
 48
15.0
370
    -2
100
AcDbLine
 10
1658.869096113077
 20
1585.212554762415
 30
0.0
 11
1658.869096113077
 21
1679.44919920686
 31
0.0
  0
LINE
  5
9B53
330
9641
100
AcDbEntity
  8
寸法引出
 48
15.0
370
    -2
100
AcDbLine
 10
1343.869096113077
 20
1671.94919920686
 30
0.0
 11
1636.369096113076
 21
1671.94919920686
 31
0.0
  0
SOLID
  5
9B54
330
9641
100
AcDbEntity
  8
寸法引出
 48
15.0
100
AcDbTrace
 10
1343.869096113077
 20
1675.69919920686
 30
0.0
 11
1343.869096113077
 21
1668.199199206861
 31
0.0
 12
1321.369096113077
 22
1671.94919920686
 32
0.0
 13
1321.369096113077
 23
1671.94919920686
 33
0.0
  0
SOLID
  5
9B55
330
9641
100
AcDbEntity
  8
寸法引出
 48
15.0
100
AcDbTrace
 10
1636.369096113076
 20
1675.69919920686
 30
0.0
 11
1636.369096113076
 21
1668.199199206861
 31
0.0
 12
1658.869096113077
 22
1671.94919920686
 32
0.0
 13
1658.869096113077
 23
1671.94919920686
 33
0.0
  0
MTEXT
  5
9B56
330
9641
100
AcDbEntity
  8
寸法引出
 48
15.0
100
AcDbMText
 10
1490.119096113077
 20
1701.94919920686
 30
0.0
 40
30.0
 41
0.0
 71
     5
 72
     1
  1
\A1;337.5
  7
SANWA
 73
     1
 44
1.0
1001
ACAD
1000
MTEXTBEGIN
1070
    73
1070
     1
1070
    44
1040
1.0
1070
    74
1070
     0
1000
MTEXTEND
  0
POINT
  5
9B57
330
9641
100
AcDbEntity
  8
DEFPOINTS
 62
     0
 48
15.0
100
AcDbPoint
 10
1321.369096113077
 20
1570.212554762415
 30
0.0
  0
POINT
  5
9B58
330
9641
100
AcDbEntity
  8
DEFPOINTS
 62
     0
 48
15.0
100
AcDbPoint
 10
1658.869096113077
 20
1570.212554762415
 30
0.0
  0
POINT
  5
9B59
330
9641
100
AcDbEntity
  8
DEFPOINTS
 62
     0
 48
15.0
100
AcDbPoint
 10
1658.869096113077
 20
1671.94919920686
 30
0.0
  0
ENDBLK
  5
964C
330
9641
100
AcDbEntity
  8
0
 48
15.0
100
AcDbBlockEnd
  0
BLOCK
  5
9657
330
964D
100
AcDbEntity
  8
0
 48
15.0
100
AcDbBlockBegin
  2
*D276
 70
     1
 10
0.0
 20
0.0
 30
0.0
  3
*D276
  1

  0
LINE
  5
9B5A
330
964D
100
AcDbEntity
  8
寸法引出
 48
15.0
370
    -2
100
AcDbLine
 10
1306.369096113077
 20
1570.212554762415
 30
0.0
 11
1199.77348145064
 21
1570.212554762415
 31
0.0
  0
LINE
  5
9B5B
330
964D
100
AcDbEntity
  8
寸法引出
 48
15.0
370
    -2
100
AcDbLine
 10
1306.369096113077
 20
1450.212554762415
 30
0.0
 11
1199.77348145064
 21
1450.212554762415
 31
0.0
  0
LINE
  5
9B5C
330
964D
100
AcDbEntity
  8
寸法引出
 48
15.0
370
    -2
100
AcDbLine
 10
1207.27348145064
 20
1547.712554762415
 30
0.0
 11
1207.27348145064
 21
1472.712554762415
 31
0.0
  0
SOLID
  5
9B5D
330
964D
100
AcDbEntity
  8
寸法引出
 48
15.0
100
AcDbTrace
 10
1203.52348145064
 20
1547.712554762415
 30
0.0
 11
1211.02348145064
 21
1547.712554762415
 31
0.0
 12
1207.27348145064
 22
1570.212554762415
 32
0.0
 13
1207.27348145064
 23
1570.212554762415
 33
0.0
  0
SOLID
  5
9B5E
330
964D
100
AcDbEntity
  8
寸法引出
 48
15.0
100
AcDbTrace
 10
1203.52348145064
 20
1472.712554762415
 30
0.0
 11
1211.02348145064
 21
1472.712554762415
 31
0.0
 12
1207.27348145064
 22
1450.212554762415
 32
0.0
 13
1207.27348145064
 23
1450.212554762415
 33
0.0
  0
MTEXT
  5
9B5F
330
964D
100
AcDbEntity
  8
寸法引出
 48
15.0
100
AcDbMText
 10
1177.27348145064
 20
1510.212554762415
 30
0.0
 40
30.0
 41
0.0
 71
     5
 72
     1
  1
\A1;120
  7
SANWA
 11
0.0000000000000001
 21
1.0
 31
0.0
 73
     1
 44
1.0
1001
ACAD
1000
MTEXTBEGIN
1070
    73
1070
     1
1070
    44
1040
1.0
1070
    74
1070
     0
1000
MTEXTEND
  0
POINT
  5
9B60
330
964D
100
AcDbEntity
  8
DEFPOINTS
 62
     0
 48
15.0
100
AcDbPoint
 10
1321.369096113077
 20
1570.212554762415
 30
0.0
  0
POINT
  5
9B61
330
964D
100
AcDbEntity
  8
DEFPOINTS
 62
     0
 48
15.0
100
AcDbPoint
 10
1321.369096113077
 20
1450.212554762415
 30
0.0
  0
POINT
  5
9B62
330
964D
100
AcDbEntity
  8
DEFPOINTS
 62
     0
 48
15.0
100
AcDbPoint
 10
1207.27348145064
 20
1450.212554762415
 30
0.0
  0
ENDBLK
  5
9658
330
964D
100
AcDbEntity
  8
0
 48
15.0
100
AcDbBlockEnd
  0
BLOCK
  5
9665
330
9659
100
AcDbEntity
  8
0
 48
15.0
100
AcDbBlockBegin
  2
*D277
 70
     1
 10
0.0
 20
0.0
 30
0.0
  3
*D277
  1

  0
LINE
  5
9B63
330
9659
100
AcDbEntity
  8
寸法引出
 48
15.0
370
    -2
100
AcDbLine
 10
1658.869096113077
 20
1585.212554762415
 30
0.0
 11
1658.869096113077
 21
1679.44919920686
 31
0.0
  0
LINE
  5
9B64
330
9659
100
AcDbEntity
  8
寸法引出
 48
15.0
370
    -2
100
AcDbLine
 10
1723.869096113077
 20
1585.212554762415
 30
0.0
 11
1723.869096113077
 21
1679.44919920686
 31
0.0
  0
LINE
  5
9B65
330
9659
100
AcDbEntity
  8
寸法引出
 48
15.0
370
    -2
100
AcDbLine
 10
1636.369096113076
 20
1671.94919920686
 30
0.0
 11
1613.869096113077
 21
1671.94919920686
 31
0.0
  0
LINE
  5
9B66
330
9659
100
AcDbEntity
  8
寸法引出
 48
15.0
370
    -2
100
AcDbLine
 10
1746.369096113077
 20
1671.94919920686
 30
0.0
 11
1768.869096113077
 21
1671.94919920686
 31
0.0
  0
LINE
  5
9B67
330
9659
100
AcDbEntity
  8
寸法引出
 48
15.0
370
    -2
100
AcDbLine
 10
1658.869096113077
 20
1671.94919920686
 30
0.0
 11
1723.869096113077
 21
1671.94919920686
 31
0.0
  0
SOLID
  5
9B68
330
9659
100
AcDbEntity
  8
寸法引出
 48
15.0
100
AcDbTrace
 10
1636.369096113076
 20
1675.69919920686
 30
0.0
 11
1636.369096113076
 21
1668.199199206861
 31
0.0
 12
1658.869096113077
 22
1671.94919920686
 32
0.0
 13
1658.869096113077
 23
1671.94919920686
 33
0.0
  0
SOLID
  5
9B69
330
9659
100
AcDbEntity
  8
寸法引出
 48
15.0
100
AcDbTrace
 10
1746.369096113077
 20
1675.69919920686
 30
0.0
 11
1746.369096113077
 21
1668.199199206861
 31
0.0
 12
1723.869096113077
 22
1671.94919920686
 32
0.0
 13
1723.869096113077
 23
1671.94919920686
 33
0.0
  0
MTEXT
  5
9B6A
330
9659
100
AcDbEntity
  8
寸法引出
 48
15.0
100
AcDbMText
 10
1691.369096113077
 20
1701.94919920686
 30
0.0
 40
30.0
 41
0.0
 71
     5
 72
     1
  1
\A1;65
  7
SANWA
 73
     1
 44
1.0
1001
ACAD
1000
MTEXTBEGIN
1070
    73
1070
     1
1070
    44
1040
1.0
1070
    74
1070
     0
1000
MTEXTEND
  0
POINT
  5
9B6B
330
9659
100
AcDbEntity
  8
DEFPOINTS
 62
     0
 48
15.0
100
AcDbPoint
 10
1658.869096113077
 20
1570.212554762415
 30
0.0
  0
POINT
  5
9B6C
330
9659
100
AcDbEntity
  8
DEFPOINTS
 62
     0
 48
15.0
100
AcDbPoint
 10
1723.869096113077
 20
1570.212554762415
 30
0.0
  0
POINT
  5
9B6D
330
9659
100
AcDbEntity
  8
DEFPOINTS
 62
     0
 48
15.0
100
AcDbPoint
 10
1723.869096113077
 20
1671.94919920686
 30
0.0
  0
ENDBLK
  5
9666
330
9659
100
AcDbEntity
  8
0
 48
15.0
100
AcDbBlockEnd
  0
BLOCK
  5
9671
330
9667
100
AcDbEntity
  8
0
 48
15.0
100
AcDbBlockBegin
  2
*D278
 70
     1
 10
0.0
 20
0.0
 30
0.0
  3
*D278
  1

  0
LINE
  5
9B6E
330
9667
100
AcDbEntity
  8
寸法引出
 48
15.0
370
    -2
100
AcDbLine
 10
1321.369096113077
 20
2122.660492837419
 30
0.0
 11
1321.369096113077
 21
1979.162266365878
 31
0.0
  0
LINE
  5
9B6F
330
9667
100
AcDbEntity
  8
寸法引出
 48
15.0
370
    -2
100
AcDbLine
 10
1643.369096113078
 20
2122.660492837419
 30
0.0
 11
1643.369096113078
 21
1979.162266365878
 31
0.0
  0
LINE
  5
9B70
330
9667
100
AcDbEntity
  8
寸法引出
 48
15.0
370
    -2
100
AcDbLine
 10
1343.869096113077
 20
1986.662266365879
 30
0.0
 11
1620.869096113078
 21
1986.662266365879
 31
0.0
  0
SOLID
  5
9B71
330
9667
100
AcDbEntity
  8
寸法引出
 48
15.0
100
AcDbTrace
 10
1343.869096113077
 20
1990.412266365878
 30
0.0
 11
1343.869096113077
 21
1982.912266365879
 31
0.0
 12
1321.369096113077
 22
1986.662266365879
 32
0.0
 13
1321.369096113077
 23
1986.662266365879
 33
0.0
  0
SOLID
  5
9B72
330
9667
100
AcDbEntity
  8
寸法引出
 48
15.0
100
AcDbTrace
 10
1620.869096113078
 20
1990.412266365878
 30
0.0
 11
1620.869096113078
 21
1982.912266365879
 31
0.0
 12
1643.369096113078
 22
1986.662266365879
 32
0.0
 13
1643.369096113078
 23
1986.662266365879
 33
0.0
  0
MTEXT
  5
9B73
330
9667
100
AcDbEntity
  8
寸法引出
 48
15.0
100
AcDbMText
 10
1482.369096113077
 20
2016.662266365878
 30
0.0
 40
30.0
 41
0.0
 71
     5
 72
     1
  1
\A1;322
  7
SANWA
 73
     1
 44
1.0
1001
ACAD
1000
MTEXTBEGIN
1070
    73
1070
     1
1070
    44
1040
1.0
1070
    74
1070
     0
1000
MTEXTEND
  0
POINT
  5
9B74
330
9667
100
AcDbEntity
  8
DEFPOINTS
 62
     0
 48
15.0
100
AcDbPoint
 10
1321.369096113077
 20
2137.660492837419
 30
0.0
  0
POINT
  5
9B75
330
9667
100
AcDbEntity
  8
DEFPOINTS
 62
     0
 48
15.0
100
AcDbPoint
 10
1643.369096113078
 20
2137.660492837419
 30
0.0
  0
POINT
  5
9B76
330
9667
100
AcDbEntity
  8
DEFPOINTS
 62
     0
 48
15.0
100
AcDbPoint
 10
1643.369096113078
 20
1986.662266365879
 30
0.0
  0
ENDBLK
  5
9672
330
9667
100
AcDbEntity
  8
0
 48
15.0
100
AcDbBlockEnd
  0
BLOCK
  5
967D
330
9673
100
AcDbEntity
  8
0
 48
15.0
100
AcDbBlockBegin
  2
*D279
 70
     1
 10
0.0
 20
0.0
 30
0.0
  3
*D279
  1

  0
LINE
  5
9B77
330
9673
100
AcDbEntity
  8
寸法引出
 48
15.0
370
    -2
100
AcDbLine
 10
1306.369096113077
 20
2137.660492837419
 30
0.0
 11
1229.259794480416
 21
2137.660492837419
 31
0.0
  0
LINE
  5
9B78
330
9673
100
AcDbEntity
  8
寸法引出
 48
15.0
370
    -2
100
AcDbLine
 10
1306.369096113077
 20
2257.660492837419
 30
0.0
 11
1229.259794480416
 21
2257.660492837419
 31
0.0
  0
LINE
  5
9B79
330
9673
100
AcDbEntity
  8
寸法引出
 48
15.0
370
    -2
100
AcDbLine
 10
1236.759794480416
 20
2160.160492837419
 30
0.0
 11
1236.759794480416
 21
2235.160492837419
 31
0.0
  0
SOLID
  5
9B7A
330
9673
100
AcDbEntity
  8
寸法引出
 48
15.0
100
AcDbTrace
 10
1233.009794480415
 20
2160.160492837419
 30
0.0
 11
1240.509794480415
 21
2160.160492837419
 31
0.0
 12
1236.759794480416
 22
2137.660492837419
 32
0.0
 13
1236.759794480416
 23
2137.660492837419
 33
0.0
  0
SOLID
  5
9B7B
330
9673
100
AcDbEntity
  8
寸法引出
 48
15.0
100
AcDbTrace
 10
1233.009794480415
 20
2235.160492837419
 30
0.0
 11
1240.509794480415
 21
2235.160492837419
 31
0.0
 12
1236.759794480416
 22
2257.660492837419
 32
0.0
 13
1236.759794480416
 23
2257.660492837419
 33
0.0
  0
MTEXT
  5
9B7C
330
9673
100
AcDbEntity
  8
寸法引出
 48
15.0
100
AcDbMText
 10
1206.759794480415
 20
2197.660492837419
 30
0.0
 40
30.0
 41
0.0
 71
     5
 72
     1
  1
\A1;120
  7
SANWA
 11
0.0000000000000001
 21
1.0
 31
0.0
 73
     1
 44
1.0
1001
ACAD
1000
MTEXTBEGIN
1070
    73
1070
     1
1070
    44
1040
1.0
1070
    74
1070
     0
1000
MTEXTEND
  0
POINT
  5
9B7D
330
9673
100
AcDbEntity
  8
DEFPOINTS
 62
     0
 48
15.0
100
AcDbPoint
 10
1321.369096113077
 20
2137.660492837419
 30
0.0
  0
POINT
  5
9B7E
330
9673
100
AcDbEntity
  8
DEFPOINTS
 62
     0
 48
15.0
100
AcDbPoint
 10
1321.369096113077
 20
2257.660492837419
 30
0.0
  0
POINT
  5
9B7F
330
9673
100
AcDbEntity
  8
DEFPOINTS
 62
     0
 48
15.0
100
AcDbPoint
 10
1236.759794480416
 20
2257.660492837419
 30
0.0
  0
ENDBLK
  5
967E
330
9673
100
AcDbEntity
  8
0
 48
15.0
100
AcDbBlockEnd
  0
BLOCK
  5
968B
330
967F
100
AcDbEntity
  8
0
 48
15.0
100
AcDbBlockBegin
  2
*D280
 70
     1
 10
0.0
 20
0.0
 30
0.0
  3
*D280
  1

  0
LINE
  5
9B80
330
967F
100
AcDbEntity
  8
寸法引出
 48
15.0
370
    -2
100
AcDbLine
 10
1321.369096113077
 20
2122.660492837419
 30
0.0
 11
1321.369096113077
 21
2036.628117817387
 31
0.0
  0
LINE
  5
9B81
330
967F
100
AcDbEntity
  8
寸法引出
 48
15.0
370
    -2
100
AcDbLine
 10
1356.369096113077
 20
2122.660492837419
 30
0.0
 11
1356.369096113077
 21
2036.628117817387
 31
0.0
  0
LINE
  5
9B82
330
967F
100
AcDbEntity
  8
寸法引出
 48
15.0
370
    -2
100
AcDbLine
 10
1298.869096113077
 20
2044.128117817388
 30
0.0
 11
1276.369096113077
 21
2044.128117817388
 31
0.0
  0
LINE
  5
9B83
330
967F
100
AcDbEntity
  8
寸法引出
 48
15.0
370
    -2
100
AcDbLine
 10
1378.869096113077
 20
2044.128117817388
 30
0.0
 11
1401.369096113077
 21
2044.128117817388
 31
0.0
  0
LINE
  5
9B84
330
967F
100
AcDbEntity
  8
寸法引出
 48
15.0
370
    -2
100
AcDbLine
 10
1321.369096113077
 20
2044.128117817388
 30
0.0
 11
1356.369096113077
 21
2044.128117817388
 31
0.0
  0
SOLID
  5
9B85
330
967F
100
AcDbEntity
  8
寸法引出
 48
15.0
100
AcDbTrace
 10
1298.869096113077
 20
2047.878117817387
 30
0.0
 11
1298.869096113077
 21
2040.378117817387
 31
0.0
 12
1321.369096113077
 22
2044.128117817388
 32
0.0
 13
1321.369096113077
 23
2044.128117817388
 33
0.0
  0
SOLID
  5
9B86
330
967F
100
AcDbEntity
  8
寸法引出
 48
15.0
100
AcDbTrace
 10
1378.869096113077
 20
2047.878117817387
 30
0.0
 11
1378.869096113077
 21
2040.378117817387
 31
0.0
 12
1356.369096113077
 22
2044.128117817388
 32
0.0
 13
1356.369096113077
 23
2044.128117817388
 33
0.0
  0
MTEXT
  5
9B87
330
967F
100
AcDbEntity
  8
寸法引出
 48
15.0
100
AcDbMText
 10
1338.869096113077
 20
2074.128117817387
 30
0.0
 40
30.0
 41
0.0
 71
     5
 72
     1
  1
\A1;35
  7
SANWA
 73
     1
 44
1.0
1001
ACAD
1000
MTEXTBEGIN
1070
    73
1070
     1
1070
    44
1040
1.0
1070
    74
1070
     0
1000
MTEXTEND
  0
POINT
  5
9B88
330
967F
100
AcDbEntity
  8
DEFPOINTS
 62
     0
 48
15.0
100
AcDbPoint
 10
1321.369096113077
 20
2137.660492837419
 30
0.0
  0
POINT
  5
9B89
330
967F
100
AcDbEntity
  8
DEFPOINTS
 62
     0
 48
15.0
100
AcDbPoint
 10
1356.369096113077
 20
2137.660492837419
 30
0.0
  0
POINT
  5
9B8A
330
967F
100
AcDbEntity
  8
DEFPOINTS
 62
     0
 48
15.0
100
AcDbPoint
 10
1356.369096113077
 20
2044.128117817388
 30
0.0
  0
ENDBLK
  5
968C
330
967F
100
AcDbEntity
  8
0
 48
15.0
100
AcDbBlockEnd
  0
BLOCK
  5
9697
330
968D
100
AcDbEntity
  8
0
 48
15.0
100
AcDbBlockBegin
  2
*D281
 70
     1
 10
0.0
 20
0.0
 30
0.0
  3
*D281
  1

  0
LINE
  5
9B8B
330
968D
100
AcDbEntity
  8
寸法引出
 48
15.0
370
    -2
100
AcDbLine
 10
1643.369096113078
 20
2122.660492837419
 30
0.0
 11
1643.369096113078
 21
1979.162266365878
 31
0.0
  0
LINE
  5
9B8C
330
968D
100
AcDbEntity
  8
寸法引出
 48
15.0
370
    -2
100
AcDbLine
 10
1739.369096113077
 20
2122.660492837419
 30
0.0
 11
1739.369096113077
 21
1979.162266365878
 31
0.0
  0
LINE
  5
9B8D
330
968D
100
AcDbEntity
  8
寸法引出
 48
15.0
370
    -2
100
AcDbLine
 10
1665.869096113078
 20
1986.662266365879
 30
0.0
 11
1716.869096113077
 21
1986.662266365879
 31
0.0
  0
SOLID
  5
9B8E
330
968D
100
AcDbEntity
  8
寸法引出
 48
15.0
100
AcDbTrace
 10
1665.869096113078
 20
1990.412266365878
 30
0.0
 11
1665.869096113078
 21
1982.912266365879
 31
0.0
 12
1643.369096113078
 22
1986.662266365879
 32
0.0
 13
1643.369096113078
 23
1986.662266365879
 33
0.0
  0
SOLID
  5
9B8F
330
968D
100
AcDbEntity
  8
寸法引出
 48
15.0
100
AcDbTrace
 10
1716.869096113077
 20
1990.412266365878
 30
0.0
 11
1716.869096113077
 21
1982.912266365879
 31
0.0
 12
1739.369096113077
 22
1986.662266365879
 32
0.0
 13
1739.369096113077
 23
1986.662266365879
 33
0.0
  0
MTEXT
  5
9B90
330
968D
100
AcDbEntity
  8
寸法引出
 48
15.0
100
AcDbMText
 10
1691.369096113077
 20
2016.662266365878
 30
0.0
 40
30.0
 41
0.0
 71
     5
 72
     1
  1
\A1;96
  7
SANWA
 73
     1
 44
1.0
1001
ACAD
1000
MTEXTBEGIN
1070
    73
1070
     1
1070
    44
1040
1.0
1070
    74
1070
     0
1000
MTEXTEND
  0
POINT
  5
9B91
330
968D
100
AcDbEntity
  8
DEFPOINTS
 62
     0
 48
15.0
100
AcDbPoint
 10
1643.369096113078
 20
2137.660492837419
 30
0.0
  0
POINT
  5
9B92
330
968D
100
AcDbEntity
  8
DEFPOINTS
 62
     0
 48
15.0
100
AcDbPoint
 10
1739.369096113077
 20
2137.660492837419
 30
0.0
  0
POINT
  5
9B93
330
968D
100
AcDbEntity
  8
DEFPOINTS
 62
     0
 48
15.0
100
AcDbPoint
 10
1739.369096113077
 20
1986.662266365879
 30
0.0
  0
ENDBLK
  5
9698
330
968D
100
AcDbEntity
  8
0
 48
15.0
100
AcDbBlockEnd
  0
BLOCK
  5
96A3
330
9699
100
AcDbEntity
  8
0
 48
15.0
100
AcDbBlockBegin
  2
*D282
 70
     1
 10
0.0
 20
0.0
 30
0.0
  3
*D282
  1

  0
LINE
  5
9B94
330
9699
100
AcDbEntity
  8
寸法引出
 48
15.0
370
    -2
100
AcDbLine
 10
1648.369096113077
 20
2131.660492837418
 30
0.0
 11
1648.369096113077
 21
2036.628117817387
 31
0.0
  0
LINE
  5
9B95
330
9699
100
AcDbEntity
  8
寸法引出
 48
15.0
370
    -2
100
AcDbLine
 10
1734.369096113077
 20
2131.660492837418
 30
0.0
 11
1734.369096113077
 21
2036.628117817387
 31
0.0
  0
LINE
  5
9B96
330
9699
100
AcDbEntity
  8
寸法引出
 48
15.0
370
    -2
100
AcDbLine
 10
1670.869096113077
 20
2044.128117817388
 30
0.0
 11
1711.869096113077
 21
2044.128117817388
 31
0.0
  0
SOLID
  5
9B97
330
9699
100
AcDbEntity
  8
寸法引出
 48
15.0
100
AcDbTrace
 10
1670.869096113077
 20
2047.878117817387
 30
0.0
 11
1670.869096113077
 21
2040.378117817387
 31
0.0
 12
1648.369096113077
 22
2044.128117817388
 32
0.0
 13
1648.369096113077
 23
2044.128117817388
 33
0.0
  0
SOLID
  5
9B98
330
9699
100
AcDbEntity
  8
寸法引出
 48
15.0
100
AcDbTrace
 10
1711.869096113077
 20
2047.878117817387
 30
0.0
 11
1711.869096113077
 21
2040.378117817387
 31
0.0
 12
1734.369096113077
 22
2044.128117817388
 32
0.0
 13
1734.369096113077
 23
2044.128117817388
 33
0.0
  0
MTEXT
  5
9B99
330
9699
100
AcDbEntity
  8
寸法引出
 48
15.0
100
AcDbMText
 10
1691.369096113077
 20
2074.128117817387
 30
0.0
 40
30.0
 41
0.0
 71
     5
 72
     1
  1
\A1;86
  7
SANWA
 73
     1
 44
1.0
1001
ACAD
1000
MTEXTBEGIN
1070
    73
1070
     1
1070
    44
1040
1.0
1070
    74
1070
     0
1000
MTEXTEND
  0
POINT
  5
9B9A
330
9699
100
AcDbEntity
  8
DEFPOINTS
 62
     0
 48
15.0
100
AcDbPoint
 10
1648.369096113077
 20
2146.660492837419
 30
0.0
  0
POINT
  5
9B9B
330
9699
100
AcDbEntity
  8
DEFPOINTS
 62
     0
 48
15.0
100
AcDbPoint
 10
1734.369096113077
 20
2146.660492837419
 30
0.0
  0
POINT
  5
9B9C
330
9699
100
AcDbEntity
  8
DEFPOINTS
 62
     0
 48
15.0
100
AcDbPoint
 10
1734.369096113077
 20
2044.128117817388
 30
0.0
  0
ENDBLK
  5
96A4
330
9699
100
AcDbEntity
  8
0
 48
15.0
100
AcDbBlockEnd
  0
BLOCK
  5
96B1
330
96A5
100
AcDbEntity
  8
0
 48
15.0
100
AcDbBlockBegin
  2
*D283
 70
     1
 10
0.0
 20
0.0
 30
0.0
  3
*D283
  1

  0
LINE
  5
9B9D
330
96A5
100
AcDbEntity
  8
寸法引出
 48
15.0
370
    -2
100
AcDbLine
 10
1738.869096113077
 20
2219.660492837419
 30
0.0
 11
1811.676137544257
 21
2219.660492837419
 31
0.0
  0
LINE
  5
9B9E
330
96A5
100
AcDbEntity
  8
寸法引出
 48
15.0
370
    -2
100
AcDbLine
 10
1749.369096113077
 20
2217.360492837419
 30
0.0
 11
1811.676137544257
 21
2217.360492837419
 31
0.0
  0
LINE
  5
9B9F
330
96A5
100
AcDbEntity
  8
寸法引出
 48
15.0
370
    -2
100
AcDbLine
 10
1804.176137544257
 20
2242.160492837419
 30
0.0
 11
1804.176137544257
 21
2264.660492837418
 31
0.0
  0
LINE
  5
9BA0
330
96A5
100
AcDbEntity
  8
寸法引出
 48
15.0
370
    -2
100
AcDbLine
 10
1804.176137544257
 20
2194.860492837419
 30
0.0
 11
1804.176137544257
 21
2172.360492837418
 31
0.0
  0
LINE
  5
9BA1
330
96A5
100
AcDbEntity
  8
寸法引出
 48
15.0
370
    -2
100
AcDbLine
 10
1804.176137544257
 20
2219.660492837419
 30
0.0
 11
1804.176137544257
 21
2217.360492837419
 31
0.0
  0
SOLID
  5
9BA2
330
96A5
100
AcDbEntity
  8
寸法引出
 48
15.0
100
AcDbTrace
 10
1800.426137544257
 20
2242.160492837419
 30
0.0
 11
1807.926137544257
 21
2242.160492837419
 31
0.0
 12
1804.176137544257
 22
2219.660492837419
 32
0.0
 13
1804.176137544257
 23
2219.660492837419
 33
0.0
  0
SOLID
  5
9BA3
330
96A5
100
AcDbEntity
  8
寸法引出
 48
15.0
100
AcDbTrace
 10
1800.426137544257
 20
2194.860492837419
 30
0.0
 11
1807.926137544257
 21
2194.860492837419
 31
0.0
 12
1804.176137544257
 22
2217.360492837419
 32
0.0
 13
1804.176137544257
 23
2217.360492837419
 33
0.0
  0
MTEXT
  5
9BA4
330
96A5
100
AcDbEntity
  8
寸法引出
 48
15.0
100
AcDbMText
 10
1774.176137544257
 20
2218.510492837419
 30
0.0
 40
30.0
 41
0.0
 71
     5
 72
     1
  1
\A1;2.3
  7
SANWA
 11
0.0000000000000001
 21
1.0
 31
0.0
 73
     1
 44
1.0
1001
ACAD
1000
MTEXTBEGIN
1070
    73
1070
     1
1070
    44
1040
1.0
1070
    74
1070
     0
1000
MTEXTEND
  0
POINT
  5
9BA5
330
96A5
100
AcDbEntity
  8
DEFPOINTS
 62
     0
 48
15.0
100
AcDbPoint
 10
1723.869096113077
 20
2219.660492837419
 30
0.0
  0
POINT
  5
9BA6
330
96A5
100
AcDbEntity
  8
DEFPOINTS
 62
     0
 48
15.0
100
AcDbPoint
 10
1734.369096113077
 20
2217.360492837419
 30
0.0
  0
POINT
  5
9BA7
330
96A5
100
AcDbEntity
  8
DEFPOINTS
 62
     0
 48
15.0
100
AcDbPoint
 10
1804.176137544257
 20
2217.360492837419
 30
0.0
  0
ENDBLK
  5
96B2
330
96A5
100
AcDbEntity
  8
0
 48
15.0
100
AcDbBlockEnd
  0
BLOCK
  5
96BD
330
96B3
100
AcDbEntity
  8
0
 48
15.0
100
AcDbBlockBegin
  2
*D284
 70
     1
 10
0.0
 20
0.0
 30
0.0
  3
*D284
  1

  0
LINE
  5
9BA8
330
96B3
100
AcDbEntity
  8
寸法引出
 48
15.0
370
    -2
100
AcDbLine
 10
2076.369096113077
 20
2277.660492837419
 30
0.0
 11
2160.918645053088
 21
2277.660492837419
 31
0.0
  0
LINE
  5
9BA9
330
96B3
100
AcDbEntity
  8
寸法引出
 48
15.0
370
    -2
100
AcDbLine
 10
2076.369096113077
 20
2137.660492837419
 30
0.0
 11
2160.918645053088
 21
2137.660492837419
 31
0.0
  0
LINE
  5
9BAA
330
96B3
100
AcDbEntity
  8
寸法引出
 48
15.0
370
    -2
100
AcDbLine
 10
2153.418645053088
 20
2255.160492837418
 30
0.0
 11
2153.418645053088
 21
2160.160492837419
 31
0.0
  0
SOLID
  5
9BAB
330
96B3
100
AcDbEntity
  8
寸法引出
 48
15.0
100
AcDbTrace
 10
2149.668645053088
 20
2255.160492837418
 30
0.0
 11
2157.168645053088
 21
2255.160492837418
 31
0.0
 12
2153.418645053088
 22
2277.660492837419
 32
0.0
 13
2153.418645053088
 23
2277.660492837419
 33
0.0
  0
SOLID
  5
9BAC
330
96B3
100
AcDbEntity
  8
寸法引出
 48
15.0
100
AcDbTrace
 10
2149.668645053088
 20
2160.160492837419
 30
0.0
 11
2157.168645053088
 21
2160.160492837419
 31
0.0
 12
2153.418645053088
 22
2137.660492837419
 32
0.0
 13
2153.418645053088
 23
2137.660492837419
 33
0.0
  0
MTEXT
  5
9BAD
330
96B3
100
AcDbEntity
  8
寸法引出
 48
15.0
100
AcDbMText
 10
2123.418645053087
 20
2207.660492837419
 30
0.0
 40
30.0
 41
0.0
 71
     5
 72
     1
  1
\A1;140
  7
SANWA
 11
0.0000000000000001
 21
1.0
 31
0.0
 73
     1
 44
1.0
1001
ACAD
1000
MTEXTBEGIN
1070
    73
1070
     1
1070
    44
1040
1.0
1070
    74
1070
     0
1000
MTEXTEND
  0
POINT
  5
9BAE
330
96B3
100
AcDbEntity
  8
DEFPOINTS
 62
     0
 48
15.0
100
AcDbPoint
 10
2061.369096113077
 20
2277.660492837419
 30
0.0
  0
POINT
  5
9BAF
330
96B3
100
AcDbEntity
  8
DEFPOINTS
 62
     0
 48
15.0
100
AcDbPoint
 10
2061.369096113077
 20
2137.660492837419
 30
0.0
  0
POINT
  5
9BB0
330
96B3
100
AcDbEntity
  8
DEFPOINTS
 62
     0
 48
15.0
100
AcDbPoint
 10
2153.418645053088
 20
2137.660492837419
 30
0.0
  0
ENDBLK
  5
96BE
330
96B3
100
AcDbEntity
  8
0
 48
15.0
100
AcDbBlockEnd
  0
BLOCK
  5
96CB
330
96BF
100
AcDbEntity
  8
0
 48
15.0
100
AcDbBlockBegin
  2
*D285
 70
     1
 10
0.0
 20
0.0
 30
0.0
  3
*D285
  1

  0
LINE
  5
9BB1
330
96BF
100
AcDbEntity
  8
寸法引出
 48
15.0
370
    -2
100
AcDbLine
 10
2026.369096113077
 20
2122.660492837419
 30
0.0
 11
2026.369096113077
 21
2036.628117817387
 31
0.0
  0
LINE
  5
9BB2
330
96BF
100
AcDbEntity
  8
寸法引出
 48
15.0
370
    -2
100
AcDbLine
 10
2061.369096113077
 20
2122.660492837419
 30
0.0
 11
2061.369096113077
 21
2036.628117817387
 31
0.0
  0
LINE
  5
9BB3
330
96BF
100
AcDbEntity
  8
寸法引出
 48
15.0
370
    -2
100
AcDbLine
 10
2003.869096113077
 20
2044.128117817388
 30
0.0
 11
1981.369096113077
 21
2044.128117817388
 31
0.0
  0
LINE
  5
9BB4
330
96BF
100
AcDbEntity
  8
寸法引出
 48
15.0
370
    -2
100
AcDbLine
 10
2083.869096113077
 20
2044.128117817388
 30
0.0
 11
2106.369096113077
 21
2044.128117817388
 31
0.0
  0
LINE
  5
9BB5
330
96BF
100
AcDbEntity
  8
寸法引出
 48
15.0
370
    -2
100
AcDbLine
 10
2026.369096113077
 20
2044.128117817388
 30
0.0
 11
2061.369096113077
 21
2044.128117817388
 31
0.0
  0
SOLID
  5
9BB6
330
96BF
100
AcDbEntity
  8
寸法引出
 48
15.0
100
AcDbTrace
 10
2003.869096113077
 20
2047.878117817387
 30
0.0
 11
2003.869096113077
 21
2040.378117817387
 31
0.0
 12
2026.369096113077
 22
2044.128117817388
 32
0.0
 13
2026.369096113077
 23
2044.128117817388
 33
0.0
  0
SOLID
  5
9BB7
330
96BF
100
AcDbEntity
  8
寸法引出
 48
15.0
100
AcDbTrace
 10
2083.869096113077
 20
2047.878117817387
 30
0.0
 11
2083.869096113077
 21
2040.378117817387
 31
0.0
 12
2061.369096113077
 22
2044.128117817388
 32
0.0
 13
2061.369096113077
 23
2044.128117817388
 33
0.0
  0
MTEXT
  5
9BB8
330
96BF
100
AcDbEntity
  8
寸法引出
 48
15.0
100
AcDbMText
 10
2043.869096113077
 20
2074.128117817387
 30
0.0
 40
30.0
 41
0.0
 71
     5
 72
     1
  1
\A1;35
  7
SANWA
 73
     1
 44
1.0
1001
ACAD
1000
MTEXTBEGIN
1070
    73
1070
     1
1070
    44
1040
1.0
1070
    74
1070
     0
1000
MTEXTEND
  0
POINT
  5
9BB9
330
96BF
100
AcDbEntity
  8
DEFPOINTS
 62
     0
 48
15.0
100
AcDbPoint
 10
2026.369096113077
 20
2137.660492837419
 30
0.0
  0
POINT
  5
9BBA
330
96BF
100
AcDbEntity
  8
DEFPOINTS
 62
     0
 48
15.0
100
AcDbPoint
 10
2061.369096113077
 20
2137.660492837419
 30
0.0
  0
POINT
  5
9BBB
330
96BF
100
AcDbEntity
  8
DEFPOINTS
 62
     0
 48
15.0
100
AcDbPoint
 10
2061.369096113077
 20
2044.128117817388
 30
0.0
  0
ENDBLK
  5
96CC
330
96BF
100
AcDbEntity
  8
0
 48
15.0
100
AcDbBlockEnd
  0
BLOCK
  5
96D7
330
96CD
100
AcDbEntity
  8
0
 48
15.0
100
AcDbBlockBegin
  2
*D286
 70
     1
 10
0.0
 20
0.0
 30
0.0
  3
*D286
  1

  0
LINE
  5
9BBC
330
96CD
100
AcDbEntity
  8
寸法引出
 48
15.0
370
    -2
100
AcDbLine
 10
2502.190960854838
 20
2137.660492837419
 30
0.0
 11
2421.931582317739
 21
2137.660492837419
 31
0.0
  0
LINE
  5
9BBD
330
96CD
100
AcDbEntity
  8
寸法引出
 48
15.0
370
    -2
100
AcDbLine
 10
2502.190960854838
 20
2257.660492837419
 30
0.0
 11
2421.931582317739
 21
2257.660492837419
 31
0.0
  0
LINE
  5
9BBE
330
96CD
100
AcDbEntity
  8
寸法引出
 48
15.0
370
    -2
100
AcDbLine
 10
2429.431582317739
 20
2160.160492837419
 30
0.0
 11
2429.431582317739
 21
2235.160492837419
 31
0.0
  0
SOLID
  5
9BBF
330
96CD
100
AcDbEntity
  8
寸法引出
 48
15.0
100
AcDbTrace
 10
2425.681582317739
 20
2160.160492837419
 30
0.0
 11
2433.181582317739
 21
2160.160492837419
 31
0.0
 12
2429.431582317739
 22
2137.660492837419
 32
0.0
 13
2429.431582317739
 23
2137.660492837419
 33
0.0
  0
SOLID
  5
9BC0
330
96CD
100
AcDbEntity
  8
寸法引出
 48
15.0
100
AcDbTrace
 10
2425.681582317739
 20
2235.160492837419
 30
0.0
 11
2433.181582317739
 21
2235.160492837419
 31
0.0
 12
2429.431582317739
 22
2257.660492837419
 32
0.0
 13
2429.431582317739
 23
2257.660492837419
 33
0.0
  0
MTEXT
  5
9BC1
330
96CD
100
AcDbEntity
  8
寸法引出
 48
15.0
100
AcDbMText
 10
2399.431582317738
 20
2197.660492837419
 30
0.0
 40
30.0
 41
0.0
 71
     5
 72
     1
  1
\A1;120
  7
SANWA
 11
0.0000000000000001
 21
1.0
 31
0.0
 73
     1
 44
1.0
1001
ACAD
1000
MTEXTBEGIN
1070
    73
1070
     1
1070
    44
1040
1.0
1070
    74
1070
     0
1000
MTEXTEND
  0
POINT
  5
9BC2
330
96CD
100
AcDbEntity
  8
DEFPOINTS
 62
     0
 48
15.0
100
AcDbPoint
 10
2517.190960854839
 20
2137.660492837419
 30
0.0
  0
POINT
  5
9BC3
330
96CD
100
AcDbEntity
  8
DEFPOINTS
 62
     0
 48
15.0
100
AcDbPoint
 10
2517.190960854839
 20
2257.660492837419
 30
0.0
  0
POINT
  5
9BC4
330
96CD
100
AcDbEntity
  8
DEFPOINTS
 62
     0
 48
15.0
100
AcDbPoint
 10
2429.431582317739
 20
2257.660492837419
 30
0.0
  0
ENDBLK
  5
96D8
330
96CD
100
AcDbEntity
  8
0
 48
15.0
100
AcDbBlockEnd
  0
BLOCK
  5
96E3
330
96D9
100
AcDbEntity
  8
0
 48
15.0
100
AcDbBlockBegin
  2
*D287
 70
     1
 10
0.0
 20
0.0
 30
0.0
  3
*D287
  1

  0
LINE
  5
9BC5
330
96D9
100
AcDbEntity
  8
寸法引出
 48
15.0
370
    -2
100
AcDbLine
 10
2517.190960854839
 20
2122.660492837419
 30
0.0
 11
2517.190960854839
 21
2034.836728575761
 31
0.0
  0
LINE
  5
9BC6
330
96D9
100
AcDbEntity
  8
寸法引出
 48
15.0
370
    -2
100
AcDbLine
 10
2637.190960854839
 20
2122.660492837419
 30
0.0
 11
2637.190960854839
 21
2034.836728575761
 31
0.0
  0
LINE
  5
9BC7
330
96D9
100
AcDbEntity
  8
寸法引出
 48
15.0
370
    -2
100
AcDbLine
 10
2539.690960854839
 20
2042.336728575762
 30
0.0
 11
2614.690960854839
 21
2042.336728575762
 31
0.0
  0
SOLID
  5
9BC8
330
96D9
100
AcDbEntity
  8
寸法引出
 48
15.0
100
AcDbTrace
 10
2539.690960854839
 20
2046.086728575761
 30
0.0
 11
2539.690960854839
 21
2038.586728575761
 31
0.0
 12
2517.190960854839
 22
2042.336728575762
 32
0.0
 13
2517.190960854839
 23
2042.336728575762
 33
0.0
  0
SOLID
  5
9BC9
330
96D9
100
AcDbEntity
  8
寸法引出
 48
15.0
100
AcDbTrace
 10
2614.690960854839
 20
2046.086728575761
 30
0.0
 11
2614.690960854839
 21
2038.586728575761
 31
0.0
 12
2637.190960854839
 22
2042.336728575762
 32
0.0
 13
2637.190960854839
 23
2042.336728575762
 33
0.0
  0
MTEXT
  5
9BCA
330
96D9
100
AcDbEntity
  8
寸法引出
 48
15.0
100
AcDbMText
 10
2577.190960854839
 20
2072.336728575761
 30
0.0
 40
30.0
 41
0.0
 71
     5
 72
     1
  1
\A1;120
  7
SANWA
 73
     1
 44
1.0
1001
ACAD
1000
MTEXTBEGIN
1070
    73
1070
     1
1070
    44
1040
1.0
1070
    74
1070
     0
1000
MTEXTEND
  0
POINT
  5
9BCB
330
96D9
100
AcDbEntity
  8
DEFPOINTS
 62
     0
 48
15.0
100
AcDbPoint
 10
2517.190960854839
 20
2137.660492837419
 30
0.0
  0
POINT
  5
9BCC
330
96D9
100
AcDbEntity
  8
DEFPOINTS
 62
     0
 48
15.0
100
AcDbPoint
 10
2637.190960854839
 20
2137.660492837419
 30
0.0
  0
POINT
  5
9BCD
330
96D9
100
AcDbEntity
  8
DEFPOINTS
 62
     0
 48
15.0
100
AcDbPoint
 10
2637.190960854839
 20
2042.336728575762
 30
0.0
  0
ENDBLK
  5
96E4
330
96D9
100
AcDbEntity
  8
0
 48
15.0
100
AcDbBlockEnd
  0
BLOCK
  5
96EE
330
96E5
100
AcDbEntity
  8
0
 48
15.0
100
AcDbBlockBegin
  2
*D288
 70
     1
 10
0.0
 20
0.0
 30
0.0
  3
*D288
  1

  0
LINE
  5
9BCE
330
96E5
100
AcDbEntity
  8
寸法引出
 48
15.0
370
    -2
100
AcDbLine
 10
3517.190960854839
 20
2122.660492837419
 30
0.0
 11
3517.190960854839
 21
2034.836728575761
 31
0.0
  0
LINE
  5
9BCF
330
96E5
100
AcDbEntity
  8
寸法引出
 48
15.0
370
    -2
100
AcDbLine
 10
3419.690960854839
 20
2042.336728575762
 30
0.0
 11
3494.690960854839
 21
2042.336728575762
 31
0.0
  0
SOLID
  5
9BD0
330
96E5
100
AcDbEntity
  8
寸法引出
 48
15.0
100
AcDbTrace
 10
3419.690960854839
 20
2046.086728575761
 30
0.0
 11
3419.690960854839
 21
2038.586728575761
 31
0.0
 12
3397.190960854839
 22
2042.336728575762
 32
0.0
 13
3397.190960854839
 23
2042.336728575762
 33
0.0
  0
SOLID
  5
9BD1
330
96E5
100
AcDbEntity
  8
寸法引出
 48
15.0
100
AcDbTrace
 10
3494.690960854839
 20
2046.086728575761
 30
0.0
 11
3494.690960854839
 21
2038.586728575761
 31
0.0
 12
3517.190960854839
 22
2042.336728575762
 32
0.0
 13
3517.190960854839
 23
2042.336728575762
 33
0.0
  0
MTEXT
  5
9BD2
330
96E5
100
AcDbEntity
  8
寸法引出
 48
15.0
100
AcDbMText
 10
3457.190960854839
 20
2072.336728575761
 30
0.0
 40
30.0
 41
0.0
 71
     5
 72
     1
  1
\A1;120
  7
SANWA
 73
     1
 44
1.0
1001
ACAD
1000
MTEXTBEGIN
1070
    73
1070
     1
1070
    44
1040
1.0
1070
    74
1070
     0
1000
MTEXTEND
  0
POINT
  5
9BD3
330
96E5
100
AcDbEntity
  8
DEFPOINTS
 62
     0
 48
15.0
100
AcDbPoint
 10
3397.190960854839
 20
2137.660492837419
 30
0.0
  0
POINT
  5
9BD4
330
96E5
100
AcDbEntity
  8
DEFPOINTS
 62
     0
 48
15.0
100
AcDbPoint
 10
3517.190960854839
 20
2137.660492837419
 30
0.0
  0
POINT
  5
9BD5
330
96E5
100
AcDbEntity
  8
DEFPOINTS
 62
     0
 48
15.0
100
AcDbPoint
 10
3517.190960854839
 20
2042.336728575762
 30
0.0
  0
ENDBLK
  5
96EF
330
96E5
100
AcDbEntity
  8
0
 48
15.0
100
AcDbBlockEnd
  0
ENDSEC
  0
SECTION
  2
ENTITIES
  0
LINE
  5
8F3D
330
747D
100
AcDbEntity
  8
0
 62
     0
100
AcDbLine
 10
3598.531914893611
 20
402.0000000000027
 30
0.0
 11
4305.0
 21
402.0000000000027
 31
0.0
  0
LINE
  5
8F3E
330
747D
100
AcDbEntity
  8
0
 62
     0
100
AcDbLine
 10
3598.531914893611
 20
498.0000000000041
 30
0.0
 11
4305.0
 21
498.0000000000041
 31
0.0
  0
TEXT
  5
8F3F
330
747D
100
AcDbEntity
  8
0
100
AcDbText
 10
3766.408313412463
 20
206.71887241068
 30
0.0
 40
24.0
  1
三和コンクリート工業株式会社
  7
SANWA
100
AcDbText
  0
LINE
  5
8F40
330
747D
100
AcDbEntity
  8
0
100
AcDbLine
 10
3202.531914893604
 20
306.0000000000014
 30
0.0
 11
4305.0
 21
306.0000000000014
 31
0.0
  0
LINE
  5
8F41
330
747D
100
AcDbEntity
  8
0
 62
     0
100
AcDbLine
 10
3202.531914893604
 20
594.0000000000018
 30
0.0
 11
4305.0
 21
594.0000000000018
 31
0.0
  0
LINE
  5
8F42
330
747D
100
AcDbEntity
  8
枠
100
AcDbLine
 10
375.0
 20
150.0
 30
0.0
 11
4305.0
 21
150.0000000000036
 31
0.0
  0
LINE
  5
8F43
330
747D
100
AcDbEntity
  8
枠
100
AcDbLine
 10
375.0
 20
3000.0
 30
0.0
 11
4305.0
 21
3000.0
 31
0.0
  0
LEADER
  5
8F4C
330
747D
100
AcDbEntity
  8
寸法引出
 48
15.0
100
AcDbLeader
  3
SANWA
 76
     3
 10
1356.369096113077
 20
1460.212554762415
 30
0.0
 10
1211.316449252066
 20
1653.410397903728
 30
0.0
 10
914.8418231419746
 20
1653.410397903728
 30
0.0
1001
ACAD
1000
DSTYLE
1002
{
1070
   140
1040
2.0
1070
    40
1040
15.0
1070
   147
1040
1.0
1070
    44
1040
0.5
1070
    43
1040
5.0
1070
   178
1070
   256
1070
   177
1070
   256
1070
   176
1070
   256
1070
    41
1040
1.5
1002
}
  0
MTEXT
  5
8F4D
330
747D
100
AcDbEntity
  8
寸法引出
  6
ByBlock
 48
15.0
100
AcDbMText
 10
1062.997863705827
 20
1679.648592184856
 30
0.0
 40
30.0
 41
0.0
 71
     5
 72
     1
  1
ﾛｯｸﾋﾟﾝ用ｲﾝｻｰﾄ
  7
SANWA
 73
     1
 44
1.0
1001
ACAD
1000
MTEXTBEGIN
1070
    73
1070
     1
1070
    44
1040
1.0
1070
    74
1070
     0
1000
MTEXTEND
  0
LINE
  5
8F4E
330
747D
100
AcDbEntity
  8
枠
100
AcDbLine
 10
375.0
 20
150.0
 30
0.0
 11
375.0
 21
3000.0
 31
0.0
  0
LINE
  5
8F4F
330
747D
100
AcDbEntity
  8
0
100
AcDbLine
 10
375.0
 20
0.0
 30
0.0
 11
0.0
 21
0.0
 31
0.0
  0
LINE
  5
8F50
330
747D
100
AcDbEntity
  8
0
100
AcDbLine
 10
0.0
 20
0.0
 30
0.0
 11
0.0
 21
150.0
 31
0.0
  0
LINE
  5
8F51
330
747D
100
AcDbEntity
  8
0
100
AcDbLine
 10
0.0
 20
3150.0
 30
0.0
 11
375.0
 21
3150.0
 31
0.0
  0
LINE
  5
8F52
330
747D
100
AcDbEntity
  8
0
100
AcDbLine
 10
0.0
 20
3000.0
 30
0.0
 11
0.0
 21
3150.0
 31
0.0
  0
LINE
  5
8F53
330
747D
100
AcDbEntity
  8
0
 48
15.0
100
AcDbLine
 10
2061.369096113077
 20
1570.212554762415
 30
0.0
 11
2061.369096113077
 21
570.2125547624155
 31
0.0
  0
LINE
  5
8F54
330
747D
100
AcDbEntity
  8
0
 48
15.0
100
AcDbLine
 10
1321.369096113077
 20
1570.212554762415
 30
0.0
 11
1321.369096113077
 21
570.2125547624155
 31
0.0
  0
LINE
  5
8F55
330
747D
100
AcDbEntity
  8
0
 48
15.0
100
AcDbLine
 10
1658.869096113077
 20
1570.212554762415
 30
0.0
 11
1658.869096113077
 21
570.2125547624155
 31
0.0
  0
LINE
  5
8F56
330
747D
100
AcDbEntity
  8
0
 48
15.0
100
AcDbLine
 10
1723.869096113077
 20
1570.212554762415
 30
0.0
 11
1723.869096113077
 21
570.2125547624155
 31
0.0
  0
LINE
  5
8F57
330
747D
100
AcDbEntity
  8
0
  6
CENTER2
 48
15.0
100
AcDbLine
 10
1691.369096113077
 20
1620.212554762415
 30
0.0
 11
1691.369096113077
 21
520.2125547624155
 31
0.0
  0
DIMENSION
  5
8F58
330
747D
100
AcDbEntity
  8
寸法引出
 48
15.0
100
AcDbDimension
  2
*D258
 10
1207.27348145064
 20
690.2125547624156
 30
0.0
 11
1177.27348145064
 21
1070.212554762416
 31
0.0
 70
    32
 71
     5
 42
759.9999999999998
  3
SANWA
100
AcDbAlignedDimension
 13
1321.369096113077
 23
1450.212554762415
 33
0.0
 14
1321.369096113077
 24
690.2125547624154
 34
0.0
 50
90.0
100
AcDbRotatedDimension
1001
ACAD
1000
DSTYLE
1002
{
1070
    40
1040
15.0
1070
    41
1040
1.5
1070
    43
1040
5.0
1070
    44
1040
0.5
1070
    75
1070
     1
1070
   140
1040
2.0
1070
   147
1040
1.0
1070
   176
1070
   256
1070
   177
1070
   256
1070
   178
1070
   256
1070
   279
1070
     1
1002
}
  0
DIMENSION
  5
8F59
330
747D
100
AcDbEntity
  8
寸法引出
 48
15.0
100
AcDbDimension
  2
*D259
 10
2173.603754470077
 20
570.2125547624155
 30
0.0
 11
2143.603754470078
 21
1070.212554762416
 31
0.0
 70
    32
 71
     5
 42
1000.0
  3
SANWA
100
AcDbAlignedDimension
 13
2061.369096113077
 23
1570.212554762415
 33
0.0
 14
2061.369096113077
 24
570.2125547624155
 34
0.0
 50
90.0
100
AcDbRotatedDimension
1001
ACAD
1000
DSTYLE
1002
{
1070
   140
1040
2.0
1070
    40
1040
15.0
1070
   147
1040
1.0
1070
    44
1040
0.5
1070
    43
1040
5.0
1070
   178
1070
   256
1070
   177
1070
   256
1070
   176
1070
   256
1070
    41
1040
1.5
1002
}
  0
LEADER
  5
8F5A
330
747D
100
AcDbEntity
  8
寸法引出
 48
15.0
100
AcDbLeader
  3
SANWA
 76
     2
 10
1703.65590253076
 20
1241.781998459772
 30
0.0
 10
2658.237475018774
 20
1241.781998459772
 30
0.0
1001
ACAD
1000
DSTYLE
1002
{
1070
   140
1040
2.0
1070
    40
1040
15.0
1070
   147
1040
1.0
1070
    44
1040
0.5
1070
    43
1040
5.0
1070
   178
1070
   256
1070
   177
1070
   256
1070
   176
1070
   256
1070
    41
1040
1.5
1002
}
  0
LINE
  5
8F5B
330
747D
100
AcDbEntity
  8
0
 48
15.0
100
AcDbLine
 10
1321.369096113077
 20
570.2125547624155
 30
0.0
 11
2061.369096113077
 21
570.2125547624155
 31
0.0
  0
DIMENSION
  5
8F5C
330
747D
100
AcDbEntity
  8
寸法引出
 48
15.0
100
AcDbDimension
  2
*D260
 10
2061.369096113077
 20
390.837323994604
 30
0.0
 11
1691.369096113077
 21
420.837323994604
 31
0.0
 70
    32
 71
     5
 42
740.0
  3
SANWA
100
AcDbAlignedDimension
 13
1321.369096113077
 23
570.2125547624155
 33
0.0
 14
2061.369096113077
 24
570.2125547624155
 34
0.0
100
AcDbRotatedDimension
1001
ACAD
1000
DSTYLE
1002
{
1070
   140
1040
2.0
1070
    40
1040
15.0
1070
   147
1040
1.0
1070
    44
1040
0.5
1070
    43
1040
5.0
1070
   178
1070
   256
1070
   177
1070
   256
1070
   176
1070
   256
1070
    41
1040
1.5
1002
}
  0
DIMENSION
  5
8F5D
330
747D
100
AcDbEntity
  8
寸法引出
 48
15.0
100
AcDbDimension
  2
*D261
 10
2026.369096113077
 20
454.2180276173375
 30
0.0
 11
1691.369096113077
 21
484.2180276173376
 31
0.0
 70
    32
 71
     5
 42
670.0
  3
SANWA
100
AcDbAlignedDimension
 13
1356.369096113077
 23
570.2125547624155
 33
0.0
 14
2026.369096113077
 24
570.2125547624155
 34
0.0
100
AcDbRotatedDimension
1001
ACAD
1000
DSTYLE
1002
{
1070
   140
1040
2.0
1070
    40
1040
15.0
1070
   147
1040
1.0
1070
    44
1040
0.5
1070
    43
1040
5.0
1070
   178
1070
   256
1070
   177
1070
   256
1070
   176
1070
   256
1070
    41
1040
1.5
1002
}
  0
DIMENSION
  5
8F5E
330
747D
100
AcDbEntity
  8
寸法引出
 48
15.0
100
AcDbDimension
  2
*D262
 10
1356.369096113077
 20
454.2180276173375
 30
0.0
 11
1338.869096113077
 21
484.2180276173376
 31
0.0
 70
    32
 71
     5
 42
35.0
  3
SANWA
100
AcDbAlignedDimension
 13
1321.369096113077
 23
570.2125547624155
 33
0.0
 14
1356.369096113077
 24
570.2125547624155
 34
0.0
100
AcDbRotatedDimension
1001
ACAD
1000
DSTYLE
1002
{
1070
   140
1040
2.0
1070
    40
1040
15.0
1070
   147
1040
1.0
1070
    44
1040
0.5
1070
    43
1040
5.0
1070
   178
1070
   256
1070
   177
1070
   256
1070
   176
1070
   256
1070
    41
1040
1.5
1002
}
  0
DIMENSION
  5
8F5F
330
747D
100
AcDbEntity
  8
寸法引出
 48
15.0
100
AcDbDimension
  2
*D263
 10
1207.27348145064
 20
570.2125547624156
 30
0.0
 11
1177.27348145064
 21
630.2125547624157
 31
0.0
 70
    32
 71
     5
 42
120.0
  3
SANWA
100
AcDbAlignedDimension
 13
1321.369096113077
 23
690.2125547624154
 33
0.0
 14
1321.369096113077
 24
570.2125547624155
 34
0.0
 50
90.0
100
AcDbRotatedDimension
1001
ACAD
1000
DSTYLE
1002
{
1070
    40
1040
15.0
1070
    41
1040
1.5
1070
    43
1040
5.0
1070
    44
1040
0.5
1070
    75
1070
     1
1070
   140
1040
2.0
1070
   147
1040
1.0
1070
   176
1070
   256
1070
   177
1070
   256
1070
   178
1070
   256
1070
   279
1070
     1
1002
}
  0
CIRCLE
  5
8F60
330
747D
100
AcDbEntity
  8
0
 48
15.0
100
AcDbCircle
 10
1356.369096113077
 20
690.2125547624154
 30
0.0
 40
10.0
  0
DIMENSION
  5
8F61
330
747D
100
AcDbEntity
  8
寸法引出
 48
15.0
100
AcDbDimension
  2
*D264
 10
2061.369096113077
 20
454.2180276173375
 30
0.0
 11
2043.869096113077
 21
484.2180276173376
 31
0.0
 70
    32
 71
     5
 42
35.0
  3
SANWA
100
AcDbAlignedDimension
 13
2026.369096113077
 23
570.2125547624155
 33
0.0
 14
2061.369096113077
 24
570.2125547624155
 34
0.0
100
AcDbRotatedDimension
1001
ACAD
1000
DSTYLE
1002
{
1070
    40
1040
15.0
1070
    41
1040
1.5
1070
    43
1040
5.0
1070
    44
1040
0.5
1070
    75
1070
     1
1070
   140
1040
2.0
1070
   147
1040
1.0
1070
   176
1070
   256
1070
   177
1070
   256
1070
   178
1070
   256
1070
   279
1070
     1
1002
}
  0
CIRCLE
  5
8F62
330
747D
100
AcDbEntity
  8
0
 48
15.0
100
AcDbCircle
 10
2026.369096113077
 20
690.2125547624154
 30
0.0
 40
10.0
  0
TEXT
  5
8F63
102
{ACAD_REACTORS
330
8F72
102
}
330
747D
100
AcDbEntity
  8
0
 48
2.0
100
AcDbText
 10
3513.452118029436
 20
184.2993609898753
 30
0.0
 40
24.0
  1
川
  7
SANWA
100
AcDbText
  0
TEXT
  5
8F64
330
747D
100
AcDbEntity
  8
0
100
AcDbText
 10
3666.709002834926
 20
206.71887241068
 30
0.0
 40
18.0
  1
和
  7
SANWA
100
AcDbText
  0
LINE
  5
8F65
330
747D
100
AcDbEntity
  8
0
100
AcDbLine
 10
3466.531914893607
 20
150.0000000000036
 30
0.0
 11
3466.531914893607
 21
306.0000000000014
 31
0.0
  0
LINE
  5
8F66
330
747D
100
AcDbEntity
  8
0
100
AcDbLine
 10
3598.531914893611
 20
150.0000000000036
 30
0.0
 11
3598.531914893611
 21
594.0000000000018
 31
0.0
  0
ARC
  5
8F67
102
{ACAD_REACTORS
330
8F6F
102
}
330
747D
100
AcDbEntity
  8
0
100
AcDbCircle
 10
3680.136214331806
 20
223.208815808799
 30
0.0
 40
33.06378893304791
100
AcDbArc
 50
139.1625874111213
 51
265.8374125888738
  0
ARC
  5
8F68
102
{ACAD_REACTORS
330
8F6F
102
}
330
747D
100
AcDbEntity
  8
0
100
AcDbCircle
 10
3680.136214331806
 20
223.208815808799
 30
0.0
 40
35.46378893304791
100
AcDbArc
 50
142.778820311891
 51
262.2211796881018
  0
ARC
  5
8F69
102
{ACAD_REACTORS
330
8F6F
102
}
330
747D
100
AcDbEntity
  8
0
100
AcDbCircle
 10
3680.136214331806
 20
223.208815808799
 30
0.0
 40
43.86378893304791
100
AcDbArc
 50
138.136495447086
 51
266.8635045529183
  0
ARC
  5
8F6A
102
{ACAD_REACTORS
330
8F6F
102
}
330
747D
100
AcDbEntity
  8
0
100
AcDbCircle
 10
3680.136214331806
 20
223.208815808799
 30
0.0
 40
41.46378893304791
100
AcDbArc
 50
141.6476737862055
 51
263.3523262138002
  0
ARC
  5
8F6B
102
{ACAD_REACTORS
330
8F6F
102
}
330
747D
100
AcDbEntity
  8
0
100
AcDbCircle
 10
3680.136214331806
 20
223.208815808799
 30
0.0
 40
41.46378893304791
100
AcDbArc
 50
276.6476737861998
 51
38.35232621379456
  0
ARC
  5
8F6C
102
{ACAD_REACTORS
330
8F6F
102
}
330
747D
100
AcDbEntity
  8
0
100
AcDbCircle
 10
3680.136214331806
 20
223.208815808799
 30
0.0
 40
43.86378893304791
100
AcDbArc
 50
273.1364954470817
 51
41.86350455291424
  0
ARC
  5
8F6D
102
{ACAD_REACTORS
330
8F6F
102
}
330
747D
100
AcDbEntity
  8
0
100
AcDbCircle
 10
3680.136214331806
 20
223.208815808799
 30
0.0
 40
35.46378893304791
100
AcDbArc
 50
277.7788203119047
 51
37.22117968810881
  0
ARC
  5
8F6E
102
{ACAD_REACTORS
330
8F6F
102
}
330
747D
100
AcDbEntity
  8
0
100
AcDbCircle
 10
3680.136214331806
 20
223.208815808799
 30
0.0
 40
33.06378893304791
100
AcDbArc
 50
274.1625874111327
 51
40.83741258887877
  0
HATCH
  5
8F6F
330
747D
100
AcDbEntity
  8
0
100
AcDbHatch
 10
0.0
 20
0.0
 30
0.0
210
0.0
220
0.0
230
1.0
  2
SOLID
 70
     1
 71
     1
 91
        3
 92
        7
 72
     1
 73
     1
 93
        4
 10
3650.863349880541
 20
255.8757928097528
 42
0.0
 10
3658.515314664828
 20
248.2238280254651
 42
-0.3722683533228857
 10
3701.75711399877
 20
248.2238280254651
 42
0.0
 10
3709.409078783056
 20
255.8757928097575
 42
0.3824979940289507
 97
        4
330
8FAB
330
8FAF
330
8FA7
330
8FB0
 92
        7
 72
     1
 73
     1
 93
        4
 10
3712.803191332766
 20
252.4816802600626
 42
0.0
 10
3705.151226548463
 20
244.8297154757702
 42
-0.6168583269098949
 10
3682.536214331804
 20
190.2322462690617
 42
0.0
 10
3682.536214331804
 20
179.4107338923163
 42
0.6292889159380215
 97
        4
330
8FA9
330
8F6E
330
8F86
330
8F6C
 92
        7
 72
     1
 73
     1
 93
        4
 10
3677.736214331808
 20
179.4107338923163
 42
0.0
 10
3677.736214331808
 20
190.2322462690617
 42
-0.616858326910026
 10
3655.121202115134
 20
244.8297154757702
 42
0.0
 10
3647.469237330846
 20
252.481680260057
 42
0.6292889159379332
 97
        4
330
8F69
330
8F87
330
8F67
330
8FAD
 75
     0
 76
     1
 47
0.0143554168026844
 98
        4
 10
3699.348496783994
 20
260.8853257705127
 10
3708.313957346883
 20
246.9318614530635
 10
3708.313957346883
 20
246.9318614530635
 10
3652.969453356043
 20
246.4150661606036
  0
CIRCLE
  5
8F70
102
{ACAD_REACTORS
330
8F72
102
}
330
747D
100
AcDbEntity
  8
0
100
AcDbCircle
 10
3530.574782765003
 20
210.2682745452339
 30
0.0
 40
45.58512634354756
  0
CIRCLE
  5
8F71
102
{ACAD_REACTORS
330
8F72
102
}
330
747D
100
AcDbEntity
  8
0
100
AcDbCircle
 10
3530.574782765003
 20
210.2682745452339
 30
0.0
 40
47.98512634354756
  0
HATCH
  5
8F72
330
747D
100
AcDbEntity
  8
0
100
AcDbHatch
 10
0.0
 20
0.0
 30
0.0
210
0.0
220
0.0
230
1.0
  2
SOLID
 70
     1
 71
     1
 91
        4
 92
        7
 72
     1
 73
     1
 93
        2
 10
3578.559909108551
 20
210.2682745452339
 42
1.0
 10
3482.589656421455
 20
210.2682745452339
 42
1.0
 97
        1
330
8F71
 92
       22
 72
     1
 73
     1
 93
        2
 10
3576.159909108551
 20
210.2682745452339
 42
1.0
 10
3484.989656421455
 20
210.2682745452339
 42
1.0
 97
        1
330
8F70
 92
      136
 93
        4
 72
     1
 10
3506.027917163641
 20
206.3044577903927
 11
3557.113631449354
 21
206.3044577903927
 72
     1
 10
3557.113631449354
 20
206.3044577903927
 11
3557.113631449354
 21
254.2358863618213
 72
     1
 10
3557.113631449354
 20
254.2358863618213
 11
3506.027917163641
 21
254.2358863618213
 72
     1
 10
3506.027917163641
 20
254.2358863618213
 11
3506.027917163641
 21
206.3044577903927
 97
        1
330
8FA5
 92
      136
 93
        4
 72
     1
 10
3505.943546600864
 20
173.9107895613039
 11
3556.069260886579
 21
173.9107895613039
 72
     1
 10
3556.069260886579
 20
173.9107895613039
 11
3556.069260886579
 21
218.9622181327325
 72
     1
 10
3556.069260886579
 20
218.9622181327325
 11
3505.943546600864
 21
218.9622181327325
 72
     1
 10
3505.943546600864
 20
218.9622181327325
 11
3505.943546600864
 21
173.9107895613039
 97
        1
330
8F63
 75
     0
 76
     1
 47
0.0602706122334892
 98
        2
 10
3553.565068631324
 20
251.5175256460107
 10
3553.565068631324
 20
251.5175256460107
  0
LINE
  5
8F73
330
747D
100
AcDbEntity
  8
0
100
AcDbLine
 10
3334.531914893605
 20
150.0000000000036
 30
0.0
 11
3334.531914893605
 21
342.0000000000027
 31
0.0
  0
LINE
  5
8F74
330
747D
100
AcDbEntity
  8
0
 62
     0
100
AcDbLine
 10
3202.531914893604
 20
378.0000000000009
 30
0.0
 11
3202.531914893604
 21
150.0000000000036
 31
0.0
  0
CIRCLE
  5
8F75
102
{ACAD_REACTORS
330
8F78
102
}
330
747D
100
AcDbEntity
  8
0
100
AcDbCircle
 10
3272.244741943807
 20
205.9308629573688
 30
0.0
 40
45.58512634354756
  0
CIRCLE
  5
8F76
102
{ACAD_REACTORS
330
8F78
102
}
330
747D
100
AcDbEntity
  8
0
100
AcDbCircle
 10
3272.244741943807
 20
205.9308629573688
 30
0.0
 40
47.98512634354756
  0
TEXT
  5
8F77
330
747D
100
AcDbEntity
  8
0
 48
2.0
100
AcDbText
 10
3255.686447771028
 20
209.1019052168694
 30
0.0
 40
24.0
  1
河
  7
SANWA
100
AcDbText
  0
HATCH
  5
8F78
330
747D
100
AcDbEntity
  8
0
100
AcDbHatch
 10
0.0
 20
0.0
 30
0.0
210
0.0
220
0.0
230
1.0
  2
SOLID
 70
     1
 71
     1
 91
        2
 92
        7
 72
     1
 73
     1
 93
        2
 10
3320.229868287355
 20
205.9308629573688
 42
1.0
 10
3224.259615600259
 20
205.9308629573688
 42
1.0
 97
        1
330
8F76
 92
       22
 72
     1
 73
     1
 93
        2
 10
3317.829868287355
 20
205.9308629573688
 42
1.0
 10
3226.659615600259
 20
205.9308629573688
 42
1.0
 97
        1
330
8F75
 75
     0
 76
     1
 47
0.0602706122334892
 98
        2
 10
3295.235027810119
 20
247.1801140581456
 10
3295.235027810119
 20
247.1801140581456
  0
TEXT
  5
8F79
102
{ACAD_REACTORS
330
8F7D
102
}
330
747D
100
AcDbEntity
  8
0
 48
2.0
100
AcDbText
 10
3423.685385233716
 20
46.9478827426451
 30
0.0
 40
24.0
  1
嶋
  7
SANWA
100
AcDbText
  0
CIRCLE
  5
8F7A
102
{ACAD_REACTORS
330
8F7D
102
}
330
747D
100
AcDbEntity
  8
0
100
AcDbCircle
 10
3440.808049969283
 20
72.91679629800364
 30
0.0
 40
45.58512634354756
  0
CIRCLE
  5
8F7B
102
{ACAD_REACTORS
330
8F7D
102
}
330
747D
100
AcDbEntity
  8
0
100
AcDbCircle
 10
3440.808049969283
 20
72.91679629800364
 30
0.0
 40
47.98512634354756
  0
TEXT
  5
8F7C
102
{ACAD_REACTORS
330
8F7D
102
}
330
747D
100
AcDbEntity
  8
0
 48
2.0
100
AcDbText
 10
3424.249755796504
 20
80.9186938288767
 30
0.0
 40
24.0
  1
大
  7
SANWA
100
AcDbText
  0
HATCH
  5
8F7D
330
747D
100
AcDbEntity
  8
0
100
AcDbHatch
 10
0.0
 20
0.0
 30
0.0
210
0.0
220
0.0
230
1.0
  2
SOLID
 70
     1
 71
     1
 91
        4
 92
        7
 72
     1
 73
     1
 93
        2
 10
3488.79317631283
 20
72.91679629800364
 42
1.0
 10
3392.822923625735
 20
72.91679629800364
 42
1.0
 97
        1
330
8F7B
 92
       22
 72
     1
 73
     1
 93
        2
 10
3486.39317631283
 20
72.91679629800364
 42
1.0
 10
3395.222923625735
 20
72.91679629800364
 42
1.0
 97
        1
330
8F7A
 92
      136
 93
        4
 72
     1
 10
3416.638327225075
 20
71.11297954316242
 11
3466.969755796503
 21
71.11297954316242
 72
     1
 10
3466.969755796503
 20
71.11297954316242
 11
3466.969755796503
 21
116.7815509717338
 72
     1
 10
3466.969755796503
 20
116.7815509717338
 11
3416.638327225075
 21
116.7815509717338
 72
     1
 10
3416.638327225075
 20
116.7815509717338
 11
3416.638327225075
 21
71.11297954316242
 97
        1
330
8F7C
 92
      136
 93
        4
 72
     1
 10
3415.696813805144
 20
35.3935970283594
 11
3466.782528090858
 21
35.3935970283594
 72
     1
 10
3466.782528090858
 20
35.3935970283594
 11
3466.782528090858
 21
83.32502559978797
 72
     1
 10
3466.782528090858
 20
83.32502559978797
 11
3415.696813805144
 21
83.32502559978797
 72
     1
 10
3415.696813805144
 20
83.32502559978797
 11
3415.696813805144
 21
35.3935970283594
 97
        1
330
8F79
 75
     0
 76
     1
 47
0.0602706122334892
 98
        2
 10
3463.798335835603
 20
114.1660473987804
 10
3463.798335835603
 20
114.1660473987804
  0
TEXT
  5
8F7E
330
747D
100
AcDbEntity
  8
0
 48
2.0
100
AcDbText
 10
3255.12207720824
 20
175.1310941306374
 30
0.0
 40
24.0
  1
口
  7
SANWA
100
AcDbText
  0
TEXT
  5
8F7F
102
{ACAD_REACTORS
330
8F83
102
}
330
747D
100
AcDbEntity
  8
0
 48
2.0
100
AcDbText
 10
3302.854024831004
 20
79.6298332977849
 30
0.0
 40
24.0
  1
蒔
  7
SANWA
100
AcDbText
  0
CIRCLE
  5
8F80
102
{ACAD_REACTORS
330
8F83
102
}
330
747D
100
AcDbEntity
  8
0
100
AcDbCircle
 10
3319.412319003783
 20
72.91679629800364
 30
0.0
 40
47.98512634354756
  0
CIRCLE
  5
8F81
102
{ACAD_REACTORS
330
8F83
102
}
330
747D
100
AcDbEntity
  8
0
100
AcDbCircle
 10
3319.412319003783
 20
72.91679629800364
 30
0.0
 40
45.58512634354756
  0
TEXT
  5
8F82
102
{ACAD_REACTORS
330
8F83
102
}
330
747D
100
AcDbEntity
  8
0
 48
2.0
100
AcDbText
 10
3302.289654268228
 20
43.08129504455883
 30
0.0
 40
24.0
  1
田
  7
SANWA
100
AcDbText
  0
HATCH
  5
8F83
330
747D
100
AcDbEntity
  8
0
100
AcDbHatch
 10
0.0
 20
0.0
 30
0.0
210
0.0
220
0.0
230
1.0
  2
SOLID
 70
     1
 71
     1
 91
        4
 92
        7
 72
     1
 73
     1
 93
        2
 10
3367.39744534733
 20
72.91679629800364
 42
1.0
 10
3271.427192660235
 20
72.91679629800364
 42
1.0
 97
        1
330
8F80
 92
       22
 72
     1
 73
     1
 93
        2
 10
3364.99744534733
 20
72.91679629800364
 42
1.0
 10
3273.827192660235
 20
72.91679629800364
 42
1.0
 97
        1
330
8F81
 92
      136
 93
        4
 72
     1
 10
3294.934024831004
 20
68.28126186921346
 11
3345.882596259575
 21
68.28126186921346
 72
     1
 10
3345.882596259575
 20
68.28126186921346
 11
3345.882596259575
 21
115.8012618692135
 72
     1
 10
3345.882596259575
 20
115.8012618692135
 11
3294.934024831004
 21
115.8012618692135
 72
     1
 10
3294.934024831004
 20
115.8012618692135
 11
3294.934024831004
 21
68.28126186921346
 97
        1
330
8F7F
 92
       24
 93
        4
 72
     1
 10
3295.123939982514
 20
32.62415218741598
 11
3344.563939982514
 21
32.62415218741598
 72
     1
 10
3344.563939982514
 20
32.62415218741598
 11
3344.563939982514
 21
75.61843790170168
 72
     1
 10
3344.563939982514
 20
75.61843790170168
 11
3295.123939982514
 21
75.61843790170168
 72
     1
 10
3295.123939982514
 20
75.61843790170168
 11
3295.123939982514
 21
32.62415218741598
 97
        1
330
8F82
 75
     0
 76
     1
 47
0.0602706122334892
 98
        2
 10
3342.402604870109
 20
114.1660473987804
 10
3342.402604870109
 20
114.1660473987804
  0
LINE
  5
8F84
102
{ACAD_REACTORS
330
8F6F
102
}
330
747D
100
AcDbEntity
  8
0
100
AcDbLine
 10
3675.33621433181
 20
182.0237967765788
 30
0.0
 11
3675.33621433181
 21
188.0713667624081
 31
0.0
  0
LINE
  5
8F85
102
{ACAD_REACTORS
330
8F6F
102
}
330
747D
100
AcDbEntity
  8
0
100
AcDbLine
 10
3684.936214331801
 20
182.0237967765788
 30
0.0
 11
3684.936214331801
 21
188.0713667624081
 31
0.0
  0
LINE
  5
8F86
102
{ACAD_REACTORS
330
8F6F
102
}
330
747D
100
AcDbEntity
  8
0
100
AcDbLine
 10
3682.536214331804
 20
179.4107338923163
 30
0.0
 11
3682.536214331804
 21
190.2322462690617
 31
0.0
  0
LINE
  5
8F87
102
{ACAD_REACTORS
330
8F6F
102
}
330
747D
100
AcDbEntity
  8
0
100
AcDbLine
 10
3677.736214331808
 20
179.4107338923163
 30
0.0
 11
3677.736214331808
 21
190.2322462690617
 31
0.0
  0
TEXT
  5
8F88
330
747D
100
AcDbEntity
  8
0
 48
2.0
100
AcDbText
 10
3338.8098409558
 20
378.5853012973494
 30
0.0
 40
24.0
  1
1 : 15
  7
SANWA
100
AcDbText
  0
TEXT
  5
8F89
330
747D
100
AcDbEntity
  8
0
 48
2.0
100
AcDbText
 10
3369.075985825585
 20
277.1357177512946
 30
0.0
 40
24.0
  1
設計
  7
SANWA
100
AcDbText
  0
LINE
  5
8F8A
330
747D
100
AcDbEntity
  8
0
 62
     0
100
AcDbLine
 10
3202.531914893604
 20
270.0000000000037
 30
0.0
 11
3598.531914893611
 21
270.0000000000037
 31
0.0
  0
LINE
  5
8F8B
330
747D
100
AcDbEntity
  8
0
 62
     0
100
AcDbLine
 10
3202.531914893604
 20
426.0000000000045
 30
0.0
 11
3598.531914893611
 21
426.0000000000045
 31
0.0
  0
LINE
  5
8F8C
330
747D
100
AcDbEntity
  8
0
 62
     0
100
AcDbLine
 10
3202.531914893604
 20
474.0000000000017
 30
0.0
 11
3598.531914893611
 21
474.0000000000017
 31
0.0
  0
LINE
  5
8F8D
330
747D
100
AcDbEntity
  8
0
 62
     0
100
AcDbLine
 10
3202.531914893604
 20
546.0000000000045
 30
0.0
 11
3598.531914893611
 21
546.0000000000045
 31
0.0
  0
LINE
  5
8F8E
330
747D
100
AcDbEntity
  8
0
 62
     0
100
AcDbLine
 10
3202.531914893604
 20
546.0000000000045
 30
0.0
 11
3598.531914893611
 21
546.0000000000045
 31
0.0
  0
LINE
  5
8F8F
330
747D
100
AcDbEntity
  8
0
 62
     0
100
AcDbLine
 10
3202.531914893604
 20
342.0000000000027
 30
0.0
 11
3598.531914893611
 21
342.0000000000027
 31
0.0
  0
TEXT
  5
8F90
330
747D
100
AcDbEntity
  8
0
 48
2.0
100
AcDbText
 10
3326.458873159423
 20
434.3839146702166
 30
0.0
 40
24.0
  1
縮    尺
  7
SANWA
100
AcDbText
  0
TEXT
  5
8F91
330
747D
100
AcDbEntity
  8
0
 48
2.0
100
AcDbText
 10
3392.339284911464
 20
558.6411916425968
 30
0.0
 40
24.0
  1
番号
  7
SANWA
100
AcDbText
  0
TEXT
  5
8F92
330
747D
100
AcDbEntity
  8
0
 48
2.0
100
AcDbText
 10
3388.972302949391
 20
313.251379008484
 30
0.0
 40
24.0
  1
2001. 3. 5
  7
SANWA
100
AcDbText
  0
LINE
  5
8F93
330
747D
100
AcDbEntity
  8
0
100
AcDbLine
 10
3202.531914893604
 20
436.0565675879001
 30
0.0
 11
3202.531914893604
 21
529.2701469420889
 31
0.0
  0
LINE
  5
8F94
330
747D
100
AcDbEntity
  8
0
 62
     0
100
AcDbLine
 10
3202.531914893604
 20
522.0000000000027
 30
0.0
 11
3202.531914893604
 21
378.0000000000009
 31
0.0
  0
TEXT
  5
8F95
330
747D
100
AcDbEntity
  8
0
 48
2.0
100
AcDbText
 10
3231.216179933126
 20
275.7717951156465
 30
0.0
 40
24.0
  1
検図
  7
SANWA
100
AcDbText
  0
LINE
  5
8F96
330
747D
100
AcDbEntity
  8
0
100
AcDbLine
 10
3202.531914893604
 20
342.0000000000027
 30
0.0
 11
3202.531914893604
 21
378.0000000000009
 31
0.0
  0
LINE
  5
8F97
330
747D
100
AcDbEntity
  8
0
100
AcDbLine
 10
3202.531914893604
 20
378.0000000000009
 30
0.0
 11
3202.531914893604
 21
299.9351497097677
 31
0.0
  0
LINE
  5
8F98
330
747D
100
AcDbEntity
  8
0
100
AcDbLine
 10
3202.531914893604
 20
342.0000000000027
 30
0.0
 11
3202.531914893604
 21
306.0000000000014
 31
0.0
  0
LINE
  5
8F99
330
747D
100
AcDbEntity
  8
0
100
AcDbLine
 10
3202.531914893604
 20
402.0000000000027
 30
0.0
 11
3202.531914893604
 21
436.0565675879001
 31
0.0
  0
TEXT
  5
8F9A
330
747D
100
AcDbEntity
  8
0
 48
2.0
100
AcDbText
 10
3234.749396044363
 20
313.251379008484
 30
0.0
 40
24.0
  1
製図
  7
SANWA
100
AcDbText
  0
LINE
  5
8F9B
330
747D
100
AcDbEntity
  8
0
100
AcDbLine
 10
3202.531914893604
 20
594.0000000000018
 30
0.0
 11
3202.531914893604
 21
522.0000000000027
 31
0.0
  0
TEXT
  5
8F9C
330
747D
100
AcDbEntity
  8
0
 48
2.0
100
AcDbText
 10
3325.407362835249
 20
557.2772861648263
 30
0.0
 40
24.0
  1
図面
  7
SANWA
100
AcDbText
  0
TEXT
  5
8F9D
330
747D
100
AcDbEntity
  8
0
100
AcDbText
 10
3800.223100303954
 20
534.0000000000045
 30
0.0
 40
24.0
  1
マルチスリット側溝蓋
  7
SANWA
 72
     4
 11
3975.765957446811
 21
546.0000000000045
 31
0.0
100
AcDbText
  0
TEXT
  5
8F9E
330
747D
100
AcDbEntity
  8
0
 48
2.0
100
AcDbText
 10
3608.76342530841
 20
466.4348193000683
 30
0.0
 40
16.79999999999999
  1
呼
  7
SANWA
100
AcDbText
  0
LINE
  5
8F9F
330
747D
100
AcDbEntity
  8
0
100
AcDbLine
 10
3646.531914893607
 20
306.0000000000014
 30
0.0
 11
3646.531914893607
 21
594.0000000000018
 31
0.0
  0
TEXT
  5
8FA0
330
747D
100
AcDbEntity
  8
0
 48
2.0
100
AcDbText
 10
3608.865365864922
 20
419.9263485547308
 30
0.0
 40
16.79999999999999
  1
名
  7
SANWA
100
AcDbText
  0
TEXT
  5
8FA1
330
747D
100
AcDbEntity
  8
0
 48
2.0
100
AcDbText
 10
3608.525134886844
 20
443.4326160008049
 30
0.0
 40
16.79999999999999
  1
び
  7
SANWA
100
AcDbText
  0
TEXT
  5
8FA2
330
747D
100
AcDbEntity
  8
0
 48
2.0
100
AcDbText
 10
3609.288067929338
 20
360.6846153128745
 30
0.0
 40
16.79999999999999
  1
規
  7
SANWA
100
AcDbText
  0
TEXT
  5
8FA3
330
747D
100
AcDbEntity
  8
0
 48
2.0
100
AcDbText
 10
3609.288067929338
 20
324.9410917409396
 30
0.0
 40
16.79999999999999
  1
格
  7
SANWA
100
AcDbText
  0
TEXT
  5
8FA4
330
747D
100
AcDbEntity
  8
0
 48
2.0
100
AcDbText
 10
3498.749396044368
 20
277.2513790084827
 30
0.0
 40
24.0
  1
製図
  7
SANWA
100
AcDbText
  0
TEXT
  5
8FA5
102
{ACAD_REACTORS
330
8F72
102
}
330
747D
100
AcDbEntity
  8
0
 48
2.0
100
AcDbText
 10
3514.016488592211
 20
218.270172076107
 30
0.0
 40
24.0
  1
中
  7
SANWA
100
AcDbText
  0
LINE
  5
8FA6
102
{ACAD_REACTORS
330
8F6F
102
}
330
747D
100
AcDbEntity
  8
0
100
AcDbLine
 10
3701.588030276413
 20
251.448856852795
 30
0.0
 11
3705.864308023087
 21
255.7251345994782
 31
0.0
  0
LINE
  5
8FA7
102
{ACAD_REACTORS
330
8F6F
102
}
330
747D
100
AcDbEntity
  8
0
100
AcDbLine
 10
3701.75711399877
 20
248.2238280254651
 30
0.0
 11
3709.409078783056
 21
255.8757928097575
 31
0.0
  0
LINE
  5
8FA8
102
{ACAD_REACTORS
330
8F6F
102
}
330
747D
100
AcDbEntity
  8
0
100
AcDbLine
 10
3708.376255375803
 20
244.6606317534051
 30
0.0
 11
3712.652533122477
 21
248.9369095000848
 31
0.0
  0
LINE
  5
8FA9
102
{ACAD_REACTORS
330
8F6F
102
}
330
747D
100
AcDbEntity
  8
0
100
AcDbLine
 10
3705.151226548463
 20
244.8297154757702
 30
0.0
 11
3712.803191332766
 21
252.4816802600626
 31
0.0
  0
LINE
  5
8FAA
102
{ACAD_REACTORS
330
8F6F
102
}
330
747D
100
AcDbEntity
  8
0
100
AcDbLine
 10
3658.684398387199
 20
251.448856852795
 30
0.0
 11
3654.408120640525
 21
255.7251345994746
 31
0.0
  0
LINE
  5
8FAB
102
{ACAD_REACTORS
330
8F6F
102
}
330
747D
100
AcDbEntity
  8
0
100
AcDbLine
 10
3658.515314664828
 20
248.2238280254651
 30
0.0
 11
3650.816888003552
 21
255.9222546867423
 31
0.0
  0
LINE
  5
8FAC
102
{ACAD_REACTORS
330
8F6F
102
}
330
747D
100
AcDbEntity
  8
0
100
AcDbLine
 10
3651.896173287809
 20
244.6606317534051
 30
0.0
 11
3647.619895541135
 21
248.9369095000848
 31
0.0
  0
LINE
  5
8FAD
102
{ACAD_REACTORS
330
8F6F
102
}
330
747D
100
AcDbEntity
  8
0
100
AcDbLine
 10
3655.121202115134
 20
244.8297154757702
 30
0.0
 11
3647.422775453855
 21
252.5281421370473
 31
0.0
  0
ARC
  5
8FAE
102
{ACAD_REACTORS
330
8F6F
102
}
330
747D
100
AcDbEntity
  8
0
100
AcDbCircle
 10
3680.136214331806
 20
223.208815808799
 30
0.0
 40
35.46378893304791
100
AcDbArc
 50
52.77882031189539
 51
127.2211796881046
  0
ARC
  5
8FAF
102
{ACAD_REACTORS
330
8F6F
102
}
330
747D
100
AcDbEntity
  8
0
100
AcDbCircle
 10
3680.136214331806
 20
223.208815808799
 30
0.0
 40
33.06378893304791
100
AcDbArc
 50
49.16258741112231
 51
130.8374125888779
  0
ARC
  5
8FB0
102
{ACAD_REACTORS
330
8F6F
102
}
330
747D
100
AcDbEntity
  8
0
100
AcDbCircle
 10
3680.136214331806
 20
223.208815808799
 30
0.0
 40
43.86378893304791
100
AcDbArc
 50
48.13649544707415
 51
131.8635045529259
  0
ARC
  5
8FB1
102
{ACAD_REACTORS
330
8F6F
102
}
330
747D
100
AcDbEntity
  8
0
100
AcDbCircle
 10
3680.136214331806
 20
223.208815808799
 30
0.0
 40
41.46378893304791
100
AcDbArc
 50
51.64767378620888
 51
128.3523262137916
  0
TEXT
  5
8FB2
330
747D
100
AcDbEntity
  8
0
100
AcDbText
 10
3666.709002834926
 20
230.6320916026389
 30
0.0
 40
18.0
  1
三
  7
SANWA
100
AcDbText
  0
TEXT
  5
8FB3
330
747D
100
AcDbEntity
  8
0
 48
2.0
100
AcDbText
 10
3608.833038597699
 20
520.9962632445931
 30
0.0
 40
16.79999999999999
  1
名
  7
SANWA
100
AcDbText
  0
TEXT
  5
8FB4
330
747D
100
AcDbEntity
  8
0
 48
2.0
100
AcDbText
 10
3609.743097260976
 20
560.3768966870493
 30
0.0
 40
16.79999999999999
  1
品
  7
SANWA
100
AcDbText
  0
LINE
  5
8FB5
330
747D
100
AcDbEntity
  8
0
100
AcDbLine
 10
3598.531914893611
 20
594.0000000000018
 30
0.0
 11
3621.277272305448
 21
594.0000000000018
 31
0.0
  0
TEXT
  5
8FB6
330
747D
100
AcDbEntity
  8
0
100
AcDbText
 10
3923.103100303953
 20
436.6971428571464
 30
0.0
 40
24.0
  1
Ｓ２型
  7
SANWA
 72
     4
 11
3975.765957446811
 21
450.0000000000036
 31
0.0
100
AcDbText
  0
TEXT
  5
8FB7
330
747D
100
AcDbEntity
  8
0
100
AcDbText
 10
3905.548814589668
 20
341.5885714285732
 30
0.0
 40
24.0
  1
６００用
  7
SANWA
 72
     4
 11
3975.765957446811
 21
354.0000000000018
 31
0.0
100
AcDbText
  0
LINE
  5
8FB8
330
747D
100
AcDbEntity
  8
0
 48
15.0
100
AcDbLine
 10
2517.190960854839
 20
2277.660492837419
 30
0.0
 11
3517.190960854839
 21
2277.660492837419
 31
0.0
  0
LINE
  5
8FB9
330
747D
100
AcDbEntity
  8
0
 48
15.0
100
AcDbLine
 10
2517.190960854839
 20
2137.660492837419
 30
0.0
 11
3517.190960854839
 21
2137.660492837419
 31
0.0
  0
LINE
  5
8FBA
330
747D
100
AcDbEntity
  8
0
  6
HIDDEN2
 48
15.0
100
AcDbLine
 10
2517.190960854839
 20
2257.660492837419
 30
0.0
 11
3517.190960854839
 21
2257.660492837419
 31
0.0
  0
LINE
  5
8FBB
330
747D
100
AcDbEntity
  8
0
  6
HIDDEN2
 48
15.0
100
AcDbLine
 10
2517.190960854839
 20
2219.660492837419
 30
0.0
 11
3517.190960854839
 21
2219.660492837419
 31
0.0
  0
DIMENSION
  5
8FBC
330
747D
100
AcDbEntity
  8
寸法引出
 48
15.0
100
AcDbDimension
  2
*D265
 10
3517.190960854839
 20
2365.903236528777
 30
0.0
 11
3017.190960854839
 21
2395.903236528777
 31
0.0
 70
    32
 71
     5
 42
1000.0
  3
SANWA
100
AcDbAlignedDimension
 13
2517.190960854839
 23
2277.660492837419
 33
0.0
 14
3517.190960854839
 24
2277.660492837419
 34
0.0
100
AcDbRotatedDimension
1001
ACAD
1000
DSTYLE
1002
{
1070
   140
1040
2.0
1070
    40
1040
15.0
1070
   147
1040
1.0
1070
    44
1040
0.5
1070
    43
1040
5.0
1070
   178
1070
   256
1070
   177
1070
   256
1070
   176
1070
   256
1070
    41
1040
1.5
1002
}
  0
DIMENSION
  5
8FBD
330
747D
100
AcDbEntity
  8
寸法引出
 48
15.0
100
AcDbDimension
  2
*D266
 10
3397.190960854839
 20
2042.336728575762
 30
0.0
 11
3017.190960854839
 21
2072.336728575761
 31
0.0
 70
    32
 71
     5
 42
760.0
  3
SANWA
100
AcDbAlignedDimension
 13
2637.190960854839
 23
2137.660492837419
 33
0.0
 14
3397.190960854839
 24
2137.660492837419
 34
0.0
100
AcDbRotatedDimension
1001
ACAD
1000
DSTYLE
1002
{
1070
    40
1040
15.0
1070
    41
1040
1.5
1070
    43
1040
5.0
1070
    44
1040
0.5
1070
    75
1070
     1
1070
   140
1040
2.0
1070
   147
1040
1.0
1070
   176
1070
   256
1070
   177
1070
   256
1070
   178
1070
   256
1070
   279
1070
     1
1002
}
  0
LINE
  5
8FBE
330
747D
100
AcDbEntity
  8
0
100
AcDbLine
 10
1580.786875991942
 20
2688.000000000001
 30
0.0
 11
2978.823011691151
 21
2688.000000000001
 31
0.0
  0
LINE
  5
8FBF
330
747D
100
AcDbEntity
  8
0
100
AcDbLine
 10
1580.786875991942
 20
2700.0
 30
0.0
 11
2978.823011691151
 21
2700.0
 31
0.0
  0
TEXT
  5
8FC0
330
747D
100
AcDbEntity
  8
0
100
AcDbText
 10
1590.720635305496
 20
2722.768990422261
 30
0.0
 40
42.0
  1
マルチスリット側溝蓋 Ｓ２型 ６００用
  7
SANWA
 72
     4
 11
2143.680635305496
 21
2743.768990422261
 31
0.0
100
AcDbText
  0
MTEXT
  5
8FC1
330
747D
100
AcDbEntity
  8
寸法引出
  6
ByBlock
 48
15.0
100
AcDbMText
 10
1895.471801422891
 20
2298.88059349184
 30
0.0
 40
30.0
 41
0.0
 71
     5
 72
     1
  1
6%
  7
SANWA
 11
0.9982487810126611
 21
0.0591554833192689
 31
0.0
 73
     1
 44
1.0
1001
ACAD
1000
MTEXTBEGIN
1070
    73
1070
     1
1070
    44
1040
1.0
1070
    74
1070
     0
1000
MTEXTEND
  0
DIMENSION
  5
8FC2
330
747D
100
AcDbEntity
  8
寸法引出
 48
15.0
100
AcDbDimension
  2
*D267
 10
1723.869096113077
 20
2370.452059747299
 30
0.0
 11
1691.369096113077
 21
2400.452059747299
 31
0.0
 70
    32
 71
     5
 42
65.0
  3
SANWA
100
AcDbAlignedDimension
 13
1658.869096113077
 23
2257.660492837418
 33
0.0
 14
1723.869096113077
 24
2257.660492837419
 34
0.0
100
AcDbRotatedDimension
1001
ACAD
1000
DSTYLE
1002
{
1070
    40
1040
15.0
1070
    41
1040
1.5
1070
    43
1040
5.0
1070
    44
1040
0.5
1070
    75
1070
     1
1070
   140
1040
2.0
1070
   147
1040
1.0
1070
   176
1070
   256
1070
   177
1070
   256
1070
   178
1070
   256
1070
   279
1070
     1
1002
}
  0
DIMENSION
  5
8FC3
330
747D
100
AcDbEntity
  8
寸法引出
 48
15.0
100
AcDbDimension
  2
*D268
 10
2061.369096113077
 20
2370.452059747299
 30
0.0
 11
1892.619096113077
 21
2400.452059747299
 31
0.0
 70
    32
 71
     5
 42
337.5
  3
SANWA
100
AcDbAlignedDimension
 13
1723.869096113077
 23
2257.660492837419
 33
0.0
 14
2061.369096113077
 24
2277.660492837419
 34
0.0
100
AcDbRotatedDimension
1001
ACAD
1000
DSTYLE
1002
{
1070
    40
1040
15.0
1070
    41
1040
1.5
1070
    43
1040
5.0
1070
    44
1040
0.5
1070
    75
1070
     1
1070
   140
1040
2.0
1070
   147
1040
1.0
1070
   176
1070
   256
1070
   177
1070
   256
1070
   178
1070
   256
1070
   279
1070
     1
1002
}
  0
MTEXT
  5
8FC4
330
747D
100
AcDbEntity
  8
寸法引出
  6
ByBlock
 48
15.0
100
AcDbMText
 10
1486.277097927155
 20
2298.7860963487
 30
0.0
 40
30.0
 41
0.0
 71
     5
 72
     1
  1
6%
  7
SANWA
 11
0.9982487810126606
 21
-0.0591554833192778
 31
0.0
 73
     1
 44
1.0
1001
ACAD
1000
MTEXTBEGIN
1070
    73
1070
     1
1070
    44
1040
1.0
1070
    74
1070
     0
1000
MTEXTEND
  0
DIMENSION
  5
8FC5
330
747D
100
AcDbEntity
  8
寸法引出
 48
15.0
100
AcDbDimension
  2
*D269
 10
1236.759794480416
 20
2277.660492837419
 30
0.0
 11
1206.759794480415
 21
2267.660492837419
 31
0.0
 70
    32
 71
     5
 42
20.0
  3
SANWA
100
AcDbAlignedDimension
 13
1321.369096113077
 23
2257.660492837419
 33
0.0
 14
1321.369096113077
 24
2277.660492837419
 34
0.0
 50
90.0
100
AcDbRotatedDimension
1001
ACAD
1000
DSTYLE
1002
{
1070
    40
1040
15.0
1070
    41
1040
1.5
1070
    43
1040
5.0
1070
    44
1040
0.5
1070
    75
1070
     1
1070
   140
1040
2.0
1070
   147
1040
1.0
1070
   176
1070
   256
1070
   177
1070
   256
1070
   178
1070
   256
1070
   279
1070
     1
1002
}
  0
DIMENSION
  5
8FC6
330
747D
100
AcDbEntity
  8
寸法引出
 48
15.0
100
AcDbDimension
  2
*D270
 10
1658.869096113077
 20
2370.452059747299
 30
0.0
 11
1490.119096113077
 21
2400.452059747299
 31
0.0
 70
    32
 71
     5
 42
337.5
  3
SANWA
100
AcDbAlignedDimension
 13
1321.369096113077
 23
2277.660492837419
 33
0.0
 14
1658.869096113077
 24
2257.660492837418
 34
0.0
100
AcDbRotatedDimension
1001
ACAD
1000
DSTYLE
1002
{
1070
   140
1040
2.0
1070
    40
1040
15.0
1070
   147
1040
1.0
1070
    44
1040
0.5
1070
    43
1040
5.0
1070
   178
1070
   256
1070
   177
1070
   256
1070
   176
1070
   256
1070
    41
1040
1.5
1002
}
  0
DIMENSION
  5
8FC7
330
747D
100
AcDbEntity
  8
寸法引出
 48
15.0
100
AcDbDimension
  2
*D271
 10
2061.369096113077
 20
2428.944088443952
 30
0.0
 11
1691.369096113077
 21
2458.944088443951
 31
0.0
 70
    32
 71
     5
 42
740.0
  3
SANWA
100
AcDbAlignedDimension
 13
1321.369096113077
 23
2277.660492837419
 33
0.0
 14
2061.369096113077
 24
2277.660492837419
 34
0.0
100
AcDbRotatedDimension
1001
ACAD
1000
DSTYLE
1002
{
1070
   140
1040
2.0
1070
    40
1040
15.0
1070
   147
1040
1.0
1070
    44
1040
0.5
1070
    43
1040
5.0
1070
   178
1070
   256
1070
   177
1070
   256
1070
   176
1070
   256
1070
    41
1040
1.5
1002
}
  0
DIMENSION
  5
8FC8
330
747D
100
AcDbEntity
  8
寸法引出
 48
15.0
100
AcDbDimension
  2
*D272
 10
2429.431582317739
 20
2277.660492837419
 30
0.0
 11
2399.431582317738
 21
2267.660492837419
 31
0.0
 70
    32
 71
     5
 42
20.0
  3
SANWA
100
AcDbAlignedDimension
 13
2517.190960854839
 23
2257.660492837419
 33
0.0
 14
2517.190960854839
 24
2277.660492837419
 34
0.0
 50
90.0
100
AcDbRotatedDimension
1001
ACAD
1000
DSTYLE
1002
{
1070
    40
1040
15.0
1070
    41
1040
1.5
1070
    43
1040
5.0
1070
    44
1040
0.5
1070
    75
1070
     1
1070
   140
1040
2.0
1070
   147
1040
1.0
1070
   176
1070
   256
1070
   177
1070
   256
1070
   178
1070
   256
1070
   279
1070
     1
1002
}
  0
LINE
  5
8FC9
330
747D
100
AcDbEntity
  8
寸法引出
 48
15.0
100
AcDbLine
 10
1843.261910642393
 20
2273.132645062578
 30
0.0
 11
1928.518169631147
 21
2278.184867817468
 31
0.0
  0
LINE
  5
8FCA
330
747D
100
AcDbEntity
  8
0
 48
15.0
100
AcDbLine
 10
1723.869096113077
 20
2257.660492837419
 30
0.0
 11
2061.369096113077
 21
2277.660492837419
 31
0.0
  0
LINE
  5
8FCB
330
747D
100
AcDbEntity
  8
0
 48
15.0
100
AcDbLine
 10
1739.369096113077
 20
2137.660492837419
 30
0.0
 11
2061.369096113077
 21
2137.660492837419
 31
0.0
  0
DIMENSION
  5
8FCC
330
747D
100
AcDbEntity
  8
寸法引出
 48
15.0
100
AcDbDimension
  2
*D273
 10
2061.369096113077
 20
1671.94919920686
 30
0.0
 11
1892.619096113077
 21
1701.94919920686
 31
0.0
 70
    32
 71
     5
 42
337.5
  3
SANWA
100
AcDbAlignedDimension
 13
1723.869096113077
 23
1570.212554762415
 33
0.0
 14
2061.369096113077
 24
1570.212554762415
 34
0.0
100
AcDbRotatedDimension
1001
ACAD
1000
DSTYLE
1002
{
1070
    40
1040
15.0
1070
    41
1040
1.5
1070
    43
1040
5.0
1070
    44
1040
0.5
1070
    75
1070
     1
1070
   140
1040
2.0
1070
   147
1040
1.0
1070
   176
1070
   256
1070
   177
1070
   256
1070
   178
1070
   256
1070
   279
1070
     1
1002
}
  0
LINE
  5
8FCD
330
747D
100
AcDbEntity
  8
0
 48
15.0
100
AcDbLine
 10
1321.369096113077
 20
1570.212554762415
 30
0.0
 11
2061.369096113077
 21
1570.212554762415
 31
0.0
  0
DIMENSION
  5
8FCE
330
747D
100
AcDbEntity
  8
寸法引出
 48
15.0
100
AcDbDimension
  2
*D274
 10
2061.369096113077
 20
1986.662266365879
 30
0.0
 11
1900.369096113077
 21
2016.662266365878
 31
0.0
 70
    32
 71
     5
 42
322.0
  3
SANWA
100
AcDbAlignedDimension
 13
1739.369096113077
 23
2137.660492837419
 33
0.0
 14
2061.369096113077
 24
2137.660492837419
 34
0.0
100
AcDbRotatedDimension
1001
ACAD
1000
DSTYLE
1002
{
1070
    40
1040
15.0
1070
    41
1040
1.5
1070
    43
1040
5.0
1070
    44
1040
0.5
1070
    75
1070
     1
1070
   140
1040
2.0
1070
   147
1040
1.0
1070
   176
1070
   256
1070
   177
1070
   256
1070
   178
1070
   256
1070
   279
1070
     1
1002
}
  0
DIMENSION
  5
8FCF
330
747D
100
AcDbEntity
  8
寸法引出
 48
15.0
100
AcDbDimension
  2
*D275
 10
1658.869096113077
 20
1671.94919920686
 30
0.0
 11
1490.119096113077
 21
1701.94919920686
 31
0.0
 70
    32
 71
     5
 42
337.5
  3
SANWA
100
AcDbAlignedDimension
 13
1321.369096113077
 23
1570.212554762415
 33
0.0
 14
1658.869096113077
 24
1570.212554762415
 34
0.0
100
AcDbRotatedDimension
1001
ACAD
1000
DSTYLE
1002
{
1070
   140
1040
2.0
1070
    40
1040
15.0
1070
   147
1040
1.0
1070
    44
1040
0.5
1070
    43
1040
5.0
1070
   178
1070
   256
1070
   177
1070
   256
1070
   176
1070
   256
1070
    41
1040
1.5
1002
}
  0
DIMENSION
  5
8FD0
330
747D
100
AcDbEntity
  8
寸法引出
 48
15.0
100
AcDbDimension
  2
*D276
 10
1207.27348145064
 20
1450.212554762415
 30
0.0
 11
1177.27348145064
 21
1510.212554762415
 31
0.0
 70
    32
 71
     5
 42
120.0
  3
SANWA
100
AcDbAlignedDimension
 13
1321.369096113077
 23
1570.212554762415
 33
0.0
 14
1321.369096113077
 24
1450.212554762415
 34
0.0
 50
90.0
100
AcDbRotatedDimension
1001
ACAD
1000
DSTYLE
1002
{
1070
   140
1040
2.0
1070
    40
1040
15.0
1070
   147
1040
1.0
1070
    44
1040
0.5
1070
    43
1040
5.0
1070
   178
1070
   256
1070
   177
1070
   256
1070
   176
1070
   256
1070
    41
1040
1.5
1002
}
  0
CIRCLE
  5
8FD1
330
747D
100
AcDbEntity
  8
0
 48
15.0
100
AcDbCircle
 10
1356.369096113077
 20
1450.212554762415
 30
0.0
 40
10.0
  0
DIMENSION
  5
8FD2
330
747D
100
AcDbEntity
  8
寸法引出
 48
15.0
100
AcDbDimension
  2
*D277
 10
1723.869096113077
 20
1671.94919920686
 30
0.0
 11
1691.369096113077
 21
1701.94919920686
 31
0.0
 70
    32
 71
     5
 42
65.0
  3
SANWA
100
AcDbAlignedDimension
 13
1658.869096113077
 23
1570.212554762415
 33
0.0
 14
1723.869096113077
 24
1570.212554762415
 34
0.0
100
AcDbRotatedDimension
1001
ACAD
1000
DSTYLE
1002
{
1070
   140
1040
2.0
1070
    40
1040
15.0
1070
   147
1040
1.0
1070
    44
1040
0.5
1070
    43
1040
5.0
1070
   178
1070
   256
1070
   177
1070
   256
1070
   176
1070
   256
1070
    41
1040
1.5
1002
}
  0
LINE
  5
8FD3
330
747D
100
AcDbEntity
  8
寸法引出
 48
15.0
100
AcDbLine
 10
1539.476281583761
 20
2273.132645062578
 30
0.0
 11
1454.220022595006
 21
2278.184867817468
 31
0.0
  0
LINE
  5
8FD4
330
747D
100
AcDbEntity
  8
0
 48
15.0
100
AcDbLine
 10
1321.369096113077
 20
2137.660492837419
 30
0.0
 11
1643.369096113078
 21
2137.660492837419
 31
0.0
  0
LINE
  5
8FD5
330
747D
100
AcDbEntity
  8
0
 48
15.0
100
AcDbLine
 10
1321.369096113077
 20
2277.660492837419
 30
0.0
 11
1658.869096113077
 21
2257.660492837419
 31
0.0
  0
DIMENSION
  5
8FD6
330
747D
100
AcDbEntity
  8
寸法引出
 48
15.0
100
AcDbDimension
  2
*D278
 10
1643.369096113078
 20
1986.662266365879
 30
0.0
 11
1482.369096113077
 21
2016.662266365878
 31
0.0
 70
    32
 71
     5
 42
322.0000000000009
  3
SANWA
100
AcDbAlignedDimension
 13
1321.369096113077
 23
2137.660492837419
 33
0.0
 14
1643.369096113078
 24
2137.660492837419
 34
0.0
100
AcDbRotatedDimension
1001
ACAD
1000
DSTYLE
1002
{
1070
   140
1040
2.0
1070
    40
1040
15.0
1070
   147
1040
1.0
1070
    44
1040
0.5
1070
    43
1040
5.0
1070
   178
1070
   256
1070
   177
1070
   256
1070
   176
1070
   256
1070
    41
1040
1.5
1002
}
  0
DIMENSION
  5
8FD7
330
747D
100
AcDbEntity
  8
寸法引出
 48
15.0
100
AcDbDimension
  2
*D279
 10
1236.759794480416
 20
2257.660492837419
 30
0.0
 11
1206.759794480415
 21
2197.660492837419
 31
0.0
 70
    32
 71
     5
 42
120.0
  3
SANWA
100
AcDbAlignedDimension
 13
1321.369096113077
 23
2137.660492837419
 33
0.0
 14
1321.369096113077
 24
2257.660492837419
 34
0.0
 50
90.0
100
AcDbRotatedDimension
1001
ACAD
1000
DSTYLE
1002
{
1070
   140
1040
2.0
1070
    40
1040
15.0
1070
   147
1040
1.0
1070
    44
1040
0.5
1070
    43
1040
5.0
1070
   178
1070
   256
1070
   177
1070
   256
1070
   176
1070
   256
1070
    41
1040
1.5
1002
}
  0
DIMENSION
  5
8FD8
330
747D
100
AcDbEntity
  8
寸法引出
 48
15.0
100
AcDbDimension
  2
*D280
 10
1356.369096113077
 20
2044.128117817388
 30
0.0
 11
1338.869096113077
 21
2074.128117817387
 31
0.0
 70
    32
 71
     5
 42
35.0
  3
SANWA
100
AcDbAlignedDimension
 13
1321.369096113077
 23
2137.660492837419
 33
0.0
 14
1356.369096113077
 24
2137.660492837419
 34
0.0
100
AcDbRotatedDimension
1001
ACAD
1000
DSTYLE
1002
{
1070
   140
1040
2.0
1070
    40
1040
15.0
1070
   147
1040
1.0
1070
    44
1040
0.5
1070
    43
1040
5.0
1070
   178
1070
   256
1070
   177
1070
   256
1070
   176
1070
   256
1070
    41
1040
1.5
1002
}
  0
LINE
  5
8FD9
330
747D
100
AcDbEntity
  8
0
  6
HIDDEN2
 48
5.0
100
AcDbLine
 10
1346.369096113077
 20
2170.660492837419
 30
0.0
 11
1366.369096113077
 21
2170.660492837419
 31
0.0
  0
LINE
  5
8FDA
330
747D
100
AcDbEntity
  8
0
  6
HIDDEN2
 48
5.0
100
AcDbLine
 10
1346.369096113077
 20
2170.660492837419
 30
0.0
 11
1346.369096113077
 21
2137.660492837419
 31
0.0
  0
LINE
  5
8FDB
330
747D
100
AcDbEntity
  8
0
  6
HIDDEN2
 48
5.0
100
AcDbLine
 10
1366.369096113077
 20
2170.660492837419
 30
0.0
 11
1366.369096113077
 21
2137.660492837419
 31
0.0
  0
LINE
  5
8FDC
330
747D
100
AcDbEntity
  8
0
 48
15.0
100
AcDbLine
 10
1321.369096113077
 20
2277.660492837419
 30
0.0
 11
1321.369096113077
 21
2137.660492837419
 31
0.0
  0
DIMENSION
  5
8FDD
330
747D
100
AcDbEntity
  8
寸法引出
 48
15.0
100
AcDbDimension
  2
*D281
 10
1739.369096113077
 20
1986.662266365879
 30
0.0
 11
1691.369096113077
 21
2016.662266365878
 31
0.0
 70
    32
 71
     5
 42
95.99999999999909
  3
SANWA
100
AcDbAlignedDimension
 13
1643.369096113078
 23
2137.660492837419
 33
0.0
 14
1739.369096113077
 24
2137.660492837419
 34
0.0
100
AcDbRotatedDimension
1001
ACAD
1000
DSTYLE
1002
{
1070
   140
1040
2.0
1070
    40
1040
15.0
1070
   147
1040
1.0
1070
    44
1040
0.5
1070
    43
1040
5.0
1070
   178
1070
   256
1070
   177
1070
   256
1070
   176
1070
   256
1070
    41
1040
1.5
1002
}
  0
LINE
  5
8FDE
330
747D
100
AcDbEntity
  8
0
 48
15.0
100
AcDbLine
 10
1658.869096113076
 20
2257.660492837419
 30
0.0
 11
1723.869096113077
 21
2257.660492837419
 31
0.0
  0
LINE
  5
8FDF
330
747D
100
AcDbEntity
  8
0
 48
15.0
100
AcDbLine
 10
1658.869096113078
 20
2219.660492837419
 30
0.0
 11
1723.869096113077
 21
2219.660492837419
 31
0.0
  0
LINE
  5
8FE0
330
747D
100
AcDbEntity
  8
0
 48
15.0
100
AcDbLine
 10
1648.369096113076
 20
2217.360492837419
 30
0.0
 11
1734.369096113077
 21
2217.360492837419
 31
0.0
  0
LINE
  5
8FE1
330
747D
100
AcDbEntity
  8
0
 48
15.0
100
AcDbLine
 10
1643.933713428008
 20
2146.660492837419
 30
0.0
 11
1738.804478798144
 21
2146.660492837419
 31
0.0
  0
MTEXT
  5
8FE2
330
747D
100
AcDbEntity
  8
寸法引出
  6
ByBlock
 48
15.0
100
AcDbMText
 10
1675.566492309771
 20
2116.506095470889
 30
0.0
 40
30.0
 41
0.0
 71
     5
 72
     1
  1
\A1;9
  7
SANWA
 11
0.0000000000000001
 21
1.0
 31
0.0
 73
     1
 44
1.0
1001
ACAD
1000
MTEXTBEGIN
1070
    73
1070
     1
1070
    44
1040
1.0
1070
    74
1070
     0
1000
MTEXTEND
  0
LINE
  5
8FE3
330
747D
100
AcDbEntity
  8
0
 48
15.0
100
AcDbLine
 10
1658.869096113076
 20
2257.660492837419
 30
0.0
 11
1723.869096113077
 21
2219.660492837419
 31
0.0
  0
LINE
  5
8FE4
330
747D
100
AcDbEntity
  8
0
 48
15.0
100
AcDbLine
 10
1658.869096113078
 20
2219.660492837419
 30
0.0
 11
1723.869096113077
 21
2257.660492837419
 31
0.0
  0
DIMENSION
  5
8FE5
330
747D
100
AcDbEntity
  8
寸法引出
 48
15.0
100
AcDbDimension
  2
*D282
 10
1734.369096113077
 20
2044.128117817388
 30
0.0
 11
1691.369096113077
 21
2074.128117817387
 31
0.0
 70
    32
 71
     5
 42
86.0
  3
SANWA
100
AcDbAlignedDimension
 13
1648.369096113077
 23
2146.660492837419
 33
0.0
 14
1734.369096113077
 24
2146.660492837419
 34
0.0
100
AcDbRotatedDimension
1001
ACAD
1000
DSTYLE
1002
{
1070
   140
1040
2.0
1070
    40
1040
15.0
1070
   147
1040
1.0
1070
    44
1040
0.5
1070
    43
1040
5.0
1070
   178
1070
   256
1070
   177
1070
   256
1070
   176
1070
   256
1070
    41
1040
1.5
1002
}
  0
LINE
  5
8FE6
330
747D
100
AcDbEntity
  8
0
 48
15.0
100
AcDbLine
 10
1648.369096113077
 20
2217.360492837419
 30
0.0
 11
1643.369096113077
 21
2137.660492837419
 31
0.0
  0
LINE
  5
8FE7
330
747D
100
AcDbEntity
  8
0
 48
15.0
100
AcDbLine
 10
1658.869096113077
 20
2257.660492837419
 30
0.0
 11
1658.869096113078
 21
2219.660492837419
 31
0.0
  0
LINE
  5
8FE8
330
747D
100
AcDbEntity
  8
寸法引出
 48
15.0
100
AcDbLine
 10
1539.476281583761
 20
2273.132645062578
 30
0.0
 11
1519.235079403411
 21
2282.067081809691
 31
0.0
  0
LINE
  5
8FE9
330
747D
100
AcDbEntity
  8
寸法引出
 48
15.0
100
AcDbLine
 10
1843.261910642393
 20
2273.132645062578
 30
0.0
 11
1863.503112822743
 21
2282.067081809691
 31
0.0
  0
LINE
  5
8FEA
330
747D
100
AcDbEntity
  8
0
 48
15.0
100
AcDbLine
 10
1734.369096113077
 20
2217.360492837419
 30
0.0
 11
1739.369096113077
 21
2137.660492837419
 31
0.0
  0
LINE
  5
8FEB
330
747D
100
AcDbEntity
  8
寸法引出
  6
ByBlock
 48
15.0
100
AcDbLine
 10
1723.804478798144
 20
2146.660492837419
 30
0.0
 11
1698.066492309771
 21
2146.660492837419
 31
0.0
  0
LINE
  5
8FEC
330
747D
100
AcDbEntity
  8
寸法引出
  6
ByBlock
 48
15.0
100
AcDbLine
 10
1724.369096113077
 20
2137.660492837419
 30
0.0
 11
1698.066492309771
 21
2137.660492837419
 31
0.0
  0
LINE
  5
8FED
330
747D
100
AcDbEntity
  8
寸法引出
  6
ByBlock
 48
15.0
100
AcDbLine
 10
1705.566492309771
 20
2169.160492837419
 30
0.0
 11
1705.566492309771
 21
2191.660492837419
 31
0.0
  0
LINE
  5
8FEE
330
747D
100
AcDbEntity
  8
寸法引出
  6
ByBlock
 48
15.0
100
AcDbLine
 10
1705.566492309771
 20
2146.660492837419
 30
0.0
 11
1705.566492309771
 21
2137.660492837419
 31
0.0
  0
SOLID
  5
8FEF
330
747D
100
AcDbEntity
  8
寸法引出
  6
ByBlock
 48
15.0
100
AcDbTrace
 10
1701.816492309771
 20
2169.160492837419
 30
0.0
 11
1709.316492309771
 21
2169.160492837419
 31
0.0
 12
1705.566492309771
 22
2146.660492837419
 32
0.0
 13
1705.566492309771
 23
2146.660492837419
 33
0.0
  0
POINT
  5
8FF0
330
747D
100
AcDbEntity
  8
DEFPOINTS
  6
ByBlock
 62
     0
 48
15.0
100
AcDbPoint
 10
1738.804478798144
 20
2146.660492837419
 30
0.0
  0
POINT
  5
8FF1
330
747D
100
AcDbEntity
  8
DEFPOINTS
  6
ByBlock
 62
     0
 48
15.0
100
AcDbPoint
 10
1739.369096113077
 20
2137.660492837419
 30
0.0
  0
POINT
  5
8FF2
330
747D
100
AcDbEntity
  8
寸法引出
  6
ByBlock
 62
     0
 48
15.0
100
AcDbPoint
 10
1705.566492309771
 20
2137.660492837419
 30
0.0
  0
LINE
  5
8FF3
330
747D
100
AcDbEntity
  8
寸法引出
  6
ByBlock
 48
15.0
100
AcDbLine
 10
1705.566492309771
 20
2115.160492837419
 30
0.0
 11
1705.566492309771
 21
2092.660492837419
 31
0.0
  0
SOLID
  5
8FF4
330
747D
100
AcDbEntity
  8
寸法引出
  6
ByBlock
 48
15.0
100
AcDbTrace
 10
1701.816492309771
 20
2115.160492837419
 30
0.0
 11
1709.316492309771
 21
2115.160492837419
 31
0.0
 12
1705.566492309771
 22
2137.660492837419
 32
0.0
 13
1705.566492309771
 23
2137.660492837419
 33
0.0
  0
LINE
  5
8FF5
330
747D
100
AcDbEntity
  8
0
 48
15.0
100
AcDbLine
 10
1723.869096113077
 20
2257.660492837419
 30
0.0
 11
1723.869096113077
 21
2219.660492837419
 31
0.0
  0
DIMENSION
  5
8FF6
330
747D
100
AcDbEntity
  8
寸法引出
 48
15.0
100
AcDbDimension
  2
*D283
 10
1804.176137544257
 20
2217.360492837419
 30
0.0
 11
1774.176137544257
 21
2218.510492837419
 31
0.0
 70
    32
 71
     5
 42
2.300000000000181
  3
SANWA
100
AcDbAlignedDimension
 13
1723.869096113077
 23
2219.660492837419
 33
0.0
 14
1734.369096113077
 24
2217.360492837419
 34
0.0
 50
90.0
100
AcDbRotatedDimension
1001
ACAD
1000
DSTYLE
1002
{
1070
   140
1040
2.0
1070
    40
1040
15.0
1070
   147
1040
1.0
1070
    44
1040
0.5
1070
    43
1040
5.0
1070
   178
1070
   256
1070
   177
1070
   256
1070
   176
1070
   256
1070
    41
1040
1.5
1002
}
  0
MTEXT
  5
8FF7
330
747D
100
AcDbEntity
  8
寸法引出
  6
ByBlock
 48
15.0
100
AcDbMText
 10
2420.326366861357
 20
1271.782005563912
 30
0.0
 40
30.0
 41
0.0
 71
     5
 72
     1
  1
ｸﾞﾚｰﾁﾝｸﾞ 65×38×998
  7
SANWA
 73
     1
 44
1.0
1001
ACAD
1000
MTEXTBEGIN
1070
    73
1070
     1
1070
    44
1040
1.0
1070
    74
1070
     0
1000
MTEXTEND
  0
CIRCLE
  5
8FF8
330
747D
100
AcDbEntity
  8
0
 48
15.0
100
AcDbCircle
 10
2026.369096113077
 20
1450.212554762415
 30
0.0
 40
10.0
  0
DIMENSION
  5
8FF9
330
747D
100
AcDbEntity
  8
寸法引出
 48
15.0
100
AcDbDimension
  2
*D284
 10
2153.418645053088
 20
2137.660492837419
 30
0.0
 11
2123.418645053087
 21
2207.660492837419
 31
0.0
 70
    32
 71
     5
 42
140.0
  3
SANWA
100
AcDbAlignedDimension
 13
2061.369096113077
 23
2277.660492837419
 33
0.0
 14
2061.369096113077
 24
2137.660492837419
 34
0.0
 50
90.0
100
AcDbRotatedDimension
1001
ACAD
1000
DSTYLE
1002
{
1070
   140
1040
2.0
1070
    40
1040
15.0
1070
   147
1040
1.0
1070
    44
1040
0.5
1070
    43
1040
5.0
1070
   178
1070
   256
1070
   177
1070
   256
1070
   176
1070
   256
1070
    41
1040
1.5
1002
}
  0
DIMENSION
  5
8FFA
330
747D
100
AcDbEntity
  8
寸法引出
 48
15.0
100
AcDbDimension
  2
*D285
 10
2061.369096113077
 20
2044.128117817388
 30
0.0
 11
2043.869096113077
 21
2074.128117817387
 31
0.0
 70
    32
 71
     5
 42
35.0
  3
SANWA
100
AcDbAlignedDimension
 13
2026.369096113077
 23
2137.660492837419
 33
0.0
 14
2061.369096113077
 24
2137.660492837419
 34
0.0
100
AcDbRotatedDimension
1001
ACAD
1000
DSTYLE
1002
{
1070
   140
1040
2.0
1070
    40
1040
15.0
1070
   147
1040
1.0
1070
    44
1040
0.5
1070
    43
1040
5.0
1070
   178
1070
   256
1070
   177
1070
   256
1070
   176
1070
   256
1070
    41
1040
1.5
1002
}
  0
LINE
  5
8FFB
330
747D
100
AcDbEntity
  8
0
  6
HIDDEN2
 48
5.0
100
AcDbLine
 10
2036.369096113077
 20
2170.660492837419
 30
0.0
 11
2036.369096113077
 21
2137.660492837419
 31
0.0
  0
LINE
  5
8FFC
330
747D
100
AcDbEntity
  8
0
 48
15.0
100
AcDbLine
 10
2061.369096113077
 20
2277.660492837419
 30
0.0
 11
2061.369096113077
 21
2137.660492837419
 31
0.0
  0
LINE
  5
8FFD
330
747D
100
AcDbEntity
  8
0
  6
HIDDEN2
 48
5.0
100
AcDbLine
 10
2016.369096113077
 20
2170.660492837419
 30
0.0
 11
2016.369096113077
 21
2137.660492837419
 31
0.0
  0
LINE
  5
8FFE
330
747D
100
AcDbEntity
  8
0
  6
HIDDEN2
 48
5.0
100
AcDbLine
 10
2016.369096113077
 20
2170.660492837419
 30
0.0
 11
2036.369096113077
 21
2170.660492837419
 31
0.0
  0
DIMENSION
  5
8FFF
330
747D
100
AcDbEntity
  8
寸法引出
 48
15.0
100
AcDbDimension
  2
*D286
 10
2429.431582317739
 20
2257.660492837419
 30
0.0
 11
2399.431582317738
 21
2197.660492837419
 31
0.0
 70
    32
 71
     5
 42
120.0
  3
SANWA
100
AcDbAlignedDimension
 13
2517.190960854839
 23
2137.660492837419
 33
0.0
 14
2517.190960854839
 24
2257.660492837419
 34
0.0
 50
90.0
100
AcDbRotatedDimension
1001
ACAD
1000
DSTYLE
1002
{
1070
   140
1040
2.0
1070
    40
1040
15.0
1070
   147
1040
1.0
1070
    44
1040
0.5
1070
    43
1040
5.0
1070
   178
1070
   256
1070
   177
1070
   256
1070
   176
1070
   256
1070
    41
1040
1.5
1002
}
  0
LINE
  5
9000
330
747D
100
AcDbEntity
  8
0
  6
HIDDEN2
 48
5.0
100
AcDbLine
 10
2627.190960854838
 20
2170.660492837418
 30
0.0
 11
2627.190960854838
 21
2137.660492837419
 31
0.0
  0
LINE
  5
9001
330
747D
100
AcDbEntity
  8
0
  6
HIDDEN2
 48
5.0
100
AcDbLine
 10
2647.190960854839
 20
2170.660492837418
 30
0.0
 11
2647.190960854839
 21
2137.660492837419
 31
0.0
  0
LINE
  5
9002
330
747D
100
AcDbEntity
  8
0
  6
HIDDEN2
 48
5.0
100
AcDbLine
 10
2627.190960854838
 20
2170.660492837418
 30
0.0
 11
2647.190960854839
 21
2170.660492837418
 31
0.0
  0
LINE
  5
9003
330
747D
100
AcDbEntity
  8
0
  6
HIDDEN2
 48
10.0
100
AcDbLine
 10
2547.190960854839
 20
2146.660492837419
 30
0.0
 11
2607.190960854838
 21
2146.660492837419
 31
0.0
  0
LINE
  5
9004
330
747D
100
AcDbEntity
  8
0
  6
HIDDEN2
 48
10.0
100
AcDbLine
 10
2542.190960854839
 20
2219.660492837419
 30
0.0
 11
2547.190960854839
 21
2146.660492837419
 31
0.0
  0
LINE
  5
9005
330
747D
100
AcDbEntity
  8
0
  6
HIDDEN2
 48
10.0
100
AcDbLine
 10
2607.190960854838
 20
2146.660492837419
 30
0.0
 11
2612.190960854839
 21
2219.660492837419
 31
0.0
  0
LINE
  5
9006
330
747D
100
AcDbEntity
  8
0
 48
15.0
100
AcDbLine
 10
2517.190960854839
 20
2277.660492837419
 30
0.0
 11
2517.190960854839
 21
2137.660492837419
 31
0.0
  0
DIMENSION
  5
9007
330
747D
100
AcDbEntity
  8
寸法引出
 48
15.0
100
AcDbDimension
  2
*D287
 10
2637.190960854839
 20
2042.336728575762
 30
0.0
 11
2577.190960854839
 21
2072.336728575761
 31
0.0
 70
    32
 71
     5
 42
120.0
  3
SANWA
100
AcDbAlignedDimension
 13
2517.190960854839
 23
2137.660492837419
 33
0.0
 14
2637.190960854839
 24
2137.660492837419
 34
0.0
100
AcDbRotatedDimension
1001
ACAD
1000
DSTYLE
1002
{
1070
   140
1040
2.0
1070
    40
1040
15.0
1070
   147
1040
1.0
1070
    44
1040
0.5
1070
    43
1040
5.0
1070
   178
1070
   256
1070
   177
1070
   256
1070
   176
1070
   256
1070
    41
1040
1.5
1002
}
  0
LINE
  5
9008
330
747D
100
AcDbEntity
  8
0
  6
HIDDEN2
 48
10.0
100
AcDbLine
 10
3422.190960854839
 20
2219.660492837419
 30
0.0
 11
3427.190960854839
 21
2146.660492837419
 31
0.0
  0
DIMENSION
  5
9009
330
747D
100
AcDbEntity
  8
寸法引出
 48
15.0
100
AcDbDimension
  2
*D288
 10
3517.190960854839
 20
2042.336728575762
 30
0.0
 11
3457.190960854839
 21
2072.336728575761
 31
0.0
 70
    32
 71
     5
 42
120.0
  3
SANWA
100
AcDbAlignedDimension
 13
3397.190960854839
 23
2137.660492837419
 33
0.0
 14
3517.190960854839
 24
2137.660492837419
 34
0.0
100
AcDbRotatedDimension
1001
ACAD
1000
DSTYLE
1002
{
1070
    40
1040
15.0
1070
    41
1040
1.5
1070
    43
1040
5.0
1070
    44
1040
0.5
1070
    75
1070
     1
1070
   140
1040
2.0
1070
   147
1040
1.0
1070
   176
1070
   256
1070
   177
1070
   256
1070
   178
1070
   256
1070
   279
1070
     1
1002
}
  0
LINE
  5
900A
330
747D
100
AcDbEntity
  8
0
  6
HIDDEN2
 48
10.0
100
AcDbLine
 10
2840.190960854839
 20
2146.660492837419
 30
0.0
 11
2900.190960854839
 21
2146.660492837419
 31
0.0
  0
LINE
  5
900B
330
747D
100
AcDbEntity
  8
0
  6
HIDDEN2
 48
10.0
100
AcDbLine
 10
2835.190960854839
 20
2219.660492837419
 30
0.0
 11
2840.190960854839
 21
2146.660492837419
 31
0.0
  0
LINE
  5
900C
330
747D
100
AcDbEntity
  8
0
  6
HIDDEN2
 48
10.0
100
AcDbLine
 10
2900.190960854839
 20
2146.660492837419
 30
0.0
 11
2905.190960854838
 21
2219.660492837419
 31
0.0
  0
LINE
  5
900D
330
747D
100
AcDbEntity
  8
0
  6
HIDDEN2
 48
10.0
100
AcDbLine
 10
3134.190960854839
 20
2146.660492837419
 30
0.0
 11
3194.190960854839
 21
2146.660492837419
 31
0.0
  0
LINE
  5
900E
330
747D
100
AcDbEntity
  8
0
  6
HIDDEN2
 48
10.0
100
AcDbLine
 10
3129.190960854839
 20
2219.660492837419
 30
0.0
 11
3134.190960854839
 21
2146.660492837419
 31
0.0
  0
LINE
  5
900F
330
747D
100
AcDbEntity
  8
0
  6
HIDDEN2
 48
10.0
100
AcDbLine
 10
3194.190960854839
 20
2146.660492837419
 30
0.0
 11
3199.190960854839
 21
2219.660492837419
 31
0.0
  0
LINE
  5
9010
330
747D
100
AcDbEntity
  8
0
  6
HIDDEN2
 48
5.0
100
AcDbLine
 10
3387.190960854838
 20
2170.660492837418
 30
0.0
 11
3387.190960854839
 21
2137.660492837419
 31
0.0
  0
LINE
  5
9011
330
747D
100
AcDbEntity
  8
0
  6
HIDDEN2
 48
5.0
100
AcDbLine
 10
3407.190960854839
 20
2170.660492837418
 30
0.0
 11
3407.190960854839
 21
2137.660492837419
 31
0.0
  0
LINE
  5
9012
330
747D
100
AcDbEntity
  8
0
  6
HIDDEN2
 48
5.0
100
AcDbLine
 10
3387.190960854838
 20
2170.660492837418
 30
0.0
 11
3407.190960854839
 21
2170.660492837418
 31
0.0
  0
DIMENSION
  5
9013
330
747D
100
AcDbEntity
  8
寸法引出
 48
15.0
100
AcDbDimension
  2
*D197
 10
3635.340063038377
 20
2137.660492837419
 30
0.0
 11
3605.340063038376
 21
2207.660492837419
 31
0.0
 70
    32
 71
     5
 42
140.0
  3
SANWA
100
AcDbAlignedDimension
 13
3517.190960854839
 23
2277.660492837419
 33
0.0
 14
3517.190960854839
 24
2137.660492837419
 34
0.0
 50
90.0
100
AcDbRotatedDimension
1001
ACAD
1000
DSTYLE
1002
{
1070
   140
1040
2.0
1070
    40
1040
15.0
1070
   147
1040
1.0
1070
    44
1040
0.5
1070
    43
1040
5.0
1070
   178
1070
   256
1070
   177
1070
   256
1070
   176
1070
   256
1070
    41
1040
1.5
1002
}
  0
LINE
  5
9014
330
747D
100
AcDbEntity
  8
0
  6
HIDDEN2
 48
10.0
100
AcDbLine
 10
3487.190960854839
 20
2146.660492837419
 30
0.0
 11
3492.190960854838
 21
2219.660492837419
 31
0.0
  0
LINE
  5
9015
330
747D
100
AcDbEntity
  8
0
 48
15.0
100
AcDbLine
 10
3517.190960854839
 20
2277.660492837419
 30
0.0
 11
3517.190960854839
 21
2137.660492837419
 31
0.0
  0
LINE
  5
9016
330
747D
100
AcDbEntity
  8
0
  6
HIDDEN2
 48
10.0
100
AcDbLine
 10
3427.190960854839
 20
2146.660492837419
 30
0.0
 11
3487.190960854839
 21
2146.660492837419
 31
0.0
  0
TEXT
  5
9017
330
747D
100
AcDbEntity
  8
0
100
AcDbText
 10
2750.925044041802
 20
2726.694704707976
 30
0.0
 40
36.0
  1
W=235㎏
  7
SANWA
 72
     4
 11
2843.085044041801
 21
2743.768990422261
 31
0.0
100
AcDbText
  0
LINE
  5
9155
330
747D
100
AcDbEntity
  8
枠
100
AcDbLine
 10
4305.0
 20
150.0
 30
0.0
 11
4305.0
 21
3000.0
 31
0.0
  0
LINE
  5
9156
330
747D
100
AcDbEntity
  8
0
100
AcDbLine
 10
4455.0
 20
0.0
 30
0.0
 11
4305.0
 21
0.0
 31
0.0
  0
LINE
  5
9157
330
747D
100
AcDbEntity
  8
0
100
AcDbLine
 10
4455.0
 20
150.0
 30
0.0
 11
4455.0
 21
0.0
 31
0.0
  0
LINE
  5
9158
330
747D
100
AcDbEntity
  8
0
100
AcDbLine
 10
4455.0
 20
3150.0
 30
0.0
 11
4455.0
 21
3000.0
 31
0.0
  0
LINE
  5
9159
330
747D
100
AcDbEntity
  8
0
100
AcDbLine
 10
4305.0
 20
3150.0
 30
0.0
 11
4455.0
 21
3150.0
 31
0.0
  0
VIEWPORT
  5
7540
102
{ACAD_XDICTIONARY
360
9E55
102
}
330
747A
100
AcDbEntity
 67
     1
  8
0
100
AcDbViewport
 10
4956.671251352442
 20
729.9552313388804
 30
0.0
 40
14977.21627275514
 41
9810.076658654615
 68
     1
 69
     1
 12
4956.671251352442
 22
729.9552313388804
 13
0.0
 23
0.0
 14
10.0
 24
10.0
 15
10.0
 25
10.0
 16
0.0
 26
0.0
 36
1.0
 17
0.0
 27
0.0
 37
0.0
 42
50.0
 43
0.0
 44
0.0
 45
9810.076658654615
 50
0.0
 51
0.0
 72
   100
 90
    32800
  1

281
     0
 71
     1
 74
     0
110
0.0
120
0.0
130
0.0
111
1.0
121
0.0
131
0.0
112
0.0
122
1.0
132
0.0
 79
     0
146
0.0
  0
TEXT
  5
7737
330
747A
100
AcDbEntity
 67
     1
  8
0
 48
2.0
100
AcDbText
 10
331.871196811185
 20
20.60428158404022
 30
0.0
 40
2.0
  1

  7
SANWA
100
AcDbText
  0
ENDSEC
  0
SECTION
  2
OBJECTS
  0
DICTIONARY
  5
7471
330
0
100
AcDbDictionary
281
     1
  3
ACAD_COLOR
350
9A89
  3
ACAD_GROUP
350
7472
  3
ACAD_LAYOUT
350
877A
  3
ACAD_MATERIAL
350
9A5F
  3
ACAD_MLEADERSTYLE
350
9AAE
  3
ACAD_MLINESTYLE
350
7473
  3
ACAD_PLOTSETTINGS
350
877B
  3
ACAD_PLOTSTYLENAME
350
8778
  3
ACAD_SCALELIST
350
9A8C
  3
ACAD_TABLESTYLE
350
9A8A
  3
ACAD_VISUALSTYLE
350
9A78
  3
ACDB_RECOMPOSE_DATA
350
9E53
  3
ACDBVARIABLEDICTIONARY
350
789B
  3
DWGPROPS
350
9E54
  0
DICTIONARY
  5
9E24
330
7474
100
AcDbDictionary
280
     1
281
     1
  3
ADSK_XREC_LAYER_RECONCILED
360
9E25
  0
DICTIONARY
  5
9E26
330
7486
100
AcDbDictionary
280
     1
281
     1
  3
ADSK_XREC_LAYER_RECONCILED
360
9E27
  0
DICTIONARY
  5
9E28
330
7950
100
AcDbDictionary
280
     1
281
     1
  3
ADSK_XREC_LAYER_RECONCILED
360
9E29
  0
DICTIONARY
  5
9E2A
330
7D58
100
AcDbDictionary
280
     1
281
     1
  3
ADSK_XREC_LAYER_RECONCILED
360
9E2B
  0
DICTIONARY
  5
9E2C
330
7D59
100
AcDbDictionary
280
     1
281
     1
  3
ADSK_XREC_LAYER_RECONCILED
360
9E2D
  0
DICTIONARY
  5
9E2E
330
7D5A
100
AcDbDictionary
280
     1
281
     1
  3
ADSK_XREC_LAYER_RECONCILED
360
9E2F
  0
DICTIONARY
  5
9E55
330
7540
100
AcDbDictionary
280
     1
281
     1
  3
ACAD_XREC_ROUNDTRIP
360
9E56
  0
DICTIONARY
  5
9A89
102
{ACAD_REACTORS
330
7471
102
}
330
7471
100
AcDbDictionary
281
     1
  0
DICTIONARY
  5
7472
102
{ACAD_REACTORS
330
7471
102
}
330
0
100
AcDbDictionary
281
     1
  0
DICTIONARY
  5
877A
102
{ACAD_REACTORS
330
7471
102
}
330
7471
100
AcDbDictionary
281
     1
  3
Model
350
877C
  3
ﾚｲｱｳﾄ1
350
877D
  0
DICTIONARY
  5
9A5F
102
{ACAD_REACTORS
330
7471
102
}
330
7471
100
AcDbDictionary
281
     1
  3
ByBlock
350
9A68
  3
ByLayer
350
9A60
  3
Global
350
9A70
  0
DICTIONARY
  5
9AAE
102
{ACAD_REACTORS
330
7471
102
}
330
7471
100
AcDbDictionary
281
     1
  3
Standard
350
9AAF
  0
DICTIONARY
  5
7473
102
{ACAD_REACTORS
330
7471
102
}
330
0
100
AcDbDictionary
281
     1
  3
STANDARD
350
7480
  0
DICTIONARY
  5
877B
102
{ACAD_REACTORS
330
7471
102
}
330
7471
100
AcDbDictionary
281
     1
  0
ACDBDICTIONARYWDFLT
  5
8778
102
{ACAD_REACTORS
330
7471
102
}
330
7471
100
AcDbDictionary
281
     1
  3
Normal
350
8779
100
AcDbDictionaryWithDefault
340
8779
  0
DICTIONARY
  5
9A8C
102
{ACAD_REACTORS
330
7471
102
}
330
7471
100
AcDbDictionary
281
     1
  3
A0
350
9A8D
  3
A1
350
9A8E
  3
A2
350
9A8F
  3
A3
350
9A90
  3
A4
350
9A91
  3
A5
350
9A92
  3
A6
350
9A93
  3
A7
350
9A94
  3
A8
350
9A95
  3
A9
350
9A96
  3
B0
350
9A97
  3
B1
350
9A98
  3
B2
350
9A99
  3
B3
350
9A9A
  3
B4
350
9A9B
  3
B5
350
9A9C
  3
B6
350
9A9D
  3
B7
350
9A9E
  3
B8
350
9A9F
  3
B9
350
9AA0
  3
C0
350
9AA1
  3
C1
350
9AA2
  3
C2
350
9AA3
  3
C3
350
9AA4
  3
C4
350
9AA5
  3
C5
350
9AA6
  3
C6
350
9AA7
  3
C7
350
9AA8
  3
C8
350
9AA9
  3
C9
350
9AAA
  3
D0
350
9AAB
  3
D1
350
9AAC
  3
D2
350
9AAD
  0
DICTIONARY
  5
9A8A
102
{ACAD_REACTORS
330
7471
102
}
330
7471
100
AcDbDictionary
281
     1
  3
Standard
350
9A8B
  0
DICTIONARY
  5
9A78
102
{ACAD_REACTORS
330
7471
102
}
330
7471
100
AcDbDictionary
281
     1
  3
2dWireframe
350
9A7E
  3
3D Hidden
350
9A80
  3
3dWireframe
350
9A7F
  3
Basic
350
9A7D
  3
Brighten
350
9A84
  3
ColorChange
350
9A88
  3
Conceptual
350
9A81
  3
Dim
350
9A83
  3
Facepattern
350
9A87
  3
Flat
350
9A79
  3
FlatWithEdges
350
9A7A
  3
Gouraud
350
9A7B
  3
GouraudWithEdges
350
9A7C
  3
Linepattern
350
9A86
  3
Realistic
350
9A82
  3
Thicken
350
9A85
  0
XRECORD
  5
9E53
102
{ACAD_REACTORS
330
7471
102
}
330
7471
100
AcDbXrecord
280
     1
 90
        1
330
9A8B
  0
DICTIONARY
  5
789B
102
{ACAD_REACTORS
330
7471
102
}
330
7471
100
AcDbDictionary
281
     1
  3
CANNOSCALE
350
9E4F
  3
CMLEADERSTYLE
350
9E4E
  3
CTABLESTYLE
350
9E4D
  3
DIMASSOC
350
9A5D
  3
INDEXCTL
350
9E50
  3
SORTENTS
350
789C
  0
XRECORD
  5
9E54
102
{ACAD_REACTORS
330
7471
102
}
330
7471
100
AcDbXrecord
280
     1
  1
DWGPROPS COOKIE
  2

  3

  4

  6

  7

  8
ooshima
  9

300
=
301
=
302
=
303
=
304
=
305
=
306
=
307
=
308
=
309
=
 40
0.0568747569444445
 41
2451974.41341794
 42
2455412.454962107
  1

 90
        0
  0
XRECORD
  5
9E25
102
{ACAD_REACTORS
330
9E24
102
}
330
9E24
100
AcDbXrecord
280
     1
290
     1
  0
XRECORD
  5
9E27
102
{ACAD_REACTORS
330
9E26
102
}
330
9E26
100
AcDbXrecord
280
     1
290
     1
  0
XRECORD
  5
9E29
102
{ACAD_REACTORS
330
9E28
102
}
330
9E28
100
AcDbXrecord
280
     1
290
     1
  0
XRECORD
  5
9E2B
102
{ACAD_REACTORS
330
9E2A
102
}
330
9E2A
100
AcDbXrecord
280
     1
290
     1
  0
XRECORD
  5
9E2D
102
{ACAD_REACTORS
330
9E2C
102
}
330
9E2C
100
AcDbXrecord
280
     1
290
     1
  0
XRECORD
  5
9E2F
102
{ACAD_REACTORS
330
9E2E
102
}
330
9E2E
100
AcDbXrecord
280
     1
290
     1
  0
XRECORD
  5
9E56
102
{ACAD_REACTORS
330
9E55
102
}
330
9E55
100
AcDbXrecord
280
     1
102
SHADEPLOT
 70
     0
  0
LAYOUT
  5
877C
102
{ACAD_XDICTIONARY
360
9E57
102
}
102
{ACAD_REACTORS
330
877A
102
}
330
877A
100
AcDbPlotSettings
  1

  2
DocuWorks Printer
  4
A4
  6

 40
5.408082962036132
 41
5.408079147338867
 42
5.4080810546875
 43
5.4080810546875
 44
210.0156707763672
 45
297.0106506347656
 46
4.599753379821777
 47
12.09724521636963
 48
375.0
 49
150.0
140
4305.0
141
3000.0
142
1.0
143
15.0
 70
 11940
 72
     1
 73
     1
 74
     4
  7
sanwa3.ctb
 75
     0
147
0.0666666666666667
148
-375.0
149
-150.0
100
AcDbLayout
  1
Model
 70
     1
 71
     0
 10
0.0
 20
0.0
 11
12.0
 21
9.0
 12
0.0
 22
0.0
 32
0.0
 14
0.0
 24
0.0
 34
0.0
 15
0.0
 25
0.0
 35
0.0
146
0.0
 13
0.0
 23
0.0
 33
0.0
 16
1.0
 26
0.0
 36
0.0
 17
0.0
 27
1.0
 37
0.0
 76
     0
330
747D
331
9A5C
1001
ACAD_PSEXT
1000
DocuWorks Printer
1000
DocuWorks Printer Driver
1000
DocuWorks Port
1000

1070
     0
  0
LAYOUT
  5
877D
102
{ACAD_XDICTIONARY
360
9E59
102
}
102
{ACAD_REACTORS
330
877A
102
}
330
877A
100
AcDbPlotSettings
  1

  2
FX DocuCentre Color f360
  4
A4
  6

 40
4.857749938964843
 41
4.942390441894531
 42
4.942413330078125
 43
4.857757568359375
 44
209.9733276367187
 45
297.0106506347656
 46
0.0
 47
0.0
 48
0.0
 49
0.0
140
0.0
141
0.0
142
1.0
143
34.51934166799267
 70
   688
 72
     1
 73
     1
 74
     1
  7
sanwa3.ctb
 75
     0
147
0.0289692662628972
148
0.4874453695083503
149
3608.606190953344
100
AcDbLayout
  1
ﾚｲｱｳﾄ1
 70
     1
 71
     1
 10
-168.1740386119829
 20
-3776.292520834142
 11
10084.43808968229
 21
3471.848517023121
 12
0.0
 22
0.0
 32
0.0
 14
-0.4874453695083503
 24
-3608.606190953344
 34
-0.0000000349181948
 15
9913.830025361917
 25
3046.274182619196
 35
0.0000000814935746
146
0.0
 13
0.0
 23
0.0
 33
0.0
 16
1.0
 26
0.0
 36
0.0
 17
0.0
 27
1.0
 37
0.0
 76
     0
330
747A
331
7540
  0
MATERIAL
  5
9A68
102
{ACAD_XDICTIONARY
360
9A69
102
}
102
{ACAD_REACTORS
330
9A5F
102
}
330
9A5F
100
AcDbMaterial
  1
ByBlock
 72
     0
 43
0.0208333333333333
 43
0.0
 43
0.0
 43
0.0
 43
0.0
 43
0.0208333333333333
 43
0.0
 43
0.0
 43
0.0
 43
0.0
 43
1.0
 43
0.0
 43
0.0
 43
0.0
 43
0.0
 43
1.0
 77
     0
 47
0.0208333333333333
 47
0.0
 47
0.0
 47
0.0
 47
0.0
 47
0.0208333333333333
 47
0.0
 47
0.0
 47
0.0
 47
0.0
 47
1.0
 47
0.0
 47
0.0
 47
0.0
 47
0.0
 47
1.0
171
     0
 49
0.0208333333333333
 49
0.0
 49
0.0
 49
0.0
 49
0.0
 49
0.0208333333333333
 49
0.0
 49
0.0
 49
0.0
 49
0.0
 49
1.0
 49
0.0
 49
0.0
 49
0.0
 49
0.0
 49
1.0
175
     0
142
0.0208333333333333
142
0.0
142
0.0
142
0.0
142
0.0
142
0.0208333333333333
142
0.0
142
0.0
142
0.0
142
0.0
142
1.0
142
0.0
142
0.0
142
0.0
142
0.0
142
1.0
179
     0
144
0.0208333333333333
144
0.0
144
0.0
144
0.0
144
0.0
144
0.0208333333333333
144
0.0
144
0.0
144
0.0
144
0.0
144
1.0
144
0.0
144
0.0
144
0.0
144
0.0
144
1.0
147
0.0208333333333333
147
0.0
147
0.0
147
0.0
147
0.0
147
0.0208333333333333
147
0.0
147
0.0
147
0.0
147
0.0
147
1.0
147
0.0
147
0.0
147
0.0
147
0.0
147
1.0
  0
MATERIAL
  5
9A60
102
{ACAD_XDICTIONARY
360
9A61
102
}
102
{ACAD_REACTORS
330
9A5F
102
}
330
9A5F
100
AcDbMaterial
  1
ByLayer
 72
     0
 43
0.0208333333333333
 43
0.0
 43
0.0
 43
0.0
 43
0.0
 43
0.0208333333333333
 43
0.0
 43
0.0
 43
0.0
 43
0.0
 43
1.0
 43
0.0
 43
0.0
 43
0.0
 43
0.0
 43
1.0
 77
     0
 47
0.0208333333333333
 47
0.0
 47
0.0
 47
0.0
 47
0.0
 47
0.0208333333333333
 47
0.0
 47
0.0
 47
0.0
 47
0.0
 47
1.0
 47
0.0
 47
0.0
 47
0.0
 47
0.0
 47
1.0
171
     0
 49
0.0208333333333333
 49
0.0
 49
0.0
 49
0.0
 49
0.0
 49
0.0208333333333333
 49
0.0
 49
0.0
 49
0.0
 49
0.0
 49
1.0
 49
0.0
 49
0.0
 49
0.0
 49
0.0
 49
1.0
175
     0
142
0.0208333333333333
142
0.0
142
0.0
142
0.0
142
0.0
142
0.0208333333333333
142
0.0
142
0.0
142
0.0
142
0.0
142
1.0
142
0.0
142
0.0
142
0.0
142
0.0
142
1.0
179
     0
144
0.0208333333333333
144
0.0
144
0.0
144
0.0
144
0.0
144
0.0208333333333333
144
0.0
144
0.0
144
0.0
144
0.0
144
1.0
144
0.0
144
0.0
144
0.0
144
0.0
144
1.0
147
0.0208333333333333
147
0.0
147
0.0
147
0.0
147
0.0
147
0.0208333333333333
147
0.0
147
0.0
147
0.0
147
0.0
147
1.0
147
0.0
147
0.0
147
0.0
147
0.0
147
1.0
  0
MATERIAL
  5
9A70
102
{ACAD_XDICTIONARY
360
9A71
102
}
102
{ACAD_REACTORS
330
9A5F
102
}
330
9A5F
100
AcDbMaterial
  1
Global
 72
     0
 43
0.0208333333333333
 43
0.0
 43
0.0
 43
0.0
 43
0.0
 43
0.0208333333333333
 43
0.0
 43
0.0
 43
0.0
 43
0.0
 43
1.0
 43
0.0
 43
0.0
 43
0.0
 43
0.0
 43
1.0
 77
     0
 47
0.0208333333333333
 47
0.0
 47
0.0
 47
0.0
 47
0.0
 47
0.0208333333333333
 47
0.0
 47
0.0
 47
0.0
 47
0.0
 47
1.0
 47
0.0
 47
0.0
 47
0.0
 47
0.0
 47
1.0
171
     0
 49
0.0208333333333333
 49
0.0
 49
0.0
 49
0.0
 49
0.0
 49
0.0208333333333333
 49
0.0
 49
0.0
 49
0.0
 49
0.0
 49
1.0
 49
0.0
 49
0.0
 49
0.0
 49
0.0
 49
1.0
175
     0
142
0.0208333333333333
142
0.0
142
0.0
142
0.0
142
0.0
142
0.0208333333333333
142
0.0
142
0.0
142
0.0
142
0.0
142
1.0
142
0.0
142
0.0
142
0.0
142
0.0
142
1.0
179
     0
144
0.0208333333333333
144
0.0
144
0.0
144
0.0
144
0.0
144
0.0208333333333333
144
0.0
144
0.0
144
0.0
144
0.0
144
1.0
144
0.0
144
0.0
144
0.0
144
0.0
144
1.0
147
0.0208333333333333
147
0.0
147
0.0
147
0.0
147
0.0
147
0.0208333333333333
147
0.0
147
0.0
147
0.0
147
0.0
147
1.0
147
0.0
147
0.0
147
0.0
147
0.0
147
1.0
  0
MLEADERSTYLE
  5
9AAF
102
{ACAD_REACTORS
330
9AAE
102
}
330
9AAE
100
AcDbMLeaderStyle
170
     2
171
     1
172
     0
 90
        2
 40
0.0
 41
0.0
173
     1
 91
-1056964608
340
7477
 92
       -2
290
     1
 42
2.0
291
     1
 43
0.36
  3
Standard
 44
4.0
300

342
7475
174
     1
178
     6
175
     1
176
     0
 93
-1056964608
 45
4.0
292
     0
297
     0
 46
4.0
 94
-1056964608
 47
1.0
 49
1.0
140
1.0
293
     1
141
0.0
294
     1
177
     0
142
1.0
295
     0
296
     0
143
0.125
1001
ACAD_MLEADERVER
1070
     2
  0
MLINESTYLE
  5
7480
102
{ACAD_REACTORS
330
7473
102
}
330
0
100
AcDbMlineStyle
  2
STANDARD
 70
     0
  3

 62
     0
 51
90.0
 52
90.0
 71
     2
 49
0.5
 62
   256
  6
BYLAYER
 49
-0.5
 62
   256
  6
BYLAYER
  0
ACDBPLACEHOLDER
  5
8779
102
{ACAD_REACTORS
330
8778
102
}
330
8778
  0
SCALE
  5
9A8D
102
{ACAD_REACTORS
330
9A8C
102
}
330
9A8C
100
AcDbScale
 70
     0
300
1:1
140
1.0
141
1.0
290
     1
  0
SCALE
  5
9A8E
102
{ACAD_REACTORS
330
9A8C
102
}
330
9A8C
100
AcDbScale
 70
     0
300
1:2
140
1.0
141
2.0
290
     0
  0
SCALE
  5
9A8F
102
{ACAD_REACTORS
330
9A8C
102
}
330
9A8C
100
AcDbScale
 70
     0
300
1:4
140
1.0
141
4.0
290
     0
  0
SCALE
  5
9A90
102
{ACAD_REACTORS
330
9A8C
102
}
330
9A8C
100
AcDbScale
 70
     0
300
1:5
140
1.0
141
5.0
290
     0
  0
SCALE
  5
9A91
102
{ACAD_REACTORS
330
9A8C
102
}
330
9A8C
100
AcDbScale
 70
     0
300
1:8
140
1.0
141
8.0
290
     0
  0
SCALE
  5
9A92
102
{ACAD_REACTORS
330
9A8C
102
}
330
9A8C
100
AcDbScale
 70
     0
300
1:10
140
1.0
141
10.0
290
     0
  0
SCALE
  5
9A93
102
{ACAD_REACTORS
330
9A8C
102
}
330
9A8C
100
AcDbScale
 70
     0
300
1:16
140
1.0
141
16.0
290
     0
  0
SCALE
  5
9A94
102
{ACAD_REACTORS
330
9A8C
102
}
330
9A8C
100
AcDbScale
 70
     0
300
1:20
140
1.0
141
20.0
290
     0
  0
SCALE
  5
9A95
102
{ACAD_REACTORS
330
9A8C
102
}
330
9A8C
100
AcDbScale
 70
     0
300
1:30
140
1.0
141
30.0
290
     0
  0
SCALE
  5
9A96
102
{ACAD_REACTORS
330
9A8C
102
}
330
9A8C
100
AcDbScale
 70
     0
300
1:40
140
1.0
141
40.0
290
     0
  0
SCALE
  5
9A97
102
{ACAD_REACTORS
330
9A8C
102
}
330
9A8C
100
AcDbScale
 70
     0
300
1:50
140
1.0
141
50.0
290
     0
  0
SCALE
  5
9A98
102
{ACAD_REACTORS
330
9A8C
102
}
330
9A8C
100
AcDbScale
 70
     0
300
1:100
140
1.0
141
100.0
290
     0
  0
SCALE
  5
9A99
102
{ACAD_REACTORS
330
9A8C
102
}
330
9A8C
100
AcDbScale
 70
     0
300
2:1
140
2.0
141
1.0
290
     0
  0
SCALE
  5
9A9A
102
{ACAD_REACTORS
330
9A8C
102
}
330
9A8C
100
AcDbScale
 70
     0
300
4:1
140
4.0
141
1.0
290
     0
  0
SCALE
  5
9A9B
102
{ACAD_REACTORS
330
9A8C
102
}
330
9A8C
100
AcDbScale
 70
     0
300
8:1
140
8.0
141
1.0
290
     0
  0
SCALE
  5
9A9C
102
{ACAD_REACTORS
330
9A8C
102
}
330
9A8C
100
AcDbScale
 70
     0
300
10:1
140
10.0
141
1.0
290
     0
  0
SCALE
  5
9A9D
102
{ACAD_REACTORS
330
9A8C
102
}
330
9A8C
100
AcDbScale
 70
     0
300
100:1
140
100.0
141
1.0
290
     0
  0
SCALE
  5
9A9E
102
{ACAD_REACTORS
330
9A8C
102
}
330
9A8C
100
AcDbScale
 70
     0
300
1/128" = 1'-0"
140
0.0078125
141
12.0
290
     0
  0
SCALE
  5
9A9F
102
{ACAD_REACTORS
330
9A8C
102
}
330
9A8C
100
AcDbScale
 70
     0
300
1/64" = 1'-0"
140
0.015625
141
12.0
290
     0
  0
SCALE
  5
9AA0
102
{ACAD_REACTORS
330
9A8C
102
}
330
9A8C
100
AcDbScale
 70
     0
300
1/32" = 1'-0"
140
0.03125
141
12.0
290
     0
  0
SCALE
  5
9AA1
102
{ACAD_REACTORS
330
9A8C
102
}
330
9A8C
100
AcDbScale
 70
     0
300
1/16" = 1'-0"
140
0.0625
141
12.0
290
     0
  0
SCALE
  5
9AA2
102
{ACAD_REACTORS
330
9A8C
102
}
330
9A8C
100
AcDbScale
 70
     0
300
3/32" = 1'-0"
140
0.09375
141
12.0
290
     0
  0
SCALE
  5
9AA3
102
{ACAD_REACTORS
330
9A8C
102
}
330
9A8C
100
AcDbScale
 70
     0
300
1/8" = 1'-0"
140
0.125
141
12.0
290
     0
  0
SCALE
  5
9AA4
102
{ACAD_REACTORS
330
9A8C
102
}
330
9A8C
100
AcDbScale
 70
     0
300
3/16" = 1'-0"
140
0.1875
141
12.0
290
     0
  0
SCALE
  5
9AA5
102
{ACAD_REACTORS
330
9A8C
102
}
330
9A8C
100
AcDbScale
 70
     0
300
1/4" = 1'-0"
140
0.25
141
12.0
290
     0
  0
SCALE
  5
9AA6
102
{ACAD_REACTORS
330
9A8C
102
}
330
9A8C
100
AcDbScale
 70
     0
300
3/8" = 1'-0"
140
0.375
141
12.0
290
     0
  0
SCALE
  5
9AA7
102
{ACAD_REACTORS
330
9A8C
102
}
330
9A8C
100
AcDbScale
 70
     0
300
1/2" = 1'-0"
140
0.5
141
12.0
290
     0
  0
SCALE
  5
9AA8
102
{ACAD_REACTORS
330
9A8C
102
}
330
9A8C
100
AcDbScale
 70
     0
300
3/4" = 1'-0"
140
0.75
141
12.0
290
     0
  0
SCALE
  5
9AA9
102
{ACAD_REACTORS
330
9A8C
102
}
330
9A8C
100
AcDbScale
 70
     0
300
1" = 1'-0"
140
1.0
141
12.0
290
     0
  0
SCALE
  5
9AAA
102
{ACAD_REACTORS
330
9A8C
102
}
330
9A8C
100
AcDbScale
 70
     0
300
1-1/2" = 1'-0"
140
1.5
141
12.0
290
     0
  0
SCALE
  5
9AAB
102
{ACAD_REACTORS
330
9A8C
102
}
330
9A8C
100
AcDbScale
 70
     0
300
3" = 1'-0"
140
3.0
141
12.0
290
     0
  0
SCALE
  5
9AAC
102
{ACAD_REACTORS
330
9A8C
102
}
330
9A8C
100
AcDbScale
 70
     0
300
6" = 1'-0"
140
6.0
141
12.0
290
     0
  0
SCALE
  5
9AAD
102
{ACAD_REACTORS
330
9A8C
102
}
330
9A8C
100
AcDbScale
 70
     0
300
1'-0" = 1'-0"
140
12.0
141
12.0
290
     0
  0
TABLESTYLE
  5
9A8B
102
{ACAD_XDICTIONARY
360
9E51
102
}
102
{ACAD_REACTORS
330
9A8A
102
}
330
9A8A
100
AcDbTableStyle
  3
Standard
 70
     0
 71
     0
 40
1.5
 41
1.5
280
     0
281
     0
  7
STANDARD
140
4.5
170
     2
 62
     0
 63
     7
283
     0
274
    -2
284
     1
 64
     0
275
    -2
285
     1
 65
     0
276
    -2
286
     1
 66
     0
277
    -2
287
     1
 67
     0
278
    -2
288
     1
 68
     0
279
    -2
289
     1
 69
     0
  7
STANDARD
140
6.0
170
     5
 62
     0
 63
     7
283
     0
274
    -2
284
     1
 64
     0
275
    -2
285
     1
 65
     0
276
    -2
286
     1
 66
     0
277
    -2
287
     1
 67
     0
278
    -2
288
     1
 68
     0
279
    -2
289
     1
 69
     0
  7
STANDARD
140
4.5
170
     5
 62
     0
 63
     7
283
     0
274
    -2
284
     1
 64
     0
275
    -2
285
     1
 65
     0
276
    -2
286
     1
 66
     0
277
    -2
287
     1
 67
     0
278
    -2
288
     1
 68
     0
279
    -2
289
     1
 69
     0
  0
VISUALSTYLE
  5
9A7E
102
{ACAD_REACTORS
330
9A78
102
}
330
9A78
100
AcDbVisualStyle
  2
2dWireframe
 70
     4
 71
     0
 72
     2
 73
     0
 90
        0
 40
-0.6
 41
-30.0
 62
     5
 63
     7
 74
     1
 91
        4
 64
     7
 65
   257
 75
     1
175
     1
 42
1.0
 92
        0
 66
   257
 43
1.0
 76
     1
 77
     6
 78
     2
 67
     7
 79
     5
170
     0
171
     0
290
     0
174
     0
 93
        1
 44
0.0
173
     0
291
     0
 45
0.0
1001
ACAD
1000
AcDbSavedByObjectVersion
1070
     0
  0
VISUALSTYLE
  5
9A80
102
{ACAD_REACTORS
330
9A78
102
}
330
9A78
100
AcDbVisualStyle
  2
3D Hidden
 70
     6
 71
     1
 72
     2
 73
     2
 90
        0
 40
-0.6
 41
-30.0
 62
     5
 63
     7
 74
     2
 91
        2
 64
     7
 65
   257
 75
     2
175
     1
 42
40.0
 92
        0
 66
   257
 43
1.0
 76
     1
 77
     6
 78
     2
 67
     7
 79
     3
170
     0
171
     0
290
     0
174
     0
 93
        1
 44
0.0
173
     0
291
     0
 45
0.0
1001
ACAD
1000
AcDbSavedByObjectVersion
1070
     0
  0
VISUALSTYLE
  5
9A7F
102
{ACAD_REACTORS
330
9A78
102
}
330
9A78
100
AcDbVisualStyle
  2
3dWireframe
 70
     5
 71
     0
 72
     2
 73
     0
 90
        0
 40
-0.6
 41
-30.0
 62
     5
 63
     7
 74
     1
 91
        4
 64
     7
 65
   257
 75
     1
175
     1
 42
1.0
 92
        0
 66
   257
 43
1.0
 76
     1
 77
     6
 78
     2
 67
     7
 79
     5
170
     0
171
     0
290
     0
174
     0
 93
        1
 44
0.0
173
     0
291
     0
 45
0.0
1001
ACAD
1000
AcDbSavedByObjectVersion
1070
     0
  0
VISUALSTYLE
  5
9A7D
102
{ACAD_REACTORS
330
9A78
102
}
330
9A78
100
AcDbVisualStyle
  2
Basic
 70
     7
 71
     1
 72
     0
 73
     1
 90
        0
 40
-0.6
 41
-30.0
 62
     5
 63
     7
 74
     0
 91
        4
 64
     7
 65
   257
 75
     1
175
     1
 42
1.0
 92
        8
 66
     7
 43
1.0
 76
     1
 77
     6
 78
     2
 67
     7
 79
     5
170
     0
171
     0
290
     0
174
     0
 93
        1
 44
0.0
173
     0
291
     1
 45
0.0
1001
ACAD
1000
AcDbSavedByObjectVersion
1070
     0
  0
VISUALSTYLE
  5
9A84
102
{ACAD_REACTORS
330
9A78
102
}
330
9A78
100
AcDbVisualStyle
  2
Brighten
 70
    12
 71
     2
 72
     2
 73
     0
 90
        0
 40
-0.6
 41
-30.0
 62
     5
 63
     7
 74
     1
 91
        4
 64
     7
 65
   257
 75
     1
175
     1
 42
1.0
 92
        8
 66
     7
 43
1.0
 76
     1
 77
     6
 78
     2
 67
     7
 79
     5
170
     0
171
     0
290
     0
174
     0
 93
        1
 44
50.0
173
     0
291
     1
 45
0.0
1001
ACAD
1000
AcDbSavedByObjectVersion
1070
     0
  0
VISUALSTYLE
  5
9A88
102
{ACAD_REACTORS
330
9A78
102
}
330
9A78
100
AcDbVisualStyle
  2
ColorChange
 70
    16
 71
     2
 72
     2
 73
     3
 90
        0
 40
-0.6
 41
-30.0
 62
     5
 63
     8
 74
     1
 91
        4
 64
     7
 65
   257
 75
     1
175
     1
 42
1.0
 92
        8
 66
     8
 43
1.0
 76
     1
 77
     6
 78
     2
 67
     7
 79
     5
170
     0
171
     0
290
     0
174
     0
 93
        1
 44
0.0
173
     0
291
     1
 45
0.0
1001
ACAD
1000
AcDbSavedByObjectVersion
1070
     0
  0
VISUALSTYLE
  5
9A81
102
{ACAD_REACTORS
330
9A78
102
}
330
9A78
100
AcDbVisualStyle
  2
Conceptual
 70
     9
 71
     3
 72
     2
 73
     0
 90
        0
 40
-0.6
 41
-30.0
 62
     5
 63
     7
 74
     2
 91
        2
 64
     7
 65
   257
 75
     1
175
     1
 42
40.0
 92
        8
 66
     7
 43
1.0
 76
     1
 77
     6
 78
     2
 67
     7
 79
     3
170
     0
171
     0
290
     0
174
     0
 93
        1
 44
0.0
173
     0
291
     0
 45
0.0
1001
ACAD
1000
AcDbSavedByObjectVersion
1070
     0
  0
VISUALSTYLE
  5
9A83
102
{ACAD_REACTORS
330
9A78
102
}
330
9A78
100
AcDbVisualStyle
  2
Dim
 70
    11
 71
     2
 72
     2
 73
     0
 90
        0
 40
-0.6
 41
-30.0
 62
     5
 63
     7
 74
     1
 91
        4
 64
     7
 65
   257
 75
     1
175
     1
 42
1.0
 92
        8
 66
     7
 43
1.0
 76
     1
 77
     6
 78
     2
 67
     7
 79
     5
170
     0
171
     0
290
     0
174
     0
 93
        1
 44
-50.0
173
     0
291
     1
 45
0.0
1001
ACAD
1000
AcDbSavedByObjectVersion
1070
     0
  0
VISUALSTYLE
  5
9A87
102
{ACAD_REACTORS
330
9A78
102
}
330
9A78
100
AcDbVisualStyle
  2
Facepattern
 70
    15
 71
     2
 72
     2
 73
     0
 90
        0
 40
-0.6
 41
-30.0
 62
     5
 63
     7
 74
     1
 91
        4
 64
     7
 65
   257
 75
     1
175
     1
 42
1.0
 92
        8
 66
     7
 43
1.0
 76
     1
 77
     6
 78
     2
 67
     7
 79
     5
170
     0
171
     0
290
     0
174
     0
 93
        1
 44
0.0
173
     0
291
     1
 45
0.0
1001
ACAD
1000
AcDbSavedByObjectVersion
1070
     0
  0
VISUALSTYLE
  5
9A79
102
{ACAD_REACTORS
330
9A78
102
}
330
9A78
100
AcDbVisualStyle
  2
Flat
 70
     0
 71
     2
 72
     1
 73
     1
 90
        2
 40
-0.6
 41
30.0
 62
     5
 63
     7
 74
     0
 91
        4
 64
     7
 65
   257
 75
     1
175
     1
 42
1.0
 92
        8
 66
     7
 43
1.0
 76
     1
 77
     6
 78
     2
 67
     7
 79
     5
170
     0
171
     0
290
     0
174
     0
 93
       13
 44
0.0
173
     0
291
     1
 45
0.0
1001
ACAD
1000
AcDbSavedByObjectVersion
1070
     0
  0
VISUALSTYLE
  5
9A7A
102
{ACAD_REACTORS
330
9A78
102
}
330
9A78
100
AcDbVisualStyle
  2
FlatWithEdges
 70
     1
 71
     2
 72
     1
 73
     1
 90
        2
 40
-0.6
 41
30.0
 62
     5
 63
     7
 74
     1
 91
        4
 64
     7
 65
   257
 75
     1
175
     1
 42
1.0
 92
        0
 66
   257
 43
1.0
 76
     1
 77
     6
 78
     2
 67
     7
 79
     5
170
     0
171
     0
290
     0
174
     0
 93
       13
 44
0.0
173
     0
291
     1
 45
0.0
1001
ACAD
1000
AcDbSavedByObjectVersion
1070
     0
  0
VISUALSTYLE
  5
9A7B
102
{ACAD_REACTORS
330
9A78
102
}
330
9A78
100
AcDbVisualStyle
  2
Gouraud
 70
     2
 71
     2
 72
     2
 73
     1
 90
        2
 40
-0.6
 41
30.0
 62
     5
 63
     7
 74
     0
 91
        4
 64
     7
 65
   257
 75
     1
175
     1
 42
1.0
 92
        0
 66
     7
 43
1.0
 76
     1
 77
     6
 78
     2
 67
     7
 79
     5
170
     0
171
     0
290
     0
174
     0
 93
       13
 44
0.0
173
     0
291
     1
 45
0.0
1001
ACAD
1000
AcDbSavedByObjectVersion
1070
     0
  0
VISUALSTYLE
  5
9A7C
102
{ACAD_REACTORS
330
9A78
102
}
330
9A78
100
AcDbVisualStyle
  2
GouraudWithEdges
 70
     3
 71
     2
 72
     2
 73
     1
 90
        2
 40
-0.6
 41
30.0
 62
     5
 63
     7
 74
     1
 91
        4
 64
     7
 65
   257
 75
     1
175
     1
 42
1.0
 92
        0
 66
   257
 43
1.0
 76
     1
 77
     6
 78
     2
 67
     7
 79
     5
170
     0
171
     0
290
     0
174
     0
 93
       13
 44
0.0
173
     0
291
     1
 45
0.0
1001
ACAD
1000
AcDbSavedByObjectVersion
1070
     0
  0
VISUALSTYLE
  5
9A86
102
{ACAD_REACTORS
330
9A78
102
}
330
9A78
100
AcDbVisualStyle
  2
Linepattern
 70
    14
 71
     2
 72
     2
 73
     0
 90
        0
 40
-0.6
 41
-30.0
 62
     5
 63
     7
 74
     1
 91
        4
 64
     7
 65
   257
 75
     7
175
     7
 42
1.0
 92
        8
 66
     7
 43
1.0
 76
     1
 77
     6
 78
     2
 67
     7
 79
     5
170
     0
171
     0
290
     0
174
     0
 93
        1
 44
0.0
173
     0
291
     1
 45
0.0
1001
ACAD
1000
AcDbSavedByObjectVersion
1070
     0
  0
VISUALSTYLE
  5
9A82
102
{ACAD_REACTORS
330
9A78
102
}
330
9A78
100
AcDbVisualStyle
  2
Realistic
 70
     8
 71
     2
 72
     2
 73
     0
 90
        0
 40
-0.6
 41
-30.0
 62
     5
 63
     7
 74
     1
 91
        0
 64
     7
 65
   257
 75
     1
175
     1
 42
1.0
 92
        8
 66
     8
 43
1.0
 76
     1
 77
     6
 78
     2
 67
     7
 79
     5
170
     0
171
     0
290
     0
174
     0
 93
       13
 44
0.0
173
     0
291
     0
 45
0.0
1001
ACAD
1000
AcDbSavedByObjectVersion
1070
     0
  0
VISUALSTYLE
  5
9A85
102
{ACAD_REACTORS
330
9A78
102
}
330
9A78
100
AcDbVisualStyle
  2
Thicken
 70
    13
 71
     2
 72
     2
 73
     0
 90
        0
 40
-0.6
 41
-30.0
 62
     5
 63
     7
 74
     1
 91
        4
 64
     7
 65
   257
 75
     1
175
     1
 42
1.0
 92
       12
 66
     7
 43
1.0
 76
     1
 77
     6
 78
     2
 67
     7
 79
     5
170
     0
171
     0
290
     0
174
     0
 93
        1
 44
0.0
173
     0
291
     1
 45
0.0
1001
ACAD
1000
AcDbSavedByObjectVersion
1070
     0
  0
DICTIONARYVAR
  5
9E4F
102
{ACAD_REACTORS
330
789B
102
}
330
789B
100
DictionaryVariables
280
     0
  1
1:1
  0
DICTIONARYVAR
  5
9E4E
102
{ACAD_REACTORS
330
789B
102
}
330
789B
100
DictionaryVariables
280
     0
  1
STANDARD
  0
DICTIONARYVAR
  5
9E4D
102
{ACAD_REACTORS
330
789B
102
}
330
789B
100
DictionaryVariables
280
     0
  1
STANDARD
  0
DICTIONARYVAR
  5
9A5D
102
{ACAD_REACTORS
330
789B
102
}
330
789B
100
DictionaryVariables
280
     0
  1
1
  0
DICTIONARYVAR
  5
9E50
102
{ACAD_REACTORS
330
789B
102
}
330
789B
100
DictionaryVariables
280
     0
  1
0
  0
DICTIONARYVAR
  5
789C
102
{ACAD_REACTORS
330
789B
102
}
330
789B
100
DictionaryVariables
280
     0
  1
96
  0
DICTIONARY
  5
9E57
330
877C
100
AcDbDictionary
280
     1
281
     1
  3
ACAD_XREC_ROUNDTRIP
360
9E58
  0
DICTIONARY
  5
9E59
330
877D
100
AcDbDictionary
280
     1
281
     1
  3
ACAD_XREC_ROUNDTRIP
360
9E5A
  0
DICTIONARY
  5
9A69
330
9A68
100
AcDbDictionary
280
     1
281
     1
  3
ACAD_XREC_ROUNDTRIP
360
9E5C
  3
BUMPTILE
360
9A6B
  3
DIFFUSETILE
360
9A6A
  3
OPACITYTILE
360
9A6E
  3
REFLECTIONTILE
360
9A6D
  3
REFRACTIONTILE
360
9A6F
  3
SPECULARTILE
360
9A6C
  0
DICTIONARY
  5
9A61
330
9A60
100
AcDbDictionary
280
     1
281
     1
  3
ACAD_XREC_ROUNDTRIP
360
9E5B
  3
BUMPTILE
360
9A63
  3
DIFFUSETILE
360
9A62
  3
OPACITYTILE
360
9A66
  3
REFLECTIONTILE
360
9A65
  3
REFRACTIONTILE
360
9A67
  3
SPECULARTILE
360
9A64
  0
DICTIONARY
  5
9A71
330
9A70
100
AcDbDictionary
280
     1
281
     1
  3
ACAD_XREC_ROUNDTRIP
360
9E5D
  3
BUMPTILE
360
9A73
  3
DIFFUSETILE
360
9A72
  3
OPACITYTILE
360
9A76
  3
REFLECTIONTILE
360
9A75
  3
REFRACTIONTILE
360
9A77
  3
SPECULARTILE
360
9A74
  0
DICTIONARY
  5
9E51
330
9A8B
100
AcDbDictionary
280
     1
281
     1
  3
ACAD_ROUNDTRIP_2008_TABLESTYLE_CELLSTYLEMAP
360
9E52
  3
ACAD_XREC_ROUNDTRIP
360
9E5E
  0
XRECORD
  5
9E58
102
{ACAD_REACTORS
330
9E57
102
}
330
9E57
100
AcDbXrecord
280
     1
102
SHADEPLOT
 70
     0
102
SHADEPLOTRESLEVEL
 70
     2
102
SHADEPLOTCUSTOMDPI
 70
   300
  0
XRECORD
  5
9E5A
102
{ACAD_REACTORS
330
9E59
102
}
330
9E59
100
AcDbXrecord
280
     1
102
SHADEPLOT
 70
     0
102
SHADEPLOTRESLEVEL
 70
     2
102
SHADEPLOTCUSTOMDPI
 70
   300
  0
XRECORD
  5
9E5C
102
{ACAD_REACTORS
330
9A69
102
}
330
9A69
100
AcDbXrecord
280
     1
102
MATERIAL
148
0.0
149
0.0
149
0.0
 93
        0
 94
      127
282
     0
 72
     0
 77
     0
171
     0
175
     0
179
     0
273
     0
  0
XRECORD
  5
9A6B
102
{ACAD_REACTORS
330
9A69
102
}
330
9A69
100
AcDbXrecord
280
     1
270
     1
271
     1
  0
XRECORD
  5
9A6A
102
{ACAD_REACTORS
330
9A69
102
}
330
9A69
100
AcDbXrecord
280
     1
270
     1
271
     1
  0
XRECORD
  5
9A6E
102
{ACAD_REACTORS
330
9A69
102
}
330
9A69
100
AcDbXrecord
280
     1
270
     1
271
     1
  0
XRECORD
  5
9A6D
102
{ACAD_REACTORS
330
9A69
102
}
330
9A69
100
AcDbXrecord
280
     1
270
     1
271
     1
  0
XRECORD
  5
9A6F
102
{ACAD_REACTORS
330
9A69
102
}
330
9A69
100
AcDbXrecord
280
     1
270
     1
271
     1
  0
XRECORD
  5
9A6C
102
{ACAD_REACTORS
330
9A69
102
}
330
9A69
100
AcDbXrecord
280
     1
270
     1
271
     1
  0
XRECORD
  5
9E5B
102
{ACAD_REACTORS
330
9A61
102
}
330
9A61
100
AcDbXrecord
280
     1
102
MATERIAL
148
0.0
149
0.0
149
0.0
 93
        0
 94
      127
282
     0
 72
     0
 77
     0
171
     0
175
     0
179
     0
273
     0
  0
XRECORD
  5
9A63
102
{ACAD_REACTORS
330
9A61
102
}
330
9A61
100
AcDbXrecord
280
     1
270
     1
271
     1
  0
XRECORD
  5
9A62
102
{ACAD_REACTORS
330
9A61
102
}
330
9A61
100
AcDbXrecord
280
     1
270
     1
271
     1
  0
XRECORD
  5
9A66
102
{ACAD_REACTORS
330
9A61
102
}
330
9A61
100
AcDbXrecord
280
     1
270
     1
271
     1
  0
XRECORD
  5
9A65
102
{ACAD_REACTORS
330
9A61
102
}
330
9A61
100
AcDbXrecord
280
     1
270
     1
271
     1
  0
XRECORD
  5
9A67
102
{ACAD_REACTORS
330
9A61
102
}
330
9A61
100
AcDbXrecord
280
     1
270
     1
271
     1
  0
XRECORD
  5
9A64
102
{ACAD_REACTORS
330
9A61
102
}
330
9A61
100
AcDbXrecord
280
     1
270
     1
271
     1
  0
XRECORD
  5
9E5D
102
{ACAD_REACTORS
330
9A71
102
}
330
9A71
100
AcDbXrecord
280
     1
102
MATERIAL
148
0.0
149
0.0
149
0.0
 93
        0
 94
      127
282
     0
 72
     0
 77
     0
171
     0
175
     0
179
     0
273
     0
  0
XRECORD
  5
9A73
102
{ACAD_REACTORS
330
9A71
102
}
330
9A71
100
AcDbXrecord
280
     1
270
     1
271
     1
  0
XRECORD
  5
9A72
102
{ACAD_REACTORS
330
9A71
102
}
330
9A71
100
AcDbXrecord
280
     1
270
     1
271
     1
  0
XRECORD
  5
9A76
102
{ACAD_REACTORS
330
9A71
102
}
330
9A71
100
AcDbXrecord
280
     1
270
     1
271
     1
  0
XRECORD
  5
9A75
102
{ACAD_REACTORS
330
9A71
102
}
330
9A71
100
AcDbXrecord
280
     1
270
     1
271
     1
  0
XRECORD
  5
9A77
102
{ACAD_REACTORS
330
9A71
102
}
330
9A71
100
AcDbXrecord
280
     1
270
     1
271
     1
  0
XRECORD
  5
9A74
102
{ACAD_REACTORS
330
9A71
102
}
330
9A71
100
AcDbXrecord
280
     1
270
     1
271
     1
  0
CELLSTYLEMAP
  5
9E52
102
{ACAD_REACTORS
330
9E51
102
}
330
9E51
100
AcDbCellStyleMap
 90
        3
300
CELLSTYLE
  1
TABLEFORMAT_BEGIN
 90
        5
170
     1
 91
        0
 92
    32768
 62
   257
 93
        1
300
CONTENTFORMAT
  1
CONTENTFORMAT_BEGIN
 90
        0
 91
        0
 92
      512
 93
        0
300

 40
0.0
140
1.0
 94
        5
 62
     0
340
7475
144
6.0
309
CONTENTFORMAT_END
171
     1
301
MARGIN
  1
CELLMARGIN_BEGIN
 40
1.5
 40
1.5
 40
1.5
 40
1.5
 40
4.5
 40
4.5
309
CELLMARGIN_END
 94
        6
 95
        1
302
GRIDFORMAT
  1
GRIDFORMAT_BEGIN
 90
        0
 91
        1
 62
     0
 92
       -2
340
0
 93
        0
 40
1.125
309
GRIDFORMAT_END
 95
        2
302
GRIDFORMAT
  1
GRIDFORMAT_BEGIN
 90
        0
 91
        1
 62
     0
 92
       -2
340
0
 93
        0
 40
1.125
309
GRIDFORMAT_END
 95
        4
302
GRIDFORMAT
  1
GRIDFORMAT_BEGIN
 90
        0
 91
        1
 62
     0
 92
       -2
340
0
 93
        0
 40
1.125
309
GRIDFORMAT_END
 95
        8
302
GRIDFORMAT
  1
GRIDFORMAT_BEGIN
 90
        0
 91
        1
 62
     0
 92
       -2
340
0
 93
        0
 40
1.125
309
GRIDFORMAT_END
 95
       16
302
GRIDFORMAT
  1
GRIDFORMAT_BEGIN
 90
        0
 91
        1
 62
     0
 92
       -2
340
0
 93
        0
 40
1.125
309
GRIDFORMAT_END
 95
       32
302
GRIDFORMAT
  1
GRIDFORMAT_BEGIN
 90
        0
 91
        1
 62
     0
 92
       -2
340
0
 93
        0
 40
1.125
309
GRIDFORMAT_END
309
TABLEFORMAT_END
  1
CELLSTYLE_BEGIN
 90
        1
 91
        1
300
_TITLE
309
CELLSTYLE_END
300
CELLSTYLE
  1
TABLEFORMAT_BEGIN
 90
        5
170
     1
 91
        0
 92
        0
 62
   257
 93
        1
300
CONTENTFORMAT
  1
CONTENTFORMAT_BEGIN
 90
        0
 91
        0
 92
      512
 93
        0
300

 40
0.0
140
1.0
 94
        5
 62
     0
340
7475
144
4.5
309
CONTENTFORMAT_END
171
     1
301
MARGIN
  1
CELLMARGIN_BEGIN
 40
1.5
 40
1.5
 40
1.5
 40
1.5
 40
4.5
 40
4.5
309
CELLMARGIN_END
 94
        6
 95
        1
302
GRIDFORMAT
  1
GRIDFORMAT_BEGIN
 90
        0
 91
        1
 62
     0
 92
       -2
340
0
 93
        0
 40
1.125
309
GRIDFORMAT_END
 95
        2
302
GRIDFORMAT
  1
GRIDFORMAT_BEGIN
 90
        0
 91
        1
 62
     0
 92
       -2
340
0
 93
        0
 40
1.125
309
GRIDFORMAT_END
 95
        4
302
GRIDFORMAT
  1
GRIDFORMAT_BEGIN
 90
        0
 91
        1
 62
     0
 92
       -2
340
0
 93
        0
 40
1.125
309
GRIDFORMAT_END
 95
        8
302
GRIDFORMAT
  1
GRIDFORMAT_BEGIN
 90
        0
 91
        1
 62
     0
 92
       -2
340
0
 93
        0
 40
1.125
309
GRIDFORMAT_END
 95
       16
302
GRIDFORMAT
  1
GRIDFORMAT_BEGIN
 90
        0
 91
        1
 62
     0
 92
       -2
340
0
 93
        0
 40
1.125
309
GRIDFORMAT_END
 95
       32
302
GRIDFORMAT
  1
GRIDFORMAT_BEGIN
 90
        0
 91
        1
 62
     0
 92
       -2
340
0
 93
        0
 40
1.125
309
GRIDFORMAT_END
309
TABLEFORMAT_END
  1
CELLSTYLE_BEGIN
 90
        2
 91
        1
300
_HEADER
309
CELLSTYLE_END
300
CELLSTYLE
  1
TABLEFORMAT_BEGIN
 90
        5
170
     1
 91
        0
 92
        0
 62
   257
 93
        1
300
CONTENTFORMAT
  1
CONTENTFORMAT_BEGIN
 90
        0
 91
        0
 92
      512
 93
        0
300

 40
0.0
140
1.0
 94
        2
 62
     0
340
7475
144
4.5
309
CONTENTFORMAT_END
171
     1
301
MARGIN
  1
CELLMARGIN_BEGIN
 40
1.5
 40
1.5
 40
1.5
 40
1.5
 40
4.5
 40
4.5
309
CELLMARGIN_END
 94
        6
 95
        1
302
GRIDFORMAT
  1
GRIDFORMAT_BEGIN
 90
        0
 91
        1
 62
     0
 92
       -2
340
0
 93
        0
 40
1.125
309
GRIDFORMAT_END
 95
        2
302
GRIDFORMAT
  1
GRIDFORMAT_BEGIN
 90
        0
 91
        1
 62
     0
 92
       -2
340
0
 93
        0
 40
1.125
309
GRIDFORMAT_END
 95
        4
302
GRIDFORMAT
  1
GRIDFORMAT_BEGIN
 90
        0
 91
        1
 62
     0
 92
       -2
340
0
 93
        0
 40
1.125
309
GRIDFORMAT_END
 95
        8
302
GRIDFORMAT
  1
GRIDFORMAT_BEGIN
 90
        0
 91
        1
 62
     0
 92
       -2
340
0
 93
        0
 40
1.125
309
GRIDFORMAT_END
 95
       16
302
GRIDFORMAT
  1
GRIDFORMAT_BEGIN
 90
        0
 91
        1
 62
     0
 92
       -2
340
0
 93
        0
 40
1.125
309
GRIDFORMAT_END
 95
       32
302
GRIDFORMAT
  1
GRIDFORMAT_BEGIN
 90
        0
 91
        1
 62
     0
 92
       -2
340
0
 93
        0
 40
1.125
309
GRIDFORMAT_END
309
TABLEFORMAT_END
  1
CELLSTYLE_BEGIN
 90
        3
 91
        2
300
_DATA
309
CELLSTYLE_END
  0
XRECORD
  5
9E5E
102
{ACAD_REACTORS
330
9E51
102
}
330
9E51
100
AcDbXrecord
280
     1
102
ACAD_ROUNDTRIP_PRE2007_TABLESTYLE
 90
      512
 91
        0
  1

 92
      512
 93
        0
  2

 94
      512
 95
        0
  3

  0
ENDSEC
  0
EOF
