  0
SECTION
  2
HEADER
  9
$ACADVER
  1
AC1015
  9
$ACADMAINTVER
 70
    20
  9
$DWGCODEPAGE
  3
ANSI_932
  9
$INSBASE
 10
0.0
 20
0.0
 30
0.0
  9
$EXTMIN
 10
-0.6595670210845129
 20
-0.4146534288211115
 30
-0.0000000000000011
  9
$EXTMAX
 10
4455.191565401601
 20
3150.25127834617
 30
0.0000000000000141
  9
$LIMMIN
 10
0.0
 20
0.0
  9
$LIMMAX
 10
420.0
 20
297.0
  9
$ORTHOMODE
 70
     1
  9
$REGENMODE
 70
     1
  9
$FILLMODE
 70
     1
  9
$QTEXTMODE
 70
     0
  9
$MIRRTEXT
 70
     1
  9
$LTSCALE
 40
0.5
  9
$ATTMODE
 70
     1
  9
$TEXTSIZE
 40
2.799999999999999
  9
$TRACEWID
 40
1.0
  9
$TEXTSTYLE
  7
SANWA
  9
$CLAYER
  8
0
  9
$CELTYPE
  6
BYLAYER
  9
$CECOLOR
 62
   256
  9
$CELTSCALE
 40
15.0
  9
$DISPSILH
 70
     0
  9
$DIMSCALE
 40
15.0
  9
$DIMASZ
 40
1.5
  9
$DIMEXO
 40
1.0
  9
$DIMDLI
 40
5.0
  9
$DIMRND
 40
0.0
  9
$DIMDLE
 40
0.0
  9
$DIMEXE
 40
0.5
  9
$DIMTP
 40
0.0
  9
$DIMTM
 40
0.0
  9
$DIMTXT
 40
2.0
  9
$DIMCEN
 40
0.0
  9
$DIMTSZ
 40
0.0
  9
$DIMTOL
 70
     0
  9
$DIMLIM
 70
     0
  9
$DIMTIH
 70
     0
  9
$DIMTOH
 70
     0
  9
$DIMSE1
 70
     0
  9
$DIMSE2
 70
     0
  9
$DIMTAD
 70
     1
  9
$DIMZIN
 70
     8
  9
$DIMBLK
  1

  9
$DIMASO
 70
     1
  9
$DIMSHO
 70
     1
  9
$DIMPOST
  1

  9
$DIMAPOST
  1

  9
$DIMALT
 70
     0
  9
$DIMALTD
 70
     2
  9
$DIMALTF
 40
0.0394
  9
$DIMLFAC
 40
1.0
  9
$DIMTOFL
 70
     1
  9
$DIMTVP
 40
0.0
  9
$DIMTIX
 70
     1
  9
$DIMSOXD
 70
     0
  9
$DIMSAH
 70
     0
  9
$DIMBLK1
  1

  9
$DIMBLK2
  1

  9
$DIMSTYLE
  2
SANWA
  9
$DIMCLRD
 70
   256
  9
$DIMCLRE
 70
   256
  9
$DIMCLRT
 70
   256
  9
$DIMTFAC
 40
1.0
  9
$DIMGAP
 40
1.0
  9
$DIMJUST
 70
     0
  9
$DIMSD1
 70
     0
  9
$DIMSD2
 70
     0
  9
$DIMTOLJ
 70
     1
  9
$DIMTZIN
 70
     0
  9
$DIMALTZ
 70
     0
  9
$DIMALTTZ
 70
     0
  9
$DIMUPT
 70
     0
  9
$DIMDEC
 70
     4
  9
$DIMTDEC
 70
     4
  9
$DIMALTU
 70
     2
  9
$DIMALTTD
 70
     2
  9
$DIMTXSTY
  7
SANWA
  9
$DIMAUNIT
 70
     0
  9
$DIMADEC
 70
     0
  9
$DIMALTRND
 40
0.0
  9
$DIMAZIN
 70
     0
  9
$DIMDSEP
 70
    46
  9
$DIMATFIT
 70
     3
  9
$DIMFRAC
 70
     0
  9
$DIMLDRBLK
  1

  9
$DIMLUNIT
 70
     2
  9
$DIMLWD
 70
    -2
  9
$DIMLWE
 70
    -2
  9
$DIMTMOVE
 70
     0
  9
$LUNITS
 70
     2
  9
$LUPREC
 70
     4
  9
$SKETCHINC
 40
1.0
  9
$FILLETRAD
 40
10.0
  9
$AUNITS
 70
     0
  9
$AUPREC
 70
     0
  9
$MENU
  1
acad
  9
$ELEVATION
 40
0.0
  9
$PELEVATION
 40
0.0
  9
$THICKNESS
 40
0.0
  9
$LIMCHECK
 70
     0
  9
$CHAMFERA
 40
0.0
  9
$CHAMFERB
 40
0.0
  9
$CHAMFERC
 40
0.0
  9
$CHAMFERD
 40
0.0
  9
$SKPOLY
 70
     1
  9
$TDCREATE
 40
2451972.707781713
  9
$TDUCREATE
 40
2451972.332781713
  9
$TDUPDATE
 40
2455412.454041805
  9
$TDUUPDATE
 40
2455412.079041806
  9
$TDINDWG
 40
0.1034052315
  9
$TDUSRTIMER
 40
0.1034052315
  9
$USRTIMER
 70
     1
  9
$ANGBASE
 50
0.0
  9
$ANGDIR
 70
     0
  9
$PDMODE
 70
     0
  9
$PDSIZE
 40
0.0
  9
$PLINEWID
 40
0.0
  9
$SPLFRAME
 70
     0
  9
$SPLINETYPE
 70
     6
  9
$SPLINESEGS
 70
     8
  9
$HANDSEED
  5
9F84
  9
$SURFTAB1
 70
     6
  9
$SURFTAB2
 70
     6
  9
$SURFTYPE
 70
     6
  9
$SURFU
 70
     6
  9
$SURFV
 70
     6
  9
$UCSBASE
  2

  9
$UCSNAME
  2

  9
$UCSORG
 10
0.0
 20
0.0
 30
0.0
  9
$UCSXDIR
 10
1.0
 20
0.0
 30
0.0
  9
$UCSYDIR
 10
0.0
 20
1.0
 30
0.0
  9
$UCSORTHOREF
  2

  9
$UCSORTHOVIEW
 70
     0
  9
$UCSORGTOP
 10
0.0
 20
0.0
 30
0.0
  9
$UCSORGBOTTOM
 10
0.0
 20
0.0
 30
0.0
  9
$UCSORGLEFT
 10
0.0
 20
0.0
 30
0.0
  9
$UCSORGRIGHT
 10
0.0
 20
0.0
 30
0.0
  9
$UCSORGFRONT
 10
0.0
 20
0.0
 30
0.0
  9
$UCSORGBACK
 10
0.0
 20
0.0
 30
0.0
  9
$PUCSBASE
  2

  9
$PUCSNAME
  2

  9
$PUCSORG
 10
0.0
 20
0.0
 30
0.0
  9
$PUCSXDIR
 10
1.0
 20
0.0
 30
0.0
  9
$PUCSYDIR
 10
0.0
 20
1.0
 30
0.0
  9
$PUCSORTHOREF
  2

  9
$PUCSORTHOVIEW
 70
     0
  9
$PUCSORGTOP
 10
0.0
 20
0.0
 30
0.0
  9
$PUCSORGBOTTOM
 10
0.0
 20
0.0
 30
0.0
  9
$PUCSORGLEFT
 10
0.0
 20
0.0
 30
0.0
  9
$PUCSORGRIGHT
 10
0.0
 20
0.0
 30
0.0
  9
$PUCSORGFRONT
 10
0.0
 20
0.0
 30
0.0
  9
$PUCSORGBACK
 10
0.0
 20
0.0
 30
0.0
  9
$USERI1
 70
     0
  9
$USERI2
 70
     0
  9
$USERI3
 70
     0
  9
$USERI4
 70
     0
  9
$USERI5
 70
     0
  9
$USERR1
 40
0.0
  9
$USERR2
 40
0.0
  9
$USERR3
 40
0.0
  9
$USERR4
 40
0.0
  9
$USERR5
 40
0.0
  9
$WORLDVIEW
 70
     1
  9
$SHADEDGE
 70
     3
  9
$SHADEDIF
 70
    70
  9
$TILEMODE
 70
     1
  9
$MAXACTVP
 70
    48
  9
$PINSBASE
 10
0.0
 20
0.0
 30
0.0
  9
$PLIMCHECK
 70
     0
  9
$PEXTMIN
 10
-0.3297734462394146
 20
-3802.185333291873
 30
-0.0000000000000169
  9
$PEXTMAX
 10
10807.17059397474
 20
2993.645736191804
 30
0.0000000000000137
  9
$PLIMMIN
 10
1896.47466940518
 20
-3801.194313424183
  9
$PLIMMAX
 10
6351.634428926665
 20
-651.5943988734011
  9
$UNITMODE
 70
     0
  9
$VISRETAIN
 70
     1
  9
$PLINEGEN
 70
     0
  9
$PSLTSCALE
 70
     1
  9
$TREEDEPTH
 70
  3020
  9
$CMLSTYLE
  2
STANDARD
  9
$CMLJUST
 70
     0
  9
$CMLSCALE
 40
1.0
  9
$PROXYGRAPHICS
 70
     1
  9
$MEASUREMENT
 70
     1
  9
$CELWEIGHT
370
    -1
  9
$ENDCAPS
280
     0
  9
$JOINSTYLE
280
     0
  9
$LWDISPLAY
290
     0
  9
$INSUNITS
 70
     0
  9
$HYPERLINKBASE
  1

  9
$STYLESHEET
  1
sanwa3.ctb
  9
$XEDIT
290
     1
  9
$CEPSNTYPE
380
     0
  9
$PSTYLEMODE
290
     1
  9
$FINGERPRINTGUID
  2
{019676B3-78A4-4B49-AFAB-401458BF2364}
  9
$VERSIONGUID
  2
{1A290889-6453-4A3F-B9F5-DEC7A788A27E}
  9
$EXTNAMES
290
     1
  9
$PSVPSCALE
 40
0.0
  9
$OLESTARTUP
290
     0
  0
ENDSEC
  0
SECTION
  2
CLASSES
  0
CLASS
  1
DICTIONARYVAR
  2
AcDbDictionaryVar
  3
ObjectDBX Classes
 90
        0
280
     0
281
     0
  0
CLASS
  1
ACDBDICTIONARYWDFLT
  2
AcDbDictionaryWithDefault
  3
ObjectDBX Classes
 90
        0
280
     0
281
     0
  0
CLASS
  1
ACDBPLACEHOLDER
  2
AcDbPlaceHolder
  3
ObjectDBX Classes
 90
        0
280
     0
281
     0
  0
CLASS
  1
LAYOUT
  2
AcDbLayout
  3
ObjectDBX Classes
 90
        0
280
     0
281
     0
  0
CLASS
  1
MATERIAL
  2
AcDbMaterial
  3
ObjectDBX Classes
 90
     1153
280
     0
281
     0
  0
CLASS
  1
VISUALSTYLE
  2
AcDbVisualStyle
  3
ObjectDBX Classes
 90
     4095
280
     0
281
     0
  0
CLASS
  1
TABLESTYLE
  2
AcDbTableStyle
  3
ObjectDBX Classes
 90
     4095
280
     0
281
     0
  0
CLASS
  1
SCALE
  2
AcDbScale
  3
ObjectDBX Classes
 90
     1153
280
     0
281
     0
  0
CLASS
  1
MLEADERSTYLE
  2
AcDbMLeaderStyle
  3
ACDB_MLEADERSTYLE_CLASS
 90
     4095
280
     0
281
     0
  0
CLASS
  1
CELLSTYLEMAP
  2
AcDbCellStyleMap
  3
ObjectDBX Classes
 90
     1152
280
     0
281
     0
  0
ENDSEC
  0
SECTION
  2
TABLES
  0
TABLE
  2
VPORT
  5
746D
330
0
100
AcDbSymbolTable
 70
     1
  0
VPORT
  5
9B81
330
746D
100
AcDbSymbolTableRecord
100
AcDbViewportTableRecord
  2
*Active
 70
     0
 10
0.0
 20
0.0
 11
1.0
 21
1.0
 12
2227.265994295902
 22
1574.918294775974
 13
0.0
 23
0.0
 14
10.0
 24
10.0
 15
10.0
 25
10.0
 16
0.0
 26
0.0
 36
1.0
 17
0.0
 27
0.0
 37
0.0
 40
3673.140593316321
 41
1.353070175438596
 42
50.0
 43
0.0
 44
0.0
 50
0.0
 51
0.0
 71
     0
 72
   100
 73
     1
 74
     0
 75
     0
 76
     0
 77
     0
 78
     0
281
     0
 65
     1
110
0.0
120
0.0
130
0.0
111
1.0
121
0.0
131
0.0
112
0.0
122
1.0
132
0.0
 79
     0
146
0.0
  0
ENDTAB
  0
TABLE
  2
LTYPE
  5
746A
330
0
100
AcDbSymbolTable
 70
     5
  0
LTYPE
  5
7477
330
746A
100
AcDbSymbolTableRecord
100
AcDbLinetypeTableRecord
  2
BYBLOCK
 70
     0
  3

 72
    65
 73
     0
 40
0.0
  0
LTYPE
  5
7478
330
746A
100
AcDbSymbolTableRecord
100
AcDbLinetypeTableRecord
  2
BYLAYER
 70
     0
  3

 72
    65
 73
     0
 40
0.0
  0
LTYPE
  5
7479
330
746A
100
AcDbSymbolTableRecord
100
AcDbLinetypeTableRecord
  2
CONTINUOUS
 70
     0
  3
Solid line
 72
    65
 73
     0
 40
0.0
  0
LTYPE
  5
7D54
330
746A
100
AcDbSymbolTableRecord
100
AcDbLinetypeTableRecord
  2
CENTER2
 70
     0
  3
Center (.5x) ___ _ ___ _ ___ _ ___ _ ___ _ ___
 72
    65
 73
     4
 40
28.575
 49
19.05
 74
     0
 49
-3.174999999999999
 74
     0
 49
3.174999999999999
 74
     0
 49
-3.174999999999999
 74
     0
  0
LTYPE
  5
7D55
330
746A
100
AcDbSymbolTableRecord
100
AcDbLinetypeTableRecord
  2
DOT
 70
     0
  3
Dot . . . . . . . . . . . . . . . . . . . . . .
 72
    65
 73
     2
 40
6.349999999999999
 49
0.0
 74
     0
 49
-6.349999999999999
 74
     0
  0
LTYPE
  5
7D56
330
746A
100
AcDbSymbolTableRecord
100
AcDbLinetypeTableRecord
  2
HIDDEN2
 70
     0
  3
Hidden (.5x) _ _ _ _ _ _ _ _ _ _ _ _ _ _ _ _ _
 72
    65
 73
     2
 40
4.762499999999999
 49
3.174999999999999
 74
     0
 49
-1.587499999999999
 74
     0
  0
LTYPE
  5
7D57
330
746A
100
AcDbSymbolTableRecord
100
AcDbLinetypeTableRecord
  2
PHANTOM2
 70
     0
  3
Phantom (.5x) ___ _ _ ___ _ _ ___ _ _ ___ _ _
 72
    65
 73
     6
 40
31.75
 49
15.875
 74
     0
 49
-3.174999999999999
 74
     0
 49
3.174999999999999
 74
     0
 49
-3.174999999999999
 74
     0
 49
3.174999999999999
 74
     0
 49
-3.174999999999999
 74
     0
  0
ENDTAB
  0
TABLE
  2
LAYER
  5
7467
330
0
100
AcDbSymbolTable
 70
     7
  0
LAYER
  5
7474
102
{ACAD_XDICTIONARY
360
9F49
102
}
330
7467
100
AcDbSymbolTableRecord
100
AcDbLayerTableRecord
  2
0
 70
     0
 62
     7
  6
CONTINUOUS
370
    -3
390
8840
  0
LAYER
  5
7485
330
7467
100
AcDbSymbolTableRecord
100
AcDbLayerTableRecord
  2
DEFPOINTS
 70
     0
 62
     7
  6
CONTINUOUS
290
     0
370
    -3
390
8840
  0
LAYER
  5
7486
102
{ACAD_XDICTIONARY
360
9F4B
102
}
330
7467
100
AcDbSymbolTableRecord
100
AcDbLayerTableRecord
  2
OBJECT
 70
     0
 62
     7
  6
CONTINUOUS
370
    -3
390
8840
  0
LAYER
  5
7950
102
{ACAD_XDICTIONARY
360
9F4D
102
}
330
7467
100
AcDbSymbolTableRecord
100
AcDbLayerTableRecord
  2
枠
 70
     0
 62
     3
  6
CONTINUOUS
370
    -3
390
8840
  0
LAYER
  5
7D58
102
{ACAD_XDICTIONARY
360
9F4F
102
}
330
7467
100
AcDbSymbolTableRecord
100
AcDbLayerTableRecord
  2
寸法引出
 70
     0
 62
     2
  6
CONTINUOUS
370
    -3
390
8840
  0
LAYER
  5
7D59
102
{ACAD_XDICTIONARY
360
9F51
102
}
330
7467
100
AcDbSymbolTableRecord
100
AcDbLayerTableRecord
  2
鉄筋
 70
     0
 62
     4
  6
CONTINUOUS
370
    -3
390
8840
  0
LAYER
  5
7D5A
102
{ACAD_XDICTIONARY
360
9F53
102
}
330
7467
100
AcDbSymbolTableRecord
100
AcDbLayerTableRecord
  2
補助線
 70
     0
 62
     6
  6
CONTINUOUS
370
    -3
390
8840
  0
ENDTAB
  0
TABLE
  2
STYLE
  5
7468
330
0
100
AcDbSymbolTable
 70
     5
  0
STYLE
  5
7475
330
7468
100
AcDbSymbolTableRecord
100
AcDbTextStyleTableRecord
  2
STANDARD
 70
     0
 40
0.0
 41
1.0
 50
0.0
 71
     0
 42
3.5
  3
txt
  4

  0
STYLE
  5
7481
330
7468
100
AcDbSymbolTableRecord
100
AcDbTextStyleTableRecord
  2
ADESK1
 70
     0
 40
0.0
 41
1.0
 50
0.0
 71
     0
 42
5.0
  3
romans
  4
bigfont
  0
STYLE
  5
7731
330
7468
100
AcDbSymbolTableRecord
100
AcDbTextStyleTableRecord
  2
SANWA
 70
     0
 40
0.0
 41
1.0
 50
0.0
 71
     0
 42
2.799999999999999
  3
MS Mincho.ttf
  4

1001
ACAD
1000
MS Mincho
1071
    32785
  0
STYLE
  5
7D45
330
7468
100
AcDbSymbolTableRecord
100
AcDbTextStyleTableRecord
  2

 70
     1
 40
0.0
 41
1.0
 50
0.0
 71
     0
 42
3.5
  3
ltypeshp.shx
  4

  0
ENDTAB
  0
TABLE
  2
VIEW
  5
746B
330
0
100
AcDbSymbolTable
 70
     0
  0
ENDTAB
  0
TABLE
  2
UCS
  5
746C
330
0
100
AcDbSymbolTable
 70
     0
  0
ENDTAB
  0
TABLE
  2
APPID
  5
746E
330
0
100
AcDbSymbolTable
 70
     3
  0
APPID
  5
7476
330
746E
100
AcDbSymbolTableRecord
100
AcDbRegAppTableRecord
  2
ACAD
 70
     0
  0
APPID
  5
9BD5
330
746E
100
AcDbSymbolTableRecord
100
AcDbRegAppTableRecord
  2
ACAD_MLEADERVER
 70
     0
  0
APPID
  5
9F71
330
746E
100
AcDbSymbolTableRecord
100
AcDbRegAppTableRecord
  2
ACAD_PSEXT
 70
     0
  0
ENDTAB
  0
TABLE
  2
DIMSTYLE
  5
746F
330
0
100
AcDbSymbolTable
 70
     5
100
AcDbDimStyleTable
 71
     1
340
796F
  0
DIMSTYLE
105
7484
330
746F
100
AcDbSymbolTableRecord
100
AcDbDimStyleTableRecord
  2
JIS
 70
     0
 41
2.5
 42
1.0
 43
7.0
 44
1.0
 73
     0
 74
     0
 77
     1
 78
     8
140
2.5
141
0.0
143
0.0394
147
0.0
172
     1
174
     1
176
     2
177
     2
178
     2
340
7731
  0
DIMSTYLE
105
796F
102
{ACAD_REACTORS
330
9058
330
9059
330
905D
330
905E
330
9060
330
9061
330
907A
330
9099
330
909A
330
909C
330
909D
330
909E
330
909F
330
90A2
330
90A3
330
90A5
330
90A8
330
90A9
330
90AA
330
90AF
330
90B2
330
90B3
330
90C1
330
90CD
330
90D3
330
90D5
330
90D6
330
90D7
330
90D8
330
90DD
330
90F2
330
90FB
102
}
330
746F
100
AcDbSymbolTableRecord
100
AcDbDimStyleTableRecord
  2
SANWA
 70
     0
 41
2.5
 42
1.0
 43
7.0
 44
1.0
 73
     0
 74
     0
 77
     1
 78
     8
140
2.5
141
0.0
143
0.0394
147
0.0
172
     1
174
     1
176
     2
177
     2
178
     2
340
7731
  0
DIMSTYLE
105
7C9D
330
746F
100
AcDbSymbolTableRecord
100
AcDbDimStyleTableRecord
  2
SANWA$4
 70
     0
 41
2.5
 42
1.0
 43
5.0
 44
1.0
 73
     0
 74
     0
 77
     1
 78
     8
140
2.5
141
0.0
143
0.0394
147
1.0
172
     1
174
     1
176
     2
177
     2
178
     2
289
     2
340
7731
  0
DIMSTYLE
105
7CB5
330
746F
100
AcDbSymbolTableRecord
100
AcDbDimStyleTableRecord
  2
SANWA$3
 70
     0
 41
2.5
 42
1.0
 43
7.0
 44
1.0
 73
     0
 74
     0
 77
     1
 78
     8
140
2.5
141
0.0
143
0.0394
147
0.0
172
     1
174
     1
176
     2
177
     2
178
     2
289
     0
340
7731
  0
ENDTAB
  0
TABLE
  2
BLOCK_RECORD
  5
7466
330
0
100
AcDbSymbolTable
 70
   290
  0
BLOCK_RECORD
  5
747D
330
7466
100
AcDbSymbolTableRecord
100
AcDbBlockTableRecord
  2
*MODEL_SPACE
340
8843
  0
BLOCK_RECORD
  5
747A
330
7466
100
AcDbSymbolTableRecord
100
AcDbBlockTableRecord
  2
*PAPER_SPACE
340
8844
  0
BLOCK_RECORD
  5
7493
330
7466
100
AcDbSymbolTableRecord
100
AcDbBlockTableRecord
  2
TITLE_BLOCK
340
0
  0
BLOCK_RECORD
  5
9389
330
7466
100
AcDbSymbolTableRecord
100
AcDbBlockTableRecord
  2
*D193
340
0
  0
BLOCK_RECORD
  5
9394
330
7466
100
AcDbSymbolTableRecord
100
AcDbBlockTableRecord
  2
*D194
340
0
  0
BLOCK_RECORD
  5
93A0
330
7466
100
AcDbSymbolTableRecord
100
AcDbBlockTableRecord
  2
*D195
340
0
  0
BLOCK_RECORD
  5
93AC
330
7466
100
AcDbSymbolTableRecord
100
AcDbBlockTableRecord
  2
*D196
340
0
  0
BLOCK_RECORD
  5
93B8
330
7466
100
AcDbSymbolTableRecord
100
AcDbBlockTableRecord
  2
*D197
340
0
  0
BLOCK_RECORD
  5
93C3
330
7466
100
AcDbSymbolTableRecord
100
AcDbBlockTableRecord
  2
*D198
340
0
  0
BLOCK_RECORD
  5
93D1
330
7466
100
AcDbSymbolTableRecord
100
AcDbBlockTableRecord
  2
*D199
340
0
  0
BLOCK_RECORD
  5
93DE
330
7466
100
AcDbSymbolTableRecord
100
AcDbBlockTableRecord
  2
*D200
340
0
  0
BLOCK_RECORD
  5
93EA
330
7466
100
AcDbSymbolTableRecord
100
AcDbBlockTableRecord
  2
*D201
340
0
  0
BLOCK_RECORD
  5
93F5
330
7466
100
AcDbSymbolTableRecord
100
AcDbBlockTableRecord
  2
*D202
340
0
  0
BLOCK_RECORD
  5
9400
330
7466
100
AcDbSymbolTableRecord
100
AcDbBlockTableRecord
  2
*D203
340
0
  0
BLOCK_RECORD
  5
940B
330
7466
100
AcDbSymbolTableRecord
100
AcDbBlockTableRecord
  2
*D204
340
0
  0
BLOCK_RECORD
  5
9418
330
7466
100
AcDbSymbolTableRecord
100
AcDbBlockTableRecord
  2
*D205
340
0
  0
BLOCK_RECORD
  5
9424
330
7466
100
AcDbSymbolTableRecord
100
AcDbBlockTableRecord
  2
*D206
340
0
  0
BLOCK_RECORD
  5
9430
330
7466
100
AcDbSymbolTableRecord
100
AcDbBlockTableRecord
  2
*D207
340
0
  0
BLOCK_RECORD
  5
943C
330
7466
100
AcDbSymbolTableRecord
100
AcDbBlockTableRecord
  2
*D208
340
0
  0
BLOCK_RECORD
  5
9449
330
7466
100
AcDbSymbolTableRecord
100
AcDbBlockTableRecord
  2
*D209
340
0
  0
BLOCK_RECORD
  5
9457
330
7466
100
AcDbSymbolTableRecord
100
AcDbBlockTableRecord
  2
*D210
340
0
  0
BLOCK_RECORD
  5
9463
330
7466
100
AcDbSymbolTableRecord
100
AcDbBlockTableRecord
  2
*D211
340
0
  0
BLOCK_RECORD
  5
9470
330
7466
100
AcDbSymbolTableRecord
100
AcDbBlockTableRecord
  2
*D212
340
0
  0
BLOCK_RECORD
  5
947C
330
7466
100
AcDbSymbolTableRecord
100
AcDbBlockTableRecord
  2
*D213
340
0
  0
BLOCK_RECORD
  5
9488
330
7466
100
AcDbSymbolTableRecord
100
AcDbBlockTableRecord
  2
*D214
340
0
  0
BLOCK_RECORD
  5
9494
330
7466
100
AcDbSymbolTableRecord
100
AcDbBlockTableRecord
  2
*D215
340
0
  0
BLOCK_RECORD
  5
94A2
330
7466
100
AcDbSymbolTableRecord
100
AcDbBlockTableRecord
  2
*D216
340
0
  0
BLOCK_RECORD
  5
94AE
330
7466
100
AcDbSymbolTableRecord
100
AcDbBlockTableRecord
  2
*D217
340
0
  0
BLOCK_RECORD
  5
94B9
330
7466
100
AcDbSymbolTableRecord
100
AcDbBlockTableRecord
  2
*D218
340
0
  0
BLOCK_RECORD
  5
94C6
330
7466
100
AcDbSymbolTableRecord
100
AcDbBlockTableRecord
  2
*D219
340
0
  0
BLOCK_RECORD
  5
94D2
330
7466
100
AcDbSymbolTableRecord
100
AcDbBlockTableRecord
  2
*D220
340
0
  0
BLOCK_RECORD
  5
94E0
330
7466
100
AcDbSymbolTableRecord
100
AcDbBlockTableRecord
  2
*D221
340
0
  0
BLOCK_RECORD
  5
94EC
330
7466
100
AcDbSymbolTableRecord
100
AcDbBlockTableRecord
  2
*D222
340
0
  0
BLOCK_RECORD
  5
94F8
330
7466
100
AcDbSymbolTableRecord
100
AcDbBlockTableRecord
  2
*D223
340
0
  0
BLOCK_RECORD
  5
9504
330
7466
100
AcDbSymbolTableRecord
100
AcDbBlockTableRecord
  2
*D224
340
0
  0
BLOCK_RECORD
  5
9510
330
7466
100
AcDbSymbolTableRecord
100
AcDbBlockTableRecord
  2
*D225
340
0
  0
BLOCK_RECORD
  5
951C
330
7466
100
AcDbSymbolTableRecord
100
AcDbBlockTableRecord
  2
*D226
340
0
  0
BLOCK_RECORD
  5
9528
330
7466
100
AcDbSymbolTableRecord
100
AcDbBlockTableRecord
  2
*D227
340
0
  0
BLOCK_RECORD
  5
9533
330
7466
100
AcDbSymbolTableRecord
100
AcDbBlockTableRecord
  2
*D228
340
0
  0
BLOCK_RECORD
  5
953E
330
7466
100
AcDbSymbolTableRecord
100
AcDbBlockTableRecord
  2
*D229
340
0
  0
BLOCK_RECORD
  5
954C
330
7466
100
AcDbSymbolTableRecord
100
AcDbBlockTableRecord
  2
*D230
340
0
  0
BLOCK_RECORD
  5
9557
330
7466
100
AcDbSymbolTableRecord
100
AcDbBlockTableRecord
  2
*D231
340
0
  0
BLOCK_RECORD
  5
9563
330
7466
100
AcDbSymbolTableRecord
100
AcDbBlockTableRecord
  2
*D232
340
0
  0
BLOCK_RECORD
  5
956F
330
7466
100
AcDbSymbolTableRecord
100
AcDbBlockTableRecord
  2
*D233
340
0
  0
BLOCK_RECORD
  5
957C
330
7466
100
AcDbSymbolTableRecord
100
AcDbBlockTableRecord
  2
*D234
340
0
  0
BLOCK_RECORD
  5
9588
330
7466
100
AcDbSymbolTableRecord
100
AcDbBlockTableRecord
  2
*D235
340
0
  0
BLOCK_RECORD
  5
9595
330
7466
100
AcDbSymbolTableRecord
100
AcDbBlockTableRecord
  2
*D236
340
0
  0
BLOCK_RECORD
  5
95A0
330
7466
100
AcDbSymbolTableRecord
100
AcDbBlockTableRecord
  2
*D237
340
0
  0
BLOCK_RECORD
  5
95AC
330
7466
100
AcDbSymbolTableRecord
100
AcDbBlockTableRecord
  2
*D238
340
0
  0
BLOCK_RECORD
  5
95B7
330
7466
100
AcDbSymbolTableRecord
100
AcDbBlockTableRecord
  2
*D239
340
0
  0
BLOCK_RECORD
  5
95C3
330
7466
100
AcDbSymbolTableRecord
100
AcDbBlockTableRecord
  2
*D240
340
0
  0
BLOCK_RECORD
  5
95D1
330
7466
100
AcDbSymbolTableRecord
100
AcDbBlockTableRecord
  2
*D241
340
0
  0
BLOCK_RECORD
  5
95DD
330
7466
100
AcDbSymbolTableRecord
100
AcDbBlockTableRecord
  2
*D242
340
0
  0
BLOCK_RECORD
  5
95EA
330
7466
100
AcDbSymbolTableRecord
100
AcDbBlockTableRecord
  2
*D243
340
0
  0
BLOCK_RECORD
  5
95F6
330
7466
100
AcDbSymbolTableRecord
100
AcDbBlockTableRecord
  2
*D244
340
0
  0
BLOCK_RECORD
  5
9604
330
7466
100
AcDbSymbolTableRecord
100
AcDbBlockTableRecord
  2
*D245
340
0
  0
BLOCK_RECORD
  5
9610
330
7466
100
AcDbSymbolTableRecord
100
AcDbBlockTableRecord
  2
*D246
340
0
  0
BLOCK_RECORD
  5
961C
330
7466
100
AcDbSymbolTableRecord
100
AcDbBlockTableRecord
  2
*D247
340
0
  0
BLOCK_RECORD
  5
9629
330
7466
100
AcDbSymbolTableRecord
100
AcDbBlockTableRecord
  2
*D248
340
0
  0
BLOCK_RECORD
  5
9635
330
7466
100
AcDbSymbolTableRecord
100
AcDbBlockTableRecord
  2
*D249
340
0
  0
BLOCK_RECORD
  5
9640
330
7466
100
AcDbSymbolTableRecord
100
AcDbBlockTableRecord
  2
*D250
340
0
  0
BLOCK_RECORD
  5
964D
330
7466
100
AcDbSymbolTableRecord
100
AcDbBlockTableRecord
  2
*D251
340
0
  0
BLOCK_RECORD
  5
9659
330
7466
100
AcDbSymbolTableRecord
100
AcDbBlockTableRecord
  2
*D252
340
0
  0
BLOCK_RECORD
  5
9665
330
7466
100
AcDbSymbolTableRecord
100
AcDbBlockTableRecord
  2
*D253
340
0
  0
BLOCK_RECORD
  5
9673
330
7466
100
AcDbSymbolTableRecord
100
AcDbBlockTableRecord
  2
*D254
340
0
  0
BLOCK_RECORD
  5
967F
330
7466
100
AcDbSymbolTableRecord
100
AcDbBlockTableRecord
  2
*D255
340
0
  0
BLOCK_RECORD
  5
968B
330
7466
100
AcDbSymbolTableRecord
100
AcDbBlockTableRecord
  2
*D256
340
0
  0
BLOCK_RECORD
  5
9697
330
7466
100
AcDbSymbolTableRecord
100
AcDbBlockTableRecord
  2
*D257
340
0
  0
BLOCK_RECORD
  5
96A3
330
7466
100
AcDbSymbolTableRecord
100
AcDbBlockTableRecord
  2
*D258
340
0
  0
BLOCK_RECORD
  5
96B1
330
7466
100
AcDbSymbolTableRecord
100
AcDbBlockTableRecord
  2
*D259
340
0
  0
BLOCK_RECORD
  5
96BD
330
7466
100
AcDbSymbolTableRecord
100
AcDbBlockTableRecord
  2
*D260
340
0
  0
BLOCK_RECORD
  5
96C9
330
7466
100
AcDbSymbolTableRecord
100
AcDbBlockTableRecord
  2
*D261
340
0
  0
BLOCK_RECORD
  5
96D5
330
7466
100
AcDbSymbolTableRecord
100
AcDbBlockTableRecord
  2
*D262
340
0
  0
BLOCK_RECORD
  5
96E1
330
7466
100
AcDbSymbolTableRecord
100
AcDbBlockTableRecord
  2
*D263
340
0
  0
BLOCK_RECORD
  5
96EF
330
7466
100
AcDbSymbolTableRecord
100
AcDbBlockTableRecord
  2
*D264
340
0
  0
BLOCK_RECORD
  5
96FC
330
7466
100
AcDbSymbolTableRecord
100
AcDbBlockTableRecord
  2
*D265
340
0
  0
BLOCK_RECORD
  5
970A
330
7466
100
AcDbSymbolTableRecord
100
AcDbBlockTableRecord
  2
*D266
340
0
  0
BLOCK_RECORD
  5
9715
330
7466
100
AcDbSymbolTableRecord
100
AcDbBlockTableRecord
  2
*D267
340
0
  0
BLOCK_RECORD
  5
9721
330
7466
100
AcDbSymbolTableRecord
100
AcDbBlockTableRecord
  2
*D268
340
0
  0
BLOCK_RECORD
  5
972C
330
7466
100
AcDbSymbolTableRecord
100
AcDbBlockTableRecord
  2
*D269
340
0
  0
BLOCK_RECORD
  5
9738
330
7466
100
AcDbSymbolTableRecord
100
AcDbBlockTableRecord
  2
*D270
340
0
  0
BLOCK_RECORD
  5
9743
330
7466
100
AcDbSymbolTableRecord
100
AcDbBlockTableRecord
  2
*D271
340
0
  0
BLOCK_RECORD
  5
974E
330
7466
100
AcDbSymbolTableRecord
100
AcDbBlockTableRecord
  2
*D272
340
0
  0
BLOCK_RECORD
  5
975A
330
7466
100
AcDbSymbolTableRecord
100
AcDbBlockTableRecord
  2
*D273
340
0
  0
BLOCK_RECORD
  5
9767
330
7466
100
AcDbSymbolTableRecord
100
AcDbBlockTableRecord
  2
*D274
340
0
  0
BLOCK_RECORD
  5
9772
330
7466
100
AcDbSymbolTableRecord
100
AcDbBlockTableRecord
  2
*D275
340
0
  0
BLOCK_RECORD
  5
977E
330
7466
100
AcDbSymbolTableRecord
100
AcDbBlockTableRecord
  2
*D276
340
0
  0
BLOCK_RECORD
  5
978A
330
7466
100
AcDbSymbolTableRecord
100
AcDbBlockTableRecord
  2
*D277
340
0
  0
BLOCK_RECORD
  5
9795
330
7466
100
AcDbSymbolTableRecord
100
AcDbBlockTableRecord
  2
*D278
340
0
  0
BLOCK_RECORD
  5
97A1
330
7466
100
AcDbSymbolTableRecord
100
AcDbBlockTableRecord
  2
*D279
340
0
  0
BLOCK_RECORD
  5
97AC
330
7466
100
AcDbSymbolTableRecord
100
AcDbBlockTableRecord
  2
*D280
340
0
  0
BLOCK_RECORD
  5
97B7
330
7466
100
AcDbSymbolTableRecord
100
AcDbBlockTableRecord
  2
*D281
340
0
  0
BLOCK_RECORD
  5
97C2
330
7466
100
AcDbSymbolTableRecord
100
AcDbBlockTableRecord
  2
*D282
340
0
  0
BLOCK_RECORD
  5
97CF
330
7466
100
AcDbSymbolTableRecord
100
AcDbBlockTableRecord
  2
*D283
340
0
  0
BLOCK_RECORD
  5
97DB
330
7466
100
AcDbSymbolTableRecord
100
AcDbBlockTableRecord
  2
*D284
340
0
  0
BLOCK_RECORD
  5
97E6
330
7466
100
AcDbSymbolTableRecord
100
AcDbBlockTableRecord
  2
*D285
340
0
  0
BLOCK_RECORD
  5
97F1
330
7466
100
AcDbSymbolTableRecord
100
AcDbBlockTableRecord
  2
*D286
340
0
  0
BLOCK_RECORD
  5
97FC
330
7466
100
AcDbSymbolTableRecord
100
AcDbBlockTableRecord
  2
*D287
340
0
  0
BLOCK_RECORD
  5
9808
330
7466
100
AcDbSymbolTableRecord
100
AcDbBlockTableRecord
  2
*D288
340
0
  0
ENDTAB
  0
ENDSEC
  0
SECTION
  2
BLOCKS
  0
BLOCK
  5
7489
330
747D
100
AcDbEntity
  8
0
100
AcDbBlockBegin
  2
*MODEL_SPACE
 70
     0
 10
0.0
 20
0.0
 30
0.0
  3
*MODEL_SPACE
  1

  0
ENDBLK
  5
748A
330
747D
100
AcDbEntity
  8
0
100
AcDbBlockEnd
  0
BLOCK
  5
7487
330
747A
100
AcDbEntity
 67
     1
  8
0
100
AcDbBlockBegin
  2
*PAPER_SPACE
 70
     2
 10
0.0
 20
0.0
 30
0.0
  3
*PAPER_SPACE
  1

  0
ENDBLK
  5
7488
330
747A
100
AcDbEntity
 67
     1
  8
0
100
AcDbBlockEnd
  0
BLOCK
  5
7494
330
7493
100
AcDbEntity
  8
0
100
AcDbBlockBegin
  2
TITLE_BLOCK
 70
     2
 10
0.0
 20
0.0
 30
0.0
  3
TITLE_BLOCK
  1

  0
LINE
  5
7495
330
7493
100
AcDbEntity
  8
0
 62
     0
100
AcDbLine
 10
402.7943262411347
 20
16.00000000000008
 30
0.0
 11
410.0
 21
16.00000000000008
 31
0.0
  0
LINE
  5
7496
330
7493
100
AcDbEntity
  8
0
 62
     0
100
AcDbLine
 10
410.0
 20
10.0
 30
0.0
 11
410.0
 21
49.00000000000036
 31
0.0
  0
LINE
  5
7497
330
7493
100
AcDbEntity
  8
0
 62
     0
100
AcDbLine
 10
410.0
 20
49.00000000000036
 30
0.0
 11
410.0
 21
10.0
 31
0.0
  0
LINE
  5
7498
330
7493
100
AcDbEntity
  8
0
 62
     0
100
AcDbLine
 10
402.7943262411347
 20
22.00000000000012
 30
0.0
 11
402.7943262411347
 21
10.0
 31
0.0
  0
LINE
  5
7499
330
7493
100
AcDbEntity
  8
0
 62
     0
100
AcDbLine
 10
336.1418439716306
 20
49.00000000000036
 30
0.0
 11
336.1418439716306
 21
22.00000000000012
 31
0.0
  0
LINE
  5
749A
330
7493
100
AcDbEntity
  8
0
 62
     0
100
AcDbLine
 10
325.3333333333326
 20
37.00000000000024
 30
0.0
 11
325.3333333333326
 21
25.00000000000012
 31
0.0
  0
LINE
  5
749B
330
7493
100
AcDbEntity
  8
0
 62
     0
100
AcDbLine
 10
318.1276595744673
 20
49.00000000000036
 30
0.0
 11
318.1276595744673
 21
25.00000000000012
 31
0.0
  0
LINE
  5
749C
330
7493
100
AcDbEntity
  8
0
 62
     0
100
AcDbLine
 10
318.1276595744673
 20
25.00000000000012
 30
0.0
 11
348.7517730496447
 21
25.00000000000012
 31
0.0
  0
LINE
  5
749D
330
7493
100
AcDbEntity
  8
0
 62
     0
100
AcDbLine
 10
280.2978723404242
 20
28.00000000000016
 30
0.0
 11
348.7517730496447
 21
28.00000000000016
 31
0.0
  0
LINE
  5
749E
330
7493
100
AcDbEntity
  8
0
 62
     0
100
AcDbLine
 10
280.2978723404242
 20
31.0000000000002
 30
0.0
 11
348.7517730496447
 21
31.0000000000002
 31
0.0
  0
LINE
  5
749F
330
7493
100
AcDbEntity
  8
0
 62
     0
100
AcDbLine
 10
280.2978723404242
 20
34.00000000000024
 30
0.0
 11
348.7517730496447
 21
34.00000000000024
 31
0.0
  0
LINE
  5
74A0
330
7493
100
AcDbEntity
  8
0
 62
     0
100
AcDbLine
 10
280.2978723404242
 20
19.00000000000008
 30
0.0
 11
318.1276595744673
 21
19.00000000000012
 31
0.0
  0
LINE
  5
74A1
330
7493
100
AcDbEntity
  8
0
 62
     0
100
AcDbLine
 10
280.2978723404242
 20
22.00000000000008
 30
0.0
 11
318.1276595744673
 21
22.00000000000012
 31
0.0
  0
LINE
  5
74A2
330
7493
100
AcDbEntity
  8
0
 62
     0
100
AcDbLine
 10
280.2978723404242
 20
25.00000000000012
 30
0.0
 11
318.1276595744673
 21
25.00000000000012
 31
0.0
  0
TEXT
  5
74A3
330
7493
100
AcDbEntity
  8
0
 62
     0
100
AcDbText
 10
342.2447163844405
 20
10.55220101068186
 30
0.0
 40
1.791674070777747
  1
照査
  7
ADESK1
 72
     1
 11
344.1558353932701
 21
10.55220101068186
 31
0.0
100
AcDbText
  0
TEXT
  5
74A4
330
7493
100
AcDbEntity
  8
0
 62
     0
100
AcDbText
 10
332.2960689314087
 20
10.48329012996929
 30
0.0
 40
1.791674070777747
  1
設計
  7
ADESK1
 72
     1
 11
334.2071879402383
 21
10.48329012996929
 31
0.0
100
AcDbText
  0
TEXT
  5
74A5
330
7493
100
AcDbEntity
  8
0
 62
     0
100
AcDbText
 10
321.7174935280942
 20
10.48329012996929
 30
0.0
 40
1.791674070777747
  1
製図
  7
ADESK1
 72
     1
 11
323.5688900678979
 21
10.48329012996929
 31
0.0
100
AcDbText
  0
LINE
  5
74A6
330
7493
100
AcDbEntity
  8
0
 62
     0
100
AcDbLine
 10
280.2978723404242
 20
10.0
 30
0.0
 11
280.2978723404242
 21
13.00000000000004
 31
0.0
  0
LINE
  5
74A7
330
7493
100
AcDbEntity
  8
0
 62
     0
100
AcDbLine
 10
280.2978723404242
 20
16.00000000000008
 30
0.0
 11
318.1276595744673
 21
16.00000000000008
 31
0.0
  0
LINE
  5
74A8
330
7493
100
AcDbEntity
  8
0
 62
     0
100
AcDbLine
 10
339.4042553191484
 20
22.00000000000008
 30
0.0
 11
339.4042553191484
 21
10.0
 31
0.0
  0
LINE
  5
74A9
330
7493
100
AcDbEntity
  8
0
 62
     0
100
AcDbLine
 10
328.7659574468078
 20
22.00000000000008
 30
0.0
 11
328.7659574468078
 21
10.0
 31
0.0
  0
LINE
  5
74AA
330
7493
100
AcDbEntity
  8
0
 62
     0
100
AcDbLine
 10
348.7517730496447
 20
49.00000000000036
 30
0.0
 11
348.7517730496447
 21
10.0
 31
0.0
  0
LINE
  5
74AB
330
7493
100
AcDbEntity
  8
0
 62
     0
100
AcDbLine
 10
280.2978723404242
 20
49.00000000000036
 30
0.0
 11
280.2978723404242
 21
10.0
 31
0.0
  0
LINE
  5
74AC
330
7493
100
AcDbEntity
  8
0
 62
     0
100
AcDbLine
 10
318.1276595744673
 20
25.00000000000012
 30
0.0
 11
318.1276595744673
 21
10.0
 31
0.0
  0
LINE
  5
74AD
330
7493
100
AcDbEntity
  8
0
 62
     0
100
AcDbLine
 10
312.7234042553184
 20
37.00000000000024
 30
0.0
 11
312.7234042553184
 21
10.0
 31
0.0
  0
LINE
  5
74AE
330
7493
100
AcDbEntity
  8
0
 62
     0
100
AcDbLine
 10
285.7021276595731
 20
37.00000000000024
 30
0.0
 11
285.7021276595731
 21
10.0
 31
0.0
  0
LINE
  5
74AF
330
7493
100
AcDbEntity
  8
0
 62
     0
100
AcDbLine
 10
303.7163120567366
 20
37.00000000000024
 30
0.0
 11
303.7163120567366
 21
10.0
 31
0.0
  0
LINE
  5
74B0
330
7493
100
AcDbEntity
  8
0
 62
     0
100
AcDbLine
 10
410.0
 20
49.00000000000036
 30
0.0
 11
280.2978723404242
 21
49.00000000000036
 31
0.0
  0
LINE
  5
74B1
330
7493
100
AcDbEntity
  8
0
 62
     0
100
AcDbLine
 10
280.2978723404242
 20
10.0
 30
0.0
 11
410.0
 21
10.0
 31
0.0
  0
LINE
  5
74B2
330
7493
100
AcDbEntity
  8
0
 62
     0
100
AcDbLine
 10
318.1276595744673
 20
22.00000000000012
 30
0.0
 11
410.0
 21
22.00000000000012
 31
0.0
  0
LINE
  5
74B3
330
7493
100
AcDbEntity
  8
0
 62
     0
100
AcDbLine
 10
280.2978723404242
 20
37.00000000000024
 30
0.0
 11
410.0
 21
37.00000000000024
 31
0.0
  0
LINE
  5
74B4
330
7493
100
AcDbEntity
  8
0
 62
     0
100
AcDbLine
 10
280.2978723404242
 20
13.00000000000004
 30
0.0
 11
410.0
 21
13.00000000000004
 31
0.0
  0
LINE
  5
74B5
330
7493
100
AcDbEntity
  8
0
 62
     0
100
AcDbLine
 10
280.2978723404242
 20
49.00000000000036
 30
0.0
 11
410.0
 21
49.00000000000036
 31
0.0
  0
TEXT
  5
74B6
330
7493
100
AcDbEntity
  8
0
100
AcDbText
 10
411.3708251683467
 20
33.08333333333334
 30
0.0
 40
3.0
  1
F
  7
ADESK1
 72
     1
 11
412.8708251683468
 21
33.08333333333334
 31
0.0
100
AcDbText
  0
TEXT
  5
74B7
330
7493
100
AcDbEntity
  8
0
100
AcDbText
 10
411.3708251683467
 20
79.25
 30
0.0
 40
3.0
  1
E
  7
ADESK1
 72
     1
 11
412.8708251683468
 21
79.25
 31
0.0
100
AcDbText
  0
TEXT
  5
74B8
330
7493
100
AcDbEntity
  8
0
100
AcDbText
 10
411.2993965969182
 20
125.4166666666666
 30
0.0
 40
3.0
  1
D
  7
ADESK1
 72
     1
 11
412.8708251683468
 21
125.4166666666666
 31
0.0
100
AcDbText
  0
TEXT
  5
74B9
330
7493
100
AcDbEntity
  8
0
100
AcDbText
 10
411.3708251683467
 20
171.5833333333333
 30
0.0
 40
3.0
  1
C
  7
ADESK1
 72
     1
 11
412.8708251683468
 21
171.5833333333333
 31
0.0
100
AcDbText
  0
TEXT
  5
74BA
330
7493
100
AcDbEntity
  8
0
100
AcDbText
 10
411.2993965969182
 20
217.75
 30
0.0
 40
3.0
  1
B
  7
ADESK1
 72
     1
 11
412.8708251683468
 21
217.75
 31
0.0
100
AcDbText
  0
TEXT
  5
74BB
330
7493
100
AcDbEntity
  8
0
100
AcDbText
 10
411.5851108826324
 20
263.9166666666666
 30
0.0
 40
3.0
  1
A
  7
ADESK1
 72
     1
 11
412.8708251683468
 21
263.9166666666666
 31
0.0
100
AcDbText
  0
TEXT
  5
74BC
330
7493
100
AcDbEntity
  8
0
100
AcDbText
 10
384.5089285714286
 20
6.019997240728748
 30
0.0
 40
3.0
  1
8
  7
ADESK1
 72
     1
 11
385.9375
 21
6.019997240728748
 31
0.0
100
AcDbText
  0
TEXT
  5
74BD
330
7493
100
AcDbEntity
  8
0
100
AcDbText
 10
336.3839285714286
 20
6.019997240728748
 30
0.0
 40
3.0
  1
7
  7
ADESK1
 72
     1
 11
337.8125
 21
6.019997240728748
 31
0.0
100
AcDbText
  0
TEXT
  5
74BE
330
7493
100
AcDbEntity
  8
0
100
AcDbText
 10
288.1875
 20
6.019997240728748
 30
0.0
 40
3.0
  1
6
  7
ADESK1
 72
     1
 11
289.6875
 21
6.019997240728748
 31
0.0
100
AcDbText
  0
TEXT
  5
74BF
330
7493
100
AcDbEntity
  8
0
100
AcDbText
 10
240.1339285714286
 20
6.019997240728748
 30
0.0
 40
3.0
  1
5
  7
ADESK1
 72
     1
 11
241.5625
 21
6.019997240728748
 31
0.0
100
AcDbText
  0
TEXT
  5
74C0
330
7493
100
AcDbEntity
  8
0
100
AcDbText
 10
191.9375
 20
6.019997240728748
 30
0.0
 40
3.0
  1
4
  7
ADESK1
 72
     1
 11
193.4375
 21
6.019997240728748
 31
0.0
100
AcDbText
  0
TEXT
  5
74C1
330
7493
100
AcDbEntity
  8
0
100
AcDbText
 10
143.8839285714285
 20
6.019997240728748
 30
0.0
 40
3.0
  1
3
  7
ADESK1
 72
     1
 11
145.3125
 21
6.019997240728748
 31
0.0
100
AcDbText
  0
TEXT
  5
74C2
330
7493
100
AcDbEntity
  8
0
100
AcDbText
 10
95.75892857142857
 20
6.019997240728748
 30
0.0
 40
3.0
  1
2
  7
ADESK1
 72
     1
 11
97.1875
 21
6.019997240728748
 31
0.0
100
AcDbText
  0
TEXT
  5
74C3
330
7493
100
AcDbEntity
  8
0
100
AcDbText
 10
47.84821428571429
 20
6.019997240728748
 30
0.0
 40
3.0
  1
1
  7
ADESK1
 72
     1
 11
49.0625
 21
6.019997240728748
 31
0.0
100
AcDbText
  0
TEXT
  5
74C4
330
7493
100
AcDbEntity
  8
0
100
AcDbText
 10
21.1071613595339
 20
33.08333333333334
 30
0.0
 40
3.0
  1
F
  7
ADESK1
 72
     1
 11
22.6071613595339
 21
33.08333333333334
 31
0.0
100
AcDbText
  0
TEXT
  5
74C5
330
7493
100
AcDbEntity
  8
0
100
AcDbText
 10
21.1071613595339
 20
79.25
 30
0.0
 40
3.0
  1
E
  7
ADESK1
 72
     1
 11
22.6071613595339
 21
79.25
 31
0.0
100
AcDbText
  0
TEXT
  5
74C6
330
7493
100
AcDbEntity
  8
0
100
AcDbText
 10
21.03573278810533
 20
125.4166666666666
 30
0.0
 40
3.0
  1
D
  7
ADESK1
 72
     1
 11
22.6071613595339
 21
125.4166666666666
 31
0.0
100
AcDbText
  0
TEXT
  5
74C7
330
7493
100
AcDbEntity
  8
0
100
AcDbText
 10
21.1071613595339
 20
171.5833333333333
 30
0.0
 40
3.0
  1
C
  7
ADESK1
 72
     1
 11
22.6071613595339
 21
171.5833333333333
 31
0.0
100
AcDbText
  0
TEXT
  5
74C8
330
7493
100
AcDbEntity
  8
0
100
AcDbText
 10
21.03573278810533
 20
217.75
 30
0.0
 40
3.0
  1
B
  7
ADESK1
 72
     1
 11
22.6071613595339
 21
217.75
 31
0.0
100
AcDbText
  0
TEXT
  5
74C9
330
7493
100
AcDbEntity
  8
0
100
AcDbText
 10
384.5089285714286
 20
288.0
 30
0.0
 40
3.0
  1
8
  7
ADESK1
 72
     1
 11
385.9375
 21
288.0
 31
0.0
100
AcDbText
  0
TEXT
  5
74CA
330
7493
100
AcDbEntity
  8
0
100
AcDbText
 10
336.3839285714286
 20
288.0
 30
0.0
 40
3.0
  1
7
  7
ADESK1
 72
     1
 11
337.8125
 21
288.0
 31
0.0
100
AcDbText
  0
TEXT
  5
74CB
330
7493
100
AcDbEntity
  8
0
100
AcDbText
 10
288.1875
 20
288.0
 30
0.0
 40
3.0
  1
6
  7
ADESK1
 72
     1
 11
289.6875
 21
288.0
 31
0.0
100
AcDbText
  0
TEXT
  5
74CC
330
7493
100
AcDbEntity
  8
0
100
AcDbText
 10
240.1339285714286
 20
288.0
 30
0.0
 40
3.0
  1
5
  7
ADESK1
 72
     1
 11
241.5625
 21
288.0
 31
0.0
100
AcDbText
  0
TEXT
  5
74CD
330
7493
100
AcDbEntity
  8
0
100
AcDbText
 10
191.9375
 20
288.0
 30
0.0
 40
3.0
  1
4
  7
ADESK1
 72
     1
 11
193.4375
 21
288.0
 31
0.0
100
AcDbText
  0
TEXT
  5
74CE
330
7493
100
AcDbEntity
  8
0
100
AcDbText
 10
143.8839285714285
 20
288.0
 30
0.0
 40
3.0
  1
3
  7
ADESK1
 72
     1
 11
145.3125
 21
288.0
 31
0.0
100
AcDbText
  0
TEXT
  5
74CF
330
7493
100
AcDbEntity
  8
0
100
AcDbText
 10
95.75892857142857
 20
288.0
 30
0.0
 40
3.0
  1
2
  7
ADESK1
 72
     1
 11
97.1875
 21
288.0
 31
0.0
100
AcDbText
  0
TEXT
  5
74D0
330
7493
100
AcDbEntity
  8
0
100
AcDbText
 10
21.32144707381961
 20
263.9166666666666
 30
0.0
 40
3.0
  1
A
  7
ADESK1
 72
     1
 11
22.6071613595339
 21
263.9166666666666
 31
0.0
100
AcDbText
  0
TEXT
  5
74D1
330
7493
100
AcDbEntity
  8
0
100
AcDbText
 10
47.84821428571429
 20
288.0
 30
0.0
 40
3.0
  1
1
  7
ADESK1
 72
     1
 11
49.0625
 21
288.0
 31
0.0
100
AcDbText
  0
LINE
  5
74D2
330
7493
100
AcDbEntity
  8
0
100
AcDbLine
 10
73.125
 20
287.0
 30
0.0
 11
73.125
 21
292.0
 31
0.0
  0
LINE
  5
74D3
330
7493
100
AcDbEntity
  8
0
100
AcDbLine
 10
121.25
 20
287.0
 30
0.0
 11
121.25
 21
292.0
 31
0.0
  0
LINE
  5
74D4
330
7493
100
AcDbEntity
  8
0
100
AcDbLine
 10
169.375
 20
287.0
 30
0.0
 11
169.375
 21
292.0
 31
0.0
  0
LINE
  5
74D5
330
7493
100
AcDbEntity
  8
0
100
AcDbLine
 10
217.5
 20
287.0
 30
0.0
 11
217.5
 21
292.0
 31
0.0
  0
LINE
  5
74D6
330
7493
100
AcDbEntity
  8
0
100
AcDbLine
 10
265.625
 20
287.0
 30
0.0
 11
265.625
 21
292.0
 31
0.0
  0
LINE
  5
74D7
330
7493
100
AcDbEntity
  8
0
100
AcDbLine
 10
313.75
 20
287.0
 30
0.0
 11
313.75
 21
292.0
 31
0.0
  0
LINE
  5
74D8
330
7493
100
AcDbEntity
  8
0
100
AcDbLine
 10
361.875
 20
287.0
 30
0.0
 11
361.875
 21
292.0
 31
0.0
  0
LINE
  5
74D9
330
7493
100
AcDbEntity
  8
0
100
AcDbLine
 10
361.875
 20
10.0
 30
0.0
 11
361.875
 21
5.0
 31
0.0
  0
LINE
  5
74DA
330
7493
100
AcDbEntity
  8
0
100
AcDbLine
 10
313.75
 20
10.0
 30
0.0
 11
313.75
 21
5.0
 31
0.0
  0
LINE
  5
74DB
330
7493
100
AcDbEntity
  8
0
100
AcDbLine
 10
265.625
 20
10.0
 30
0.0
 11
265.625
 21
5.0
 31
0.0
  0
LINE
  5
74DC
330
7493
100
AcDbEntity
  8
0
100
AcDbLine
 10
217.5
 20
10.0
 30
0.0
 11
217.5
 21
5.0
 31
0.0
  0
LINE
  5
74DD
330
7493
100
AcDbEntity
  8
0
100
AcDbLine
 10
169.375
 20
10.0
 30
0.0
 11
169.375
 21
5.0
 31
0.0
  0
LINE
  5
74DE
330
7493
100
AcDbEntity
  8
0
100
AcDbLine
 10
121.25
 20
10.0
 30
0.0
 11
121.25
 21
5.0
 31
0.0
  0
LINE
  5
74DF
330
7493
100
AcDbEntity
  8
0
100
AcDbLine
 10
73.125
 20
10.0
 30
0.0
 11
73.125
 21
5.0
 31
0.0
  0
LINE
  5
74E0
330
7493
100
AcDbEntity
  8
0
100
AcDbLine
 10
410.0
 20
240.8333333333334
 30
0.0
 11
415.0
 21
240.8333333333334
 31
0.0
  0
LINE
  5
74E1
330
7493
100
AcDbEntity
  8
0
100
AcDbLine
 10
410.0
 20
194.6666666666667
 30
0.0
 11
415.0
 21
194.6666666666667
 31
0.0
  0
LINE
  5
74E2
330
7493
100
AcDbEntity
  8
0
100
AcDbLine
 10
410.0
 20
148.5
 30
0.0
 11
415.0
 21
148.5
 31
0.0
  0
LINE
  5
74E3
330
7493
100
AcDbEntity
  8
0
100
AcDbLine
 10
410.0
 20
102.3333333333333
 30
0.0
 11
415.0
 21
102.3333333333333
 31
0.0
  0
LINE
  5
74E4
330
7493
100
AcDbEntity
  8
0
100
AcDbLine
 10
410.0
 20
56.16666666666668
 30
0.0
 11
415.0
 21
56.16666666666668
 31
0.0
  0
LINE
  5
74E5
330
7493
100
AcDbEntity
  8
0
100
AcDbLine
 10
25.0
 20
56.16666666666667
 30
0.0
 11
20.0
 21
56.16666666666667
 31
0.0
  0
LINE
  5
74E6
330
7493
100
AcDbEntity
  8
0
100
AcDbLine
 10
25.0
 20
102.3333333333333
 30
0.0
 11
20.0
 21
102.3333333333333
 31
0.0
  0
LINE
  5
74E7
330
7493
100
AcDbEntity
  8
0
100
AcDbLine
 10
25.0
 20
148.5
 30
0.0
 11
20.0
 21
148.5
 31
0.0
  0
LINE
  5
74E8
330
7493
100
AcDbEntity
  8
0
100
AcDbLine
 10
25.0
 20
194.6666666666666
 30
0.0
 11
20.0
 21
194.6666666666666
 31
0.0
  0
LINE
  5
74E9
330
7493
100
AcDbEntity
  8
0
100
AcDbLine
 10
25.0
 20
240.8333333333333
 30
0.0
 11
20.0
 21
240.8333333333333
 31
0.0
  0
TEXT
  5
74EA
330
7493
100
AcDbEntity
  8
0
100
AcDbText
 10
1.0
 20
1.0
 30
0.0
 40
3.0
  1
この図枠はサンプルです。社内の規格やプロッタの出力範囲に合わせて適当に変更してご利用ください。
  7
ADESK1
100
AcDbText
  0
LINE
  5
74EB
330
7493
100
AcDbEntity
  8
0
100
AcDbLine
 10
25.0
 20
148.5
 30
0.0
 11
0.0
 21
148.5
 31
0.0
  0
LINE
  5
74EC
330
7493
100
AcDbEntity
  8
0
100
AcDbLine
 10
410.0
 20
148.5
 30
0.0
 11
420.0
 21
148.5
 31
0.0
  0
LINE
  5
74ED
330
7493
100
AcDbEntity
  8
0
100
AcDbLine
 10
217.5
 20
287.0
 30
0.0
 11
217.5
 21
297.0
 31
0.0
  0
LINE
  5
74EE
330
7493
100
AcDbEntity
  8
0
100
AcDbLine
 10
217.5
 20
10.0
 30
0.0
 11
217.5
 21
0.0
 31
0.0
  0
LINE
  5
74EF
330
7493
100
AcDbEntity
  8
OBJECT
100
AcDbLine
 10
130.0
 20
40.0
 30
0.0
 11
130.0
 21
10.0
 31
0.0
  0
LINE
  5
74F0
330
7493
100
AcDbEntity
  8
OBJECT
100
AcDbLine
 10
120.0
 20
10.0
 30
0.0
 11
120.0
 21
40.0
 31
0.0
  0
LINE
  5
74F1
330
7493
100
AcDbEntity
  8
OBJECT
100
AcDbLine
 10
44.5
 20
37.0
 30
0.0
 11
45.49999999999999
 21
37.0
 31
0.0
  0
LINE
  5
74F2
330
7493
100
AcDbEntity
  8
OBJECT
100
AcDbLine
 10
44.5
 20
31.0
 30
0.0
 11
45.49999999999999
 21
31.0
 31
0.0
  0
LINE
  5
74F3
330
7493
100
AcDbEntity
  8
OBJECT
100
AcDbLine
 10
39.5
 20
37.0
 30
0.0
 11
40.49999999999999
 21
37.0
 31
0.0
  0
LINE
  5
74F4
330
7493
100
AcDbEntity
  8
OBJECT
100
AcDbLine
 10
39.5
 20
31.0
 30
0.0
 11
40.49999999999999
 21
31.0
 31
0.0
  0
LINE
  5
74F5
330
7493
100
AcDbEntity
  8
OBJECT
100
AcDbLine
 10
44.5
 20
25.0
 30
0.0
 11
45.49999999999999
 21
25.0
 31
0.0
  0
LINE
  5
74F6
330
7493
100
AcDbEntity
  8
OBJECT
100
AcDbLine
 10
39.5
 20
25.0
 30
0.0
 11
40.49999999999999
 21
25.0
 31
0.0
  0
LINE
  5
74F7
330
7493
100
AcDbEntity
  8
OBJECT
100
AcDbLine
 10
44.5
 20
19.0
 30
0.0
 11
45.49999999999999
 21
19.0
 31
0.0
  0
LINE
  5
74F8
330
7493
100
AcDbEntity
  8
OBJECT
100
AcDbLine
 10
39.5
 20
19.0
 30
0.0
 11
40.49999999999999
 21
19.0
 31
0.0
  0
LINE
  5
74F9
330
7493
100
AcDbEntity
  8
OBJECT
100
AcDbLine
 10
28.0
 20
29.53589800000001
 30
0.0
 11
30.0
 21
33.0
 31
0.0
  0
LINE
  5
74FA
330
7493
100
AcDbEntity
  8
OBJECT
100
AcDbLine
 10
28.0
 20
29.53589800000001
 30
0.0
 11
32.0
 21
29.53589800000001
 31
0.0
  0
LINE
  5
74FB
330
7493
100
AcDbEntity
  8
OBJECT
100
AcDbLine
 10
32.0
 20
29.53589800000001
 30
0.0
 11
30.0
 21
33.0
 31
0.0
  0
LINE
  5
74FC
330
7493
100
AcDbEntity
  8
OBJECT
100
AcDbLine
 10
28.0
 20
35.535898
 30
0.0
 11
32.0
 21
35.535898
 31
0.0
  0
LINE
  5
74FD
330
7493
100
AcDbEntity
  8
OBJECT
100
AcDbLine
 10
32.0
 20
35.535898
 30
0.0
 11
30.0
 21
39.0
 31
0.0
  0
LINE
  5
74FE
330
7493
100
AcDbEntity
  8
OBJECT
100
AcDbLine
 10
28.0
 20
35.535898
 30
0.0
 11
30.0
 21
39.0
 31
0.0
  0
LINE
  5
74FF
330
7493
100
AcDbEntity
  8
OBJECT
100
AcDbLine
 10
28.0
 20
23.535898
 30
0.0
 11
30.0
 21
27.0
 31
0.0
  0
LINE
  5
7500
330
7493
100
AcDbEntity
  8
OBJECT
100
AcDbLine
 10
28.0
 20
23.535898
 30
0.0
 11
32.0
 21
23.535898
 31
0.0
  0
LINE
  5
7501
330
7493
100
AcDbEntity
  8
OBJECT
100
AcDbLine
 10
32.0
 20
23.535898
 30
0.0
 11
30.0
 21
27.0
 31
0.0
  0
LINE
  5
7502
330
7493
100
AcDbEntity
  8
OBJECT
100
AcDbLine
 10
28.0
 20
17.535898
 30
0.0
 11
30.0
 21
21.0
 31
0.0
  0
LINE
  5
7503
330
7493
100
AcDbEntity
  8
OBJECT
100
AcDbLine
 10
28.0
 20
17.535898
 30
0.0
 11
32.0
 21
17.535898
 31
0.0
  0
LINE
  5
7504
330
7493
100
AcDbEntity
  8
OBJECT
100
AcDbLine
 10
32.0
 20
17.535898
 30
0.0
 11
30.0
 21
21.0
 31
0.0
  0
LINE
  5
7505
330
7493
100
AcDbEntity
  8
OBJECT
100
AcDbLine
 10
44.5
 20
13.0
 30
0.0
 11
45.49999999999999
 21
13.0
 31
0.0
  0
LINE
  5
7506
330
7493
100
AcDbEntity
  8
OBJECT
100
AcDbLine
 10
39.5
 20
13.0
 30
0.0
 11
40.49999999999999
 21
13.0
 31
0.0
  0
LINE
  5
7507
330
7493
100
AcDbEntity
  8
OBJECT
100
AcDbLine
 10
28.0
 20
11.535898
 30
0.0
 11
32.0
 21
11.535898
 31
0.0
  0
LINE
  5
7508
330
7493
100
AcDbEntity
  8
OBJECT
100
AcDbLine
 10
80.0
 20
10.0
 30
0.0
 11
80.0
 21
40.0
 31
0.0
  0
LINE
  5
7509
330
7493
100
AcDbEntity
  8
OBJECT
100
AcDbLine
 10
50.0
 20
10.0
 30
0.0
 11
50.0
 21
40.0
 31
0.0
  0
LINE
  5
750A
330
7493
100
AcDbEntity
  8
OBJECT
100
AcDbLine
 10
35.0
 20
10.0
 30
0.0
 11
35.0
 21
40.0
 31
0.0
  0
LINE
  5
750B
330
7493
100
AcDbEntity
  8
OBJECT
100
AcDbLine
 10
32.0
 20
11.535898
 30
0.0
 11
30.0
 21
15.0
 31
0.0
  0
LINE
  5
750C
330
7493
100
AcDbEntity
  8
OBJECT
100
AcDbLine
 10
28.0
 20
11.535898
 30
0.0
 11
30.0
 21
15.0
 31
0.0
  0
LINE
  5
750D
330
7493
100
AcDbEntity
  8
OBJECT
100
AcDbLine
 10
130.0
 20
40.0
 30
0.0
 11
25.0
 21
40.0
 31
0.0
  0
LINE
  5
750E
330
7493
100
AcDbEntity
  8
OBJECT
100
AcDbLine
 10
130.0
 20
34.0
 30
0.0
 11
25.0
 21
34.0
 31
0.0
  0
LINE
  5
750F
330
7493
100
AcDbEntity
  8
OBJECT
100
AcDbLine
 10
130.0
 20
28.0
 30
0.0
 11
25.0
 21
28.0
 31
0.0
  0
LINE
  5
7510
330
7493
100
AcDbEntity
  8
OBJECT
100
AcDbLine
 10
130.0
 20
22.0
 30
0.0
 11
25.0
 21
22.0
 31
0.0
  0
LINE
  5
7511
330
7493
100
AcDbEntity
  8
OBJECT
100
AcDbLine
 10
130.0
 20
16.0
 30
0.0
 11
25.0
 21
16.0
 31
0.0
  0
ATTDEF
  5
7512
330
7493
100
AcDbEntity
  8
0
 62
     0
100
AcDbText
 10
19.0
 20
118.0
 30
0.0
 40
3.0
  1

 50
90.0
  7
ADESK1
100
AcDbAttributeDefinition
  3

  2
FNAME
 70
     8
  0
ATTDEF
  5
7513
330
7493
100
AcDbEntity
  8
0
 62
     0
100
AcDbText
 10
19.0
 20
70.0
 30
0.0
 40
3.0
  1

 50
90.0
  7
ADESK1
100
AcDbAttributeDefinition
  3

  2
REVDATE
 70
     8
  0
ATTDEF
  5
7514
330
7493
100
AcDbEntity
  8
0
 62
     0
100
AcDbText
 10
19.0
 20
10.0
 30
0.0
 40
3.0
  1

 50
90.0
  7
ADESK1
100
AcDbAttributeDefinition
  3

  2
USER
 70
     8
  0
LINE
  5
7515
330
7493
100
AcDbEntity
  8
0
100
AcDbLine
 10
410.0
 20
297.0
 30
0.0
 11
420.0
 21
297.0
 31
0.0
  0
LINE
  5
7516
330
7493
100
AcDbEntity
  8
0
100
AcDbLine
 10
420.0
 20
10.0
 30
0.0
 11
420.0
 21
0.0
 31
0.0
  0
LINE
  5
7517
330
7493
100
AcDbEntity
  8
0
100
AcDbLine
 10
25.0
 20
0.0
 30
0.0
 11
0.0
 21
0.0
 31
0.0
  0
LINE
  5
7518
330
7493
100
AcDbEntity
  8
0
100
AcDbLine
 10
0.0
 20
287.0
 30
0.0
 11
0.0
 21
297.0
 31
0.0
  0
LINE
  5
7519
330
7493
100
AcDbEntity
  8
0
100
AcDbLine
 10
25.0
 20
287.0
 30
0.0
 11
410.0
 21
287.0
 31
0.0
  0
LINE
  5
751A
330
7493
100
AcDbEntity
  8
0
100
AcDbLine
 10
410.0
 20
287.0
 30
0.0
 11
410.0
 21
10.0
 31
0.0
  0
LINE
  5
751B
330
7493
100
AcDbEntity
  8
0
100
AcDbLine
 10
410.0
 20
10.0
 30
0.0
 11
25.0
 21
10.0
 31
0.0
  0
LINE
  5
751C
330
7493
100
AcDbEntity
  8
0
100
AcDbLine
 10
25.0
 20
10.0
 30
0.0
 11
25.0
 21
287.0
 31
0.0
  0
LINE
  5
751D
330
7493
100
AcDbEntity
  8
0
100
AcDbLine
 10
420.0
 20
0.0
 30
0.0
 11
410.0
 21
0.0
 31
0.0
  0
LINE
  5
751E
330
7493
100
AcDbEntity
  8
0
100
AcDbLine
 10
420.0
 20
297.0
 30
0.0
 11
420.0
 21
287.0
 31
0.0
  0
LINE
  5
751F
330
7493
100
AcDbEntity
  8
0
100
AcDbLine
 10
0.0
 20
297.0
 30
0.0
 11
25.0
 21
297.0
 31
0.0
  0
LINE
  5
7520
330
7493
100
AcDbEntity
  8
0
100
AcDbLine
 10
0.0
 20
0.0
 30
0.0
 11
0.0
 21
10.0
 31
0.0
  0
ENDBLK
  5
7521
330
7493
100
AcDbEntity
  8
0
100
AcDbBlockEnd
  0
BLOCK
  5
9392
330
9389
100
AcDbEntity
  8
0
 48
15.0
100
AcDbBlockBegin
  2
*D193
 70
     1
 10
0.0
 20
0.0
 30
0.0
  3
*D193
  1

  0
LINE
  5
9BDD
330
9389
100
AcDbEntity
  8
寸法引出
 48
15.0
370
    -2
100
AcDbLine
 10
1452.249546853663
 20
748.1334898804052
 30
0.0
 11
1347.083193847953
 21
748.1334898804052
 31
0.0
  0
LINE
  5
9BDE
330
9389
100
AcDbEntity
  8
寸法引出
 48
15.0
370
    -2
100
AcDbLine
 10
1354.583193847953
 20
1485.633489880405
 30
0.0
 11
1354.583193847953
 21
770.6334898804052
 31
0.0
  0
SOLID
  5
9BDF
330
9389
100
AcDbEntity
  8
寸法引出
 48
15.0
100
AcDbTrace
 10
1350.833193847953
 20
1485.633489880405
 30
0.0
 11
1358.333193847953
 21
1485.633489880405
 31
0.0
 12
1354.583193847953
 22
1508.133489880405
 32
0.0
 13
1354.583193847953
 23
1508.133489880405
 33
0.0
  0
SOLID
  5
9BE0
330
9389
100
AcDbEntity
  8
寸法引出
 48
15.0
100
AcDbTrace
 10
1350.833193847953
 20
770.6334898804052
 30
0.0
 11
1358.333193847953
 21
770.6334898804052
 31
0.0
 12
1354.583193847953
 22
748.1334898804052
 32
0.0
 13
1354.583193847953
 23
748.1334898804052
 33
0.0
  0
MTEXT
  5
9BE1
330
9389
100
AcDbEntity
  8
寸法引出
 48
15.0
100
AcDbMText
 10
1324.583193847953
 20
1128.133489880405
 30
0.0
 40
30.0
 41
0.0
 71
     5
 72
     1
  1
\A1;760
  7
SANWA
 11
0.0000000000000001
 21
1.0
 31
0.0
 73
     1
 44
1.0
1001
ACAD
1000
MTEXTBEGIN
1070
    73
1070
     1
1070
    44
1040
1.0
1070
    74
1070
     0
1000
MTEXTEND
  0
POINT
  5
9BE2
330
9389
100
AcDbEntity
  8
DEFPOINTS
 62
     0
 48
15.0
100
AcDbPoint
 10
1467.249546853663
 20
1508.133489880405
 30
0.0
  0
POINT
  5
9BE3
330
9389
100
AcDbEntity
  8
DEFPOINTS
 62
     0
 48
15.0
100
AcDbPoint
 10
1467.249546853663
 20
748.1334898804052
 30
0.0
  0
POINT
  5
9BE4
330
9389
100
AcDbEntity
  8
DEFPOINTS
 62
     0
 48
15.0
100
AcDbPoint
 10
1354.583193847953
 20
748.1334898804052
 30
0.0
  0
ENDBLK
  5
9393
330
9389
100
AcDbEntity
  8
0
 48
15.0
100
AcDbBlockEnd
  0
BLOCK
  5
939E
330
9394
100
AcDbEntity
  8
0
 48
15.0
100
AcDbBlockBegin
  2
*D194
 70
     1
 10
0.0
 20
0.0
 30
0.0
  3
*D194
  1

  0
LINE
  5
9BE5
330
9394
100
AcDbEntity
  8
寸法引出
 48
15.0
370
    -2
100
AcDbLine
 10
2102.249546853664
 20
1628.133489880405
 30
0.0
 11
2208.961154218109
 21
1628.133489880405
 31
0.0
  0
LINE
  5
9BE6
330
9394
100
AcDbEntity
  8
寸法引出
 48
15.0
370
    -2
100
AcDbLine
 10
2102.249546853664
 20
628.1334898804052
 30
0.0
 11
2208.961154218108
 21
628.1334898804052
 31
0.0
  0
LINE
  5
9BE7
330
9394
100
AcDbEntity
  8
寸法引出
 48
15.0
370
    -2
100
AcDbLine
 10
2201.461154218109
 20
1605.633489880405
 30
0.0
 11
2201.461154218108
 21
650.6334898804052
 31
0.0
  0
SOLID
  5
9BE8
330
9394
100
AcDbEntity
  8
寸法引出
 48
15.0
100
AcDbTrace
 10
2197.711154218109
 20
1605.633489880405
 30
0.0
 11
2205.211154218109
 21
1605.633489880405
 31
0.0
 12
2201.461154218109
 22
1628.133489880405
 32
0.0
 13
2201.461154218109
 23
1628.133489880405
 33
0.0
  0
SOLID
  5
9BE9
330
9394
100
AcDbEntity
  8
寸法引出
 48
15.0
100
AcDbTrace
 10
2197.711154218108
 20
650.6334898804052
 30
0.0
 11
2205.211154218108
 21
650.6334898804052
 31
0.0
 12
2201.461154218108
 22
628.1334898804052
 32
0.0
 13
2201.461154218108
 23
628.1334898804052
 33
0.0
  0
MTEXT
  5
9BEA
330
9394
100
AcDbEntity
  8
寸法引出
 48
15.0
100
AcDbMText
 10
2171.461154218108
 20
1128.133489880405
 30
0.0
 40
30.0
 41
0.0
 71
     5
 72
     1
  1
\A1;1000
  7
SANWA
 11
0.0000000000000001
 21
1.0
 31
0.0
 73
     1
 44
1.0
1001
ACAD
1000
MTEXTBEGIN
1070
    73
1070
     1
1070
    44
1040
1.0
1070
    74
1070
     0
1000
MTEXTEND
  0
POINT
  5
9BEB
330
9394
100
AcDbEntity
  8
DEFPOINTS
 62
     0
 48
15.0
100
AcDbPoint
 10
2087.249546853664
 20
1628.133489880405
 30
0.0
  0
POINT
  5
9BEC
330
9394
100
AcDbEntity
  8
DEFPOINTS
 62
     0
 48
15.0
100
AcDbPoint
 10
2087.249546853664
 20
628.1334898804052
 30
0.0
  0
POINT
  5
9BED
330
9394
100
AcDbEntity
  8
DEFPOINTS
 62
     0
 48
15.0
100
AcDbPoint
 10
2201.461154218108
 20
628.1334898804052
 30
0.0
  0
ENDBLK
  5
939F
330
9394
100
AcDbEntity
  8
0
 48
15.0
100
AcDbBlockEnd
  0
BLOCK
  5
93AA
330
93A0
100
AcDbEntity
  8
0
 48
15.0
100
AcDbBlockBegin
  2
*D195
 70
     1
 10
0.0
 20
0.0
 30
0.0
  3
*D195
  1

  0
LINE
  5
9BEE
330
93A0
100
AcDbEntity
  8
寸法引出
 48
15.0
370
    -2
100
AcDbLine
 10
1467.249546853663
 20
613.1334898804052
 30
0.0
 11
1467.249546853663
 21
436.3948661469621
 31
0.0
  0
LINE
  5
9BEF
330
93A0
100
AcDbEntity
  8
寸法引出
 48
15.0
370
    -2
100
AcDbLine
 10
2087.249546853664
 20
613.1334898804052
 30
0.0
 11
2087.249546853664
 21
436.3948661469621
 31
0.0
  0
LINE
  5
9BF0
330
93A0
100
AcDbEntity
  8
寸法引出
 48
15.0
370
    -2
100
AcDbLine
 10
1489.749546853663
 20
443.8948661469622
 30
0.0
 11
2064.749546853664
 21
443.8948661469622
 31
0.0
  0
SOLID
  5
9BF1
330
93A0
100
AcDbEntity
  8
寸法引出
 48
15.0
100
AcDbTrace
 10
1489.749546853663
 20
447.6448661469621
 30
0.0
 11
1489.749546853663
 21
440.1448661469621
 31
0.0
 12
1467.249546853663
 22
443.8948661469622
 32
0.0
 13
1467.249546853663
 23
443.8948661469622
 33
0.0
  0
SOLID
  5
9BF2
330
93A0
100
AcDbEntity
  8
寸法引出
 48
15.0
100
AcDbTrace
 10
2064.749546853664
 20
447.6448661469621
 30
0.0
 11
2064.749546853664
 21
440.1448661469621
 31
0.0
 12
2087.249546853664
 22
443.8948661469622
 32
0.0
 13
2087.249546853664
 23
443.8948661469622
 33
0.0
  0
MTEXT
  5
9BF3
330
93A0
100
AcDbEntity
  8
寸法引出
 48
15.0
100
AcDbMText
 10
1777.249546853663
 20
473.8948661469621
 30
0.0
 40
30.0
 41
0.0
 71
     5
 72
     1
  1
\A1;620
  7
SANWA
 73
     1
 44
1.0
1001
ACAD
1000
MTEXTBEGIN
1070
    73
1070
     1
1070
    44
1040
1.0
1070
    74
1070
     0
1000
MTEXTEND
  0
POINT
  5
9BF4
330
93A0
100
AcDbEntity
  8
DEFPOINTS
 62
     0
 48
15.0
100
AcDbPoint
 10
1467.249546853663
 20
628.1334898804052
 30
0.0
  0
POINT
  5
9BF5
330
93A0
100
AcDbEntity
  8
DEFPOINTS
 62
     0
 48
15.0
100
AcDbPoint
 10
2087.249546853664
 20
628.1334898804052
 30
0.0
  0
POINT
  5
9BF6
330
93A0
100
AcDbEntity
  8
DEFPOINTS
 62
     0
 48
15.0
100
AcDbPoint
 10
2087.249546853664
 20
443.8948661469622
 30
0.0
  0
ENDBLK
  5
93AB
330
93A0
100
AcDbEntity
  8
0
 48
15.0
100
AcDbBlockEnd
  0
BLOCK
  5
93B6
330
93AC
100
AcDbEntity
  8
0
 48
15.0
100
AcDbBlockBegin
  2
*D196
 70
     1
 10
0.0
 20
0.0
 30
0.0
  3
*D196
  1

  0
LINE
  5
9BF7
330
93AC
100
AcDbEntity
  8
寸法引出
 48
15.0
370
    -2
100
AcDbLine
 10
1497.249546853663
 20
613.1334898804052
 30
0.0
 11
1497.249546853663
 21
508.8932210081838
 31
0.0
  0
LINE
  5
9BF8
330
93AC
100
AcDbEntity
  8
寸法引出
 48
15.0
370
    -2
100
AcDbLine
 10
2057.249546853664
 20
613.1334898804052
 30
0.0
 11
2057.249546853664
 21
508.8932210081838
 31
0.0
  0
LINE
  5
9BF9
330
93AC
100
AcDbEntity
  8
寸法引出
 48
15.0
370
    -2
100
AcDbLine
 10
1519.749546853663
 20
516.3932210081839
 30
0.0
 11
2034.749546853664
 21
516.3932210081839
 31
0.0
  0
SOLID
  5
9BFA
330
93AC
100
AcDbEntity
  8
寸法引出
 48
15.0
100
AcDbTrace
 10
1519.749546853663
 20
520.1432210081839
 30
0.0
 11
1519.749546853663
 21
512.6432210081839
 31
0.0
 12
1497.249546853663
 22
516.3932210081839
 32
0.0
 13
1497.249546853663
 23
516.3932210081839
 33
0.0
  0
SOLID
  5
9BFB
330
93AC
100
AcDbEntity
  8
寸法引出
 48
15.0
100
AcDbTrace
 10
2034.749546853664
 20
520.1432210081839
 30
0.0
 11
2034.749546853664
 21
512.6432210081839
 31
0.0
 12
2057.249546853664
 22
516.3932210081839
 32
0.0
 13
2057.249546853664
 23
516.3932210081839
 33
0.0
  0
MTEXT
  5
9BFC
330
93AC
100
AcDbEntity
  8
寸法引出
 48
15.0
100
AcDbMText
 10
1777.249546853663
 20
546.3932210081838
 30
0.0
 40
30.0
 41
0.0
 71
     5
 72
     1
  1
\A1;560
  7
SANWA
 73
     1
 44
1.0
1001
ACAD
1000
MTEXTBEGIN
1070
    73
1070
     1
1070
    44
1040
1.0
1070
    74
1070
     0
1000
MTEXTEND
  0
POINT
  5
9BFD
330
93AC
100
AcDbEntity
  8
DEFPOINTS
 62
     0
 48
15.0
100
AcDbPoint
 10
1497.249546853663
 20
628.1334898804052
 30
0.0
  0
POINT
  5
9BFE
330
93AC
100
AcDbEntity
  8
DEFPOINTS
 62
     0
 48
15.0
100
AcDbPoint
 10
2057.249546853664
 20
628.1334898804052
 30
0.0
  0
POINT
  5
9BFF
330
93AC
100
AcDbEntity
  8
DEFPOINTS
 62
     0
 48
15.0
100
AcDbPoint
 10
2057.249546853664
 20
516.3932210081839
 30
0.0
  0
ENDBLK
  5
93B7
330
93AC
100
AcDbEntity
  8
0
 48
15.0
100
AcDbBlockEnd
  0
BLOCK
  5
93C1
330
93B8
100
AcDbEntity
  8
0
 48
15.0
100
AcDbBlockBegin
  2
*D197
 70
     1
 10
0.0
 20
0.0
 30
0.0
  3
*D197
  1

  0
LINE
  5
9C00
330
93B8
100
AcDbEntity
  8
寸法引出
 48
15.0
370
    -2
100
AcDbLine
 10
1452.249546853663
 20
628.1334898804052
 30
0.0
 11
1347.083193847953
 21
628.1334898804052
 31
0.0
  0
LINE
  5
9C01
330
93B8
100
AcDbEntity
  8
寸法引出
 48
15.0
370
    -2
100
AcDbLine
 10
1354.583193847953
 20
725.6334898804052
 30
0.0
 11
1354.583193847953
 21
650.6334898804052
 31
0.0
  0
SOLID
  5
9C02
330
93B8
100
AcDbEntity
  8
寸法引出
 48
15.0
100
AcDbTrace
 10
1350.833193847953
 20
725.6334898804052
 30
0.0
 11
1358.333193847953
 21
725.6334898804052
 31
0.0
 12
1354.583193847953
 22
748.1334898804052
 32
0.0
 13
1354.583193847953
 23
748.1334898804052
 33
0.0
  0
SOLID
  5
9C03
330
93B8
100
AcDbEntity
  8
寸法引出
 48
15.0
100
AcDbTrace
 10
1350.833193847953
 20
650.6334898804052
 30
0.0
 11
1358.333193847953
 21
650.6334898804052
 31
0.0
 12
1354.583193847953
 22
628.1334898804052
 32
0.0
 13
1354.583193847953
 23
628.1334898804052
 33
0.0
  0
MTEXT
  5
9C04
330
93B8
100
AcDbEntity
  8
寸法引出
 48
15.0
100
AcDbMText
 10
1324.583193847953
 20
688.1334898804055
 30
0.0
 40
30.0
 41
0.0
 71
     5
 72
     1
  1
\A1;120
  7
SANWA
 11
0.0000000000000001
 21
1.0
 31
0.0
 73
     1
 44
1.0
1001
ACAD
1000
MTEXTBEGIN
1070
    73
1070
     1
1070
    44
1040
1.0
1070
    74
1070
     0
1000
MTEXTEND
  0
POINT
  5
9C05
330
93B8
100
AcDbEntity
  8
DEFPOINTS
 62
     0
 48
15.0
100
AcDbPoint
 10
1467.249546853663
 20
748.1334898804052
 30
0.0
  0
POINT
  5
9C06
330
93B8
100
AcDbEntity
  8
DEFPOINTS
 62
     0
 48
15.0
100
AcDbPoint
 10
1467.249546853663
 20
628.1334898804052
 30
0.0
  0
POINT
  5
9C07
330
93B8
100
AcDbEntity
  8
DEFPOINTS
 62
     0
 48
15.0
100
AcDbPoint
 10
1354.583193847953
 20
628.1334898804052
 30
0.0
  0
ENDBLK
  5
93C2
330
93B8
100
AcDbEntity
  8
0
 48
15.0
100
AcDbBlockEnd
  0
BLOCK
  5
93CF
330
93C3
100
AcDbEntity
  8
0
 48
15.0
100
AcDbBlockBegin
  2
*D198
 70
     1
 10
0.0
 20
0.0
 30
0.0
  3
*D198
  1

  0
LINE
  5
9C08
330
93C3
100
AcDbEntity
  8
寸法引出
 48
15.0
370
    -2
100
AcDbLine
 10
1467.249546853663
 20
613.1334898804052
 30
0.0
 11
1467.249546853663
 21
508.8932210081838
 31
0.0
  0
LINE
  5
9C09
330
93C3
100
AcDbEntity
  8
寸法引出
 48
15.0
370
    -2
100
AcDbLine
 10
1497.249546853663
 20
585.1690212446847
 30
0.0
 11
1497.249546853663
 21
508.8932210081838
 31
0.0
  0
LINE
  5
9C0A
330
93C3
100
AcDbEntity
  8
寸法引出
 48
15.0
370
    -2
100
AcDbLine
 10
1444.749546853663
 20
516.3932210081839
 30
0.0
 11
1422.249546853663
 21
516.3932210081839
 31
0.0
  0
LINE
  5
9C0B
330
93C3
100
AcDbEntity
  8
寸法引出
 48
15.0
370
    -2
100
AcDbLine
 10
1519.749546853663
 20
516.3932210081839
 30
0.0
 11
1542.249546853663
 21
516.3932210081839
 31
0.0
  0
LINE
  5
9C0C
330
93C3
100
AcDbEntity
  8
寸法引出
 48
15.0
370
    -2
100
AcDbLine
 10
1467.249546853663
 20
516.3932210081839
 30
0.0
 11
1497.249546853663
 21
516.3932210081839
 31
0.0
  0
SOLID
  5
9C0D
330
93C3
100
AcDbEntity
  8
寸法引出
 48
15.0
100
AcDbTrace
 10
1444.749546853663
 20
520.1432210081839
 30
0.0
 11
1444.749546853663
 21
512.6432210081839
 31
0.0
 12
1467.249546853663
 22
516.3932210081839
 32
0.0
 13
1467.249546853663
 23
516.3932210081839
 33
0.0
  0
SOLID
  5
9C0E
330
93C3
100
AcDbEntity
  8
寸法引出
 48
15.0
100
AcDbTrace
 10
1519.749546853663
 20
520.1432210081839
 30
0.0
 11
1519.749546853663
 21
512.6432210081839
 31
0.0
 12
1497.249546853663
 22
516.3932210081839
 32
0.0
 13
1497.249546853663
 23
516.3932210081839
 33
0.0
  0
MTEXT
  5
9C0F
330
93C3
100
AcDbEntity
  8
寸法引出
 48
15.0
100
AcDbMText
 10
1482.249546853663
 20
546.3932210081838
 30
0.0
 40
30.0
 41
0.0
 71
     5
 72
     1
  1
\A1;30
  7
SANWA
 73
     1
 44
1.0
1001
ACAD
1000
MTEXTBEGIN
1070
    73
1070
     1
1070
    44
1040
1.0
1070
    74
1070
     0
1000
MTEXTEND
  0
POINT
  5
9C10
330
93C3
100
AcDbEntity
  8
DEFPOINTS
 62
     0
 48
15.0
100
AcDbPoint
 10
1467.249546853663
 20
628.1334898804052
 30
0.0
  0
POINT
  5
9C11
330
93C3
100
AcDbEntity
  8
DEFPOINTS
 62
     0
 48
15.0
100
AcDbPoint
 10
1497.249546853663
 20
600.1690212446846
 30
0.0
  0
POINT
  5
9C12
330
93C3
100
AcDbEntity
  8
DEFPOINTS
 62
     0
 48
15.0
100
AcDbPoint
 10
1497.249546853663
 20
516.3932210081839
 30
0.0
  0
ENDBLK
  5
93D0
330
93C3
100
AcDbEntity
  8
0
 48
15.0
100
AcDbBlockEnd
  0
BLOCK
  5
93DC
330
93D1
100
AcDbEntity
  8
0
 48
15.0
100
AcDbBlockBegin
  2
*D199
 70
     1
 10
0.0
 20
0.0
 30
0.0
  3
*D199
  1

  0
LINE
  5
9C13
330
93D1
100
AcDbEntity
  8
寸法引出
 48
15.0
370
    -2
100
AcDbLine
 10
2087.249546853664
 20
613.1334898804052
 30
0.0
 11
2087.249546853664
 21
508.8932210081838
 31
0.0
  0
LINE
  5
9C14
330
93D1
100
AcDbEntity
  8
寸法引出
 48
15.0
370
    -2
100
AcDbLine
 10
2034.749546853664
 20
516.3932210081839
 30
0.0
 11
2012.249546853664
 21
516.3932210081839
 31
0.0
  0
LINE
  5
9C15
330
93D1
100
AcDbEntity
  8
寸法引出
 48
15.0
370
    -2
100
AcDbLine
 10
2109.749546853664
 20
516.3932210081839
 30
0.0
 11
2132.249546853664
 21
516.3932210081839
 31
0.0
  0
LINE
  5
9C16
330
93D1
100
AcDbEntity
  8
寸法引出
 48
15.0
370
    -2
100
AcDbLine
 10
2057.249546853664
 20
516.3932210081839
 30
0.0
 11
2087.249546853664
 21
516.3932210081839
 31
0.0
  0
SOLID
  5
9C17
330
93D1
100
AcDbEntity
  8
寸法引出
 48
15.0
100
AcDbTrace
 10
2034.749546853664
 20
520.1432210081839
 30
0.0
 11
2034.749546853664
 21
512.6432210081839
 31
0.0
 12
2057.249546853664
 22
516.3932210081839
 32
0.0
 13
2057.249546853664
 23
516.3932210081839
 33
0.0
  0
SOLID
  5
9C18
330
93D1
100
AcDbEntity
  8
寸法引出
 48
15.0
100
AcDbTrace
 10
2109.749546853664
 20
520.1432210081839
 30
0.0
 11
2109.749546853664
 21
512.6432210081839
 31
0.0
 12
2087.249546853664
 22
516.3932210081839
 32
0.0
 13
2087.249546853664
 23
516.3932210081839
 33
0.0
  0
MTEXT
  5
9C19
330
93D1
100
AcDbEntity
  8
寸法引出
 48
15.0
100
AcDbMText
 10
2072.249546853663
 20
546.3932210081838
 30
0.0
 40
30.0
 41
0.0
 71
     5
 72
     1
  1
\A1;30
  7
SANWA
 73
     1
 44
1.0
1001
ACAD
1000
MTEXTBEGIN
1070
    73
1070
     1
1070
    44
1040
1.0
1070
    74
1070
     0
1000
MTEXTEND
  0
POINT
  5
9C1A
330
93D1
100
AcDbEntity
  8
DEFPOINTS
 62
     0
 48
15.0
100
AcDbPoint
 10
2057.249546853664
 20
628.1334898804052
 30
0.0
  0
POINT
  5
9C1B
330
93D1
100
AcDbEntity
  8
DEFPOINTS
 62
     0
 48
15.0
100
AcDbPoint
 10
2087.249546853664
 20
628.1334898804052
 30
0.0
  0
POINT
  5
9C1C
330
93D1
100
AcDbEntity
  8
DEFPOINTS
 62
     0
 48
15.0
100
AcDbPoint
 10
2087.249546853664
 20
516.3932210081839
 30
0.0
  0
ENDBLK
  5
93DD
330
93D1
100
AcDbEntity
  8
0
 48
15.0
100
AcDbBlockEnd
  0
BLOCK
  5
93E8
330
93DE
100
AcDbEntity
  8
0
 48
15.0
100
AcDbBlockBegin
  2
*D200
 70
     1
 10
0.0
 20
0.0
 30
0.0
  3
*D200
  1

  0
LINE
  5
9C1D
330
93DE
100
AcDbEntity
  8
寸法引出
 48
15.0
370
    -2
100
AcDbLine
 10
1467.249546853663
 20
2239.6249744426
 30
0.0
 11
1467.249546853663
 21
2366.328772796376
 31
0.0
  0
LINE
  5
9C1E
330
93DE
100
AcDbEntity
  8
寸法引出
 48
15.0
370
    -2
100
AcDbLine
 10
2087.249546853664
 20
2239.6249744426
 30
0.0
 11
2087.249546853664
 21
2366.328772796376
 31
0.0
  0
LINE
  5
9C1F
330
93DE
100
AcDbEntity
  8
寸法引出
 48
15.0
370
    -2
100
AcDbLine
 10
1489.749546853663
 20
2358.828772796377
 30
0.0
 11
2064.749546853664
 21
2358.828772796377
 31
0.0
  0
SOLID
  5
9C20
330
93DE
100
AcDbEntity
  8
寸法引出
 48
15.0
100
AcDbTrace
 10
1489.749546853663
 20
2362.578772796376
 30
0.0
 11
1489.749546853663
 21
2355.078772796376
 31
0.0
 12
1467.249546853663
 22
2358.828772796377
 32
0.0
 13
1467.249546853663
 23
2358.828772796377
 33
0.0
  0
SOLID
  5
9C21
330
93DE
100
AcDbEntity
  8
寸法引出
 48
15.0
100
AcDbTrace
 10
2064.749546853664
 20
2362.578772796376
 30
0.0
 11
2064.749546853664
 21
2355.078772796376
 31
0.0
 12
2087.249546853664
 22
2358.828772796377
 32
0.0
 13
2087.249546853664
 23
2358.828772796377
 33
0.0
  0
MTEXT
  5
9C22
330
93DE
100
AcDbEntity
  8
寸法引出
 48
15.0
100
AcDbMText
 10
1777.249546853663
 20
2388.828772796376
 30
0.0
 40
30.0
 41
0.0
 71
     5
 72
     1
  1
\A1;620
  7
SANWA
 73
     1
 44
1.0
1001
ACAD
1000
MTEXTBEGIN
1070
    73
1070
     1
1070
    44
1040
1.0
1070
    74
1070
     0
1000
MTEXTEND
  0
POINT
  5
9C23
330
93DE
100
AcDbEntity
  8
DEFPOINTS
 62
     0
 48
15.0
100
AcDbPoint
 10
1467.249546853663
 20
2224.6249744426
 30
0.0
  0
POINT
  5
9C24
330
93DE
100
AcDbEntity
  8
DEFPOINTS
 62
     0
 48
15.0
100
AcDbPoint
 10
2087.249546853664
 20
2224.6249744426
 30
0.0
  0
POINT
  5
9C25
330
93DE
100
AcDbEntity
  8
DEFPOINTS
 62
     0
 48
15.0
100
AcDbPoint
 10
2087.249546853664
 20
2358.828772796377
 30
0.0
  0
ENDBLK
  5
93E9
330
93DE
100
AcDbEntity
  8
0
 48
15.0
100
AcDbBlockEnd
  0
BLOCK
  5
93F3
330
93EA
100
AcDbEntity
  8
0
 48
15.0
100
AcDbBlockBegin
  2
*D201
 70
     1
 10
0.0
 20
0.0
 30
0.0
  3
*D201
  1

  0
LINE
  5
9C26
330
93EA
100
AcDbEntity
  8
寸法引出
 48
15.0
370
    -2
100
AcDbLine
 10
2087.249546853664
 20
2239.6249744426
 30
0.0
 11
2087.249546853664
 21
2308.307064814711
 31
0.0
  0
LINE
  5
9C27
330
93EA
100
AcDbEntity
  8
寸法引出
 48
15.0
370
    -2
100
AcDbLine
 10
1832.249546853663
 20
2300.807064814712
 30
0.0
 11
2064.749546853664
 21
2300.807064814712
 31
0.0
  0
SOLID
  5
9C28
330
93EA
100
AcDbEntity
  8
寸法引出
 48
15.0
100
AcDbTrace
 10
1832.249546853663
 20
2304.557064814711
 30
0.0
 11
1832.249546853663
 21
2297.057064814711
 31
0.0
 12
1809.749546853663
 22
2300.807064814712
 32
0.0
 13
1809.749546853663
 23
2300.807064814712
 33
0.0
  0
SOLID
  5
9C29
330
93EA
100
AcDbEntity
  8
寸法引出
 48
15.0
100
AcDbTrace
 10
2064.749546853664
 20
2304.557064814711
 30
0.0
 11
2064.749546853664
 21
2297.057064814711
 31
0.0
 12
2087.249546853664
 22
2300.807064814712
 32
0.0
 13
2087.249546853664
 23
2300.807064814712
 33
0.0
  0
MTEXT
  5
9C2A
330
93EA
100
AcDbEntity
  8
寸法引出
 48
15.0
100
AcDbMText
 10
1948.499546853663
 20
2330.807064814711
 30
0.0
 40
30.0
 41
0.0
 71
     5
 72
     1
  1
\A1;277.5
  7
SANWA
 73
     1
 44
1.0
1001
ACAD
1000
MTEXTBEGIN
1070
    73
1070
     1
1070
    44
1040
1.0
1070
    74
1070
     0
1000
MTEXTEND
  0
POINT
  5
9C2B
330
93EA
100
AcDbEntity
  8
DEFPOINTS
 62
     0
 48
15.0
100
AcDbPoint
 10
1809.749546853663
 20
2207.6249744426
 30
0.0
  0
POINT
  5
9C2C
330
93EA
100
AcDbEntity
  8
DEFPOINTS
 62
     0
 48
15.0
100
AcDbPoint
 10
2087.249546853664
 20
2224.6249744426
 30
0.0
  0
POINT
  5
9C2D
330
93EA
100
AcDbEntity
  8
DEFPOINTS
 62
     0
 48
15.0
100
AcDbPoint
 10
2087.249546853664
 20
2300.807064814712
 30
0.0
  0
ENDBLK
  5
93F4
330
93EA
100
AcDbEntity
  8
0
 48
15.0
100
AcDbBlockEnd
  0
BLOCK
  5
93FE
330
93F5
100
AcDbEntity
  8
0
 48
15.0
100
AcDbBlockBegin
  2
*D202
 70
     1
 10
0.0
 20
0.0
 30
0.0
  3
*D202
  1

  0
LINE
  5
9C2E
330
93F5
100
AcDbEntity
  8
寸法引出
 48
15.0
370
    -2
100
AcDbLine
 10
2087.249546853664
 20
1643.133489880405
 30
0.0
 11
2087.249546853664
 21
1739.44874137183
 31
0.0
  0
LINE
  5
9C2F
330
93F5
100
AcDbEntity
  8
寸法引出
 48
15.0
370
    -2
100
AcDbLine
 10
1832.249546853663
 20
1731.94874137183
 30
0.0
 11
2064.749546853664
 21
1731.94874137183
 31
0.0
  0
SOLID
  5
9C30
330
93F5
100
AcDbEntity
  8
寸法引出
 48
15.0
100
AcDbTrace
 10
1832.249546853663
 20
1735.69874137183
 30
0.0
 11
1832.249546853663
 21
1728.198741371831
 31
0.0
 12
1809.749546853663
 22
1731.94874137183
 32
0.0
 13
1809.749546853663
 23
1731.94874137183
 33
0.0
  0
SOLID
  5
9C31
330
93F5
100
AcDbEntity
  8
寸法引出
 48
15.0
100
AcDbTrace
 10
2064.749546853664
 20
1735.69874137183
 30
0.0
 11
2064.749546853664
 21
1728.198741371831
 31
0.0
 12
2087.249546853664
 22
1731.94874137183
 32
0.0
 13
2087.249546853664
 23
1731.94874137183
 33
0.0
  0
MTEXT
  5
9C32
330
93F5
100
AcDbEntity
  8
寸法引出
 48
15.0
100
AcDbMText
 10
1948.499546853663
 20
1761.948741371831
 30
0.0
 40
30.0
 41
0.0
 71
     5
 72
     1
  1
\A1;277.5
  7
SANWA
 73
     1
 44
1.0
1001
ACAD
1000
MTEXTBEGIN
1070
    73
1070
     1
1070
    44
1040
1.0
1070
    74
1070
     0
1000
MTEXTEND
  0
POINT
  5
9C33
330
93F5
100
AcDbEntity
  8
DEFPOINTS
 62
     0
 48
15.0
100
AcDbPoint
 10
1809.749546853663
 20
1628.133489880405
 30
0.0
  0
POINT
  5
9C34
330
93F5
100
AcDbEntity
  8
DEFPOINTS
 62
     0
 48
15.0
100
AcDbPoint
 10
2087.249546853664
 20
1628.133489880405
 30
0.0
  0
POINT
  5
9C35
330
93F5
100
AcDbEntity
  8
DEFPOINTS
 62
     0
 48
15.0
100
AcDbPoint
 10
2087.249546853664
 20
1731.94874137183
 30
0.0
  0
ENDBLK
  5
93FF
330
93F5
100
AcDbEntity
  8
0
 48
15.0
100
AcDbBlockEnd
  0
BLOCK
  5
9409
330
9400
100
AcDbEntity
  8
0
 48
15.0
100
AcDbBlockBegin
  2
*D203
 70
     1
 10
0.0
 20
0.0
 30
0.0
  3
*D203
  1

  0
LINE
  5
9C36
330
9400
100
AcDbEntity
  8
寸法引出
 48
15.0
370
    -2
100
AcDbLine
 10
2087.249546853664
 20
2072.6249744426
 30
0.0
 11
2087.249546853664
 21
1929.653224009686
 31
0.0
  0
LINE
  5
9C37
330
9400
100
AcDbEntity
  8
寸法引出
 48
15.0
370
    -2
100
AcDbLine
 10
1847.749546853663
 20
1937.153224009685
 30
0.0
 11
2064.749546853664
 21
1937.153224009685
 31
0.0
  0
SOLID
  5
9C38
330
9400
100
AcDbEntity
  8
寸法引出
 48
15.0
100
AcDbTrace
 10
1847.749546853663
 20
1940.903224009686
 30
0.0
 11
1847.749546853663
 21
1933.403224009685
 31
0.0
 12
1825.249546853662
 22
1937.153224009685
 32
0.0
 13
1825.249546853662
 23
1937.153224009685
 33
0.0
  0
SOLID
  5
9C39
330
9400
100
AcDbEntity
  8
寸法引出
 48
15.0
100
AcDbTrace
 10
2064.749546853664
 20
1940.903224009686
 30
0.0
 11
2064.749546853664
 21
1933.403224009685
 31
0.0
 12
2087.249546853664
 22
1937.153224009685
 32
0.0
 13
2087.249546853664
 23
1937.153224009685
 33
0.0
  0
MTEXT
  5
9C3A
330
9400
100
AcDbEntity
  8
寸法引出
 48
15.0
100
AcDbMText
 10
1956.249546853663
 20
1967.153224009686
 30
0.0
 40
30.0
 41
0.0
 71
     5
 72
     1
  1
\A1;262
  7
SANWA
 73
     1
 44
1.0
1001
ACAD
1000
MTEXTBEGIN
1070
    73
1070
     1
1070
    44
1040
1.0
1070
    74
1070
     0
1000
MTEXTEND
  0
POINT
  5
9C3B
330
9400
100
AcDbEntity
  8
DEFPOINTS
 62
     0
 48
15.0
100
AcDbPoint
 10
1825.249546853662
 20
2087.6249744426
 30
0.0
  0
POINT
  5
9C3C
330
9400
100
AcDbEntity
  8
DEFPOINTS
 62
     0
 48
15.0
100
AcDbPoint
 10
2087.249546853664
 20
2087.6249744426
 30
0.0
  0
POINT
  5
9C3D
330
9400
100
AcDbEntity
  8
DEFPOINTS
 62
     0
 48
15.0
100
AcDbPoint
 10
2087.249546853664
 20
1937.153224009685
 30
0.0
  0
ENDBLK
  5
940A
330
9400
100
AcDbEntity
  8
0
 48
15.0
100
AcDbBlockEnd
  0
BLOCK
  5
9416
330
940B
100
AcDbEntity
  8
0
 48
15.0
100
AcDbBlockBegin
  2
*D204
 70
     1
 10
0.0
 20
0.0
 30
0.0
  3
*D204
  1

  0
LINE
  5
9C3E
330
940B
100
AcDbEntity
  8
寸法引出
 48
15.0
370
    -2
100
AcDbLine
 10
1809.749546853663
 20
2222.6249744426
 30
0.0
 11
1809.749546853663
 21
2308.307064814711
 31
0.0
  0
LINE
  5
9C3F
330
940B
100
AcDbEntity
  8
寸法引出
 48
15.0
370
    -2
100
AcDbLine
 10
1722.249546853663
 20
2300.807064814712
 30
0.0
 11
1699.749546853663
 21
2300.807064814712
 31
0.0
  0
LINE
  5
9C40
330
940B
100
AcDbEntity
  8
寸法引出
 48
15.0
370
    -2
100
AcDbLine
 10
1832.249546853663
 20
2300.807064814712
 30
0.0
 11
1854.749546853663
 21
2300.807064814712
 31
0.0
  0
LINE
  5
9C41
330
940B
100
AcDbEntity
  8
寸法引出
 48
15.0
370
    -2
100
AcDbLine
 10
1744.749546853664
 20
2300.807064814712
 30
0.0
 11
1809.749546853663
 21
2300.807064814712
 31
0.0
  0
SOLID
  5
9C42
330
940B
100
AcDbEntity
  8
寸法引出
 48
15.0
100
AcDbTrace
 10
1722.249546853663
 20
2304.557064814711
 30
0.0
 11
1722.249546853663
 21
2297.057064814711
 31
0.0
 12
1744.749546853664
 22
2300.807064814712
 32
0.0
 13
1744.749546853664
 23
2300.807064814712
 33
0.0
  0
SOLID
  5
9C43
330
940B
100
AcDbEntity
  8
寸法引出
 48
15.0
100
AcDbTrace
 10
1832.249546853663
 20
2304.557064814711
 30
0.0
 11
1832.249546853663
 21
2297.057064814711
 31
0.0
 12
1809.749546853663
 22
2300.807064814712
 32
0.0
 13
1809.749546853663
 23
2300.807064814712
 33
0.0
  0
MTEXT
  5
9C44
330
940B
100
AcDbEntity
  8
寸法引出
 48
15.0
100
AcDbMText
 10
1777.249546853663
 20
2330.807064814711
 30
0.0
 40
30.0
 41
0.0
 71
     5
 72
     1
  1
\A1;65
  7
SANWA
 73
     1
 44
1.0
1001
ACAD
1000
MTEXTBEGIN
1070
    73
1070
     1
1070
    44
1040
1.0
1070
    74
1070
     0
1000
MTEXTEND
  0
POINT
  5
9C45
330
940B
100
AcDbEntity
  8
DEFPOINTS
 62
     0
 48
15.0
100
AcDbPoint
 10
1744.749546853664
 20
2207.6249744426
 30
0.0
  0
POINT
  5
9C46
330
940B
100
AcDbEntity
  8
DEFPOINTS
 62
     0
 48
15.0
100
AcDbPoint
 10
1809.749546853663
 20
2207.6249744426
 30
0.0
  0
POINT
  5
9C47
330
940B
100
AcDbEntity
  8
DEFPOINTS
 62
     0
 48
15.0
100
AcDbPoint
 10
1809.749546853663
 20
2300.807064814712
 30
0.0
  0
ENDBLK
  5
9417
330
940B
100
AcDbEntity
  8
0
 48
15.0
100
AcDbBlockEnd
  0
BLOCK
  5
9422
330
9418
100
AcDbEntity
  8
0
 48
15.0
100
AcDbBlockBegin
  2
*D205
 70
     1
 10
0.0
 20
0.0
 30
0.0
  3
*D205
  1

  0
LINE
  5
9C48
330
9418
100
AcDbEntity
  8
寸法引出
 48
15.0
370
    -2
100
AcDbLine
 10
1467.249546853663
 20
2239.6249744426
 30
0.0
 11
1467.249546853663
 21
2308.307064814711
 31
0.0
  0
LINE
  5
9C49
330
9418
100
AcDbEntity
  8
寸法引出
 48
15.0
370
    -2
100
AcDbLine
 10
1744.749546853664
 20
2222.6249744426
 30
0.0
 11
1744.749546853664
 21
2308.307064814711
 31
0.0
  0
LINE
  5
9C4A
330
9418
100
AcDbEntity
  8
寸法引出
 48
15.0
370
    -2
100
AcDbLine
 10
1489.749546853663
 20
2300.807064814712
 30
0.0
 11
1722.249546853663
 21
2300.807064814712
 31
0.0
  0
SOLID
  5
9C4B
330
9418
100
AcDbEntity
  8
寸法引出
 48
15.0
100
AcDbTrace
 10
1489.749546853663
 20
2304.557064814711
 30
0.0
 11
1489.749546853663
 21
2297.057064814711
 31
0.0
 12
1467.249546853663
 22
2300.807064814712
 32
0.0
 13
1467.249546853663
 23
2300.807064814712
 33
0.0
  0
SOLID
  5
9C4C
330
9418
100
AcDbEntity
  8
寸法引出
 48
15.0
100
AcDbTrace
 10
1722.249546853663
 20
2304.557064814711
 30
0.0
 11
1722.249546853663
 21
2297.057064814711
 31
0.0
 12
1744.749546853664
 22
2300.807064814712
 32
0.0
 13
1744.749546853664
 23
2300.807064814712
 33
0.0
  0
MTEXT
  5
9C4D
330
9418
100
AcDbEntity
  8
寸法引出
 48
15.0
100
AcDbMText
 10
1605.999546853663
 20
2330.807064814711
 30
0.0
 40
30.0
 41
0.0
 71
     5
 72
     1
  1
\A1;277.5
  7
SANWA
 73
     1
 44
1.0
1001
ACAD
1000
MTEXTBEGIN
1070
    73
1070
     1
1070
    44
1040
1.0
1070
    74
1070
     0
1000
MTEXTEND
  0
POINT
  5
9C4E
330
9418
100
AcDbEntity
  8
DEFPOINTS
 62
     0
 48
15.0
100
AcDbPoint
 10
1467.249546853663
 20
2224.6249744426
 30
0.0
  0
POINT
  5
9C4F
330
9418
100
AcDbEntity
  8
DEFPOINTS
 62
     0
 48
15.0
100
AcDbPoint
 10
1744.749546853664
 20
2207.6249744426
 30
0.0
  0
POINT
  5
9C50
330
9418
100
AcDbEntity
  8
DEFPOINTS
 62
     0
 48
15.0
100
AcDbPoint
 10
1744.749546853664
 20
2300.807064814712
 30
0.0
  0
ENDBLK
  5
9423
330
9418
100
AcDbEntity
  8
0
 48
15.0
100
AcDbBlockEnd
  0
BLOCK
  5
942E
330
9424
100
AcDbEntity
  8
0
 48
15.0
100
AcDbBlockBegin
  2
*D206
 70
     1
 10
0.0
 20
0.0
 30
0.0
  3
*D206
  1

  0
LINE
  5
9C51
330
9424
100
AcDbEntity
  8
寸法引出
 48
15.0
370
    -2
100
AcDbLine
 10
1467.249546853663
 20
1643.133489880405
 30
0.0
 11
1467.249546853663
 21
1739.44874137183
 31
0.0
  0
LINE
  5
9C52
330
9424
100
AcDbEntity
  8
寸法引出
 48
15.0
370
    -2
100
AcDbLine
 10
1744.749546853664
 20
1643.133489880405
 30
0.0
 11
1744.749546853664
 21
1739.44874137183
 31
0.0
  0
LINE
  5
9C53
330
9424
100
AcDbEntity
  8
寸法引出
 48
15.0
370
    -2
100
AcDbLine
 10
1489.749546853663
 20
1731.94874137183
 30
0.0
 11
1722.249546853663
 21
1731.94874137183
 31
0.0
  0
SOLID
  5
9C54
330
9424
100
AcDbEntity
  8
寸法引出
 48
15.0
100
AcDbTrace
 10
1489.749546853663
 20
1735.69874137183
 30
0.0
 11
1489.749546853663
 21
1728.198741371831
 31
0.0
 12
1467.249546853663
 22
1731.94874137183
 32
0.0
 13
1467.249546853663
 23
1731.94874137183
 33
0.0
  0
SOLID
  5
9C55
330
9424
100
AcDbEntity
  8
寸法引出
 48
15.0
100
AcDbTrace
 10
1722.249546853663
 20
1735.69874137183
 30
0.0
 11
1722.249546853663
 21
1728.198741371831
 31
0.0
 12
1744.749546853664
 22
1731.94874137183
 32
0.0
 13
1744.749546853664
 23
1731.94874137183
 33
0.0
  0
MTEXT
  5
9C56
330
9424
100
AcDbEntity
  8
寸法引出
 48
15.0
100
AcDbMText
 10
1605.999546853663
 20
1761.948741371831
 30
0.0
 40
30.0
 41
0.0
 71
     5
 72
     1
  1
\A1;277.5
  7
SANWA
 73
     1
 44
1.0
1001
ACAD
1000
MTEXTBEGIN
1070
    73
1070
     1
1070
    44
1040
1.0
1070
    74
1070
     0
1000
MTEXTEND
  0
POINT
  5
9C57
330
9424
100
AcDbEntity
  8
DEFPOINTS
 62
     0
 48
15.0
100
AcDbPoint
 10
1467.249546853663
 20
1628.133489880405
 30
0.0
  0
POINT
  5
9C58
330
9424
100
AcDbEntity
  8
DEFPOINTS
 62
     0
 48
15.0
100
AcDbPoint
 10
1744.749546853664
 20
1628.133489880405
 30
0.0
  0
POINT
  5
9C59
330
9424
100
AcDbEntity
  8
DEFPOINTS
 62
     0
 48
15.0
100
AcDbPoint
 10
1744.749546853664
 20
1731.94874137183
 30
0.0
  0
ENDBLK
  5
942F
330
9424
100
AcDbEntity
  8
0
 48
15.0
100
AcDbBlockEnd
  0
BLOCK
  5
943A
330
9430
100
AcDbEntity
  8
0
 48
15.0
100
AcDbBlockBegin
  2
*D207
 70
     1
 10
0.0
 20
0.0
 30
0.0
  3
*D207
  1

  0
LINE
  5
9C5A
330
9430
100
AcDbEntity
  8
寸法引出
 48
15.0
370
    -2
100
AcDbLine
 10
1452.249546853663
 20
1628.133489880405
 30
0.0
 11
1347.083193847953
 21
1628.133489880405
 31
0.0
  0
LINE
  5
9C5B
330
9430
100
AcDbEntity
  8
寸法引出
 48
15.0
370
    -2
100
AcDbLine
 10
1452.249546853663
 20
1508.133489880405
 30
0.0
 11
1347.083193847953
 21
1508.133489880405
 31
0.0
  0
LINE
  5
9C5C
330
9430
100
AcDbEntity
  8
寸法引出
 48
15.0
370
    -2
100
AcDbLine
 10
1354.583193847953
 20
1605.633489880405
 30
0.0
 11
1354.583193847953
 21
1530.633489880405
 31
0.0
  0
SOLID
  5
9C5D
330
9430
100
AcDbEntity
  8
寸法引出
 48
15.0
100
AcDbTrace
 10
1350.833193847953
 20
1605.633489880405
 30
0.0
 11
1358.333193847953
 21
1605.633489880405
 31
0.0
 12
1354.583193847953
 22
1628.133489880405
 32
0.0
 13
1354.583193847953
 23
1628.133489880405
 33
0.0
  0
SOLID
  5
9C5E
330
9430
100
AcDbEntity
  8
寸法引出
 48
15.0
100
AcDbTrace
 10
1350.833193847953
 20
1530.633489880405
 30
0.0
 11
1358.333193847953
 21
1530.633489880405
 31
0.0
 12
1354.583193847953
 22
1508.133489880405
 32
0.0
 13
1354.583193847953
 23
1508.133489880405
 33
0.0
  0
MTEXT
  5
9C5F
330
9430
100
AcDbEntity
  8
寸法引出
 48
15.0
100
AcDbMText
 10
1324.583193847953
 20
1568.133489880405
 30
0.0
 40
30.0
 41
0.0
 71
     5
 72
     1
  1
\A1;120
  7
SANWA
 11
0.0000000000000001
 21
1.0
 31
0.0
 73
     1
 44
1.0
1001
ACAD
1000
MTEXTBEGIN
1070
    73
1070
     1
1070
    44
1040
1.0
1070
    74
1070
     0
1000
MTEXTEND
  0
POINT
  5
9C60
330
9430
100
AcDbEntity
  8
DEFPOINTS
 62
     0
 48
15.0
100
AcDbPoint
 10
1467.249546853663
 20
1628.133489880405
 30
0.0
  0
POINT
  5
9C61
330
9430
100
AcDbEntity
  8
DEFPOINTS
 62
     0
 48
15.0
100
AcDbPoint
 10
1467.249546853663
 20
1508.133489880405
 30
0.0
  0
POINT
  5
9C62
330
9430
100
AcDbEntity
  8
DEFPOINTS
 62
     0
 48
15.0
100
AcDbPoint
 10
1354.583193847953
 20
1508.133489880405
 30
0.0
  0
ENDBLK
  5
943B
330
9430
100
AcDbEntity
  8
0
 48
15.0
100
AcDbBlockEnd
  0
BLOCK
  5
9447
330
943C
100
AcDbEntity
  8
0
 48
15.0
100
AcDbBlockBegin
  2
*D208
 70
     1
 10
0.0
 20
0.0
 30
0.0
  3
*D208
  1

  0
LINE
  5
9C63
330
943C
100
AcDbEntity
  8
寸法引出
 48
15.0
370
    -2
100
AcDbLine
 10
1809.749546853663
 20
1643.133489880405
 30
0.0
 11
1809.749546853663
 21
1739.44874137183
 31
0.0
  0
LINE
  5
9C64
330
943C
100
AcDbEntity
  8
寸法引出
 48
15.0
370
    -2
100
AcDbLine
 10
1722.249546853663
 20
1731.94874137183
 30
0.0
 11
1699.749546853663
 21
1731.94874137183
 31
0.0
  0
LINE
  5
9C65
330
943C
100
AcDbEntity
  8
寸法引出
 48
15.0
370
    -2
100
AcDbLine
 10
1832.249546853663
 20
1731.94874137183
 30
0.0
 11
1854.749546853663
 21
1731.94874137183
 31
0.0
  0
LINE
  5
9C66
330
943C
100
AcDbEntity
  8
寸法引出
 48
15.0
370
    -2
100
AcDbLine
 10
1744.749546853664
 20
1731.94874137183
 30
0.0
 11
1809.749546853663
 21
1731.94874137183
 31
0.0
  0
SOLID
  5
9C67
330
943C
100
AcDbEntity
  8
寸法引出
 48
15.0
100
AcDbTrace
 10
1722.249546853663
 20
1735.69874137183
 30
0.0
 11
1722.249546853663
 21
1728.198741371831
 31
0.0
 12
1744.749546853664
 22
1731.94874137183
 32
0.0
 13
1744.749546853664
 23
1731.94874137183
 33
0.0
  0
SOLID
  5
9C68
330
943C
100
AcDbEntity
  8
寸法引出
 48
15.0
100
AcDbTrace
 10
1832.249546853663
 20
1735.69874137183
 30
0.0
 11
1832.249546853663
 21
1728.198741371831
 31
0.0
 12
1809.749546853663
 22
1731.94874137183
 32
0.0
 13
1809.749546853663
 23
1731.94874137183
 33
0.0
  0
MTEXT
  5
9C69
330
943C
100
AcDbEntity
  8
寸法引出
 48
15.0
100
AcDbMText
 10
1777.249546853663
 20
1761.948741371831
 30
0.0
 40
30.0
 41
0.0
 71
     5
 72
     1
  1
\A1;65
  7
SANWA
 73
     1
 44
1.0
1001
ACAD
1000
MTEXTBEGIN
1070
    73
1070
     1
1070
    44
1040
1.0
1070
    74
1070
     0
1000
MTEXTEND
  0
POINT
  5
9C6A
330
943C
100
AcDbEntity
  8
DEFPOINTS
 62
     0
 48
15.0
100
AcDbPoint
 10
1744.749546853664
 20
1628.133489880405
 30
0.0
  0
POINT
  5
9C6B
330
943C
100
AcDbEntity
  8
DEFPOINTS
 62
     0
 48
15.0
100
AcDbPoint
 10
1809.749546853663
 20
1628.133489880405
 30
0.0
  0
POINT
  5
9C6C
330
943C
100
AcDbEntity
  8
DEFPOINTS
 62
     0
 48
15.0
100
AcDbPoint
 10
1809.749546853663
 20
1731.94874137183
 30
0.0
  0
ENDBLK
  5
9448
330
943C
100
AcDbEntity
  8
0
 48
15.0
100
AcDbBlockEnd
  0
BLOCK
  5
9455
330
9449
100
AcDbEntity
  8
0
 48
15.0
100
AcDbBlockBegin
  2
*D209
 70
     1
 10
0.0
 20
0.0
 30
0.0
  3
*D209
  1

  0
LINE
  5
9C6D
330
9449
100
AcDbEntity
  8
寸法引出
 48
15.0
370
    -2
100
AcDbLine
 10
1467.249546853663
 20
2072.6249744426
 30
0.0
 11
1467.249546853663
 21
1991.557895504171
 31
0.0
  0
LINE
  5
9C6E
330
9449
100
AcDbEntity
  8
寸法引出
 48
15.0
370
    -2
100
AcDbLine
 10
1497.249546853663
 20
2072.6249744426
 30
0.0
 11
1497.249546853663
 21
1991.557895504171
 31
0.0
  0
LINE
  5
9C6F
330
9449
100
AcDbEntity
  8
寸法引出
 48
15.0
370
    -2
100
AcDbLine
 10
1444.749546853663
 20
1999.057895504171
 30
0.0
 11
1422.249546853663
 21
1999.057895504171
 31
0.0
  0
LINE
  5
9C70
330
9449
100
AcDbEntity
  8
寸法引出
 48
15.0
370
    -2
100
AcDbLine
 10
1519.749546853663
 20
1999.057895504171
 30
0.0
 11
1542.249546853663
 21
1999.057895504171
 31
0.0
  0
LINE
  5
9C71
330
9449
100
AcDbEntity
  8
寸法引出
 48
15.0
370
    -2
100
AcDbLine
 10
1467.249546853663
 20
1999.057895504171
 30
0.0
 11
1497.249546853663
 21
1999.057895504171
 31
0.0
  0
SOLID
  5
9C72
330
9449
100
AcDbEntity
  8
寸法引出
 48
15.0
100
AcDbTrace
 10
1444.749546853663
 20
2002.807895504171
 30
0.0
 11
1444.749546853663
 21
1995.307895504171
 31
0.0
 12
1467.249546853663
 22
1999.057895504171
 32
0.0
 13
1467.249546853663
 23
1999.057895504171
 33
0.0
  0
SOLID
  5
9C73
330
9449
100
AcDbEntity
  8
寸法引出
 48
15.0
100
AcDbTrace
 10
1519.749546853663
 20
2002.807895504171
 30
0.0
 11
1519.749546853663
 21
1995.307895504171
 31
0.0
 12
1497.249546853663
 22
1999.057895504171
 32
0.0
 13
1497.249546853663
 23
1999.057895504171
 33
0.0
  0
MTEXT
  5
9C74
330
9449
100
AcDbEntity
  8
寸法引出
 48
15.0
100
AcDbMText
 10
1482.249546853663
 20
2029.057895504171
 30
0.0
 40
30.0
 41
0.0
 71
     5
 72
     1
  1
\A1;30
  7
SANWA
 73
     1
 44
1.0
1001
ACAD
1000
MTEXTBEGIN
1070
    73
1070
     1
1070
    44
1040
1.0
1070
    74
1070
     0
1000
MTEXTEND
  0
POINT
  5
9C75
330
9449
100
AcDbEntity
  8
DEFPOINTS
 62
     0
 48
15.0
100
AcDbPoint
 10
1467.249546853663
 20
2087.6249744426
 30
0.0
  0
POINT
  5
9C76
330
9449
100
AcDbEntity
  8
DEFPOINTS
 62
     0
 48
15.0
100
AcDbPoint
 10
1497.249546853663
 20
2087.6249744426
 30
0.0
  0
POINT
  5
9C77
330
9449
100
AcDbEntity
  8
DEFPOINTS
 62
     0
 48
15.0
100
AcDbPoint
 10
1497.249546853663
 20
1999.057895504171
 30
0.0
  0
ENDBLK
  5
9456
330
9449
100
AcDbEntity
  8
0
 48
15.0
100
AcDbBlockEnd
  0
BLOCK
  5
9461
330
9457
100
AcDbEntity
  8
0
 48
15.0
100
AcDbBlockBegin
  2
*D210
 70
     1
 10
0.0
 20
0.0
 30
0.0
  3
*D210
  1

  0
LINE
  5
9C78
330
9457
100
AcDbEntity
  8
寸法引出
 48
15.0
370
    -2
100
AcDbLine
 10
1467.249546853663
 20
2072.6249744426
 30
0.0
 11
1467.249546853663
 21
1929.653224009686
 31
0.0
  0
LINE
  5
9C79
330
9457
100
AcDbEntity
  8
寸法引出
 48
15.0
370
    -2
100
AcDbLine
 10
1729.249546853663
 20
2072.6249744426
 30
0.0
 11
1729.249546853663
 21
1929.653224009686
 31
0.0
  0
LINE
  5
9C7A
330
9457
100
AcDbEntity
  8
寸法引出
 48
15.0
370
    -2
100
AcDbLine
 10
1489.749546853663
 20
1937.153224009685
 30
0.0
 11
1706.749546853663
 21
1937.153224009685
 31
0.0
  0
SOLID
  5
9C7B
330
9457
100
AcDbEntity
  8
寸法引出
 48
15.0
100
AcDbTrace
 10
1489.749546853663
 20
1940.903224009686
 30
0.0
 11
1489.749546853663
 21
1933.403224009685
 31
0.0
 12
1467.249546853663
 22
1937.153224009685
 32
0.0
 13
1467.249546853663
 23
1937.153224009685
 33
0.0
  0
SOLID
  5
9C7C
330
9457
100
AcDbEntity
  8
寸法引出
 48
15.0
100
AcDbTrace
 10
1706.749546853663
 20
1940.903224009686
 30
0.0
 11
1706.749546853663
 21
1933.403224009685
 31
0.0
 12
1729.249546853663
 22
1937.153224009685
 32
0.0
 13
1729.249546853663
 23
1937.153224009685
 33
0.0
  0
MTEXT
  5
9C7D
330
9457
100
AcDbEntity
  8
寸法引出
 48
15.0
100
AcDbMText
 10
1598.249546853663
 20
1967.153224009686
 30
0.0
 40
30.0
 41
0.0
 71
     5
 72
     1
  1
\A1;262
  7
SANWA
 73
     1
 44
1.0
1001
ACAD
1000
MTEXTBEGIN
1070
    73
1070
     1
1070
    44
1040
1.0
1070
    74
1070
     0
1000
MTEXTEND
  0
POINT
  5
9C7E
330
9457
100
AcDbEntity
  8
DEFPOINTS
 62
     0
 48
15.0
100
AcDbPoint
 10
1467.249546853663
 20
2087.6249744426
 30
0.0
  0
POINT
  5
9C7F
330
9457
100
AcDbEntity
  8
DEFPOINTS
 62
     0
 48
15.0
100
AcDbPoint
 10
1729.249546853663
 20
2087.6249744426
 30
0.0
  0
POINT
  5
9C80
330
9457
100
AcDbEntity
  8
DEFPOINTS
 62
     0
 48
15.0
100
AcDbPoint
 10
1729.249546853663
 20
1937.153224009685
 30
0.0
  0
ENDBLK
  5
9462
330
9457
100
AcDbEntity
  8
0
 48
15.0
100
AcDbBlockEnd
  0
BLOCK
  5
946E
330
9463
100
AcDbEntity
  8
0
 48
15.0
100
AcDbBlockBegin
  2
*D211
 70
     1
 10
0.0
 20
0.0
 30
0.0
  3
*D211
  1

  0
LINE
  5
9C81
330
9463
100
AcDbEntity
  8
寸法引出
 48
15.0
370
    -2
100
AcDbLine
 10
1452.249546853663
 20
2224.6249744426
 30
0.0
 11
1372.065834117195
 21
2224.6249744426
 31
0.0
  0
LINE
  5
9C82
330
9463
100
AcDbEntity
  8
寸法引出
 48
15.0
370
    -2
100
AcDbLine
 10
1379.565834117195
 20
2185.1249744426
 30
0.0
 11
1379.565834117195
 21
2162.6249744426
 31
0.0
  0
LINE
  5
9C83
330
9463
100
AcDbEntity
  8
寸法引出
 48
15.0
370
    -2
100
AcDbLine
 10
1379.565834117195
 20
2247.1249744426
 30
0.0
 11
1379.565834117195
 21
2269.6249744426
 31
0.0
  0
LINE
  5
9C84
330
9463
100
AcDbEntity
  8
寸法引出
 48
15.0
370
    -2
100
AcDbLine
 10
1379.565834117195
 20
2207.6249744426
 30
0.0
 11
1379.565834117195
 21
2224.6249744426
 31
0.0
  0
SOLID
  5
9C85
330
9463
100
AcDbEntity
  8
寸法引出
 48
15.0
100
AcDbTrace
 10
1375.815834117195
 20
2185.1249744426
 30
0.0
 11
1383.315834117195
 21
2185.1249744426
 31
0.0
 12
1379.565834117195
 22
2207.6249744426
 32
0.0
 13
1379.565834117195
 23
2207.6249744426
 33
0.0
  0
SOLID
  5
9C86
330
9463
100
AcDbEntity
  8
寸法引出
 48
15.0
100
AcDbTrace
 10
1375.815834117195
 20
2247.1249744426
 30
0.0
 11
1383.315834117195
 21
2247.1249744426
 31
0.0
 12
1379.565834117195
 22
2224.6249744426
 32
0.0
 13
1379.565834117195
 23
2224.6249744426
 33
0.0
  0
MTEXT
  5
9C87
330
9463
100
AcDbEntity
  8
寸法引出
 48
15.0
100
AcDbMText
 10
1349.565834117194
 20
2216.124974442601
 30
0.0
 40
30.0
 41
0.0
 71
     5
 72
     1
  1
\A1;17
  7
SANWA
 11
0.0000000000000001
 21
1.0
 31
0.0
 73
     1
 44
1.0
1001
ACAD
1000
MTEXTBEGIN
1070
    73
1070
     1
1070
    44
1040
1.0
1070
    74
1070
     0
1000
MTEXTEND
  0
POINT
  5
9C88
330
9463
100
AcDbEntity
  8
DEFPOINTS
 62
     0
 48
15.0
100
AcDbPoint
 10
1467.249546853663
 20
2207.6249744426
 30
0.0
  0
POINT
  5
9C89
330
9463
100
AcDbEntity
  8
DEFPOINTS
 62
     0
 48
15.0
100
AcDbPoint
 10
1467.249546853663
 20
2224.6249744426
 30
0.0
  0
POINT
  5
9C8A
330
9463
100
AcDbEntity
  8
DEFPOINTS
 62
     0
 48
15.0
100
AcDbPoint
 10
1379.565834117195
 20
2224.6249744426
 30
0.0
  0
ENDBLK
  5
946F
330
9463
100
AcDbEntity
  8
0
 48
15.0
100
AcDbBlockEnd
  0
BLOCK
  5
947A
330
9470
100
AcDbEntity
  8
0
 48
15.0
100
AcDbBlockBegin
  2
*D212
 70
     1
 10
0.0
 20
0.0
 30
0.0
  3
*D212
  1

  0
LINE
  5
9C8B
330
9470
100
AcDbEntity
  8
寸法引出
 48
15.0
370
    -2
100
AcDbLine
 10
1452.249546853663
 20
2087.6249744426
 30
0.0
 11
1372.065834117195
 21
2087.6249744426
 31
0.0
  0
LINE
  5
9C8C
330
9470
100
AcDbEntity
  8
寸法引出
 48
15.0
370
    -2
100
AcDbLine
 10
1452.249546853663
 20
2207.6249744426
 30
0.0
 11
1372.065834117195
 21
2207.6249744426
 31
0.0
  0
LINE
  5
9C8D
330
9470
100
AcDbEntity
  8
寸法引出
 48
15.0
370
    -2
100
AcDbLine
 10
1379.565834117195
 20
2110.1249744426
 30
0.0
 11
1379.565834117195
 21
2185.1249744426
 31
0.0
  0
SOLID
  5
9C8E
330
9470
100
AcDbEntity
  8
寸法引出
 48
15.0
100
AcDbTrace
 10
1375.815834117195
 20
2110.1249744426
 30
0.0
 11
1383.315834117195
 21
2110.1249744426
 31
0.0
 12
1379.565834117195
 22
2087.6249744426
 32
0.0
 13
1379.565834117195
 23
2087.6249744426
 33
0.0
  0
SOLID
  5
9C8F
330
9470
100
AcDbEntity
  8
寸法引出
 48
15.0
100
AcDbTrace
 10
1375.815834117195
 20
2185.1249744426
 30
0.0
 11
1383.315834117195
 21
2185.1249744426
 31
0.0
 12
1379.565834117195
 22
2207.6249744426
 32
0.0
 13
1379.565834117195
 23
2207.6249744426
 33
0.0
  0
MTEXT
  5
9C90
330
9470
100
AcDbEntity
  8
寸法引出
 48
15.0
100
AcDbMText
 10
1349.565834117194
 20
2147.624974442601
 30
0.0
 40
30.0
 41
0.0
 71
     5
 72
     1
  1
\A1;120
  7
SANWA
 11
0.0000000000000001
 21
1.0
 31
0.0
 73
     1
 44
1.0
1001
ACAD
1000
MTEXTBEGIN
1070
    73
1070
     1
1070
    44
1040
1.0
1070
    74
1070
     0
1000
MTEXTEND
  0
POINT
  5
9C91
330
9470
100
AcDbEntity
  8
DEFPOINTS
 62
     0
 48
15.0
100
AcDbPoint
 10
1467.249546853663
 20
2087.6249744426
 30
0.0
  0
POINT
  5
9C92
330
9470
100
AcDbEntity
  8
DEFPOINTS
 62
     0
 48
15.0
100
AcDbPoint
 10
1467.249546853663
 20
2207.6249744426
 30
0.0
  0
POINT
  5
9C93
330
9470
100
AcDbEntity
  8
DEFPOINTS
 62
     0
 48
15.0
100
AcDbPoint
 10
1379.565834117195
 20
2207.6249744426
 30
0.0
  0
ENDBLK
  5
947B
330
9470
100
AcDbEntity
  8
0
 48
15.0
100
AcDbBlockEnd
  0
BLOCK
  5
9486
330
947C
100
AcDbEntity
  8
0
 48
15.0
100
AcDbBlockBegin
  2
*D213
 70
     1
 10
0.0
 20
0.0
 30
0.0
  3
*D213
  1

  0
LINE
  5
9C94
330
947C
100
AcDbEntity
  8
寸法引出
 48
15.0
370
    -2
100
AcDbLine
 10
1734.249546853664
 20
2081.6249744426
 30
0.0
 11
1734.249546853664
 21
1991.557895504171
 31
0.0
  0
LINE
  5
9C95
330
947C
100
AcDbEntity
  8
寸法引出
 48
15.0
370
    -2
100
AcDbLine
 10
1820.249546853662
 20
2081.6249744426
 30
0.0
 11
1820.249546853662
 21
1991.557895504171
 31
0.0
  0
LINE
  5
9C96
330
947C
100
AcDbEntity
  8
寸法引出
 48
15.0
370
    -2
100
AcDbLine
 10
1756.749546853663
 20
1999.057895504171
 30
0.0
 11
1797.749546853663
 21
1999.057895504171
 31
0.0
  0
SOLID
  5
9C97
330
947C
100
AcDbEntity
  8
寸法引出
 48
15.0
100
AcDbTrace
 10
1756.749546853663
 20
2002.807895504171
 30
0.0
 11
1756.749546853663
 21
1995.307895504171
 31
0.0
 12
1734.249546853664
 22
1999.057895504171
 32
0.0
 13
1734.249546853664
 23
1999.057895504171
 33
0.0
  0
SOLID
  5
9C98
330
947C
100
AcDbEntity
  8
寸法引出
 48
15.0
100
AcDbTrace
 10
1797.749546853663
 20
2002.807895504171
 30
0.0
 11
1797.749546853663
 21
1995.307895504171
 31
0.0
 12
1820.249546853662
 22
1999.057895504171
 32
0.0
 13
1820.249546853662
 23
1999.057895504171
 33
0.0
  0
MTEXT
  5
9C99
330
947C
100
AcDbEntity
  8
寸法引出
 48
15.0
100
AcDbMText
 10
1777.249546853663
 20
2029.057895504171
 30
0.0
 40
30.0
 41
0.0
 71
     5
 72
     1
  1
\A1;86
  7
SANWA
 73
     1
 44
1.0
1001
ACAD
1000
MTEXTBEGIN
1070
    73
1070
     1
1070
    44
1040
1.0
1070
    74
1070
     0
1000
MTEXTEND
  0
POINT
  5
9C9A
330
947C
100
AcDbEntity
  8
DEFPOINTS
 62
     0
 48
15.0
100
AcDbPoint
 10
1734.249546853664
 20
2096.6249744426
 30
0.0
  0
POINT
  5
9C9B
330
947C
100
AcDbEntity
  8
DEFPOINTS
 62
     0
 48
15.0
100
AcDbPoint
 10
1820.249546853662
 20
2096.624974442599
 30
0.0
  0
POINT
  5
9C9C
330
947C
100
AcDbEntity
  8
DEFPOINTS
 62
     0
 48
15.0
100
AcDbPoint
 10
1820.249546853662
 20
1999.057895504171
 30
0.0
  0
ENDBLK
  5
9487
330
947C
100
AcDbEntity
  8
0
 48
15.0
100
AcDbBlockEnd
  0
BLOCK
  5
9492
330
9488
100
AcDbEntity
  8
0
 48
15.0
100
AcDbBlockBegin
  2
*D214
 70
     1
 10
0.0
 20
0.0
 30
0.0
  3
*D214
  1

  0
LINE
  5
9C9D
330
9488
100
AcDbEntity
  8
寸法引出
 48
15.0
370
    -2
100
AcDbLine
 10
1729.249546853663
 20
2072.6249744426
 30
0.0
 11
1729.249546853663
 21
1929.653224009686
 31
0.0
  0
LINE
  5
9C9E
330
9488
100
AcDbEntity
  8
寸法引出
 48
15.0
370
    -2
100
AcDbLine
 10
1825.249546853662
 20
2072.6249744426
 30
0.0
 11
1825.249546853662
 21
1929.653224009686
 31
0.0
  0
LINE
  5
9C9F
330
9488
100
AcDbEntity
  8
寸法引出
 48
15.0
370
    -2
100
AcDbLine
 10
1751.749546853664
 20
1937.153224009685
 30
0.0
 11
1802.749546853663
 21
1937.153224009685
 31
0.0
  0
SOLID
  5
9CA0
330
9488
100
AcDbEntity
  8
寸法引出
 48
15.0
100
AcDbTrace
 10
1751.749546853664
 20
1940.903224009686
 30
0.0
 11
1751.749546853664
 21
1933.403224009685
 31
0.0
 12
1729.249546853663
 22
1937.153224009685
 32
0.0
 13
1729.249546853663
 23
1937.153224009685
 33
0.0
  0
SOLID
  5
9CA1
330
9488
100
AcDbEntity
  8
寸法引出
 48
15.0
100
AcDbTrace
 10
1802.749546853663
 20
1940.903224009686
 30
0.0
 11
1802.749546853663
 21
1933.403224009685
 31
0.0
 12
1825.249546853662
 22
1937.153224009685
 32
0.0
 13
1825.249546853662
 23
1937.153224009685
 33
0.0
  0
MTEXT
  5
9CA2
330
9488
100
AcDbEntity
  8
寸法引出
 48
15.0
100
AcDbMText
 10
1777.249546853663
 20
1967.153224009686
 30
0.0
 40
30.0
 41
0.0
 71
     5
 72
     1
  1
\A1;96
  7
SANWA
 73
     1
 44
1.0
1001
ACAD
1000
MTEXTBEGIN
1070
    73
1070
     1
1070
    44
1040
1.0
1070
    74
1070
     0
1000
MTEXTEND
  0
POINT
  5
9CA3
330
9488
100
AcDbEntity
  8
DEFPOINTS
 62
     0
 48
15.0
100
AcDbPoint
 10
1729.249546853663
 20
2087.6249744426
 30
0.0
  0
POINT
  5
9CA4
330
9488
100
AcDbEntity
  8
DEFPOINTS
 62
     0
 48
15.0
100
AcDbPoint
 10
1825.249546853662
 20
2087.6249744426
 30
0.0
  0
POINT
  5
9CA5
330
9488
100
AcDbEntity
  8
DEFPOINTS
 62
     0
 48
15.0
100
AcDbPoint
 10
1825.249546853662
 20
1937.153224009685
 30
0.0
  0
ENDBLK
  5
9493
330
9488
100
AcDbEntity
  8
0
 48
15.0
100
AcDbBlockEnd
  0
BLOCK
  5
94A0
330
9494
100
AcDbEntity
  8
0
 48
15.0
100
AcDbBlockBegin
  2
*D215
 70
     1
 10
0.0
 20
0.0
 30
0.0
  3
*D215
  1

  0
LINE
  5
9CA6
330
9494
100
AcDbEntity
  8
寸法引出
 48
15.0
370
    -2
100
AcDbLine
 10
1824.749546853663
 20
2169.6249744426
 30
0.0
 11
1895.062290172776
 21
2169.6249744426
 31
0.0
  0
LINE
  5
9CA7
330
9494
100
AcDbEntity
  8
寸法引出
 48
15.0
370
    -2
100
AcDbLine
 10
1835.249546853663
 20
2167.3249744426
 30
0.0
 11
1895.062290172776
 21
2167.3249744426
 31
0.0
  0
LINE
  5
9CA8
330
9494
100
AcDbEntity
  8
寸法引出
 48
15.0
370
    -2
100
AcDbLine
 10
1887.562290172776
 20
2192.1249744426
 30
0.0
 11
1887.562290172776
 21
2214.6249744426
 31
0.0
  0
LINE
  5
9CA9
330
9494
100
AcDbEntity
  8
寸法引出
 48
15.0
370
    -2
100
AcDbLine
 10
1887.562290172776
 20
2144.824974442599
 30
0.0
 11
1887.562290172776
 21
2122.3249744426
 31
0.0
  0
LINE
  5
9CAA
330
9494
100
AcDbEntity
  8
寸法引出
 48
15.0
370
    -2
100
AcDbLine
 10
1887.562290172776
 20
2169.6249744426
 30
0.0
 11
1887.562290172776
 21
2167.3249744426
 31
0.0
  0
SOLID
  5
9CAB
330
9494
100
AcDbEntity
  8
寸法引出
 48
15.0
100
AcDbTrace
 10
1883.812290172776
 20
2192.1249744426
 30
0.0
 11
1891.312290172777
 21
2192.1249744426
 31
0.0
 12
1887.562290172776
 22
2169.6249744426
 32
0.0
 13
1887.562290172776
 23
2169.6249744426
 33
0.0
  0
SOLID
  5
9CAC
330
9494
100
AcDbEntity
  8
寸法引出
 48
15.0
100
AcDbTrace
 10
1883.812290172776
 20
2144.824974442599
 30
0.0
 11
1891.312290172777
 21
2144.824974442599
 31
0.0
 12
1887.562290172776
 22
2167.3249744426
 32
0.0
 13
1887.562290172776
 23
2167.3249744426
 33
0.0
  0
MTEXT
  5
9CAD
330
9494
100
AcDbEntity
  8
寸法引出
 48
15.0
100
AcDbMText
 10
1857.562290172776
 20
2168.4749744426
 30
0.0
 40
30.0
 41
0.0
 71
     5
 72
     1
  1
\A1;2.3
  7
SANWA
 11
0.0000000000000001
 21
1.0
 31
0.0
 73
     1
 44
1.0
1001
ACAD
1000
MTEXTBEGIN
1070
    73
1070
     1
1070
    44
1040
1.0
1070
    74
1070
     0
1000
MTEXTEND
  0
POINT
  5
9CAE
330
9494
100
AcDbEntity
  8
DEFPOINTS
 62
     0
 48
15.0
100
AcDbPoint
 10
1809.749546853663
 20
2169.6249744426
 30
0.0
  0
POINT
  5
9CAF
330
9494
100
AcDbEntity
  8
DEFPOINTS
 62
     0
 48
15.0
100
AcDbPoint
 10
1820.249546853662
 20
2167.3249744426
 30
0.0
  0
POINT
  5
9CB0
330
9494
100
AcDbEntity
  8
DEFPOINTS
 62
     0
 48
15.0
100
AcDbPoint
 10
1887.562290172776
 20
2167.3249744426
 30
0.0
  0
ENDBLK
  5
94A1
330
9494
100
AcDbEntity
  8
0
 48
15.0
100
AcDbBlockEnd
  0
BLOCK
  5
94AC
330
94A2
100
AcDbEntity
  8
0
 48
15.0
100
AcDbBlockBegin
  2
*D216
 70
     1
 10
0.0
 20
0.0
 30
0.0
  3
*D216
  1

  0
LINE
  5
9CB1
330
94A2
100
AcDbEntity
  8
寸法引出
 48
15.0
370
    -2
100
AcDbLine
 10
2409.500265450521
 20
2239.6249744426
 30
0.0
 11
2409.500265450521
 21
2315.218423190658
 31
0.0
  0
LINE
  5
9CB2
330
94A2
100
AcDbEntity
  8
寸法引出
 48
15.0
370
    -2
100
AcDbLine
 10
3409.500265450521
 20
2239.6249744426
 30
0.0
 11
3409.500265450521
 21
2315.218423190658
 31
0.0
  0
LINE
  5
9CB3
330
94A2
100
AcDbEntity
  8
寸法引出
 48
15.0
370
    -2
100
AcDbLine
 10
2432.000265450521
 20
2307.718423190658
 30
0.0
 11
3387.000265450521
 21
2307.718423190658
 31
0.0
  0
SOLID
  5
9CB4
330
94A2
100
AcDbEntity
  8
寸法引出
 48
15.0
100
AcDbTrace
 10
2432.000265450521
 20
2311.468423190658
 30
0.0
 11
2432.000265450521
 21
2303.968423190658
 31
0.0
 12
2409.500265450521
 22
2307.718423190658
 32
0.0
 13
2409.500265450521
 23
2307.718423190658
 33
0.0
  0
SOLID
  5
9CB5
330
94A2
100
AcDbEntity
  8
寸法引出
 48
15.0
100
AcDbTrace
 10
3387.000265450521
 20
2311.468423190658
 30
0.0
 11
3387.000265450521
 21
2303.968423190658
 31
0.0
 12
3409.500265450521
 22
2307.718423190658
 32
0.0
 13
3409.500265450521
 23
2307.718423190658
 33
0.0
  0
MTEXT
  5
9CB6
330
94A2
100
AcDbEntity
  8
寸法引出
 48
15.0
100
AcDbMText
 10
2909.500265450521
 20
2337.718423190658
 30
0.0
 40
30.0
 41
0.0
 71
     5
 72
     1
  1
\A1;1000
  7
SANWA
 73
     1
 44
1.0
1001
ACAD
1000
MTEXTBEGIN
1070
    73
1070
     1
1070
    44
1040
1.0
1070
    74
1070
     0
1000
MTEXTEND
  0
POINT
  5
9CB7
330
94A2
100
AcDbEntity
  8
DEFPOINTS
 62
     0
 48
15.0
100
AcDbPoint
 10
2409.500265450521
 20
2224.6249744426
 30
0.0
  0
POINT
  5
9CB8
330
94A2
100
AcDbEntity
  8
DEFPOINTS
 62
     0
 48
15.0
100
AcDbPoint
 10
3409.500265450521
 20
2224.6249744426
 30
0.0
  0
POINT
  5
9CB9
330
94A2
100
AcDbEntity
  8
DEFPOINTS
 62
     0
 48
15.0
100
AcDbPoint
 10
3409.500265450521
 20
2307.718423190658
 30
0.0
  0
ENDBLK
  5
94AD
330
94A2
100
AcDbEntity
  8
0
 48
15.0
100
AcDbBlockEnd
  0
BLOCK
  5
94B7
330
94AE
100
AcDbEntity
  8
0
 48
15.0
100
AcDbBlockBegin
  2
*D217
 70
     1
 10
0.0
 20
0.0
 30
0.0
  3
*D217
  1

  0
LINE
  5
9CBA
330
94AE
100
AcDbEntity
  8
寸法引出
 48
15.0
370
    -2
100
AcDbLine
 10
3289.50026545052
 20
2072.6249744426
 30
0.0
 11
3289.50026545052
 21
1991.557895504171
 31
0.0
  0
LINE
  5
9CBB
330
94AE
100
AcDbEntity
  8
寸法引出
 48
15.0
370
    -2
100
AcDbLine
 10
2552.000265450521
 20
1999.057895504171
 30
0.0
 11
3267.000265450521
 21
1999.057895504171
 31
0.0
  0
SOLID
  5
9CBC
330
94AE
100
AcDbEntity
  8
寸法引出
 48
15.0
100
AcDbTrace
 10
2552.000265450521
 20
2002.807895504171
 30
0.0
 11
2552.000265450521
 21
1995.307895504171
 31
0.0
 12
2529.500265450521
 22
1999.057895504171
 32
0.0
 13
2529.500265450521
 23
1999.057895504171
 33
0.0
  0
SOLID
  5
9CBD
330
94AE
100
AcDbEntity
  8
寸法引出
 48
15.0
100
AcDbTrace
 10
3267.000265450521
 20
2002.807895504171
 30
0.0
 11
3267.000265450521
 21
1995.307895504171
 31
0.0
 12
3289.50026545052
 22
1999.057895504171
 32
0.0
 13
3289.50026545052
 23
1999.057895504171
 33
0.0
  0
MTEXT
  5
9CBE
330
94AE
100
AcDbEntity
  8
寸法引出
 48
15.0
100
AcDbMText
 10
2909.500265450521
 20
2029.057895504171
 30
0.0
 40
30.0
 41
0.0
 71
     5
 72
     1
  1
\A1;760
  7
SANWA
 73
     1
 44
1.0
1001
ACAD
1000
MTEXTBEGIN
1070
    73
1070
     1
1070
    44
1040
1.0
1070
    74
1070
     0
1000
MTEXTEND
  0
POINT
  5
9CBF
330
94AE
100
AcDbEntity
  8
DEFPOINTS
 62
     0
 48
15.0
100
AcDbPoint
 10
2529.500265450521
 20
2087.6249744426
 30
0.0
  0
POINT
  5
9CC0
330
94AE
100
AcDbEntity
  8
DEFPOINTS
 62
     0
 48
15.0
100
AcDbPoint
 10
3289.50026545052
 20
2087.6249744426
 30
0.0
  0
POINT
  5
9CC1
330
94AE
100
AcDbEntity
  8
DEFPOINTS
 62
     0
 48
15.0
100
AcDbPoint
 10
3289.50026545052
 20
1999.057895504171
 30
0.0
  0
ENDBLK
  5
94B8
330
94AE
100
AcDbEntity
  8
0
 48
15.0
100
AcDbBlockEnd
  0
BLOCK
  5
94C4
330
94B9
100
AcDbEntity
  8
0
 48
15.0
100
AcDbBlockBegin
  2
*D218
 70
     1
 10
0.0
 20
0.0
 30
0.0
  3
*D218
  1

  0
LINE
  5
9CC2
330
94B9
100
AcDbEntity
  8
寸法引出
 48
15.0
370
    -2
100
AcDbLine
 10
2394.50026545052
 20
2224.6249744426
 30
0.0
 11
2323.154502511621
 21
2224.6249744426
 31
0.0
  0
LINE
  5
9CC3
330
94B9
100
AcDbEntity
  8
寸法引出
 48
15.0
370
    -2
100
AcDbLine
 10
2330.654502511621
 20
2185.1249744426
 30
0.0
 11
2330.654502511621
 21
2162.6249744426
 31
0.0
  0
LINE
  5
9CC4
330
94B9
100
AcDbEntity
  8
寸法引出
 48
15.0
370
    -2
100
AcDbLine
 10
2330.654502511621
 20
2247.1249744426
 30
0.0
 11
2330.654502511621
 21
2269.6249744426
 31
0.0
  0
LINE
  5
9CC5
330
94B9
100
AcDbEntity
  8
寸法引出
 48
15.0
370
    -2
100
AcDbLine
 10
2330.654502511621
 20
2207.6249744426
 30
0.0
 11
2330.654502511621
 21
2224.6249744426
 31
0.0
  0
SOLID
  5
9CC6
330
94B9
100
AcDbEntity
  8
寸法引出
 48
15.0
100
AcDbTrace
 10
2326.904502511621
 20
2185.1249744426
 30
0.0
 11
2334.404502511621
 21
2185.1249744426
 31
0.0
 12
2330.654502511621
 22
2207.6249744426
 32
0.0
 13
2330.654502511621
 23
2207.6249744426
 33
0.0
  0
SOLID
  5
9CC7
330
94B9
100
AcDbEntity
  8
寸法引出
 48
15.0
100
AcDbTrace
 10
2326.904502511621
 20
2247.1249744426
 30
0.0
 11
2334.404502511621
 21
2247.1249744426
 31
0.0
 12
2330.654502511621
 22
2224.6249744426
 32
0.0
 13
2330.654502511621
 23
2224.6249744426
 33
0.0
  0
MTEXT
  5
9CC8
330
94B9
100
AcDbEntity
  8
寸法引出
 48
15.0
100
AcDbMText
 10
2300.654502511621
 20
2216.124974442601
 30
0.0
 40
30.0
 41
0.0
 71
     5
 72
     1
  1
\A1;17
  7
SANWA
 11
0.0000000000000001
 21
1.0
 31
0.0
 73
     1
 44
1.0
1001
ACAD
1000
MTEXTBEGIN
1070
    73
1070
     1
1070
    44
1040
1.0
1070
    74
1070
     0
1000
MTEXTEND
  0
POINT
  5
9CC9
330
94B9
100
AcDbEntity
  8
DEFPOINTS
 62
     0
 48
15.0
100
AcDbPoint
 10
2409.500265450521
 20
2207.6249744426
 30
0.0
  0
POINT
  5
9CCA
330
94B9
100
AcDbEntity
  8
DEFPOINTS
 62
     0
 48
15.0
100
AcDbPoint
 10
2409.500265450521
 20
2224.6249744426
 30
0.0
  0
POINT
  5
9CCB
330
94B9
100
AcDbEntity
  8
DEFPOINTS
 62
     0
 48
15.0
100
AcDbPoint
 10
2330.654502511621
 20
2224.6249744426
 30
0.0
  0
ENDBLK
  5
94C5
330
94B9
100
AcDbEntity
  8
0
 48
15.0
100
AcDbBlockEnd
  0
BLOCK
  5
94D0
330
94C6
100
AcDbEntity
  8
0
 48
15.0
100
AcDbBlockBegin
  2
*D219
 70
     1
 10
0.0
 20
0.0
 30
0.0
  3
*D219
  1

  0
LINE
  5
9CCC
330
94C6
100
AcDbEntity
  8
寸法引出
 48
15.0
370
    -2
100
AcDbLine
 10
2394.50026545052
 20
2087.6249744426
 30
0.0
 11
2323.154502511621
 21
2087.6249744426
 31
0.0
  0
LINE
  5
9CCD
330
94C6
100
AcDbEntity
  8
寸法引出
 48
15.0
370
    -2
100
AcDbLine
 10
2394.50026545052
 20
2207.6249744426
 30
0.0
 11
2323.154502511621
 21
2207.6249744426
 31
0.0
  0
LINE
  5
9CCE
330
94C6
100
AcDbEntity
  8
寸法引出
 48
15.0
370
    -2
100
AcDbLine
 10
2330.654502511621
 20
2110.1249744426
 30
0.0
 11
2330.654502511621
 21
2185.1249744426
 31
0.0
  0
SOLID
  5
9CCF
330
94C6
100
AcDbEntity
  8
寸法引出
 48
15.0
100
AcDbTrace
 10
2326.904502511621
 20
2110.1249744426
 30
0.0
 11
2334.404502511621
 21
2110.1249744426
 31
0.0
 12
2330.654502511621
 22
2087.6249744426
 32
0.0
 13
2330.654502511621
 23
2087.6249744426
 33
0.0
  0
SOLID
  5
9CD0
330
94C6
100
AcDbEntity
  8
寸法引出
 48
15.0
100
AcDbTrace
 10
2326.904502511621
 20
2185.1249744426
 30
0.0
 11
2334.404502511621
 21
2185.1249744426
 31
0.0
 12
2330.654502511621
 22
2207.6249744426
 32
0.0
 13
2330.654502511621
 23
2207.6249744426
 33
0.0
  0
MTEXT
  5
9CD1
330
94C6
100
AcDbEntity
  8
寸法引出
 48
15.0
100
AcDbMText
 10
2300.654502511621
 20
2147.624974442601
 30
0.0
 40
30.0
 41
0.0
 71
     5
 72
     1
  1
\A1;120
  7
SANWA
 11
0.0000000000000001
 21
1.0
 31
0.0
 73
     1
 44
1.0
1001
ACAD
1000
MTEXTBEGIN
1070
    73
1070
     1
1070
    44
1040
1.0
1070
    74
1070
     0
1000
MTEXTEND
  0
POINT
  5
9CD2
330
94C6
100
AcDbEntity
  8
DEFPOINTS
 62
     0
 48
15.0
100
AcDbPoint
 10
2409.500265450521
 20
2087.6249744426
 30
0.0
  0
POINT
  5
9CD3
330
94C6
100
AcDbEntity
  8
DEFPOINTS
 62
     0
 48
15.0
100
AcDbPoint
 10
2409.500265450521
 20
2207.6249744426
 30
0.0
  0
POINT
  5
9CD4
330
94C6
100
AcDbEntity
  8
DEFPOINTS
 62
     0
 48
15.0
100
AcDbPoint
 10
2330.654502511621
 20
2207.6249744426
 30
0.0
  0
ENDBLK
  5
94D1
330
94C6
100
AcDbEntity
  8
0
 48
15.0
100
AcDbBlockEnd
  0
BLOCK
  5
94DE
330
94D2
100
AcDbEntity
  8
0
 48
15.0
100
AcDbBlockBegin
  2
*D220
 70
     1
 10
0.0
 20
0.0
 30
0.0
  3
*D220
  1

  0
LINE
  5
9CD5
330
94D2
100
AcDbEntity
  8
寸法引出
 48
15.0
370
    -2
100
AcDbLine
 10
2057.249546853664
 20
2072.6249744426
 30
0.0
 11
2057.249546853664
 21
1991.557895504171
 31
0.0
  0
LINE
  5
9CD6
330
94D2
100
AcDbEntity
  8
寸法引出
 48
15.0
370
    -2
100
AcDbLine
 10
2087.249546853664
 20
2072.6249744426
 30
0.0
 11
2087.249546853664
 21
1991.557895504171
 31
0.0
  0
LINE
  5
9CD7
330
94D2
100
AcDbEntity
  8
寸法引出
 48
15.0
370
    -2
100
AcDbLine
 10
2034.749546853664
 20
1999.057895504171
 30
0.0
 11
2012.249546853664
 21
1999.057895504171
 31
0.0
  0
LINE
  5
9CD8
330
94D2
100
AcDbEntity
  8
寸法引出
 48
15.0
370
    -2
100
AcDbLine
 10
2109.749546853664
 20
1999.057895504171
 30
0.0
 11
2132.249546853664
 21
1999.057895504171
 31
0.0
  0
LINE
  5
9CD9
330
94D2
100
AcDbEntity
  8
寸法引出
 48
15.0
370
    -2
100
AcDbLine
 10
2057.249546853664
 20
1999.057895504171
 30
0.0
 11
2087.249546853664
 21
1999.057895504171
 31
0.0
  0
SOLID
  5
9CDA
330
94D2
100
AcDbEntity
  8
寸法引出
 48
15.0
100
AcDbTrace
 10
2034.749546853664
 20
2002.807895504171
 30
0.0
 11
2034.749546853664
 21
1995.307895504171
 31
0.0
 12
2057.249546853664
 22
1999.057895504171
 32
0.0
 13
2057.249546853664
 23
1999.057895504171
 33
0.0
  0
SOLID
  5
9CDB
330
94D2
100
AcDbEntity
  8
寸法引出
 48
15.0
100
AcDbTrace
 10
2109.749546853664
 20
2002.807895504171
 30
0.0
 11
2109.749546853664
 21
1995.307895504171
 31
0.0
 12
2087.249546853664
 22
1999.057895504171
 32
0.0
 13
2087.249546853664
 23
1999.057895504171
 33
0.0
  0
MTEXT
  5
9CDC
330
94D2
100
AcDbEntity
  8
寸法引出
 48
15.0
100
AcDbMText
 10
2072.249546853663
 20
2029.057895504171
 30
0.0
 40
30.0
 41
0.0
 71
     5
 72
     1
  1
\A1;30
  7
SANWA
 73
     1
 44
1.0
1001
ACAD
1000
MTEXTBEGIN
1070
    73
1070
     1
1070
    44
1040
1.0
1070
    74
1070
     0
1000
MTEXTEND
  0
POINT
  5
9CDD
330
94D2
100
AcDbEntity
  8
DEFPOINTS
 62
     0
 48
15.0
100
AcDbPoint
 10
2057.249546853664
 20
2087.6249744426
 30
0.0
  0
POINT
  5
9CDE
330
94D2
100
AcDbEntity
  8
DEFPOINTS
 62
     0
 48
15.0
100
AcDbPoint
 10
2087.249546853664
 20
2087.6249744426
 30
0.0
  0
POINT
  5
9CDF
330
94D2
100
AcDbEntity
  8
DEFPOINTS
 62
     0
 48
15.0
100
AcDbPoint
 10
2087.249546853664
 20
1999.057895504171
 30
0.0
  0
ENDBLK
  5
94DF
330
94D2
100
AcDbEntity
  8
0
 48
15.0
100
AcDbBlockEnd
  0
BLOCK
  5
94EA
330
94E0
100
AcDbEntity
  8
0
 48
15.0
100
AcDbBlockBegin
  2
*D221
 70
     1
 10
0.0
 20
0.0
 30
0.0
  3
*D221
  1

  0
LINE
  5
9CE0
330
94E0
100
AcDbEntity
  8
寸法引出
 48
15.0
370
    -2
100
AcDbLine
 10
2102.249546853664
 20
2087.6249744426
 30
0.0
 11
2184.771251916813
 21
2087.6249744426
 31
0.0
  0
LINE
  5
9CE1
330
94E0
100
AcDbEntity
  8
寸法引出
 48
15.0
370
    -2
100
AcDbLine
 10
2102.249546853664
 20
2224.6249744426
 30
0.0
 11
2184.771251916813
 21
2224.6249744426
 31
0.0
  0
LINE
  5
9CE2
330
94E0
100
AcDbEntity
  8
寸法引出
 48
15.0
370
    -2
100
AcDbLine
 10
2177.271251916813
 20
2110.1249744426
 30
0.0
 11
2177.271251916813
 21
2202.1249744426
 31
0.0
  0
SOLID
  5
9CE3
330
94E0
100
AcDbEntity
  8
寸法引出
 48
15.0
100
AcDbTrace
 10
2173.521251916813
 20
2110.1249744426
 30
0.0
 11
2181.021251916813
 21
2110.1249744426
 31
0.0
 12
2177.271251916813
 22
2087.6249744426
 32
0.0
 13
2177.271251916813
 23
2087.6249744426
 33
0.0
  0
SOLID
  5
9CE4
330
94E0
100
AcDbEntity
  8
寸法引出
 48
15.0
100
AcDbTrace
 10
2173.521251916813
 20
2202.1249744426
 30
0.0
 11
2181.021251916813
 21
2202.1249744426
 31
0.0
 12
2177.271251916813
 22
2224.6249744426
 32
0.0
 13
2177.271251916813
 23
2224.6249744426
 33
0.0
  0
MTEXT
  5
9CE5
330
94E0
100
AcDbEntity
  8
寸法引出
 48
15.0
100
AcDbMText
 10
2147.271251916812
 20
2156.1249744426
 30
0.0
 40
30.0
 41
0.0
 71
     5
 72
     1
  1
\A1;137
  7
SANWA
 11
0.0000000000000001
 21
1.0
 31
0.0
 73
     1
 44
1.0
1001
ACAD
1000
MTEXTBEGIN
1070
    73
1070
     1
1070
    44
1040
1.0
1070
    74
1070
     0
1000
MTEXTEND
  0
POINT
  5
9CE6
330
94E0
100
AcDbEntity
  8
DEFPOINTS
 62
     0
 48
15.0
100
AcDbPoint
 10
2087.249546853664
 20
2087.6249744426
 30
0.0
  0
POINT
  5
9CE7
330
94E0
100
AcDbEntity
  8
DEFPOINTS
 62
     0
 48
15.0
100
AcDbPoint
 10
2087.249546853664
 20
2224.6249744426
 30
0.0
  0
POINT
  5
9CE8
330
94E0
100
AcDbEntity
  8
DEFPOINTS
 62
     0
 48
15.0
100
AcDbPoint
 10
2177.271251916813
 20
2224.6249744426
 30
0.0
  0
ENDBLK
  5
94EB
330
94E0
100
AcDbEntity
  8
0
 48
15.0
100
AcDbBlockEnd
  0
BLOCK
  5
94F6
330
94EC
100
AcDbEntity
  8
0
 48
15.0
100
AcDbBlockBegin
  2
*D222
 70
     1
 10
0.0
 20
0.0
 30
0.0
  3
*D222
  1

  0
LINE
  5
9CE9
330
94EC
100
AcDbEntity
  8
寸法引出
 48
15.0
370
    -2
100
AcDbLine
 10
2409.500265450521
 20
2072.6249744426
 30
0.0
 11
2409.500265450521
 21
1991.557895504171
 31
0.0
  0
LINE
  5
9CEA
330
94EC
100
AcDbEntity
  8
寸法引出
 48
15.0
370
    -2
100
AcDbLine
 10
2529.500265450521
 20
2072.6249744426
 30
0.0
 11
2529.500265450521
 21
1991.557895504171
 31
0.0
  0
LINE
  5
9CEB
330
94EC
100
AcDbEntity
  8
寸法引出
 48
15.0
370
    -2
100
AcDbLine
 10
2432.000265450521
 20
1999.057895504171
 30
0.0
 11
2507.000265450521
 21
1999.057895504171
 31
0.0
  0
SOLID
  5
9CEC
330
94EC
100
AcDbEntity
  8
寸法引出
 48
15.0
100
AcDbTrace
 10
2432.000265450521
 20
2002.807895504171
 30
0.0
 11
2432.000265450521
 21
1995.307895504171
 31
0.0
 12
2409.500265450521
 22
1999.057895504171
 32
0.0
 13
2409.500265450521
 23
1999.057895504171
 33
0.0
  0
SOLID
  5
9CED
330
94EC
100
AcDbEntity
  8
寸法引出
 48
15.0
100
AcDbTrace
 10
2507.000265450521
 20
2002.807895504171
 30
0.0
 11
2507.000265450521
 21
1995.307895504171
 31
0.0
 12
2529.500265450521
 22
1999.057895504171
 32
0.0
 13
2529.500265450521
 23
1999.057895504171
 33
0.0
  0
MTEXT
  5
9CEE
330
94EC
100
AcDbEntity
  8
寸法引出
 48
15.0
100
AcDbMText
 10
2469.500265450521
 20
2029.057895504171
 30
0.0
 40
30.0
 41
0.0
 71
     5
 72
     1
  1
\A1;120
  7
SANWA
 73
     1
 44
1.0
1001
ACAD
1000
MTEXTBEGIN
1070
    73
1070
     1
1070
    44
1040
1.0
1070
    74
1070
     0
1000
MTEXTEND
  0
POINT
  5
9CEF
330
94EC
100
AcDbEntity
  8
DEFPOINTS
 62
     0
 48
15.0
100
AcDbPoint
 10
2409.500265450521
 20
2087.6249744426
 30
0.0
  0
POINT
  5
9CF0
330
94EC
100
AcDbEntity
  8
DEFPOINTS
 62
     0
 48
15.0
100
AcDbPoint
 10
2529.500265450521
 20
2087.6249744426
 30
0.0
  0
POINT
  5
9CF1
330
94EC
100
AcDbEntity
  8
DEFPOINTS
 62
     0
 48
15.0
100
AcDbPoint
 10
2529.500265450521
 20
1999.057895504171
 30
0.0
  0
ENDBLK
  5
94F7
330
94EC
100
AcDbEntity
  8
0
 48
15.0
100
AcDbBlockEnd
  0
BLOCK
  5
9502
330
94F8
100
AcDbEntity
  8
0
 48
15.0
100
AcDbBlockBegin
  2
*D223
 70
     1
 10
0.0
 20
0.0
 30
0.0
  3
*D223
  1

  0
LINE
  5
9CF2
330
94F8
100
AcDbEntity
  8
寸法引出
 48
15.0
370
    -2
100
AcDbLine
 10
3289.50026545052
 20
2072.6249744426
 30
0.0
 11
3289.50026545052
 21
1991.557895504171
 31
0.0
  0
LINE
  5
9CF3
330
94F8
100
AcDbEntity
  8
寸法引出
 48
15.0
370
    -2
100
AcDbLine
 10
3409.500265450521
 20
2072.6249744426
 30
0.0
 11
3409.500265450521
 21
1991.557895504171
 31
0.0
  0
LINE
  5
9CF4
330
94F8
100
AcDbEntity
  8
寸法引出
 48
15.0
370
    -2
100
AcDbLine
 10
3312.000265450521
 20
1999.057895504171
 30
0.0
 11
3387.000265450521
 21
1999.057895504171
 31
0.0
  0
SOLID
  5
9CF5
330
94F8
100
AcDbEntity
  8
寸法引出
 48
15.0
100
AcDbTrace
 10
3312.000265450521
 20
2002.807895504171
 30
0.0
 11
3312.000265450521
 21
1995.307895504171
 31
0.0
 12
3289.50026545052
 22
1999.057895504171
 32
0.0
 13
3289.50026545052
 23
1999.057895504171
 33
0.0
  0
SOLID
  5
9CF6
330
94F8
100
AcDbEntity
  8
寸法引出
 48
15.0
100
AcDbTrace
 10
3387.000265450521
 20
2002.807895504171
 30
0.0
 11
3387.000265450521
 21
1995.307895504171
 31
0.0
 12
3409.500265450521
 22
1999.057895504171
 32
0.0
 13
3409.500265450521
 23
1999.057895504171
 33
0.0
  0
MTEXT
  5
9CF7
330
94F8
100
AcDbEntity
  8
寸法引出
 48
15.0
100
AcDbMText
 10
3349.500265450521
 20
2029.057895504171
 30
0.0
 40
30.0
 41
0.0
 71
     5
 72
     1
  1
\A1;120
  7
SANWA
 73
     1
 44
1.0
1001
ACAD
1000
MTEXTBEGIN
1070
    73
1070
     1
1070
    44
1040
1.0
1070
    74
1070
     0
1000
MTEXTEND
  0
POINT
  5
9CF8
330
94F8
100
AcDbEntity
  8
DEFPOINTS
 62
     0
 48
15.0
100
AcDbPoint
 10
3289.50026545052
 20
2087.6249744426
 30
0.0
  0
POINT
  5
9CF9
330
94F8
100
AcDbEntity
  8
DEFPOINTS
 62
     0
 48
15.0
100
AcDbPoint
 10
3409.500265450521
 20
2087.6249744426
 30
0.0
  0
POINT
  5
9CFA
330
94F8
100
AcDbEntity
  8
DEFPOINTS
 62
     0
 48
15.0
100
AcDbPoint
 10
3409.500265450521
 20
1999.057895504171
 30
0.0
  0
ENDBLK
  5
9503
330
94F8
100
AcDbEntity
  8
0
 48
15.0
100
AcDbBlockEnd
  0
BLOCK
  5
950E
330
9504
100
AcDbEntity
  8
0
 48
15.0
100
AcDbBlockBegin
  2
*D224
 70
     1
 10
0.0
 20
0.0
 30
0.0
  3
*D224
  1

  0
LINE
  5
9CFB
330
9504
100
AcDbEntity
  8
寸法引出
 48
15.0
370
    -2
100
AcDbLine
 10
3424.500265450521
 20
2224.6249744426
 30
0.0
 11
3513.574038852457
 21
2224.6249744426
 31
0.0
  0
LINE
  5
9CFC
330
9504
100
AcDbEntity
  8
寸法引出
 48
15.0
370
    -2
100
AcDbLine
 10
3424.500265450521
 20
2087.6249744426
 30
0.0
 11
3513.574038852457
 21
2087.6249744426
 31
0.0
  0
LINE
  5
9CFD
330
9504
100
AcDbEntity
  8
寸法引出
 48
15.0
370
    -2
100
AcDbLine
 10
3506.074038852457
 20
2202.1249744426
 30
0.0
 11
3506.074038852457
 21
2110.1249744426
 31
0.0
  0
SOLID
  5
9CFE
330
9504
100
AcDbEntity
  8
寸法引出
 48
15.0
100
AcDbTrace
 10
3502.324038852458
 20
2202.1249744426
 30
0.0
 11
3509.824038852457
 21
2202.1249744426
 31
0.0
 12
3506.074038852457
 22
2224.6249744426
 32
0.0
 13
3506.074038852457
 23
2224.6249744426
 33
0.0
  0
SOLID
  5
9CFF
330
9504
100
AcDbEntity
  8
寸法引出
 48
15.0
100
AcDbTrace
 10
3502.324038852458
 20
2110.1249744426
 30
0.0
 11
3509.824038852457
 21
2110.1249744426
 31
0.0
 12
3506.074038852457
 22
2087.6249744426
 32
0.0
 13
3506.074038852457
 23
2087.6249744426
 33
0.0
  0
MTEXT
  5
9D00
330
9504
100
AcDbEntity
  8
寸法引出
 48
15.0
100
AcDbMText
 10
3476.074038852457
 20
2156.124974442601
 30
0.0
 40
30.0
 41
0.0
 71
     5
 72
     1
  1
\A1;137
  7
SANWA
 11
0.0000000000000001
 21
1.0
 31
0.0
 73
     1
 44
1.0
1001
ACAD
1000
MTEXTBEGIN
1070
    73
1070
     1
1070
    44
1040
1.0
1070
    74
1070
     0
1000
MTEXTEND
  0
POINT
  5
9D01
330
9504
100
AcDbEntity
  8
DEFPOINTS
 62
     0
 48
15.0
100
AcDbPoint
 10
3409.500265450521
 20
2224.6249744426
 30
0.0
  0
POINT
  5
9D02
330
9504
100
AcDbEntity
  8
DEFPOINTS
 62
     0
 48
15.0
100
AcDbPoint
 10
3409.500265450521
 20
2087.6249744426
 30
0.0
  0
POINT
  5
9D03
330
9504
100
AcDbEntity
  8
DEFPOINTS
 62
     0
 48
15.0
100
AcDbPoint
 10
3506.074038852457
 20
2087.6249744426
 30
0.0
  0
ENDBLK
  5
950F
330
9504
100
AcDbEntity
  8
0
 48
15.0
100
AcDbBlockEnd
  0
BLOCK
  5
951A
330
9510
100
AcDbEntity
  8
0
 48
15.0
100
AcDbBlockBegin
  2
*D225
 70
     1
 10
0.0
 20
0.0
 30
0.0
  3
*D225
  1

  0
LINE
  5
9D04
330
9510
100
AcDbEntity
  8
寸法引出
 48
15.0
370
    -2
100
AcDbLine
 10
1467.249546853663
 20
4212.928199705158
 30
0.0
 11
1467.249546853663
 21
4036.189575971715
 31
0.0
  0
LINE
  5
9D05
330
9510
100
AcDbEntity
  8
寸法引出
 48
15.0
370
    -2
100
AcDbLine
 10
2087.249546853664
 20
4212.928199705158
 30
0.0
 11
2087.249546853664
 21
4036.189575971715
 31
0.0
  0
LINE
  5
9D06
330
9510
100
AcDbEntity
  8
寸法引出
 48
15.0
370
    -2
100
AcDbLine
 10
1489.749546853663
 20
4043.689575971715
 30
0.0
 11
2064.749546853664
 21
4043.689575971715
 31
0.0
  0
SOLID
  5
9D07
330
9510
100
AcDbEntity
  8
寸法引出
 48
15.0
100
AcDbTrace
 10
1489.749546853663
 20
4047.439575971715
 30
0.0
 11
1489.749546853663
 21
4039.939575971715
 31
0.0
 12
1467.249546853663
 22
4043.689575971715
 32
0.0
 13
1467.249546853663
 23
4043.689575971715
 33
0.0
  0
SOLID
  5
9D08
330
9510
100
AcDbEntity
  8
寸法引出
 48
15.0
100
AcDbTrace
 10
2064.749546853664
 20
4047.439575971715
 30
0.0
 11
2064.749546853664
 21
4039.939575971715
 31
0.0
 12
2087.249546853664
 22
4043.689575971715
 32
0.0
 13
2087.249546853664
 23
4043.689575971715
 33
0.0
  0
MTEXT
  5
9D09
330
9510
100
AcDbEntity
  8
寸法引出
 48
15.0
100
AcDbMText
 10
1777.249546853663
 20
4073.689575971715
 30
0.0
 40
30.0
 41
0.0
 71
     5
 72
     1
  1
\A1;620
  7
SANWA
 73
     1
 44
1.0
1001
ACAD
1000
MTEXTBEGIN
1070
    73
1070
     1
1070
    44
1040
1.0
1070
    74
1070
     0
1000
MTEXTEND
  0
POINT
  5
9D0A
330
9510
100
AcDbEntity
  8
DEFPOINTS
 62
     0
 48
15.0
100
AcDbPoint
 10
1467.249546853663
 20
4227.928199705158
 30
0.0
  0
POINT
  5
9D0B
330
9510
100
AcDbEntity
  8
DEFPOINTS
 62
     0
 48
15.0
100
AcDbPoint
 10
2087.249546853664
 20
4227.928199705158
 30
0.0
  0
POINT
  5
9D0C
330
9510
100
AcDbEntity
  8
DEFPOINTS
 62
     0
 48
15.0
100
AcDbPoint
 10
2087.249546853664
 20
4043.689575971715
 30
0.0
  0
ENDBLK
  5
951B
330
9510
100
AcDbEntity
  8
0
 48
15.0
100
AcDbBlockEnd
  0
BLOCK
  5
9526
330
951C
100
AcDbEntity
  8
0
 48
15.0
100
AcDbBlockBegin
  2
*D226
 70
     1
 10
0.0
 20
0.0
 30
0.0
  3
*D226
  1

  0
LINE
  5
9D0D
330
951C
100
AcDbEntity
  8
寸法引出
 48
15.0
370
    -2
100
AcDbLine
 10
1497.249546853664
 20
4212.928199705158
 30
0.0
 11
1497.249546853664
 21
4108.687930832937
 31
0.0
  0
LINE
  5
9D0E
330
951C
100
AcDbEntity
  8
寸法引出
 48
15.0
370
    -2
100
AcDbLine
 10
2057.249546853664
 20
4212.928199705158
 30
0.0
 11
2057.249546853664
 21
4108.687930832937
 31
0.0
  0
LINE
  5
9D0F
330
951C
100
AcDbEntity
  8
寸法引出
 48
15.0
370
    -2
100
AcDbLine
 10
1519.749546853664
 20
4116.187930832937
 30
0.0
 11
2034.749546853664
 21
4116.187930832937
 31
0.0
  0
SOLID
  5
9D10
330
951C
100
AcDbEntity
  8
寸法引出
 48
15.0
100
AcDbTrace
 10
1519.749546853664
 20
4119.937930832937
 30
0.0
 11
1519.749546853664
 21
4112.437930832937
 31
0.0
 12
1497.249546853664
 22
4116.187930832937
 32
0.0
 13
1497.249546853664
 23
4116.187930832937
 33
0.0
  0
SOLID
  5
9D11
330
951C
100
AcDbEntity
  8
寸法引出
 48
15.0
100
AcDbTrace
 10
2034.749546853664
 20
4119.937930832937
 30
0.0
 11
2034.749546853664
 21
4112.437930832937
 31
0.0
 12
2057.249546853664
 22
4116.187930832937
 32
0.0
 13
2057.249546853664
 23
4116.187930832937
 33
0.0
  0
MTEXT
  5
9D12
330
951C
100
AcDbEntity
  8
寸法引出
 48
15.0
100
AcDbMText
 10
1777.249546853664
 20
4146.187930832937
 30
0.0
 40
30.0
 41
0.0
 71
     5
 72
     1
  1
\A1;560
  7
SANWA
 73
     1
 44
1.0
1001
ACAD
1000
MTEXTBEGIN
1070
    73
1070
     1
1070
    44
1040
1.0
1070
    74
1070
     0
1000
MTEXTEND
  0
POINT
  5
9D13
330
951C
100
AcDbEntity
  8
DEFPOINTS
 62
     0
 48
15.0
100
AcDbPoint
 10
1497.249546853664
 20
4227.928199705158
 30
0.0
  0
POINT
  5
9D14
330
951C
100
AcDbEntity
  8
DEFPOINTS
 62
     0
 48
15.0
100
AcDbPoint
 10
2057.249546853664
 20
4227.928199705158
 30
0.0
  0
POINT
  5
9D15
330
951C
100
AcDbEntity
  8
DEFPOINTS
 62
     0
 48
15.0
100
AcDbPoint
 10
2057.249546853664
 20
4116.187930832937
 30
0.0
  0
ENDBLK
  5
9527
330
951C
100
AcDbEntity
  8
0
 48
15.0
100
AcDbBlockEnd
  0
BLOCK
  5
9531
330
9528
100
AcDbEntity
  8
0
 48
15.0
100
AcDbBlockBegin
  2
*D227
 70
     1
 10
0.0
 20
0.0
 30
0.0
  3
*D227
  1

  0
LINE
  5
9D16
330
9528
100
AcDbEntity
  8
寸法引出
 48
15.0
370
    -2
100
AcDbLine
 10
2087.249546853664
 20
5242.928199705159
 30
0.0
 11
2087.249546853664
 21
5339.243451196583
 31
0.0
  0
LINE
  5
9D17
330
9528
100
AcDbEntity
  8
寸法引出
 48
15.0
370
    -2
100
AcDbLine
 10
1832.249546853663
 20
5331.743451196584
 30
0.0
 11
2064.749546853664
 21
5331.743451196584
 31
0.0
  0
SOLID
  5
9D18
330
9528
100
AcDbEntity
  8
寸法引出
 48
15.0
100
AcDbTrace
 10
1832.249546853663
 20
5335.493451196583
 30
0.0
 11
1832.249546853663
 21
5327.993451196584
 31
0.0
 12
1809.749546853663
 22
5331.743451196584
 32
0.0
 13
1809.749546853663
 23
5331.743451196584
 33
0.0
  0
SOLID
  5
9D19
330
9528
100
AcDbEntity
  8
寸法引出
 48
15.0
100
AcDbTrace
 10
2064.749546853664
 20
5335.493451196583
 30
0.0
 11
2064.749546853664
 21
5327.993451196584
 31
0.0
 12
2087.249546853664
 22
5331.743451196584
 32
0.0
 13
2087.249546853664
 23
5331.743451196584
 33
0.0
  0
MTEXT
  5
9D1A
330
9528
100
AcDbEntity
  8
寸法引出
 48
15.0
100
AcDbMText
 10
1948.499546853663
 20
5361.743451196584
 30
0.0
 40
30.0
 41
0.0
 71
     5
 72
     1
  1
\A1;277.5
  7
SANWA
 73
     1
 44
1.0
1001
ACAD
1000
MTEXTBEGIN
1070
    73
1070
     1
1070
    44
1040
1.0
1070
    74
1070
     0
1000
MTEXTEND
  0
POINT
  5
9D1B
330
9528
100
AcDbEntity
  8
DEFPOINTS
 62
     0
 48
15.0
100
AcDbPoint
 10
1809.749546853663
 20
5227.928199705158
 30
0.0
  0
POINT
  5
9D1C
330
9528
100
AcDbEntity
  8
DEFPOINTS
 62
     0
 48
15.0
100
AcDbPoint
 10
2087.249546853664
 20
5227.928199705158
 30
0.0
  0
POINT
  5
9D1D
330
9528
100
AcDbEntity
  8
DEFPOINTS
 62
     0
 48
15.0
100
AcDbPoint
 10
2087.249546853664
 20
5331.743451196584
 30
0.0
  0
ENDBLK
  5
9532
330
9528
100
AcDbEntity
  8
0
 48
15.0
100
AcDbBlockEnd
  0
BLOCK
  5
953C
330
9533
100
AcDbEntity
  8
0
 48
15.0
100
AcDbBlockBegin
  2
*D228
 70
     1
 10
0.0
 20
0.0
 30
0.0
  3
*D228
  1

  0
LINE
  5
9D1E
330
9533
100
AcDbEntity
  8
寸法引出
 48
15.0
370
    -2
100
AcDbLine
 10
1452.249546853663
 20
4347.928199705158
 30
0.0
 11
1347.083193847953
 21
4347.928199705158
 31
0.0
  0
LINE
  5
9D1F
330
9533
100
AcDbEntity
  8
寸法引出
 48
15.0
370
    -2
100
AcDbLine
 10
1354.583193847953
 20
5085.428199705159
 30
0.0
 11
1354.583193847953
 21
4370.428199705158
 31
0.0
  0
SOLID
  5
9D20
330
9533
100
AcDbEntity
  8
寸法引出
 48
15.0
100
AcDbTrace
 10
1350.833193847953
 20
5085.428199705159
 30
0.0
 11
1358.333193847953
 21
5085.428199705159
 31
0.0
 12
1354.583193847953
 22
5107.928199705159
 32
0.0
 13
1354.583193847953
 23
5107.928199705159
 33
0.0
  0
SOLID
  5
9D21
330
9533
100
AcDbEntity
  8
寸法引出
 48
15.0
100
AcDbTrace
 10
1350.833193847953
 20
4370.428199705158
 30
0.0
 11
1358.333193847953
 21
4370.428199705158
 31
0.0
 12
1354.583193847953
 22
4347.928199705158
 32
0.0
 13
1354.583193847953
 23
4347.928199705158
 33
0.0
  0
MTEXT
  5
9D22
330
9533
100
AcDbEntity
  8
寸法引出
 48
15.0
100
AcDbMText
 10
1324.583193847952
 20
4727.928199705158
 30
0.0
 40
30.0
 41
0.0
 71
     5
 72
     1
  1
\A1;760
  7
SANWA
 11
0.0000000000000001
 21
1.0
 31
0.0
 73
     1
 44
1.0
1001
ACAD
1000
MTEXTBEGIN
1070
    73
1070
     1
1070
    44
1040
1.0
1070
    74
1070
     0
1000
MTEXTEND
  0
POINT
  5
9D23
330
9533
100
AcDbEntity
  8
DEFPOINTS
 62
     0
 48
15.0
100
AcDbPoint
 10
1467.249546853663
 20
5107.928199705159
 30
0.0
  0
POINT
  5
9D24
330
9533
100
AcDbEntity
  8
DEFPOINTS
 62
     0
 48
15.0
100
AcDbPoint
 10
1467.249546853663
 20
4347.928199705158
 30
0.0
  0
POINT
  5
9D25
330
9533
100
AcDbEntity
  8
DEFPOINTS
 62
     0
 48
15.0
100
AcDbPoint
 10
1354.583193847953
 20
4347.928199705158
 30
0.0
  0
ENDBLK
  5
953D
330
9533
100
AcDbEntity
  8
0
 48
15.0
100
AcDbBlockEnd
  0
BLOCK
  5
954A
330
953E
100
AcDbEntity
  8
0
 48
15.0
100
AcDbBlockBegin
  2
*D229
 70
     1
 10
0.0
 20
0.0
 30
0.0
  3
*D229
  1

  0
LINE
  5
9D26
330
953E
100
AcDbEntity
  8
寸法引出
 48
15.0
370
    -2
100
AcDbLine
 10
1467.249546853663
 20
4212.928199705158
 30
0.0
 11
1467.249546853663
 21
4108.687930832937
 31
0.0
  0
LINE
  5
9D27
330
953E
100
AcDbEntity
  8
寸法引出
 48
15.0
370
    -2
100
AcDbLine
 10
1497.249546853664
 20
4184.963731069438
 30
0.0
 11
1497.249546853664
 21
4108.687930832937
 31
0.0
  0
LINE
  5
9D28
330
953E
100
AcDbEntity
  8
寸法引出
 48
15.0
370
    -2
100
AcDbLine
 10
1444.749546853663
 20
4116.187930832937
 30
0.0
 11
1422.249546853663
 21
4116.187930832937
 31
0.0
  0
LINE
  5
9D29
330
953E
100
AcDbEntity
  8
寸法引出
 48
15.0
370
    -2
100
AcDbLine
 10
1519.749546853664
 20
4116.187930832937
 30
0.0
 11
1542.249546853664
 21
4116.187930832937
 31
0.0
  0
LINE
  5
9D2A
330
953E
100
AcDbEntity
  8
寸法引出
 48
15.0
370
    -2
100
AcDbLine
 10
1467.249546853663
 20
4116.187930832937
 30
0.0
 11
1497.249546853664
 21
4116.187930832937
 31
0.0
  0
SOLID
  5
9D2B
330
953E
100
AcDbEntity
  8
寸法引出
 48
15.0
100
AcDbTrace
 10
1444.749546853663
 20
4119.937930832937
 30
0.0
 11
1444.749546853663
 21
4112.437930832937
 31
0.0
 12
1467.249546853663
 22
4116.187930832937
 32
0.0
 13
1467.249546853663
 23
4116.187930832937
 33
0.0
  0
SOLID
  5
9D2C
330
953E
100
AcDbEntity
  8
寸法引出
 48
15.0
100
AcDbTrace
 10
1519.749546853664
 20
4119.937930832937
 30
0.0
 11
1519.749546853664
 21
4112.437930832937
 31
0.0
 12
1497.249546853664
 22
4116.187930832937
 32
0.0
 13
1497.249546853664
 23
4116.187930832937
 33
0.0
  0
MTEXT
  5
9D2D
330
953E
100
AcDbEntity
  8
寸法引出
 48
15.0
100
AcDbMText
 10
1482.249546853664
 20
4146.187930832937
 30
0.0
 40
30.0
 41
0.0
 71
     5
 72
     1
  1
\A1;30
  7
SANWA
 73
     1
 44
1.0
1001
ACAD
1000
MTEXTBEGIN
1070
    73
1070
     1
1070
    44
1040
1.0
1070
    74
1070
     0
1000
MTEXTEND
  0
POINT
  5
9D2E
330
953E
100
AcDbEntity
  8
DEFPOINTS
 62
     0
 48
15.0
100
AcDbPoint
 10
1467.249546853663
 20
4227.928199705158
 30
0.0
  0
POINT
  5
9D2F
330
953E
100
AcDbEntity
  8
DEFPOINTS
 62
     0
 48
15.0
100
AcDbPoint
 10
1497.249546853664
 20
4199.963731069438
 30
0.0
  0
POINT
  5
9D30
330
953E
100
AcDbEntity
  8
DEFPOINTS
 62
     0
 48
15.0
100
AcDbPoint
 10
1497.249546853664
 20
4116.187930832937
 30
0.0
  0
ENDBLK
  5
954B
330
953E
100
AcDbEntity
  8
0
 48
15.0
100
AcDbBlockEnd
  0
BLOCK
  5
9555
330
954C
100
AcDbEntity
  8
0
 48
15.0
100
AcDbBlockBegin
  2
*D230
 70
     1
 10
0.0
 20
0.0
 30
0.0
  3
*D230
  1

  0
LINE
  5
9D31
330
954C
100
AcDbEntity
  8
寸法引出
 48
15.0
370
    -2
100
AcDbLine
 10
1452.249546853663
 20
4227.928199705158
 30
0.0
 11
1347.083193847953
 21
4227.928199705158
 31
0.0
  0
LINE
  5
9D32
330
954C
100
AcDbEntity
  8
寸法引出
 48
15.0
370
    -2
100
AcDbLine
 10
1354.583193847953
 20
4325.428199705158
 30
0.0
 11
1354.583193847953
 21
4250.428199705158
 31
0.0
  0
SOLID
  5
9D33
330
954C
100
AcDbEntity
  8
寸法引出
 48
15.0
100
AcDbTrace
 10
1350.833193847953
 20
4325.428199705158
 30
0.0
 11
1358.333193847953
 21
4325.428199705158
 31
0.0
 12
1354.583193847953
 22
4347.928199705158
 32
0.0
 13
1354.583193847953
 23
4347.928199705158
 33
0.0
  0
SOLID
  5
9D34
330
954C
100
AcDbEntity
  8
寸法引出
 48
15.0
100
AcDbTrace
 10
1350.833193847953
 20
4250.428199705158
 30
0.0
 11
1358.333193847953
 21
4250.428199705158
 31
0.0
 12
1354.583193847953
 22
4227.928199705158
 32
0.0
 13
1354.583193847953
 23
4227.928199705158
 33
0.0
  0
MTEXT
  5
9D35
330
954C
100
AcDbEntity
  8
寸法引出
 48
15.0
100
AcDbMText
 10
1324.583193847952
 20
4287.928199705159
 30
0.0
 40
30.0
 41
0.0
 71
     5
 72
     1
  1
\A1;120
  7
SANWA
 11
0.0000000000000001
 21
1.0
 31
0.0
 73
     1
 44
1.0
1001
ACAD
1000
MTEXTBEGIN
1070
    73
1070
     1
1070
    44
1040
1.0
1070
    74
1070
     0
1000
MTEXTEND
  0
POINT
  5
9D36
330
954C
100
AcDbEntity
  8
DEFPOINTS
 62
     0
 48
15.0
100
AcDbPoint
 10
1467.249546853663
 20
4347.928199705158
 30
0.0
  0
POINT
  5
9D37
330
954C
100
AcDbEntity
  8
DEFPOINTS
 62
     0
 48
15.0
100
AcDbPoint
 10
1467.249546853663
 20
4227.928199705158
 30
0.0
  0
POINT
  5
9D38
330
954C
100
AcDbEntity
  8
DEFPOINTS
 62
     0
 48
15.0
100
AcDbPoint
 10
1354.583193847953
 20
4227.928199705158
 30
0.0
  0
ENDBLK
  5
9556
330
954C
100
AcDbEntity
  8
0
 48
15.0
100
AcDbBlockEnd
  0
BLOCK
  5
9561
330
9557
100
AcDbEntity
  8
0
 48
15.0
100
AcDbBlockBegin
  2
*D231
 70
     1
 10
0.0
 20
0.0
 30
0.0
  3
*D231
  1

  0
LINE
  5
9D39
330
9557
100
AcDbEntity
  8
寸法引出
 48
15.0
370
    -2
100
AcDbLine
 10
1467.249546853663
 20
5242.928199705159
 30
0.0
 11
1467.249546853663
 21
5339.243451196583
 31
0.0
  0
LINE
  5
9D3A
330
9557
100
AcDbEntity
  8
寸法引出
 48
15.0
370
    -2
100
AcDbLine
 10
1744.749546853664
 20
5242.928199705159
 30
0.0
 11
1744.749546853664
 21
5339.243451196583
 31
0.0
  0
LINE
  5
9D3B
330
9557
100
AcDbEntity
  8
寸法引出
 48
15.0
370
    -2
100
AcDbLine
 10
1489.749546853663
 20
5331.743451196584
 30
0.0
 11
1722.249546853663
 21
5331.743451196584
 31
0.0
  0
SOLID
  5
9D3C
330
9557
100
AcDbEntity
  8
寸法引出
 48
15.0
100
AcDbTrace
 10
1489.749546853663
 20
5335.493451196583
 30
0.0
 11
1489.749546853663
 21
5327.993451196584
 31
0.0
 12
1467.249546853663
 22
5331.743451196584
 32
0.0
 13
1467.249546853663
 23
5331.743451196584
 33
0.0
  0
SOLID
  5
9D3D
330
9557
100
AcDbEntity
  8
寸法引出
 48
15.0
100
AcDbTrace
 10
1722.249546853663
 20
5335.493451196583
 30
0.0
 11
1722.249546853663
 21
5327.993451196584
 31
0.0
 12
1744.749546853664
 22
5331.743451196584
 32
0.0
 13
1744.749546853664
 23
5331.743451196584
 33
0.0
  0
MTEXT
  5
9D3E
330
9557
100
AcDbEntity
  8
寸法引出
 48
15.0
100
AcDbMText
 10
1605.999546853663
 20
5361.743451196584
 30
0.0
 40
30.0
 41
0.0
 71
     5
 72
     1
  1
\A1;277.5
  7
SANWA
 73
     1
 44
1.0
1001
ACAD
1000
MTEXTBEGIN
1070
    73
1070
     1
1070
    44
1040
1.0
1070
    74
1070
     0
1000
MTEXTEND
  0
POINT
  5
9D3F
330
9557
100
AcDbEntity
  8
DEFPOINTS
 62
     0
 48
15.0
100
AcDbPoint
 10
1467.249546853663
 20
5227.928199705158
 30
0.0
  0
POINT
  5
9D40
330
9557
100
AcDbEntity
  8
DEFPOINTS
 62
     0
 48
15.0
100
AcDbPoint
 10
1744.749546853664
 20
5227.928199705158
 30
0.0
  0
POINT
  5
9D41
330
9557
100
AcDbEntity
  8
DEFPOINTS
 62
     0
 48
15.0
100
AcDbPoint
 10
1744.749546853664
 20
5331.743451196584
 30
0.0
  0
ENDBLK
  5
9562
330
9557
100
AcDbEntity
  8
0
 48
15.0
100
AcDbBlockEnd
  0
BLOCK
  5
956D
330
9563
100
AcDbEntity
  8
0
 48
15.0
100
AcDbBlockBegin
  2
*D232
 70
     1
 10
0.0
 20
0.0
 30
0.0
  3
*D232
  1

  0
LINE
  5
9D42
330
9563
100
AcDbEntity
  8
寸法引出
 48
15.0
370
    -2
100
AcDbLine
 10
1452.249546853663
 20
5227.928199705158
 30
0.0
 11
1347.083193847953
 21
5227.928199705158
 31
0.0
  0
LINE
  5
9D43
330
9563
100
AcDbEntity
  8
寸法引出
 48
15.0
370
    -2
100
AcDbLine
 10
1452.249546853663
 20
5107.928199705159
 30
0.0
 11
1347.083193847953
 21
5107.928199705159
 31
0.0
  0
LINE
  5
9D44
330
9563
100
AcDbEntity
  8
寸法引出
 48
15.0
370
    -2
100
AcDbLine
 10
1354.583193847953
 20
5205.428199705159
 30
0.0
 11
1354.583193847953
 21
5130.428199705159
 31
0.0
  0
SOLID
  5
9D45
330
9563
100
AcDbEntity
  8
寸法引出
 48
15.0
100
AcDbTrace
 10
1350.833193847953
 20
5205.428199705159
 30
0.0
 11
1358.333193847953
 21
5205.428199705159
 31
0.0
 12
1354.583193847953
 22
5227.928199705158
 32
0.0
 13
1354.583193847953
 23
5227.928199705158
 33
0.0
  0
SOLID
  5
9D46
330
9563
100
AcDbEntity
  8
寸法引出
 48
15.0
100
AcDbTrace
 10
1350.833193847953
 20
5130.428199705159
 30
0.0
 11
1358.333193847953
 21
5130.428199705159
 31
0.0
 12
1354.583193847953
 22
5107.928199705159
 32
0.0
 13
1354.583193847953
 23
5107.928199705159
 33
0.0
  0
MTEXT
  5
9D47
330
9563
100
AcDbEntity
  8
寸法引出
 48
15.0
100
AcDbMText
 10
1324.583193847952
 20
5167.928199705158
 30
0.0
 40
30.0
 41
0.0
 71
     5
 72
     1
  1
\A1;120
  7
SANWA
 11
0.0000000000000001
 21
1.0
 31
0.0
 73
     1
 44
1.0
1001
ACAD
1000
MTEXTBEGIN
1070
    73
1070
     1
1070
    44
1040
1.0
1070
    74
1070
     0
1000
MTEXTEND
  0
POINT
  5
9D48
330
9563
100
AcDbEntity
  8
DEFPOINTS
 62
     0
 48
15.0
100
AcDbPoint
 10
1467.249546853663
 20
5227.928199705158
 30
0.0
  0
POINT
  5
9D49
330
9563
100
AcDbEntity
  8
DEFPOINTS
 62
     0
 48
15.0
100
AcDbPoint
 10
1467.249546853663
 20
5107.928199705159
 30
0.0
  0
POINT
  5
9D4A
330
9563
100
AcDbEntity
  8
DEFPOINTS
 62
     0
 48
15.0
100
AcDbPoint
 10
1354.583193847953
 20
5107.928199705159
 30
0.0
  0
ENDBLK
  5
956E
330
9563
100
AcDbEntity
  8
0
 48
15.0
100
AcDbBlockEnd
  0
BLOCK
  5
957A
330
956F
100
AcDbEntity
  8
0
 48
15.0
100
AcDbBlockBegin
  2
*D233
 70
     1
 10
0.0
 20
0.0
 30
0.0
  3
*D233
  1

  0
LINE
  5
9D4B
330
956F
100
AcDbEntity
  8
寸法引出
 48
15.0
370
    -2
100
AcDbLine
 10
1809.749546853663
 20
5242.928199705159
 30
0.0
 11
1809.749546853663
 21
5339.243451196583
 31
0.0
  0
LINE
  5
9D4C
330
956F
100
AcDbEntity
  8
寸法引出
 48
15.0
370
    -2
100
AcDbLine
 10
1722.249546853663
 20
5331.743451196584
 30
0.0
 11
1699.749546853663
 21
5331.743451196584
 31
0.0
  0
LINE
  5
9D4D
330
956F
100
AcDbEntity
  8
寸法引出
 48
15.0
370
    -2
100
AcDbLine
 10
1832.249546853663
 20
5331.743451196584
 30
0.0
 11
1854.749546853663
 21
5331.743451196584
 31
0.0
  0
LINE
  5
9D4E
330
956F
100
AcDbEntity
  8
寸法引出
 48
15.0
370
    -2
100
AcDbLine
 10
1744.749546853664
 20
5331.743451196584
 30
0.0
 11
1809.749546853663
 21
5331.743451196584
 31
0.0
  0
SOLID
  5
9D4F
330
956F
100
AcDbEntity
  8
寸法引出
 48
15.0
100
AcDbTrace
 10
1722.249546853663
 20
5335.493451196583
 30
0.0
 11
1722.249546853663
 21
5327.993451196584
 31
0.0
 12
1744.749546853664
 22
5331.743451196584
 32
0.0
 13
1744.749546853664
 23
5331.743451196584
 33
0.0
  0
SOLID
  5
9D50
330
956F
100
AcDbEntity
  8
寸法引出
 48
15.0
100
AcDbTrace
 10
1832.249546853663
 20
5335.493451196583
 30
0.0
 11
1832.249546853663
 21
5327.993451196584
 31
0.0
 12
1809.749546853663
 22
5331.743451196584
 32
0.0
 13
1809.749546853663
 23
5331.743451196584
 33
0.0
  0
MTEXT
  5
9D51
330
956F
100
AcDbEntity
  8
寸法引出
 48
15.0
100
AcDbMText
 10
1777.249546853663
 20
5361.743451196584
 30
0.0
 40
30.0
 41
0.0
 71
     5
 72
     1
  1
\A1;65
  7
SANWA
 73
     1
 44
1.0
1001
ACAD
1000
MTEXTBEGIN
1070
    73
1070
     1
1070
    44
1040
1.0
1070
    74
1070
     0
1000
MTEXTEND
  0
POINT
  5
9D52
330
956F
100
AcDbEntity
  8
DEFPOINTS
 62
     0
 48
15.0
100
AcDbPoint
 10
1744.749546853664
 20
5227.928199705158
 30
0.0
  0
POINT
  5
9D53
330
956F
100
AcDbEntity
  8
DEFPOINTS
 62
     0
 48
15.0
100
AcDbPoint
 10
1809.749546853663
 20
5227.928199705158
 30
0.0
  0
POINT
  5
9D54
330
956F
100
AcDbEntity
  8
DEFPOINTS
 62
     0
 48
15.0
100
AcDbPoint
 10
1809.749546853663
 20
5331.743451196584
 30
0.0
  0
ENDBLK
  5
957B
330
956F
100
AcDbEntity
  8
0
 48
15.0
100
AcDbBlockEnd
  0
BLOCK
  5
9586
330
957C
100
AcDbEntity
  8
0
 48
15.0
100
AcDbBlockBegin
  2
*D234
 70
     1
 10
0.0
 20
0.0
 30
0.0
  3
*D234
  1

  0
LINE
  5
9D55
330
957C
100
AcDbEntity
  8
寸法引出
 48
15.0
370
    -2
100
AcDbLine
 10
2102.249546853664
 20
5227.928199705158
 30
0.0
 11
2208.961154218109
 21
5227.928199705158
 31
0.0
  0
LINE
  5
9D56
330
957C
100
AcDbEntity
  8
寸法引出
 48
15.0
370
    -2
100
AcDbLine
 10
2102.249546853664
 20
4227.928199705158
 30
0.0
 11
2208.961154218108
 21
4227.928199705158
 31
0.0
  0
LINE
  5
9D57
330
957C
100
AcDbEntity
  8
寸法引出
 48
15.0
370
    -2
100
AcDbLine
 10
2201.461154218109
 20
5205.428199705159
 30
0.0
 11
2201.461154218108
 21
4250.428199705158
 31
0.0
  0
SOLID
  5
9D58
330
957C
100
AcDbEntity
  8
寸法引出
 48
15.0
100
AcDbTrace
 10
2197.711154218109
 20
5205.428199705159
 30
0.0
 11
2205.211154218109
 21
5205.428199705159
 31
0.0
 12
2201.461154218109
 22
5227.928199705158
 32
0.0
 13
2201.461154218109
 23
5227.928199705158
 33
0.0
  0
SOLID
  5
9D59
330
957C
100
AcDbEntity
  8
寸法引出
 48
15.0
100
AcDbTrace
 10
2197.711154218108
 20
4250.428199705158
 30
0.0
 11
2205.211154218108
 21
4250.428199705158
 31
0.0
 12
2201.461154218108
 22
4227.928199705158
 32
0.0
 13
2201.461154218108
 23
4227.928199705158
 33
0.0
  0
MTEXT
  5
9D5A
330
957C
100
AcDbEntity
  8
寸法引出
 48
15.0
100
AcDbMText
 10
2171.461154218108
 20
4727.92819970516
 30
0.0
 40
30.0
 41
0.0
 71
     5
 72
     1
  1
\A1;1000
  7
SANWA
 11
0.0000000000000001
 21
1.0
 31
0.0
 73
     1
 44
1.0
1001
ACAD
1000
MTEXTBEGIN
1070
    73
1070
     1
1070
    44
1040
1.0
1070
    74
1070
     0
1000
MTEXTEND
  0
POINT
  5
9D5B
330
957C
100
AcDbEntity
  8
DEFPOINTS
 62
     0
 48
15.0
100
AcDbPoint
 10
2087.249546853664
 20
5227.928199705158
 30
0.0
  0
POINT
  5
9D5C
330
957C
100
AcDbEntity
  8
DEFPOINTS
 62
     0
 48
15.0
100
AcDbPoint
 10
2087.249546853664
 20
4227.928199705158
 30
0.0
  0
POINT
  5
9D5D
330
957C
100
AcDbEntity
  8
DEFPOINTS
 62
     0
 48
15.0
100
AcDbPoint
 10
2201.461154218108
 20
4227.928199705158
 30
0.0
  0
ENDBLK
  5
9587
330
957C
100
AcDbEntity
  8
0
 48
15.0
100
AcDbBlockEnd
  0
BLOCK
  5
9593
330
9588
100
AcDbEntity
  8
0
 48
15.0
100
AcDbBlockBegin
  2
*D235
 70
     1
 10
0.0
 20
0.0
 30
0.0
  3
*D235
  1

  0
LINE
  5
9D5E
330
9588
100
AcDbEntity
  8
寸法引出
 48
15.0
370
    -2
100
AcDbLine
 10
2087.249546853664
 20
4212.928199705158
 30
0.0
 11
2087.249546853664
 21
4108.687930832937
 31
0.0
  0
LINE
  5
9D5F
330
9588
100
AcDbEntity
  8
寸法引出
 48
15.0
370
    -2
100
AcDbLine
 10
2034.749546853664
 20
4116.187930832937
 30
0.0
 11
2012.249546853664
 21
4116.187930832937
 31
0.0
  0
LINE
  5
9D60
330
9588
100
AcDbEntity
  8
寸法引出
 48
15.0
370
    -2
100
AcDbLine
 10
2109.749546853664
 20
4116.187930832937
 30
0.0
 11
2132.249546853664
 21
4116.187930832937
 31
0.0
  0
LINE
  5
9D61
330
9588
100
AcDbEntity
  8
寸法引出
 48
15.0
370
    -2
100
AcDbLine
 10
2057.249546853664
 20
4116.187930832937
 30
0.0
 11
2087.249546853664
 21
4116.187930832937
 31
0.0
  0
SOLID
  5
9D62
330
9588
100
AcDbEntity
  8
寸法引出
 48
15.0
100
AcDbTrace
 10
2034.749546853664
 20
4119.937930832937
 30
0.0
 11
2034.749546853664
 21
4112.437930832937
 31
0.0
 12
2057.249546853664
 22
4116.187930832937
 32
0.0
 13
2057.249546853664
 23
4116.187930832937
 33
0.0
  0
SOLID
  5
9D63
330
9588
100
AcDbEntity
  8
寸法引出
 48
15.0
100
AcDbTrace
 10
2109.749546853664
 20
4119.937930832937
 30
0.0
 11
2109.749546853664
 21
4112.437930832937
 31
0.0
 12
2087.249546853664
 22
4116.187930832937
 32
0.0
 13
2087.249546853664
 23
4116.187930832937
 33
0.0
  0
MTEXT
  5
9D64
330
9588
100
AcDbEntity
  8
寸法引出
 48
15.0
100
AcDbMText
 10
2072.249546853663
 20
4146.187930832937
 30
0.0
 40
30.0
 41
0.0
 71
     5
 72
     1
  1
\A1;30
  7
SANWA
 73
     1
 44
1.0
1001
ACAD
1000
MTEXTBEGIN
1070
    73
1070
     1
1070
    44
1040
1.0
1070
    74
1070
     0
1000
MTEXTEND
  0
POINT
  5
9D65
330
9588
100
AcDbEntity
  8
DEFPOINTS
 62
     0
 48
15.0
100
AcDbPoint
 10
2057.249546853664
 20
4227.928199705158
 30
0.0
  0
POINT
  5
9D66
330
9588
100
AcDbEntity
  8
DEFPOINTS
 62
     0
 48
15.0
100
AcDbPoint
 10
2087.249546853664
 20
4227.928199705158
 30
0.0
  0
POINT
  5
9D67
330
9588
100
AcDbEntity
  8
DEFPOINTS
 62
     0
 48
15.0
100
AcDbPoint
 10
2087.249546853664
 20
4116.187930832937
 30
0.0
  0
ENDBLK
  5
9594
330
9588
100
AcDbEntity
  8
0
 48
15.0
100
AcDbBlockEnd
  0
BLOCK
  5
959E
330
9595
100
AcDbEntity
  8
0
 48
15.0
100
AcDbBlockBegin
  2
*D236
 70
     1
 10
0.0
 20
0.0
 30
0.0
  3
*D236
  1

  0
LINE
  5
9D68
330
9595
100
AcDbEntity
  8
寸法引出
 48
15.0
370
    -2
100
AcDbLine
 10
2087.249546853664
 20
5672.419684267353
 30
0.0
 11
2087.249546853664
 21
5529.447933834439
 31
0.0
  0
LINE
  5
9D69
330
9595
100
AcDbEntity
  8
寸法引出
 48
15.0
370
    -2
100
AcDbLine
 10
1847.749546853663
 20
5536.947933834439
 30
0.0
 11
2064.749546853664
 21
5536.947933834439
 31
0.0
  0
SOLID
  5
9D6A
330
9595
100
AcDbEntity
  8
寸法引出
 48
15.0
100
AcDbTrace
 10
1847.749546853663
 20
5540.697933834439
 30
0.0
 11
1847.749546853663
 21
5533.197933834439
 31
0.0
 12
1825.249546853662
 22
5536.947933834439
 32
0.0
 13
1825.249546853662
 23
5536.947933834439
 33
0.0
  0
SOLID
  5
9D6B
330
9595
100
AcDbEntity
  8
寸法引出
 48
15.0
100
AcDbTrace
 10
2064.749546853664
 20
5540.697933834439
 30
0.0
 11
2064.749546853664
 21
5533.197933834439
 31
0.0
 12
2087.249546853664
 22
5536.947933834439
 32
0.0
 13
2087.249546853664
 23
5536.947933834439
 33
0.0
  0
MTEXT
  5
9D6C
330
9595
100
AcDbEntity
  8
寸法引出
 48
15.0
100
AcDbMText
 10
1956.249546853663
 20
5566.947933834438
 30
0.0
 40
30.0
 41
0.0
 71
     5
 72
     1
  1
\A1;262
  7
SANWA
 73
     1
 44
1.0
1001
ACAD
1000
MTEXTBEGIN
1070
    73
1070
     1
1070
    44
1040
1.0
1070
    74
1070
     0
1000
MTEXTEND
  0
POINT
  5
9D6D
330
9595
100
AcDbEntity
  8
DEFPOINTS
 62
     0
 48
15.0
100
AcDbPoint
 10
1825.249546853662
 20
5687.419684267354
 30
0.0
  0
POINT
  5
9D6E
330
9595
100
AcDbEntity
  8
DEFPOINTS
 62
     0
 48
15.0
100
AcDbPoint
 10
2087.249546853664
 20
5687.419684267354
 30
0.0
  0
POINT
  5
9D6F
330
9595
100
AcDbEntity
  8
DEFPOINTS
 62
     0
 48
15.0
100
AcDbPoint
 10
2087.249546853664
 20
5536.947933834439
 30
0.0
  0
ENDBLK
  5
959F
330
9595
100
AcDbEntity
  8
0
 48
15.0
100
AcDbBlockEnd
  0
BLOCK
  5
95AA
330
95A0
100
AcDbEntity
  8
0
 48
15.0
100
AcDbBlockBegin
  2
*D237
 70
     1
 10
0.0
 20
0.0
 30
0.0
  3
*D237
  1

  0
LINE
  5
9D70
330
95A0
100
AcDbEntity
  8
寸法引出
 48
15.0
370
    -2
100
AcDbLine
 10
1467.249546853663
 20
5839.419684267354
 30
0.0
 11
1467.249546853663
 21
5966.123482621129
 31
0.0
  0
LINE
  5
9D71
330
95A0
100
AcDbEntity
  8
寸法引出
 48
15.0
370
    -2
100
AcDbLine
 10
2087.249546853664
 20
5839.419684267354
 30
0.0
 11
2087.249546853664
 21
5966.123482621129
 31
0.0
  0
LINE
  5
9D72
330
95A0
100
AcDbEntity
  8
寸法引出
 48
15.0
370
    -2
100
AcDbLine
 10
1489.749546853663
 20
5958.623482621129
 30
0.0
 11
2064.749546853664
 21
5958.623482621129
 31
0.0
  0
SOLID
  5
9D73
330
95A0
100
AcDbEntity
  8
寸法引出
 48
15.0
100
AcDbTrace
 10
1489.749546853663
 20
5962.37348262113
 30
0.0
 11
1489.749546853663
 21
5954.873482621129
 31
0.0
 12
1467.249546853663
 22
5958.623482621129
 32
0.0
 13
1467.249546853663
 23
5958.623482621129
 33
0.0
  0
SOLID
  5
9D74
330
95A0
100
AcDbEntity
  8
寸法引出
 48
15.0
100
AcDbTrace
 10
2064.749546853664
 20
5962.37348262113
 30
0.0
 11
2064.749546853664
 21
5954.873482621129
 31
0.0
 12
2087.249546853664
 22
5958.623482621129
 32
0.0
 13
2087.249546853664
 23
5958.623482621129
 33
0.0
  0
MTEXT
  5
9D75
330
95A0
100
AcDbEntity
  8
寸法引出
 48
15.0
100
AcDbMText
 10
1777.249546853663
 20
5988.623482621129
 30
0.0
 40
30.0
 41
0.0
 71
     5
 72
     1
  1
\A1;620
  7
SANWA
 73
     1
 44
1.0
1001
ACAD
1000
MTEXTBEGIN
1070
    73
1070
     1
1070
    44
1040
1.0
1070
    74
1070
     0
1000
MTEXTEND
  0
POINT
  5
9D76
330
95A0
100
AcDbEntity
  8
DEFPOINTS
 62
     0
 48
15.0
100
AcDbPoint
 10
1467.249546853663
 20
5824.419684267354
 30
0.0
  0
POINT
  5
9D77
330
95A0
100
AcDbEntity
  8
DEFPOINTS
 62
     0
 48
15.0
100
AcDbPoint
 10
2087.249546853664
 20
5824.419684267354
 30
0.0
  0
POINT
  5
9D78
330
95A0
100
AcDbEntity
  8
DEFPOINTS
 62
     0
 48
15.0
100
AcDbPoint
 10
2087.249546853664
 20
5958.623482621129
 30
0.0
  0
ENDBLK
  5
95AB
330
95A0
100
AcDbEntity
  8
0
 48
15.0
100
AcDbBlockEnd
  0
BLOCK
  5
95B5
330
95AC
100
AcDbEntity
  8
0
 48
15.0
100
AcDbBlockBegin
  2
*D238
 70
     1
 10
0.0
 20
0.0
 30
0.0
  3
*D238
  1

  0
LINE
  5
9D79
330
95AC
100
AcDbEntity
  8
寸法引出
 48
15.0
370
    -2
100
AcDbLine
 10
2087.249546853664
 20
5839.419684267354
 30
0.0
 11
2087.249546853664
 21
5908.101774639465
 31
0.0
  0
LINE
  5
9D7A
330
95AC
100
AcDbEntity
  8
寸法引出
 48
15.0
370
    -2
100
AcDbLine
 10
1832.249546853663
 20
5900.601774639465
 30
0.0
 11
2064.749546853664
 21
5900.601774639465
 31
0.0
  0
SOLID
  5
9D7B
330
95AC
100
AcDbEntity
  8
寸法引出
 48
15.0
100
AcDbTrace
 10
1832.249546853663
 20
5904.351774639465
 30
0.0
 11
1832.249546853663
 21
5896.851774639465
 31
0.0
 12
1809.749546853663
 22
5900.601774639465
 32
0.0
 13
1809.749546853663
 23
5900.601774639465
 33
0.0
  0
SOLID
  5
9D7C
330
95AC
100
AcDbEntity
  8
寸法引出
 48
15.0
100
AcDbTrace
 10
2064.749546853664
 20
5904.351774639465
 30
0.0
 11
2064.749546853664
 21
5896.851774639465
 31
0.0
 12
2087.249546853664
 22
5900.601774639465
 32
0.0
 13
2087.249546853664
 23
5900.601774639465
 33
0.0
  0
MTEXT
  5
9D7D
330
95AC
100
AcDbEntity
  8
寸法引出
 48
15.0
100
AcDbMText
 10
1948.499546853663
 20
5930.601774639464
 30
0.0
 40
30.0
 41
0.0
 71
     5
 72
     1
  1
\A1;277.5
  7
SANWA
 73
     1
 44
1.0
1001
ACAD
1000
MTEXTBEGIN
1070
    73
1070
     1
1070
    44
1040
1.0
1070
    74
1070
     0
1000
MTEXTEND
  0
POINT
  5
9D7E
330
95AC
100
AcDbEntity
  8
DEFPOINTS
 62
     0
 48
15.0
100
AcDbPoint
 10
1809.749546853663
 20
5807.419684267354
 30
0.0
  0
POINT
  5
9D7F
330
95AC
100
AcDbEntity
  8
DEFPOINTS
 62
     0
 48
15.0
100
AcDbPoint
 10
2087.249546853664
 20
5824.419684267354
 30
0.0
  0
POINT
  5
9D80
330
95AC
100
AcDbEntity
  8
DEFPOINTS
 62
     0
 48
15.0
100
AcDbPoint
 10
2087.249546853664
 20
5900.601774639465
 30
0.0
  0
ENDBLK
  5
95B6
330
95AC
100
AcDbEntity
  8
0
 48
15.0
100
AcDbBlockEnd
  0
BLOCK
  5
95C1
330
95B7
100
AcDbEntity
  8
0
 48
15.0
100
AcDbBlockBegin
  2
*D239
 70
     1
 10
0.0
 20
0.0
 30
0.0
  3
*D239
  1

  0
LINE
  5
9D81
330
95B7
100
AcDbEntity
  8
寸法引出
 48
15.0
370
    -2
100
AcDbLine
 10
1467.249546853663
 20
5672.419684267353
 30
0.0
 11
1467.249546853663
 21
5529.447933834439
 31
0.0
  0
LINE
  5
9D82
330
95B7
100
AcDbEntity
  8
寸法引出
 48
15.0
370
    -2
100
AcDbLine
 10
1729.249546853663
 20
5672.419684267353
 30
0.0
 11
1729.249546853663
 21
5529.447933834439
 31
0.0
  0
LINE
  5
9D83
330
95B7
100
AcDbEntity
  8
寸法引出
 48
15.0
370
    -2
100
AcDbLine
 10
1489.749546853663
 20
5536.947933834439
 30
0.0
 11
1706.749546853663
 21
5536.947933834439
 31
0.0
  0
SOLID
  5
9D84
330
95B7
100
AcDbEntity
  8
寸法引出
 48
15.0
100
AcDbTrace
 10
1489.749546853663
 20
5540.697933834439
 30
0.0
 11
1489.749546853663
 21
5533.197933834439
 31
0.0
 12
1467.249546853663
 22
5536.947933834439
 32
0.0
 13
1467.249546853663
 23
5536.947933834439
 33
0.0
  0
SOLID
  5
9D85
330
95B7
100
AcDbEntity
  8
寸法引出
 48
15.0
100
AcDbTrace
 10
1706.749546853663
 20
5540.697933834439
 30
0.0
 11
1706.749546853663
 21
5533.197933834439
 31
0.0
 12
1729.249546853663
 22
5536.947933834439
 32
0.0
 13
1729.249546853663
 23
5536.947933834439
 33
0.0
  0
MTEXT
  5
9D86
330
95B7
100
AcDbEntity
  8
寸法引出
 48
15.0
100
AcDbMText
 10
1598.249546853663
 20
5566.947933834438
 30
0.0
 40
30.0
 41
0.0
 71
     5
 72
     1
  1
\A1;262
  7
SANWA
 73
     1
 44
1.0
1001
ACAD
1000
MTEXTBEGIN
1070
    73
1070
     1
1070
    44
1040
1.0
1070
    74
1070
     0
1000
MTEXTEND
  0
POINT
  5
9D87
330
95B7
100
AcDbEntity
  8
DEFPOINTS
 62
     0
 48
15.0
100
AcDbPoint
 10
1467.249546853663
 20
5687.419684267354
 30
0.0
  0
POINT
  5
9D88
330
95B7
100
AcDbEntity
  8
DEFPOINTS
 62
     0
 48
15.0
100
AcDbPoint
 10
1729.249546853663
 20
5687.419684267354
 30
0.0
  0
POINT
  5
9D89
330
95B7
100
AcDbEntity
  8
DEFPOINTS
 62
     0
 48
15.0
100
AcDbPoint
 10
1729.249546853663
 20
5536.947933834439
 30
0.0
  0
ENDBLK
  5
95C2
330
95B7
100
AcDbEntity
  8
0
 48
15.0
100
AcDbBlockEnd
  0
BLOCK
  5
95CF
330
95C3
100
AcDbEntity
  8
0
 48
15.0
100
AcDbBlockBegin
  2
*D240
 70
     1
 10
0.0
 20
0.0
 30
0.0
  3
*D240
  1

  0
LINE
  5
9D8A
330
95C3
100
AcDbEntity
  8
寸法引出
 48
15.0
370
    -2
100
AcDbLine
 10
1467.249546853663
 20
5672.419684267353
 30
0.0
 11
1467.249546853663
 21
5591.352605328925
 31
0.0
  0
LINE
  5
9D8B
330
95C3
100
AcDbEntity
  8
寸法引出
 48
15.0
370
    -2
100
AcDbLine
 10
1497.249546853663
 20
5672.419684267353
 30
0.0
 11
1497.249546853663
 21
5591.352605328925
 31
0.0
  0
LINE
  5
9D8C
330
95C3
100
AcDbEntity
  8
寸法引出
 48
15.0
370
    -2
100
AcDbLine
 10
1444.749546853663
 20
5598.852605328924
 30
0.0
 11
1422.249546853663
 21
5598.852605328924
 31
0.0
  0
LINE
  5
9D8D
330
95C3
100
AcDbEntity
  8
寸法引出
 48
15.0
370
    -2
100
AcDbLine
 10
1519.749546853663
 20
5598.852605328924
 30
0.0
 11
1542.249546853663
 21
5598.852605328924
 31
0.0
  0
LINE
  5
9D8E
330
95C3
100
AcDbEntity
  8
寸法引出
 48
15.0
370
    -2
100
AcDbLine
 10
1467.249546853663
 20
5598.852605328924
 30
0.0
 11
1497.249546853663
 21
5598.852605328924
 31
0.0
  0
SOLID
  5
9D8F
330
95C3
100
AcDbEntity
  8
寸法引出
 48
15.0
100
AcDbTrace
 10
1444.749546853663
 20
5602.602605328924
 30
0.0
 11
1444.749546853663
 21
5595.102605328924
 31
0.0
 12
1467.249546853663
 22
5598.852605328924
 32
0.0
 13
1467.249546853663
 23
5598.852605328924
 33
0.0
  0
SOLID
  5
9D90
330
95C3
100
AcDbEntity
  8
寸法引出
 48
15.0
100
AcDbTrace
 10
1519.749546853663
 20
5602.602605328924
 30
0.0
 11
1519.749546853663
 21
5595.102605328924
 31
0.0
 12
1497.249546853663
 22
5598.852605328924
 32
0.0
 13
1497.249546853663
 23
5598.852605328924
 33
0.0
  0
MTEXT
  5
9D91
330
95C3
100
AcDbEntity
  8
寸法引出
 48
15.0
100
AcDbMText
 10
1482.249546853663
 20
5628.852605328924
 30
0.0
 40
30.0
 41
0.0
 71
     5
 72
     1
  1
\A1;30
  7
SANWA
 73
     1
 44
1.0
1001
ACAD
1000
MTEXTBEGIN
1070
    73
1070
     1
1070
    44
1040
1.0
1070
    74
1070
     0
1000
MTEXTEND
  0
POINT
  5
9D92
330
95C3
100
AcDbEntity
  8
DEFPOINTS
 62
     0
 48
15.0
100
AcDbPoint
 10
1467.249546853663
 20
5687.419684267354
 30
0.0
  0
POINT
  5
9D93
330
95C3
100
AcDbEntity
  8
DEFPOINTS
 62
     0
 48
15.0
100
AcDbPoint
 10
1497.249546853663
 20
5687.419684267354
 30
0.0
  0
POINT
  5
9D94
330
95C3
100
AcDbEntity
  8
DEFPOINTS
 62
     0
 48
15.0
100
AcDbPoint
 10
1497.249546853663
 20
5598.852605328924
 30
0.0
  0
ENDBLK
  5
95D0
330
95C3
100
AcDbEntity
  8
0
 48
15.0
100
AcDbBlockEnd
  0
BLOCK
  5
95DB
330
95D1
100
AcDbEntity
  8
0
 48
15.0
100
AcDbBlockBegin
  2
*D241
 70
     1
 10
0.0
 20
0.0
 30
0.0
  3
*D241
  1

  0
LINE
  5
9D95
330
95D1
100
AcDbEntity
  8
寸法引出
 48
15.0
370
    -2
100
AcDbLine
 10
1467.249546853663
 20
5839.419684267354
 30
0.0
 11
1467.249546853663
 21
5908.101774639465
 31
0.0
  0
LINE
  5
9D96
330
95D1
100
AcDbEntity
  8
寸法引出
 48
15.0
370
    -2
100
AcDbLine
 10
1744.749546853664
 20
5822.419684267353
 30
0.0
 11
1744.749546853664
 21
5908.101774639465
 31
0.0
  0
LINE
  5
9D97
330
95D1
100
AcDbEntity
  8
寸法引出
 48
15.0
370
    -2
100
AcDbLine
 10
1489.749546853663
 20
5900.601774639465
 30
0.0
 11
1722.249546853663
 21
5900.601774639465
 31
0.0
  0
SOLID
  5
9D98
330
95D1
100
AcDbEntity
  8
寸法引出
 48
15.0
100
AcDbTrace
 10
1489.749546853663
 20
5904.351774639465
 30
0.0
 11
1489.749546853663
 21
5896.851774639465
 31
0.0
 12
1467.249546853663
 22
5900.601774639465
 32
0.0
 13
1467.249546853663
 23
5900.601774639465
 33
0.0
  0
SOLID
  5
9D99
330
95D1
100
AcDbEntity
  8
寸法引出
 48
15.0
100
AcDbTrace
 10
1722.249546853663
 20
5904.351774639465
 30
0.0
 11
1722.249546853663
 21
5896.851774639465
 31
0.0
 12
1744.749546853664
 22
5900.601774639465
 32
0.0
 13
1744.749546853664
 23
5900.601774639465
 33
0.0
  0
MTEXT
  5
9D9A
330
95D1
100
AcDbEntity
  8
寸法引出
 48
15.0
100
AcDbMText
 10
1605.999546853663
 20
5930.601774639464
 30
0.0
 40
30.0
 41
0.0
 71
     5
 72
     1
  1
\A1;277.5
  7
SANWA
 73
     1
 44
1.0
1001
ACAD
1000
MTEXTBEGIN
1070
    73
1070
     1
1070
    44
1040
1.0
1070
    74
1070
     0
1000
MTEXTEND
  0
POINT
  5
9D9B
330
95D1
100
AcDbEntity
  8
DEFPOINTS
 62
     0
 48
15.0
100
AcDbPoint
 10
1467.249546853663
 20
5824.419684267354
 30
0.0
  0
POINT
  5
9D9C
330
95D1
100
AcDbEntity
  8
DEFPOINTS
 62
     0
 48
15.0
100
AcDbPoint
 10
1744.749546853664
 20
5807.419684267354
 30
0.0
  0
POINT
  5
9D9D
330
95D1
100
AcDbEntity
  8
DEFPOINTS
 62
     0
 48
15.0
100
AcDbPoint
 10
1744.749546853664
 20
5900.601774639465
 30
0.0
  0
ENDBLK
  5
95DC
330
95D1
100
AcDbEntity
  8
0
 48
15.0
100
AcDbBlockEnd
  0
BLOCK
  5
95E8
330
95DD
100
AcDbEntity
  8
0
 48
15.0
100
AcDbBlockBegin
  2
*D242
 70
     1
 10
0.0
 20
0.0
 30
0.0
  3
*D242
  1

  0
LINE
  5
9D9E
330
95DD
100
AcDbEntity
  8
寸法引出
 48
15.0
370
    -2
100
AcDbLine
 10
1452.249546853663
 20
5824.419684267354
 30
0.0
 11
1372.065834117195
 21
5824.419684267354
 31
0.0
  0
LINE
  5
9D9F
330
95DD
100
AcDbEntity
  8
寸法引出
 48
15.0
370
    -2
100
AcDbLine
 10
1379.565834117195
 20
5784.919684267354
 30
0.0
 11
1379.565834117195
 21
5762.419684267354
 31
0.0
  0
LINE
  5
9DA0
330
95DD
100
AcDbEntity
  8
寸法引出
 48
15.0
370
    -2
100
AcDbLine
 10
1379.565834117195
 20
5846.919684267354
 30
0.0
 11
1379.565834117195
 21
5869.419684267353
 31
0.0
  0
LINE
  5
9DA1
330
95DD
100
AcDbEntity
  8
寸法引出
 48
15.0
370
    -2
100
AcDbLine
 10
1379.565834117195
 20
5807.419684267354
 30
0.0
 11
1379.565834117195
 21
5824.419684267354
 31
0.0
  0
SOLID
  5
9DA2
330
95DD
100
AcDbEntity
  8
寸法引出
 48
15.0
100
AcDbTrace
 10
1375.815834117195
 20
5784.919684267354
 30
0.0
 11
1383.315834117195
 21
5784.919684267354
 31
0.0
 12
1379.565834117195
 22
5807.419684267354
 32
0.0
 13
1379.565834117195
 23
5807.419684267354
 33
0.0
  0
SOLID
  5
9DA3
330
95DD
100
AcDbEntity
  8
寸法引出
 48
15.0
100
AcDbTrace
 10
1375.815834117195
 20
5846.919684267354
 30
0.0
 11
1383.315834117195
 21
5846.919684267354
 31
0.0
 12
1379.565834117195
 22
5824.419684267354
 32
0.0
 13
1379.565834117195
 23
5824.419684267354
 33
0.0
  0
MTEXT
  5
9DA4
330
95DD
100
AcDbEntity
  8
寸法引出
 48
15.0
100
AcDbMText
 10
1349.565834117194
 20
5815.919684267353
 30
0.0
 40
30.0
 41
0.0
 71
     5
 72
     1
  1
\A1;17
  7
SANWA
 11
0.0000000000000001
 21
1.0
 31
0.0
 73
     1
 44
1.0
1001
ACAD
1000
MTEXTBEGIN
1070
    73
1070
     1
1070
    44
1040
1.0
1070
    74
1070
     0
1000
MTEXTEND
  0
POINT
  5
9DA5
330
95DD
100
AcDbEntity
  8
DEFPOINTS
 62
     0
 48
15.0
100
AcDbPoint
 10
1467.249546853663
 20
5807.419684267354
 30
0.0
  0
POINT
  5
9DA6
330
95DD
100
AcDbEntity
  8
DEFPOINTS
 62
     0
 48
15.0
100
AcDbPoint
 10
1467.249546853663
 20
5824.419684267354
 30
0.0
  0
POINT
  5
9DA7
330
95DD
100
AcDbEntity
  8
DEFPOINTS
 62
     0
 48
15.0
100
AcDbPoint
 10
1379.565834117195
 20
5824.419684267354
 30
0.0
  0
ENDBLK
  5
95E9
330
95DD
100
AcDbEntity
  8
0
 48
15.0
100
AcDbBlockEnd
  0
BLOCK
  5
95F4
330
95EA
100
AcDbEntity
  8
0
 48
15.0
100
AcDbBlockBegin
  2
*D243
 70
     1
 10
0.0
 20
0.0
 30
0.0
  3
*D243
  1

  0
LINE
  5
9DA8
330
95EA
100
AcDbEntity
  8
寸法引出
 48
15.0
370
    -2
100
AcDbLine
 10
1452.249546853663
 20
5687.419684267354
 30
0.0
 11
1372.065834117195
 21
5687.419684267354
 31
0.0
  0
LINE
  5
9DA9
330
95EA
100
AcDbEntity
  8
寸法引出
 48
15.0
370
    -2
100
AcDbLine
 10
1452.249546853663
 20
5807.419684267354
 30
0.0
 11
1372.065834117195
 21
5807.419684267354
 31
0.0
  0
LINE
  5
9DAA
330
95EA
100
AcDbEntity
  8
寸法引出
 48
15.0
370
    -2
100
AcDbLine
 10
1379.565834117195
 20
5709.919684267354
 30
0.0
 11
1379.565834117195
 21
5784.919684267354
 31
0.0
  0
SOLID
  5
9DAB
330
95EA
100
AcDbEntity
  8
寸法引出
 48
15.0
100
AcDbTrace
 10
1375.815834117195
 20
5709.919684267354
 30
0.0
 11
1383.315834117195
 21
5709.919684267354
 31
0.0
 12
1379.565834117195
 22
5687.419684267354
 32
0.0
 13
1379.565834117195
 23
5687.419684267354
 33
0.0
  0
SOLID
  5
9DAC
330
95EA
100
AcDbEntity
  8
寸法引出
 48
15.0
100
AcDbTrace
 10
1375.815834117195
 20
5784.919684267354
 30
0.0
 11
1383.315834117195
 21
5784.919684267354
 31
0.0
 12
1379.565834117195
 22
5807.419684267354
 32
0.0
 13
1379.565834117195
 23
5807.419684267354
 33
0.0
  0
MTEXT
  5
9DAD
330
95EA
100
AcDbEntity
  8
寸法引出
 48
15.0
100
AcDbMText
 10
1349.565834117194
 20
5747.419684267353
 30
0.0
 40
30.0
 41
0.0
 71
     5
 72
     1
  1
\A1;120
  7
SANWA
 11
0.0000000000000001
 21
1.0
 31
0.0
 73
     1
 44
1.0
1001
ACAD
1000
MTEXTBEGIN
1070
    73
1070
     1
1070
    44
1040
1.0
1070
    74
1070
     0
1000
MTEXTEND
  0
POINT
  5
9DAE
330
95EA
100
AcDbEntity
  8
DEFPOINTS
 62
     0
 48
15.0
100
AcDbPoint
 10
1467.249546853663
 20
5687.419684267354
 30
0.0
  0
POINT
  5
9DAF
330
95EA
100
AcDbEntity
  8
DEFPOINTS
 62
     0
 48
15.0
100
AcDbPoint
 10
1467.249546853663
 20
5807.419684267354
 30
0.0
  0
POINT
  5
9DB0
330
95EA
100
AcDbEntity
  8
DEFPOINTS
 62
     0
 48
15.0
100
AcDbPoint
 10
1379.565834117195
 20
5807.419684267354
 30
0.0
  0
ENDBLK
  5
95F5
330
95EA
100
AcDbEntity
  8
0
 48
15.0
100
AcDbBlockEnd
  0
BLOCK
  5
9602
330
95F6
100
AcDbEntity
  8
0
 48
15.0
100
AcDbBlockBegin
  2
*D244
 70
     1
 10
0.0
 20
0.0
 30
0.0
  3
*D244
  1

  0
LINE
  5
9DB1
330
95F6
100
AcDbEntity
  8
寸法引出
 48
15.0
370
    -2
100
AcDbLine
 10
1824.749546853663
 20
5769.419684267353
 30
0.0
 11
1895.062290172776
 21
5769.419684267353
 31
0.0
  0
LINE
  5
9DB2
330
95F6
100
AcDbEntity
  8
寸法引出
 48
15.0
370
    -2
100
AcDbLine
 10
1835.249546853663
 20
5767.119684267353
 30
0.0
 11
1895.062290172776
 21
5767.119684267353
 31
0.0
  0
LINE
  5
9DB3
330
95F6
100
AcDbEntity
  8
寸法引出
 48
15.0
370
    -2
100
AcDbLine
 10
1887.562290172776
 20
5791.919684267353
 30
0.0
 11
1887.562290172776
 21
5814.419684267353
 31
0.0
  0
LINE
  5
9DB4
330
95F6
100
AcDbEntity
  8
寸法引出
 48
15.0
370
    -2
100
AcDbLine
 10
1887.562290172776
 20
5744.619684267353
 30
0.0
 11
1887.562290172776
 21
5722.119684267353
 31
0.0
  0
LINE
  5
9DB5
330
95F6
100
AcDbEntity
  8
寸法引出
 48
15.0
370
    -2
100
AcDbLine
 10
1887.562290172776
 20
5769.419684267353
 30
0.0
 11
1887.562290172776
 21
5767.119684267353
 31
0.0
  0
SOLID
  5
9DB6
330
95F6
100
AcDbEntity
  8
寸法引出
 48
15.0
100
AcDbTrace
 10
1883.812290172776
 20
5791.919684267353
 30
0.0
 11
1891.312290172777
 21
5791.919684267353
 31
0.0
 12
1887.562290172776
 22
5769.419684267353
 32
0.0
 13
1887.562290172776
 23
5769.419684267353
 33
0.0
  0
SOLID
  5
9DB7
330
95F6
100
AcDbEntity
  8
寸法引出
 48
15.0
100
AcDbTrace
 10
1883.812290172776
 20
5744.619684267353
 30
0.0
 11
1891.312290172777
 21
5744.619684267353
 31
0.0
 12
1887.562290172776
 22
5767.119684267353
 32
0.0
 13
1887.562290172776
 23
5767.119684267353
 33
0.0
  0
MTEXT
  5
9DB8
330
95F6
100
AcDbEntity
  8
寸法引出
 48
15.0
100
AcDbMText
 10
1857.562290172776
 20
5768.269684267352
 30
0.0
 40
30.0
 41
0.0
 71
     5
 72
     1
  1
\A1;2.3
  7
SANWA
 11
0.0000000000000001
 21
1.0
 31
0.0
 73
     1
 44
1.0
1001
ACAD
1000
MTEXTBEGIN
1070
    73
1070
     1
1070
    44
1040
1.0
1070
    74
1070
     0
1000
MTEXTEND
  0
POINT
  5
9DB9
330
95F6
100
AcDbEntity
  8
DEFPOINTS
 62
     0
 48
15.0
100
AcDbPoint
 10
1809.749546853663
 20
5769.419684267353
 30
0.0
  0
POINT
  5
9DBA
330
95F6
100
AcDbEntity
  8
DEFPOINTS
 62
     0
 48
15.0
100
AcDbPoint
 10
1820.249546853662
 20
5767.119684267353
 30
0.0
  0
POINT
  5
9DBB
330
95F6
100
AcDbEntity
  8
DEFPOINTS
 62
     0
 48
15.0
100
AcDbPoint
 10
1887.562290172776
 20
5767.119684267353
 30
0.0
  0
ENDBLK
  5
9603
330
95F6
100
AcDbEntity
  8
0
 48
15.0
100
AcDbBlockEnd
  0
BLOCK
  5
960E
330
9604
100
AcDbEntity
  8
0
 48
15.0
100
AcDbBlockBegin
  2
*D245
 70
     1
 10
0.0
 20
0.0
 30
0.0
  3
*D245
  1

  0
LINE
  5
9DBC
330
9604
100
AcDbEntity
  8
寸法引出
 48
15.0
370
    -2
100
AcDbLine
 10
1729.249546853663
 20
5672.419684267353
 30
0.0
 11
1729.249546853663
 21
5529.447933834439
 31
0.0
  0
LINE
  5
9DBD
330
9604
100
AcDbEntity
  8
寸法引出
 48
15.0
370
    -2
100
AcDbLine
 10
1825.249546853662
 20
5672.419684267353
 30
0.0
 11
1825.249546853662
 21
5529.447933834439
 31
0.0
  0
LINE
  5
9DBE
330
9604
100
AcDbEntity
  8
寸法引出
 48
15.0
370
    -2
100
AcDbLine
 10
1751.749546853663
 20
5536.947933834439
 30
0.0
 11
1802.749546853663
 21
5536.947933834439
 31
0.0
  0
SOLID
  5
9DBF
330
9604
100
AcDbEntity
  8
寸法引出
 48
15.0
100
AcDbTrace
 10
1751.749546853663
 20
5540.697933834439
 30
0.0
 11
1751.749546853663
 21
5533.197933834439
 31
0.0
 12
1729.249546853663
 22
5536.947933834439
 32
0.0
 13
1729.249546853663
 23
5536.947933834439
 33
0.0
  0
SOLID
  5
9DC0
330
9604
100
AcDbEntity
  8
寸法引出
 48
15.0
100
AcDbTrace
 10
1802.749546853663
 20
5540.697933834439
 30
0.0
 11
1802.749546853663
 21
5533.197933834439
 31
0.0
 12
1825.249546853662
 22
5536.947933834439
 32
0.0
 13
1825.249546853662
 23
5536.947933834439
 33
0.0
  0
MTEXT
  5
9DC1
330
9604
100
AcDbEntity
  8
寸法引出
 48
15.0
100
AcDbMText
 10
1777.249546853663
 20
5566.947933834438
 30
0.0
 40
30.0
 41
0.0
 71
     5
 72
     1
  1
\A1;96
  7
SANWA
 73
     1
 44
1.0
1001
ACAD
1000
MTEXTBEGIN
1070
    73
1070
     1
1070
    44
1040
1.0
1070
    74
1070
     0
1000
MTEXTEND
  0
POINT
  5
9DC2
330
9604
100
AcDbEntity
  8
DEFPOINTS
 62
     0
 48
15.0
100
AcDbPoint
 10
1729.249546853663
 20
5687.419684267354
 30
0.0
  0
POINT
  5
9DC3
330
9604
100
AcDbEntity
  8
DEFPOINTS
 62
     0
 48
15.0
100
AcDbPoint
 10
1825.249546853662
 20
5687.419684267354
 30
0.0
  0
POINT
  5
9DC4
330
9604
100
AcDbEntity
  8
DEFPOINTS
 62
     0
 48
15.0
100
AcDbPoint
 10
1825.249546853662
 20
5536.947933834439
 30
0.0
  0
ENDBLK
  5
960F
330
9604
100
AcDbEntity
  8
0
 48
15.0
100
AcDbBlockEnd
  0
BLOCK
  5
961A
330
9610
100
AcDbEntity
  8
0
 48
15.0
100
AcDbBlockBegin
  2
*D246
 70
     1
 10
0.0
 20
0.0
 30
0.0
  3
*D246
  1

  0
LINE
  5
9DC5
330
9610
100
AcDbEntity
  8
寸法引出
 48
15.0
370
    -2
100
AcDbLine
 10
1734.249546853663
 20
5681.419684267353
 30
0.0
 11
1734.249546853663
 21
5591.352605328925
 31
0.0
  0
LINE
  5
9DC6
330
9610
100
AcDbEntity
  8
寸法引出
 48
15.0
370
    -2
100
AcDbLine
 10
1820.249546853662
 20
5681.419684267353
 30
0.0
 11
1820.249546853662
 21
5591.352605328925
 31
0.0
  0
LINE
  5
9DC7
330
9610
100
AcDbEntity
  8
寸法引出
 48
15.0
370
    -2
100
AcDbLine
 10
1756.749546853663
 20
5598.852605328924
 30
0.0
 11
1797.749546853663
 21
5598.852605328924
 31
0.0
  0
SOLID
  5
9DC8
330
9610
100
AcDbEntity
  8
寸法引出
 48
15.0
100
AcDbTrace
 10
1756.749546853663
 20
5602.602605328924
 30
0.0
 11
1756.749546853663
 21
5595.102605328924
 31
0.0
 12
1734.249546853663
 22
5598.852605328924
 32
0.0
 13
1734.249546853663
 23
5598.852605328924
 33
0.0
  0
SOLID
  5
9DC9
330
9610
100
AcDbEntity
  8
寸法引出
 48
15.0
100
AcDbTrace
 10
1797.749546853663
 20
5602.602605328924
 30
0.0
 11
1797.749546853663
 21
5595.102605328924
 31
0.0
 12
1820.249546853662
 22
5598.852605328924
 32
0.0
 13
1820.249546853662
 23
5598.852605328924
 33
0.0
  0
MTEXT
  5
9DCA
330
9610
100
AcDbEntity
  8
寸法引出
 48
15.0
100
AcDbMText
 10
1777.249546853663
 20
5628.852605328924
 30
0.0
 40
30.0
 41
0.0
 71
     5
 72
     1
  1
\A1;86
  7
SANWA
 73
     1
 44
1.0
1001
ACAD
1000
MTEXTBEGIN
1070
    73
1070
     1
1070
    44
1040
1.0
1070
    74
1070
     0
1000
MTEXTEND
  0
POINT
  5
9DCB
330
9610
100
AcDbEntity
  8
DEFPOINTS
 62
     0
 48
15.0
100
AcDbPoint
 10
1734.249546853663
 20
5696.419684267354
 30
0.0
  0
POINT
  5
9DCC
330
9610
100
AcDbEntity
  8
DEFPOINTS
 62
     0
 48
15.0
100
AcDbPoint
 10
1820.249546853662
 20
5696.419684267353
 30
0.0
  0
POINT
  5
9DCD
330
9610
100
AcDbEntity
  8
DEFPOINTS
 62
     0
 48
15.0
100
AcDbPoint
 10
1820.249546853662
 20
5598.852605328924
 30
0.0
  0
ENDBLK
  5
961B
330
9610
100
AcDbEntity
  8
0
 48
15.0
100
AcDbBlockEnd
  0
BLOCK
  5
9627
330
961C
100
AcDbEntity
  8
0
 48
15.0
100
AcDbBlockBegin
  2
*D247
 70
     1
 10
0.0
 20
0.0
 30
0.0
  3
*D247
  1

  0
LINE
  5
9DCE
330
961C
100
AcDbEntity
  8
寸法引出
 48
15.0
370
    -2
100
AcDbLine
 10
1809.749546853663
 20
5822.419684267353
 30
0.0
 11
1809.749546853663
 21
5908.101774639465
 31
0.0
  0
LINE
  5
9DCF
330
961C
100
AcDbEntity
  8
寸法引出
 48
15.0
370
    -2
100
AcDbLine
 10
1722.249546853663
 20
5900.601774639465
 30
0.0
 11
1699.749546853663
 21
5900.601774639465
 31
0.0
  0
LINE
  5
9DD0
330
961C
100
AcDbEntity
  8
寸法引出
 48
15.0
370
    -2
100
AcDbLine
 10
1832.249546853663
 20
5900.601774639465
 30
0.0
 11
1854.749546853663
 21
5900.601774639465
 31
0.0
  0
LINE
  5
9DD1
330
961C
100
AcDbEntity
  8
寸法引出
 48
15.0
370
    -2
100
AcDbLine
 10
1744.749546853664
 20
5900.601774639465
 30
0.0
 11
1809.749546853663
 21
5900.601774639465
 31
0.0
  0
SOLID
  5
9DD2
330
961C
100
AcDbEntity
  8
寸法引出
 48
15.0
100
AcDbTrace
 10
1722.249546853663
 20
5904.351774639465
 30
0.0
 11
1722.249546853663
 21
5896.851774639465
 31
0.0
 12
1744.749546853664
 22
5900.601774639465
 32
0.0
 13
1744.749546853664
 23
5900.601774639465
 33
0.0
  0
SOLID
  5
9DD3
330
961C
100
AcDbEntity
  8
寸法引出
 48
15.0
100
AcDbTrace
 10
1832.249546853663
 20
5904.351774639465
 30
0.0
 11
1832.249546853663
 21
5896.851774639465
 31
0.0
 12
1809.749546853663
 22
5900.601774639465
 32
0.0
 13
1809.749546853663
 23
5900.601774639465
 33
0.0
  0
MTEXT
  5
9DD4
330
961C
100
AcDbEntity
  8
寸法引出
 48
15.0
100
AcDbMText
 10
1777.249546853663
 20
5930.601774639464
 30
0.0
 40
30.0
 41
0.0
 71
     5
 72
     1
  1
\A1;65
  7
SANWA
 73
     1
 44
1.0
1001
ACAD
1000
MTEXTBEGIN
1070
    73
1070
     1
1070
    44
1040
1.0
1070
    74
1070
     0
1000
MTEXTEND
  0
POINT
  5
9DD5
330
961C
100
AcDbEntity
  8
DEFPOINTS
 62
     0
 48
15.0
100
AcDbPoint
 10
1744.749546853664
 20
5807.419684267354
 30
0.0
  0
POINT
  5
9DD6
330
961C
100
AcDbEntity
  8
DEFPOINTS
 62
     0
 48
15.0
100
AcDbPoint
 10
1809.749546853663
 20
5807.419684267354
 30
0.0
  0
POINT
  5
9DD7
330
961C
100
AcDbEntity
  8
DEFPOINTS
 62
     0
 48
15.0
100
AcDbPoint
 10
1809.749546853663
 20
5900.601774639465
 30
0.0
  0
ENDBLK
  5
9628
330
961C
100
AcDbEntity
  8
0
 48
15.0
100
AcDbBlockEnd
  0
BLOCK
  5
9633
330
9629
100
AcDbEntity
  8
0
 48
15.0
100
AcDbBlockBegin
  2
*D248
 70
     1
 10
0.0
 20
0.0
 30
0.0
  3
*D248
  1

  0
LINE
  5
9DD8
330
9629
100
AcDbEntity
  8
寸法引出
 48
15.0
370
    -2
100
AcDbLine
 10
2409.500265450521
 20
5839.419684267354
 30
0.0
 11
2409.500265450521
 21
5915.013133015411
 31
0.0
  0
LINE
  5
9DD9
330
9629
100
AcDbEntity
  8
寸法引出
 48
15.0
370
    -2
100
AcDbLine
 10
3409.500265450521
 20
5839.419684267354
 30
0.0
 11
3409.500265450521
 21
5915.013133015411
 31
0.0
  0
LINE
  5
9DDA
330
9629
100
AcDbEntity
  8
寸法引出
 48
15.0
370
    -2
100
AcDbLine
 10
2432.000265450521
 20
5907.51313301541
 30
0.0
 11
3387.000265450521
 21
5907.51313301541
 31
0.0
  0
SOLID
  5
9DDB
330
9629
100
AcDbEntity
  8
寸法引出
 48
15.0
100
AcDbTrace
 10
2432.000265450521
 20
5911.263133015411
 30
0.0
 11
2432.000265450521
 21
5903.763133015411
 31
0.0
 12
2409.500265450521
 22
5907.51313301541
 32
0.0
 13
2409.500265450521
 23
5907.51313301541
 33
0.0
  0
SOLID
  5
9DDC
330
9629
100
AcDbEntity
  8
寸法引出
 48
15.0
100
AcDbTrace
 10
3387.000265450521
 20
5911.263133015411
 30
0.0
 11
3387.000265450521
 21
5903.763133015411
 31
0.0
 12
3409.500265450521
 22
5907.51313301541
 32
0.0
 13
3409.500265450521
 23
5907.51313301541
 33
0.0
  0
MTEXT
  5
9DDD
330
9629
100
AcDbEntity
  8
寸法引出
 48
15.0
100
AcDbMText
 10
2909.500265450521
 20
5937.513133015411
 30
0.0
 40
30.0
 41
0.0
 71
     5
 72
     1
  1
\A1;1000
  7
SANWA
 73
     1
 44
1.0
1001
ACAD
1000
MTEXTBEGIN
1070
    73
1070
     1
1070
    44
1040
1.0
1070
    74
1070
     0
1000
MTEXTEND
  0
POINT
  5
9DDE
330
9629
100
AcDbEntity
  8
DEFPOINTS
 62
     0
 48
15.0
100
AcDbPoint
 10
2409.500265450521
 20
5824.419684267354
 30
0.0
  0
POINT
  5
9DDF
330
9629
100
AcDbEntity
  8
DEFPOINTS
 62
     0
 48
15.0
100
AcDbPoint
 10
3409.500265450521
 20
5824.419684267354
 30
0.0
  0
POINT
  5
9DE0
330
9629
100
AcDbEntity
  8
DEFPOINTS
 62
     0
 48
15.0
100
AcDbPoint
 10
3409.500265450521
 20
5907.51313301541
 30
0.0
  0
ENDBLK
  5
9634
330
9629
100
AcDbEntity
  8
0
 48
15.0
100
AcDbBlockEnd
  0
BLOCK
  5
963E
330
9635
100
AcDbEntity
  8
0
 48
15.0
100
AcDbBlockBegin
  2
*D249
 70
     1
 10
0.0
 20
0.0
 30
0.0
  3
*D249
  1

  0
LINE
  5
9DE1
330
9635
100
AcDbEntity
  8
寸法引出
 48
15.0
370
    -2
100
AcDbLine
 10
3289.50026545052
 20
5672.419684267353
 30
0.0
 11
3289.50026545052
 21
5591.352605328925
 31
0.0
  0
LINE
  5
9DE2
330
9635
100
AcDbEntity
  8
寸法引出
 48
15.0
370
    -2
100
AcDbLine
 10
2552.000265450521
 20
5598.852605328924
 30
0.0
 11
3267.000265450521
 21
5598.852605328924
 31
0.0
  0
SOLID
  5
9DE3
330
9635
100
AcDbEntity
  8
寸法引出
 48
15.0
100
AcDbTrace
 10
2552.000265450521
 20
5602.602605328924
 30
0.0
 11
2552.000265450521
 21
5595.102605328924
 31
0.0
 12
2529.500265450521
 22
5598.852605328924
 32
0.0
 13
2529.500265450521
 23
5598.852605328924
 33
0.0
  0
SOLID
  5
9DE4
330
9635
100
AcDbEntity
  8
寸法引出
 48
15.0
100
AcDbTrace
 10
3267.000265450521
 20
5602.602605328924
 30
0.0
 11
3267.000265450521
 21
5595.102605328924
 31
0.0
 12
3289.50026545052
 22
5598.852605328924
 32
0.0
 13
3289.50026545052
 23
5598.852605328924
 33
0.0
  0
MTEXT
  5
9DE5
330
9635
100
AcDbEntity
  8
寸法引出
 48
15.0
100
AcDbMText
 10
2909.500265450521
 20
5628.852605328924
 30
0.0
 40
30.0
 41
0.0
 71
     5
 72
     1
  1
\A1;760
  7
SANWA
 73
     1
 44
1.0
1001
ACAD
1000
MTEXTBEGIN
1070
    73
1070
     1
1070
    44
1040
1.0
1070
    74
1070
     0
1000
MTEXTEND
  0
POINT
  5
9DE6
330
9635
100
AcDbEntity
  8
DEFPOINTS
 62
     0
 48
15.0
100
AcDbPoint
 10
2529.500265450521
 20
5687.419684267354
 30
0.0
  0
POINT
  5
9DE7
330
9635
100
AcDbEntity
  8
DEFPOINTS
 62
     0
 48
15.0
100
AcDbPoint
 10
3289.50026545052
 20
5687.419684267354
 30
0.0
  0
POINT
  5
9DE8
330
9635
100
AcDbEntity
  8
DEFPOINTS
 62
     0
 48
15.0
100
AcDbPoint
 10
3289.50026545052
 20
5598.852605328924
 30
0.0
  0
ENDBLK
  5
963F
330
9635
100
AcDbEntity
  8
0
 48
15.0
100
AcDbBlockEnd
  0
BLOCK
  5
964B
330
9640
100
AcDbEntity
  8
0
 48
15.0
100
AcDbBlockBegin
  2
*D250
 70
     1
 10
0.0
 20
0.0
 30
0.0
  3
*D250
  1

  0
LINE
  5
9DE9
330
9640
100
AcDbEntity
  8
寸法引出
 48
15.0
370
    -2
100
AcDbLine
 10
2394.50026545052
 20
5824.419684267354
 30
0.0
 11
2323.154502511621
 21
5824.419684267354
 31
0.0
  0
LINE
  5
9DEA
330
9640
100
AcDbEntity
  8
寸法引出
 48
15.0
370
    -2
100
AcDbLine
 10
2330.654502511621
 20
5784.919684267354
 30
0.0
 11
2330.654502511621
 21
5762.419684267354
 31
0.0
  0
LINE
  5
9DEB
330
9640
100
AcDbEntity
  8
寸法引出
 48
15.0
370
    -2
100
AcDbLine
 10
2330.654502511621
 20
5846.919684267354
 30
0.0
 11
2330.654502511621
 21
5869.419684267353
 31
0.0
  0
LINE
  5
9DEC
330
9640
100
AcDbEntity
  8
寸法引出
 48
15.0
370
    -2
100
AcDbLine
 10
2330.654502511621
 20
5807.419684267354
 30
0.0
 11
2330.654502511621
 21
5824.419684267354
 31
0.0
  0
SOLID
  5
9DED
330
9640
100
AcDbEntity
  8
寸法引出
 48
15.0
100
AcDbTrace
 10
2326.904502511621
 20
5784.919684267354
 30
0.0
 11
2334.404502511621
 21
5784.919684267354
 31
0.0
 12
2330.654502511621
 22
5807.419684267354
 32
0.0
 13
2330.654502511621
 23
5807.419684267354
 33
0.0
  0
SOLID
  5
9DEE
330
9640
100
AcDbEntity
  8
寸法引出
 48
15.0
100
AcDbTrace
 10
2326.904502511621
 20
5846.919684267354
 30
0.0
 11
2334.404502511621
 21
5846.919684267354
 31
0.0
 12
2330.654502511621
 22
5824.419684267354
 32
0.0
 13
2330.654502511621
 23
5824.419684267354
 33
0.0
  0
MTEXT
  5
9DEF
330
9640
100
AcDbEntity
  8
寸法引出
 48
15.0
100
AcDbMText
 10
2300.65450251162
 20
5815.919684267354
 30
0.0
 40
30.0
 41
0.0
 71
     5
 72
     1
  1
\A1;17
  7
SANWA
 11
0.0000000000000001
 21
1.0
 31
0.0
 73
     1
 44
1.0
1001
ACAD
1000
MTEXTBEGIN
1070
    73
1070
     1
1070
    44
1040
1.0
1070
    74
1070
     0
1000
MTEXTEND
  0
POINT
  5
9DF0
330
9640
100
AcDbEntity
  8
DEFPOINTS
 62
     0
 48
15.0
100
AcDbPoint
 10
2409.500265450521
 20
5807.419684267354
 30
0.0
  0
POINT
  5
9DF1
330
9640
100
AcDbEntity
  8
DEFPOINTS
 62
     0
 48
15.0
100
AcDbPoint
 10
2409.500265450521
 20
5824.419684267354
 30
0.0
  0
POINT
  5
9DF2
330
9640
100
AcDbEntity
  8
DEFPOINTS
 62
     0
 48
15.0
100
AcDbPoint
 10
2330.654502511621
 20
5824.419684267354
 30
0.0
  0
ENDBLK
  5
964C
330
9640
100
AcDbEntity
  8
0
 48
15.0
100
AcDbBlockEnd
  0
BLOCK
  5
9657
330
964D
100
AcDbEntity
  8
0
 48
15.0
100
AcDbBlockBegin
  2
*D251
 70
     1
 10
0.0
 20
0.0
 30
0.0
  3
*D251
  1

  0
LINE
  5
9DF3
330
964D
100
AcDbEntity
  8
寸法引出
 48
15.0
370
    -2
100
AcDbLine
 10
2394.50026545052
 20
5687.419684267354
 30
0.0
 11
2323.154502511621
 21
5687.419684267354
 31
0.0
  0
LINE
  5
9DF4
330
964D
100
AcDbEntity
  8
寸法引出
 48
15.0
370
    -2
100
AcDbLine
 10
2394.50026545052
 20
5807.419684267354
 30
0.0
 11
2323.154502511621
 21
5807.419684267354
 31
0.0
  0
LINE
  5
9DF5
330
964D
100
AcDbEntity
  8
寸法引出
 48
15.0
370
    -2
100
AcDbLine
 10
2330.654502511621
 20
5709.919684267354
 30
0.0
 11
2330.654502511621
 21
5784.919684267354
 31
0.0
  0
SOLID
  5
9DF6
330
964D
100
AcDbEntity
  8
寸法引出
 48
15.0
100
AcDbTrace
 10
2326.904502511621
 20
5709.919684267354
 30
0.0
 11
2334.404502511621
 21
5709.919684267354
 31
0.0
 12
2330.654502511621
 22
5687.419684267354
 32
0.0
 13
2330.654502511621
 23
5687.419684267354
 33
0.0
  0
SOLID
  5
9DF7
330
964D
100
AcDbEntity
  8
寸法引出
 48
15.0
100
AcDbTrace
 10
2326.904502511621
 20
5784.919684267354
 30
0.0
 11
2334.404502511621
 21
5784.919684267354
 31
0.0
 12
2330.654502511621
 22
5807.419684267354
 32
0.0
 13
2330.654502511621
 23
5807.419684267354
 33
0.0
  0
MTEXT
  5
9DF8
330
964D
100
AcDbEntity
  8
寸法引出
 48
15.0
100
AcDbMText
 10
2300.65450251162
 20
5747.419684267355
 30
0.0
 40
30.0
 41
0.0
 71
     5
 72
     1
  1
\A1;120
  7
SANWA
 11
0.0000000000000001
 21
1.0
 31
0.0
 73
     1
 44
1.0
1001
ACAD
1000
MTEXTBEGIN
1070
    73
1070
     1
1070
    44
1040
1.0
1070
    74
1070
     0
1000
MTEXTEND
  0
POINT
  5
9DF9
330
964D
100
AcDbEntity
  8
DEFPOINTS
 62
     0
 48
15.0
100
AcDbPoint
 10
2409.500265450521
 20
5687.419684267354
 30
0.0
  0
POINT
  5
9DFA
330
964D
100
AcDbEntity
  8
DEFPOINTS
 62
     0
 48
15.0
100
AcDbPoint
 10
2409.500265450521
 20
5807.419684267354
 30
0.0
  0
POINT
  5
9DFB
330
964D
100
AcDbEntity
  8
DEFPOINTS
 62
     0
 48
15.0
100
AcDbPoint
 10
2330.654502511621
 20
5807.419684267354
 30
0.0
  0
ENDBLK
  5
9658
330
964D
100
AcDbEntity
  8
0
 48
15.0
100
AcDbBlockEnd
  0
BLOCK
  5
9663
330
9659
100
AcDbEntity
  8
0
 48
15.0
100
AcDbBlockBegin
  2
*D252
 70
     1
 10
0.0
 20
0.0
 30
0.0
  3
*D252
  1

  0
LINE
  5
9DFC
330
9659
100
AcDbEntity
  8
寸法引出
 48
15.0
370
    -2
100
AcDbLine
 10
2102.249546853664
 20
5687.419684267354
 30
0.0
 11
2184.771251916813
 21
5687.419684267354
 31
0.0
  0
LINE
  5
9DFD
330
9659
100
AcDbEntity
  8
寸法引出
 48
15.0
370
    -2
100
AcDbLine
 10
2102.249546853664
 20
5824.419684267354
 30
0.0
 11
2184.771251916813
 21
5824.419684267354
 31
0.0
  0
LINE
  5
9DFE
330
9659
100
AcDbEntity
  8
寸法引出
 48
15.0
370
    -2
100
AcDbLine
 10
2177.271251916813
 20
5709.919684267354
 30
0.0
 11
2177.271251916813
 21
5801.919684267353
 31
0.0
  0
SOLID
  5
9DFF
330
9659
100
AcDbEntity
  8
寸法引出
 48
15.0
100
AcDbTrace
 10
2173.521251916813
 20
5709.919684267354
 30
0.0
 11
2181.021251916813
 21
5709.919684267354
 31
0.0
 12
2177.271251916813
 22
5687.419684267354
 32
0.0
 13
2177.271251916813
 23
5687.419684267354
 33
0.0
  0
SOLID
  5
9E00
330
9659
100
AcDbEntity
  8
寸法引出
 48
15.0
100
AcDbTrace
 10
2173.521251916813
 20
5801.919684267353
 30
0.0
 11
2181.021251916813
 21
5801.919684267353
 31
0.0
 12
2177.271251916813
 22
5824.419684267354
 32
0.0
 13
2177.271251916813
 23
5824.419684267354
 33
0.0
  0
MTEXT
  5
9E01
330
9659
100
AcDbEntity
  8
寸法引出
 48
15.0
100
AcDbMText
 10
2147.271251916812
 20
5755.919684267354
 30
0.0
 40
30.0
 41
0.0
 71
     5
 72
     1
  1
\A1;137
  7
SANWA
 11
0.0000000000000001
 21
1.0
 31
0.0
 73
     1
 44
1.0
1001
ACAD
1000
MTEXTBEGIN
1070
    73
1070
     1
1070
    44
1040
1.0
1070
    74
1070
     0
1000
MTEXTEND
  0
POINT
  5
9E02
330
9659
100
AcDbEntity
  8
DEFPOINTS
 62
     0
 48
15.0
100
AcDbPoint
 10
2087.249546853664
 20
5687.419684267354
 30
0.0
  0
POINT
  5
9E03
330
9659
100
AcDbEntity
  8
DEFPOINTS
 62
     0
 48
15.0
100
AcDbPoint
 10
2087.249546853664
 20
5824.419684267354
 30
0.0
  0
POINT
  5
9E04
330
9659
100
AcDbEntity
  8
DEFPOINTS
 62
     0
 48
15.0
100
AcDbPoint
 10
2177.271251916813
 20
5824.419684267354
 30
0.0
  0
ENDBLK
  5
9664
330
9659
100
AcDbEntity
  8
0
 48
15.0
100
AcDbBlockEnd
  0
BLOCK
  5
9671
330
9665
100
AcDbEntity
  8
0
 48
15.0
100
AcDbBlockBegin
  2
*D253
 70
     1
 10
0.0
 20
0.0
 30
0.0
  3
*D253
  1

  0
LINE
  5
9E05
330
9665
100
AcDbEntity
  8
寸法引出
 48
15.0
370
    -2
100
AcDbLine
 10
2057.249546853664
 20
5672.419684267353
 30
0.0
 11
2057.249546853664
 21
5591.352605328925
 31
0.0
  0
LINE
  5
9E06
330
9665
100
AcDbEntity
  8
寸法引出
 48
15.0
370
    -2
100
AcDbLine
 10
2087.249546853664
 20
5672.419684267353
 30
0.0
 11
2087.249546853664
 21
5591.352605328925
 31
0.0
  0
LINE
  5
9E07
330
9665
100
AcDbEntity
  8
寸法引出
 48
15.0
370
    -2
100
AcDbLine
 10
2034.749546853664
 20
5598.852605328924
 30
0.0
 11
2012.249546853664
 21
5598.852605328924
 31
0.0
  0
LINE
  5
9E08
330
9665
100
AcDbEntity
  8
寸法引出
 48
15.0
370
    -2
100
AcDbLine
 10
2109.749546853664
 20
5598.852605328924
 30
0.0
 11
2132.249546853664
 21
5598.852605328924
 31
0.0
  0
LINE
  5
9E09
330
9665
100
AcDbEntity
  8
寸法引出
 48
15.0
370
    -2
100
AcDbLine
 10
2057.249546853664
 20
5598.852605328924
 30
0.0
 11
2087.249546853664
 21
5598.852605328924
 31
0.0
  0
SOLID
  5
9E0A
330
9665
100
AcDbEntity
  8
寸法引出
 48
15.0
100
AcDbTrace
 10
2034.749546853664
 20
5602.602605328924
 30
0.0
 11
2034.749546853664
 21
5595.102605328924
 31
0.0
 12
2057.249546853664
 22
5598.852605328924
 32
0.0
 13
2057.249546853664
 23
5598.852605328924
 33
0.0
  0
SOLID
  5
9E0B
330
9665
100
AcDbEntity
  8
寸法引出
 48
15.0
100
AcDbTrace
 10
2109.749546853664
 20
5602.602605328924
 30
0.0
 11
2109.749546853664
 21
5595.102605328924
 31
0.0
 12
2087.249546853664
 22
5598.852605328924
 32
0.0
 13
2087.249546853664
 23
5598.852605328924
 33
0.0
  0
MTEXT
  5
9E0C
330
9665
100
AcDbEntity
  8
寸法引出
 48
15.0
100
AcDbMText
 10
2072.249546853663
 20
5628.852605328924
 30
0.0
 40
30.0
 41
0.0
 71
     5
 72
     1
  1
\A1;30
  7
SANWA
 73
     1
 44
1.0
1001
ACAD
1000
MTEXTBEGIN
1070
    73
1070
     1
1070
    44
1040
1.0
1070
    74
1070
     0
1000
MTEXTEND
  0
POINT
  5
9E0D
330
9665
100
AcDbEntity
  8
DEFPOINTS
 62
     0
 48
15.0
100
AcDbPoint
 10
2057.249546853664
 20
5687.419684267354
 30
0.0
  0
POINT
  5
9E0E
330
9665
100
AcDbEntity
  8
DEFPOINTS
 62
     0
 48
15.0
100
AcDbPoint
 10
2087.249546853664
 20
5687.419684267354
 30
0.0
  0
POINT
  5
9E0F
330
9665
100
AcDbEntity
  8
DEFPOINTS
 62
     0
 48
15.0
100
AcDbPoint
 10
2087.249546853664
 20
5598.852605328924
 30
0.0
  0
ENDBLK
  5
9672
330
9665
100
AcDbEntity
  8
0
 48
15.0
100
AcDbBlockEnd
  0
BLOCK
  5
967D
330
9673
100
AcDbEntity
  8
0
 48
15.0
100
AcDbBlockBegin
  2
*D254
 70
     1
 10
0.0
 20
0.0
 30
0.0
  3
*D254
  1

  0
LINE
  5
9E10
330
9673
100
AcDbEntity
  8
寸法引出
 48
15.0
370
    -2
100
AcDbLine
 10
2409.500265450521
 20
5672.419684267353
 30
0.0
 11
2409.500265450521
 21
5591.352605328925
 31
0.0
  0
LINE
  5
9E11
330
9673
100
AcDbEntity
  8
寸法引出
 48
15.0
370
    -2
100
AcDbLine
 10
2529.500265450521
 20
5672.419684267353
 30
0.0
 11
2529.500265450521
 21
5591.352605328925
 31
0.0
  0
LINE
  5
9E12
330
9673
100
AcDbEntity
  8
寸法引出
 48
15.0
370
    -2
100
AcDbLine
 10
2432.000265450521
 20
5598.852605328924
 30
0.0
 11
2507.000265450521
 21
5598.852605328924
 31
0.0
  0
SOLID
  5
9E13
330
9673
100
AcDbEntity
  8
寸法引出
 48
15.0
100
AcDbTrace
 10
2432.000265450521
 20
5602.602605328924
 30
0.0
 11
2432.000265450521
 21
5595.102605328924
 31
0.0
 12
2409.500265450521
 22
5598.852605328924
 32
0.0
 13
2409.500265450521
 23
5598.852605328924
 33
0.0
  0
SOLID
  5
9E14
330
9673
100
AcDbEntity
  8
寸法引出
 48
15.0
100
AcDbTrace
 10
2507.000265450521
 20
5602.602605328924
 30
0.0
 11
2507.000265450521
 21
5595.102605328924
 31
0.0
 12
2529.500265450521
 22
5598.852605328924
 32
0.0
 13
2529.500265450521
 23
5598.852605328924
 33
0.0
  0
MTEXT
  5
9E15
330
9673
100
AcDbEntity
  8
寸法引出
 48
15.0
100
AcDbMText
 10
2469.500265450521
 20
5628.852605328924
 30
0.0
 40
30.0
 41
0.0
 71
     5
 72
     1
  1
\A1;120
  7
SANWA
 73
     1
 44
1.0
1001
ACAD
1000
MTEXTBEGIN
1070
    73
1070
     1
1070
    44
1040
1.0
1070
    74
1070
     0
1000
MTEXTEND
  0
POINT
  5
9E16
330
9673
100
AcDbEntity
  8
DEFPOINTS
 62
     0
 48
15.0
100
AcDbPoint
 10
2409.500265450521
 20
5687.419684267354
 30
0.0
  0
POINT
  5
9E17
330
9673
100
AcDbEntity
  8
DEFPOINTS
 62
     0
 48
15.0
100
AcDbPoint
 10
2529.500265450521
 20
5687.419684267354
 30
0.0
  0
POINT
  5
9E18
330
9673
100
AcDbEntity
  8
DEFPOINTS
 62
     0
 48
15.0
100
AcDbPoint
 10
2529.500265450521
 20
5598.852605328924
 30
0.0
  0
ENDBLK
  5
967E
330
9673
100
AcDbEntity
  8
0
 48
15.0
100
AcDbBlockEnd
  0
BLOCK
  5
9689
330
967F
100
AcDbEntity
  8
0
 48
15.0
100
AcDbBlockBegin
  2
*D255
 70
     1
 10
0.0
 20
0.0
 30
0.0
  3
*D255
  1

  0
LINE
  5
9E19
330
967F
100
AcDbEntity
  8
寸法引出
 48
15.0
370
    -2
100
AcDbLine
 10
3424.500265450521
 20
5824.419684267354
 30
0.0
 11
3513.574038852457
 21
5824.419684267354
 31
0.0
  0
LINE
  5
9E1A
330
967F
100
AcDbEntity
  8
寸法引出
 48
15.0
370
    -2
100
AcDbLine
 10
3424.500265450521
 20
5687.419684267354
 30
0.0
 11
3513.574038852457
 21
5687.419684267354
 31
0.0
  0
LINE
  5
9E1B
330
967F
100
AcDbEntity
  8
寸法引出
 48
15.0
370
    -2
100
AcDbLine
 10
3506.074038852457
 20
5801.919684267353
 30
0.0
 11
3506.074038852457
 21
5709.919684267354
 31
0.0
  0
SOLID
  5
9E1C
330
967F
100
AcDbEntity
  8
寸法引出
 48
15.0
100
AcDbTrace
 10
3502.324038852458
 20
5801.919684267353
 30
0.0
 11
3509.824038852457
 21
5801.919684267353
 31
0.0
 12
3506.074038852457
 22
5824.419684267354
 32
0.0
 13
3506.074038852457
 23
5824.419684267354
 33
0.0
  0
SOLID
  5
9E1D
330
967F
100
AcDbEntity
  8
寸法引出
 48
15.0
100
AcDbTrace
 10
3502.324038852458
 20
5709.919684267354
 30
0.0
 11
3509.824038852457
 21
5709.919684267354
 31
0.0
 12
3506.074038852457
 22
5687.419684267354
 32
0.0
 13
3506.074038852457
 23
5687.419684267354
 33
0.0
  0
MTEXT
  5
9E1E
330
967F
100
AcDbEntity
  8
寸法引出
 48
15.0
100
AcDbMText
 10
3476.074038852457
 20
5755.919684267354
 30
0.0
 40
30.0
 41
0.0
 71
     5
 72
     1
  1
\A1;137
  7
SANWA
 11
0.0000000000000001
 21
1.0
 31
0.0
 73
     1
 44
1.0
1001
ACAD
1000
MTEXTBEGIN
1070
    73
1070
     1
1070
    44
1040
1.0
1070
    74
1070
     0
1000
MTEXTEND
  0
POINT
  5
9E1F
330
967F
100
AcDbEntity
  8
DEFPOINTS
 62
     0
 48
15.0
100
AcDbPoint
 10
3409.500265450521
 20
5824.419684267354
 30
0.0
  0
POINT
  5
9E20
330
967F
100
AcDbEntity
  8
DEFPOINTS
 62
     0
 48
15.0
100
AcDbPoint
 10
3409.500265450521
 20
5687.419684267354
 30
0.0
  0
POINT
  5
9E21
330
967F
100
AcDbEntity
  8
DEFPOINTS
 62
     0
 48
15.0
100
AcDbPoint
 10
3506.074038852457
 20
5687.419684267354
 30
0.0
  0
ENDBLK
  5
968A
330
967F
100
AcDbEntity
  8
0
 48
15.0
100
AcDbBlockEnd
  0
BLOCK
  5
9695
330
968B
100
AcDbEntity
  8
0
 48
15.0
100
AcDbBlockBegin
  2
*D256
 70
     1
 10
0.0
 20
0.0
 30
0.0
  3
*D256
  1

  0
LINE
  5
9E22
330
968B
100
AcDbEntity
  8
寸法引出
 48
15.0
370
    -2
100
AcDbLine
 10
3289.50026545052
 20
5672.419684267353
 30
0.0
 11
3289.50026545052
 21
5591.352605328925
 31
0.0
  0
LINE
  5
9E23
330
968B
100
AcDbEntity
  8
寸法引出
 48
15.0
370
    -2
100
AcDbLine
 10
3409.500265450521
 20
5672.419684267353
 30
0.0
 11
3409.500265450521
 21
5591.352605328925
 31
0.0
  0
LINE
  5
9E24
330
968B
100
AcDbEntity
  8
寸法引出
 48
15.0
370
    -2
100
AcDbLine
 10
3312.000265450521
 20
5598.852605328924
 30
0.0
 11
3387.000265450521
 21
5598.852605328924
 31
0.0
  0
SOLID
  5
9E25
330
968B
100
AcDbEntity
  8
寸法引出
 48
15.0
100
AcDbTrace
 10
3312.000265450521
 20
5602.602605328924
 30
0.0
 11
3312.000265450521
 21
5595.102605328924
 31
0.0
 12
3289.50026545052
 22
5598.852605328924
 32
0.0
 13
3289.50026545052
 23
5598.852605328924
 33
0.0
  0
SOLID
  5
9E26
330
968B
100
AcDbEntity
  8
寸法引出
 48
15.0
100
AcDbTrace
 10
3387.000265450521
 20
5602.602605328924
 30
0.0
 11
3387.000265450521
 21
5595.102605328924
 31
0.0
 12
3409.500265450521
 22
5598.852605328924
 32
0.0
 13
3409.500265450521
 23
5598.852605328924
 33
0.0
  0
MTEXT
  5
9E27
330
968B
100
AcDbEntity
  8
寸法引出
 48
15.0
100
AcDbMText
 10
3349.500265450521
 20
5628.852605328924
 30
0.0
 40
30.0
 41
0.0
 71
     5
 72
     1
  1
\A1;120
  7
SANWA
 73
     1
 44
1.0
1001
ACAD
1000
MTEXTBEGIN
1070
    73
1070
     1
1070
    44
1040
1.0
1070
    74
1070
     0
1000
MTEXTEND
  0
POINT
  5
9E28
330
968B
100
AcDbEntity
  8
DEFPOINTS
 62
     0
 48
15.0
100
AcDbPoint
 10
3289.50026545052
 20
5687.419684267354
 30
0.0
  0
POINT
  5
9E29
330
968B
100
AcDbEntity
  8
DEFPOINTS
 62
     0
 48
15.0
100
AcDbPoint
 10
3409.500265450521
 20
5687.419684267354
 30
0.0
  0
POINT
  5
9E2A
330
968B
100
AcDbEntity
  8
DEFPOINTS
 62
     0
 48
15.0
100
AcDbPoint
 10
3409.500265450521
 20
5598.852605328924
 30
0.0
  0
ENDBLK
  5
9696
330
968B
100
AcDbEntity
  8
0
 48
15.0
100
AcDbBlockEnd
  0
BLOCK
  5
96A1
330
9697
100
AcDbEntity
  8
0
 48
15.0
100
AcDbBlockBegin
  2
*D257
 70
     1
 10
0.0
 20
0.0
 30
0.0
  3
*D257
  1

  0
LINE
  5
9E2B
330
9697
100
AcDbEntity
  8
寸法引出
 48
15.0
370
    -2
100
AcDbLine
 10
6977.850002725185
 20
5839.419684267354
 30
0.0
 11
6977.850002725185
 21
5975.958594801035
 31
0.0
  0
LINE
  5
9E2C
330
9697
100
AcDbEntity
  8
寸法引出
 48
15.0
370
    -2
100
AcDbLine
 10
7977.850002725185
 20
5839.419684267354
 30
0.0
 11
7977.850002725185
 21
5975.958594801035
 31
0.0
  0
LINE
  5
9E2D
330
9697
100
AcDbEntity
  8
寸法引出
 48
15.0
370
    -2
100
AcDbLine
 10
7000.350002725184
 20
5968.458594801035
 30
0.0
 11
7955.350002725184
 21
5968.458594801035
 31
0.0
  0
SOLID
  5
9E2E
330
9697
100
AcDbEntity
  8
寸法引出
 48
15.0
100
AcDbTrace
 10
7000.350002725184
 20
5972.208594801035
 30
0.0
 11
7000.350002725184
 21
5964.708594801035
 31
0.0
 12
6977.850002725185
 22
5968.458594801035
 32
0.0
 13
6977.850002725185
 23
5968.458594801035
 33
0.0
  0
SOLID
  5
9E2F
330
9697
100
AcDbEntity
  8
寸法引出
 48
15.0
100
AcDbTrace
 10
7955.350002725184
 20
5972.208594801035
 30
0.0
 11
7955.350002725184
 21
5964.708594801035
 31
0.0
 12
7977.850002725185
 22
5968.458594801035
 32
0.0
 13
7977.850002725185
 23
5968.458594801035
 33
0.0
  0
MTEXT
  5
9E30
330
9697
100
AcDbEntity
  8
寸法引出
 48
15.0
100
AcDbMText
 10
7477.850002725185
 20
5998.458594801036
 30
0.0
 40
30.0
 41
0.0
 71
     5
 72
     1
  1
\A1;1000
  7
SANWA
 73
     1
 44
1.0
1001
ACAD
1000
MTEXTBEGIN
1070
    73
1070
     1
1070
    44
1040
1.0
1070
    74
1070
     0
1000
MTEXTEND
  0
POINT
  5
9E31
330
9697
100
AcDbEntity
  8
DEFPOINTS
 62
     0
 48
15.0
100
AcDbPoint
 10
6977.850002725185
 20
5824.419684267354
 30
0.0
  0
POINT
  5
9E32
330
9697
100
AcDbEntity
  8
DEFPOINTS
 62
     0
 48
15.0
100
AcDbPoint
 10
7977.850002725185
 20
5824.419684267354
 30
0.0
  0
POINT
  5
9E33
330
9697
100
AcDbEntity
  8
DEFPOINTS
 62
     0
 48
15.0
100
AcDbPoint
 10
7977.850002725185
 20
5968.458594801035
 30
0.0
  0
ENDBLK
  5
96A2
330
9697
100
AcDbEntity
  8
0
 48
15.0
100
AcDbBlockEnd
  0
BLOCK
  5
96AF
330
96A3
100
AcDbEntity
  8
0
 48
15.0
100
AcDbBlockBegin
  2
*D258
 70
     1
 10
0.0
 20
0.0
 30
0.0
  3
*D258
  1

  0
LINE
  5
9E34
330
96A3
100
AcDbEntity
  8
寸法引出
 48
15.0
370
    -2
100
AcDbLine
 10
6977.850002725185
 20
5672.419684267353
 30
0.0
 11
6977.850002725185
 21
5586.035034312939
 31
0.0
  0
LINE
  5
9E35
330
96A3
100
AcDbEntity
  8
寸法引出
 48
15.0
370
    -2
100
AcDbLine
 10
7037.850002725185
 20
5672.419684267353
 30
0.0
 11
7037.850002725185
 21
5586.035034312939
 31
0.0
  0
LINE
  5
9E36
330
96A3
100
AcDbEntity
  8
寸法引出
 48
15.0
370
    -2
100
AcDbLine
 10
6955.350002725184
 20
5593.535034312939
 30
0.0
 11
6932.850002725185
 21
5593.535034312939
 31
0.0
  0
LINE
  5
9E37
330
96A3
100
AcDbEntity
  8
寸法引出
 48
15.0
370
    -2
100
AcDbLine
 10
7060.350002725185
 20
5593.535034312939
 30
0.0
 11
7082.850002725185
 21
5593.535034312939
 31
0.0
  0
LINE
  5
9E38
330
96A3
100
AcDbEntity
  8
寸法引出
 48
15.0
370
    -2
100
AcDbLine
 10
6977.850002725185
 20
5593.535034312939
 30
0.0
 11
7037.850002725185
 21
5593.535034312939
 31
0.0
  0
SOLID
  5
9E39
330
96A3
100
AcDbEntity
  8
寸法引出
 48
15.0
100
AcDbTrace
 10
6955.350002725184
 20
5597.285034312939
 30
0.0
 11
6955.350002725184
 21
5589.785034312939
 31
0.0
 12
6977.850002725185
 22
5593.535034312939
 32
0.0
 13
6977.850002725185
 23
5593.535034312939
 33
0.0
  0
SOLID
  5
9E3A
330
96A3
100
AcDbEntity
  8
寸法引出
 48
15.0
100
AcDbTrace
 10
7060.350002725185
 20
5597.285034312939
 30
0.0
 11
7060.350002725185
 21
5589.785034312939
 31
0.0
 12
7037.850002725185
 22
5593.535034312939
 32
0.0
 13
7037.850002725185
 23
5593.535034312939
 33
0.0
  0
MTEXT
  5
9E3B
330
96A3
100
AcDbEntity
  8
寸法引出
 48
15.0
100
AcDbMText
 10
7007.850002725184
 20
5623.53503431294
 30
0.0
 40
30.0
 41
0.0
 71
     5
 72
     1
  1
\A1;60
  7
SANWA
 73
     1
 44
1.0
1001
ACAD
1000
MTEXTBEGIN
1070
    73
1070
     1
1070
    44
1040
1.0
1070
    74
1070
     0
1000
MTEXTEND
  0
POINT
  5
9E3C
330
96A3
100
AcDbEntity
  8
DEFPOINTS
 62
     0
 48
15.0
100
AcDbPoint
 10
6977.850002725185
 20
5687.419684267354
 30
0.0
  0
POINT
  5
9E3D
330
96A3
100
AcDbEntity
  8
DEFPOINTS
 62
     0
 48
15.0
100
AcDbPoint
 10
7037.850002725185
 20
5687.419684267354
 30
0.0
  0
POINT
  5
9E3E
330
96A3
100
AcDbEntity
  8
DEFPOINTS
 62
     0
 48
15.0
100
AcDbPoint
 10
7037.850002725185
 20
5593.535034312939
 30
0.0
  0
ENDBLK
  5
96B0
330
96A3
100
AcDbEntity
  8
0
 48
15.0
100
AcDbBlockEnd
  0
BLOCK
  5
96BB
330
96B1
100
AcDbEntity
  8
0
 48
15.0
100
AcDbBlockBegin
  2
*D259
 70
     1
 10
0.0
 20
0.0
 30
0.0
  3
*D259
  1

  0
LINE
  5
9E3F
330
96B1
100
AcDbEntity
  8
寸法引出
 48
15.0
370
    -2
100
AcDbLine
 10
6020.599284128327
 20
4262.928199705158
 30
0.0
 11
5899.975300366248
 21
4262.928199705158
 31
0.0
  0
LINE
  5
9E40
330
96B1
100
AcDbEntity
  8
寸法引出
 48
15.0
370
    -2
100
AcDbLine
 10
6020.599284128327
 20
5192.928199705159
 30
0.0
 11
5899.975300366248
 21
5192.928199705159
 31
0.0
  0
LINE
  5
9E41
330
96B1
100
AcDbEntity
  8
寸法引出
 48
15.0
370
    -2
100
AcDbLine
 10
5907.475300366248
 20
4285.428199705158
 30
0.0
 11
5907.475300366248
 21
5170.428199705159
 31
0.0
  0
SOLID
  5
9E42
330
96B1
100
AcDbEntity
  8
寸法引出
 48
15.0
100
AcDbTrace
 10
5903.725300366248
 20
4285.428199705158
 30
0.0
 11
5911.225300366248
 21
4285.428199705158
 31
0.0
 12
5907.475300366248
 22
4262.928199705158
 32
0.0
 13
5907.475300366248
 23
4262.928199705158
 33
0.0
  0
SOLID
  5
9E43
330
96B1
100
AcDbEntity
  8
寸法引出
 48
15.0
100
AcDbTrace
 10
5903.725300366248
 20
5170.428199705159
 30
0.0
 11
5911.225300366248
 21
5170.428199705159
 31
0.0
 12
5907.475300366248
 22
5192.928199705159
 32
0.0
 13
5907.475300366248
 23
5192.928199705159
 33
0.0
  0
MTEXT
  5
9E44
330
96B1
100
AcDbEntity
  8
寸法引出
 48
15.0
100
AcDbMText
 10
5877.475300366247
 20
4727.92819970516
 30
0.0
 40
30.0
 41
0.0
 71
     5
 72
     1
  1
\A1;930
  7
SANWA
 11
0.0000000000000001
 21
1.0
 31
0.0
 73
     1
 44
1.0
1001
ACAD
1000
MTEXTBEGIN
1070
    73
1070
     1
1070
    44
1040
1.0
1070
    74
1070
     0
1000
MTEXTEND
  0
POINT
  5
9E45
330
96B1
100
AcDbEntity
  8
DEFPOINTS
 62
     0
 48
15.0
100
AcDbPoint
 10
6035.599284128328
 20
4262.928199705158
 30
0.0
  0
POINT
  5
9E46
330
96B1
100
AcDbEntity
  8
DEFPOINTS
 62
     0
 48
15.0
100
AcDbPoint
 10
6035.599284128328
 20
5192.928199705159
 30
0.0
  0
POINT
  5
9E47
330
96B1
100
AcDbEntity
  8
DEFPOINTS
 62
     0
 48
15.0
100
AcDbPoint
 10
5907.475300366248
 20
5192.928199705159
 30
0.0
  0
ENDBLK
  5
96BC
330
96B1
100
AcDbEntity
  8
0
 48
15.0
100
AcDbBlockEnd
  0
BLOCK
  5
96C7
330
96BD
100
AcDbEntity
  8
0
 48
15.0
100
AcDbBlockBegin
  2
*D260
 70
     1
 10
0.0
 20
0.0
 30
0.0
  3
*D260
  1

  0
LINE
  5
9E48
330
96BD
100
AcDbEntity
  8
寸法引出
 48
15.0
370
    -2
100
AcDbLine
 10
6670.599284128328
 20
5227.928199705158
 30
0.0
 11
6927.286796908375
 21
5227.928199705158
 31
0.0
  0
LINE
  5
9E49
330
96BD
100
AcDbEntity
  8
寸法引出
 48
15.0
370
    -2
100
AcDbLine
 10
6670.599284128328
 20
4227.928199705158
 30
0.0
 11
6927.286796908375
 21
4227.928199705158
 31
0.0
  0
LINE
  5
9E4A
330
96BD
100
AcDbEntity
  8
寸法引出
 48
15.0
370
    -2
100
AcDbLine
 10
6919.786796908375
 20
5205.428199705159
 30
0.0
 11
6919.786796908375
 21
4250.428199705158
 31
0.0
  0
SOLID
  5
9E4B
330
96BD
100
AcDbEntity
  8
寸法引出
 48
15.0
100
AcDbTrace
 10
6916.036796908375
 20
5205.428199705159
 30
0.0
 11
6923.536796908376
 21
5205.428199705159
 31
0.0
 12
6919.786796908375
 22
5227.928199705158
 32
0.0
 13
6919.786796908375
 23
5227.928199705158
 33
0.0
  0
SOLID
  5
9E4C
330
96BD
100
AcDbEntity
  8
寸法引出
 48
15.0
100
AcDbTrace
 10
6916.036796908375
 20
4250.428199705158
 30
0.0
 11
6923.536796908376
 21
4250.428199705158
 31
0.0
 12
6919.786796908375
 22
4227.928199705158
 32
0.0
 13
6919.786796908375
 23
4227.928199705158
 33
0.0
  0
MTEXT
  5
9E4D
330
96BD
100
AcDbEntity
  8
寸法引出
 48
15.0
100
AcDbMText
 10
6889.786796908373
 20
4727.92819970516
 30
0.0
 40
30.0
 41
0.0
 71
     5
 72
     1
  1
\A1;1000
  7
SANWA
 11
0.0000000000000001
 21
1.0
 31
0.0
 73
     1
 44
1.0
1001
ACAD
1000
MTEXTBEGIN
1070
    73
1070
     1
1070
    44
1040
1.0
1070
    74
1070
     0
1000
MTEXTEND
  0
POINT
  5
9E4E
330
96BD
100
AcDbEntity
  8
DEFPOINTS
 62
     0
 48
15.0
100
AcDbPoint
 10
6655.599284128328
 20
5227.928199705158
 30
0.0
  0
POINT
  5
9E4F
330
96BD
100
AcDbEntity
  8
DEFPOINTS
 62
     0
 48
15.0
100
AcDbPoint
 10
6655.599284128328
 20
4227.928199705158
 30
0.0
  0
POINT
  5
9E50
330
96BD
100
AcDbEntity
  8
DEFPOINTS
 62
     0
 48
15.0
100
AcDbPoint
 10
6919.786796908375
 20
4227.928199705158
 30
0.0
  0
ENDBLK
  5
96C8
330
96BD
100
AcDbEntity
  8
0
 48
15.0
100
AcDbBlockEnd
  0
BLOCK
  5
96D3
330
96C9
100
AcDbEntity
  8
0
 48
15.0
100
AcDbBlockBegin
  2
*D261
 70
     1
 10
0.0
 20
0.0
 30
0.0
  3
*D261
  1

  0
LINE
  5
9E51
330
96C9
100
AcDbEntity
  8
寸法引出
 48
15.0
370
    -2
100
AcDbLine
 10
6670.599284128328
 20
4437.928199705158
 30
0.0
 11
6862.067919168723
 21
4437.928199705158
 31
0.0
  0
LINE
  5
9E52
330
96C9
100
AcDbEntity
  8
寸法引出
 48
15.0
370
    -2
100
AcDbLine
 10
6670.599284128328
 20
5017.928199705159
 30
0.0
 11
6862.067919168723
 21
5017.928199705159
 31
0.0
  0
LINE
  5
9E53
330
96C9
100
AcDbEntity
  8
寸法引出
 48
15.0
370
    -2
100
AcDbLine
 10
6854.567919168722
 20
4460.428199705158
 30
0.0
 11
6854.567919168722
 21
4995.428199705159
 31
0.0
  0
SOLID
  5
9E54
330
96C9
100
AcDbEntity
  8
寸法引出
 48
15.0
100
AcDbTrace
 10
6850.817919168723
 20
4460.428199705158
 30
0.0
 11
6858.317919168723
 21
4460.428199705158
 31
0.0
 12
6854.567919168722
 22
4437.928199705158
 32
0.0
 13
6854.567919168722
 23
4437.928199705158
 33
0.0
  0
SOLID
  5
9E55
330
96C9
100
AcDbEntity
  8
寸法引出
 48
15.0
100
AcDbTrace
 10
6850.817919168723
 20
4995.428199705159
 30
0.0
 11
6858.317919168723
 21
4995.428199705159
 31
0.0
 12
6854.567919168722
 22
5017.928199705159
 32
0.0
 13
6854.567919168722
 23
5017.928199705159
 33
0.0
  0
MTEXT
  5
9E56
330
96C9
100
AcDbEntity
  8
寸法引出
 48
15.0
100
AcDbMText
 10
6824.567919168723
 20
4727.92819970516
 30
0.0
 40
30.0
 41
0.0
 71
     5
 72
     1
  1
\A1;580
  7
SANWA
 11
0.0000000000000001
 21
1.0
 31
0.0
 73
     1
 44
1.0
1001
ACAD
1000
MTEXTBEGIN
1070
    73
1070
     1
1070
    44
1040
1.0
1070
    74
1070
     0
1000
MTEXTEND
  0
POINT
  5
9E57
330
96C9
100
AcDbEntity
  8
DEFPOINTS
 62
     0
 48
15.0
100
AcDbPoint
 10
6655.599284128328
 20
4437.928199705158
 30
0.0
  0
POINT
  5
9E58
330
96C9
100
AcDbEntity
  8
DEFPOINTS
 62
     0
 48
15.0
100
AcDbPoint
 10
6655.599284128328
 20
5017.928199705159
 30
0.0
  0
POINT
  5
9E59
330
96C9
100
AcDbEntity
  8
DEFPOINTS
 62
     0
 48
15.0
100
AcDbPoint
 10
6854.567919168722
 20
5017.928199705159
 30
0.0
  0
ENDBLK
  5
96D4
330
96C9
100
AcDbEntity
  8
0
 48
15.0
100
AcDbBlockEnd
  0
BLOCK
  5
96DF
330
96D5
100
AcDbEntity
  8
0
 48
15.0
100
AcDbBlockBegin
  2
*D262
 70
     1
 10
0.0
 20
0.0
 30
0.0
  3
*D262
  1

  0
LINE
  5
9E5A
330
96D5
100
AcDbEntity
  8
寸法引出
 48
15.0
370
    -2
100
AcDbLine
 10
6055.599284128327
 20
4212.928199705158
 30
0.0
 11
6055.599284128327
 21
4076.448234686963
 31
0.0
  0
LINE
  5
9E5B
330
96D5
100
AcDbEntity
  8
寸法引出
 48
15.0
370
    -2
100
AcDbLine
 10
6635.599284128328
 20
4212.928199705158
 30
0.0
 11
6635.599284128328
 21
4076.448234686963
 31
0.0
  0
LINE
  5
9E5C
330
96D5
100
AcDbEntity
  8
寸法引出
 48
15.0
370
    -2
100
AcDbLine
 10
6078.099284128327
 20
4083.948234686963
 30
0.0
 11
6613.099284128328
 21
4083.948234686963
 31
0.0
  0
SOLID
  5
9E5D
330
96D5
100
AcDbEntity
  8
寸法引出
 48
15.0
100
AcDbTrace
 10
6078.099284128327
 20
4087.698234686962
 30
0.0
 11
6078.099284128327
 21
4080.198234686963
 31
0.0
 12
6055.599284128327
 22
4083.948234686963
 32
0.0
 13
6055.599284128327
 23
4083.948234686963
 33
0.0
  0
SOLID
  5
9E5E
330
96D5
100
AcDbEntity
  8
寸法引出
 48
15.0
100
AcDbTrace
 10
6613.099284128328
 20
4087.698234686962
 30
0.0
 11
6613.099284128328
 21
4080.198234686963
 31
0.0
 12
6635.599284128328
 22
4083.948234686963
 32
0.0
 13
6635.599284128328
 23
4083.948234686963
 33
0.0
  0
MTEXT
  5
9E5F
330
96D5
100
AcDbEntity
  8
寸法引出
 48
15.0
100
AcDbMText
 10
6345.599284128327
 20
4113.948234686962
 30
0.0
 40
30.0
 41
0.0
 71
     5
 72
     1
  1
\A1;580
  7
SANWA
 73
     1
 44
1.0
1001
ACAD
1000
MTEXTBEGIN
1070
    73
1070
     1
1070
    44
1040
1.0
1070
    74
1070
     0
1000
MTEXTEND
  0
POINT
  5
9E60
330
96D5
100
AcDbEntity
  8
DEFPOINTS
 62
     0
 48
15.0
100
AcDbPoint
 10
6055.599284128327
 20
4227.928199705158
 30
0.0
  0
POINT
  5
9E61
330
96D5
100
AcDbEntity
  8
DEFPOINTS
 62
     0
 48
15.0
100
AcDbPoint
 10
6635.599284128328
 20
4227.928199705158
 30
0.0
  0
POINT
  5
9E62
330
96D5
100
AcDbEntity
  8
DEFPOINTS
 62
     0
 48
15.0
100
AcDbPoint
 10
6635.599284128328
 20
4083.948234686963
 30
0.0
  0
ENDBLK
  5
96E0
330
96D5
100
AcDbEntity
  8
0
 48
15.0
100
AcDbBlockEnd
  0
BLOCK
  5
96ED
330
96E1
100
AcDbEntity
  8
0
 48
15.0
100
AcDbBlockBegin
  2
*D263
 70
     1
 10
0.0
 20
0.0
 30
0.0
  3
*D263
  1

  0
LINE
  5
9E63
330
96E1
100
AcDbEntity
  8
寸法引出
 48
15.0
370
    -2
100
AcDbLine
 10
6035.599284128328
 20
4212.928199705158
 30
0.0
 11
6035.599284128328
 21
4076.448234686963
 31
0.0
  0
LINE
  5
9E64
330
96E1
100
AcDbEntity
  8
寸法引出
 48
15.0
370
    -2
100
AcDbLine
 10
6055.599284128327
 20
4212.928199705158
 30
0.0
 11
6055.599284128327
 21
4076.448234686963
 31
0.0
  0
LINE
  5
9E65
330
96E1
100
AcDbEntity
  8
寸法引出
 48
15.0
370
    -2
100
AcDbLine
 10
6013.099284128328
 20
4083.948234686963
 30
0.0
 11
5990.599284128328
 21
4083.948234686963
 31
0.0
  0
LINE
  5
9E66
330
96E1
100
AcDbEntity
  8
寸法引出
 48
15.0
370
    -2
100
AcDbLine
 10
6078.099284128327
 20
4083.948234686963
 30
0.0
 11
6100.599284128328
 21
4083.948234686963
 31
0.0
  0
LINE
  5
9E67
330
96E1
100
AcDbEntity
  8
寸法引出
 48
15.0
370
    -2
100
AcDbLine
 10
6035.599284128328
 20
4083.948234686963
 30
0.0
 11
6055.599284128327
 21
4083.948234686963
 31
0.0
  0
SOLID
  5
9E68
330
96E1
100
AcDbEntity
  8
寸法引出
 48
15.0
100
AcDbTrace
 10
6013.099284128328
 20
4087.698234686962
 30
0.0
 11
6013.099284128328
 21
4080.198234686963
 31
0.0
 12
6035.599284128328
 22
4083.948234686963
 32
0.0
 13
6035.599284128328
 23
4083.948234686963
 33
0.0
  0
SOLID
  5
9E69
330
96E1
100
AcDbEntity
  8
寸法引出
 48
15.0
100
AcDbTrace
 10
6078.099284128327
 20
4087.698234686962
 30
0.0
 11
6078.099284128327
 21
4080.198234686963
 31
0.0
 12
6055.599284128327
 22
4083.948234686963
 32
0.0
 13
6055.599284128327
 23
4083.948234686963
 33
0.0
  0
MTEXT
  5
9E6A
330
96E1
100
AcDbEntity
  8
寸法引出
 48
15.0
100
AcDbMText
 10
6045.599284128328
 20
4113.948234686962
 30
0.0
 40
30.0
 41
0.0
 71
     5
 72
     1
  1
\A1;20
  7
SANWA
 73
     1
 44
1.0
1001
ACAD
1000
MTEXTBEGIN
1070
    73
1070
     1
1070
    44
1040
1.0
1070
    74
1070
     0
1000
MTEXTEND
  0
POINT
  5
9E6B
330
96E1
100
AcDbEntity
  8
DEFPOINTS
 62
     0
 48
15.0
100
AcDbPoint
 10
6035.599284128328
 20
4227.928199705158
 30
0.0
  0
POINT
  5
9E6C
330
96E1
100
AcDbEntity
  8
DEFPOINTS
 62
     0
 48
15.0
100
AcDbPoint
 10
6055.599284128327
 20
4227.928199705158
 30
0.0
  0
POINT
  5
9E6D
330
96E1
100
AcDbEntity
  8
DEFPOINTS
 62
     0
 48
15.0
100
AcDbPoint
 10
6055.599284128327
 20
4083.948234686963
 30
0.0
  0
ENDBLK
  5
96EE
330
96E1
100
AcDbEntity
  8
0
 48
15.0
100
AcDbBlockEnd
  0
BLOCK
  5
96FA
330
96EF
100
AcDbEntity
  8
0
 48
15.0
100
AcDbBlockBegin
  2
*D264
 70
     1
 10
0.0
 20
0.0
 30
0.0
  3
*D264
  1

  0
LINE
  5
9E6E
330
96EF
100
AcDbEntity
  8
寸法引出
 48
15.0
370
    -2
100
AcDbLine
 10
6655.599284128328
 20
4212.928199705158
 30
0.0
 11
6655.599284128328
 21
4076.448234686963
 31
0.0
  0
LINE
  5
9E6F
330
96EF
100
AcDbEntity
  8
寸法引出
 48
15.0
370
    -2
100
AcDbLine
 10
6613.099284128328
 20
4083.948234686963
 30
0.0
 11
6590.599284128328
 21
4083.948234686963
 31
0.0
  0
LINE
  5
9E70
330
96EF
100
AcDbEntity
  8
寸法引出
 48
15.0
370
    -2
100
AcDbLine
 10
6678.099284128328
 20
4083.948234686963
 30
0.0
 11
6700.599284128327
 21
4083.948234686963
 31
0.0
  0
LINE
  5
9E71
330
96EF
100
AcDbEntity
  8
寸法引出
 48
15.0
370
    -2
100
AcDbLine
 10
6635.599284128328
 20
4083.948234686963
 30
0.0
 11
6655.599284128328
 21
4083.948234686963
 31
0.0
  0
SOLID
  5
9E72
330
96EF
100
AcDbEntity
  8
寸法引出
 48
15.0
100
AcDbTrace
 10
6613.099284128328
 20
4087.698234686962
 30
0.0
 11
6613.099284128328
 21
4080.198234686963
 31
0.0
 12
6635.599284128328
 22
4083.948234686963
 32
0.0
 13
6635.599284128328
 23
4083.948234686963
 33
0.0
  0
SOLID
  5
9E73
330
96EF
100
AcDbEntity
  8
寸法引出
 48
15.0
100
AcDbTrace
 10
6678.099284128328
 20
4087.698234686962
 30
0.0
 11
6678.099284128328
 21
4080.198234686963
 31
0.0
 12
6655.599284128328
 22
4083.948234686963
 32
0.0
 13
6655.599284128328
 23
4083.948234686963
 33
0.0
  0
MTEXT
  5
9E74
330
96EF
100
AcDbEntity
  8
寸法引出
 48
15.0
100
AcDbMText
 10
6645.599284128327
 20
4113.948234686962
 30
0.0
 40
30.0
 41
0.0
 71
     5
 72
     1
  1
\A1;20
  7
SANWA
 73
     1
 44
1.0
1001
ACAD
1000
MTEXTBEGIN
1070
    73
1070
     1
1070
    44
1040
1.0
1070
    74
1070
     0
1000
MTEXTEND
  0
POINT
  5
9E75
330
96EF
100
AcDbEntity
  8
DEFPOINTS
 62
     0
 48
15.0
100
AcDbPoint
 10
6635.599284128328
 20
4227.928199705158
 30
0.0
  0
POINT
  5
9E76
330
96EF
100
AcDbEntity
  8
DEFPOINTS
 62
     0
 48
15.0
100
AcDbPoint
 10
6655.599284128328
 20
4227.928199705158
 30
0.0
  0
POINT
  5
9E77
330
96EF
100
AcDbEntity
  8
DEFPOINTS
 62
     0
 48
15.0
100
AcDbPoint
 10
6655.599284128328
 20
4083.948234686963
 30
0.0
  0
ENDBLK
  5
96FB
330
96EF
100
AcDbEntity
  8
0
 48
15.0
100
AcDbBlockEnd
  0
BLOCK
  5
9708
330
96FC
100
AcDbEntity
  8
0
 48
15.0
100
AcDbBlockBegin
  2
*D265
 70
     1
 10
0.0
 20
0.0
 30
0.0
  3
*D265
  1

  0
LINE
  5
9E78
330
96FC
100
AcDbEntity
  8
寸法引出
 48
15.0
370
    -2
100
AcDbLine
 10
6670.599284128328
 20
4227.928199705158
 30
0.0
 11
6862.067919168723
 21
4227.928199705158
 31
0.0
  0
LINE
  5
9E79
330
96FC
100
AcDbEntity
  8
寸法引出
 48
15.0
370
    -2
100
AcDbLine
 10
6670.599284128328
 20
4287.928199705159
 30
0.0
 11
6862.067919168723
 21
4287.928199705159
 31
0.0
  0
LINE
  5
9E7A
330
96FC
100
AcDbEntity
  8
寸法引出
 48
15.0
370
    -2
100
AcDbLine
 10
6854.567919168722
 20
4205.428199705158
 30
0.0
 11
6854.567919168722
 21
4182.928199705158
 31
0.0
  0
LINE
  5
9E7B
330
96FC
100
AcDbEntity
  8
寸法引出
 48
15.0
370
    -2
100
AcDbLine
 10
6854.567919168722
 20
4310.428199705159
 30
0.0
 11
6854.567919168722
 21
4332.928199705158
 31
0.0
  0
LINE
  5
9E7C
330
96FC
100
AcDbEntity
  8
寸法引出
 48
15.0
370
    -2
100
AcDbLine
 10
6854.567919168722
 20
4227.928199705158
 30
0.0
 11
6854.567919168722
 21
4287.928199705159
 31
0.0
  0
SOLID
  5
9E7D
330
96FC
100
AcDbEntity
  8
寸法引出
 48
15.0
100
AcDbTrace
 10
6850.817919168723
 20
4205.428199705158
 30
0.0
 11
6858.317919168723
 21
4205.428199705158
 31
0.0
 12
6854.567919168722
 22
4227.928199705158
 32
0.0
 13
6854.567919168722
 23
4227.928199705158
 33
0.0
  0
SOLID
  5
9E7E
330
96FC
100
AcDbEntity
  8
寸法引出
 48
15.0
100
AcDbTrace
 10
6850.817919168723
 20
4310.428199705159
 30
0.0
 11
6858.317919168723
 21
4310.428199705159
 31
0.0
 12
6854.567919168722
 22
4287.928199705159
 32
0.0
 13
6854.567919168722
 23
4287.928199705159
 33
0.0
  0
MTEXT
  5
9E7F
330
96FC
100
AcDbEntity
  8
寸法引出
 48
15.0
100
AcDbMText
 10
6824.567919168723
 20
4257.92819970516
 30
0.0
 40
30.0
 41
0.0
 71
     5
 72
     1
  1
\A1;60
  7
SANWA
 11
0.0000000000000001
 21
1.0
 31
0.0
 73
     1
 44
1.0
1001
ACAD
1000
MTEXTBEGIN
1070
    73
1070
     1
1070
    44
1040
1.0
1070
    74
1070
     0
1000
MTEXTEND
  0
POINT
  5
9E80
330
96FC
100
AcDbEntity
  8
DEFPOINTS
 62
     0
 48
15.0
100
AcDbPoint
 10
6655.599284128328
 20
4227.928199705158
 30
0.0
  0
POINT
  5
9E81
330
96FC
100
AcDbEntity
  8
DEFPOINTS
 62
     0
 48
15.0
100
AcDbPoint
 10
6655.599284128328
 20
4287.928199705159
 30
0.0
  0
POINT
  5
9E82
330
96FC
100
AcDbEntity
  8
DEFPOINTS
 62
     0
 48
15.0
100
AcDbPoint
 10
6854.567919168722
 20
4287.928199705159
 30
0.0
  0
ENDBLK
  5
9709
330
96FC
100
AcDbEntity
  8
0
 48
15.0
100
AcDbBlockEnd
  0
BLOCK
  5
9713
330
970A
100
AcDbEntity
  8
0
 48
15.0
100
AcDbBlockBegin
  2
*D266
 70
     1
 10
0.0
 20
0.0
 30
0.0
  3
*D266
  1

  0
LINE
  5
9E83
330
970A
100
AcDbEntity
  8
寸法引出
 48
15.0
370
    -2
100
AcDbLine
 10
6670.599284128328
 20
4437.928199705158
 30
0.0
 11
6862.067919168723
 21
4437.928199705158
 31
0.0
  0
LINE
  5
9E84
330
970A
100
AcDbEntity
  8
寸法引出
 48
15.0
370
    -2
100
AcDbLine
 10
6854.567919168722
 20
4310.428199705159
 30
0.0
 11
6854.567919168722
 21
4415.428199705158
 31
0.0
  0
SOLID
  5
9E85
330
970A
100
AcDbEntity
  8
寸法引出
 48
15.0
100
AcDbTrace
 10
6850.817919168723
 20
4310.428199705159
 30
0.0
 11
6858.317919168723
 21
4310.428199705159
 31
0.0
 12
6854.567919168722
 22
4287.928199705159
 32
0.0
 13
6854.567919168722
 23
4287.928199705159
 33
0.0
  0
SOLID
  5
9E86
330
970A
100
AcDbEntity
  8
寸法引出
 48
15.0
100
AcDbTrace
 10
6850.817919168723
 20
4415.428199705158
 30
0.0
 11
6858.317919168723
 21
4415.428199705158
 31
0.0
 12
6854.567919168722
 22
4437.928199705158
 32
0.0
 13
6854.567919168722
 23
4437.928199705158
 33
0.0
  0
MTEXT
  5
9E87
330
970A
100
AcDbEntity
  8
寸法引出
 48
15.0
100
AcDbMText
 10
6824.567919168723
 20
4362.92819970516
 30
0.0
 40
30.0
 41
0.0
 71
     5
 72
     1
  1
\A1;150
  7
SANWA
 11
0.0000000000000001
 21
1.0
 31
0.0
 73
     1
 44
1.0
1001
ACAD
1000
MTEXTBEGIN
1070
    73
1070
     1
1070
    44
1040
1.0
1070
    74
1070
     0
1000
MTEXTEND
  0
POINT
  5
9E88
330
970A
100
AcDbEntity
  8
DEFPOINTS
 62
     0
 48
15.0
100
AcDbPoint
 10
6655.599284128328
 20
4287.928199705159
 30
0.0
  0
POINT
  5
9E89
330
970A
100
AcDbEntity
  8
DEFPOINTS
 62
     0
 48
15.0
100
AcDbPoint
 10
6655.599284128328
 20
4437.928199705158
 30
0.0
  0
POINT
  5
9E8A
330
970A
100
AcDbEntity
  8
DEFPOINTS
 62
     0
 48
15.0
100
AcDbPoint
 10
6854.567919168722
 20
4437.928199705158
 30
0.0
  0
ENDBLK
  5
9714
330
970A
100
AcDbEntity
  8
0
 48
15.0
100
AcDbBlockEnd
  0
BLOCK
  5
971F
330
9715
100
AcDbEntity
  8
0
 48
15.0
100
AcDbBlockBegin
  2
*D267
 70
     1
 10
0.0
 20
0.0
 30
0.0
  3
*D267
  1

  0
LINE
  5
9E8B
330
9715
100
AcDbEntity
  8
寸法引出
 48
15.0
370
    -2
100
AcDbLine
 10
6035.599284128328
 20
5242.928199705159
 30
0.0
 11
6035.599284128328
 21
5386.383483422862
 31
0.0
  0
LINE
  5
9E8C
330
9715
100
AcDbEntity
  8
寸法引出
 48
15.0
370
    -2
100
AcDbLine
 10
6655.599284128328
 20
5242.928199705159
 30
0.0
 11
6655.599284128328
 21
5386.383483422862
 31
0.0
  0
LINE
  5
9E8D
330
9715
100
AcDbEntity
  8
寸法引出
 48
15.0
370
    -2
100
AcDbLine
 10
6058.099284128328
 20
5378.883483422862
 30
0.0
 11
6633.099284128327
 21
5378.883483422862
 31
0.0
  0
SOLID
  5
9E8E
330
9715
100
AcDbEntity
  8
寸法引出
 48
15.0
100
AcDbTrace
 10
6058.099284128328
 20
5382.633483422861
 30
0.0
 11
6058.099284128328
 21
5375.133483422862
 31
0.0
 12
6035.599284128328
 22
5378.883483422862
 32
0.0
 13
6035.599284128328
 23
5378.883483422862
 33
0.0
  0
SOLID
  5
9E8F
330
9715
100
AcDbEntity
  8
寸法引出
 48
15.0
100
AcDbTrace
 10
6633.099284128327
 20
5382.633483422861
 30
0.0
 11
6633.099284128327
 21
5375.133483422862
 31
0.0
 12
6655.599284128328
 22
5378.883483422862
 32
0.0
 13
6655.599284128328
 23
5378.883483422862
 33
0.0
  0
MTEXT
  5
9E90
330
9715
100
AcDbEntity
  8
寸法引出
 48
15.0
100
AcDbMText
 10
6345.599284128327
 20
5408.883483422862
 30
0.0
 40
30.0
 41
0.0
 71
     5
 72
     1
  1
\A1;620
  7
SANWA
 73
     1
 44
1.0
1001
ACAD
1000
MTEXTBEGIN
1070
    73
1070
     1
1070
    44
1040
1.0
1070
    74
1070
     0
1000
MTEXTEND
  0
POINT
  5
9E91
330
9715
100
AcDbEntity
  8
DEFPOINTS
 62
     0
 48
15.0
100
AcDbPoint
 10
6035.599284128328
 20
5227.928199705158
 30
0.0
  0
POINT
  5
9E92
330
9715
100
AcDbEntity
  8
DEFPOINTS
 62
     0
 48
15.0
100
AcDbPoint
 10
6655.599284128328
 20
5227.928199705158
 30
0.0
  0
POINT
  5
9E93
330
9715
100
AcDbEntity
  8
DEFPOINTS
 62
     0
 48
15.0
100
AcDbPoint
 10
6655.599284128328
 20
5378.883483422862
 30
0.0
  0
ENDBLK
  5
9720
330
9715
100
AcDbEntity
  8
0
 48
15.0
100
AcDbBlockEnd
  0
BLOCK
  5
972A
330
9721
100
AcDbEntity
  8
0
 48
15.0
100
AcDbBlockBegin
  2
*D268
 70
     1
 10
0.0
 20
0.0
 30
0.0
  3
*D268
  1

  0
LINE
  5
9E94
330
9721
100
AcDbEntity
  8
寸法引出
 48
15.0
370
    -2
100
AcDbLine
 10
6263.099284128328
 20
5242.928199705159
 30
0.0
 11
6263.099284128328
 21
5321.93591180387
 31
0.0
  0
LINE
  5
9E95
330
9721
100
AcDbEntity
  8
寸法引出
 48
15.0
370
    -2
100
AcDbLine
 10
6141.099284128329
 20
5314.43591180387
 30
0.0
 11
6240.599284128328
 21
5314.43591180387
 31
0.0
  0
SOLID
  5
9E96
330
9721
100
AcDbEntity
  8
寸法引出
 48
15.0
100
AcDbTrace
 10
6141.099284128329
 20
5318.18591180387
 30
0.0
 11
6141.099284128329
 21
5310.68591180387
 31
0.0
 12
6118.599284128329
 22
5314.43591180387
 32
0.0
 13
6118.599284128329
 23
5314.43591180387
 33
0.0
  0
SOLID
  5
9E97
330
9721
100
AcDbEntity
  8
寸法引出
 48
15.0
100
AcDbTrace
 10
6240.599284128328
 20
5318.18591180387
 30
0.0
 11
6240.599284128328
 21
5310.68591180387
 31
0.0
 12
6263.099284128328
 22
5314.43591180387
 32
0.0
 13
6263.099284128328
 23
5314.43591180387
 33
0.0
  0
MTEXT
  5
9E98
330
9721
100
AcDbEntity
  8
寸法引出
 48
15.0
100
AcDbMText
 10
6190.849284128328
 20
5344.43591180387
 30
0.0
 40
30.0
 41
0.0
 71
     5
 72
     1
  1
\A1;144.5
  7
SANWA
 73
     1
 44
1.0
1001
ACAD
1000
MTEXTBEGIN
1070
    73
1070
     1
1070
    44
1040
1.0
1070
    74
1070
     0
1000
MTEXTEND
  0
POINT
  5
9E99
330
9721
100
AcDbEntity
  8
DEFPOINTS
 62
     0
 48
15.0
100
AcDbPoint
 10
6118.599284128329
 20
5227.928199705158
 30
0.0
  0
POINT
  5
9E9A
330
9721
100
AcDbEntity
  8
DEFPOINTS
 62
     0
 48
15.0
100
AcDbPoint
 10
6263.099284128328
 20
5227.928199705158
 30
0.0
  0
POINT
  5
9E9B
330
9721
100
AcDbEntity
  8
DEFPOINTS
 62
     0
 48
15.0
100
AcDbPoint
 10
6263.099284128328
 20
5314.43591180387
 30
0.0
  0
ENDBLK
  5
972B
330
9721
100
AcDbEntity
  8
0
 48
15.0
100
AcDbBlockEnd
  0
BLOCK
  5
9736
330
972C
100
AcDbEntity
  8
0
 48
15.0
100
AcDbBlockBegin
  2
*D269
 70
     1
 10
0.0
 20
0.0
 30
0.0
  3
*D269
  1

  0
LINE
  5
9E9C
330
972C
100
AcDbEntity
  8
寸法引出
 48
15.0
370
    -2
100
AcDbLine
 10
6035.599284128328
 20
5242.928199705159
 30
0.0
 11
6035.599284128328
 21
5321.93591180387
 31
0.0
  0
LINE
  5
9E9D
330
972C
100
AcDbEntity
  8
寸法引出
 48
15.0
370
    -2
100
AcDbLine
 10
6118.599284128329
 20
5242.928199705159
 30
0.0
 11
6118.599284128329
 21
5321.93591180387
 31
0.0
  0
LINE
  5
9E9E
330
972C
100
AcDbEntity
  8
寸法引出
 48
15.0
370
    -2
100
AcDbLine
 10
6058.099284128328
 20
5314.43591180387
 30
0.0
 11
6096.099284128328
 21
5314.43591180387
 31
0.0
  0
SOLID
  5
9E9F
330
972C
100
AcDbEntity
  8
寸法引出
 48
15.0
100
AcDbTrace
 10
6058.099284128328
 20
5318.18591180387
 30
0.0
 11
6058.099284128328
 21
5310.68591180387
 31
0.0
 12
6035.599284128328
 22
5314.43591180387
 32
0.0
 13
6035.599284128328
 23
5314.43591180387
 33
0.0
  0
SOLID
  5
9EA0
330
972C
100
AcDbEntity
  8
寸法引出
 48
15.0
100
AcDbTrace
 10
6096.099284128328
 20
5318.18591180387
 30
0.0
 11
6096.099284128328
 21
5310.68591180387
 31
0.0
 12
6118.599284128329
 22
5314.43591180387
 32
0.0
 13
6118.599284128329
 23
5314.43591180387
 33
0.0
  0
MTEXT
  5
9EA1
330
972C
100
AcDbEntity
  8
寸法引出
 48
15.0
100
AcDbMText
 10
6077.099284128328
 20
5344.43591180387
 30
0.0
 40
30.0
 41
0.0
 71
     5
 72
     1
  1
\A1;83
  7
SANWA
 73
     1
 44
1.0
1001
ACAD
1000
MTEXTBEGIN
1070
    73
1070
     1
1070
    44
1040
1.0
1070
    74
1070
     0
1000
MTEXTEND
  0
POINT
  5
9EA2
330
972C
100
AcDbEntity
  8
DEFPOINTS
 62
     0
 48
15.0
100
AcDbPoint
 10
6035.599284128328
 20
5227.928199705158
 30
0.0
  0
POINT
  5
9EA3
330
972C
100
AcDbEntity
  8
DEFPOINTS
 62
     0
 48
15.0
100
AcDbPoint
 10
6118.599284128329
 20
5227.928199705158
 30
0.0
  0
POINT
  5
9EA4
330
972C
100
AcDbEntity
  8
DEFPOINTS
 62
     0
 48
15.0
100
AcDbPoint
 10
6118.599284128329
 20
5314.43591180387
 30
0.0
  0
ENDBLK
  5
9737
330
972C
100
AcDbEntity
  8
0
 48
15.0
100
AcDbBlockEnd
  0
BLOCK
  5
9741
330
9738
100
AcDbEntity
  8
0
 48
15.0
100
AcDbBlockBegin
  2
*D270
 70
     1
 10
0.0
 20
0.0
 30
0.0
  3
*D270
  1

  0
LINE
  5
9EA5
330
9738
100
AcDbEntity
  8
寸法引出
 48
15.0
370
    -2
100
AcDbLine
 10
6655.599284128328
 20
5242.928199705159
 30
0.0
 11
6655.599284128328
 21
5321.93591180387
 31
0.0
  0
LINE
  5
9EA6
330
9738
100
AcDbEntity
  8
寸法引出
 48
15.0
370
    -2
100
AcDbLine
 10
6595.09928412833
 20
5314.43591180387
 30
0.0
 11
6633.099284128327
 21
5314.43591180387
 31
0.0
  0
SOLID
  5
9EA7
330
9738
100
AcDbEntity
  8
寸法引出
 48
15.0
100
AcDbTrace
 10
6595.09928412833
 20
5318.18591180387
 30
0.0
 11
6595.09928412833
 21
5310.68591180387
 31
0.0
 12
6572.59928412833
 22
5314.43591180387
 32
0.0
 13
6572.59928412833
 23
5314.43591180387
 33
0.0
  0
SOLID
  5
9EA8
330
9738
100
AcDbEntity
  8
寸法引出
 48
15.0
100
AcDbTrace
 10
6633.099284128327
 20
5318.18591180387
 30
0.0
 11
6633.099284128327
 21
5310.68591180387
 31
0.0
 12
6655.599284128328
 22
5314.43591180387
 32
0.0
 13
6655.599284128328
 23
5314.43591180387
 33
0.0
  0
MTEXT
  5
9EA9
330
9738
100
AcDbEntity
  8
寸法引出
 48
15.0
100
AcDbMText
 10
6614.099284128329
 20
5344.43591180387
 30
0.0
 40
30.0
 41
0.0
 71
     5
 72
     1
  1
\A1;83
  7
SANWA
 73
     1
 44
1.0
1001
ACAD
1000
MTEXTBEGIN
1070
    73
1070
     1
1070
    44
1040
1.0
1070
    74
1070
     0
1000
MTEXTEND
  0
POINT
  5
9EAA
330
9738
100
AcDbEntity
  8
DEFPOINTS
 62
     0
 48
15.0
100
AcDbPoint
 10
6572.59928412833
 20
5227.928199705158
 30
0.0
  0
POINT
  5
9EAB
330
9738
100
AcDbEntity
  8
DEFPOINTS
 62
     0
 48
15.0
100
AcDbPoint
 10
6655.599284128328
 20
5227.928199705158
 30
0.0
  0
POINT
  5
9EAC
330
9738
100
AcDbEntity
  8
DEFPOINTS
 62
     0
 48
15.0
100
AcDbPoint
 10
6655.599284128328
 20
5314.43591180387
 30
0.0
  0
ENDBLK
  5
9742
330
9738
100
AcDbEntity
  8
0
 48
15.0
100
AcDbBlockEnd
  0
BLOCK
  5
974C
330
9743
100
AcDbEntity
  8
0
 48
15.0
100
AcDbBlockBegin
  2
*D271
 70
     1
 10
0.0
 20
0.0
 30
0.0
  3
*D271
  1

  0
LINE
  5
9EAD
330
9743
100
AcDbEntity
  8
寸法引出
 48
15.0
370
    -2
100
AcDbLine
 10
6572.59928412833
 20
5242.928199705159
 30
0.0
 11
6572.59928412833
 21
5321.93591180387
 31
0.0
  0
LINE
  5
9EAE
330
9743
100
AcDbEntity
  8
寸法引出
 48
15.0
370
    -2
100
AcDbLine
 10
6450.59928412833
 20
5314.43591180387
 30
0.0
 11
6550.099284128329
 21
5314.43591180387
 31
0.0
  0
SOLID
  5
9EAF
330
9743
100
AcDbEntity
  8
寸法引出
 48
15.0
100
AcDbTrace
 10
6450.59928412833
 20
5318.18591180387
 30
0.0
 11
6450.59928412833
 21
5310.68591180387
 31
0.0
 12
6428.099284128329
 22
5314.43591180387
 32
0.0
 13
6428.099284128329
 23
5314.43591180387
 33
0.0
  0
SOLID
  5
9EB0
330
9743
100
AcDbEntity
  8
寸法引出
 48
15.0
100
AcDbTrace
 10
6550.099284128329
 20
5318.18591180387
 30
0.0
 11
6550.099284128329
 21
5310.68591180387
 31
0.0
 12
6572.59928412833
 22
5314.43591180387
 32
0.0
 13
6572.59928412833
 23
5314.43591180387
 33
0.0
  0
MTEXT
  5
9EB1
330
9743
100
AcDbEntity
  8
寸法引出
 48
15.0
100
AcDbMText
 10
6500.34928412833
 20
5344.43591180387
 30
0.0
 40
30.0
 41
0.0
 71
     5
 72
     1
  1
\A1;144.5
  7
SANWA
 73
     1
 44
1.0
1001
ACAD
1000
MTEXTBEGIN
1070
    73
1070
     1
1070
    44
1040
1.0
1070
    74
1070
     0
1000
MTEXTEND
  0
POINT
  5
9EB2
330
9743
100
AcDbEntity
  8
DEFPOINTS
 62
     0
 48
15.0
100
AcDbPoint
 10
6428.099284128329
 20
5227.928199705158
 30
0.0
  0
POINT
  5
9EB3
330
9743
100
AcDbEntity
  8
DEFPOINTS
 62
     0
 48
15.0
100
AcDbPoint
 10
6572.59928412833
 20
5227.928199705158
 30
0.0
  0
POINT
  5
9EB4
330
9743
100
AcDbEntity
  8
DEFPOINTS
 62
     0
 48
15.0
100
AcDbPoint
 10
6572.59928412833
 20
5314.43591180387
 30
0.0
  0
ENDBLK
  5
974D
330
9743
100
AcDbEntity
  8
0
 48
15.0
100
AcDbBlockEnd
  0
BLOCK
  5
9758
330
974E
100
AcDbEntity
  8
0
 48
15.0
100
AcDbBlockBegin
  2
*D272
 70
     1
 10
0.0
 20
0.0
 30
0.0
  3
*D272
  1

  0
LINE
  5
9EB5
330
974E
100
AcDbEntity
  8
寸法引出
 48
15.0
370
    -2
100
AcDbLine
 10
6263.099284128328
 20
5242.928199705159
 30
0.0
 11
6263.099284128328
 21
5321.93591180387
 31
0.0
  0
LINE
  5
9EB6
330
974E
100
AcDbEntity
  8
寸法引出
 48
15.0
370
    -2
100
AcDbLine
 10
6428.099284128329
 20
5242.928199705159
 30
0.0
 11
6428.099284128329
 21
5321.93591180387
 31
0.0
  0
LINE
  5
9EB7
330
974E
100
AcDbEntity
  8
寸法引出
 48
15.0
370
    -2
100
AcDbLine
 10
6285.599284128328
 20
5314.43591180387
 30
0.0
 11
6405.59928412833
 21
5314.43591180387
 31
0.0
  0
SOLID
  5
9EB8
330
974E
100
AcDbEntity
  8
寸法引出
 48
15.0
100
AcDbTrace
 10
6285.599284128328
 20
5318.18591180387
 30
0.0
 11
6285.599284128328
 21
5310.68591180387
 31
0.0
 12
6263.099284128328
 22
5314.43591180387
 32
0.0
 13
6263.099284128328
 23
5314.43591180387
 33
0.0
  0
SOLID
  5
9EB9
330
974E
100
AcDbEntity
  8
寸法引出
 48
15.0
100
AcDbTrace
 10
6405.59928412833
 20
5318.18591180387
 30
0.0
 11
6405.59928412833
 21
5310.68591180387
 31
0.0
 12
6428.099284128329
 22
5314.43591180387
 32
0.0
 13
6428.099284128329
 23
5314.43591180387
 33
0.0
  0
MTEXT
  5
9EBA
330
974E
100
AcDbEntity
  8
寸法引出
 48
15.0
100
AcDbMText
 10
6345.599284128329
 20
5344.43591180387
 30
0.0
 40
30.0
 41
0.0
 71
     5
 72
     1
  1
\A1;165
  7
SANWA
 73
     1
 44
1.0
1001
ACAD
1000
MTEXTBEGIN
1070
    73
1070
     1
1070
    44
1040
1.0
1070
    74
1070
     0
1000
MTEXTEND
  0
POINT
  5
9EBB
330
974E
100
AcDbEntity
  8
DEFPOINTS
 62
     0
 48
15.0
100
AcDbPoint
 10
6263.099284128328
 20
5227.928199705158
 30
0.0
  0
POINT
  5
9EBC
330
974E
100
AcDbEntity
  8
DEFPOINTS
 62
     0
 48
15.0
100
AcDbPoint
 10
6428.099284128329
 20
5227.928199705158
 30
0.0
  0
POINT
  5
9EBD
330
974E
100
AcDbEntity
  8
DEFPOINTS
 62
     0
 48
15.0
100
AcDbPoint
 10
6428.099284128329
 20
5314.43591180387
 30
0.0
  0
ENDBLK
  5
9759
330
974E
100
AcDbEntity
  8
0
 48
15.0
100
AcDbBlockEnd
  0
BLOCK
  5
9765
330
975A
100
AcDbEntity
  8
0
 48
15.0
100
AcDbBlockBegin
  2
*D273
 70
     1
 10
0.0
 20
0.0
 30
0.0
  3
*D273
  1

  0
LINE
  5
9EBE
330
975A
100
AcDbEntity
  8
寸法引出
 48
15.0
370
    -2
100
AcDbLine
 10
6670.599284128328
 20
5227.928199705158
 30
0.0
 11
6862.067919168723
 21
5227.928199705158
 31
0.0
  0
LINE
  5
9EBF
330
975A
100
AcDbEntity
  8
寸法引出
 48
15.0
370
    -2
100
AcDbLine
 10
6854.567919168722
 20
5145.428199705158
 30
0.0
 11
6854.567919168722
 21
5122.928199705159
 31
0.0
  0
LINE
  5
9EC0
330
975A
100
AcDbEntity
  8
寸法引出
 48
15.0
370
    -2
100
AcDbLine
 10
6854.567919168722
 20
5250.428199705158
 30
0.0
 11
6854.567919168722
 21
5272.928199705159
 31
0.0
  0
LINE
  5
9EC1
330
975A
100
AcDbEntity
  8
寸法引出
 48
15.0
370
    -2
100
AcDbLine
 10
6854.567919168722
 20
5167.928199705158
 30
0.0
 11
6854.567919168722
 21
5227.928199705158
 31
0.0
  0
SOLID
  5
9EC2
330
975A
100
AcDbEntity
  8
寸法引出
 48
15.0
100
AcDbTrace
 10
6850.817919168723
 20
5145.428199705158
 30
0.0
 11
6858.317919168723
 21
5145.428199705158
 31
0.0
 12
6854.567919168722
 22
5167.928199705158
 32
0.0
 13
6854.567919168722
 23
5167.928199705158
 33
0.0
  0
SOLID
  5
9EC3
330
975A
100
AcDbEntity
  8
寸法引出
 48
15.0
100
AcDbTrace
 10
6850.817919168723
 20
5250.428199705158
 30
0.0
 11
6858.317919168723
 21
5250.428199705158
 31
0.0
 12
6854.567919168722
 22
5227.928199705158
 32
0.0
 13
6854.567919168722
 23
5227.928199705158
 33
0.0
  0
MTEXT
  5
9EC4
330
975A
100
AcDbEntity
  8
寸法引出
 48
15.0
100
AcDbMText
 10
6824.567919168723
 20
5197.92819970516
 30
0.0
 40
30.0
 41
0.0
 71
     5
 72
     1
  1
\A1;60
  7
SANWA
 11
0.0000000000000001
 21
1.0
 31
0.0
 73
     1
 44
1.0
1001
ACAD
1000
MTEXTBEGIN
1070
    73
1070
     1
1070
    44
1040
1.0
1070
    74
1070
     0
1000
MTEXTEND
  0
POINT
  5
9EC5
330
975A
100
AcDbEntity
  8
DEFPOINTS
 62
     0
 48
15.0
100
AcDbPoint
 10
6655.599284128328
 20
5167.928199705158
 30
0.0
  0
POINT
  5
9EC6
330
975A
100
AcDbEntity
  8
DEFPOINTS
 62
     0
 48
15.0
100
AcDbPoint
 10
6655.599284128328
 20
5227.928199705158
 30
0.0
  0
POINT
  5
9EC7
330
975A
100
AcDbEntity
  8
DEFPOINTS
 62
     0
 48
15.0
100
AcDbPoint
 10
6854.567919168722
 20
5227.928199705158
 30
0.0
  0
ENDBLK
  5
9766
330
975A
100
AcDbEntity
  8
0
 48
15.0
100
AcDbBlockEnd
  0
BLOCK
  5
9770
330
9767
100
AcDbEntity
  8
0
 48
15.0
100
AcDbBlockBegin
  2
*D274
 70
     1
 10
0.0
 20
0.0
 30
0.0
  3
*D274
  1

  0
LINE
  5
9EC8
330
9767
100
AcDbEntity
  8
寸法引出
 48
15.0
370
    -2
100
AcDbLine
 10
6670.599284128328
 20
5167.928199705158
 30
0.0
 11
6862.067919168723
 21
5167.928199705158
 31
0.0
  0
LINE
  5
9EC9
330
9767
100
AcDbEntity
  8
寸法引出
 48
15.0
370
    -2
100
AcDbLine
 10
6854.567919168722
 20
5040.428199705158
 30
0.0
 11
6854.567919168722
 21
5145.428199705158
 31
0.0
  0
SOLID
  5
9ECA
330
9767
100
AcDbEntity
  8
寸法引出
 48
15.0
100
AcDbTrace
 10
6850.817919168723
 20
5040.428199705158
 30
0.0
 11
6858.317919168723
 21
5040.428199705158
 31
0.0
 12
6854.567919168722
 22
5017.928199705159
 32
0.0
 13
6854.567919168722
 23
5017.928199705159
 33
0.0
  0
SOLID
  5
9ECB
330
9767
100
AcDbEntity
  8
寸法引出
 48
15.0
100
AcDbTrace
 10
6850.817919168723
 20
5145.428199705158
 30
0.0
 11
6858.317919168723
 21
5145.428199705158
 31
0.0
 12
6854.567919168722
 22
5167.928199705158
 32
0.0
 13
6854.567919168722
 23
5167.928199705158
 33
0.0
  0
MTEXT
  5
9ECC
330
9767
100
AcDbEntity
  8
寸法引出
 48
15.0
100
AcDbMText
 10
6824.567919168723
 20
5092.92819970516
 30
0.0
 40
30.0
 41
0.0
 71
     5
 72
     1
  1
\A1;150
  7
SANWA
 11
0.0000000000000001
 21
1.0
 31
0.0
 73
     1
 44
1.0
1001
ACAD
1000
MTEXTBEGIN
1070
    73
1070
     1
1070
    44
1040
1.0
1070
    74
1070
     0
1000
MTEXTEND
  0
POINT
  5
9ECD
330
9767
100
AcDbEntity
  8
DEFPOINTS
 62
     0
 48
15.0
100
AcDbPoint
 10
6655.599284128328
 20
5017.928199705159
 30
0.0
  0
POINT
  5
9ECE
330
9767
100
AcDbEntity
  8
DEFPOINTS
 62
     0
 48
15.0
100
AcDbPoint
 10
6655.599284128328
 20
5167.928199705158
 30
0.0
  0
POINT
  5
9ECF
330
9767
100
AcDbEntity
  8
DEFPOINTS
 62
     0
 48
15.0
100
AcDbPoint
 10
6854.567919168722
 20
5167.928199705158
 30
0.0
  0
ENDBLK
  5
9771
330
9767
100
AcDbEntity
  8
0
 48
15.0
100
AcDbBlockEnd
  0
BLOCK
  5
977C
330
9772
100
AcDbEntity
  8
0
 48
15.0
100
AcDbBlockBegin
  2
*D275
 70
     1
 10
0.0
 20
0.0
 30
0.0
  3
*D275
  1

  0
LINE
  5
9ED0
330
9772
100
AcDbEntity
  8
寸法引出
 48
15.0
370
    -2
100
AcDbLine
 10
6035.599284128328
 20
5672.419684267353
 30
0.0
 11
6035.599284128328
 21
5586.035034312939
 31
0.0
  0
LINE
  5
9ED1
330
9772
100
AcDbEntity
  8
寸法引出
 48
15.0
370
    -2
100
AcDbLine
 10
6263.099284128328
 20
5672.419684267353
 30
0.0
 11
6263.099284128328
 21
5586.035034312939
 31
0.0
  0
LINE
  5
9ED2
330
9772
100
AcDbEntity
  8
寸法引出
 48
15.0
370
    -2
100
AcDbLine
 10
6058.099284128328
 20
5593.535034312939
 30
0.0
 11
6240.599284128328
 21
5593.535034312939
 31
0.0
  0
SOLID
  5
9ED3
330
9772
100
AcDbEntity
  8
寸法引出
 48
15.0
100
AcDbTrace
 10
6058.099284128328
 20
5597.285034312939
 30
0.0
 11
6058.099284128328
 21
5589.785034312939
 31
0.0
 12
6035.599284128328
 22
5593.535034312939
 32
0.0
 13
6035.599284128328
 23
5593.535034312939
 33
0.0
  0
SOLID
  5
9ED4
330
9772
100
AcDbEntity
  8
寸法引出
 48
15.0
100
AcDbTrace
 10
6240.599284128328
 20
5597.285034312939
 30
0.0
 11
6240.599284128328
 21
5589.785034312939
 31
0.0
 12
6263.099284128328
 22
5593.535034312939
 32
0.0
 13
6263.099284128328
 23
5593.535034312939
 33
0.0
  0
MTEXT
  5
9ED5
330
9772
100
AcDbEntity
  8
寸法引出
 48
15.0
100
AcDbMText
 10
6149.349284128327
 20
5623.53503431294
 30
0.0
 40
30.0
 41
0.0
 71
     5
 72
     1
  1
\A1;227.5
  7
SANWA
 73
     1
 44
1.0
1001
ACAD
1000
MTEXTBEGIN
1070
    73
1070
     1
1070
    44
1040
1.0
1070
    74
1070
     0
1000
MTEXTEND
  0
POINT
  5
9ED6
330
9772
100
AcDbEntity
  8
DEFPOINTS
 62
     0
 48
15.0
100
AcDbPoint
 10
6035.599284128328
 20
5687.419684267354
 30
0.0
  0
POINT
  5
9ED7
330
9772
100
AcDbEntity
  8
DEFPOINTS
 62
     0
 48
15.0
100
AcDbPoint
 10
6263.099284128328
 20
5687.419684267354
 30
0.0
  0
POINT
  5
9ED8
330
9772
100
AcDbEntity
  8
DEFPOINTS
 62
     0
 48
15.0
100
AcDbPoint
 10
6263.099284128328
 20
5593.535034312939
 30
0.0
  0
ENDBLK
  5
977D
330
9772
100
AcDbEntity
  8
0
 48
15.0
100
AcDbBlockEnd
  0
BLOCK
  5
9788
330
977E
100
AcDbEntity
  8
0
 48
15.0
100
AcDbBlockBegin
  2
*D276
 70
     1
 10
0.0
 20
0.0
 30
0.0
  3
*D276
  1

  0
LINE
  5
9ED9
330
977E
100
AcDbEntity
  8
寸法引出
 48
15.0
370
    -2
100
AcDbLine
 10
6035.599284128328
 20
5839.419684267354
 30
0.0
 11
6035.599284128328
 21
5975.958594801035
 31
0.0
  0
LINE
  5
9EDA
330
977E
100
AcDbEntity
  8
寸法引出
 48
15.0
370
    -2
100
AcDbLine
 10
6655.599284128328
 20
5839.419684267354
 30
0.0
 11
6655.599284128328
 21
5975.958594801035
 31
0.0
  0
LINE
  5
9EDB
330
977E
100
AcDbEntity
  8
寸法引出
 48
15.0
370
    -2
100
AcDbLine
 10
6058.099284128328
 20
5968.458594801035
 30
0.0
 11
6633.099284128327
 21
5968.458594801035
 31
0.0
  0
SOLID
  5
9EDC
330
977E
100
AcDbEntity
  8
寸法引出
 48
15.0
100
AcDbTrace
 10
6058.099284128328
 20
5972.208594801035
 30
0.0
 11
6058.099284128328
 21
5964.708594801035
 31
0.0
 12
6035.599284128328
 22
5968.458594801035
 32
0.0
 13
6035.599284128328
 23
5968.458594801035
 33
0.0
  0
SOLID
  5
9EDD
330
977E
100
AcDbEntity
  8
寸法引出
 48
15.0
100
AcDbTrace
 10
6633.099284128327
 20
5972.208594801035
 30
0.0
 11
6633.099284128327
 21
5964.708594801035
 31
0.0
 12
6655.599284128328
 22
5968.458594801035
 32
0.0
 13
6655.599284128328
 23
5968.458594801035
 33
0.0
  0
MTEXT
  5
9EDE
330
977E
100
AcDbEntity
  8
寸法引出
 48
15.0
100
AcDbMText
 10
6345.599284128327
 20
5998.458594801036
 30
0.0
 40
30.0
 41
0.0
 71
     5
 72
     1
  1
\A1;620
  7
SANWA
 73
     1
 44
1.0
1001
ACAD
1000
MTEXTBEGIN
1070
    73
1070
     1
1070
    44
1040
1.0
1070
    74
1070
     0
1000
MTEXTEND
  0
POINT
  5
9EDF
330
977E
100
AcDbEntity
  8
DEFPOINTS
 62
     0
 48
15.0
100
AcDbPoint
 10
6035.599284128328
 20
5824.419684267354
 30
0.0
  0
POINT
  5
9EE0
330
977E
100
AcDbEntity
  8
DEFPOINTS
 62
     0
 48
15.0
100
AcDbPoint
 10
6655.599284128328
 20
5824.419684267354
 30
0.0
  0
POINT
  5
9EE1
330
977E
100
AcDbEntity
  8
DEFPOINTS
 62
     0
 48
15.0
100
AcDbPoint
 10
6655.599284128328
 20
5968.458594801035
 30
0.0
  0
ENDBLK
  5
9789
330
977E
100
AcDbEntity
  8
0
 48
15.0
100
AcDbBlockEnd
  0
BLOCK
  5
9793
330
978A
100
AcDbEntity
  8
0
 48
15.0
100
AcDbBlockBegin
  2
*D277
 70
     1
 10
0.0
 20
0.0
 30
0.0
  3
*D277
  1

  0
LINE
  5
9EE2
330
978A
100
AcDbEntity
  8
寸法引出
 48
15.0
370
    -2
100
AcDbLine
 10
6572.599284128327
 20
5834.334999582669
 30
0.0
 11
6572.599284128327
 21
5921.981248457043
 31
0.0
  0
LINE
  5
9EE3
330
978A
100
AcDbEntity
  8
寸法引出
 48
15.0
370
    -2
100
AcDbLine
 10
6141.099284128328
 20
5914.481248457043
 30
0.0
 11
6550.099284128328
 21
5914.481248457043
 31
0.0
  0
SOLID
  5
9EE4
330
978A
100
AcDbEntity
  8
寸法引出
 48
15.0
100
AcDbTrace
 10
6141.099284128328
 20
5918.231248457043
 30
0.0
 11
6141.099284128328
 21
5910.731248457043
 31
0.0
 12
6118.599284128328
 22
5914.481248457043
 32
0.0
 13
6118.599284128328
 23
5914.481248457043
 33
0.0
  0
SOLID
  5
9EE5
330
978A
100
AcDbEntity
  8
寸法引出
 48
15.0
100
AcDbTrace
 10
6550.099284128328
 20
5918.231248457043
 30
0.0
 11
6550.099284128328
 21
5910.731248457043
 31
0.0
 12
6572.599284128327
 22
5914.481248457043
 32
0.0
 13
6572.599284128327
 23
5914.481248457043
 33
0.0
  0
MTEXT
  5
9EE6
330
978A
100
AcDbEntity
  8
寸法引出
 48
15.0
100
AcDbMText
 10
6345.599284128327
 20
5944.481248457043
 30
0.0
 40
30.0
 41
0.0
 71
     5
 72
     1
  1
\A1;454
  7
SANWA
 73
     1
 44
1.0
1001
ACAD
1000
MTEXTBEGIN
1070
    73
1070
     1
1070
    44
1040
1.0
1070
    74
1070
     0
1000
MTEXTEND
  0
POINT
  5
9EE7
330
978A
100
AcDbEntity
  8
DEFPOINTS
 62
     0
 48
15.0
100
AcDbPoint
 10
6118.599284128328
 20
5819.334999582668
 30
0.0
  0
POINT
  5
9EE8
330
978A
100
AcDbEntity
  8
DEFPOINTS
 62
     0
 48
15.0
100
AcDbPoint
 10
6572.599284128327
 20
5819.334999582668
 30
0.0
  0
POINT
  5
9EE9
330
978A
100
AcDbEntity
  8
DEFPOINTS
 62
     0
 48
15.0
100
AcDbPoint
 10
6572.599284128327
 20
5914.481248457043
 30
0.0
  0
ENDBLK
  5
9794
330
978A
100
AcDbEntity
  8
0
 48
15.0
100
AcDbBlockEnd
  0
BLOCK
  5
979F
330
9795
100
AcDbEntity
  8
0
 48
15.0
100
AcDbBlockBegin
  2
*D278
 70
     1
 10
0.0
 20
0.0
 30
0.0
  3
*D278
  1

  0
LINE
  5
9EEA
330
9795
100
AcDbEntity
  8
寸法引出
 48
15.0
370
    -2
100
AcDbLine
 10
6035.599284128328
 20
5839.419684267354
 30
0.0
 11
6035.599284128328
 21
5921.981248457043
 31
0.0
  0
LINE
  5
9EEB
330
9795
100
AcDbEntity
  8
寸法引出
 48
15.0
370
    -2
100
AcDbLine
 10
6118.599284128328
 20
5834.334999582669
 30
0.0
 11
6118.599284128328
 21
5921.981248457043
 31
0.0
  0
LINE
  5
9EEC
330
9795
100
AcDbEntity
  8
寸法引出
 48
15.0
370
    -2
100
AcDbLine
 10
6058.099284128328
 20
5914.481248457043
 30
0.0
 11
6096.099284128328
 21
5914.481248457043
 31
0.0
  0
SOLID
  5
9EED
330
9795
100
AcDbEntity
  8
寸法引出
 48
15.0
100
AcDbTrace
 10
6058.099284128328
 20
5918.231248457043
 30
0.0
 11
6058.099284128328
 21
5910.731248457043
 31
0.0
 12
6035.599284128328
 22
5914.481248457043
 32
0.0
 13
6035.599284128328
 23
5914.481248457043
 33
0.0
  0
SOLID
  5
9EEE
330
9795
100
AcDbEntity
  8
寸法引出
 48
15.0
100
AcDbTrace
 10
6096.099284128328
 20
5918.231248457043
 30
0.0
 11
6096.099284128328
 21
5910.731248457043
 31
0.0
 12
6118.599284128328
 22
5914.481248457043
 32
0.0
 13
6118.599284128328
 23
5914.481248457043
 33
0.0
  0
MTEXT
  5
9EEF
330
9795
100
AcDbEntity
  8
寸法引出
 48
15.0
100
AcDbMText
 10
6077.099284128328
 20
5944.481248457043
 30
0.0
 40
30.0
 41
0.0
 71
     5
 72
     1
  1
\A1;83
  7
SANWA
 73
     1
 44
1.0
1001
ACAD
1000
MTEXTBEGIN
1070
    73
1070
     1
1070
    44
1040
1.0
1070
    74
1070
     0
1000
MTEXTEND
  0
POINT
  5
9EF0
330
9795
100
AcDbEntity
  8
DEFPOINTS
 62
     0
 48
15.0
100
AcDbPoint
 10
6035.599284128328
 20
5824.419684267354
 30
0.0
  0
POINT
  5
9EF1
330
9795
100
AcDbEntity
  8
DEFPOINTS
 62
     0
 48
15.0
100
AcDbPoint
 10
6118.599284128328
 20
5819.334999582668
 30
0.0
  0
POINT
  5
9EF2
330
9795
100
AcDbEntity
  8
DEFPOINTS
 62
     0
 48
15.0
100
AcDbPoint
 10
6118.599284128328
 20
5914.481248457043
 30
0.0
  0
ENDBLK
  5
97A0
330
9795
100
AcDbEntity
  8
0
 48
15.0
100
AcDbBlockEnd
  0
BLOCK
  5
97AA
330
97A1
100
AcDbEntity
  8
0
 48
15.0
100
AcDbBlockBegin
  2
*D279
 70
     1
 10
0.0
 20
0.0
 30
0.0
  3
*D279
  1

  0
LINE
  5
9EF3
330
97A1
100
AcDbEntity
  8
寸法引出
 48
15.0
370
    -2
100
AcDbLine
 10
6655.599284128328
 20
5672.419684267353
 30
0.0
 11
6655.599284128328
 21
5586.035034312939
 31
0.0
  0
LINE
  5
9EF4
330
97A1
100
AcDbEntity
  8
寸法引出
 48
15.0
370
    -2
100
AcDbLine
 10
6450.599284128327
 20
5593.535034312939
 30
0.0
 11
6633.099284128327
 21
5593.535034312939
 31
0.0
  0
SOLID
  5
9EF5
330
97A1
100
AcDbEntity
  8
寸法引出
 48
15.0
100
AcDbTrace
 10
6450.599284128327
 20
5597.285034312939
 30
0.0
 11
6450.599284128327
 21
5589.785034312939
 31
0.0
 12
6428.099284128328
 22
5593.535034312939
 32
0.0
 13
6428.099284128328
 23
5593.535034312939
 33
0.0
  0
SOLID
  5
9EF6
330
97A1
100
AcDbEntity
  8
寸法引出
 48
15.0
100
AcDbTrace
 10
6633.099284128327
 20
5597.285034312939
 30
0.0
 11
6633.099284128327
 21
5589.785034312939
 31
0.0
 12
6655.599284128328
 22
5593.535034312939
 32
0.0
 13
6655.599284128328
 23
5593.535034312939
 33
0.0
  0
MTEXT
  5
9EF7
330
97A1
100
AcDbEntity
  8
寸法引出
 48
15.0
100
AcDbMText
 10
6541.849284128328
 20
5623.53503431294
 30
0.0
 40
30.0
 41
0.0
 71
     5
 72
     1
  1
\A1;227.5
  7
SANWA
 73
     1
 44
1.0
1001
ACAD
1000
MTEXTBEGIN
1070
    73
1070
     1
1070
    44
1040
1.0
1070
    74
1070
     0
1000
MTEXTEND
  0
POINT
  5
9EF8
330
97A1
100
AcDbEntity
  8
DEFPOINTS
 62
     0
 48
15.0
100
AcDbPoint
 10
6428.099284128328
 20
5687.419684267354
 30
0.0
  0
POINT
  5
9EF9
330
97A1
100
AcDbEntity
  8
DEFPOINTS
 62
     0
 48
15.0
100
AcDbPoint
 10
6655.599284128328
 20
5687.419684267354
 30
0.0
  0
POINT
  5
9EFA
330
97A1
100
AcDbEntity
  8
DEFPOINTS
 62
     0
 48
15.0
100
AcDbPoint
 10
6655.599284128328
 20
5593.535034312939
 30
0.0
  0
ENDBLK
  5
97AB
330
97A1
100
AcDbEntity
  8
0
 48
15.0
100
AcDbBlockEnd
  0
BLOCK
  5
97B5
330
97AC
100
AcDbEntity
  8
0
 48
15.0
100
AcDbBlockBegin
  2
*D280
 70
     1
 10
0.0
 20
0.0
 30
0.0
  3
*D280
  1

  0
LINE
  5
9EFB
330
97AC
100
AcDbEntity
  8
寸法引出
 48
15.0
370
    -2
100
AcDbLine
 10
6655.599284128328
 20
5839.419684267354
 30
0.0
 11
6655.599284128328
 21
5921.981248457043
 31
0.0
  0
LINE
  5
9EFC
330
97AC
100
AcDbEntity
  8
寸法引出
 48
15.0
370
    -2
100
AcDbLine
 10
6595.099284128328
 20
5914.481248457043
 30
0.0
 11
6633.099284128327
 21
5914.481248457043
 31
0.0
  0
SOLID
  5
9EFD
330
97AC
100
AcDbEntity
  8
寸法引出
 48
15.0
100
AcDbTrace
 10
6595.099284128328
 20
5918.231248457043
 30
0.0
 11
6595.099284128328
 21
5910.731248457043
 31
0.0
 12
6572.599284128327
 22
5914.481248457043
 32
0.0
 13
6572.599284128327
 23
5914.481248457043
 33
0.0
  0
SOLID
  5
9EFE
330
97AC
100
AcDbEntity
  8
寸法引出
 48
15.0
100
AcDbTrace
 10
6633.099284128327
 20
5918.231248457043
 30
0.0
 11
6633.099284128327
 21
5910.731248457043
 31
0.0
 12
6655.599284128328
 22
5914.481248457043
 32
0.0
 13
6655.599284128328
 23
5914.481248457043
 33
0.0
  0
MTEXT
  5
9EFF
330
97AC
100
AcDbEntity
  8
寸法引出
 48
15.0
100
AcDbMText
 10
6614.099284128328
 20
5944.481248457043
 30
0.0
 40
30.0
 41
0.0
 71
     5
 72
     1
  1
\A1;83
  7
SANWA
 73
     1
 44
1.0
1001
ACAD
1000
MTEXTBEGIN
1070
    73
1070
     1
1070
    44
1040
1.0
1070
    74
1070
     0
1000
MTEXTEND
  0
POINT
  5
9F00
330
97AC
100
AcDbEntity
  8
DEFPOINTS
 62
     0
 48
15.0
100
AcDbPoint
 10
6572.599284128327
 20
5819.334999582668
 30
0.0
  0
POINT
  5
9F01
330
97AC
100
AcDbEntity
  8
DEFPOINTS
 62
     0
 48
15.0
100
AcDbPoint
 10
6655.599284128328
 20
5824.419684267354
 30
0.0
  0
POINT
  5
9F02
330
97AC
100
AcDbEntity
  8
DEFPOINTS
 62
     0
 48
15.0
100
AcDbPoint
 10
6655.599284128328
 20
5914.481248457043
 30
0.0
  0
ENDBLK
  5
97B6
330
97AC
100
AcDbEntity
  8
0
 48
15.0
100
AcDbBlockEnd
  0
BLOCK
  5
97C0
330
97B7
100
AcDbEntity
  8
0
 48
15.0
100
AcDbBlockBegin
  2
*D281
 70
     1
 10
0.0
 20
0.0
 30
0.0
  3
*D281
  1

  0
LINE
  5
9F03
330
97B7
100
AcDbEntity
  8
寸法引出
 48
15.0
370
    -2
100
AcDbLine
 10
6428.099284128328
 20
5672.419684267353
 30
0.0
 11
6428.099284128328
 21
5586.035034312939
 31
0.0
  0
LINE
  5
9F04
330
97B7
100
AcDbEntity
  8
寸法引出
 48
15.0
370
    -2
100
AcDbLine
 10
6285.599284128328
 20
5593.535034312939
 30
0.0
 11
6405.599284128328
 21
5593.535034312939
 31
0.0
  0
SOLID
  5
9F05
330
97B7
100
AcDbEntity
  8
寸法引出
 48
15.0
100
AcDbTrace
 10
6285.599284128328
 20
5597.285034312939
 30
0.0
 11
6285.599284128328
 21
5589.785034312939
 31
0.0
 12
6263.099284128328
 22
5593.535034312939
 32
0.0
 13
6263.099284128328
 23
5593.535034312939
 33
0.0
  0
SOLID
  5
9F06
330
97B7
100
AcDbEntity
  8
寸法引出
 48
15.0
100
AcDbTrace
 10
6405.599284128328
 20
5597.285034312939
 30
0.0
 11
6405.599284128328
 21
5589.785034312939
 31
0.0
 12
6428.099284128328
 22
5593.535034312939
 32
0.0
 13
6428.099284128328
 23
5593.535034312939
 33
0.0
  0
MTEXT
  5
9F07
330
97B7
100
AcDbEntity
  8
寸法引出
 48
15.0
100
AcDbMText
 10
6345.599284128327
 20
5623.53503431294
 30
0.0
 40
30.0
 41
0.0
 71
     5
 72
     1
  1
\A1;165
  7
SANWA
 73
     1
 44
1.0
1001
ACAD
1000
MTEXTBEGIN
1070
    73
1070
     1
1070
    44
1040
1.0
1070
    74
1070
     0
1000
MTEXTEND
  0
POINT
  5
9F08
330
97B7
100
AcDbEntity
  8
DEFPOINTS
 62
     0
 48
15.0
100
AcDbPoint
 10
6263.099284128328
 20
5687.419684267354
 30
0.0
  0
POINT
  5
9F09
330
97B7
100
AcDbEntity
  8
DEFPOINTS
 62
     0
 48
15.0
100
AcDbPoint
 10
6428.099284128328
 20
5687.419684267354
 30
0.0
  0
POINT
  5
9F0A
330
97B7
100
AcDbEntity
  8
DEFPOINTS
 62
     0
 48
15.0
100
AcDbPoint
 10
6428.099284128328
 20
5593.535034312939
 30
0.0
  0
ENDBLK
  5
97C1
330
97B7
100
AcDbEntity
  8
0
 48
15.0
100
AcDbBlockEnd
  0
BLOCK
  5
97CD
330
97C2
100
AcDbEntity
  8
0
 48
15.0
100
AcDbBlockBegin
  2
*D282
 70
     1
 10
0.0
 20
0.0
 30
0.0
  3
*D282
  1

  0
LINE
  5
9F0B
330
97C2
100
AcDbEntity
  8
寸法引出
 48
15.0
370
    -2
100
AcDbLine
 10
6670.599284128328
 20
5767.119684267353
 30
0.0
 11
6764.941718028552
 21
5767.119684267353
 31
0.0
  0
LINE
  5
9F0C
330
97C2
100
AcDbEntity
  8
寸法引出
 48
15.0
370
    -2
100
AcDbLine
 10
6757.441718028552
 20
5706.619684267353
 30
0.0
 11
6757.441718028552
 21
5684.119684267353
 31
0.0
  0
LINE
  5
9F0D
330
97C2
100
AcDbEntity
  8
寸法引出
 48
15.0
370
    -2
100
AcDbLine
 10
6757.441718028552
 20
5789.619684267353
 30
0.0
 11
6757.441718028552
 21
5812.119684267353
 31
0.0
  0
LINE
  5
9F0E
330
97C2
100
AcDbEntity
  8
寸法引出
 48
15.0
370
    -2
100
AcDbLine
 10
6757.441718028552
 20
5729.119684267353
 30
0.0
 11
6757.441718028552
 21
5767.119684267353
 31
0.0
  0
SOLID
  5
9F0F
330
97C2
100
AcDbEntity
  8
寸法引出
 48
15.0
100
AcDbTrace
 10
6753.691718028552
 20
5706.619684267353
 30
0.0
 11
6761.191718028553
 21
5706.619684267353
 31
0.0
 12
6757.441718028552
 22
5729.119684267353
 32
0.0
 13
6757.441718028552
 23
5729.119684267353
 33
0.0
  0
SOLID
  5
9F10
330
97C2
100
AcDbEntity
  8
寸法引出
 48
15.0
100
AcDbTrace
 10
6753.691718028552
 20
5789.619684267353
 30
0.0
 11
6761.191718028553
 21
5789.619684267353
 31
0.0
 12
6757.441718028552
 22
5767.119684267353
 32
0.0
 13
6757.441718028552
 23
5767.119684267353
 33
0.0
  0
MTEXT
  5
9F11
330
97C2
100
AcDbEntity
  8
寸法引出
 48
15.0
100
AcDbMText
 10
6727.441718028552
 20
5748.119684267355
 30
0.0
 40
30.0
 41
0.0
 71
     5
 72
     1
  1
\A1;38
  7
SANWA
 11
0.0000000000000001
 21
1.0
 31
0.0
 73
     1
 44
1.0
1001
ACAD
1000
MTEXTBEGIN
1070
    73
1070
     1
1070
    44
1040
1.0
1070
    74
1070
     0
1000
MTEXTEND
  0
POINT
  5
9F12
330
97C2
100
AcDbEntity
  8
DEFPOINTS
 62
     0
 48
15.0
100
AcDbPoint
 10
6655.599284128328
 20
5729.119684267353
 30
0.0
  0
POINT
  5
9F13
330
97C2
100
AcDbEntity
  8
DEFPOINTS
 62
     0
 48
15.0
100
AcDbPoint
 10
6655.599284128328
 20
5767.119684267353
 30
0.0
  0
POINT
  5
9F14
330
97C2
100
AcDbEntity
  8
DEFPOINTS
 62
     0
 48
15.0
100
AcDbPoint
 10
6757.441718028552
 20
5767.119684267353
 30
0.0
  0
ENDBLK
  5
97CE
330
97C2
100
AcDbEntity
  8
0
 48
15.0
100
AcDbBlockEnd
  0
BLOCK
  5
97D9
330
97CF
100
AcDbEntity
  8
0
 48
15.0
100
AcDbBlockBegin
  2
*D283
 70
     1
 10
0.0
 20
0.0
 30
0.0
  3
*D283
  1

  0
LINE
  5
9F15
330
97CF
100
AcDbEntity
  8
寸法引出
 48
15.0
370
    -2
100
AcDbLine
 10
7012.850002725184
 20
5839.419684267354
 30
0.0
 11
7012.850002725184
 21
5921.981248457043
 31
0.0
  0
LINE
  5
9F16
330
97CF
100
AcDbEntity
  8
寸法引出
 48
15.0
370
    -2
100
AcDbLine
 10
7942.850002725184
 20
5839.419684267354
 30
0.0
 11
7942.850002725184
 21
5921.981248457043
 31
0.0
  0
LINE
  5
9F17
330
97CF
100
AcDbEntity
  8
寸法引出
 48
15.0
370
    -2
100
AcDbLine
 10
7035.350002725185
 20
5914.481248457043
 30
0.0
 11
7920.350002725185
 21
5914.481248457043
 31
0.0
  0
SOLID
  5
9F18
330
97CF
100
AcDbEntity
  8
寸法引出
 48
15.0
100
AcDbTrace
 10
7035.350002725185
 20
5918.231248457043
 30
0.0
 11
7035.350002725185
 21
5910.731248457043
 31
0.0
 12
7012.850002725184
 22
5914.481248457043
 32
0.0
 13
7012.850002725184
 23
5914.481248457043
 33
0.0
  0
SOLID
  5
9F19
330
97CF
100
AcDbEntity
  8
寸法引出
 48
15.0
100
AcDbTrace
 10
7920.350002725185
 20
5918.231248457043
 30
0.0
 11
7920.350002725185
 21
5910.731248457043
 31
0.0
 12
7942.850002725184
 22
5914.481248457043
 32
0.0
 13
7942.850002725184
 23
5914.481248457043
 33
0.0
  0
MTEXT
  5
9F1A
330
97CF
100
AcDbEntity
  8
寸法引出
 48
15.0
100
AcDbMText
 10
7477.850002725185
 20
5944.481248457043
 30
0.0
 40
30.0
 41
0.0
 71
     5
 72
     1
  1
\A1;930
  7
SANWA
 73
     1
 44
1.0
1001
ACAD
1000
MTEXTBEGIN
1070
    73
1070
     1
1070
    44
1040
1.0
1070
    74
1070
     0
1000
MTEXTEND
  0
POINT
  5
9F1B
330
97CF
100
AcDbEntity
  8
DEFPOINTS
 62
     0
 48
15.0
100
AcDbPoint
 10
7012.850002725184
 20
5824.419684267354
 30
0.0
  0
POINT
  5
9F1C
330
97CF
100
AcDbEntity
  8
DEFPOINTS
 62
     0
 48
15.0
100
AcDbPoint
 10
7942.850002725184
 20
5824.419684267354
 30
0.0
  0
POINT
  5
9F1D
330
97CF
100
AcDbEntity
  8
DEFPOINTS
 62
     0
 48
15.0
100
AcDbPoint
 10
7942.850002725184
 20
5914.481248457043
 30
0.0
  0
ENDBLK
  5
97DA
330
97CF
100
AcDbEntity
  8
0
 48
15.0
100
AcDbBlockEnd
  0
BLOCK
  5
97E4
330
97DB
100
AcDbEntity
  8
0
 48
15.0
100
AcDbBlockBegin
  2
*D284
 70
     1
 10
0.0
 20
0.0
 30
0.0
  3
*D284
  1

  0
LINE
  5
9F1E
330
97DB
100
AcDbEntity
  8
寸法引出
 48
15.0
370
    -2
100
AcDbLine
 10
7917.850002725185
 20
5672.419684267353
 30
0.0
 11
7917.850002725185
 21
5586.035034312939
 31
0.0
  0
LINE
  5
9F1F
330
97DB
100
AcDbEntity
  8
寸法引出
 48
15.0
370
    -2
100
AcDbLine
 10
7790.350002725185
 20
5593.535034312939
 30
0.0
 11
7895.350002725185
 21
5593.535034312939
 31
0.0
  0
SOLID
  5
9F20
330
97DB
100
AcDbEntity
  8
寸法引出
 48
15.0
100
AcDbTrace
 10
7790.350002725185
 20
5597.285034312939
 30
0.0
 11
7790.350002725185
 21
5589.785034312939
 31
0.0
 12
7767.850002725184
 22
5593.535034312939
 32
0.0
 13
7767.850002725184
 23
5593.535034312939
 33
0.0
  0
SOLID
  5
9F21
330
97DB
100
AcDbEntity
  8
寸法引出
 48
15.0
100
AcDbTrace
 10
7895.350002725185
 20
5597.285034312939
 30
0.0
 11
7895.350002725185
 21
5589.785034312939
 31
0.0
 12
7917.850002725185
 22
5593.535034312939
 32
0.0
 13
7917.850002725185
 23
5593.535034312939
 33
0.0
  0
MTEXT
  5
9F22
330
97DB
100
AcDbEntity
  8
寸法引出
 48
15.0
100
AcDbMText
 10
7842.850002725184
 20
5623.53503431294
 30
0.0
 40
30.0
 41
0.0
 71
     5
 72
     1
  1
\A1;150
  7
SANWA
 73
     1
 44
1.0
1001
ACAD
1000
MTEXTBEGIN
1070
    73
1070
     1
1070
    44
1040
1.0
1070
    74
1070
     0
1000
MTEXTEND
  0
POINT
  5
9F23
330
97DB
100
AcDbEntity
  8
DEFPOINTS
 62
     0
 48
15.0
100
AcDbPoint
 10
7767.850002725184
 20
5687.419684267354
 30
0.0
  0
POINT
  5
9F24
330
97DB
100
AcDbEntity
  8
DEFPOINTS
 62
     0
 48
15.0
100
AcDbPoint
 10
7917.850002725185
 20
5687.419684267354
 30
0.0
  0
POINT
  5
9F25
330
97DB
100
AcDbEntity
  8
DEFPOINTS
 62
     0
 48
15.0
100
AcDbPoint
 10
7917.850002725185
 20
5593.535034312939
 30
0.0
  0
ENDBLK
  5
97E5
330
97DB
100
AcDbEntity
  8
0
 48
15.0
100
AcDbBlockEnd
  0
BLOCK
  5
97EF
330
97E6
100
AcDbEntity
  8
0
 48
15.0
100
AcDbBlockBegin
  2
*D285
 70
     1
 10
0.0
 20
0.0
 30
0.0
  3
*D285
  1

  0
LINE
  5
9F26
330
97E6
100
AcDbEntity
  8
寸法引出
 48
15.0
370
    -2
100
AcDbLine
 10
7767.850002725184
 20
5672.419684267353
 30
0.0
 11
7767.850002725184
 21
5586.035034312939
 31
0.0
  0
LINE
  5
9F27
330
97E6
100
AcDbEntity
  8
寸法引出
 48
15.0
370
    -2
100
AcDbLine
 10
7210.350002725185
 20
5593.535034312939
 30
0.0
 11
7745.350002725185
 21
5593.535034312939
 31
0.0
  0
SOLID
  5
9F28
330
97E6
100
AcDbEntity
  8
寸法引出
 48
15.0
100
AcDbTrace
 10
7210.350002725185
 20
5597.285034312939
 30
0.0
 11
7210.350002725185
 21
5589.785034312939
 31
0.0
 12
7187.850002725184
 22
5593.535034312939
 32
0.0
 13
7187.850002725184
 23
5593.535034312939
 33
0.0
  0
SOLID
  5
9F29
330
97E6
100
AcDbEntity
  8
寸法引出
 48
15.0
100
AcDbTrace
 10
7745.350002725185
 20
5597.285034312939
 30
0.0
 11
7745.350002725185
 21
5589.785034312939
 31
0.0
 12
7767.850002725184
 22
5593.535034312939
 32
0.0
 13
7767.850002725184
 23
5593.535034312939
 33
0.0
  0
MTEXT
  5
9F2A
330
97E6
100
AcDbEntity
  8
寸法引出
 48
15.0
100
AcDbMText
 10
7477.850002725185
 20
5625.420748598653
 30
0.0
 40
30.0
 41
0.0
 71
     5
 72
     1
  1
\A1;4@145=580
  7
SANWA
 73
     1
 44
1.0
1001
ACAD
1000
MTEXTBEGIN
1070
    73
1070
     1
1070
    44
1040
1.0
1070
    74
1070
     0
1000
MTEXTEND
  0
POINT
  5
9F2B
330
97E6
100
AcDbEntity
  8
DEFPOINTS
 62
     0
 48
15.0
100
AcDbPoint
 10
7187.850002725184
 20
5687.419684267354
 30
0.0
  0
POINT
  5
9F2C
330
97E6
100
AcDbEntity
  8
DEFPOINTS
 62
     0
 48
15.0
100
AcDbPoint
 10
7767.850002725184
 20
5687.419684267354
 30
0.0
  0
POINT
  5
9F2D
330
97E6
100
AcDbEntity
  8
DEFPOINTS
 62
     0
 48
15.0
100
AcDbPoint
 10
7767.850002725184
 20
5593.535034312939
 30
0.0
  0
ENDBLK
  5
97F0
330
97E6
100
AcDbEntity
  8
0
 48
15.0
100
AcDbBlockEnd
  0
BLOCK
  5
97FA
330
97F1
100
AcDbEntity
  8
0
 48
15.0
100
AcDbBlockBegin
  2
*D286
 70
     1
 10
0.0
 20
0.0
 30
0.0
  3
*D286
  1

  0
LINE
  5
9F2E
330
97F1
100
AcDbEntity
  8
寸法引出
 48
15.0
370
    -2
100
AcDbLine
 10
7187.850002725184
 20
5672.419684267353
 30
0.0
 11
7187.850002725184
 21
5586.035034312939
 31
0.0
  0
LINE
  5
9F2F
330
97F1
100
AcDbEntity
  8
寸法引出
 48
15.0
370
    -2
100
AcDbLine
 10
7060.350002725185
 20
5593.535034312939
 30
0.0
 11
7165.350002725185
 21
5593.535034312939
 31
0.0
  0
SOLID
  5
9F30
330
97F1
100
AcDbEntity
  8
寸法引出
 48
15.0
100
AcDbTrace
 10
7060.350002725185
 20
5597.285034312939
 30
0.0
 11
7060.350002725185
 21
5589.785034312939
 31
0.0
 12
7037.850002725185
 22
5593.535034312939
 32
0.0
 13
7037.850002725185
 23
5593.535034312939
 33
0.0
  0
SOLID
  5
9F31
330
97F1
100
AcDbEntity
  8
寸法引出
 48
15.0
100
AcDbTrace
 10
7165.350002725185
 20
5597.285034312939
 30
0.0
 11
7165.350002725185
 21
5589.785034312939
 31
0.0
 12
7187.850002725184
 22
5593.535034312939
 32
0.0
 13
7187.850002725184
 23
5593.535034312939
 33
0.0
  0
MTEXT
  5
9F32
330
97F1
100
AcDbEntity
  8
寸法引出
 48
15.0
100
AcDbMText
 10
7112.850002725185
 20
5623.53503431294
 30
0.0
 40
30.0
 41
0.0
 71
     5
 72
     1
  1
\A1;150
  7
SANWA
 73
     1
 44
1.0
1001
ACAD
1000
MTEXTBEGIN
1070
    73
1070
     1
1070
    44
1040
1.0
1070
    74
1070
     0
1000
MTEXTEND
  0
POINT
  5
9F33
330
97F1
100
AcDbEntity
  8
DEFPOINTS
 62
     0
 48
15.0
100
AcDbPoint
 10
7037.850002725185
 20
5687.419684267354
 30
0.0
  0
POINT
  5
9F34
330
97F1
100
AcDbEntity
  8
DEFPOINTS
 62
     0
 48
15.0
100
AcDbPoint
 10
7187.850002725184
 20
5687.419684267354
 30
0.0
  0
POINT
  5
9F35
330
97F1
100
AcDbEntity
  8
DEFPOINTS
 62
     0
 48
15.0
100
AcDbPoint
 10
7187.850002725184
 20
5593.535034312939
 30
0.0
  0
ENDBLK
  5
97FB
330
97F1
100
AcDbEntity
  8
0
 48
15.0
100
AcDbBlockEnd
  0
BLOCK
  5
9806
330
97FC
100
AcDbEntity
  8
0
 48
15.0
100
AcDbBlockBegin
  2
*D287
 70
     1
 10
0.0
 20
0.0
 30
0.0
  3
*D287
  1

  0
LINE
  5
9F36
330
97FC
100
AcDbEntity
  8
寸法引出
 48
15.0
370
    -2
100
AcDbLine
 10
7992.850002725184
 20
5824.419684267354
 30
0.0
 11
8078.567629241369
 21
5824.419684267354
 31
0.0
  0
LINE
  5
9F37
330
97FC
100
AcDbEntity
  8
寸法引出
 48
15.0
370
    -2
100
AcDbLine
 10
7992.850002725184
 20
5687.419684267354
 30
0.0
 11
8078.567629241369
 21
5687.419684267354
 31
0.0
  0
LINE
  5
9F38
330
97FC
100
AcDbEntity
  8
寸法引出
 48
15.0
370
    -2
100
AcDbLine
 10
8071.067629241371
 20
5801.919684267353
 30
0.0
 11
8071.067629241371
 21
5709.919684267354
 31
0.0
  0
SOLID
  5
9F39
330
97FC
100
AcDbEntity
  8
寸法引出
 48
15.0
100
AcDbTrace
 10
8067.317629241371
 20
5801.919684267353
 30
0.0
 11
8074.817629241371
 21
5801.919684267353
 31
0.0
 12
8071.067629241371
 22
5824.419684267354
 32
0.0
 13
8071.067629241371
 23
5824.419684267354
 33
0.0
  0
SOLID
  5
9F3A
330
97FC
100
AcDbEntity
  8
寸法引出
 48
15.0
100
AcDbTrace
 10
8067.317629241371
 20
5709.919684267354
 30
0.0
 11
8074.817629241371
 21
5709.919684267354
 31
0.0
 12
8071.067629241371
 22
5687.419684267354
 32
0.0
 13
8071.067629241371
 23
5687.419684267354
 33
0.0
  0
MTEXT
  5
9F3B
330
97FC
100
AcDbEntity
  8
寸法引出
 48
15.0
100
AcDbMText
 10
8041.06762924137
 20
5755.919684267354
 30
0.0
 40
30.0
 41
0.0
 71
     5
 72
     1
  1
\A1;137
  7
SANWA
 11
0.0000000000000001
 21
1.0
 31
0.0
 73
     1
 44
1.0
1001
ACAD
1000
MTEXTBEGIN
1070
    73
1070
     1
1070
    44
1040
1.0
1070
    74
1070
     0
1000
MTEXTEND
  0
POINT
  5
9F3C
330
97FC
100
AcDbEntity
  8
DEFPOINTS
 62
     0
 48
15.0
100
AcDbPoint
 10
7977.850002725185
 20
5824.419684267354
 30
0.0
  0
POINT
  5
9F3D
330
97FC
100
AcDbEntity
  8
DEFPOINTS
 62
     0
 48
15.0
100
AcDbPoint
 10
7977.850002725185
 20
5687.419684267354
 30
0.0
  0
POINT
  5
9F3E
330
97FC
100
AcDbEntity
  8
DEFPOINTS
 62
     0
 48
15.0
100
AcDbPoint
 10
8071.067629241371
 20
5687.419684267354
 30
0.0
  0
ENDBLK
  5
9807
330
97FC
100
AcDbEntity
  8
0
 48
15.0
100
AcDbBlockEnd
  0
BLOCK
  5
9813
330
9808
100
AcDbEntity
  8
0
 48
15.0
100
AcDbBlockBegin
  2
*D288
 70
     1
 10
0.0
 20
0.0
 30
0.0
  3
*D288
  1

  0
LINE
  5
9F3F
330
9808
100
AcDbEntity
  8
寸法引出
 48
15.0
370
    -2
100
AcDbLine
 10
7977.850002725185
 20
5672.419684267353
 30
0.0
 11
7977.850002725185
 21
5586.035034312939
 31
0.0
  0
LINE
  5
9F40
330
9808
100
AcDbEntity
  8
寸法引出
 48
15.0
370
    -2
100
AcDbLine
 10
7895.350002725185
 20
5593.535034312939
 30
0.0
 11
7872.850002725185
 21
5593.535034312939
 31
0.0
  0
LINE
  5
9F41
330
9808
100
AcDbEntity
  8
寸法引出
 48
15.0
370
    -2
100
AcDbLine
 10
8000.350002725184
 20
5593.535034312939
 30
0.0
 11
8022.850002725185
 21
5593.535034312939
 31
0.0
  0
LINE
  5
9F42
330
9808
100
AcDbEntity
  8
寸法引出
 48
15.0
370
    -2
100
AcDbLine
 10
7917.850002725185
 20
5593.535034312939
 30
0.0
 11
7977.850002725185
 21
5593.535034312939
 31
0.0
  0
SOLID
  5
9F43
330
9808
100
AcDbEntity
  8
寸法引出
 48
15.0
100
AcDbTrace
 10
7895.350002725185
 20
5597.285034312939
 30
0.0
 11
7895.350002725185
 21
5589.785034312939
 31
0.0
 12
7917.850002725185
 22
5593.535034312939
 32
0.0
 13
7917.850002725185
 23
5593.535034312939
 33
0.0
  0
SOLID
  5
9F44
330
9808
100
AcDbEntity
  8
寸法引出
 48
15.0
100
AcDbTrace
 10
8000.350002725184
 20
5597.285034312939
 30
0.0
 11
8000.350002725184
 21
5589.785034312939
 31
0.0
 12
7977.850002725185
 22
5593.535034312939
 32
0.0
 13
7977.850002725185
 23
5593.535034312939
 33
0.0
  0
MTEXT
  5
9F45
330
9808
100
AcDbEntity
  8
寸法引出
 48
15.0
100
AcDbMText
 10
7947.850002725186
 20
5623.53503431294
 30
0.0
 40
30.0
 41
0.0
 71
     5
 72
     1
  1
\A1;60
  7
SANWA
 73
     1
 44
1.0
1001
ACAD
1000
MTEXTBEGIN
1070
    73
1070
     1
1070
    44
1040
1.0
1070
    74
1070
     0
1000
MTEXTEND
  0
POINT
  5
9F46
330
9808
100
AcDbEntity
  8
DEFPOINTS
 62
     0
 48
15.0
100
AcDbPoint
 10
7917.850002725185
 20
5687.419684267354
 30
0.0
  0
POINT
  5
9F47
330
9808
100
AcDbEntity
  8
DEFPOINTS
 62
     0
 48
15.0
100
AcDbPoint
 10
7977.850002725185
 20
5687.419684267354
 30
0.0
  0
POINT
  5
9F48
330
9808
100
AcDbEntity
  8
DEFPOINTS
 62
     0
 48
15.0
100
AcDbPoint
 10
7977.850002725185
 20
5593.535034312939
 30
0.0
  0
ENDBLK
  5
9814
330
9808
100
AcDbEntity
  8
0
 48
15.0
100
AcDbBlockEnd
  0
ENDSEC
  0
SECTION
  2
ENTITIES
  0
LINE
  5
9032
330
747D
100
AcDbEntity
  8
枠
100
AcDbLine
 10
375.0
 20
3000.0
 30
0.0
 11
4305.0
 21
3000.0
 31
0.0
  0
TEXT
  5
9033
330
747D
100
AcDbEntity
  8
0
 48
2.0
100
AcDbText
 10
3609.743097260976
 20
560.3768966870493
 30
0.0
 40
16.79999999999999
  1
品
  7
SANWA
100
AcDbText
  0
LINE
  5
9034
330
747D
100
AcDbEntity
  8
0
100
AcDbLine
 10
3598.531914893611
 20
594.0000000000036
 30
0.0
 11
3621.277272305448
 21
594.0000000000036
 31
0.0
  0
LINE
  5
9035
330
747D
100
AcDbEntity
  8
0
 62
     0
100
AcDbLine
 10
3202.531914893604
 20
594.0000000000036
 30
0.0
 11
4305.0
 21
594.0000000000036
 31
0.0
  0
TEXT
  5
9036
330
747D
100
AcDbEntity
  8
0
 48
2.0
100
AcDbText
 10
3608.525134886844
 20
443.4326160008049
 30
0.0
 40
16.79999999999999
  1
び
  7
SANWA
100
AcDbText
  0
TEXT
  5
9037
330
747D
100
AcDbEntity
  8
0
 48
2.0
100
AcDbText
 10
3608.76342530841
 20
466.4348193000683
 30
0.0
 40
16.79999999999999
  1
呼
  7
SANWA
100
AcDbText
  0
LINE
  5
9038
330
747D
100
AcDbEntity
  8
0
 62
     0
100
AcDbLine
 10
3598.531914893611
 20
498.0000000000041
 30
0.0
 11
4305.0
 21
498.0000000000041
 31
0.0
  0
TEXT
  5
9039
330
747D
100
AcDbEntity
  8
0
 48
2.0
100
AcDbText
 10
3608.833038597699
 20
520.9962632445931
 30
0.0
 40
16.79999999999999
  1
名
  7
SANWA
100
AcDbText
  0
TEXT
  5
903A
330
747D
100
AcDbEntity
  8
0
 48
2.0
100
AcDbText
 10
3609.288067929338
 20
360.6846153128759
 30
0.0
 40
16.79999999999999
  1
規
  7
SANWA
100
AcDbText
  0
LINE
  5
903B
330
747D
100
AcDbEntity
  8
0
 62
     0
100
AcDbLine
 10
3598.531914893611
 20
402.0000000000027
 30
0.0
 11
4305.0
 21
402.0000000000027
 31
0.0
  0
TEXT
  5
903C
330
747D
100
AcDbEntity
  8
0
 48
2.0
100
AcDbText
 10
3609.288067929338
 20
324.9410917409396
 30
0.0
 40
16.79999999999999
  1
格
  7
SANWA
100
AcDbText
  0
LINE
  5
903D
330
747D
100
AcDbEntity
  8
0
100
AcDbLine
 10
3202.531914893604
 20
306.0000000000014
 30
0.0
 11
4305.0
 21
306.0000000000014
 31
0.0
  0
TEXT
  5
903E
330
747D
100
AcDbEntity
  8
0
 48
2.0
100
AcDbText
 10
3608.865365864922
 20
419.9263485547308
 30
0.0
 40
16.79999999999999
  1
名
  7
SANWA
100
AcDbText
  0
LINE
  5
903F
330
747D
100
AcDbEntity
  8
枠
100
AcDbLine
 10
375.0
 20
150.0000000000018
 30
0.0
 11
4305.0
 21
150.0000000000018
 31
0.0
  0
LINE
  5
904E
330
747D
100
AcDbEntity
  8
0
100
AcDbLine
 10
0.0
 20
3150.0
 30
0.0
 11
375.0
 21
3150.0
 31
0.0
  0
LINE
  5
904F
330
747D
100
AcDbEntity
  8
0
100
AcDbLine
 10
375.0
 20
0.0
 30
0.0
 11
0.0
 21
0.0
 31
0.0
  0
LINE
  5
9050
330
747D
100
AcDbEntity
  8
0
100
AcDbLine
 10
0.0
 20
0.0
 30
0.0
 11
0.0
 21
150.0
 31
0.0
  0
LINE
  5
9051
330
747D
100
AcDbEntity
  8
0
100
AcDbLine
 10
0.0
 20
3000.0
 30
0.0
 11
0.0
 21
3150.0
 31
0.0
  0
MTEXT
  5
9052
330
747D
100
AcDbEntity
  8
寸法引出
  6
ByBlock
 48
15.0
100
AcDbMText
 10
2474.119778315395
 20
1291.244619335408
 30
0.0
 40
30.0
 41
0.0
 71
     5
 72
     1
  1
ｸﾞﾚｰﾁﾝｸﾞ 65×38×998
  7
SANWA
 73
     1
 44
1.0
1001
ACAD
1000
MTEXTBEGIN
1070
    73
1070
     1
1070
    44
1040
1.0
1070
    74
1070
     0
1000
MTEXTEND
  0
LINE
  5
9053
330
747D
100
AcDbEntity
  8
0
 48
15.0
100
AcDbLine
 10
2087.249546853664
 20
1628.133489880405
 30
0.0
 11
2087.249546853664
 21
628.1334898804052
 31
0.0
  0
LINE
  5
9054
330
747D
100
AcDbEntity
  8
0
 48
15.0
100
AcDbLine
 10
1467.249546853663
 20
1628.133489880405
 30
0.0
 11
1467.249546853663
 21
628.1334898804052
 31
0.0
  0
LINE
  5
9055
330
747D
100
AcDbEntity
  8
0
 48
15.0
100
AcDbLine
 10
1744.749546853664
 20
1628.133489880405
 30
0.0
 11
1744.749546853664
 21
628.1334898804052
 31
0.0
  0
LINE
  5
9056
330
747D
100
AcDbEntity
  8
0
 48
15.0
100
AcDbLine
 10
1809.749546853663
 20
1628.133489880405
 30
0.0
 11
1809.749546853663
 21
628.1334898804052
 31
0.0
  0
LINE
  5
9057
330
747D
100
AcDbEntity
  8
0
  6
CENTER2
 48
15.0
100
AcDbLine
 10
1777.249546853663
 20
1678.133489880405
 30
0.0
 11
1777.249546853663
 21
578.1334898804052
 31
0.0
  0
DIMENSION
  5
9058
330
747D
100
AcDbEntity
  8
寸法引出
 48
15.0
100
AcDbDimension
  2
*D193
 10
1354.583193847953
 20
748.1334898804052
 30
0.0
 11
1324.583193847953
 21
1128.133489880405
 31
0.0
 70
    32
 71
     5
 42
759.9999999999998
  3
SANWA
100
AcDbAlignedDimension
 13
1467.249546853663
 23
1508.133489880405
 33
0.0
 14
1467.249546853663
 24
748.1334898804052
 34
0.0
 50
90.0
100
AcDbRotatedDimension
1001
ACAD
1000
DSTYLE
1002
{
1070
    40
1040
15.0
1070
    41
1040
1.5
1070
    43
1040
5.0
1070
    44
1040
0.5
1070
    75
1070
     1
1070
   140
1040
2.0
1070
   147
1040
1.0
1070
   176
1070
   256
1070
   177
1070
   256
1070
   178
1070
   256
1070
   279
1070
     1
1002
}
  0
DIMENSION
  5
9059
330
747D
100
AcDbEntity
  8
寸法引出
 48
15.0
100
AcDbDimension
  2
*D194
 10
2201.461154218108
 20
628.1334898804052
 30
0.0
 11
2171.461154218108
 21
1128.133489880405
 31
0.0
 70
    32
 71
     5
 42
1000.0
  3
SANWA
100
AcDbAlignedDimension
 13
2087.249546853664
 23
1628.133489880405
 33
0.0
 14
2087.249546853664
 24
628.1334898804052
 34
0.0
 50
90.0
100
AcDbRotatedDimension
1001
ACAD
1000
DSTYLE
1002
{
1070
   140
1040
2.0
1070
    40
1040
15.0
1070
   147
1040
1.0
1070
    44
1040
0.5
1070
    43
1040
5.0
1070
   178
1070
   256
1070
   177
1070
   256
1070
   176
1070
   256
1070
    41
1040
1.5
1002
}
  0
LINE
  5
905A
330
747D
100
AcDbEntity
  8
枠
100
AcDbLine
 10
375.0
 20
150.0
 30
0.0
 11
375.0
 21
3000.0
 31
0.0
  0
LEADER
  5
905B
330
747D
100
AcDbEntity
  8
寸法引出
 48
15.0
100
AcDbLeader
  3
SANWA
 76
     2
 10
1798.685637294362
 20
1264.304800892001
 30
0.0
 10
2696.201274534335
 20
1264.304800892001
 30
0.0
1001
ACAD
1000
DSTYLE
1002
{
1070
   140
1040
2.0
1070
    40
1040
15.0
1070
   147
1040
1.0
1070
    44
1040
0.5
1070
    43
1040
5.0
1070
   178
1070
   256
1070
   177
1070
   256
1070
   176
1070
   256
1070
    41
1040
1.5
1002
}
  0
LINE
  5
905C
330
747D
100
AcDbEntity
  8
0
 48
15.0
100
AcDbLine
 10
1467.249546853663
 20
628.1334898804052
 30
0.0
 11
2087.249546853664
 21
628.1334898804052
 31
0.0
  0
DIMENSION
  5
905D
330
747D
100
AcDbEntity
  8
寸法引出
 48
15.0
100
AcDbDimension
  2
*D195
 10
2087.249546853664
 20
443.8948661469622
 30
0.0
 11
1777.249546853663
 21
473.8948661469621
 31
0.0
 70
    32
 71
     5
 42
620.0
  3
SANWA
100
AcDbAlignedDimension
 13
1467.249546853663
 23
628.1334898804052
 33
0.0
 14
2087.249546853664
 24
628.1334898804052
 34
0.0
100
AcDbRotatedDimension
1001
ACAD
1000
DSTYLE
1002
{
1070
   140
1040
2.0
1070
    40
1040
15.0
1070
   147
1040
1.0
1070
    44
1040
0.5
1070
    43
1040
5.0
1070
   178
1070
   256
1070
   177
1070
   256
1070
   176
1070
   256
1070
    41
1040
1.5
1002
}
  0
DIMENSION
  5
905E
330
747D
100
AcDbEntity
  8
寸法引出
 48
15.0
100
AcDbDimension
  2
*D196
 10
2057.249546853664
 20
516.3932210081839
 30
0.0
 11
1777.249546853663
 21
546.3932210081838
 31
0.0
 70
    32
 71
     5
 42
560.0
  3
SANWA
100
AcDbAlignedDimension
 13
1497.249546853663
 23
628.1334898804052
 33
0.0
 14
2057.249546853664
 24
628.1334898804052
 34
0.0
100
AcDbRotatedDimension
1001
ACAD
1000
DSTYLE
1002
{
1070
   140
1040
2.0
1070
    40
1040
15.0
1070
   147
1040
1.0
1070
    44
1040
0.5
1070
    43
1040
5.0
1070
   178
1070
   256
1070
   177
1070
   256
1070
   176
1070
   256
1070
    41
1040
1.5
1002
}
  0
CIRCLE
  5
905F
330
747D
100
AcDbEntity
  8
0
 48
15.0
100
AcDbCircle
 10
1497.249546853663
 20
748.1334898804052
 30
0.0
 40
10.0
  0
DIMENSION
  5
9060
330
747D
100
AcDbEntity
  8
寸法引出
 48
15.0
100
AcDbDimension
  2
*D197
 10
1354.583193847953
 20
628.1334898804052
 30
0.0
 11
1324.583193847953
 21
688.1334898804055
 31
0.0
 70
    32
 71
     5
 42
120.0
  3
SANWA
100
AcDbAlignedDimension
 13
1467.249546853663
 23
748.1334898804052
 33
0.0
 14
1467.249546853663
 24
628.1334898804052
 34
0.0
 50
90.0
100
AcDbRotatedDimension
1001
ACAD
1000
DSTYLE
1002
{
1070
    40
1040
15.0
1070
    41
1040
1.5
1070
    43
1040
5.0
1070
    44
1040
0.5
1070
    75
1070
     1
1070
   140
1040
2.0
1070
   147
1040
1.0
1070
   176
1070
   256
1070
   177
1070
   256
1070
   178
1070
   256
1070
   279
1070
     1
1002
}
  0
DIMENSION
  5
9061
330
747D
100
AcDbEntity
  8
寸法引出
 48
15.0
100
AcDbDimension
  2
*D198
 10
1497.249546853663
 20
516.3932210081839
 30
0.0
 11
1482.249546853663
 21
546.3932210081838
 31
0.0
 70
    32
 71
     5
 42
30.0
  3
SANWA
100
AcDbAlignedDimension
 13
1467.249546853663
 23
628.1334898804052
 33
0.0
 14
1497.249546853663
 24
600.1690212446846
 34
0.0
100
AcDbRotatedDimension
1001
ACAD
1000
DSTYLE
1002
{
1070
   140
1040
2.0
1070
    40
1040
15.0
1070
   147
1040
1.0
1070
    44
1040
0.5
1070
    43
1040
5.0
1070
   178
1070
   256
1070
   177
1070
   256
1070
   176
1070
   256
1070
    41
1040
1.5
1002
}
  0
TEXT
  5
9062
330
747D
100
AcDbEntity
  8
0
 48
2.0
100
AcDbText
 10
3254.300760381522
 20
209.9451709687846
 30
0.0
 40
24.0
  1
河
  7
SANWA
100
AcDbText
  0
CIRCLE
  5
9063
102
{ACAD_REACTORS
330
9066
102
}
330
747D
100
AcDbEntity
  8
0
100
AcDbCircle
 10
3530.260607340513
 20
210.9571703471474
 30
0.0
 40
45.58512634354756
  0
CIRCLE
  5
9064
102
{ACAD_REACTORS
330
9066
102
}
330
747D
100
AcDbEntity
  8
0
100
AcDbCircle
 10
3530.260607340513
 20
210.9571703471474
 30
0.0
 40
47.98512634354756
  0
TEXT
  5
9065
102
{ACAD_REACTORS
330
9066
102
}
330
747D
100
AcDbEntity
  8
0
 48
2.0
100
AcDbText
 10
3513.137942604946
 20
184.9882567917907
 30
0.0
 40
24.0
  1
川
  7
SANWA
100
AcDbText
  0
HATCH
  5
9066
330
747D
100
AcDbEntity
  8
0
100
AcDbHatch
 10
0.0
 20
0.0
 30
0.0
210
0.0
220
0.0
230
1.0
  2
SOLID
 70
     1
 71
     1
 91
        4
 92
        7
 72
     1
 73
     1
 93
        2
 10
3578.245733684061
 20
210.9571703471474
 42
1.0
 10
3482.275480996966
 20
210.9571703471474
 42
1.0
 97
        1
330
9064
 92
       22
 72
     1
 73
     1
 93
        2
 10
3575.845733684061
 20
210.9571703471474
 42
1.0
 10
3484.675480996966
 20
210.9571703471474
 42
1.0
 97
        1
330
9063
 92
      136
 93
        4
 72
     1
 10
3505.71374173915
 20
206.993353592308
 11
3556.799456024864
 21
206.993353592308
 72
     1
 10
3556.799456024864
 20
206.993353592308
 11
3556.799456024864
 21
254.9247821637366
 72
     1
 10
3556.799456024864
 20
254.9247821637366
 11
3505.71374173915
 21
254.9247821637366
 72
     1
 10
3505.71374173915
 20
254.9247821637366
 11
3505.71374173915
 21
206.993353592308
 97
        1
330
908C
 92
      136
 93
        4
 72
     1
 10
3505.629371176375
 20
174.5996853632193
 11
3555.755085462089
 21
174.5996853632193
 72
     1
 10
3555.755085462089
 20
174.5996853632193
 11
3555.755085462089
 21
219.6511139346479
 72
     1
 10
3555.755085462089
 20
219.6511139346479
 11
3505.629371176375
 21
219.6511139346479
 72
     1
 10
3505.629371176375
 20
219.6511139346479
 11
3505.629371176375
 21
174.5996853632193
 97
        1
330
9065
 75
     0
 76
     1
 47
0.0602706122334892
 98
        2
 10
3553.25089320683
 20
252.206421447926
 10
3553.25089320683
 20
252.206421447926
  0
CIRCLE
  5
9067
102
{ACAD_REACTORS
330
9069
102
}
330
747D
100
AcDbEntity
  8
0
100
AcDbCircle
 10
3270.859054554301
 20
206.7741287092822
 30
0.0
 40
45.58512634354756
  0
CIRCLE
  5
9068
102
{ACAD_REACTORS
330
9069
102
}
330
747D
100
AcDbEntity
  8
0
100
AcDbCircle
 10
3270.859054554301
 20
206.7741287092822
 30
0.0
 40
47.98512634354756
  0
HATCH
  5
9069
330
747D
100
AcDbEntity
  8
0
100
AcDbHatch
 10
0.0
 20
0.0
 30
0.0
210
0.0
220
0.0
230
1.0
  2
SOLID
 70
     1
 71
     1
 91
        2
 92
        7
 72
     1
 73
     1
 93
        2
 10
3318.844180897849
 20
206.7741287092822
 42
1.0
 10
3222.873928210753
 20
206.7741287092822
 42
1.0
 97
        1
330
9068
 92
       22
 72
     1
 73
     1
 93
        2
 10
3316.444180897849
 20
206.7741287092822
 42
1.0
 10
3225.273928210754
 20
206.7741287092822
 42
1.0
 97
        1
330
9067
 75
     0
 76
     1
 47
0.0602706122334892
 98
        2
 10
3293.849340420609
 20
248.0233798100607
 10
3293.849340420609
 20
248.0233798100607
  0
LINE
  5
906A
330
747D
100
AcDbEntity
  8
0
100
AcDbLine
 10
3598.531914893611
 20
150.0000000000018
 30
0.0
 11
3598.531914893611
 21
594.0000000000036
 31
0.0
  0
LINE
  5
906B
330
747D
100
AcDbEntity
  8
0
100
AcDbLine
 10
3466.531914893607
 20
150.0000000000018
 30
0.0
 11
3466.531914893607
 21
306.0000000000014
 31
0.0
  0
LINE
  5
906C
330
747D
100
AcDbEntity
  8
0
100
AcDbLine
 10
3334.531914893605
 20
150.0000000000018
 30
0.0
 11
3334.531914893605
 21
342.0000000000027
 31
0.0
  0
LINE
  5
906D
330
747D
100
AcDbEntity
  8
0
 62
     0
100
AcDbLine
 10
3202.531914893604
 20
378.0000000000023
 30
0.0
 11
3202.531914893604
 21
150.0000000000018
 31
0.0
  0
CIRCLE
  5
906E
102
{ACAD_REACTORS
330
9070
102
}
330
747D
100
AcDbEntity
  8
0
100
AcDbCircle
 10
3440.808049969283
 20
72.91679629800182
 30
0.0
 40
45.58512634354756
  0
CIRCLE
  5
906F
102
{ACAD_REACTORS
330
9070
102
}
330
747D
100
AcDbEntity
  8
0
100
AcDbCircle
 10
3440.808049969283
 20
72.91679629800182
 30
0.0
 40
47.98512634354756
  0
HATCH
  5
9070
330
747D
100
AcDbEntity
  8
0
100
AcDbHatch
 10
0.0
 20
0.0
 30
0.0
210
0.0
220
0.0
230
1.0
  2
SOLID
 70
     1
 71
     1
 91
        4
 92
        7
 72
     1
 73
     1
 93
        2
 10
3488.79317631283
 20
72.91679629800182
 42
1.0
 10
3392.822923625735
 20
72.91679629800182
 42
1.0
 97
        1
330
906F
 92
       22
 72
     1
 73
     1
 93
        2
 10
3486.39317631283
 20
72.91679629800182
 42
1.0
 10
3395.222923625735
 20
72.91679629800182
 42
1.0
 97
        1
330
906E
 92
      136
 93
        4
 72
     1
 10
3416.638327225075
 20
71.11297954316242
 11
3466.969755796503
 21
71.11297954316242
 72
     1
 10
3466.969755796503
 20
71.11297954316242
 11
3466.969755796503
 21
116.7815509717338
 72
     1
 10
3466.969755796503
 20
116.7815509717338
 11
3416.638327225075
 21
116.7815509717338
 72
     1
 10
3416.638327225075
 20
116.7815509717338
 11
3416.638327225075
 21
71.11297954316242
 97
        1
330
9078
 92
      136
 93
        4
 72
     1
 10
3415.696813805144
 20
35.3935970283594
 11
3466.782528090858
 21
35.3935970283594
 72
     1
 10
3466.782528090858
 20
35.3935970283594
 11
3466.782528090858
 21
83.32502559978797
 72
     1
 10
3466.782528090858
 20
83.32502559978797
 11
3415.696813805144
 21
83.32502559978797
 72
     1
 10
3415.696813805144
 20
83.32502559978797
 11
3415.696813805144
 21
35.3935970283594
 97
        1
330
9077
 75
     0
 76
     1
 47
0.0602706122334892
 98
        2
 10
3463.7983358356
 20
114.1660473987804
 10
3463.7983358356
 20
114.1660473987804
  0
TEXT
  5
9071
330
747D
100
AcDbEntity
  8
0
 48
2.0
100
AcDbText
 10
3253.736389818735
 20
175.9743598825544
 30
0.0
 40
24.0
  1
口
  7
SANWA
100
AcDbText
  0
TEXT
  5
9072
102
{ACAD_REACTORS
330
9076
102
}
330
747D
100
AcDbEntity
  8
0
 48
2.0
100
AcDbText
 10
3302.289654268228
 20
43.08129504455883
 30
0.0
 40
24.0
  1
田
  7
SANWA
100
AcDbText
  0
CIRCLE
  5
9073
102
{ACAD_REACTORS
330
9076
102
}
330
747D
100
AcDbEntity
  8
0
100
AcDbCircle
 10
3319.412319003783
 20
72.91679629800182
 30
0.0
 40
47.98512634354756
  0
CIRCLE
  5
9074
102
{ACAD_REACTORS
330
9076
102
}
330
747D
100
AcDbEntity
  8
0
100
AcDbCircle
 10
3319.412319003783
 20
72.91679629800182
 30
0.0
 40
45.58512634354756
  0
TEXT
  5
9075
102
{ACAD_REACTORS
330
9076
102
}
330
747D
100
AcDbEntity
  8
0
 48
2.0
100
AcDbText
 10
3302.854024831004
 20
79.6298332977849
 30
0.0
 40
24.0
  1
蒔
  7
SANWA
100
AcDbText
  0
HATCH
  5
9076
330
747D
100
AcDbEntity
  8
0
100
AcDbHatch
 10
0.0
 20
0.0
 30
0.0
210
0.0
220
0.0
230
1.0
  2
SOLID
 70
     1
 71
     1
 91
        4
 92
        7
 72
     1
 73
     1
 93
        2
 10
3367.39744534733
 20
72.91679629800182
 42
1.0
 10
3271.427192660235
 20
72.91679629800182
 42
1.0
 97
        1
330
9073
 92
       22
 72
     1
 73
     1
 93
        2
 10
3364.99744534733
 20
72.91679629800182
 42
1.0
 10
3273.827192660235
 20
72.91679629800182
 42
1.0
 97
        1
330
9074
 92
      136
 93
        4
 72
     1
 10
3294.934024831004
 20
68.28126186921346
 11
3345.882596259575
 21
68.28126186921346
 72
     1
 10
3345.882596259575
 20
68.28126186921346
 11
3345.882596259575
 21
115.8012618692135
 72
     1
 10
3345.882596259575
 20
115.8012618692135
 11
3294.934024831004
 21
115.8012618692135
 72
     1
 10
3294.934024831004
 20
115.8012618692135
 11
3294.934024831004
 21
68.28126186921346
 97
        1
330
9075
 92
       24
 93
        4
 72
     1
 10
3295.123939982514
 20
32.62415218741598
 11
3344.563939982514
 21
32.62415218741598
 72
     1
 10
3344.563939982514
 20
32.62415218741598
 11
3344.563939982514
 21
75.61843790170168
 72
     1
 10
3344.563939982514
 20
75.61843790170168
 11
3295.123939982514
 21
75.61843790170168
 72
     1
 10
3295.123939982514
 20
75.61843790170168
 11
3295.123939982514
 21
32.62415218741598
 97
        1
330
9072
 75
     0
 76
     1
 47
0.0602706122334892
 98
        2
 10
3342.402604870091
 20
114.1660473987804
 10
3342.402604870091
 20
114.1660473987804
  0
TEXT
  5
9077
102
{ACAD_REACTORS
330
9070
102
}
330
747D
100
AcDbEntity
  8
0
 48
2.0
100
AcDbText
 10
3423.685385233716
 20
46.9478827426451
 30
0.0
 40
24.0
  1
嶋
  7
SANWA
100
AcDbText
  0
TEXT
  5
9078
102
{ACAD_REACTORS
330
9070
102
}
330
747D
100
AcDbEntity
  8
0
 48
2.0
100
AcDbText
 10
3424.249755796504
 20
80.9186938288767
 30
0.0
 40
24.0
  1
大
  7
SANWA
100
AcDbText
  0
CIRCLE
  5
9079
330
747D
100
AcDbEntity
  8
0
 48
15.0
100
AcDbCircle
 10
2057.249546853664
 20
748.1334898804052
 30
0.0
 40
10.0
  0
DIMENSION
  5
907A
330
747D
100
AcDbEntity
  8
寸法引出
 48
15.0
100
AcDbDimension
  2
*D199
 10
2087.249546853664
 20
516.3932210081839
 30
0.0
 11
2072.249546853663
 21
546.3932210081838
 31
0.0
 70
    32
 71
     5
 42
30.0
  3
SANWA
100
AcDbAlignedDimension
 13
2057.249546853664
 23
628.1334898804052
 33
0.0
 14
2087.249546853664
 24
628.1334898804052
 34
0.0
100
AcDbRotatedDimension
1001
ACAD
1000
DSTYLE
1002
{
1070
    40
1040
15.0
1070
    41
1040
1.5
1070
    43
1040
5.0
1070
    44
1040
0.5
1070
    75
1070
     1
1070
   140
1040
2.0
1070
   147
1040
1.0
1070
   176
1070
   256
1070
   177
1070
   256
1070
   178
1070
   256
1070
   279
1070
     1
1002
}
  0
LINE
  5
907B
330
747D
100
AcDbEntity
  8
0
 62
     0
100
AcDbLine
 10
3202.531914893604
 20
522.0000000000027
 30
0.0
 11
3202.531914893604
 21
378.0000000000023
 31
0.0
  0
LINE
  5
907C
330
747D
100
AcDbEntity
  8
0
100
AcDbLine
 10
3202.531914893604
 20
436.0565675878984
 30
0.0
 11
3202.531914893604
 21
529.2701469420904
 31
0.0
  0
LINE
  5
907D
330
747D
100
AcDbEntity
  8
0
 62
     0
100
AcDbLine
 10
3202.531914893604
 20
474.0000000000036
 30
0.0
 11
3598.531914893611
 21
474.0000000000036
 31
0.0
  0
LINE
  5
907E
330
747D
100
AcDbEntity
  8
0
 62
     0
100
AcDbLine
 10
3202.531914893604
 20
426.0000000000031
 30
0.0
 11
3598.531914893611
 21
426.0000000000031
 31
0.0
  0
TEXT
  5
907F
330
747D
100
AcDbEntity
  8
0
 48
2.0
100
AcDbText
 10
3346.205491778219
 20
378.5853012973512
 30
0.0
 40
24.0
  1
1 : 15
  7
SANWA
100
AcDbText
  0
LINE
  5
9080
330
747D
100
AcDbEntity
  8
0
 62
     0
100
AcDbLine
 10
3202.531914893604
 20
270.0000000000018
 30
0.0
 11
3598.531914893611
 21
270.0000000000018
 31
0.0
  0
TEXT
  5
9081
330
747D
100
AcDbEntity
  8
0
 48
2.0
100
AcDbText
 10
3369.075985825585
 20
277.1357177512964
 30
0.0
 40
24.0
  1
設計
  7
SANWA
100
AcDbText
  0
LINE
  5
9082
330
747D
100
AcDbEntity
  8
0
 62
     0
100
AcDbLine
 10
3202.531914893604
 20
342.0000000000027
 30
0.0
 11
3598.531914893611
 21
342.0000000000027
 31
0.0
  0
TEXT
  5
9083
330
747D
100
AcDbEntity
  8
0
 48
2.0
100
AcDbText
 10
3388.972302949391
 20
313.2513790084822
 30
0.0
 40
24.0
  1
2001. 3. 5
  7
SANWA
100
AcDbText
  0
TEXT
  5
9084
330
747D
100
AcDbEntity
  8
0
 48
2.0
100
AcDbText
 10
3326.458873159423
 20
434.3839146702152
 30
0.0
 40
24.0
  1
縮    尺
  7
SANWA
100
AcDbText
  0
LINE
  5
9085
330
747D
100
AcDbEntity
  8
0
100
AcDbLine
 10
3202.531914893604
 20
402.0000000000027
 30
0.0
 11
3202.531914893604
 21
436.0565675878984
 31
0.0
  0
TEXT
  5
9086
330
747D
100
AcDbEntity
  8
0
 48
2.0
100
AcDbText
 10
3234.749396044363
 20
313.2513790084822
 30
0.0
 40
24.0
  1
製図
  7
SANWA
100
AcDbText
  0
LINE
  5
9087
330
747D
100
AcDbEntity
  8
0
100
AcDbLine
 10
3202.531914893604
 20
342.0000000000027
 30
0.0
 11
3202.531914893604
 21
306.0000000000014
 31
0.0
  0
TEXT
  5
9088
330
747D
100
AcDbEntity
  8
0
 48
2.0
100
AcDbText
 10
3231.216179933126
 20
275.7717951156465
 30
0.0
 40
24.0
  1
検図
  7
SANWA
100
AcDbText
  0
LINE
  5
9089
330
747D
100
AcDbEntity
  8
0
100
AcDbLine
 10
3202.531914893604
 20
378.0000000000023
 30
0.0
 11
3202.531914893604
 21
299.9351497097659
 31
0.0
  0
LINE
  5
908A
330
747D
100
AcDbEntity
  8
0
100
AcDbLine
 10
3202.531914893604
 20
342.0000000000027
 30
0.0
 11
3202.531914893604
 21
378.0000000000023
 31
0.0
  0
TEXT
  5
908B
330
747D
100
AcDbEntity
  8
0
 48
2.0
100
AcDbText
 10
3498.749396044368
 20
277.2513790084827
 30
0.0
 40
24.0
  1
製図
  7
SANWA
100
AcDbText
  0
TEXT
  5
908C
102
{ACAD_REACTORS
330
9066
102
}
330
747D
100
AcDbEntity
  8
0
 48
2.0
100
AcDbText
 10
3513.702313167722
 20
218.9590678780223
 30
0.0
 40
24.0
  1
中
  7
SANWA
100
AcDbText
  0
TEXT
  5
908D
330
747D
100
AcDbEntity
  8
0
 48
2.0
100
AcDbText
 10
3392.339284911464
 20
558.6411916425954
 30
0.0
 40
24.0
  1
番号
  7
SANWA
100
AcDbText
  0
LINE
  5
908E
330
747D
100
AcDbEntity
  8
0
 62
     0
100
AcDbLine
 10
3202.531914893604
 20
546.0000000000031
 30
0.0
 11
3598.531914893611
 21
546.0000000000031
 31
0.0
  0
LINE
  5
908F
330
747D
100
AcDbEntity
  8
0
 62
     0
100
AcDbLine
 10
3202.531914893604
 20
546.0000000000031
 30
0.0
 11
3598.531914893611
 21
546.0000000000031
 31
0.0
  0
TEXT
  5
9090
330
747D
100
AcDbEntity
  8
0
 48
2.0
100
AcDbText
 10
3325.407362835249
 20
557.2772861648263
 30
0.0
 40
24.0
  1
図面
  7
SANWA
100
AcDbText
  0
LINE
  5
9091
330
747D
100
AcDbEntity
  8
0
100
AcDbLine
 10
3202.531914893604
 20
594.0000000000036
 30
0.0
 11
3202.531914893604
 21
522.0000000000027
 31
0.0
  0
TEXT
  5
9092
330
747D
100
AcDbEntity
  8
0
100
AcDbText
 10
1590.720635305496
 20
2722.768990422261
 30
0.0
 40
42.0
  1
マルチスリット側溝蓋 Ｓ２型 ５００用
  7
SANWA
 72
     4
 11
2143.680635305496
 21
2743.768990422261
 31
0.0
100
AcDbText
  0
LINE
  5
9093
330
747D
100
AcDbEntity
  8
0
100
AcDbLine
 10
1562.537996990046
 20
2688.000000000001
 30
0.0
 11
3000.622331961328
 21
2688.000000000001
 31
0.0
  0
LINE
  5
9094
330
747D
100
AcDbEntity
  8
0
100
AcDbLine
 10
1562.537996990046
 20
2700.0
 30
0.0
 11
3000.622331961328
 21
2700.0
 31
0.0
  0
LINE
  5
9095
330
747D
100
AcDbEntity
  8
0
 48
15.0
100
AcDbLine
 10
1809.749546853663
 20
2207.6249744426
 30
0.0
 11
2087.249546853664
 21
2224.6249744426
 31
0.0
  0
MTEXT
  5
9096
330
747D
100
AcDbEntity
  8
寸法引出
  6
ByBlock
 48
15.0
100
AcDbMText
 10
1947.388347569308
 20
2249.571272379502
 30
0.0
 40
30.0
 41
0.0
 71
     5
 72
     1
  1
6%
  7
SANWA
 11
0.9981287941855804
 21
0.0611466288329904
 31
0.0
 73
     1
 44
1.0
1001
ACAD
1000
MTEXTBEGIN
1070
    73
1070
     1
1070
    44
1040
1.0
1070
    74
1070
     0
1000
MTEXTEND
  0
LINE
  5
9097
330
747D
100
AcDbEntity
  8
寸法引出
 48
15.0
100
AcDbLine
 10
1901.593357203746
 20
2225.805318447973
 30
0.0
 11
1977.670071246786
 21
2230.465873902862
 31
0.0
  0
LINE
  5
9098
330
747D
100
AcDbEntity
  8
0
 48
15.0
100
AcDbLine
 10
1825.249546853662
 20
2087.6249744426
 30
0.0
 11
2087.249546853664
 21
2087.6249744426
 31
0.0
  0
DIMENSION
  5
9099
330
747D
100
AcDbEntity
  8
寸法引出
 48
15.0
100
AcDbDimension
  2
*D200
 10
2087.249546853664
 20
2358.828772796377
 30
0.0
 11
1777.249546853663
 21
2388.828772796376
 31
0.0
 70
    32
 71
     5
 42
620.0
  3
SANWA
100
AcDbAlignedDimension
 13
1467.249546853663
 23
2224.6249744426
 33
0.0
 14
2087.249546853664
 24
2224.6249744426
 34
0.0
100
AcDbRotatedDimension
1001
ACAD
1000
DSTYLE
1002
{
1070
   140
1040
2.0
1070
    40
1040
15.0
1070
   147
1040
1.0
1070
    44
1040
0.5
1070
    43
1040
5.0
1070
   178
1070
   256
1070
   177
1070
   256
1070
   176
1070
   256
1070
    41
1040
1.5
1002
}
  0
DIMENSION
  5
909A
330
747D
100
AcDbEntity
  8
寸法引出
 48
15.0
100
AcDbDimension
  2
*D201
 10
2087.249546853664
 20
2300.807064814712
 30
0.0
 11
1948.499546853663
 21
2330.807064814711
 31
0.0
 70
    32
 71
     5
 42
277.5
  3
SANWA
100
AcDbAlignedDimension
 13
1809.749546853663
 23
2207.6249744426
 33
0.0
 14
2087.249546853664
 24
2224.6249744426
 34
0.0
100
AcDbRotatedDimension
1001
ACAD
1000
DSTYLE
1002
{
1070
    40
1040
15.0
1070
    41
1040
1.5
1070
    43
1040
5.0
1070
    44
1040
0.5
1070
    75
1070
     1
1070
   140
1040
2.0
1070
   147
1040
1.0
1070
   176
1070
   256
1070
   177
1070
   256
1070
   178
1070
   256
1070
   279
1070
     1
1002
}
  0
LINE
  5
909B
330
747D
100
AcDbEntity
  8
0
 48
15.0
100
AcDbLine
 10
1467.249546853663
 20
1628.133489880405
 30
0.0
 11
2087.249546853664
 21
1628.133489880405
 31
0.0
  0
DIMENSION
  5
909C
330
747D
100
AcDbEntity
  8
寸法引出
 48
15.0
100
AcDbDimension
  2
*D202
 10
2087.249546853664
 20
1731.94874137183
 30
0.0
 11
1948.499546853663
 21
1761.948741371831
 31
0.0
 70
    32
 71
     5
 42
277.5
  3
SANWA
100
AcDbAlignedDimension
 13
1809.749546853663
 23
1628.133489880405
 33
0.0
 14
2087.249546853664
 24
1628.133489880405
 34
0.0
100
AcDbRotatedDimension
1001
ACAD
1000
DSTYLE
1002
{
1070
    40
1040
15.0
1070
    41
1040
1.5
1070
    43
1040
5.0
1070
    44
1040
0.5
1070
    75
1070
     1
1070
   140
1040
2.0
1070
   147
1040
1.0
1070
   176
1070
   256
1070
   177
1070
   256
1070
   178
1070
   256
1070
   279
1070
     1
1002
}
  0
DIMENSION
  5
909D
330
747D
100
AcDbEntity
  8
寸法引出
 48
15.0
100
AcDbDimension
  2
*D203
 10
2087.249546853664
 20
1937.153224009685
 30
0.0
 11
1956.249546853663
 21
1967.153224009686
 31
0.0
 70
    32
 71
     5
 42
262.0000000000009
  3
SANWA
100
AcDbAlignedDimension
 13
1825.249546853662
 23
2087.6249744426
 33
0.0
 14
2087.249546853664
 24
2087.6249744426
 34
0.0
100
AcDbRotatedDimension
1001
ACAD
1000
DSTYLE
1002
{
1070
    40
1040
15.0
1070
    41
1040
1.5
1070
    43
1040
5.0
1070
    44
1040
0.5
1070
    75
1070
     1
1070
   140
1040
2.0
1070
   147
1040
1.0
1070
   176
1070
   256
1070
   177
1070
   256
1070
   178
1070
   256
1070
   279
1070
     1
1002
}
  0
DIMENSION
  5
909E
330
747D
100
AcDbEntity
  8
寸法引出
 48
15.0
100
AcDbDimension
  2
*D204
 10
1809.749546853663
 20
2300.807064814712
 30
0.0
 11
1777.249546853663
 21
2330.807064814711
 31
0.0
 70
    32
 71
     5
 42
65.0
  3
SANWA
100
AcDbAlignedDimension
 13
1744.749546853664
 23
2207.6249744426
 33
0.0
 14
1809.749546853663
 24
2207.6249744426
 34
0.0
100
AcDbRotatedDimension
1001
ACAD
1000
DSTYLE
1002
{
1070
    40
1040
15.0
1070
    41
1040
1.5
1070
    43
1040
5.0
1070
    44
1040
0.5
1070
    75
1070
     1
1070
   140
1040
2.0
1070
   147
1040
1.0
1070
   176
1070
   256
1070
   177
1070
   256
1070
   178
1070
   256
1070
   279
1070
     1
1002
}
  0
DIMENSION
  5
909F
330
747D
100
AcDbEntity
  8
寸法引出
 48
15.0
100
AcDbDimension
  2
*D205
 10
1744.749546853664
 20
2300.807064814712
 30
0.0
 11
1605.999546853663
 21
2330.807064814711
 31
0.0
 70
    32
 71
     5
 42
277.5
  3
SANWA
100
AcDbAlignedDimension
 13
1467.249546853663
 23
2224.6249744426
 33
0.0
 14
1744.749546853664
 24
2207.6249744426
 34
0.0
100
AcDbRotatedDimension
1001
ACAD
1000
DSTYLE
1002
{
1070
   140
1040
2.0
1070
    40
1040
15.0
1070
   147
1040
1.0
1070
    44
1040
0.5
1070
    43
1040
5.0
1070
   178
1070
   256
1070
   177
1070
   256
1070
   176
1070
   256
1070
    41
1040
1.5
1002
}
  0
LEADER
  5
90A0
330
747D
100
AcDbEntity
  8
寸法引出
 48
15.0
100
AcDbLeader
  3
SANWA
 76
     3
 10
1497.249546853664
 20
1518.133489880405
 30
0.0
 10
1372.901790670283
 20
1717.212551398847
 30
0.0
 10
1059.959703578835
 20
1717.212551398847
 30
0.0
1001
ACAD
1000
DSTYLE
1002
{
1070
   140
1040
2.0
1070
    40
1040
15.0
1070
   147
1040
1.0
1070
    44
1040
0.5
1070
    43
1040
5.0
1070
   178
1070
   256
1070
   177
1070
   256
1070
   176
1070
   256
1070
    41
1040
1.5
1002
}
  0
MTEXT
  5
90A1
330
747D
100
AcDbEntity
  8
寸法引出
  6
ByBlock
 48
15.0
100
AcDbMText
 10
1211.587791620099
 20
1740.83818263889
 30
0.0
 40
30.0
 41
0.0
 71
     5
 72
     1
  1
ﾛｯｸﾋﾟﾝ用ｲﾝｻｰﾄ
  7
SANWA
 73
     1
 44
1.0
1001
ACAD
1000
MTEXTBEGIN
1070
    73
1070
     1
1070
    44
1040
1.0
1070
    74
1070
     0
1000
MTEXTEND
  0
DIMENSION
  5
90A2
330
747D
100
AcDbEntity
  8
寸法引出
 48
15.0
100
AcDbDimension
  2
*D206
 10
1744.749546853664
 20
1731.94874137183
 30
0.0
 11
1605.999546853663
 21
1761.948741371831
 31
0.0
 70
    32
 71
     5
 42
277.5
  3
SANWA
100
AcDbAlignedDimension
 13
1467.249546853663
 23
1628.133489880405
 33
0.0
 14
1744.749546853664
 24
1628.133489880405
 34
0.0
100
AcDbRotatedDimension
1001
ACAD
1000
DSTYLE
1002
{
1070
   140
1040
2.0
1070
    40
1040
15.0
1070
   147
1040
1.0
1070
    44
1040
0.5
1070
    43
1040
5.0
1070
   178
1070
   256
1070
   177
1070
   256
1070
   176
1070
   256
1070
    41
1040
1.5
1002
}
  0
DIMENSION
  5
90A3
330
747D
100
AcDbEntity
  8
寸法引出
 48
15.0
100
AcDbDimension
  2
*D207
 10
1354.583193847953
 20
1508.133489880405
 30
0.0
 11
1324.583193847953
 21
1568.133489880405
 31
0.0
 70
    32
 71
     5
 42
120.0
  3
SANWA
100
AcDbAlignedDimension
 13
1467.249546853663
 23
1628.133489880405
 33
0.0
 14
1467.249546853663
 24
1508.133489880405
 34
0.0
 50
90.0
100
AcDbRotatedDimension
1001
ACAD
1000
DSTYLE
1002
{
1070
   140
1040
2.0
1070
    40
1040
15.0
1070
   147
1040
1.0
1070
    44
1040
0.5
1070
    43
1040
5.0
1070
   178
1070
   256
1070
   177
1070
   256
1070
   176
1070
   256
1070
    41
1040
1.5
1002
}
  0
CIRCLE
  5
90A4
330
747D
100
AcDbEntity
  8
0
 48
15.0
100
AcDbCircle
 10
1497.249546853663
 20
1508.133489880405
 30
0.0
 40
10.0
  0
DIMENSION
  5
90A5
330
747D
100
AcDbEntity
  8
寸法引出
 48
15.0
100
AcDbDimension
  2
*D208
 10
1809.749546853663
 20
1731.94874137183
 30
0.0
 11
1777.249546853663
 21
1761.948741371831
 31
0.0
 70
    32
 71
     5
 42
65.0
  3
SANWA
100
AcDbAlignedDimension
 13
1744.749546853664
 23
1628.133489880405
 33
0.0
 14
1809.749546853663
 24
1628.133489880405
 34
0.0
100
AcDbRotatedDimension
1001
ACAD
1000
DSTYLE
1002
{
1070
    40
1040
15.0
1070
    41
1040
1.5
1070
    43
1040
5.0
1070
    44
1040
0.5
1070
    75
1070
     1
1070
   140
1040
2.0
1070
   147
1040
1.0
1070
   176
1070
   256
1070
   177
1070
   256
1070
   178
1070
   256
1070
   279
1070
     1
1002
}
  0
LINE
  5
90A6
330
747D
100
AcDbEntity
  8
0
 48
15.0
100
AcDbLine
 10
1467.249546853663
 20
2224.6249744426
 30
0.0
 11
1744.749546853664
 21
2207.6249744426
 31
0.0
  0
LINE
  5
90A7
330
747D
100
AcDbEntity
  8
0
 48
15.0
100
AcDbLine
 10
1467.249546853663
 20
2087.6249744426
 30
0.0
 11
1729.249546853663
 21
2087.6249744426
 31
0.0
  0
DIMENSION
  5
90A8
330
747D
100
AcDbEntity
  8
寸法引出
 48
15.0
100
AcDbDimension
  2
*D209
 10
1497.249546853663
 20
1999.057895504171
 30
0.0
 11
1482.249546853663
 21
2029.057895504171
 31
0.0
 70
    32
 71
     5
 42
30.0
  3
SANWA
100
AcDbAlignedDimension
 13
1467.249546853663
 23
2087.6249744426
 33
0.0
 14
1497.249546853663
 24
2087.6249744426
 34
0.0
100
AcDbRotatedDimension
1001
ACAD
1000
DSTYLE
1002
{
1070
   140
1040
2.0
1070
    40
1040
15.0
1070
   147
1040
1.0
1070
    44
1040
0.5
1070
    43
1040
5.0
1070
   178
1070
   256
1070
   177
1070
   256
1070
   176
1070
   256
1070
    41
1040
1.5
1002
}
  0
DIMENSION
  5
90A9
330
747D
100
AcDbEntity
  8
寸法引出
 48
15.0
100
AcDbDimension
  2
*D210
 10
1729.249546853663
 20
1937.153224009685
 30
0.0
 11
1598.249546853663
 21
1967.153224009686
 31
0.0
 70
    32
 71
     5
 42
262.0
  3
SANWA
100
AcDbAlignedDimension
 13
1467.249546853663
 23
2087.6249744426
 33
0.0
 14
1729.249546853663
 24
2087.6249744426
 34
0.0
100
AcDbRotatedDimension
1001
ACAD
1000
DSTYLE
1002
{
1070
   140
1040
2.0
1070
    40
1040
15.0
1070
   147
1040
1.0
1070
    44
1040
0.5
1070
    43
1040
5.0
1070
   178
1070
   256
1070
   177
1070
   256
1070
   176
1070
   256
1070
    41
1040
1.5
1002
}
  0
DIMENSION
  5
90AA
330
747D
100
AcDbEntity
  8
寸法引出
 48
15.0
100
AcDbDimension
  2
*D211
 10
1379.565834117195
 20
2224.6249744426
 30
0.0
 11
1349.565834117194
 21
2216.124974442601
 31
0.0
 70
    32
 71
     5
 42
17.0
  3
SANWA
100
AcDbAlignedDimension
 13
1467.249546853663
 23
2207.6249744426
 33
0.0
 14
1467.249546853663
 24
2224.6249744426
 34
0.0
 50
90.0
100
AcDbRotatedDimension
1001
ACAD
1000
DSTYLE
1002
{
1070
    40
1040
15.0
1070
    41
1040
1.5
1070
    43
1040
5.0
1070
    44
1040
0.5
1070
    75
1070
     1
1070
   140
1040
2.0
1070
   147
1040
1.0
1070
   176
1070
   256
1070
   177
1070
   256
1070
   178
1070
   256
1070
   279
1070
     1
1002
}
  0
LINE
  5
90AB
330
747D
100
AcDbEntity
  8
0
  6
HIDDEN2
 48
5.0
100
AcDbLine
 10
1487.249546853663
 20
2120.6249744426
 30
0.0
 11
1487.249546853663
 21
2087.6249744426
 31
0.0
  0
LINE
  5
90AC
330
747D
100
AcDbEntity
  8
0
  6
HIDDEN2
 48
5.0
100
AcDbLine
 10
1507.249546853663
 20
2120.6249744426
 30
0.0
 11
1507.249546853663
 21
2087.6249744426
 31
0.0
  0
LINE
  5
90AD
330
747D
100
AcDbEntity
  8
0
  6
HIDDEN2
 48
5.0
100
AcDbLine
 10
1487.249546853663
 20
2120.6249744426
 30
0.0
 11
1507.249546853663
 21
2120.6249744426
 31
0.0
  0
LINE
  5
90AE
330
747D
100
AcDbEntity
  8
0
 48
15.0
100
AcDbLine
 10
1467.249546853663
 20
2224.6249744426
 30
0.0
 11
1467.249546853663
 21
2087.6249744426
 31
0.0
  0
DIMENSION
  5
90AF
330
747D
100
AcDbEntity
  8
寸法引出
 48
15.0
100
AcDbDimension
  2
*D212
 10
1379.565834117195
 20
2207.6249744426
 30
0.0
 11
1349.565834117194
 21
2147.624974442601
 31
0.0
 70
    32
 71
     5
 42
120.0
  3
SANWA
100
AcDbAlignedDimension
 13
1467.249546853663
 23
2087.6249744426
 33
0.0
 14
1467.249546853663
 24
2207.6249744426
 34
0.0
 50
90.0
100
AcDbRotatedDimension
1001
ACAD
1000
DSTYLE
1002
{
1070
   140
1040
2.0
1070
    40
1040
15.0
1070
   147
1040
1.0
1070
    44
1040
0.5
1070
    43
1040
5.0
1070
   178
1070
   256
1070
   177
1070
   256
1070
   176
1070
   256
1070
    41
1040
1.5
1002
}
  0
SOLID
  5
90B0
330
747D
100
AcDbEntity
  8
寸法引出
  6
ByBlock
 48
15.0
100
AcDbTrace
 10
1788.248624486863
 20
2065.1249744426
 30
0.0
 11
1795.748624486863
 21
2065.1249744426
 31
0.0
 12
1791.998624486863
 22
2087.6249744426
 32
0.0
 13
1791.998624486863
 23
2087.6249744426
 33
0.0
  0
MTEXT
  5
90B1
330
747D
100
AcDbEntity
  8
寸法引出
  6
ByBlock
 48
15.0
100
AcDbMText
 10
1761.998624486863
 20
2068.006281196952
 30
0.0
 40
30.0
 41
0.0
 71
     5
 72
     1
  1
\A1;9
  7
SANWA
 11
0.0000000000000001
 21
1.0
 31
0.0
 73
     1
 44
1.0
1001
ACAD
1000
MTEXTBEGIN
1070
    73
1070
     1
1070
    44
1040
1.0
1070
    74
1070
     0
1000
MTEXTEND
  0
DIMENSION
  5
90B2
330
747D
100
AcDbEntity
  8
寸法引出
 48
15.0
100
AcDbDimension
  2
*D213
 10
1820.249546853662
 20
1999.057895504171
 30
0.0
 11
1777.249546853663
 21
2029.057895504171
 31
0.0
 70
    32
 71
     5
 42
85.99999999999909
  3
SANWA
100
AcDbAlignedDimension
 13
1734.249546853664
 23
2096.6249744426
 33
0.0
 14
1820.249546853662
 24
2096.624974442599
 34
0.0
100
AcDbRotatedDimension
1001
ACAD
1000
DSTYLE
1002
{
1070
   140
1040
2.0
1070
    40
1040
15.0
1070
   147
1040
1.0
1070
    44
1040
0.5
1070
    43
1040
5.0
1070
   178
1070
   256
1070
   177
1070
   256
1070
   176
1070
   256
1070
    41
1040
1.5
1002
}
  0
DIMENSION
  5
90B3
330
747D
100
AcDbEntity
  8
寸法引出
 48
15.0
100
AcDbDimension
  2
*D214
 10
1825.249546853662
 20
1937.153224009685
 30
0.0
 11
1777.249546853663
 21
1967.153224009686
 31
0.0
 70
    32
 71
     5
 42
95.99999999999909
  3
SANWA
100
AcDbAlignedDimension
 13
1729.249546853663
 23
2087.6249744426
 33
0.0
 14
1825.249546853662
 24
2087.6249744426
 34
0.0
100
AcDbRotatedDimension
1001
ACAD
1000
DSTYLE
1002
{
1070
   140
1040
2.0
1070
    40
1040
15.0
1070
   147
1040
1.0
1070
    44
1040
0.5
1070
    43
1040
5.0
1070
   178
1070
   256
1070
   177
1070
   256
1070
   176
1070
   256
1070
    41
1040
1.5
1002
}
  0
LINE
  5
90B4
330
747D
100
AcDbEntity
  8
寸法引出
  6
ByBlock
 48
15.0
100
AcDbLine
 10
1791.998624486863
 20
2065.1249744426
 30
0.0
 11
1791.998624486863
 21
2042.6249744426
 31
0.0
  0
LINE
  5
90B5
330
747D
100
AcDbEntity
  8
寸法引出
 48
15.0
100
AcDbLine
 10
1652.90573650358
 20
2225.805318447973
 30
0.0
 11
1576.829022460541
 21
2230.465873902862
 31
0.0
  0
LINE
  5
90B6
330
747D
100
AcDbEntity
  8
寸法引出
 48
15.0
100
AcDbLine
 10
1652.90573650358
 20
2225.805318447973
 30
0.0
 11
1639.363256154273
 21
2231.052401584049
 31
0.0
  0
MTEXT
  5
90B7
330
747D
100
AcDbEntity
  8
寸法引出
  6
ByBlock
 48
15.0
100
AcDbMText
 10
1607.13268031576
 20
2251.06498480414
 30
0.0
 40
30.0
 41
0.0
 71
     5
 72
     1
  1
6%
  7
SANWA
 11
0.9981287941855804
 21
-0.0611466288329882
 31
0.0
 73
     1
 44
1.0
1001
ACAD
1000
MTEXTBEGIN
1070
    73
1070
     1
1070
    44
1040
1.0
1070
    74
1070
     0
1000
MTEXTEND
  0
LINE
  5
90B8
330
747D
100
AcDbEntity
  8
0
 48
15.0
100
AcDbLine
 10
1744.749546853664
 20
2207.6249744426
 30
0.0
 11
1809.749546853663
 21
2207.6249744426
 31
0.0
  0
LINE
  5
90B9
330
747D
100
AcDbEntity
  8
寸法引出
 48
15.0
100
AcDbLine
 10
1901.593357203746
 20
2225.805318447973
 30
0.0
 11
1915.135837553054
 21
2231.052401584049
 31
0.0
  0
LINE
  5
90BA
330
747D
100
AcDbEntity
  8
寸法引出
 48
15.0
100
AcDbLine
 10
1777.249546853663
 20
2207.6249744426
 30
0.0
 11
1777.249546853663
 21
2278.474918774824
 31
0.0
  0
LINE
  5
90BB
330
747D
100
AcDbEntity
  8
0
 48
15.0
100
AcDbLine
 10
1744.749546853664
 20
2169.624974442601
 30
0.0
 11
1809.749546853663
 21
2169.6249744426
 31
0.0
  0
LINE
  5
90BC
330
747D
100
AcDbEntity
  8
0
 48
15.0
100
AcDbLine
 10
1734.249546853664
 20
2167.3249744426
 30
0.0
 11
1820.249546853662
 21
2167.3249744426
 31
0.0
  0
LINE
  5
90BD
330
747D
100
AcDbEntity
  8
0
 48
15.0
100
AcDbLine
 10
1744.749546853664
 20
2207.6249744426
 30
0.0
 11
1744.749546853664
 21
2169.624974442601
 31
0.0
  0
LINE
  5
90BE
330
747D
100
AcDbEntity
  8
0
 48
15.0
100
AcDbLine
 10
1809.749546853663
 20
2207.6249744426
 30
0.0
 11
1809.749546853663
 21
2169.6249744426
 31
0.0
  0
LINE
  5
90BF
330
747D
100
AcDbEntity
  8
0
 48
15.0
100
AcDbLine
 10
1744.749546853664
 20
2207.6249744426
 30
0.0
 11
1809.749546853663
 21
2169.6249744426
 31
0.0
  0
LINE
  5
90C0
330
747D
100
AcDbEntity
  8
0
 48
15.0
100
AcDbLine
 10
1809.749546853663
 20
2207.6249744426
 30
0.0
 11
1744.749546853664
 21
2169.624974442601
 31
0.0
  0
DIMENSION
  5
90C1
330
747D
100
AcDbEntity
  8
寸法引出
 48
15.0
100
AcDbDimension
  2
*D215
 10
1887.562290172776
 20
2167.3249744426
 30
0.0
 11
1857.562290172776
 21
2168.4749744426
 31
0.0
 70
    32
 71
     5
 42
2.300000000000181
  3
SANWA
100
AcDbAlignedDimension
 13
1809.749546853663
 23
2169.6249744426
 33
0.0
 14
1820.249546853662
 24
2167.3249744426
 34
0.0
 50
90.0
100
AcDbRotatedDimension
1001
ACAD
1000
DSTYLE
1002
{
1070
   140
1040
2.0
1070
    40
1040
15.0
1070
   147
1040
1.0
1070
    44
1040
0.5
1070
    43
1040
5.0
1070
   178
1070
   256
1070
   177
1070
   256
1070
   176
1070
   256
1070
    41
1040
1.5
1002
}
  0
LINE
  5
90C2
330
747D
100
AcDbEntity
  8
0
 48
15.0
100
AcDbLine
 10
1729.814164168594
 20
2096.6249744426
 30
0.0
 11
1824.684929538731
 21
2096.624974442599
 31
0.0
  0
POINT
  5
90C3
330
747D
100
AcDbEntity
  8
DEFPOINTS
  6
ByBlock
 62
     0
 48
15.0
100
AcDbPoint
 10
1824.684929538731
 20
2096.624974442599
 30
0.0
  0
POINT
  5
90C4
330
747D
100
AcDbEntity
  8
DEFPOINTS
  6
ByBlock
 62
     0
 48
15.0
100
AcDbPoint
 10
1825.249546853662
 20
2087.6249744426
 30
0.0
  0
POINT
  5
90C5
330
747D
100
AcDbEntity
  8
寸法引出
  6
ByBlock
 62
     0
 48
15.0
100
AcDbPoint
 10
1791.998624486863
 20
2087.6249744426
 30
0.0
  0
SOLID
  5
90C6
330
747D
100
AcDbEntity
  8
寸法引出
  6
ByBlock
 48
15.0
100
AcDbTrace
 10
1788.248624486863
 20
2119.1249744426
 30
0.0
 11
1795.748624486863
 21
2119.1249744426
 31
0.0
 12
1791.998624486863
 22
2096.624974442599
 32
0.0
 13
1791.998624486863
 23
2096.624974442599
 33
0.0
  0
LINE
  5
90C7
330
747D
100
AcDbEntity
  8
寸法引出
  6
ByBlock
 48
15.0
100
AcDbLine
 10
1791.998624486863
 20
2096.624974442599
 30
0.0
 11
1791.998624486863
 21
2087.6249744426
 31
0.0
  0
LINE
  5
90C8
330
747D
100
AcDbEntity
  8
寸法引出
  6
ByBlock
 48
15.0
100
AcDbLine
 10
1810.249546853663
 20
2087.6249744426
 30
0.0
 11
1784.498624486863
 21
2087.6249744426
 31
0.0
  0
LINE
  5
90C9
330
747D
100
AcDbEntity
  8
寸法引出
  6
ByBlock
 48
15.0
100
AcDbLine
 10
1809.684929538731
 20
2096.624974442599
 30
0.0
 11
1784.498624486863
 21
2096.624974442599
 31
0.0
  0
LINE
  5
90CA
330
747D
100
AcDbEntity
  8
0
 48
15.0
100
AcDbLine
 10
1734.249546853664
 20
2167.3249744426
 30
0.0
 11
1729.249546853662
 21
2087.6249744426
 31
0.0
  0
LINE
  5
90CB
330
747D
100
AcDbEntity
  8
0
 48
15.0
100
AcDbLine
 10
1820.249546853662
 20
2167.3249744426
 30
0.0
 11
1825.249546853662
 21
2087.6249744426
 31
0.0
  0
LINE
  5
90CC
330
747D
100
AcDbEntity
  8
寸法引出
  6
ByBlock
 48
15.0
100
AcDbLine
 10
1791.998624486863
 20
2119.1249744426
 30
0.0
 11
1791.998624486863
 21
2141.6249744426
 31
0.0
  0
DIMENSION
  5
90CD
330
747D
100
AcDbEntity
  8
寸法引出
 48
15.0
100
AcDbDimension
  2
*D216
 10
3409.500265450521
 20
2307.718423190658
 30
0.0
 11
2909.500265450521
 21
2337.718423190658
 31
0.0
 70
    32
 71
     5
 42
1000.0
  3
SANWA
100
AcDbAlignedDimension
 13
2409.500265450521
 23
2224.6249744426
 33
0.0
 14
3409.500265450521
 24
2224.6249744426
 34
0.0
100
AcDbRotatedDimension
1001
ACAD
1000
DSTYLE
1002
{
1070
   140
1040
2.0
1070
    40
1040
15.0
1070
   147
1040
1.0
1070
    44
1040
0.5
1070
    43
1040
5.0
1070
   178
1070
   256
1070
   177
1070
   256
1070
   176
1070
   256
1070
    41
1040
1.5
1002
}
  0
LINE
  5
90CE
330
747D
100
AcDbEntity
  8
0
 48
15.0
100
AcDbLine
 10
2409.500265450521
 20
2224.6249744426
 30
0.0
 11
3409.500265450521
 21
2224.6249744426
 31
0.0
  0
LINE
  5
90CF
330
747D
100
AcDbEntity
  8
0
  6
HIDDEN2
 48
15.0
100
AcDbLine
 10
2409.500265450521
 20
2207.6249744426
 30
0.0
 11
3409.500265450521
 21
2207.6249744426
 31
0.0
  0
LINE
  5
90D0
330
747D
100
AcDbEntity
  8
0
  6
HIDDEN2
 48
15.0
100
AcDbLine
 10
2409.500265450521
 20
2169.6249744426
 30
0.0
 11
3409.500265450521
 21
2169.6249744426
 31
0.0
  0
LINE
  5
90D1
330
747D
100
AcDbEntity
  8
0
  6
HIDDEN2
 48
10.0
100
AcDbLine
 10
2739.500265450521
 20
2096.6249744426
 30
0.0
 11
2789.50026545052
 21
2096.6249744426
 31
0.0
  0
LINE
  5
90D2
330
747D
100
AcDbEntity
  8
0
 48
15.0
100
AcDbLine
 10
2409.500265450521
 20
2087.6249744426
 30
0.0
 11
3409.500265450521
 21
2087.6249744426
 31
0.0
  0
DIMENSION
  5
90D3
330
747D
100
AcDbEntity
  8
寸法引出
 48
15.0
100
AcDbDimension
  2
*D217
 10
3289.50026545052
 20
1999.057895504171
 30
0.0
 11
2909.500265450521
 21
2029.057895504171
 31
0.0
 70
    32
 71
     5
 42
760.0
  3
SANWA
100
AcDbAlignedDimension
 13
2529.500265450521
 23
2087.6249744426
 33
0.0
 14
3289.50026545052
 24
2087.6249744426
 34
0.0
100
AcDbRotatedDimension
1001
ACAD
1000
DSTYLE
1002
{
1070
    40
1040
15.0
1070
    41
1040
1.5
1070
    43
1040
5.0
1070
    44
1040
0.5
1070
    75
1070
     1
1070
   140
1040
2.0
1070
   147
1040
1.0
1070
   176
1070
   256
1070
   177
1070
   256
1070
   178
1070
   256
1070
   279
1070
     1
1002
}
  0
CIRCLE
  5
90D4
330
747D
100
AcDbEntity
  8
0
 48
15.0
100
AcDbCircle
 10
2057.249546853664
 20
1508.133489880405
 30
0.0
 40
10.0
  0
DIMENSION
  5
90D5
330
747D
100
AcDbEntity
  8
寸法引出
 48
15.0
100
AcDbDimension
  2
*D218
 10
2330.654502511621
 20
2224.6249744426
 30
0.0
 11
2300.654502511621
 21
2216.124974442601
 31
0.0
 70
    32
 71
     5
 42
17.0
  3
SANWA
100
AcDbAlignedDimension
 13
2409.500265450521
 23
2207.6249744426
 33
0.0
 14
2409.500265450521
 24
2224.6249744426
 34
0.0
 50
90.0
100
AcDbRotatedDimension
1001
ACAD
1000
DSTYLE
1002
{
1070
    40
1040
15.0
1070
    41
1040
1.5
1070
    43
1040
5.0
1070
    44
1040
0.5
1070
    75
1070
     1
1070
   140
1040
2.0
1070
   147
1040
1.0
1070
   176
1070
   256
1070
   177
1070
   256
1070
   178
1070
   256
1070
   279
1070
     1
1002
}
  0
DIMENSION
  5
90D6
330
747D
100
AcDbEntity
  8
寸法引出
 48
15.0
100
AcDbDimension
  2
*D219
 10
2330.654502511621
 20
2207.6249744426
 30
0.0
 11
2300.654502511621
 21
2147.624974442601
 31
0.0
 70
    32
 71
     5
 42
120.0
  3
SANWA
100
AcDbAlignedDimension
 13
2409.500265450521
 23
2087.6249744426
 33
0.0
 14
2409.500265450521
 24
2207.6249744426
 34
0.0
 50
90.0
100
AcDbRotatedDimension
1001
ACAD
1000
DSTYLE
1002
{
1070
   140
1040
2.0
1070
    40
1040
15.0
1070
   147
1040
1.0
1070
    44
1040
0.5
1070
    43
1040
5.0
1070
   178
1070
   256
1070
   177
1070
   256
1070
   176
1070
   256
1070
    41
1040
1.5
1002
}
  0
DIMENSION
  5
90D7
330
747D
100
AcDbEntity
  8
寸法引出
 48
15.0
100
AcDbDimension
  2
*D220
 10
2087.249546853664
 20
1999.057895504171
 30
0.0
 11
2072.249546853663
 21
2029.057895504171
 31
0.0
 70
    32
 71
     5
 42
30.0
  3
SANWA
100
AcDbAlignedDimension
 13
2057.249546853664
 23
2087.6249744426
 33
0.0
 14
2087.249546853664
 24
2087.6249744426
 34
0.0
100
AcDbRotatedDimension
1001
ACAD
1000
DSTYLE
1002
{
1070
   140
1040
2.0
1070
    40
1040
15.0
1070
   147
1040
1.0
1070
    44
1040
0.5
1070
    43
1040
5.0
1070
   178
1070
   256
1070
   177
1070
   256
1070
   176
1070
   256
1070
    41
1040
1.5
1002
}
  0
DIMENSION
  5
90D8
330
747D
100
AcDbEntity
  8
寸法引出
 48
15.0
100
AcDbDimension
  2
*D221
 10
2177.271251916813
 20
2224.6249744426
 30
0.0
 11
2147.271251916812
 21
2156.1249744426
 31
0.0
 70
    32
 71
     5
 42
137.0
  3
SANWA
100
AcDbAlignedDimension
 13
2087.249546853664
 23
2087.6249744426
 33
0.0
 14
2087.249546853664
 24
2224.6249744426
 34
0.0
 50
90.0
100
AcDbRotatedDimension
1001
ACAD
1000
DSTYLE
1002
{
1070
   140
1040
2.0
1070
    40
1040
15.0
1070
   147
1040
1.0
1070
    44
1040
0.5
1070
    43
1040
5.0
1070
   178
1070
   256
1070
   177
1070
   256
1070
   176
1070
   256
1070
    41
1040
1.5
1002
}
  0
LINE
  5
90D9
330
747D
100
AcDbEntity
  8
0
  6
HIDDEN2
 48
5.0
100
AcDbLine
 10
2047.249546853664
 20
2120.6249744426
 30
0.0
 11
2047.249546853664
 21
2087.6249744426
 31
0.0
  0
LINE
  5
90DA
330
747D
100
AcDbEntity
  8
0
  6
HIDDEN2
 48
5.0
100
AcDbLine
 10
2067.249546853664
 20
2120.6249744426
 30
0.0
 11
2067.249546853664
 21
2087.6249744426
 31
0.0
  0
LINE
  5
90DB
330
747D
100
AcDbEntity
  8
0
  6
HIDDEN2
 48
5.0
100
AcDbLine
 10
2047.249546853664
 20
2120.6249744426
 30
0.0
 11
2067.249546853664
 21
2120.6249744426
 31
0.0
  0
LINE
  5
90DC
330
747D
100
AcDbEntity
  8
0
 48
15.0
100
AcDbLine
 10
2087.249546853664
 20
2224.6249744426
 30
0.0
 11
2087.249546853664
 21
2087.6249744426
 31
0.0
  0
DIMENSION
  5
90DD
330
747D
100
AcDbEntity
  8
寸法引出
 48
15.0
100
AcDbDimension
  2
*D222
 10
2529.500265450521
 20
1999.057895504171
 30
0.0
 11
2469.500265450521
 21
2029.057895504171
 31
0.0
 70
    32
 71
     5
 42
120.0
  3
SANWA
100
AcDbAlignedDimension
 13
2409.500265450521
 23
2087.6249744426
 33
0.0
 14
2529.500265450521
 24
2087.6249744426
 34
0.0
100
AcDbRotatedDimension
1001
ACAD
1000
DSTYLE
1002
{
1070
   140
1040
2.0
1070
    40
1040
15.0
1070
   147
1040
1.0
1070
    44
1040
0.5
1070
    43
1040
5.0
1070
   178
1070
   256
1070
   177
1070
   256
1070
   176
1070
   256
1070
    41
1040
1.5
1002
}
  0
LINE
  5
90DE
330
747D
100
AcDbEntity
  8
0
  6
HIDDEN2
 48
10.0
100
AcDbLine
 10
2444.500265450521
 20
2096.6249744426
 30
0.0
 11
2494.500265450521
 21
2096.6249744426
 31
0.0
  0
LINE
  5
90DF
330
747D
100
AcDbEntity
  8
0
  6
HIDDEN2
 48
5.0
100
AcDbLine
 10
2539.500265450522
 20
2120.6249744426
 30
0.0
 11
2539.50026545052
 21
2087.6249744426
 31
0.0
  0
LINE
  5
90E0
330
747D
100
AcDbEntity
  8
0
  6
HIDDEN2
 48
5.0
100
AcDbLine
 10
2519.500265450522
 20
2120.6249744426
 30
0.0
 11
2539.500265450522
 21
2120.6249744426
 31
0.0
  0
LINE
  5
90E1
330
747D
100
AcDbEntity
  8
0
  6
HIDDEN2
 48
5.0
100
AcDbLine
 10
2519.500265450522
 20
2120.6249744426
 30
0.0
 11
2519.500265450521
 21
2087.6249744426
 31
0.0
  0
LINE
  5
90E2
330
747D
100
AcDbEntity
  8
0
 48
15.0
100
AcDbLine
 10
2409.500265450521
 20
2224.6249744426
 30
0.0
 11
2409.500265450521
 21
2087.6249744426
 31
0.0
  0
LINE
  5
90E3
330
747D
100
AcDbEntity
  8
0
  6
HIDDEN2
 48
10.0
100
AcDbLine
 10
2494.500265450521
 20
2096.6249744426
 30
0.0
 11
2499.500265450521
 21
2169.6249744426
 31
0.0
  0
LINE
  5
90E4
330
747D
100
AcDbEntity
  8
0
  6
HIDDEN2
 48
10.0
100
AcDbLine
 10
2439.500265450521
 20
2169.6249744426
 30
0.0
 11
2444.500265450521
 21
2096.6249744426
 31
0.0
  0
LINE
  5
90E5
330
747D
100
AcDbEntity
  8
0
  6
HIDDEN2
 48
10.0
100
AcDbLine
 10
2594.500265450521
 20
2096.6249744426
 30
0.0
 11
2644.500265450521
 21
2096.6249744426
 31
0.0
  0
LINE
  5
90E6
330
747D
100
AcDbEntity
  8
0
  6
HIDDEN2
 48
10.0
100
AcDbLine
 10
2644.500265450521
 20
2096.6249744426
 30
0.0
 11
2649.500265450521
 21
2169.6249744426
 31
0.0
  0
LINE
  5
90E7
330
747D
100
AcDbEntity
  8
0
  6
HIDDEN2
 48
10.0
100
AcDbLine
 10
2589.500265450521
 20
2169.6249744426
 30
0.0
 11
2594.500265450521
 21
2096.6249744426
 31
0.0
  0
LINE
  5
90E8
330
747D
100
AcDbEntity
  8
0
  6
HIDDEN2
 48
10.0
100
AcDbLine
 10
2734.500265450521
 20
2169.6249744426
 30
0.0
 11
2739.500265450521
 21
2096.6249744426
 31
0.0
  0
LINE
  5
90E9
330
747D
100
AcDbEntity
  8
0
  6
HIDDEN2
 48
10.0
100
AcDbLine
 10
3174.500265450521
 20
2096.6249744426
 30
0.0
 11
3224.500265450521
 21
2096.6249744426
 31
0.0
  0
LINE
  5
90EA
330
747D
100
AcDbEntity
  8
0
  6
HIDDEN2
 48
10.0
100
AcDbLine
 10
2884.500265450521
 20
2096.6249744426
 30
0.0
 11
2934.500265450521
 21
2096.6249744426
 31
0.0
  0
LINE
  5
90EB
330
747D
100
AcDbEntity
  8
0
  6
HIDDEN2
 48
10.0
100
AcDbLine
 10
2789.50026545052
 20
2096.6249744426
 30
0.0
 11
2794.500265450521
 21
2169.6249744426
 31
0.0
  0
LINE
  5
90EC
330
747D
100
AcDbEntity
  8
0
  6
HIDDEN2
 48
10.0
100
AcDbLine
 10
2934.500265450521
 20
2096.6249744426
 30
0.0
 11
2939.500265450521
 21
2169.6249744426
 31
0.0
  0
LINE
  5
90ED
330
747D
100
AcDbEntity
  8
0
  6
HIDDEN2
 48
10.0
100
AcDbLine
 10
2879.500265450521
 20
2169.6249744426
 30
0.0
 11
2884.500265450521
 21
2096.6249744426
 31
0.0
  0
LINE
  5
90EE
330
747D
100
AcDbEntity
  8
0
  6
HIDDEN2
 48
10.0
100
AcDbLine
 10
3029.500265450521
 20
2096.6249744426
 30
0.0
 11
3079.500265450521
 21
2096.6249744426
 31
0.0
  0
LINE
  5
90EF
330
747D
100
AcDbEntity
  8
0
  6
HIDDEN2
 48
10.0
100
AcDbLine
 10
3079.500265450521
 20
2096.6249744426
 30
0.0
 11
3084.500265450521
 21
2169.6249744426
 31
0.0
  0
LINE
  5
90F0
330
747D
100
AcDbEntity
  8
0
  6
HIDDEN2
 48
10.0
100
AcDbLine
 10
3024.500265450521
 20
2169.6249744426
 30
0.0
 11
3029.500265450521
 21
2096.6249744426
 31
0.0
  0
LINE
  5
90F1
330
747D
100
AcDbEntity
  8
0
  6
HIDDEN2
 48
10.0
100
AcDbLine
 10
3169.500265450521
 20
2169.6249744426
 30
0.0
 11
3174.500265450521
 21
2096.6249744426
 31
0.0
  0
DIMENSION
  5
90F2
330
747D
100
AcDbEntity
  8
寸法引出
 48
15.0
100
AcDbDimension
  2
*D223
 10
3409.500265450521
 20
1999.057895504171
 30
0.0
 11
3349.500265450521
 21
2029.057895504171
 31
0.0
 70
    32
 71
     5
 42
120.0
  3
SANWA
100
AcDbAlignedDimension
 13
3289.50026545052
 23
2087.6249744426
 33
0.0
 14
3409.500265450521
 24
2087.6249744426
 34
0.0
100
AcDbRotatedDimension
1001
ACAD
1000
DSTYLE
1002
{
1070
   140
1040
2.0
1070
    40
1040
15.0
1070
   147
1040
1.0
1070
    44
1040
0.5
1070
    43
1040
5.0
1070
   178
1070
   256
1070
   177
1070
   256
1070
   176
1070
   256
1070
    41
1040
1.5
1002
}
  0
LINE
  5
90F3
330
747D
100
AcDbEntity
  8
0
  6
HIDDEN2
 48
10.0
100
AcDbLine
 10
3324.500265450521
 20
2096.6249744426
 30
0.0
 11
3374.500265450521
 21
2096.6249744426
 31
0.0
  0
LINE
  5
90F4
330
747D
100
AcDbEntity
  8
0
  6
HIDDEN2
 48
5.0
100
AcDbLine
 10
3299.500265450521
 20
2120.6249744426
 30
0.0
 11
3299.500265450521
 21
2087.6249744426
 31
0.0
  0
LINE
  5
90F5
330
747D
100
AcDbEntity
  8
0
  6
HIDDEN2
 48
5.0
100
AcDbLine
 10
3279.500265450522
 20
2120.6249744426
 30
0.0
 11
3299.500265450521
 21
2120.6249744426
 31
0.0
  0
LINE
  5
90F6
330
747D
100
AcDbEntity
  8
0
  6
HIDDEN2
 48
5.0
100
AcDbLine
 10
3279.500265450522
 20
2120.6249744426
 30
0.0
 11
3279.500265450521
 21
2087.6249744426
 31
0.0
  0
LINE
  5
90F7
330
747D
100
AcDbEntity
  8
0
  6
HIDDEN2
 48
10.0
100
AcDbLine
 10
3224.500265450521
 20
2096.6249744426
 30
0.0
 11
3229.50026545052
 21
2169.6249744426
 31
0.0
  0
LINE
  5
90F8
330
747D
100
AcDbEntity
  8
0
  6
HIDDEN2
 48
10.0
100
AcDbLine
 10
3374.500265450521
 20
2096.6249744426
 30
0.0
 11
3379.50026545052
 21
2169.6249744426
 31
0.0
  0
LINE
  5
90F9
330
747D
100
AcDbEntity
  8
0
  6
HIDDEN2
 48
10.0
100
AcDbLine
 10
3319.500265450521
 20
2169.6249744426
 30
0.0
 11
3324.500265450521
 21
2096.6249744426
 31
0.0
  0
LINE
  5
90FA
330
747D
100
AcDbEntity
  8
0
 48
15.0
100
AcDbLine
 10
3409.500265450521
 20
2224.6249744426
 30
0.0
 11
3409.500265450521
 21
2087.6249744426
 31
0.0
  0
DIMENSION
  5
90FB
330
747D
100
AcDbEntity
  8
寸法引出
 48
15.0
100
AcDbDimension
  2
*D224
 10
3506.074038852457
 20
2087.6249744426
 30
0.0
 11
3476.074038852457
 21
2156.124974442601
 31
0.0
 70
    32
 71
     5
 42
137.0
  3
SANWA
100
AcDbAlignedDimension
 13
3409.500265450521
 23
2224.6249744426
 33
0.0
 14
3409.500265450521
 24
2087.6249744426
 34
0.0
 50
90.0
100
AcDbRotatedDimension
1001
ACAD
1000
DSTYLE
1002
{
1070
   140
1040
2.0
1070
    40
1040
15.0
1070
   147
1040
1.0
1070
    44
1040
0.5
1070
    43
1040
5.0
1070
   178
1070
   256
1070
   177
1070
   256
1070
   176
1070
   256
1070
    41
1040
1.5
1002
}
  0
TEXT
  5
90FC
330
747D
100
AcDbEntity
  8
0
100
AcDbText
 10
2773.515682292311
 20
2726.694704707976
 30
0.0
 40
36.0
  1
W=198㎏
  7
SANWA
 72
     4
 11
2865.675682292311
 21
2743.768990422261
 31
0.0
100
AcDbText
  0
LINE
  5
921D
330
747D
100
AcDbEntity
  8
枠
100
AcDbLine
 10
4305.0
 20
150.0
 30
0.0
 11
4305.0
 21
3000.0
 31
0.0
  0
TEXT
  5
921E
330
747D
100
AcDbEntity
  8
0
100
AcDbText
 10
3666.709002834926
 20
206.71887241068
 30
0.0
 40
18.0
  1
和
  7
SANWA
100
AcDbText
  0
TEXT
  5
921F
330
747D
100
AcDbEntity
  8
0
100
AcDbText
 10
3766.408313412463
 20
206.71887241068
 30
0.0
 40
24.0
  1
三和コンクリート工業株式会社
  7
SANWA
100
AcDbText
  0
ARC
  5
9220
330
747D
100
AcDbEntity
  8
0
100
AcDbCircle
 10
3680.136214331806
 20
223.2088158088008
 30
0.0
 40
41.46378893304791
100
AcDbArc
 50
276.6476737861998
 51
38.35232621379051
  0
ARC
  5
9221
330
747D
100
AcDbEntity
  8
0
100
AcDbCircle
 10
3680.136214331806
 20
223.2088158088008
 30
0.0
 40
43.86378893304791
100
AcDbArc
 50
273.1364954470882
 51
41.86350455291424
  0
ARC
  5
9222
330
747D
100
AcDbEntity
  8
0
100
AcDbCircle
 10
3680.136214331806
 20
223.2088158088008
 30
0.0
 40
35.46378893304791
100
AcDbArc
 50
277.7788203118982
 51
37.22117968810881
  0
ARC
  5
9223
330
747D
100
AcDbEntity
  8
0
100
AcDbCircle
 10
3680.136214331806
 20
223.2088158088008
 30
0.0
 40
33.06378893304791
100
AcDbArc
 50
274.1625874111327
 51
40.83741258888303
  0
ARC
  5
9224
330
747D
100
AcDbEntity
  8
0
100
AcDbCircle
 10
3680.136214331806
 20
223.2088158088008
 30
0.0
 40
33.06378893304791
100
AcDbArc
 50
139.162587411117
 51
265.8374125888673
  0
ARC
  5
9225
330
747D
100
AcDbEntity
  8
0
100
AcDbCircle
 10
3680.136214331806
 20
223.2088158088008
 30
0.0
 40
35.46378893304791
100
AcDbArc
 50
142.778820311891
 51
262.2211796881018
  0
ARC
  5
9226
330
747D
100
AcDbEntity
  8
0
100
AcDbCircle
 10
3680.136214331806
 20
223.2088158088008
 30
0.0
 40
43.86378893304791
100
AcDbArc
 50
138.136495447086
 51
266.8635045529119
  0
ARC
  5
9227
330
747D
100
AcDbEntity
  8
0
100
AcDbCircle
 10
3680.136214331806
 20
223.2088158088008
 30
0.0
 40
41.46378893304791
100
AcDbArc
 50
141.6476737862095
 51
263.3523262138002
  0
HATCH
  5
9228
330
747D
100
AcDbEntity
  8
0
100
AcDbHatch
 10
0.0
 20
0.0
 30
0.0
210
0.0
220
0.0
230
1.0
  2
SOLID
 70
     1
 71
     0
 91
        6
 92
        7
 72
     1
 73
     1
 93
        4
 10
3650.86334988054
 20
255.8757928097543
 42
0.0
 10
3658.515314664832
 20
248.2238280254633
 42
-0.3722683533228807
 10
3701.757113998773
 20
248.2238280254692
 42
0.0
 10
3709.40907878306
 20
255.8757928097644
 42
0.3824979940289912
 97
        0
 92
       22
 72
     1
 73
     1
 93
        4
 10
3705.864308023088
 20
255.7251345994791
 42
0.0
 10
3701.588030276412
 20
251.4488568527954
 42
0.3367429548951287
 10
3658.6843983872
 20
251.4488568527954
 42
0.0
 10
3654.408120640523
 20
255.7251345994782
 42
-0.3477704275230651
 97
        0
 92
        7
 72
     1
 73
     1
 93
        4
 10
3705.151226548468
 20
244.8297154757756
 42
-0.6168583269100142
 10
3682.536214331804
 20
190.2322462690636
 42
0.0
 10
3682.536214331804
 20
179.4107338923177
 42
0.6292889159379672
 10
3712.803191332763
 20
252.4816802600613
 42
0.0
 97
        0
 92
       22
 72
     1
 73
     1
 93
        4
 10
3712.652533122478
 20
248.9369095000884
 42
-0.587310490888974
 10
3684.936214331801
 20
182.0237967765802
 42
0.0
 10
3684.936214331801
 20
188.0713667624086
 42
0.5741105922167652
 10
3708.376255375803
 20
244.6606317534047
 42
0.0
 97
        0
 92
        7
 72
     1
 73
     1
 93
        4
 10
3647.469237330844
 20
252.4816802600576
 42
0.6292889159379327
 10
3677.736214331808
 20
179.4107338923177
 42
0.0
 10
3677.736214331808
 20
190.2322462690631
 42
-0.6168583269099111
 10
3655.121202115137
 20
244.8297154757679
 42
0.0
 97
        0
 92
       22
 72
     1
 73
     1
 93
        4
 10
3651.896173287809
 20
244.6606317534047
 42
0.5741105922167668
 10
3675.33621433181
 20
188.0713667624086
 42
0.0
 10
3675.33621433181
 20
182.0237967765802
 42
-0.5873104908889788
 10
3647.619895541133
 20
248.9369095000884
 42
0.0
 97
        0
 75
     0
 76
     1
 47
0.0143554168026844
 98
        6
 10
3699.348496783976
 20
260.8853257705127
 10
3699.348496783976
 20
260.8853257705127
 10
3708.31395734688
 20
246.9318614530635
 10
3708.31395734688
 20
246.9318614530635
 10
3652.969453356039
 20
246.4150661606036
 10
3652.969453356039
 20
246.4150661606036
  0
LINE
  5
9229
330
747D
100
AcDbEntity
  8
0
100
AcDbLine
 10
3675.33621433181
 20
182.0237967765802
 30
0.0
 11
3675.33621433181
 21
188.0713667624081
 31
0.0
  0
LINE
  5
922A
330
747D
100
AcDbEntity
  8
0
100
AcDbLine
 10
3684.936214331801
 20
182.0237967765802
 30
0.0
 11
3684.936214331801
 21
188.0713667624081
 31
0.0
  0
LINE
  5
922B
330
747D
100
AcDbEntity
  8
0
100
AcDbLine
 10
3682.536214331804
 20
179.4107338923181
 30
0.0
 11
3682.536214331804
 21
190.2322462690636
 31
0.0
  0
LINE
  5
922C
330
747D
100
AcDbEntity
  8
0
100
AcDbLine
 10
3677.736214331808
 20
179.4107338923181
 30
0.0
 11
3677.736214331808
 21
190.2322462690617
 31
0.0
  0
LINE
  5
922D
330
747D
100
AcDbEntity
  8
0
100
AcDbLine
 10
4455.0
 20
0.0
 30
0.0
 11
4305.0
 21
0.0
 31
0.0
  0
LINE
  5
922E
330
747D
100
AcDbEntity
  8
0
100
AcDbLine
 10
4455.0
 20
150.0
 30
0.0
 11
4455.0
 21
0.0
 31
0.0
  0
TEXT
  5
922F
330
747D
100
AcDbEntity
  8
0
100
AcDbText
 10
3800.223100303954
 20
534.0000000000031
 30
0.0
 40
24.0
  1
マルチスリット側溝蓋
  7
SANWA
 72
     4
 11
3975.765957446811
 21
546.0000000000031
 31
0.0
100
AcDbText
  0
TEXT
  5
9230
330
747D
100
AcDbEntity
  8
0
100
AcDbText
 10
3905.548814589668
 20
341.588571428575
 30
0.0
 40
24.0
  1
５００用
  7
SANWA
 72
     4
 11
3975.765957446811
 21
354.0000000000036
 31
0.0
100
AcDbText
  0
LINE
  5
9231
330
747D
100
AcDbEntity
  8
0
100
AcDbLine
 10
3646.531914893607
 20
306.0000000000014
 30
0.0
 11
3646.531914893607
 21
594.0000000000036
 31
0.0
  0
TEXT
  5
9232
330
747D
100
AcDbEntity
  8
0
100
AcDbText
 10
3666.709002834926
 20
230.6320916026407
 30
0.0
 40
18.0
  1
三
  7
SANWA
100
AcDbText
  0
LINE
  5
9233
330
747D
100
AcDbEntity
  8
0
100
AcDbLine
 10
3708.376255375803
 20
244.6606317534051
 30
0.0
 11
3712.652533122477
 21
248.9369095000866
 31
0.0
  0
LINE
  5
9234
330
747D
100
AcDbEntity
  8
0
100
AcDbLine
 10
3701.588030276413
 20
251.4488568527968
 30
0.0
 11
3705.864308023087
 21
255.7251345994782
 31
0.0
  0
LINE
  5
9235
330
747D
100
AcDbEntity
  8
0
100
AcDbLine
 10
3658.684398387199
 20
251.4488568527968
 30
0.0
 11
3654.408120640525
 21
255.7251345994764
 31
0.0
  0
LINE
  5
9236
330
747D
100
AcDbEntity
  8
0
100
AcDbLine
 10
3651.896173287809
 20
244.6606317534051
 30
0.0
 11
3647.619895541135
 21
248.9369095000866
 31
0.0
  0
LINE
  5
9237
330
747D
100
AcDbEntity
  8
0
100
AcDbLine
 10
3701.75711399877
 20
248.2238280254664
 30
0.0
 11
3709.409078783056
 21
255.8757928097593
 31
0.0
  0
LINE
  5
9238
330
747D
100
AcDbEntity
  8
0
100
AcDbLine
 10
3705.151226548463
 20
244.8297154757715
 30
0.0
 11
3712.803191332766
 21
252.4816802600626
 31
0.0
  0
LINE
  5
9239
330
747D
100
AcDbEntity
  8
0
100
AcDbLine
 10
3655.121202115134
 20
244.8297154757715
 30
0.0
 11
3647.422775453855
 21
252.5281421370473
 31
0.0
  0
LINE
  5
923A
330
747D
100
AcDbEntity
  8
0
100
AcDbLine
 10
3658.515314664828
 20
248.2238280254664
 30
0.0
 11
3650.816888003552
 21
255.9222546867423
 31
0.0
  0
ARC
  5
923B
330
747D
100
AcDbEntity
  8
0
100
AcDbCircle
 10
3680.136214331806
 20
223.2088158088008
 30
0.0
 40
43.86378893304791
100
AcDbArc
 50
48.13649544707415
 51
131.8635045529259
  0
ARC
  5
923C
330
747D
100
AcDbEntity
  8
0
100
AcDbCircle
 10
3680.136214331806
 20
223.2088158088008
 30
0.0
 40
41.46378893304791
100
AcDbArc
 50
51.64767378620888
 51
128.3523262137916
  0
ARC
  5
923D
330
747D
100
AcDbEntity
  8
0
100
AcDbCircle
 10
3680.136214331806
 20
223.2088158088008
 30
0.0
 40
35.46378893304791
100
AcDbArc
 50
52.77882031190058
 51
127.2211796880994
  0
ARC
  5
923E
330
747D
100
AcDbEntity
  8
0
100
AcDbCircle
 10
3680.136214331806
 20
223.2088158088008
 30
0.0
 40
33.06378893304791
100
AcDbArc
 50
49.16258741111739
 51
130.8374125888829
  0
TEXT
  5
923F
330
747D
100
AcDbEntity
  8
0
100
AcDbText
 10
3923.103100303953
 20
436.6971428571464
 30
0.0
 40
24.0
  1
Ｓ２型
  7
SANWA
 72
     4
 11
3975.765957446811
 21
450.0000000000036
 31
0.0
100
AcDbText
  0
LINE
  5
9241
330
747D
100
AcDbEntity
  8
0
100
AcDbLine
 10
4455.0
 20
3150.0
 30
0.0
 11
4455.0
 21
3000.0
 31
0.0
  0
LINE
  5
9242
330
747D
100
AcDbEntity
  8
0
100
AcDbLine
 10
4305.0
 20
3150.0
 30
0.0
 11
4455.0
 21
3150.0
 31
0.0
  0
VIEWPORT
  5
7540
102
{ACAD_XDICTIONARY
360
9F7A
102
}
330
747A
100
AcDbEntity
 67
     1
  8
0
100
AcDbViewport
 10
5403.420400993805
 20
-404.2698088687584
 30
0.0
 40
15679.29915656064
 41
10269.94094754722
 68
     1
 69
     1
 12
5403.420400993805
 22
-404.2698088687584
 13
0.0
 23
0.0
 14
10.0
 24
10.0
 15
10.0
 25
10.0
 16
0.0
 26
0.0
 36
1.0
 17
0.0
 27
0.0
 37
0.0
 42
50.0
 43
0.0
 44
0.0
 45
10269.94094754722
 50
0.0
 51
0.0
 72
   100
 90
    32800
  1

281
     0
 71
     1
 74
     0
110
0.0
120
0.0
130
0.0
111
1.0
121
0.0
131
0.0
112
0.0
122
1.0
132
0.0
 79
     0
146
0.0
  0
TEXT
  5
7737
330
747A
100
AcDbEntity
 67
     1
  8
0
 48
2.0
100
AcDbText
 10
331.871196811185
 20
20.60428158404022
 30
0.0
 40
2.0
  1

  7
SANWA
100
AcDbText
  0
ENDSEC
  0
SECTION
  2
OBJECTS
  0
DICTIONARY
  5
7471
330
0
100
AcDbDictionary
281
     1
  3
ACAD_COLOR
350
9BAE
  3
ACAD_GROUP
350
7472
  3
ACAD_LAYOUT
350
8841
  3
ACAD_MATERIAL
350
9B84
  3
ACAD_MLEADERSTYLE
350
9BD3
  3
ACAD_MLINESTYLE
350
7473
  3
ACAD_PLOTSETTINGS
350
8842
  3
ACAD_PLOTSTYLENAME
350
883F
  3
ACAD_SCALELIST
350
9BB1
  3
ACAD_TABLESTYLE
350
9BAF
  3
ACAD_VISUALSTYLE
350
9B9D
  3
ACDB_RECOMPOSE_DATA
350
9F78
  3
ACDBVARIABLEDICTIONARY
350
789B
  3
DWGPROPS
350
9F79
  0
DICTIONARY
  5
9F49
330
7474
100
AcDbDictionary
280
     1
281
     1
  3
ADSK_XREC_LAYER_RECONCILED
360
9F4A
  0
DICTIONARY
  5
9F4B
330
7486
100
AcDbDictionary
280
     1
281
     1
  3
ADSK_XREC_LAYER_RECONCILED
360
9F4C
  0
DICTIONARY
  5
9F4D
330
7950
100
AcDbDictionary
280
     1
281
     1
  3
ADSK_XREC_LAYER_RECONCILED
360
9F4E
  0
DICTIONARY
  5
9F4F
330
7D58
100
AcDbDictionary
280
     1
281
     1
  3
ADSK_XREC_LAYER_RECONCILED
360
9F50
  0
DICTIONARY
  5
9F51
330
7D59
100
AcDbDictionary
280
     1
281
     1
  3
ADSK_XREC_LAYER_RECONCILED
360
9F52
  0
DICTIONARY
  5
9F53
330
7D5A
100
AcDbDictionary
280
     1
281
     1
  3
ADSK_XREC_LAYER_RECONCILED
360
9F54
  0
DICTIONARY
  5
9F7A
330
7540
100
AcDbDictionary
280
     1
281
     1
  3
ACAD_XREC_ROUNDTRIP
360
9F7B
  0
DICTIONARY
  5
9BAE
102
{ACAD_REACTORS
330
7471
102
}
330
7471
100
AcDbDictionary
281
     1
  0
DICTIONARY
  5
7472
102
{ACAD_REACTORS
330
7471
102
}
330
0
100
AcDbDictionary
281
     1
  0
DICTIONARY
  5
8841
102
{ACAD_REACTORS
330
7471
102
}
330
7471
100
AcDbDictionary
281
     1
  3
Model
350
8843
  3
ﾚｲｱｳﾄ1
350
8844
  0
DICTIONARY
  5
9B84
102
{ACAD_REACTORS
330
7471
102
}
330
7471
100
AcDbDictionary
281
     1
  3
ByBlock
350
9B8D
  3
ByLayer
350
9B85
  3
Global
350
9B95
  0
DICTIONARY
  5
9BD3
102
{ACAD_REACTORS
330
7471
102
}
330
7471
100
AcDbDictionary
281
     1
  3
Standard
350
9BD4
  0
DICTIONARY
  5
7473
102
{ACAD_REACTORS
330
7471
102
}
330
0
100
AcDbDictionary
281
     1
  3
STANDARD
350
7480
  0
DICTIONARY
  5
8842
102
{ACAD_REACTORS
330
7471
102
}
330
7471
100
AcDbDictionary
281
     1
  0
ACDBDICTIONARYWDFLT
  5
883F
102
{ACAD_REACTORS
330
7471
102
}
330
7471
100
AcDbDictionary
281
     1
  3
Normal
350
8840
100
AcDbDictionaryWithDefault
340
8840
  0
DICTIONARY
  5
9BB1
102
{ACAD_REACTORS
330
7471
102
}
330
7471
100
AcDbDictionary
281
     1
  3
A0
350
9BB2
  3
A1
350
9BB3
  3
A2
350
9BB4
  3
A3
350
9BB5
  3
A4
350
9BB6
  3
A5
350
9BB7
  3
A6
350
9BB8
  3
A7
350
9BB9
  3
A8
350
9BBA
  3
A9
350
9BBB
  3
B0
350
9BBC
  3
B1
350
9BBD
  3
B2
350
9BBE
  3
B3
350
9BBF
  3
B4
350
9BC0
  3
B5
350
9BC1
  3
B6
350
9BC2
  3
B7
350
9BC3
  3
B8
350
9BC4
  3
B9
350
9BC5
  3
C0
350
9BC6
  3
C1
350
9BC7
  3
C2
350
9BC8
  3
C3
350
9BC9
  3
C4
350
9BCA
  3
C5
350
9BCB
  3
C6
350
9BCC
  3
C7
350
9BCD
  3
C8
350
9BCE
  3
C9
350
9BCF
  3
D0
350
9BD0
  3
D1
350
9BD1
  3
D2
350
9BD2
  0
DICTIONARY
  5
9BAF
102
{ACAD_REACTORS
330
7471
102
}
330
7471
100
AcDbDictionary
281
     1
  3
Standard
350
9BB0
  0
DICTIONARY
  5
9B9D
102
{ACAD_REACTORS
330
7471
102
}
330
7471
100
AcDbDictionary
281
     1
  3
2dWireframe
350
9BA3
  3
3D Hidden
350
9BA5
  3
3dWireframe
350
9BA4
  3
Basic
350
9BA2
  3
Brighten
350
9BA9
  3
ColorChange
350
9BAD
  3
Conceptual
350
9BA6
  3
Dim
350
9BA8
  3
Facepattern
350
9BAC
  3
Flat
350
9B9E
  3
FlatWithEdges
350
9B9F
  3
Gouraud
350
9BA0
  3
GouraudWithEdges
350
9BA1
  3
Linepattern
350
9BAB
  3
Realistic
350
9BA7
  3
Thicken
350
9BAA
  0
XRECORD
  5
9F78
102
{ACAD_REACTORS
330
7471
102
}
330
7471
100
AcDbXrecord
280
     1
 90
        1
330
9BB0
  0
DICTIONARY
  5
789B
102
{ACAD_REACTORS
330
7471
102
}
330
7471
100
AcDbDictionary
281
     1
  3
CANNOSCALE
350
9F74
  3
CMLEADERSTYLE
350
9F73
  3
CTABLESTYLE
350
9F72
  3
DIMASSOC
350
9B82
  3
INDEXCTL
350
9F75
  3
SORTENTS
350
789C
  0
XRECORD
  5
9F79
102
{ACAD_REACTORS
330
7471
102
}
330
7471
100
AcDbXrecord
280
     1
  1
DWGPROPS COOKIE
  2

  3

  4

  6

  7

  8
ooshima
  9

300
=
301
=
302
=
303
=
304
=
305
=
306
=
307
=
308
=
309
=
 40
0.1034046875
 41
2451972.707781713
 42
2455412.454041805
  1

 90
        0
  0
XRECORD
  5
9F4A
102
{ACAD_REACTORS
330
9F49
102
}
330
9F49
100
AcDbXrecord
280
     1
290
     1
  0
XRECORD
  5
9F4C
102
{ACAD_REACTORS
330
9F4B
102
}
330
9F4B
100
AcDbXrecord
280
     1
290
     1
  0
XRECORD
  5
9F4E
102
{ACAD_REACTORS
330
9F4D
102
}
330
9F4D
100
AcDbXrecord
280
     1
290
     1
  0
XRECORD
  5
9F50
102
{ACAD_REACTORS
330
9F4F
102
}
330
9F4F
100
AcDbXrecord
280
     1
290
     1
  0
XRECORD
  5
9F52
102
{ACAD_REACTORS
330
9F51
102
}
330
9F51
100
AcDbXrecord
280
     1
290
     1
  0
XRECORD
  5
9F54
102
{ACAD_REACTORS
330
9F53
102
}
330
9F53
100
AcDbXrecord
280
     1
290
     1
  0
XRECORD
  5
9F7B
102
{ACAD_REACTORS
330
9F7A
102
}
330
9F7A
100
AcDbXrecord
280
     1
102
SHADEPLOT
 70
     0
  0
LAYOUT
  5
8843
102
{ACAD_XDICTIONARY
360
9F7C
102
}
102
{ACAD_REACTORS
330
8841
102
}
330
8841
100
AcDbPlotSettings
  1

  2
DocuWorks Printer
  4
A4
  6

 40
5.408082962036132
 41
5.408079147338867
 42
5.4080810546875
 43
5.4080810546875
 44
210.0156707763672
 45
297.0106506347656
 46
4.599753379821777
 47
12.09724521636963
 48
375.0
 49
150.0
140
4305.0
141
3000.0
142
1.0
143
15.0
 70
 11940
 72
     1
 73
     1
 74
     4
  7
sanwa3.ctb
 75
     0
147
0.0666666666666667
148
-375.0
149
-150.0
100
AcDbLayout
  1
Model
 70
     1
 71
     0
 10
0.0
 20
0.0
 11
12.0
 21
9.0
 12
0.0
 22
0.0
 32
0.0
 14
0.0
 24
0.0
 34
0.0
 15
0.0
 25
0.0
 35
0.0
146
0.0
 13
0.0
 23
0.0
 33
0.0
 16
1.0
 26
0.0
 36
0.0
 17
0.0
 27
1.0
 37
0.0
 76
     0
330
747D
331
9B81
1001
ACAD_PSEXT
1000
DocuWorks Printer
1000
DocuWorks Printer Driver
1000
DocuWorks Port
1000

1070
     0
  0
LAYOUT
  5
8844
102
{ACAD_XDICTIONARY
360
9F7E
102
}
102
{ACAD_REACTORS
330
8841
102
}
330
8841
100
AcDbPlotSettings
  1

  2
FX DocuCentre Color f360
  4
A4
  6

 40
4.857749938964843
 41
4.942390441894531
 42
4.942413330078125
 43
4.857757568359375
 44
209.9733276367187
 45
297.0106506347656
 46
5.089999999999999
 47
12.61
 48
2158.491032930571
 49
-3651.97806433971
140
6088.491032930571
141
-801.9780643397098
142
1.0
143
15.0
 70
   676
 72
     1
 73
     1
 74
     4
  7
sanwa3.ctb
 75
     0
147
0.0666666666666667
148
-2158.491032930571
149
3651.97806433971
100
AcDbLayout
  1
ﾚｲｱｳﾄ1
 70
     1
 71
     1
 10
1896.47466940518
 20
-3801.194313424183
 11
6351.634428926665
 21
-651.5943988734011
 12
0.0
 22
0.0
 32
0.0
 14
-0.3297734462394146
 24
-3802.185333291873
 34
-0.0000000000000169
 15
10807.17059397474
 25
2993.645736191804
 35
0.0000000000000137
146
0.0
 13
0.0
 23
0.0
 33
0.0
 16
1.0
 26
0.0
 36
0.0
 17
0.0
 27
1.0
 37
0.0
 76
     0
330
747A
331
7540
  0
MATERIAL
  5
9B8D
102
{ACAD_XDICTIONARY
360
9B8E
102
}
102
{ACAD_REACTORS
330
9B84
102
}
330
9B84
100
AcDbMaterial
  1
ByBlock
 72
     0
 43
0.0208333333333333
 43
0.0
 43
0.0
 43
0.0
 43
0.0
 43
0.0208333333333333
 43
0.0
 43
0.0
 43
0.0
 43
0.0
 43
1.0
 43
0.0
 43
0.0
 43
0.0
 43
0.0
 43
1.0
 77
     0
 47
0.0208333333333333
 47
0.0
 47
0.0
 47
0.0
 47
0.0
 47
0.0208333333333333
 47
0.0
 47
0.0
 47
0.0
 47
0.0
 47
1.0
 47
0.0
 47
0.0
 47
0.0
 47
0.0
 47
1.0
171
     0
 49
0.0208333333333333
 49
0.0
 49
0.0
 49
0.0
 49
0.0
 49
0.0208333333333333
 49
0.0
 49
0.0
 49
0.0
 49
0.0
 49
1.0
 49
0.0
 49
0.0
 49
0.0
 49
0.0
 49
1.0
175
     0
142
0.0208333333333333
142
0.0
142
0.0
142
0.0
142
0.0
142
0.0208333333333333
142
0.0
142
0.0
142
0.0
142
0.0
142
1.0
142
0.0
142
0.0
142
0.0
142
0.0
142
1.0
179
     0
144
0.0208333333333333
144
0.0
144
0.0
144
0.0
144
0.0
144
0.0208333333333333
144
0.0
144
0.0
144
0.0
144
0.0
144
1.0
144
0.0
144
0.0
144
0.0
144
0.0
144
1.0
147
0.0208333333333333
147
0.0
147
0.0
147
0.0
147
0.0
147
0.0208333333333333
147
0.0
147
0.0
147
0.0
147
0.0
147
1.0
147
0.0
147
0.0
147
0.0
147
0.0
147
1.0
  0
MATERIAL
  5
9B85
102
{ACAD_XDICTIONARY
360
9B86
102
}
102
{ACAD_REACTORS
330
9B84
102
}
330
9B84
100
AcDbMaterial
  1
ByLayer
 72
     0
 43
0.0208333333333333
 43
0.0
 43
0.0
 43
0.0
 43
0.0
 43
0.0208333333333333
 43
0.0
 43
0.0
 43
0.0
 43
0.0
 43
1.0
 43
0.0
 43
0.0
 43
0.0
 43
0.0
 43
1.0
 77
     0
 47
0.0208333333333333
 47
0.0
 47
0.0
 47
0.0
 47
0.0
 47
0.0208333333333333
 47
0.0
 47
0.0
 47
0.0
 47
0.0
 47
1.0
 47
0.0
 47
0.0
 47
0.0
 47
0.0
 47
1.0
171
     0
 49
0.0208333333333333
 49
0.0
 49
0.0
 49
0.0
 49
0.0
 49
0.0208333333333333
 49
0.0
 49
0.0
 49
0.0
 49
0.0
 49
1.0
 49
0.0
 49
0.0
 49
0.0
 49
0.0
 49
1.0
175
     0
142
0.0208333333333333
142
0.0
142
0.0
142
0.0
142
0.0
142
0.0208333333333333
142
0.0
142
0.0
142
0.0
142
0.0
142
1.0
142
0.0
142
0.0
142
0.0
142
0.0
142
1.0
179
     0
144
0.0208333333333333
144
0.0
144
0.0
144
0.0
144
0.0
144
0.0208333333333333
144
0.0
144
0.0
144
0.0
144
0.0
144
1.0
144
0.0
144
0.0
144
0.0
144
0.0
144
1.0
147
0.0208333333333333
147
0.0
147
0.0
147
0.0
147
0.0
147
0.0208333333333333
147
0.0
147
0.0
147
0.0
147
0.0
147
1.0
147
0.0
147
0.0
147
0.0
147
0.0
147
1.0
  0
MATERIAL
  5
9B95
102
{ACAD_XDICTIONARY
360
9B96
102
}
102
{ACAD_REACTORS
330
9B84
102
}
330
9B84
100
AcDbMaterial
  1
Global
 72
     0
 43
0.0208333333333333
 43
0.0
 43
0.0
 43
0.0
 43
0.0
 43
0.0208333333333333
 43
0.0
 43
0.0
 43
0.0
 43
0.0
 43
1.0
 43
0.0
 43
0.0
 43
0.0
 43
0.0
 43
1.0
 77
     0
 47
0.0208333333333333
 47
0.0
 47
0.0
 47
0.0
 47
0.0
 47
0.0208333333333333
 47
0.0
 47
0.0
 47
0.0
 47
0.0
 47
1.0
 47
0.0
 47
0.0
 47
0.0
 47
0.0
 47
1.0
171
     0
 49
0.0208333333333333
 49
0.0
 49
0.0
 49
0.0
 49
0.0
 49
0.0208333333333333
 49
0.0
 49
0.0
 49
0.0
 49
0.0
 49
1.0
 49
0.0
 49
0.0
 49
0.0
 49
0.0
 49
1.0
175
     0
142
0.0208333333333333
142
0.0
142
0.0
142
0.0
142
0.0
142
0.0208333333333333
142
0.0
142
0.0
142
0.0
142
0.0
142
1.0
142
0.0
142
0.0
142
0.0
142
0.0
142
1.0
179
     0
144
0.0208333333333333
144
0.0
144
0.0
144
0.0
144
0.0
144
0.0208333333333333
144
0.0
144
0.0
144
0.0
144
0.0
144
1.0
144
0.0
144
0.0
144
0.0
144
0.0
144
1.0
147
0.0208333333333333
147
0.0
147
0.0
147
0.0
147
0.0
147
0.0208333333333333
147
0.0
147
0.0
147
0.0
147
0.0
147
1.0
147
0.0
147
0.0
147
0.0
147
0.0
147
1.0
  0
MLEADERSTYLE
  5
9BD4
102
{ACAD_REACTORS
330
9BD3
102
}
330
9BD3
100
AcDbMLeaderStyle
170
     2
171
     1
172
     0
 90
        2
 40
0.0
 41
0.0
173
     1
 91
-1056964608
340
7477
 92
       -2
290
     1
 42
2.0
291
     1
 43
0.36
  3
Standard
 44
4.0
300

342
7475
174
     1
178
     6
175
     1
176
     0
 93
-1056964608
 45
4.0
292
     0
297
     0
 46
4.0
 94
-1056964608
 47
1.0
 49
1.0
140
1.0
293
     1
141
0.0
294
     1
177
     0
142
1.0
295
     0
296
     0
143
0.125
1001
ACAD_MLEADERVER
1070
     2
  0
MLINESTYLE
  5
7480
102
{ACAD_REACTORS
330
7473
102
}
330
0
100
AcDbMlineStyle
  2
STANDARD
 70
     0
  3

 62
     0
 51
90.0
 52
90.0
 71
     2
 49
0.5
 62
   256
  6
BYLAYER
 49
-0.5
 62
   256
  6
BYLAYER
  0
ACDBPLACEHOLDER
  5
8840
102
{ACAD_REACTORS
330
883F
102
}
330
883F
  0
SCALE
  5
9BB2
102
{ACAD_REACTORS
330
9BB1
102
}
330
9BB1
100
AcDbScale
 70
     0
300
1:1
140
1.0
141
1.0
290
     1
  0
SCALE
  5
9BB3
102
{ACAD_REACTORS
330
9BB1
102
}
330
9BB1
100
AcDbScale
 70
     0
300
1:2
140
1.0
141
2.0
290
     0
  0
SCALE
  5
9BB4
102
{ACAD_REACTORS
330
9BB1
102
}
330
9BB1
100
AcDbScale
 70
     0
300
1:4
140
1.0
141
4.0
290
     0
  0
SCALE
  5
9BB5
102
{ACAD_REACTORS
330
9BB1
102
}
330
9BB1
100
AcDbScale
 70
     0
300
1:5
140
1.0
141
5.0
290
     0
  0
SCALE
  5
9BB6
102
{ACAD_REACTORS
330
9BB1
102
}
330
9BB1
100
AcDbScale
 70
     0
300
1:8
140
1.0
141
8.0
290
     0
  0
SCALE
  5
9BB7
102
{ACAD_REACTORS
330
9BB1
102
}
330
9BB1
100
AcDbScale
 70
     0
300
1:10
140
1.0
141
10.0
290
     0
  0
SCALE
  5
9BB8
102
{ACAD_REACTORS
330
9BB1
102
}
330
9BB1
100
AcDbScale
 70
     0
300
1:16
140
1.0
141
16.0
290
     0
  0
SCALE
  5
9BB9
102
{ACAD_REACTORS
330
9BB1
102
}
330
9BB1
100
AcDbScale
 70
     0
300
1:20
140
1.0
141
20.0
290
     0
  0
SCALE
  5
9BBA
102
{ACAD_REACTORS
330
9BB1
102
}
330
9BB1
100
AcDbScale
 70
     0
300
1:30
140
1.0
141
30.0
290
     0
  0
SCALE
  5
9BBB
102
{ACAD_REACTORS
330
9BB1
102
}
330
9BB1
100
AcDbScale
 70
     0
300
1:40
140
1.0
141
40.0
290
     0
  0
SCALE
  5
9BBC
102
{ACAD_REACTORS
330
9BB1
102
}
330
9BB1
100
AcDbScale
 70
     0
300
1:50
140
1.0
141
50.0
290
     0
  0
SCALE
  5
9BBD
102
{ACAD_REACTORS
330
9BB1
102
}
330
9BB1
100
AcDbScale
 70
     0
300
1:100
140
1.0
141
100.0
290
     0
  0
SCALE
  5
9BBE
102
{ACAD_REACTORS
330
9BB1
102
}
330
9BB1
100
AcDbScale
 70
     0
300
2:1
140
2.0
141
1.0
290
     0
  0
SCALE
  5
9BBF
102
{ACAD_REACTORS
330
9BB1
102
}
330
9BB1
100
AcDbScale
 70
     0
300
4:1
140
4.0
141
1.0
290
     0
  0
SCALE
  5
9BC0
102
{ACAD_REACTORS
330
9BB1
102
}
330
9BB1
100
AcDbScale
 70
     0
300
8:1
140
8.0
141
1.0
290
     0
  0
SCALE
  5
9BC1
102
{ACAD_REACTORS
330
9BB1
102
}
330
9BB1
100
AcDbScale
 70
     0
300
10:1
140
10.0
141
1.0
290
     0
  0
SCALE
  5
9BC2
102
{ACAD_REACTORS
330
9BB1
102
}
330
9BB1
100
AcDbScale
 70
     0
300
100:1
140
100.0
141
1.0
290
     0
  0
SCALE
  5
9BC3
102
{ACAD_REACTORS
330
9BB1
102
}
330
9BB1
100
AcDbScale
 70
     0
300
1/128" = 1'-0"
140
0.0078125
141
12.0
290
     0
  0
SCALE
  5
9BC4
102
{ACAD_REACTORS
330
9BB1
102
}
330
9BB1
100
AcDbScale
 70
     0
300
1/64" = 1'-0"
140
0.015625
141
12.0
290
     0
  0
SCALE
  5
9BC5
102
{ACAD_REACTORS
330
9BB1
102
}
330
9BB1
100
AcDbScale
 70
     0
300
1/32" = 1'-0"
140
0.03125
141
12.0
290
     0
  0
SCALE
  5
9BC6
102
{ACAD_REACTORS
330
9BB1
102
}
330
9BB1
100
AcDbScale
 70
     0
300
1/16" = 1'-0"
140
0.0625
141
12.0
290
     0
  0
SCALE
  5
9BC7
102
{ACAD_REACTORS
330
9BB1
102
}
330
9BB1
100
AcDbScale
 70
     0
300
3/32" = 1'-0"
140
0.09375
141
12.0
290
     0
  0
SCALE
  5
9BC8
102
{ACAD_REACTORS
330
9BB1
102
}
330
9BB1
100
AcDbScale
 70
     0
300
1/8" = 1'-0"
140
0.125
141
12.0
290
     0
  0
SCALE
  5
9BC9
102
{ACAD_REACTORS
330
9BB1
102
}
330
9BB1
100
AcDbScale
 70
     0
300
3/16" = 1'-0"
140
0.1875
141
12.0
290
     0
  0
SCALE
  5
9BCA
102
{ACAD_REACTORS
330
9BB1
102
}
330
9BB1
100
AcDbScale
 70
     0
300
1/4" = 1'-0"
140
0.25
141
12.0
290
     0
  0
SCALE
  5
9BCB
102
{ACAD_REACTORS
330
9BB1
102
}
330
9BB1
100
AcDbScale
 70
     0
300
3/8" = 1'-0"
140
0.375
141
12.0
290
     0
  0
SCALE
  5
9BCC
102
{ACAD_REACTORS
330
9BB1
102
}
330
9BB1
100
AcDbScale
 70
     0
300
1/2" = 1'-0"
140
0.5
141
12.0
290
     0
  0
SCALE
  5
9BCD
102
{ACAD_REACTORS
330
9BB1
102
}
330
9BB1
100
AcDbScale
 70
     0
300
3/4" = 1'-0"
140
0.75
141
12.0
290
     0
  0
SCALE
  5
9BCE
102
{ACAD_REACTORS
330
9BB1
102
}
330
9BB1
100
AcDbScale
 70
     0
300
1" = 1'-0"
140
1.0
141
12.0
290
     0
  0
SCALE
  5
9BCF
102
{ACAD_REACTORS
330
9BB1
102
}
330
9BB1
100
AcDbScale
 70
     0
300
1-1/2" = 1'-0"
140
1.5
141
12.0
290
     0
  0
SCALE
  5
9BD0
102
{ACAD_REACTORS
330
9BB1
102
}
330
9BB1
100
AcDbScale
 70
     0
300
3" = 1'-0"
140
3.0
141
12.0
290
     0
  0
SCALE
  5
9BD1
102
{ACAD_REACTORS
330
9BB1
102
}
330
9BB1
100
AcDbScale
 70
     0
300
6" = 1'-0"
140
6.0
141
12.0
290
     0
  0
SCALE
  5
9BD2
102
{ACAD_REACTORS
330
9BB1
102
}
330
9BB1
100
AcDbScale
 70
     0
300
1'-0" = 1'-0"
140
12.0
141
12.0
290
     0
  0
TABLESTYLE
  5
9BB0
102
{ACAD_XDICTIONARY
360
9F76
102
}
102
{ACAD_REACTORS
330
9BAF
102
}
330
9BAF
100
AcDbTableStyle
  3
Standard
 70
     0
 71
     0
 40
1.5
 41
1.5
280
     0
281
     0
  7
STANDARD
140
4.5
170
     2
 62
     0
 63
     7
283
     0
274
    -2
284
     1
 64
     0
275
    -2
285
     1
 65
     0
276
    -2
286
     1
 66
     0
277
    -2
287
     1
 67
     0
278
    -2
288
     1
 68
     0
279
    -2
289
     1
 69
     0
  7
STANDARD
140
6.0
170
     5
 62
     0
 63
     7
283
     0
274
    -2
284
     1
 64
     0
275
    -2
285
     1
 65
     0
276
    -2
286
     1
 66
     0
277
    -2
287
     1
 67
     0
278
    -2
288
     1
 68
     0
279
    -2
289
     1
 69
     0
  7
STANDARD
140
4.5
170
     5
 62
     0
 63
     7
283
     0
274
    -2
284
     1
 64
     0
275
    -2
285
     1
 65
     0
276
    -2
286
     1
 66
     0
277
    -2
287
     1
 67
     0
278
    -2
288
     1
 68
     0
279
    -2
289
     1
 69
     0
  0
VISUALSTYLE
  5
9BA3
102
{ACAD_REACTORS
330
9B9D
102
}
330
9B9D
100
AcDbVisualStyle
  2
2dWireframe
 70
     4
 71
     0
 72
     2
 73
     0
 90
        0
 40
-0.6
 41
-30.0
 62
     5
 63
     7
 74
     1
 91
        4
 64
     7
 65
   257
 75
     1
175
     1
 42
1.0
 92
        0
 66
   257
 43
1.0
 76
     1
 77
     6
 78
     2
 67
     7
 79
     5
170
     0
171
     0
290
     0
174
     0
 93
        1
 44
0.0
173
     0
291
     0
 45
0.0
1001
ACAD
1000
AcDbSavedByObjectVersion
1070
     0
  0
VISUALSTYLE
  5
9BA5
102
{ACAD_REACTORS
330
9B9D
102
}
330
9B9D
100
AcDbVisualStyle
  2
3D Hidden
 70
     6
 71
     1
 72
     2
 73
     2
 90
        0
 40
-0.6
 41
-30.0
 62
     5
 63
     7
 74
     2
 91
        2
 64
     7
 65
   257
 75
     2
175
     1
 42
40.0
 92
        0
 66
   257
 43
1.0
 76
     1
 77
     6
 78
     2
 67
     7
 79
     3
170
     0
171
     0
290
     0
174
     0
 93
        1
 44
0.0
173
     0
291
     0
 45
0.0
1001
ACAD
1000
AcDbSavedByObjectVersion
1070
     0
  0
VISUALSTYLE
  5
9BA4
102
{ACAD_REACTORS
330
9B9D
102
}
330
9B9D
100
AcDbVisualStyle
  2
3dWireframe
 70
     5
 71
     0
 72
     2
 73
     0
 90
        0
 40
-0.6
 41
-30.0
 62
     5
 63
     7
 74
     1
 91
        4
 64
     7
 65
   257
 75
     1
175
     1
 42
1.0
 92
        0
 66
   257
 43
1.0
 76
     1
 77
     6
 78
     2
 67
     7
 79
     5
170
     0
171
     0
290
     0
174
     0
 93
        1
 44
0.0
173
     0
291
     0
 45
0.0
1001
ACAD
1000
AcDbSavedByObjectVersion
1070
     0
  0
VISUALSTYLE
  5
9BA2
102
{ACAD_REACTORS
330
9B9D
102
}
330
9B9D
100
AcDbVisualStyle
  2
Basic
 70
     7
 71
     1
 72
     0
 73
     1
 90
        0
 40
-0.6
 41
-30.0
 62
     5
 63
     7
 74
     0
 91
        4
 64
     7
 65
   257
 75
     1
175
     1
 42
1.0
 92
        8
 66
     7
 43
1.0
 76
     1
 77
     6
 78
     2
 67
     7
 79
     5
170
     0
171
     0
290
     0
174
     0
 93
        1
 44
0.0
173
     0
291
     1
 45
0.0
1001
ACAD
1000
AcDbSavedByObjectVersion
1070
     0
  0
VISUALSTYLE
  5
9BA9
102
{ACAD_REACTORS
330
9B9D
102
}
330
9B9D
100
AcDbVisualStyle
  2
Brighten
 70
    12
 71
     2
 72
     2
 73
     0
 90
        0
 40
-0.6
 41
-30.0
 62
     5
 63
     7
 74
     1
 91
        4
 64
     7
 65
   257
 75
     1
175
     1
 42
1.0
 92
        8
 66
     7
 43
1.0
 76
     1
 77
     6
 78
     2
 67
     7
 79
     5
170
     0
171
     0
290
     0
174
     0
 93
        1
 44
50.0
173
     0
291
     1
 45
0.0
1001
ACAD
1000
AcDbSavedByObjectVersion
1070
     0
  0
VISUALSTYLE
  5
9BAD
102
{ACAD_REACTORS
330
9B9D
102
}
330
9B9D
100
AcDbVisualStyle
  2
ColorChange
 70
    16
 71
     2
 72
     2
 73
     3
 90
        0
 40
-0.6
 41
-30.0
 62
     5
 63
     8
 74
     1
 91
        4
 64
     7
 65
   257
 75
     1
175
     1
 42
1.0
 92
        8
 66
     8
 43
1.0
 76
     1
 77
     6
 78
     2
 67
     7
 79
     5
170
     0
171
     0
290
     0
174
     0
 93
        1
 44
0.0
173
     0
291
     1
 45
0.0
1001
ACAD
1000
AcDbSavedByObjectVersion
1070
     0
  0
VISUALSTYLE
  5
9BA6
102
{ACAD_REACTORS
330
9B9D
102
}
330
9B9D
100
AcDbVisualStyle
  2
Conceptual
 70
     9
 71
     3
 72
     2
 73
     0
 90
        0
 40
-0.6
 41
-30.0
 62
     5
 63
     7
 74
     2
 91
        2
 64
     7
 65
   257
 75
     1
175
     1
 42
40.0
 92
        8
 66
     7
 43
1.0
 76
     1
 77
     6
 78
     2
 67
     7
 79
     3
170
     0
171
     0
290
     0
174
     0
 93
        1
 44
0.0
173
     0
291
     0
 45
0.0
1001
ACAD
1000
AcDbSavedByObjectVersion
1070
     0
  0
VISUALSTYLE
  5
9BA8
102
{ACAD_REACTORS
330
9B9D
102
}
330
9B9D
100
AcDbVisualStyle
  2
Dim
 70
    11
 71
     2
 72
     2
 73
     0
 90
        0
 40
-0.6
 41
-30.0
 62
     5
 63
     7
 74
     1
 91
        4
 64
     7
 65
   257
 75
     1
175
     1
 42
1.0
 92
        8
 66
     7
 43
1.0
 76
     1
 77
     6
 78
     2
 67
     7
 79
     5
170
     0
171
     0
290
     0
174
     0
 93
        1
 44
-50.0
173
     0
291
     1
 45
0.0
1001
ACAD
1000
AcDbSavedByObjectVersion
1070
     0
  0
VISUALSTYLE
  5
9BAC
102
{ACAD_REACTORS
330
9B9D
102
}
330
9B9D
100
AcDbVisualStyle
  2
Facepattern
 70
    15
 71
     2
 72
     2
 73
     0
 90
        0
 40
-0.6
 41
-30.0
 62
     5
 63
     7
 74
     1
 91
        4
 64
     7
 65
   257
 75
     1
175
     1
 42
1.0
 92
        8
 66
     7
 43
1.0
 76
     1
 77
     6
 78
     2
 67
     7
 79
     5
170
     0
171
     0
290
     0
174
     0
 93
        1
 44
0.0
173
     0
291
     1
 45
0.0
1001
ACAD
1000
AcDbSavedByObjectVersion
1070
     0
  0
VISUALSTYLE
  5
9B9E
102
{ACAD_REACTORS
330
9B9D
102
}
330
9B9D
100
AcDbVisualStyle
  2
Flat
 70
     0
 71
     2
 72
     1
 73
     1
 90
        2
 40
-0.6
 41
30.0
 62
     5
 63
     7
 74
     0
 91
        4
 64
     7
 65
   257
 75
     1
175
     1
 42
1.0
 92
        8
 66
     7
 43
1.0
 76
     1
 77
     6
 78
     2
 67
     7
 79
     5
170
     0
171
     0
290
     0
174
     0
 93
       13
 44
0.0
173
     0
291
     1
 45
0.0
1001
ACAD
1000
AcDbSavedByObjectVersion
1070
     0
  0
VISUALSTYLE
  5
9B9F
102
{ACAD_REACTORS
330
9B9D
102
}
330
9B9D
100
AcDbVisualStyle
  2
FlatWithEdges
 70
     1
 71
     2
 72
     1
 73
     1
 90
        2
 40
-0.6
 41
30.0
 62
     5
 63
     7
 74
     1
 91
        4
 64
     7
 65
   257
 75
     1
175
     1
 42
1.0
 92
        0
 66
   257
 43
1.0
 76
     1
 77
     6
 78
     2
 67
     7
 79
     5
170
     0
171
     0
290
     0
174
     0
 93
       13
 44
0.0
173
     0
291
     1
 45
0.0
1001
ACAD
1000
AcDbSavedByObjectVersion
1070
     0
  0
VISUALSTYLE
  5
9BA0
102
{ACAD_REACTORS
330
9B9D
102
}
330
9B9D
100
AcDbVisualStyle
  2
Gouraud
 70
     2
 71
     2
 72
     2
 73
     1
 90
        2
 40
-0.6
 41
30.0
 62
     5
 63
     7
 74
     0
 91
        4
 64
     7
 65
   257
 75
     1
175
     1
 42
1.0
 92
        0
 66
     7
 43
1.0
 76
     1
 77
     6
 78
     2
 67
     7
 79
     5
170
     0
171
     0
290
     0
174
     0
 93
       13
 44
0.0
173
     0
291
     1
 45
0.0
1001
ACAD
1000
AcDbSavedByObjectVersion
1070
     0
  0
VISUALSTYLE
  5
9BA1
102
{ACAD_REACTORS
330
9B9D
102
}
330
9B9D
100
AcDbVisualStyle
  2
GouraudWithEdges
 70
     3
 71
     2
 72
     2
 73
     1
 90
        2
 40
-0.6
 41
30.0
 62
     5
 63
     7
 74
     1
 91
        4
 64
     7
 65
   257
 75
     1
175
     1
 42
1.0
 92
        0
 66
   257
 43
1.0
 76
     1
 77
     6
 78
     2
 67
     7
 79
     5
170
     0
171
     0
290
     0
174
     0
 93
       13
 44
0.0
173
     0
291
     1
 45
0.0
1001
ACAD
1000
AcDbSavedByObjectVersion
1070
     0
  0
VISUALSTYLE
  5
9BAB
102
{ACAD_REACTORS
330
9B9D
102
}
330
9B9D
100
AcDbVisualStyle
  2
Linepattern
 70
    14
 71
     2
 72
     2
 73
     0
 90
        0
 40
-0.6
 41
-30.0
 62
     5
 63
     7
 74
     1
 91
        4
 64
     7
 65
   257
 75
     7
175
     7
 42
1.0
 92
        8
 66
     7
 43
1.0
 76
     1
 77
     6
 78
     2
 67
     7
 79
     5
170
     0
171
     0
290
     0
174
     0
 93
        1
 44
0.0
173
     0
291
     1
 45
0.0
1001
ACAD
1000
AcDbSavedByObjectVersion
1070
     0
  0
VISUALSTYLE
  5
9BA7
102
{ACAD_REACTORS
330
9B9D
102
}
330
9B9D
100
AcDbVisualStyle
  2
Realistic
 70
     8
 71
     2
 72
     2
 73
     0
 90
        0
 40
-0.6
 41
-30.0
 62
     5
 63
     7
 74
     1
 91
        0
 64
     7
 65
   257
 75
     1
175
     1
 42
1.0
 92
        8
 66
     8
 43
1.0
 76
     1
 77
     6
 78
     2
 67
     7
 79
     5
170
     0
171
     0
290
     0
174
     0
 93
       13
 44
0.0
173
     0
291
     0
 45
0.0
1001
ACAD
1000
AcDbSavedByObjectVersion
1070
     0
  0
VISUALSTYLE
  5
9BAA
102
{ACAD_REACTORS
330
9B9D
102
}
330
9B9D
100
AcDbVisualStyle
  2
Thicken
 70
    13
 71
     2
 72
     2
 73
     0
 90
        0
 40
-0.6
 41
-30.0
 62
     5
 63
     7
 74
     1
 91
        4
 64
     7
 65
   257
 75
     1
175
     1
 42
1.0
 92
       12
 66
     7
 43
1.0
 76
     1
 77
     6
 78
     2
 67
     7
 79
     5
170
     0
171
     0
290
     0
174
     0
 93
        1
 44
0.0
173
     0
291
     1
 45
0.0
1001
ACAD
1000
AcDbSavedByObjectVersion
1070
     0
  0
DICTIONARYVAR
  5
9F74
102
{ACAD_REACTORS
330
789B
102
}
330
789B
100
DictionaryVariables
280
     0
  1
1:1
  0
DICTIONARYVAR
  5
9F73
102
{ACAD_REACTORS
330
789B
102
}
330
789B
100
DictionaryVariables
280
     0
  1
STANDARD
  0
DICTIONARYVAR
  5
9F72
102
{ACAD_REACTORS
330
789B
102
}
330
789B
100
DictionaryVariables
280
     0
  1
STANDARD
  0
DICTIONARYVAR
  5
9B82
102
{ACAD_REACTORS
330
789B
102
}
330
789B
100
DictionaryVariables
280
     0
  1
1
  0
DICTIONARYVAR
  5
9F75
102
{ACAD_REACTORS
330
789B
102
}
330
789B
100
DictionaryVariables
280
     0
  1
0
  0
DICTIONARYVAR
  5
789C
102
{ACAD_REACTORS
330
789B
102
}
330
789B
100
DictionaryVariables
280
     0
  1
96
  0
DICTIONARY
  5
9F7C
330
8843
100
AcDbDictionary
280
     1
281
     1
  3
ACAD_XREC_ROUNDTRIP
360
9F7D
  0
DICTIONARY
  5
9F7E
330
8844
100
AcDbDictionary
280
     1
281
     1
  3
ACAD_XREC_ROUNDTRIP
360
9F7F
  0
DICTIONARY
  5
9B8E
330
9B8D
100
AcDbDictionary
280
     1
281
     1
  3
ACAD_XREC_ROUNDTRIP
360
9F81
  3
BUMPTILE
360
9B90
  3
DIFFUSETILE
360
9B8F
  3
OPACITYTILE
360
9B93
  3
REFLECTIONTILE
360
9B92
  3
REFRACTIONTILE
360
9B94
  3
SPECULARTILE
360
9B91
  0
DICTIONARY
  5
9B86
330
9B85
100
AcDbDictionary
280
     1
281
     1
  3
ACAD_XREC_ROUNDTRIP
360
9F80
  3
BUMPTILE
360
9B88
  3
DIFFUSETILE
360
9B87
  3
OPACITYTILE
360
9B8B
  3
REFLECTIONTILE
360
9B8A
  3
REFRACTIONTILE
360
9B8C
  3
SPECULARTILE
360
9B89
  0
DICTIONARY
  5
9B96
330
9B95
100
AcDbDictionary
280
     1
281
     1
  3
ACAD_XREC_ROUNDTRIP
360
9F82
  3
BUMPTILE
360
9B98
  3
DIFFUSETILE
360
9B97
  3
OPACITYTILE
360
9B9B
  3
REFLECTIONTILE
360
9B9A
  3
REFRACTIONTILE
360
9B9C
  3
SPECULARTILE
360
9B99
  0
DICTIONARY
  5
9F76
330
9BB0
100
AcDbDictionary
280
     1
281
     1
  3
ACAD_ROUNDTRIP_2008_TABLESTYLE_CELLSTYLEMAP
360
9F77
  3
ACAD_XREC_ROUNDTRIP
360
9F83
  0
XRECORD
  5
9F7D
102
{ACAD_REACTORS
330
9F7C
102
}
330
9F7C
100
AcDbXrecord
280
     1
102
SHADEPLOT
 70
     0
102
SHADEPLOTRESLEVEL
 70
     2
102
SHADEPLOTCUSTOMDPI
 70
   300
  0
XRECORD
  5
9F7F
102
{ACAD_REACTORS
330
9F7E
102
}
330
9F7E
100
AcDbXrecord
280
     1
102
SHADEPLOT
 70
     0
102
SHADEPLOTRESLEVEL
 70
     2
102
SHADEPLOTCUSTOMDPI
 70
   300
  0
XRECORD
  5
9F81
102
{ACAD_REACTORS
330
9B8E
102
}
330
9B8E
100
AcDbXrecord
280
     1
102
MATERIAL
148
0.0
149
0.0
149
0.0
 93
        0
 94
      127
282
     0
 72
     0
 77
     0
171
     0
175
     0
179
     0
273
     0
  0
XRECORD
  5
9B90
102
{ACAD_REACTORS
330
9B8E
102
}
330
9B8E
100
AcDbXrecord
280
     1
270
     1
271
     1
  0
XRECORD
  5
9B8F
102
{ACAD_REACTORS
330
9B8E
102
}
330
9B8E
100
AcDbXrecord
280
     1
270
     1
271
     1
  0
XRECORD
  5
9B93
102
{ACAD_REACTORS
330
9B8E
102
}
330
9B8E
100
AcDbXrecord
280
     1
270
     1
271
     1
  0
XRECORD
  5
9B92
102
{ACAD_REACTORS
330
9B8E
102
}
330
9B8E
100
AcDbXrecord
280
     1
270
     1
271
     1
  0
XRECORD
  5
9B94
102
{ACAD_REACTORS
330
9B8E
102
}
330
9B8E
100
AcDbXrecord
280
     1
270
     1
271
     1
  0
XRECORD
  5
9B91
102
{ACAD_REACTORS
330
9B8E
102
}
330
9B8E
100
AcDbXrecord
280
     1
270
     1
271
     1
  0
XRECORD
  5
9F80
102
{ACAD_REACTORS
330
9B86
102
}
330
9B86
100
AcDbXrecord
280
     1
102
MATERIAL
148
0.0
149
0.0
149
0.0
 93
        0
 94
      127
282
     0
 72
     0
 77
     0
171
     0
175
     0
179
     0
273
     0
  0
XRECORD
  5
9B88
102
{ACAD_REACTORS
330
9B86
102
}
330
9B86
100
AcDbXrecord
280
     1
270
     1
271
     1
  0
XRECORD
  5
9B87
102
{ACAD_REACTORS
330
9B86
102
}
330
9B86
100
AcDbXrecord
280
     1
270
     1
271
     1
  0
XRECORD
  5
9B8B
102
{ACAD_REACTORS
330
9B86
102
}
330
9B86
100
AcDbXrecord
280
     1
270
     1
271
     1
  0
XRECORD
  5
9B8A
102
{ACAD_REACTORS
330
9B86
102
}
330
9B86
100
AcDbXrecord
280
     1
270
     1
271
     1
  0
XRECORD
  5
9B8C
102
{ACAD_REACTORS
330
9B86
102
}
330
9B86
100
AcDbXrecord
280
     1
270
     1
271
     1
  0
XRECORD
  5
9B89
102
{ACAD_REACTORS
330
9B86
102
}
330
9B86
100
AcDbXrecord
280
     1
270
     1
271
     1
  0
XRECORD
  5
9F82
102
{ACAD_REACTORS
330
9B96
102
}
330
9B96
100
AcDbXrecord
280
     1
102
MATERIAL
148
0.0
149
0.0
149
0.0
 93
        0
 94
      127
282
     0
 72
     0
 77
     0
171
     0
175
     0
179
     0
273
     0
  0
XRECORD
  5
9B98
102
{ACAD_REACTORS
330
9B96
102
}
330
9B96
100
AcDbXrecord
280
     1
270
     1
271
     1
  0
XRECORD
  5
9B97
102
{ACAD_REACTORS
330
9B96
102
}
330
9B96
100
AcDbXrecord
280
     1
270
     1
271
     1
  0
XRECORD
  5
9B9B
102
{ACAD_REACTORS
330
9B96
102
}
330
9B96
100
AcDbXrecord
280
     1
270
     1
271
     1
  0
XRECORD
  5
9B9A
102
{ACAD_REACTORS
330
9B96
102
}
330
9B96
100
AcDbXrecord
280
     1
270
     1
271
     1
  0
XRECORD
  5
9B9C
102
{ACAD_REACTORS
330
9B96
102
}
330
9B96
100
AcDbXrecord
280
     1
270
     1
271
     1
  0
XRECORD
  5
9B99
102
{ACAD_REACTORS
330
9B96
102
}
330
9B96
100
AcDbXrecord
280
     1
270
     1
271
     1
  0
CELLSTYLEMAP
  5
9F77
102
{ACAD_REACTORS
330
9F76
102
}
330
9F76
100
AcDbCellStyleMap
 90
        3
300
CELLSTYLE
  1
TABLEFORMAT_BEGIN
 90
        5
170
     1
 91
        0
 92
    32768
 62
   257
 93
        1
300
CONTENTFORMAT
  1
CONTENTFORMAT_BEGIN
 90
        0
 91
        0
 92
      512
 93
        0
300

 40
0.0
140
1.0
 94
        5
 62
     0
340
7475
144
6.0
309
CONTENTFORMAT_END
171
     1
301
MARGIN
  1
CELLMARGIN_BEGIN
 40
1.5
 40
1.5
 40
1.5
 40
1.5
 40
4.5
 40
4.5
309
CELLMARGIN_END
 94
        6
 95
        1
302
GRIDFORMAT
  1
GRIDFORMAT_BEGIN
 90
        0
 91
        1
 62
     0
 92
       -2
340
0
 93
        0
 40
1.125
309
GRIDFORMAT_END
 95
        2
302
GRIDFORMAT
  1
GRIDFORMAT_BEGIN
 90
        0
 91
        1
 62
     0
 92
       -2
340
0
 93
        0
 40
1.125
309
GRIDFORMAT_END
 95
        4
302
GRIDFORMAT
  1
GRIDFORMAT_BEGIN
 90
        0
 91
        1
 62
     0
 92
       -2
340
0
 93
        0
 40
1.125
309
GRIDFORMAT_END
 95
        8
302
GRIDFORMAT
  1
GRIDFORMAT_BEGIN
 90
        0
 91
        1
 62
     0
 92
       -2
340
0
 93
        0
 40
1.125
309
GRIDFORMAT_END
 95
       16
302
GRIDFORMAT
  1
GRIDFORMAT_BEGIN
 90
        0
 91
        1
 62
     0
 92
       -2
340
0
 93
        0
 40
1.125
309
GRIDFORMAT_END
 95
       32
302
GRIDFORMAT
  1
GRIDFORMAT_BEGIN
 90
        0
 91
        1
 62
     0
 92
       -2
340
0
 93
        0
 40
1.125
309
GRIDFORMAT_END
309
TABLEFORMAT_END
  1
CELLSTYLE_BEGIN
 90
        1
 91
        1
300
_TITLE
309
CELLSTYLE_END
300
CELLSTYLE
  1
TABLEFORMAT_BEGIN
 90
        5
170
     1
 91
        0
 92
        0
 62
   257
 93
        1
300
CONTENTFORMAT
  1
CONTENTFORMAT_BEGIN
 90
        0
 91
        0
 92
      512
 93
        0
300

 40
0.0
140
1.0
 94
        5
 62
     0
340
7475
144
4.5
309
CONTENTFORMAT_END
171
     1
301
MARGIN
  1
CELLMARGIN_BEGIN
 40
1.5
 40
1.5
 40
1.5
 40
1.5
 40
4.5
 40
4.5
309
CELLMARGIN_END
 94
        6
 95
        1
302
GRIDFORMAT
  1
GRIDFORMAT_BEGIN
 90
        0
 91
        1
 62
     0
 92
       -2
340
0
 93
        0
 40
1.125
309
GRIDFORMAT_END
 95
        2
302
GRIDFORMAT
  1
GRIDFORMAT_BEGIN
 90
        0
 91
        1
 62
     0
 92
       -2
340
0
 93
        0
 40
1.125
309
GRIDFORMAT_END
 95
        4
302
GRIDFORMAT
  1
GRIDFORMAT_BEGIN
 90
        0
 91
        1
 62
     0
 92
       -2
340
0
 93
        0
 40
1.125
309
GRIDFORMAT_END
 95
        8
302
GRIDFORMAT
  1
GRIDFORMAT_BEGIN
 90
        0
 91
        1
 62
     0
 92
       -2
340
0
 93
        0
 40
1.125
309
GRIDFORMAT_END
 95
       16
302
GRIDFORMAT
  1
GRIDFORMAT_BEGIN
 90
        0
 91
        1
 62
     0
 92
       -2
340
0
 93
        0
 40
1.125
309
GRIDFORMAT_END
 95
       32
302
GRIDFORMAT
  1
GRIDFORMAT_BEGIN
 90
        0
 91
        1
 62
     0
 92
       -2
340
0
 93
        0
 40
1.125
309
GRIDFORMAT_END
309
TABLEFORMAT_END
  1
CELLSTYLE_BEGIN
 90
        2
 91
        1
300
_HEADER
309
CELLSTYLE_END
300
CELLSTYLE
  1
TABLEFORMAT_BEGIN
 90
        5
170
     1
 91
        0
 92
        0
 62
   257
 93
        1
300
CONTENTFORMAT
  1
CONTENTFORMAT_BEGIN
 90
        0
 91
        0
 92
      512
 93
        0
300

 40
0.0
140
1.0
 94
        2
 62
     0
340
7475
144
4.5
309
CONTENTFORMAT_END
171
     1
301
MARGIN
  1
CELLMARGIN_BEGIN
 40
1.5
 40
1.5
 40
1.5
 40
1.5
 40
4.5
 40
4.5
309
CELLMARGIN_END
 94
        6
 95
        1
302
GRIDFORMAT
  1
GRIDFORMAT_BEGIN
 90
        0
 91
        1
 62
     0
 92
       -2
340
0
 93
        0
 40
1.125
309
GRIDFORMAT_END
 95
        2
302
GRIDFORMAT
  1
GRIDFORMAT_BEGIN
 90
        0
 91
        1
 62
     0
 92
       -2
340
0
 93
        0
 40
1.125
309
GRIDFORMAT_END
 95
        4
302
GRIDFORMAT
  1
GRIDFORMAT_BEGIN
 90
        0
 91
        1
 62
     0
 92
       -2
340
0
 93
        0
 40
1.125
309
GRIDFORMAT_END
 95
        8
302
GRIDFORMAT
  1
GRIDFORMAT_BEGIN
 90
        0
 91
        1
 62
     0
 92
       -2
340
0
 93
        0
 40
1.125
309
GRIDFORMAT_END
 95
       16
302
GRIDFORMAT
  1
GRIDFORMAT_BEGIN
 90
        0
 91
        1
 62
     0
 92
       -2
340
0
 93
        0
 40
1.125
309
GRIDFORMAT_END
 95
       32
302
GRIDFORMAT
  1
GRIDFORMAT_BEGIN
 90
        0
 91
        1
 62
     0
 92
       -2
340
0
 93
        0
 40
1.125
309
GRIDFORMAT_END
309
TABLEFORMAT_END
  1
CELLSTYLE_BEGIN
 90
        3
 91
        2
300
_DATA
309
CELLSTYLE_END
  0
XRECORD
  5
9F83
102
{ACAD_REACTORS
330
9F76
102
}
330
9F76
100
AcDbXrecord
280
     1
102
ACAD_ROUNDTRIP_PRE2007_TABLESTYLE
 90
      512
 91
        0
  1

 92
      512
 93
        0
  2

 94
      512
 95
        0
  3

  0
ENDSEC
  0
EOF
