  0
SECTION
  2
HEADER
  9
$ACADVER
  1
AC1015
  9
$ACADMAINTVER
 70
    20
  9
$DWGCODEPAGE
  3
ANSI_932
  9
$INSBASE
 10
0.0
 20
0.0
 30
0.0
  9
$EXTMIN
 10
-0.3688530758954585
 20
-0.1281679608227932
 30
-0.0000000000000008
  9
$EXTMAX
 10
2970.084238515792
 20
2100.128190451133
 30
0.0000000000000145
  9
$LIMMIN
 10
0.0
 20
0.0
  9
$LIMMAX
 10
420.0
 20
297.0
  9
$ORTHOMODE
 70
     1
  9
$REGENMODE
 70
     1
  9
$FILLMODE
 70
     1
  9
$QTEXTMODE
 70
     0
  9
$MIRRTEXT
 70
     1
  9
$LTSCALE
 40
0.5
  9
$ATTMODE
 70
     1
  9
$TEXTSIZE
 40
2.799999999999999
  9
$TRACEWID
 40
1.0
  9
$TEXTSTYLE
  7
SANWA
  9
$CLAYER
  8
0
  9
$CELTYPE
  6
BYLAYER
  9
$CECOLOR
 62
   256
  9
$CELTSCALE
 40
1.0
  9
$DISPSILH
 70
     0
  9
$DIMSCALE
 40
10.0
  9
$DIMASZ
 40
1.5
  9
$DIMEXO
 40
1.0
  9
$DIMDLI
 40
5.0
  9
$DIMRND
 40
0.0
  9
$DIMDLE
 40
0.0
  9
$DIMEXE
 40
0.5
  9
$DIMTP
 40
0.0
  9
$DIMTM
 40
0.0
  9
$DIMTXT
 40
2.0
  9
$DIMCEN
 40
0.0
  9
$DIMTSZ
 40
0.0
  9
$DIMTOL
 70
     0
  9
$DIMLIM
 70
     0
  9
$DIMTIH
 70
     0
  9
$DIMTOH
 70
     0
  9
$DIMSE1
 70
     0
  9
$DIMSE2
 70
     0
  9
$DIMTAD
 70
     1
  9
$DIMZIN
 70
     8
  9
$DIMBLK
  1

  9
$DIMASO
 70
     1
  9
$DIMSHO
 70
     1
  9
$DIMPOST
  1

  9
$DIMAPOST
  1

  9
$DIMALT
 70
     0
  9
$DIMALTD
 70
     2
  9
$DIMALTF
 40
0.0394
  9
$DIMLFAC
 40
1.0
  9
$DIMTOFL
 70
     1
  9
$DIMTVP
 40
0.0
  9
$DIMTIX
 70
     1
  9
$DIMSOXD
 70
     0
  9
$DIMSAH
 70
     0
  9
$DIMBLK1
  1

  9
$DIMBLK2
  1

  9
$DIMSTYLE
  2
SANWA
  9
$DIMCLRD
 70
   256
  9
$DIMCLRE
 70
   256
  9
$DIMCLRT
 70
   256
  9
$DIMTFAC
 40
1.0
  9
$DIMGAP
 40
1.0
  9
$DIMJUST
 70
     0
  9
$DIMSD1
 70
     0
  9
$DIMSD2
 70
     0
  9
$DIMTOLJ
 70
     1
  9
$DIMTZIN
 70
     0
  9
$DIMALTZ
 70
     0
  9
$DIMALTTZ
 70
     0
  9
$DIMUPT
 70
     0
  9
$DIMDEC
 70
     4
  9
$DIMTDEC
 70
     4
  9
$DIMALTU
 70
     2
  9
$DIMALTTD
 70
     2
  9
$DIMTXSTY
  7
SANWA
  9
$DIMAUNIT
 70
     0
  9
$DIMADEC
 70
     0
  9
$DIMALTRND
 40
0.0
  9
$DIMAZIN
 70
     0
  9
$DIMDSEP
 70
    46
  9
$DIMATFIT
 70
     3
  9
$DIMFRAC
 70
     0
  9
$DIMLDRBLK
  1

  9
$DIMLUNIT
 70
     2
  9
$DIMLWD
 70
    -2
  9
$DIMLWE
 70
    -2
  9
$DIMTMOVE
 70
     0
  9
$LUNITS
 70
     2
  9
$LUPREC
 70
     4
  9
$SKETCHINC
 40
1.0
  9
$FILLETRAD
 40
10.0
  9
$AUNITS
 70
     0
  9
$AUPREC
 70
     0
  9
$MENU
  1
acad
  9
$ELEVATION
 40
0.0
  9
$PELEVATION
 40
0.0
  9
$THICKNESS
 40
0.0
  9
$LIMCHECK
 70
     0
  9
$CHAMFERA
 40
0.0
  9
$CHAMFERB
 40
0.0
  9
$CHAMFERC
 40
0.0
  9
$CHAMFERD
 40
0.0
  9
$SKPOLY
 70
     1
  9
$TDCREATE
 40
2451573.466993750
  9
$TDUCREATE
 40
2451573.091993750
  9
$TDUPDATE
 40
2455412.397776840
  9
$TDUUPDATE
 40
2455412.022776840
  9
$TDINDWG
 40
0.3781926852
  9
$TDUSRTIMER
 40
0.3781926852
  9
$USRTIMER
 70
     1
  9
$ANGBASE
 50
0.0
  9
$ANGDIR
 70
     0
  9
$PDMODE
 70
     0
  9
$PDSIZE
 40
0.0
  9
$PLINEWID
 40
0.0
  9
$SPLFRAME
 70
     0
  9
$SPLINETYPE
 70
     6
  9
$SPLINESEGS
 70
     8
  9
$HANDSEED
  5
A9CD
  9
$SURFTAB1
 70
     6
  9
$SURFTAB2
 70
     6
  9
$SURFTYPE
 70
     6
  9
$SURFU
 70
     6
  9
$SURFV
 70
     6
  9
$UCSBASE
  2

  9
$UCSNAME
  2

  9
$UCSORG
 10
0.0
 20
0.0
 30
0.0
  9
$UCSXDIR
 10
1.0
 20
0.0
 30
0.0
  9
$UCSYDIR
 10
0.0
 20
1.0
 30
0.0
  9
$UCSORTHOREF
  2

  9
$UCSORTHOVIEW
 70
     0
  9
$UCSORGTOP
 10
0.0
 20
0.0
 30
0.0
  9
$UCSORGBOTTOM
 10
0.0
 20
0.0
 30
0.0
  9
$UCSORGLEFT
 10
0.0
 20
0.0
 30
0.0
  9
$UCSORGRIGHT
 10
0.0
 20
0.0
 30
0.0
  9
$UCSORGFRONT
 10
0.0
 20
0.0
 30
0.0
  9
$UCSORGBACK
 10
0.0
 20
0.0
 30
0.0
  9
$PUCSBASE
  2

  9
$PUCSNAME
  2

  9
$PUCSORG
 10
0.0
 20
0.0
 30
0.0
  9
$PUCSXDIR
 10
1.0
 20
0.0
 30
0.0
  9
$PUCSYDIR
 10
0.0
 20
1.0
 30
0.0
  9
$PUCSORTHOREF
  2

  9
$PUCSORTHOVIEW
 70
     0
  9
$PUCSORGTOP
 10
0.0
 20
0.0
 30
0.0
  9
$PUCSORGBOTTOM
 10
0.0
 20
0.0
 30
0.0
  9
$PUCSORGLEFT
 10
0.0
 20
0.0
 30
0.0
  9
$PUCSORGRIGHT
 10
0.0
 20
0.0
 30
0.0
  9
$PUCSORGFRONT
 10
0.0
 20
0.0
 30
0.0
  9
$PUCSORGBACK
 10
0.0
 20
0.0
 30
0.0
  9
$USERI1
 70
     0
  9
$USERI2
 70
     0
  9
$USERI3
 70
     0
  9
$USERI4
 70
     0
  9
$USERI5
 70
     0
  9
$USERR1
 40
0.0
  9
$USERR2
 40
0.0
  9
$USERR3
 40
0.0
  9
$USERR4
 40
0.0
  9
$USERR5
 40
0.0
  9
$WORLDVIEW
 70
     1
  9
$SHADEDGE
 70
     3
  9
$SHADEDIF
 70
    70
  9
$TILEMODE
 70
     1
  9
$MAXACTVP
 70
    48
  9
$PINSBASE
 10
0.0
 20
0.0
 30
0.0
  9
$PLIMCHECK
 70
     0
  9
$PEXTMIN
 10
-0.1844175842215918
 20
-0.0640820246935618
 30
-0.000000000000016
  9
$PEXTMAX
 10
6043.640917561155
 20
2100.064091803581
 30
0.0000000000000145
  9
$PLIMMIN
 10
-122.8572704991847
 20
-124.0777933904298
  9
$PLIMMAX
 10
6147.544440204626
 20
4309.579997757879
  9
$UNITMODE
 70
     0
  9
$VISRETAIN
 70
     1
  9
$PLINEGEN
 70
     0
  9
$PSLTSCALE
 70
     1
  9
$TREEDEPTH
 70
  3020
  9
$CMLSTYLE
  2
STANDARD
  9
$CMLJUST
 70
     0
  9
$CMLSCALE
 40
1.0
  9
$PROXYGRAPHICS
 70
     1
  9
$MEASUREMENT
 70
     1
  9
$CELWEIGHT
370
    -1
  9
$ENDCAPS
280
     0
  9
$JOINSTYLE
280
     0
  9
$LWDISPLAY
290
     0
  9
$INSUNITS
 70
     0
  9
$HYPERLINKBASE
  1

  9
$STYLESHEET
  1
sanwa3.ctb
  9
$XEDIT
290
     1
  9
$CEPSNTYPE
380
     0
  9
$PSTYLEMODE
290
     1
  9
$FINGERPRINTGUID
  2
{736B79C6-7500-4111-9D02-631A861EA359}
  9
$VERSIONGUID
  2
{119AC297-9305-4745-AE18-3E0D4F318D07}
  9
$EXTNAMES
290
     1
  9
$PSVPSCALE
 40
0.0
  9
$OLESTARTUP
290
     0
  0
ENDSEC
  0
SECTION
  2
CLASSES
  0
CLASS
  1
DICTIONARYVAR
  2
AcDbDictionaryVar
  3
ObjectDBX Classes
 90
        0
280
     0
281
     0
  0
CLASS
  1
ACDBDICTIONARYWDFLT
  2
AcDbDictionaryWithDefault
  3
ObjectDBX Classes
 90
        0
280
     0
281
     0
  0
CLASS
  1
ACDBPLACEHOLDER
  2
AcDbPlaceHolder
  3
ObjectDBX Classes
 90
        0
280
     0
281
     0
  0
CLASS
  1
LAYOUT
  2
AcDbLayout
  3
ObjectDBX Classes
 90
        0
280
     0
281
     0
  0
CLASS
  1
MATERIAL
  2
AcDbMaterial
  3
ObjectDBX Classes
 90
     1153
280
     0
281
     0
  0
CLASS
  1
VISUALSTYLE
  2
AcDbVisualStyle
  3
ObjectDBX Classes
 90
     4095
280
     0
281
     0
  0
CLASS
  1
TABLESTYLE
  2
AcDbTableStyle
  3
ObjectDBX Classes
 90
     4095
280
     0
281
     0
  0
CLASS
  1
SCALE
  2
AcDbScale
  3
ObjectDBX Classes
 90
     1153
280
     0
281
     0
  0
CLASS
  1
MLEADERSTYLE
  2
AcDbMLeaderStyle
  3
ACDB_MLEADERSTYLE_CLASS
 90
     4095
280
     0
281
     0
  0
CLASS
  1
CELLSTYLEMAP
  2
AcDbCellStyleMap
  3
ObjectDBX Classes
 90
     1152
280
     0
281
     0
  0
ENDSEC
  0
SECTION
  2
TABLES
  0
TABLE
  2
VPORT
  5
746D
330
0
100
AcDbSymbolTable
 70
     1
  0
VPORT
  5
A71B
330
746D
100
AcDbSymbolTableRecord
100
AcDbViewportTableRecord
  2
*Active
 70
     0
 10
0.0
 20
0.0
 11
1.0
 21
1.0
 12
1484.857694762428
 22
1050.000006292051
 13
0.0
 23
0.0
 14
10.0
 24
10.0
 15
10.0
 25
10.0
 16
0.0
 26
0.0
 36
1.0
 17
0.0
 27
0.0
 37
0.0
 40
2426.606110334351
 41
1.353070175438596
 42
50.0
 43
0.0
 44
0.0
 50
0.0
 51
0.0
 71
     0
 72
   100
 73
     1
 74
     0
 75
     0
 76
     0
 77
     0
 78
     0
281
     0
 65
     1
110
0.0
120
0.0
130
0.0
111
1.0
121
0.0
131
0.0
112
0.0
122
1.0
132
0.0
 79
     0
146
0.0
  0
ENDTAB
  0
TABLE
  2
LTYPE
  5
746A
330
0
100
AcDbSymbolTable
 70
     5
  0
LTYPE
  5
7477
330
746A
100
AcDbSymbolTableRecord
100
AcDbLinetypeTableRecord
  2
BYBLOCK
 70
     0
  3

 72
    65
 73
     0
 40
0.0
  0
LTYPE
  5
7478
330
746A
100
AcDbSymbolTableRecord
100
AcDbLinetypeTableRecord
  2
BYLAYER
 70
     0
  3

 72
    65
 73
     0
 40
0.0
  0
LTYPE
  5
7479
330
746A
100
AcDbSymbolTableRecord
100
AcDbLinetypeTableRecord
  2
CONTINUOUS
 70
     0
  3
Solid line
 72
    65
 73
     0
 40
0.0
  0
LTYPE
  5
7D54
330
746A
100
AcDbSymbolTableRecord
100
AcDbLinetypeTableRecord
  2
CENTER2
 70
     0
  3
Center (.5x) ___ _ ___ _ ___ _ ___ _ ___ _ ___
 72
    65
 73
     4
 40
28.575
 49
19.05
 74
     0
 49
-3.174999999999999
 74
     0
 49
3.174999999999999
 74
     0
 49
-3.174999999999999
 74
     0
  0
LTYPE
  5
7D55
330
746A
100
AcDbSymbolTableRecord
100
AcDbLinetypeTableRecord
  2
DOT
 70
     0
  3
Dot . . . . . . . . . . . . . . . . . . . . . .
 72
    65
 73
     2
 40
6.349999999999999
 49
0.0
 74
     0
 49
-6.349999999999999
 74
     0
  0
LTYPE
  5
7D56
330
746A
100
AcDbSymbolTableRecord
100
AcDbLinetypeTableRecord
  2
HIDDEN2
 70
     0
  3
Hidden (.5x) _ _ _ _ _ _ _ _ _ _ _ _ _ _ _ _ _
 72
    65
 73
     2
 40
4.762499999999999
 49
3.174999999999999
 74
     0
 49
-1.587499999999999
 74
     0
  0
LTYPE
  5
7D57
330
746A
100
AcDbSymbolTableRecord
100
AcDbLinetypeTableRecord
  2
PHANTOM2
 70
     0
  3
Phantom (.5x) ___ _ _ ___ _ _ ___ _ _ ___ _ _
 72
    65
 73
     6
 40
31.75
 49
15.875
 74
     0
 49
-3.174999999999999
 74
     0
 49
3.174999999999999
 74
     0
 49
-3.174999999999999
 74
     0
 49
3.174999999999999
 74
     0
 49
-3.174999999999999
 74
     0
  0
ENDTAB
  0
TABLE
  2
LAYER
  5
7467
330
0
100
AcDbSymbolTable
 70
     7
  0
LAYER
  5
7474
102
{ACAD_XDICTIONARY
360
A9AF
102
}
330
7467
100
AcDbSymbolTableRecord
100
AcDbLayerTableRecord
  2
0
 70
     0
 62
     7
  6
CONTINUOUS
370
    -3
390
9B1C
  0
LAYER
  5
7485
330
7467
100
AcDbSymbolTableRecord
100
AcDbLayerTableRecord
  2
DEFPOINTS
 70
     0
 62
     7
  6
CONTINUOUS
290
     0
370
    -3
390
9B1C
  0
LAYER
  5
7486
102
{ACAD_XDICTIONARY
360
A9B1
102
}
330
7467
100
AcDbSymbolTableRecord
100
AcDbLayerTableRecord
  2
OBJECT
 70
     0
 62
     7
  6
CONTINUOUS
370
    -3
390
9B1C
  0
LAYER
  5
7950
102
{ACAD_XDICTIONARY
360
A9B3
102
}
330
7467
100
AcDbSymbolTableRecord
100
AcDbLayerTableRecord
  2
枠
 70
     0
 62
     3
  6
CONTINUOUS
370
    -3
390
9B1C
  0
LAYER
  5
7D58
102
{ACAD_XDICTIONARY
360
A9B5
102
}
330
7467
100
AcDbSymbolTableRecord
100
AcDbLayerTableRecord
  2
寸法引出
 70
     0
 62
     2
  6
CONTINUOUS
370
    -3
390
9B1C
  0
LAYER
  5
7D59
102
{ACAD_XDICTIONARY
360
A9B7
102
}
330
7467
100
AcDbSymbolTableRecord
100
AcDbLayerTableRecord
  2
鉄筋
 70
     0
 62
     4
  6
CONTINUOUS
370
    -3
390
9B1C
  0
LAYER
  5
7D5A
102
{ACAD_XDICTIONARY
360
A9B9
102
}
330
7467
100
AcDbSymbolTableRecord
100
AcDbLayerTableRecord
  2
補助線
 70
     0
 62
     6
  6
CONTINUOUS
370
    -3
390
9B1C
  0
ENDTAB
  0
TABLE
  2
STYLE
  5
7468
330
0
100
AcDbSymbolTable
 70
     4
  0
STYLE
  5
7475
330
7468
100
AcDbSymbolTableRecord
100
AcDbTextStyleTableRecord
  2
STANDARD
 70
     0
 40
0.0
 41
1.0
 50
0.0
 71
     0
 42
3.5
  3
txt
  4

  0
STYLE
  5
7481
330
7468
100
AcDbSymbolTableRecord
100
AcDbTextStyleTableRecord
  2
ADESK1
 70
     0
 40
0.0
 41
1.0
 50
0.0
 71
     0
 42
5.0
  3
romans
  4
bigfont
  0
STYLE
  5
7731
330
7468
100
AcDbSymbolTableRecord
100
AcDbTextStyleTableRecord
  2
SANWA
 70
     0
 40
0.0
 41
1.0
 50
0.0
 71
     0
 42
2.799999999999999
  3
MS Mincho.ttf
  4

1001
ACAD
1000
MS Mincho
1071
    32785
  0
STYLE
  5
7D45
330
7468
100
AcDbSymbolTableRecord
100
AcDbTextStyleTableRecord
  2

 70
     1
 40
0.0
 41
1.0
 50
0.0
 71
     0
 42
3.5
  3
ltypeshp.shx
  4

  0
ENDTAB
  0
TABLE
  2
VIEW
  5
746B
330
0
100
AcDbSymbolTable
 70
     0
  0
ENDTAB
  0
TABLE
  2
UCS
  5
746C
330
0
100
AcDbSymbolTable
 70
     0
  0
ENDTAB
  0
TABLE
  2
APPID
  5
746E
330
0
100
AcDbSymbolTable
 70
     2
  0
APPID
  5
7476
330
746E
100
AcDbSymbolTableRecord
100
AcDbRegAppTableRecord
  2
ACAD
 70
     0
  0
APPID
  5
A76F
330
746E
100
AcDbSymbolTableRecord
100
AcDbRegAppTableRecord
  2
ACAD_MLEADERVER
 70
     0
  0
ENDTAB
  0
TABLE
  2
DIMSTYLE
  5
746F
330
0
100
AcDbSymbolTable
 70
     4
100
AcDbDimStyleTable
 71
     0
  0
DIMSTYLE
105
7484
330
746F
100
AcDbSymbolTableRecord
100
AcDbDimStyleTableRecord
  2
JIS
 70
     0
 41
2.5
 42
1.0
 43
7.0
 44
1.0
 73
     0
 74
     0
 77
     1
 78
     8
140
2.5
141
0.0
143
0.0394
147
0.0
172
     1
174
     1
176
     2
177
     2
178
     2
340
7731
  0
DIMSTYLE
105
796F
102
{ACAD_REACTORS
330
A007
330
A008
330
A010
330
A017
330
A076
330
A077
330
A078
330
A079
330
A07A
330
A083
330
A084
330
A085
330
A086
330
A087
330
A08A
330
A091
330
A092
330
A093
330
A09A
330
A09E
330
A0A0
330
A0A9
330
A0AB
330
A0B2
330
A0B4
330
A0B5
330
A0BA
330
A0CF
330
A0D9
330
A0DA
330
A0DC
102
}
330
746F
100
AcDbSymbolTableRecord
100
AcDbDimStyleTableRecord
  2
SANWA
 70
     0
 41
2.5
 42
1.0
 43
7.0
 44
1.0
 73
     0
 74
     0
 77
     1
 78
     8
140
2.5
141
0.0
143
0.0394
147
0.0
172
     1
174
     1
176
     2
177
     2
178
     2
340
7731
  0
DIMSTYLE
105
7C9D
330
746F
100
AcDbSymbolTableRecord
100
AcDbDimStyleTableRecord
  2
SANWA$4
 70
     0
 41
2.5
 42
1.0
 43
5.0
 44
1.0
 73
     0
 74
     0
 77
     1
 78
     8
140
2.5
141
0.0
143
0.0394
147
1.0
172
     1
174
     1
176
     2
177
     2
178
     2
289
     2
340
7731
  0
DIMSTYLE
105
7CB5
330
746F
100
AcDbSymbolTableRecord
100
AcDbDimStyleTableRecord
  2
SANWA$3
 70
     0
 41
2.5
 42
1.0
 43
7.0
 44
1.0
 73
     0
 74
     0
 77
     1
 78
     8
140
2.5
141
0.0
143
0.0394
147
0.0
172
     1
174
     1
176
     2
177
     2
178
     2
289
     0
340
7731
  0
ENDTAB
  0
TABLE
  2
BLOCK_RECORD
  5
7466
330
0
100
AcDbSymbolTable
 70
   187
  0
BLOCK_RECORD
  5
747D
330
7466
100
AcDbSymbolTableRecord
100
AcDbBlockTableRecord
  2
*MODEL_SPACE
340
9B1F
  0
BLOCK_RECORD
  5
747A
330
7466
100
AcDbSymbolTableRecord
100
AcDbBlockTableRecord
  2
*PAPER_SPACE
340
9B20
  0
BLOCK_RECORD
  5
7493
330
7466
100
AcDbSymbolTableRecord
100
AcDbBlockTableRecord
  2
TITLE_BLOCK
340
0
  0
BLOCK_RECORD
  5
A1F1
330
7466
100
AcDbSymbolTableRecord
100
AcDbBlockTableRecord
  2
*D125
340
0
  0
BLOCK_RECORD
  5
A1FD
330
7466
100
AcDbSymbolTableRecord
100
AcDbBlockTableRecord
  2
*D126
340
0
  0
BLOCK_RECORD
  5
A209
330
7466
100
AcDbSymbolTableRecord
100
AcDbBlockTableRecord
  2
*D127
340
0
  0
BLOCK_RECORD
  5
A215
330
7466
100
AcDbSymbolTableRecord
100
AcDbBlockTableRecord
  2
*D128
340
0
  0
BLOCK_RECORD
  5
A221
330
7466
100
AcDbSymbolTableRecord
100
AcDbBlockTableRecord
  2
*D129
340
0
  0
BLOCK_RECORD
  5
A22C
330
7466
100
AcDbSymbolTableRecord
100
AcDbBlockTableRecord
  2
*D130
340
0
  0
BLOCK_RECORD
  5
A237
330
7466
100
AcDbSymbolTableRecord
100
AcDbBlockTableRecord
  2
*D131
340
0
  0
BLOCK_RECORD
  5
A243
330
7466
100
AcDbSymbolTableRecord
100
AcDbBlockTableRecord
  2
*D132
340
0
  0
BLOCK_RECORD
  5
A24F
330
7466
100
AcDbSymbolTableRecord
100
AcDbBlockTableRecord
  2
*D133
340
0
  0
BLOCK_RECORD
  5
A25B
330
7466
100
AcDbSymbolTableRecord
100
AcDbBlockTableRecord
  2
*D134
340
0
  0
BLOCK_RECORD
  5
A267
330
7466
100
AcDbSymbolTableRecord
100
AcDbBlockTableRecord
  2
*D135
340
0
  0
BLOCK_RECORD
  5
A275
330
7466
100
AcDbSymbolTableRecord
100
AcDbBlockTableRecord
  2
*D136
340
0
  0
BLOCK_RECORD
  5
A282
330
7466
100
AcDbSymbolTableRecord
100
AcDbBlockTableRecord
  2
*D137
340
0
  0
BLOCK_RECORD
  5
A28E
330
7466
100
AcDbSymbolTableRecord
100
AcDbBlockTableRecord
  2
*D138
340
0
  0
BLOCK_RECORD
  5
A29C
330
7466
100
AcDbSymbolTableRecord
100
AcDbBlockTableRecord
  2
*D139
340
0
  0
BLOCK_RECORD
  5
A2A8
330
7466
100
AcDbSymbolTableRecord
100
AcDbBlockTableRecord
  2
*D140
340
0
  0
BLOCK_RECORD
  5
A2B4
330
7466
100
AcDbSymbolTableRecord
100
AcDbBlockTableRecord
  2
*D141
340
0
  0
BLOCK_RECORD
  5
A2C2
330
7466
100
AcDbSymbolTableRecord
100
AcDbBlockTableRecord
  2
*D142
340
0
  0
BLOCK_RECORD
  5
A2CE
330
7466
100
AcDbSymbolTableRecord
100
AcDbBlockTableRecord
  2
*D143
340
0
  0
BLOCK_RECORD
  5
A2DC
330
7466
100
AcDbSymbolTableRecord
100
AcDbBlockTableRecord
  2
*D144
340
0
  0
BLOCK_RECORD
  5
A2EA
330
7466
100
AcDbSymbolTableRecord
100
AcDbBlockTableRecord
  2
*D145
340
0
  0
BLOCK_RECORD
  5
A2F8
330
7466
100
AcDbSymbolTableRecord
100
AcDbBlockTableRecord
  2
*D146
340
0
  0
BLOCK_RECORD
  5
A304
330
7466
100
AcDbSymbolTableRecord
100
AcDbBlockTableRecord
  2
*D147
340
0
  0
BLOCK_RECORD
  5
A30F
330
7466
100
AcDbSymbolTableRecord
100
AcDbBlockTableRecord
  2
*D148
340
0
  0
BLOCK_RECORD
  5
A31C
330
7466
100
AcDbSymbolTableRecord
100
AcDbBlockTableRecord
  2
*D149
340
0
  0
BLOCK_RECORD
  5
A328
330
7466
100
AcDbSymbolTableRecord
100
AcDbBlockTableRecord
  2
*D150
340
0
  0
BLOCK_RECORD
  5
A334
330
7466
100
AcDbSymbolTableRecord
100
AcDbBlockTableRecord
  2
*D151
340
0
  0
BLOCK_RECORD
  5
A342
330
7466
100
AcDbSymbolTableRecord
100
AcDbBlockTableRecord
  2
*D152
340
0
  0
BLOCK_RECORD
  5
A34E
330
7466
100
AcDbSymbolTableRecord
100
AcDbBlockTableRecord
  2
*D153
340
0
  0
BLOCK_RECORD
  5
A35A
330
7466
100
AcDbSymbolTableRecord
100
AcDbBlockTableRecord
  2
*D154
340
0
  0
BLOCK_RECORD
  5
A366
330
7466
100
AcDbSymbolTableRecord
100
AcDbBlockTableRecord
  2
*D155
340
0
  0
BLOCK_RECORD
  5
A373
330
7466
100
AcDbSymbolTableRecord
100
AcDbBlockTableRecord
  2
*D156
340
0
  0
BLOCK_RECORD
  5
A37F
330
7466
100
AcDbSymbolTableRecord
100
AcDbBlockTableRecord
  2
*D157
340
0
  0
BLOCK_RECORD
  5
A38B
330
7466
100
AcDbSymbolTableRecord
100
AcDbBlockTableRecord
  2
*D158
340
0
  0
BLOCK_RECORD
  5
A399
330
7466
100
AcDbSymbolTableRecord
100
AcDbBlockTableRecord
  2
*D159
340
0
  0
BLOCK_RECORD
  5
A3A6
330
7466
100
AcDbSymbolTableRecord
100
AcDbBlockTableRecord
  2
*D160
340
0
  0
BLOCK_RECORD
  5
A3B2
330
7466
100
AcDbSymbolTableRecord
100
AcDbBlockTableRecord
  2
*D161
340
0
  0
BLOCK_RECORD
  5
A3BE
330
7466
100
AcDbSymbolTableRecord
100
AcDbBlockTableRecord
  2
*D162
340
0
  0
BLOCK_RECORD
  5
A3CA
330
7466
100
AcDbSymbolTableRecord
100
AcDbBlockTableRecord
  2
*D163
340
0
  0
BLOCK_RECORD
  5
A3D6
330
7466
100
AcDbSymbolTableRecord
100
AcDbBlockTableRecord
  2
*D164
340
0
  0
BLOCK_RECORD
  5
A3E2
330
7466
100
AcDbSymbolTableRecord
100
AcDbBlockTableRecord
  2
*D165
340
0
  0
BLOCK_RECORD
  5
A3EE
330
7466
100
AcDbSymbolTableRecord
100
AcDbBlockTableRecord
  2
*D166
340
0
  0
BLOCK_RECORD
  5
A3FA
330
7466
100
AcDbSymbolTableRecord
100
AcDbBlockTableRecord
  2
*D167
340
0
  0
BLOCK_RECORD
  5
A405
330
7466
100
AcDbSymbolTableRecord
100
AcDbBlockTableRecord
  2
*D168
340
0
  0
BLOCK_RECORD
  5
A411
330
7466
100
AcDbSymbolTableRecord
100
AcDbBlockTableRecord
  2
*D169
340
0
  0
BLOCK_RECORD
  5
A41D
330
7466
100
AcDbSymbolTableRecord
100
AcDbBlockTableRecord
  2
*D170
340
0
  0
BLOCK_RECORD
  5
A428
330
7466
100
AcDbSymbolTableRecord
100
AcDbBlockTableRecord
  2
*D171
340
0
  0
BLOCK_RECORD
  5
A433
330
7466
100
AcDbSymbolTableRecord
100
AcDbBlockTableRecord
  2
*D172
340
0
  0
BLOCK_RECORD
  5
A43F
330
7466
100
AcDbSymbolTableRecord
100
AcDbBlockTableRecord
  2
*D173
340
0
  0
BLOCK_RECORD
  5
A44B
330
7466
100
AcDbSymbolTableRecord
100
AcDbBlockTableRecord
  2
*D174
340
0
  0
BLOCK_RECORD
  5
A456
330
7466
100
AcDbSymbolTableRecord
100
AcDbBlockTableRecord
  2
*D175
340
0
  0
BLOCK_RECORD
  5
A461
330
7466
100
AcDbSymbolTableRecord
100
AcDbBlockTableRecord
  2
*D176
340
0
  0
BLOCK_RECORD
  5
A46D
330
7466
100
AcDbSymbolTableRecord
100
AcDbBlockTableRecord
  2
*D177
340
0
  0
BLOCK_RECORD
  5
A478
330
7466
100
AcDbSymbolTableRecord
100
AcDbBlockTableRecord
  2
*D178
340
0
  0
BLOCK_RECORD
  5
A483
330
7466
100
AcDbSymbolTableRecord
100
AcDbBlockTableRecord
  2
*D179
340
0
  0
BLOCK_RECORD
  5
A48E
330
7466
100
AcDbSymbolTableRecord
100
AcDbBlockTableRecord
  2
*D180
340
0
  0
BLOCK_RECORD
  5
A49A
330
7466
100
AcDbSymbolTableRecord
100
AcDbBlockTableRecord
  2
*D181
340
0
  0
BLOCK_RECORD
  5
A4A6
330
7466
100
AcDbSymbolTableRecord
100
AcDbBlockTableRecord
  2
*D182
340
0
  0
BLOCK_RECORD
  5
A4B4
330
7466
100
AcDbSymbolTableRecord
100
AcDbBlockTableRecord
  2
*D183
340
0
  0
BLOCK_RECORD
  5
A4C0
330
7466
100
AcDbSymbolTableRecord
100
AcDbBlockTableRecord
  2
*D184
340
0
  0
BLOCK_RECORD
  5
A4CD
330
7466
100
AcDbSymbolTableRecord
100
AcDbBlockTableRecord
  2
*D185
340
0
  0
BLOCK_RECORD
  5
A4D8
330
7466
100
AcDbSymbolTableRecord
100
AcDbBlockTableRecord
  2
*D186
340
0
  0
ENDTAB
  0
ENDSEC
  0
SECTION
  2
BLOCKS
  0
BLOCK
  5
7489
330
747D
100
AcDbEntity
  8
0
100
AcDbBlockBegin
  2
*MODEL_SPACE
 70
     0
 10
0.0
 20
0.0
 30
0.0
  3
*MODEL_SPACE
  1

  0
ENDBLK
  5
748A
330
747D
100
AcDbEntity
  8
0
100
AcDbBlockEnd
  0
BLOCK
  5
7487
330
747A
100
AcDbEntity
 67
     1
  8
0
100
AcDbBlockBegin
  2
*PAPER_SPACE
 70
     2
 10
0.0
 20
0.0
 30
0.0
  3
*PAPER_SPACE
  1

  0
ENDBLK
  5
7488
330
747A
100
AcDbEntity
 67
     1
  8
0
100
AcDbBlockEnd
  0
BLOCK
  5
7494
330
7493
100
AcDbEntity
  8
0
100
AcDbBlockBegin
  2
TITLE_BLOCK
 70
     2
 10
0.0
 20
0.0
 30
0.0
  3
TITLE_BLOCK
  1

  0
LINE
  5
7495
330
7493
100
AcDbEntity
  8
0
 62
     0
100
AcDbLine
 10
402.7943262411347
 20
16.00000000000008
 30
0.0
 11
410.0
 21
16.00000000000008
 31
0.0
  0
LINE
  5
7496
330
7493
100
AcDbEntity
  8
0
 62
     0
100
AcDbLine
 10
410.0
 20
10.0
 30
0.0
 11
410.0
 21
49.00000000000036
 31
0.0
  0
LINE
  5
7497
330
7493
100
AcDbEntity
  8
0
 62
     0
100
AcDbLine
 10
410.0
 20
49.00000000000036
 30
0.0
 11
410.0
 21
10.0
 31
0.0
  0
LINE
  5
7498
330
7493
100
AcDbEntity
  8
0
 62
     0
100
AcDbLine
 10
402.7943262411347
 20
22.00000000000012
 30
0.0
 11
402.7943262411347
 21
10.0
 31
0.0
  0
LINE
  5
7499
330
7493
100
AcDbEntity
  8
0
 62
     0
100
AcDbLine
 10
336.1418439716306
 20
49.00000000000036
 30
0.0
 11
336.1418439716306
 21
22.00000000000012
 31
0.0
  0
LINE
  5
749A
330
7493
100
AcDbEntity
  8
0
 62
     0
100
AcDbLine
 10
325.3333333333326
 20
37.00000000000024
 30
0.0
 11
325.3333333333326
 21
25.00000000000012
 31
0.0
  0
LINE
  5
749B
330
7493
100
AcDbEntity
  8
0
 62
     0
100
AcDbLine
 10
318.1276595744673
 20
49.00000000000036
 30
0.0
 11
318.1276595744673
 21
25.00000000000012
 31
0.0
  0
LINE
  5
749C
330
7493
100
AcDbEntity
  8
0
 62
     0
100
AcDbLine
 10
318.1276595744673
 20
25.00000000000012
 30
0.0
 11
348.7517730496447
 21
25.00000000000012
 31
0.0
  0
LINE
  5
749D
330
7493
100
AcDbEntity
  8
0
 62
     0
100
AcDbLine
 10
280.2978723404242
 20
28.00000000000016
 30
0.0
 11
348.7517730496447
 21
28.00000000000016
 31
0.0
  0
LINE
  5
749E
330
7493
100
AcDbEntity
  8
0
 62
     0
100
AcDbLine
 10
280.2978723404242
 20
31.0000000000002
 30
0.0
 11
348.7517730496447
 21
31.0000000000002
 31
0.0
  0
LINE
  5
749F
330
7493
100
AcDbEntity
  8
0
 62
     0
100
AcDbLine
 10
280.2978723404242
 20
34.00000000000024
 30
0.0
 11
348.7517730496447
 21
34.00000000000024
 31
0.0
  0
LINE
  5
74A0
330
7493
100
AcDbEntity
  8
0
 62
     0
100
AcDbLine
 10
280.2978723404242
 20
19.00000000000008
 30
0.0
 11
318.1276595744673
 21
19.00000000000012
 31
0.0
  0
LINE
  5
74A1
330
7493
100
AcDbEntity
  8
0
 62
     0
100
AcDbLine
 10
280.2978723404242
 20
22.00000000000008
 30
0.0
 11
318.1276595744673
 21
22.00000000000012
 31
0.0
  0
LINE
  5
74A2
330
7493
100
AcDbEntity
  8
0
 62
     0
100
AcDbLine
 10
280.2978723404242
 20
25.00000000000012
 30
0.0
 11
318.1276595744673
 21
25.00000000000012
 31
0.0
  0
TEXT
  5
74A3
330
7493
100
AcDbEntity
  8
0
 62
     0
100
AcDbText
 10
342.2447163844405
 20
10.55220101068186
 30
0.0
 40
1.791674070777747
  1
照査
  7
ADESK1
 72
     1
 11
344.1558353932701
 21
10.55220101068186
 31
0.0
100
AcDbText
  0
TEXT
  5
74A4
330
7493
100
AcDbEntity
  8
0
 62
     0
100
AcDbText
 10
332.2960689314087
 20
10.48329012996929
 30
0.0
 40
1.791674070777747
  1
設計
  7
ADESK1
 72
     1
 11
334.2071879402383
 21
10.48329012996929
 31
0.0
100
AcDbText
  0
TEXT
  5
74A5
330
7493
100
AcDbEntity
  8
0
 62
     0
100
AcDbText
 10
321.7174935280942
 20
10.48329012996929
 30
0.0
 40
1.791674070777747
  1
製図
  7
ADESK1
 72
     1
 11
323.5688900678979
 21
10.48329012996929
 31
0.0
100
AcDbText
  0
LINE
  5
74A6
330
7493
100
AcDbEntity
  8
0
 62
     0
100
AcDbLine
 10
280.2978723404242
 20
10.0
 30
0.0
 11
280.2978723404242
 21
13.00000000000004
 31
0.0
  0
LINE
  5
74A7
330
7493
100
AcDbEntity
  8
0
 62
     0
100
AcDbLine
 10
280.2978723404242
 20
16.00000000000008
 30
0.0
 11
318.1276595744673
 21
16.00000000000008
 31
0.0
  0
LINE
  5
74A8
330
7493
100
AcDbEntity
  8
0
 62
     0
100
AcDbLine
 10
339.4042553191484
 20
22.00000000000008
 30
0.0
 11
339.4042553191484
 21
10.0
 31
0.0
  0
LINE
  5
74A9
330
7493
100
AcDbEntity
  8
0
 62
     0
100
AcDbLine
 10
328.7659574468078
 20
22.00000000000008
 30
0.0
 11
328.7659574468078
 21
10.0
 31
0.0
  0
LINE
  5
74AA
330
7493
100
AcDbEntity
  8
0
 62
     0
100
AcDbLine
 10
348.7517730496447
 20
49.00000000000036
 30
0.0
 11
348.7517730496447
 21
10.0
 31
0.0
  0
LINE
  5
74AB
330
7493
100
AcDbEntity
  8
0
 62
     0
100
AcDbLine
 10
280.2978723404242
 20
49.00000000000036
 30
0.0
 11
280.2978723404242
 21
10.0
 31
0.0
  0
LINE
  5
74AC
330
7493
100
AcDbEntity
  8
0
 62
     0
100
AcDbLine
 10
318.1276595744673
 20
25.00000000000012
 30
0.0
 11
318.1276595744673
 21
10.0
 31
0.0
  0
LINE
  5
74AD
330
7493
100
AcDbEntity
  8
0
 62
     0
100
AcDbLine
 10
312.7234042553184
 20
37.00000000000024
 30
0.0
 11
312.7234042553184
 21
10.0
 31
0.0
  0
LINE
  5
74AE
330
7493
100
AcDbEntity
  8
0
 62
     0
100
AcDbLine
 10
285.7021276595731
 20
37.00000000000024
 30
0.0
 11
285.7021276595731
 21
10.0
 31
0.0
  0
LINE
  5
74AF
330
7493
100
AcDbEntity
  8
0
 62
     0
100
AcDbLine
 10
303.7163120567366
 20
37.00000000000024
 30
0.0
 11
303.7163120567366
 21
10.0
 31
0.0
  0
LINE
  5
74B0
330
7493
100
AcDbEntity
  8
0
 62
     0
100
AcDbLine
 10
410.0
 20
49.00000000000036
 30
0.0
 11
280.2978723404242
 21
49.00000000000036
 31
0.0
  0
LINE
  5
74B1
330
7493
100
AcDbEntity
  8
0
 62
     0
100
AcDbLine
 10
280.2978723404242
 20
10.0
 30
0.0
 11
410.0
 21
10.0
 31
0.0
  0
LINE
  5
74B2
330
7493
100
AcDbEntity
  8
0
 62
     0
100
AcDbLine
 10
318.1276595744673
 20
22.00000000000012
 30
0.0
 11
410.0
 21
22.00000000000012
 31
0.0
  0
LINE
  5
74B3
330
7493
100
AcDbEntity
  8
0
 62
     0
100
AcDbLine
 10
280.2978723404242
 20
37.00000000000024
 30
0.0
 11
410.0
 21
37.00000000000024
 31
0.0
  0
LINE
  5
74B4
330
7493
100
AcDbEntity
  8
0
 62
     0
100
AcDbLine
 10
280.2978723404242
 20
13.00000000000004
 30
0.0
 11
410.0
 21
13.00000000000004
 31
0.0
  0
LINE
  5
74B5
330
7493
100
AcDbEntity
  8
0
 62
     0
100
AcDbLine
 10
280.2978723404242
 20
49.00000000000036
 30
0.0
 11
410.0
 21
49.00000000000036
 31
0.0
  0
TEXT
  5
74B6
330
7493
100
AcDbEntity
  8
0
100
AcDbText
 10
411.3708251683467
 20
33.08333333333334
 30
0.0
 40
3.0
  1
F
  7
ADESK1
 72
     1
 11
412.8708251683468
 21
33.08333333333334
 31
0.0
100
AcDbText
  0
TEXT
  5
74B7
330
7493
100
AcDbEntity
  8
0
100
AcDbText
 10
411.3708251683467
 20
79.25
 30
0.0
 40
3.0
  1
E
  7
ADESK1
 72
     1
 11
412.8708251683468
 21
79.25
 31
0.0
100
AcDbText
  0
TEXT
  5
74B8
330
7493
100
AcDbEntity
  8
0
100
AcDbText
 10
411.2993965969182
 20
125.4166666666666
 30
0.0
 40
3.0
  1
D
  7
ADESK1
 72
     1
 11
412.8708251683468
 21
125.4166666666666
 31
0.0
100
AcDbText
  0
TEXT
  5
74B9
330
7493
100
AcDbEntity
  8
0
100
AcDbText
 10
411.3708251683467
 20
171.5833333333333
 30
0.0
 40
3.0
  1
C
  7
ADESK1
 72
     1
 11
412.8708251683468
 21
171.5833333333333
 31
0.0
100
AcDbText
  0
TEXT
  5
74BA
330
7493
100
AcDbEntity
  8
0
100
AcDbText
 10
411.2993965969182
 20
217.75
 30
0.0
 40
3.0
  1
B
  7
ADESK1
 72
     1
 11
412.8708251683468
 21
217.75
 31
0.0
100
AcDbText
  0
TEXT
  5
74BB
330
7493
100
AcDbEntity
  8
0
100
AcDbText
 10
411.5851108826324
 20
263.9166666666666
 30
0.0
 40
3.0
  1
A
  7
ADESK1
 72
     1
 11
412.8708251683468
 21
263.9166666666666
 31
0.0
100
AcDbText
  0
TEXT
  5
74BC
330
7493
100
AcDbEntity
  8
0
100
AcDbText
 10
384.5089285714286
 20
6.019997240728748
 30
0.0
 40
3.0
  1
8
  7
ADESK1
 72
     1
 11
385.9375
 21
6.019997240728748
 31
0.0
100
AcDbText
  0
TEXT
  5
74BD
330
7493
100
AcDbEntity
  8
0
100
AcDbText
 10
336.3839285714286
 20
6.019997240728748
 30
0.0
 40
3.0
  1
7
  7
ADESK1
 72
     1
 11
337.8125
 21
6.019997240728748
 31
0.0
100
AcDbText
  0
TEXT
  5
74BE
330
7493
100
AcDbEntity
  8
0
100
AcDbText
 10
288.1875
 20
6.019997240728748
 30
0.0
 40
3.0
  1
6
  7
ADESK1
 72
     1
 11
289.6875
 21
6.019997240728748
 31
0.0
100
AcDbText
  0
TEXT
  5
74BF
330
7493
100
AcDbEntity
  8
0
100
AcDbText
 10
240.1339285714286
 20
6.019997240728748
 30
0.0
 40
3.0
  1
5
  7
ADESK1
 72
     1
 11
241.5625
 21
6.019997240728748
 31
0.0
100
AcDbText
  0
TEXT
  5
74C0
330
7493
100
AcDbEntity
  8
0
100
AcDbText
 10
191.9375
 20
6.019997240728748
 30
0.0
 40
3.0
  1
4
  7
ADESK1
 72
     1
 11
193.4375
 21
6.019997240728748
 31
0.0
100
AcDbText
  0
TEXT
  5
74C1
330
7493
100
AcDbEntity
  8
0
100
AcDbText
 10
143.8839285714285
 20
6.019997240728748
 30
0.0
 40
3.0
  1
3
  7
ADESK1
 72
     1
 11
145.3125
 21
6.019997240728748
 31
0.0
100
AcDbText
  0
TEXT
  5
74C2
330
7493
100
AcDbEntity
  8
0
100
AcDbText
 10
95.75892857142857
 20
6.019997240728748
 30
0.0
 40
3.0
  1
2
  7
ADESK1
 72
     1
 11
97.1875
 21
6.019997240728748
 31
0.0
100
AcDbText
  0
TEXT
  5
74C3
330
7493
100
AcDbEntity
  8
0
100
AcDbText
 10
47.84821428571429
 20
6.019997240728748
 30
0.0
 40
3.0
  1
1
  7
ADESK1
 72
     1
 11
49.0625
 21
6.019997240728748
 31
0.0
100
AcDbText
  0
TEXT
  5
74C4
330
7493
100
AcDbEntity
  8
0
100
AcDbText
 10
21.1071613595339
 20
33.08333333333334
 30
0.0
 40
3.0
  1
F
  7
ADESK1
 72
     1
 11
22.6071613595339
 21
33.08333333333334
 31
0.0
100
AcDbText
  0
TEXT
  5
74C5
330
7493
100
AcDbEntity
  8
0
100
AcDbText
 10
21.1071613595339
 20
79.25
 30
0.0
 40
3.0
  1
E
  7
ADESK1
 72
     1
 11
22.6071613595339
 21
79.25
 31
0.0
100
AcDbText
  0
TEXT
  5
74C6
330
7493
100
AcDbEntity
  8
0
100
AcDbText
 10
21.03573278810533
 20
125.4166666666666
 30
0.0
 40
3.0
  1
D
  7
ADESK1
 72
     1
 11
22.6071613595339
 21
125.4166666666666
 31
0.0
100
AcDbText
  0
TEXT
  5
74C7
330
7493
100
AcDbEntity
  8
0
100
AcDbText
 10
21.1071613595339
 20
171.5833333333333
 30
0.0
 40
3.0
  1
C
  7
ADESK1
 72
     1
 11
22.6071613595339
 21
171.5833333333333
 31
0.0
100
AcDbText
  0
TEXT
  5
74C8
330
7493
100
AcDbEntity
  8
0
100
AcDbText
 10
21.03573278810533
 20
217.75
 30
0.0
 40
3.0
  1
B
  7
ADESK1
 72
     1
 11
22.6071613595339
 21
217.75
 31
0.0
100
AcDbText
  0
TEXT
  5
74C9
330
7493
100
AcDbEntity
  8
0
100
AcDbText
 10
384.5089285714286
 20
288.0
 30
0.0
 40
3.0
  1
8
  7
ADESK1
 72
     1
 11
385.9375
 21
288.0
 31
0.0
100
AcDbText
  0
TEXT
  5
74CA
330
7493
100
AcDbEntity
  8
0
100
AcDbText
 10
336.3839285714286
 20
288.0
 30
0.0
 40
3.0
  1
7
  7
ADESK1
 72
     1
 11
337.8125
 21
288.0
 31
0.0
100
AcDbText
  0
TEXT
  5
74CB
330
7493
100
AcDbEntity
  8
0
100
AcDbText
 10
288.1875
 20
288.0
 30
0.0
 40
3.0
  1
6
  7
ADESK1
 72
     1
 11
289.6875
 21
288.0
 31
0.0
100
AcDbText
  0
TEXT
  5
74CC
330
7493
100
AcDbEntity
  8
0
100
AcDbText
 10
240.1339285714286
 20
288.0
 30
0.0
 40
3.0
  1
5
  7
ADESK1
 72
     1
 11
241.5625
 21
288.0
 31
0.0
100
AcDbText
  0
TEXT
  5
74CD
330
7493
100
AcDbEntity
  8
0
100
AcDbText
 10
191.9375
 20
288.0
 30
0.0
 40
3.0
  1
4
  7
ADESK1
 72
     1
 11
193.4375
 21
288.0
 31
0.0
100
AcDbText
  0
TEXT
  5
74CE
330
7493
100
AcDbEntity
  8
0
100
AcDbText
 10
143.8839285714285
 20
288.0
 30
0.0
 40
3.0
  1
3
  7
ADESK1
 72
     1
 11
145.3125
 21
288.0
 31
0.0
100
AcDbText
  0
TEXT
  5
74CF
330
7493
100
AcDbEntity
  8
0
100
AcDbText
 10
95.75892857142857
 20
288.0
 30
0.0
 40
3.0
  1
2
  7
ADESK1
 72
     1
 11
97.1875
 21
288.0
 31
0.0
100
AcDbText
  0
TEXT
  5
74D0
330
7493
100
AcDbEntity
  8
0
100
AcDbText
 10
21.32144707381961
 20
263.9166666666666
 30
0.0
 40
3.0
  1
A
  7
ADESK1
 72
     1
 11
22.6071613595339
 21
263.9166666666666
 31
0.0
100
AcDbText
  0
TEXT
  5
74D1
330
7493
100
AcDbEntity
  8
0
100
AcDbText
 10
47.84821428571429
 20
288.0
 30
0.0
 40
3.0
  1
1
  7
ADESK1
 72
     1
 11
49.0625
 21
288.0
 31
0.0
100
AcDbText
  0
LINE
  5
74D2
330
7493
100
AcDbEntity
  8
0
100
AcDbLine
 10
73.125
 20
287.0
 30
0.0
 11
73.125
 21
292.0
 31
0.0
  0
LINE
  5
74D3
330
7493
100
AcDbEntity
  8
0
100
AcDbLine
 10
121.25
 20
287.0
 30
0.0
 11
121.25
 21
292.0
 31
0.0
  0
LINE
  5
74D4
330
7493
100
AcDbEntity
  8
0
100
AcDbLine
 10
169.375
 20
287.0
 30
0.0
 11
169.375
 21
292.0
 31
0.0
  0
LINE
  5
74D5
330
7493
100
AcDbEntity
  8
0
100
AcDbLine
 10
217.5
 20
287.0
 30
0.0
 11
217.5
 21
292.0
 31
0.0
  0
LINE
  5
74D6
330
7493
100
AcDbEntity
  8
0
100
AcDbLine
 10
265.625
 20
287.0
 30
0.0
 11
265.625
 21
292.0
 31
0.0
  0
LINE
  5
74D7
330
7493
100
AcDbEntity
  8
0
100
AcDbLine
 10
313.75
 20
287.0
 30
0.0
 11
313.75
 21
292.0
 31
0.0
  0
LINE
  5
74D8
330
7493
100
AcDbEntity
  8
0
100
AcDbLine
 10
361.875
 20
287.0
 30
0.0
 11
361.875
 21
292.0
 31
0.0
  0
LINE
  5
74D9
330
7493
100
AcDbEntity
  8
0
100
AcDbLine
 10
361.875
 20
10.0
 30
0.0
 11
361.875
 21
5.0
 31
0.0
  0
LINE
  5
74DA
330
7493
100
AcDbEntity
  8
0
100
AcDbLine
 10
313.75
 20
10.0
 30
0.0
 11
313.75
 21
5.0
 31
0.0
  0
LINE
  5
74DB
330
7493
100
AcDbEntity
  8
0
100
AcDbLine
 10
265.625
 20
10.0
 30
0.0
 11
265.625
 21
5.0
 31
0.0
  0
LINE
  5
74DC
330
7493
100
AcDbEntity
  8
0
100
AcDbLine
 10
217.5
 20
10.0
 30
0.0
 11
217.5
 21
5.0
 31
0.0
  0
LINE
  5
74DD
330
7493
100
AcDbEntity
  8
0
100
AcDbLine
 10
169.375
 20
10.0
 30
0.0
 11
169.375
 21
5.0
 31
0.0
  0
LINE
  5
74DE
330
7493
100
AcDbEntity
  8
0
100
AcDbLine
 10
121.25
 20
10.0
 30
0.0
 11
121.25
 21
5.0
 31
0.0
  0
LINE
  5
74DF
330
7493
100
AcDbEntity
  8
0
100
AcDbLine
 10
73.125
 20
10.0
 30
0.0
 11
73.125
 21
5.0
 31
0.0
  0
LINE
  5
74E0
330
7493
100
AcDbEntity
  8
0
100
AcDbLine
 10
410.0
 20
240.8333333333334
 30
0.0
 11
415.0
 21
240.8333333333334
 31
0.0
  0
LINE
  5
74E1
330
7493
100
AcDbEntity
  8
0
100
AcDbLine
 10
410.0
 20
194.6666666666667
 30
0.0
 11
415.0
 21
194.6666666666667
 31
0.0
  0
LINE
  5
74E2
330
7493
100
AcDbEntity
  8
0
100
AcDbLine
 10
410.0
 20
148.5
 30
0.0
 11
415.0
 21
148.5
 31
0.0
  0
LINE
  5
74E3
330
7493
100
AcDbEntity
  8
0
100
AcDbLine
 10
410.0
 20
102.3333333333333
 30
0.0
 11
415.0
 21
102.3333333333333
 31
0.0
  0
LINE
  5
74E4
330
7493
100
AcDbEntity
  8
0
100
AcDbLine
 10
410.0
 20
56.16666666666668
 30
0.0
 11
415.0
 21
56.16666666666668
 31
0.0
  0
LINE
  5
74E5
330
7493
100
AcDbEntity
  8
0
100
AcDbLine
 10
25.0
 20
56.16666666666667
 30
0.0
 11
20.0
 21
56.16666666666667
 31
0.0
  0
LINE
  5
74E6
330
7493
100
AcDbEntity
  8
0
100
AcDbLine
 10
25.0
 20
102.3333333333333
 30
0.0
 11
20.0
 21
102.3333333333333
 31
0.0
  0
LINE
  5
74E7
330
7493
100
AcDbEntity
  8
0
100
AcDbLine
 10
25.0
 20
148.5
 30
0.0
 11
20.0
 21
148.5
 31
0.0
  0
LINE
  5
74E8
330
7493
100
AcDbEntity
  8
0
100
AcDbLine
 10
25.0
 20
194.6666666666666
 30
0.0
 11
20.0
 21
194.6666666666666
 31
0.0
  0
LINE
  5
74E9
330
7493
100
AcDbEntity
  8
0
100
AcDbLine
 10
25.0
 20
240.8333333333333
 30
0.0
 11
20.0
 21
240.8333333333333
 31
0.0
  0
TEXT
  5
74EA
330
7493
100
AcDbEntity
  8
0
100
AcDbText
 10
1.0
 20
1.0
 30
0.0
 40
3.0
  1
この図枠はサンプルです。社内の規格やプロッタの出力範囲に合わせて適当に変更してご利用ください。
  7
ADESK1
100
AcDbText
  0
LINE
  5
74EB
330
7493
100
AcDbEntity
  8
0
100
AcDbLine
 10
25.0
 20
148.5
 30
0.0
 11
0.0
 21
148.5
 31
0.0
  0
LINE
  5
74EC
330
7493
100
AcDbEntity
  8
0
100
AcDbLine
 10
410.0
 20
148.5
 30
0.0
 11
420.0
 21
148.5
 31
0.0
  0
LINE
  5
74ED
330
7493
100
AcDbEntity
  8
0
100
AcDbLine
 10
217.5
 20
287.0
 30
0.0
 11
217.5
 21
297.0
 31
0.0
  0
LINE
  5
74EE
330
7493
100
AcDbEntity
  8
0
100
AcDbLine
 10
217.5
 20
10.0
 30
0.0
 11
217.5
 21
0.0
 31
0.0
  0
LINE
  5
74EF
330
7493
100
AcDbEntity
  8
OBJECT
100
AcDbLine
 10
130.0
 20
40.0
 30
0.0
 11
130.0
 21
10.0
 31
0.0
  0
LINE
  5
74F0
330
7493
100
AcDbEntity
  8
OBJECT
100
AcDbLine
 10
120.0
 20
10.0
 30
0.0
 11
120.0
 21
40.0
 31
0.0
  0
LINE
  5
74F1
330
7493
100
AcDbEntity
  8
OBJECT
100
AcDbLine
 10
44.5
 20
37.0
 30
0.0
 11
45.49999999999999
 21
37.0
 31
0.0
  0
LINE
  5
74F2
330
7493
100
AcDbEntity
  8
OBJECT
100
AcDbLine
 10
44.5
 20
31.0
 30
0.0
 11
45.49999999999999
 21
31.0
 31
0.0
  0
LINE
  5
74F3
330
7493
100
AcDbEntity
  8
OBJECT
100
AcDbLine
 10
39.5
 20
37.0
 30
0.0
 11
40.49999999999999
 21
37.0
 31
0.0
  0
LINE
  5
74F4
330
7493
100
AcDbEntity
  8
OBJECT
100
AcDbLine
 10
39.5
 20
31.0
 30
0.0
 11
40.49999999999999
 21
31.0
 31
0.0
  0
LINE
  5
74F5
330
7493
100
AcDbEntity
  8
OBJECT
100
AcDbLine
 10
44.5
 20
25.0
 30
0.0
 11
45.49999999999999
 21
25.0
 31
0.0
  0
LINE
  5
74F6
330
7493
100
AcDbEntity
  8
OBJECT
100
AcDbLine
 10
39.5
 20
25.0
 30
0.0
 11
40.49999999999999
 21
25.0
 31
0.0
  0
LINE
  5
74F7
330
7493
100
AcDbEntity
  8
OBJECT
100
AcDbLine
 10
44.5
 20
19.0
 30
0.0
 11
45.49999999999999
 21
19.0
 31
0.0
  0
LINE
  5
74F8
330
7493
100
AcDbEntity
  8
OBJECT
100
AcDbLine
 10
39.5
 20
19.0
 30
0.0
 11
40.49999999999999
 21
19.0
 31
0.0
  0
LINE
  5
74F9
330
7493
100
AcDbEntity
  8
OBJECT
100
AcDbLine
 10
28.0
 20
29.53589800000001
 30
0.0
 11
30.0
 21
33.0
 31
0.0
  0
LINE
  5
74FA
330
7493
100
AcDbEntity
  8
OBJECT
100
AcDbLine
 10
28.0
 20
29.53589800000001
 30
0.0
 11
32.0
 21
29.53589800000001
 31
0.0
  0
LINE
  5
74FB
330
7493
100
AcDbEntity
  8
OBJECT
100
AcDbLine
 10
32.0
 20
29.53589800000001
 30
0.0
 11
30.0
 21
33.0
 31
0.0
  0
LINE
  5
74FC
330
7493
100
AcDbEntity
  8
OBJECT
100
AcDbLine
 10
28.0
 20
35.535898
 30
0.0
 11
32.0
 21
35.535898
 31
0.0
  0
LINE
  5
74FD
330
7493
100
AcDbEntity
  8
OBJECT
100
AcDbLine
 10
32.0
 20
35.535898
 30
0.0
 11
30.0
 21
39.0
 31
0.0
  0
LINE
  5
74FE
330
7493
100
AcDbEntity
  8
OBJECT
100
AcDbLine
 10
28.0
 20
35.535898
 30
0.0
 11
30.0
 21
39.0
 31
0.0
  0
LINE
  5
74FF
330
7493
100
AcDbEntity
  8
OBJECT
100
AcDbLine
 10
28.0
 20
23.535898
 30
0.0
 11
30.0
 21
27.0
 31
0.0
  0
LINE
  5
7500
330
7493
100
AcDbEntity
  8
OBJECT
100
AcDbLine
 10
28.0
 20
23.535898
 30
0.0
 11
32.0
 21
23.535898
 31
0.0
  0
LINE
  5
7501
330
7493
100
AcDbEntity
  8
OBJECT
100
AcDbLine
 10
32.0
 20
23.535898
 30
0.0
 11
30.0
 21
27.0
 31
0.0
  0
LINE
  5
7502
330
7493
100
AcDbEntity
  8
OBJECT
100
AcDbLine
 10
28.0
 20
17.535898
 30
0.0
 11
30.0
 21
21.0
 31
0.0
  0
LINE
  5
7503
330
7493
100
AcDbEntity
  8
OBJECT
100
AcDbLine
 10
28.0
 20
17.535898
 30
0.0
 11
32.0
 21
17.535898
 31
0.0
  0
LINE
  5
7504
330
7493
100
AcDbEntity
  8
OBJECT
100
AcDbLine
 10
32.0
 20
17.535898
 30
0.0
 11
30.0
 21
21.0
 31
0.0
  0
LINE
  5
7505
330
7493
100
AcDbEntity
  8
OBJECT
100
AcDbLine
 10
44.5
 20
13.0
 30
0.0
 11
45.49999999999999
 21
13.0
 31
0.0
  0
LINE
  5
7506
330
7493
100
AcDbEntity
  8
OBJECT
100
AcDbLine
 10
39.5
 20
13.0
 30
0.0
 11
40.49999999999999
 21
13.0
 31
0.0
  0
LINE
  5
7507
330
7493
100
AcDbEntity
  8
OBJECT
100
AcDbLine
 10
28.0
 20
11.535898
 30
0.0
 11
32.0
 21
11.535898
 31
0.0
  0
LINE
  5
7508
330
7493
100
AcDbEntity
  8
OBJECT
100
AcDbLine
 10
80.0
 20
10.0
 30
0.0
 11
80.0
 21
40.0
 31
0.0
  0
LINE
  5
7509
330
7493
100
AcDbEntity
  8
OBJECT
100
AcDbLine
 10
50.0
 20
10.0
 30
0.0
 11
50.0
 21
40.0
 31
0.0
  0
LINE
  5
750A
330
7493
100
AcDbEntity
  8
OBJECT
100
AcDbLine
 10
35.0
 20
10.0
 30
0.0
 11
35.0
 21
40.0
 31
0.0
  0
LINE
  5
750B
330
7493
100
AcDbEntity
  8
OBJECT
100
AcDbLine
 10
32.0
 20
11.535898
 30
0.0
 11
30.0
 21
15.0
 31
0.0
  0
LINE
  5
750C
330
7493
100
AcDbEntity
  8
OBJECT
100
AcDbLine
 10
28.0
 20
11.535898
 30
0.0
 11
30.0
 21
15.0
 31
0.0
  0
LINE
  5
750D
330
7493
100
AcDbEntity
  8
OBJECT
100
AcDbLine
 10
130.0
 20
40.0
 30
0.0
 11
25.0
 21
40.0
 31
0.0
  0
LINE
  5
750E
330
7493
100
AcDbEntity
  8
OBJECT
100
AcDbLine
 10
130.0
 20
34.0
 30
0.0
 11
25.0
 21
34.0
 31
0.0
  0
LINE
  5
750F
330
7493
100
AcDbEntity
  8
OBJECT
100
AcDbLine
 10
130.0
 20
28.0
 30
0.0
 11
25.0
 21
28.0
 31
0.0
  0
LINE
  5
7510
330
7493
100
AcDbEntity
  8
OBJECT
100
AcDbLine
 10
130.0
 20
22.0
 30
0.0
 11
25.0
 21
22.0
 31
0.0
  0
LINE
  5
7511
330
7493
100
AcDbEntity
  8
OBJECT
100
AcDbLine
 10
130.0
 20
16.0
 30
0.0
 11
25.0
 21
16.0
 31
0.0
  0
ATTDEF
  5
7512
330
7493
100
AcDbEntity
  8
0
 62
     0
100
AcDbText
 10
19.0
 20
118.0
 30
0.0
 40
3.0
  1

 50
90.0
  7
ADESK1
100
AcDbAttributeDefinition
  3

  2
FNAME
 70
     8
  0
ATTDEF
  5
7513
330
7493
100
AcDbEntity
  8
0
 62
     0
100
AcDbText
 10
19.0
 20
70.0
 30
0.0
 40
3.0
  1

 50
90.0
  7
ADESK1
100
AcDbAttributeDefinition
  3

  2
REVDATE
 70
     8
  0
ATTDEF
  5
7514
330
7493
100
AcDbEntity
  8
0
 62
     0
100
AcDbText
 10
19.0
 20
10.0
 30
0.0
 40
3.0
  1

 50
90.0
  7
ADESK1
100
AcDbAttributeDefinition
  3

  2
USER
 70
     8
  0
LINE
  5
7515
330
7493
100
AcDbEntity
  8
0
100
AcDbLine
 10
410.0
 20
297.0
 30
0.0
 11
420.0
 21
297.0
 31
0.0
  0
LINE
  5
7516
330
7493
100
AcDbEntity
  8
0
100
AcDbLine
 10
420.0
 20
10.0
 30
0.0
 11
420.0
 21
0.0
 31
0.0
  0
LINE
  5
7517
330
7493
100
AcDbEntity
  8
0
100
AcDbLine
 10
25.0
 20
0.0
 30
0.0
 11
0.0
 21
0.0
 31
0.0
  0
LINE
  5
7518
330
7493
100
AcDbEntity
  8
0
100
AcDbLine
 10
0.0
 20
287.0
 30
0.0
 11
0.0
 21
297.0
 31
0.0
  0
LINE
  5
7519
330
7493
100
AcDbEntity
  8
0
100
AcDbLine
 10
25.0
 20
287.0
 30
0.0
 11
410.0
 21
287.0
 31
0.0
  0
LINE
  5
751A
330
7493
100
AcDbEntity
  8
0
100
AcDbLine
 10
410.0
 20
287.0
 30
0.0
 11
410.0
 21
10.0
 31
0.0
  0
LINE
  5
751B
330
7493
100
AcDbEntity
  8
0
100
AcDbLine
 10
410.0
 20
10.0
 30
0.0
 11
25.0
 21
10.0
 31
0.0
  0
LINE
  5
751C
330
7493
100
AcDbEntity
  8
0
100
AcDbLine
 10
25.0
 20
10.0
 30
0.0
 11
25.0
 21
287.0
 31
0.0
  0
LINE
  5
751D
330
7493
100
AcDbEntity
  8
0
100
AcDbLine
 10
420.0
 20
0.0
 30
0.0
 11
410.0
 21
0.0
 31
0.0
  0
LINE
  5
751E
330
7493
100
AcDbEntity
  8
0
100
AcDbLine
 10
420.0
 20
297.0
 30
0.0
 11
420.0
 21
287.0
 31
0.0
  0
LINE
  5
751F
330
7493
100
AcDbEntity
  8
0
100
AcDbLine
 10
0.0
 20
297.0
 30
0.0
 11
25.0
 21
297.0
 31
0.0
  0
LINE
  5
7520
330
7493
100
AcDbEntity
  8
0
100
AcDbLine
 10
0.0
 20
0.0
 30
0.0
 11
0.0
 21
10.0
 31
0.0
  0
ENDBLK
  5
7521
330
7493
100
AcDbEntity
  8
0
100
AcDbBlockEnd
  0
BLOCK
  5
A1FB
330
A1F1
100
AcDbEntity
  8
0
100
AcDbBlockBegin
  2
*D125
 70
     1
 10
0.0
 20
0.0
 30
0.0
  3
*D125
  1

  0
LINE
  5
A777
330
A1F1
100
AcDbEntity
  8
寸法引出
370
    -2
100
AcDbLine
 10
1395.982410818695
 20
1257.458149219323
 30
0.0
 11
1481.198140268029
 21
1257.458149219323
 31
0.0
  0
LINE
  5
A778
330
A1F1
100
AcDbEntity
  8
寸法引出
370
    -2
100
AcDbLine
 10
1395.982410818695
 20
257.4581492193231
 30
0.0
 11
1481.198140268028
 21
257.458149219323
 31
0.0
  0
LINE
  5
A779
330
A1F1
100
AcDbEntity
  8
寸法引出
370
    -2
100
AcDbLine
 10
1476.198140268029
 20
1242.458149219323
 30
0.0
 11
1476.198140268028
 21
272.458149219323
 31
0.0
  0
SOLID
  5
A77A
330
A1F1
100
AcDbEntity
  8
寸法引出
100
AcDbTrace
 10
1473.698140268029
 20
1242.458149219323
 30
0.0
 11
1478.698140268028
 21
1242.458149219323
 31
0.0
 12
1476.198140268029
 22
1257.458149219323
 32
0.0
 13
1476.198140268029
 23
1257.458149219323
 33
0.0
  0
SOLID
  5
A77B
330
A1F1
100
AcDbEntity
  8
寸法引出
100
AcDbTrace
 10
1473.698140268028
 20
272.458149219323
 30
0.0
 11
1478.698140268028
 21
272.458149219323
 31
0.0
 12
1476.198140268028
 22
257.458149219323
 32
0.0
 13
1476.198140268028
 23
257.458149219323
 33
0.0
  0
MTEXT
  5
A77C
330
A1F1
100
AcDbEntity
  8
寸法引出
100
AcDbMText
 10
1456.198140268028
 20
757.4581492193232
 30
0.0
 40
20.0
 41
0.0
 71
     5
 72
     1
  1
\A1;1000
  7
SANWA
 11
0.0000000000000001
 21
1.0
 31
0.0
 73
     1
 44
1.0
1001
ACAD
1000
MTEXTBEGIN
1070
    73
1070
     1
1070
    44
1040
1.0
1070
    74
1070
     0
1000
MTEXTEND
  0
POINT
  5
A77D
330
A1F1
100
AcDbEntity
  8
DEFPOINTS
 62
     0
100
AcDbPoint
 10
1385.982410818695
 20
1257.458149219323
 30
0.0
  0
POINT
  5
A77E
330
A1F1
100
AcDbEntity
  8
DEFPOINTS
 62
     0
100
AcDbPoint
 10
1385.982410818695
 20
257.4581492193231
 30
0.0
  0
POINT
  5
A77F
330
A1F1
100
AcDbEntity
  8
DEFPOINTS
 62
     0
100
AcDbPoint
 10
1476.198140268028
 20
257.458149219323
 30
0.0
  0
ENDBLK
  5
A1FC
330
A1F1
100
AcDbEntity
  8
0
100
AcDbBlockEnd
  0
BLOCK
  5
A207
330
A1FD
100
AcDbEntity
  8
0
100
AcDbBlockBegin
  2
*D126
 70
     1
 10
0.0
 20
0.0
 30
0.0
  3
*D126
  1

  0
LINE
  5
A780
330
A1FD
100
AcDbEntity
  8
寸法引出
370
    -2
100
AcDbLine
 10
635.9824108186954
 20
1137.458149219323
 30
0.0
 11
546.6202236534664
 21
1137.458149219323
 31
0.0
  0
LINE
  5
A781
330
A1FD
100
AcDbEntity
  8
寸法引出
370
    -2
100
AcDbLine
 10
635.9824108186954
 20
377.4581492193231
 30
0.0
 11
546.6202236534663
 21
377.4581492193231
 31
0.0
  0
LINE
  5
A782
330
A1FD
100
AcDbEntity
  8
寸法引出
370
    -2
100
AcDbLine
 10
551.6202236534665
 20
1122.458149219323
 30
0.0
 11
551.6202236534663
 21
392.4581492193232
 31
0.0
  0
SOLID
  5
A783
330
A1FD
100
AcDbEntity
  8
寸法引出
100
AcDbTrace
 10
549.1202236534665
 20
1122.458149219323
 30
0.0
 11
554.1202236534664
 21
1122.458149219323
 31
0.0
 12
551.6202236534665
 22
1137.458149219323
 32
0.0
 13
551.6202236534665
 23
1137.458149219323
 33
0.0
  0
SOLID
  5
A784
330
A1FD
100
AcDbEntity
  8
寸法引出
100
AcDbTrace
 10
549.1202236534664
 20
392.4581492193232
 30
0.0
 11
554.1202236534664
 21
392.4581492193232
 31
0.0
 12
551.6202236534663
 22
377.4581492193231
 32
0.0
 13
551.6202236534663
 23
377.4581492193231
 33
0.0
  0
MTEXT
  5
A785
330
A1FD
100
AcDbEntity
  8
寸法引出
100
AcDbMText
 10
531.6202236534662
 20
757.4581492193233
 30
0.0
 40
20.0
 41
0.0
 71
     5
 72
     1
  1
\A1;760
  7
SANWA
 11
0.0000000000000001
 21
1.0
 31
0.0
 73
     1
 44
1.0
1001
ACAD
1000
MTEXTBEGIN
1070
    73
1070
     1
1070
    44
1040
1.0
1070
    74
1070
     0
1000
MTEXTEND
  0
POINT
  5
A786
330
A1FD
100
AcDbEntity
  8
DEFPOINTS
 62
     0
100
AcDbPoint
 10
645.9824108186953
 20
1137.458149219323
 30
0.0
  0
POINT
  5
A787
330
A1FD
100
AcDbEntity
  8
DEFPOINTS
 62
     0
100
AcDbPoint
 10
645.9824108186953
 20
377.4581492193231
 30
0.0
  0
POINT
  5
A788
330
A1FD
100
AcDbEntity
  8
DEFPOINTS
 62
     0
100
AcDbPoint
 10
551.6202236534663
 20
377.4581492193231
 30
0.0
  0
ENDBLK
  5
A208
330
A1FD
100
AcDbEntity
  8
0
100
AcDbBlockEnd
  0
BLOCK
  5
A213
330
A209
100
AcDbEntity
  8
0
100
AcDbBlockBegin
  2
*D127
 70
     1
 10
0.0
 20
0.0
 30
0.0
  3
*D127
  1

  0
LINE
  5
A789
330
A209
100
AcDbEntity
  8
寸法引出
370
    -2
100
AcDbLine
 10
645.9824108186953
 20
247.4581492193231
 30
0.0
 11
645.9824108186953
 21
170.7766554232575
 31
0.0
  0
LINE
  5
A78A
330
A209
100
AcDbEntity
  8
寸法引出
370
    -2
100
AcDbLine
 10
1385.982410818695
 20
247.4581492193231
 30
0.0
 11
1385.982410818695
 21
170.7766554232575
 31
0.0
  0
LINE
  5
A78B
330
A209
100
AcDbEntity
  8
寸法引出
370
    -2
100
AcDbLine
 10
660.9824108186954
 20
175.7766554232575
 30
0.0
 11
1370.982410818695
 21
175.7766554232575
 31
0.0
  0
SOLID
  5
A78C
330
A209
100
AcDbEntity
  8
寸法引出
100
AcDbTrace
 10
660.9824108186954
 20
178.2766554232576
 30
0.0
 11
660.9824108186954
 21
173.2766554232576
 31
0.0
 12
645.9824108186953
 22
175.7766554232575
 32
0.0
 13
645.9824108186953
 23
175.7766554232575
 33
0.0
  0
SOLID
  5
A78D
330
A209
100
AcDbEntity
  8
寸法引出
100
AcDbTrace
 10
1370.982410818695
 20
178.2766554232576
 30
0.0
 11
1370.982410818695
 21
173.2766554232576
 31
0.0
 12
1385.982410818695
 22
175.7766554232575
 32
0.0
 13
1385.982410818695
 23
175.7766554232575
 33
0.0
  0
MTEXT
  5
A78E
330
A209
100
AcDbEntity
  8
寸法引出
100
AcDbMText
 10
1015.982410818695
 20
195.7766554232576
 30
0.0
 40
20.0
 41
0.0
 71
     5
 72
     1
  1
\A1;740
  7
SANWA
 73
     1
 44
1.0
1001
ACAD
1000
MTEXTBEGIN
1070
    73
1070
     1
1070
    44
1040
1.0
1070
    74
1070
     0
1000
MTEXTEND
  0
POINT
  5
A78F
330
A209
100
AcDbEntity
  8
DEFPOINTS
 62
     0
100
AcDbPoint
 10
645.9824108186953
 20
257.4581492193231
 30
0.0
  0
POINT
  5
A790
330
A209
100
AcDbEntity
  8
DEFPOINTS
 62
     0
100
AcDbPoint
 10
1385.982410818695
 20
257.4581492193231
 30
0.0
  0
POINT
  5
A791
330
A209
100
AcDbEntity
  8
DEFPOINTS
 62
     0
100
AcDbPoint
 10
1385.982410818695
 20
175.7766554232575
 30
0.0
  0
ENDBLK
  5
A214
330
A209
100
AcDbEntity
  8
0
100
AcDbBlockEnd
  0
BLOCK
  5
A21F
330
A215
100
AcDbEntity
  8
0
100
AcDbBlockBegin
  2
*D128
 70
     1
 10
0.0
 20
0.0
 30
0.0
  3
*D128
  1

  0
LINE
  5
A792
330
A215
100
AcDbEntity
  8
寸法引出
370
    -2
100
AcDbLine
 10
635.9824108186954
 20
377.4581492193231
 30
0.0
 11
546.6202236534663
 21
377.4581492193231
 31
0.0
  0
LINE
  5
A793
330
A215
100
AcDbEntity
  8
寸法引出
370
    -2
100
AcDbLine
 10
635.9824108186954
 20
257.4581492193232
 30
0.0
 11
546.6202236534663
 21
257.4581492193232
 31
0.0
  0
LINE
  5
A794
330
A215
100
AcDbEntity
  8
寸法引出
370
    -2
100
AcDbLine
 10
551.6202236534663
 20
362.4581492193232
 30
0.0
 11
551.6202236534663
 21
272.4581492193232
 31
0.0
  0
SOLID
  5
A795
330
A215
100
AcDbEntity
  8
寸法引出
100
AcDbTrace
 10
549.1202236534664
 20
362.4581492193232
 30
0.0
 11
554.1202236534664
 21
362.4581492193232
 31
0.0
 12
551.6202236534663
 22
377.4581492193231
 32
0.0
 13
551.6202236534663
 23
377.4581492193231
 33
0.0
  0
SOLID
  5
A796
330
A215
100
AcDbEntity
  8
寸法引出
100
AcDbTrace
 10
549.1202236534664
 20
272.4581492193232
 30
0.0
 11
554.1202236534664
 21
272.4581492193232
 31
0.0
 12
551.6202236534663
 22
257.4581492193232
 32
0.0
 13
551.6202236534663
 23
257.4581492193232
 33
0.0
  0
MTEXT
  5
A797
330
A215
100
AcDbEntity
  8
寸法引出
100
AcDbMText
 10
531.6202236534662
 20
317.4581492193232
 30
0.0
 40
20.0
 41
0.0
 71
     5
 72
     1
  1
\A1;120
  7
SANWA
 11
0.0000000000000001
 21
1.0
 31
0.0
 73
     1
 44
1.0
1001
ACAD
1000
MTEXTBEGIN
1070
    73
1070
     1
1070
    44
1040
1.0
1070
    74
1070
     0
1000
MTEXTEND
  0
POINT
  5
A798
330
A215
100
AcDbEntity
  8
DEFPOINTS
 62
     0
100
AcDbPoint
 10
645.9824108186953
 20
377.4581492193231
 30
0.0
  0
POINT
  5
A799
330
A215
100
AcDbEntity
  8
DEFPOINTS
 62
     0
100
AcDbPoint
 10
645.9824108186953
 20
257.4581492193231
 30
0.0
  0
POINT
  5
A79A
330
A215
100
AcDbEntity
  8
DEFPOINTS
 62
     0
100
AcDbPoint
 10
551.6202236534663
 20
257.4581492193232
 30
0.0
  0
ENDBLK
  5
A220
330
A215
100
AcDbEntity
  8
0
100
AcDbBlockEnd
  0
BLOCK
  5
A22A
330
A221
100
AcDbEntity
  8
0
100
AcDbBlockBegin
  2
*D129
 70
     1
 10
0.0
 20
0.0
 30
0.0
  3
*D129
  1

  0
LINE
  5
A79B
330
A221
100
AcDbEntity
  8
寸法引出
370
    -2
100
AcDbLine
 10
1385.982410818695
 20
1267.458149219323
 30
0.0
 11
1385.982410818695
 21
1382.482420256454
 31
0.0
  0
LINE
  5
A79C
330
A221
100
AcDbEntity
  8
寸法引出
370
    -2
100
AcDbLine
 10
1038.482410818695
 20
1377.482420256454
 30
0.0
 11
1370.982410818695
 21
1377.482420256454
 31
0.0
  0
SOLID
  5
A79D
330
A221
100
AcDbEntity
  8
寸法引出
100
AcDbTrace
 10
1038.482410818695
 20
1379.982420256454
 30
0.0
 11
1038.482410818695
 21
1374.982420256454
 31
0.0
 12
1023.482410818695
 22
1377.482420256454
 32
0.0
 13
1023.482410818695
 23
1377.482420256454
 33
0.0
  0
SOLID
  5
A79E
330
A221
100
AcDbEntity
  8
寸法引出
100
AcDbTrace
 10
1370.982410818695
 20
1379.982420256454
 30
0.0
 11
1370.982410818695
 21
1374.982420256454
 31
0.0
 12
1385.982410818695
 22
1377.482420256454
 32
0.0
 13
1385.982410818695
 23
1377.482420256454
 33
0.0
  0
MTEXT
  5
A79F
330
A221
100
AcDbEntity
  8
寸法引出
100
AcDbMText
 10
1204.732410818695
 20
1397.482420256454
 30
0.0
 40
20.0
 41
0.0
 71
     5
 72
     1
  1
\A1;362.5
  7
SANWA
 73
     1
 44
1.0
1001
ACAD
1000
MTEXTBEGIN
1070
    73
1070
     1
1070
    44
1040
1.0
1070
    74
1070
     0
1000
MTEXTEND
  0
POINT
  5
A7A0
330
A221
100
AcDbEntity
  8
DEFPOINTS
 62
     0
100
AcDbPoint
 10
1023.482410818695
 20
1257.458149219323
 30
0.0
  0
POINT
  5
A7A1
330
A221
100
AcDbEntity
  8
DEFPOINTS
 62
     0
100
AcDbPoint
 10
1385.982410818695
 20
1257.458149219323
 30
0.0
  0
POINT
  5
A7A2
330
A221
100
AcDbEntity
  8
DEFPOINTS
 62
     0
100
AcDbPoint
 10
1385.982410818695
 20
1377.482420256454
 30
0.0
  0
ENDBLK
  5
A22B
330
A221
100
AcDbEntity
  8
0
100
AcDbBlockEnd
  0
BLOCK
  5
A235
330
A22C
100
AcDbEntity
  8
0
100
AcDbBlockBegin
  2
*D130
 70
     1
 10
0.0
 20
0.0
 30
0.0
  3
*D130
  1

  0
LINE
  5
A7A3
330
A22C
100
AcDbEntity
  8
寸法引出
370
    -2
100
AcDbLine
 10
1350.982410818695
 20
1267.458149219323
 30
0.0
 11
1350.982410818695
 21
1342.331674895793
 31
0.0
  0
LINE
  5
A7A4
330
A22C
100
AcDbEntity
  8
寸法引出
370
    -2
100
AcDbLine
 10
1030.982410818695
 20
1337.331674895793
 30
0.0
 11
1335.982410818695
 21
1337.331674895793
 31
0.0
  0
SOLID
  5
A7A5
330
A22C
100
AcDbEntity
  8
寸法引出
100
AcDbTrace
 10
1030.982410818695
 20
1339.831674895793
 30
0.0
 11
1030.982410818695
 21
1334.831674895793
 31
0.0
 12
1015.982410818695
 22
1337.331674895793
 32
0.0
 13
1015.982410818695
 23
1337.331674895793
 33
0.0
  0
SOLID
  5
A7A6
330
A22C
100
AcDbEntity
  8
寸法引出
100
AcDbTrace
 10
1335.982410818695
 20
1339.831674895793
 30
0.0
 11
1335.982410818695
 21
1334.831674895793
 31
0.0
 12
1350.982410818695
 22
1337.331674895793
 32
0.0
 13
1350.982410818695
 23
1337.331674895793
 33
0.0
  0
MTEXT
  5
A7A7
330
A22C
100
AcDbEntity
  8
寸法引出
100
AcDbMText
 10
1183.482410818695
 20
1357.331674895793
 30
0.0
 40
20.0
 41
0.0
 71
     5
 72
     1
  1
\A1;335
  7
SANWA
 73
     1
 44
1.0
1001
ACAD
1000
MTEXTBEGIN
1070
    73
1070
     1
1070
    44
1040
1.0
1070
    74
1070
     0
1000
MTEXTEND
  0
POINT
  5
A7A8
330
A22C
100
AcDbEntity
  8
DEFPOINTS
 62
     0
100
AcDbPoint
 10
1015.982410818695
 20
1307.458149219323
 30
0.0
  0
POINT
  5
A7A9
330
A22C
100
AcDbEntity
  8
DEFPOINTS
 62
     0
100
AcDbPoint
 10
1350.982410818695
 20
1257.458149219323
 30
0.0
  0
POINT
  5
A7AA
330
A22C
100
AcDbEntity
  8
DEFPOINTS
 62
     0
100
AcDbPoint
 10
1350.982410818695
 20
1337.331674895793
 30
0.0
  0
ENDBLK
  5
A236
330
A22C
100
AcDbEntity
  8
0
100
AcDbBlockEnd
  0
BLOCK
  5
A241
330
A237
100
AcDbEntity
  8
0
100
AcDbBlockBegin
  2
*D131
 70
     1
 10
0.0
 20
0.0
 30
0.0
  3
*D131
  1

  0
LINE
  5
A7AB
330
A237
100
AcDbEntity
  8
寸法引出
370
    -2
100
AcDbLine
 10
645.9824108186953
 20
1667.096612352652
 30
0.0
 11
645.9824108186953
 21
1744.167952386481
 31
0.0
  0
LINE
  5
A7AC
330
A237
100
AcDbEntity
  8
寸法引出
370
    -2
100
AcDbLine
 10
1385.982410818695
 20
1667.096612352652
 30
0.0
 11
1385.982410818695
 21
1744.167952386481
 31
0.0
  0
LINE
  5
A7AD
330
A237
100
AcDbEntity
  8
寸法引出
370
    -2
100
AcDbLine
 10
660.9824108186954
 20
1739.167952386481
 30
0.0
 11
1370.982410818695
 21
1739.167952386481
 31
0.0
  0
SOLID
  5
A7AE
330
A237
100
AcDbEntity
  8
寸法引出
100
AcDbTrace
 10
660.9824108186954
 20
1741.667952386481
 30
0.0
 11
660.9824108186954
 21
1736.667952386481
 31
0.0
 12
645.9824108186953
 22
1739.167952386481
 32
0.0
 13
645.9824108186953
 23
1739.167952386481
 33
0.0
  0
SOLID
  5
A7AF
330
A237
100
AcDbEntity
  8
寸法引出
100
AcDbTrace
 10
1370.982410818695
 20
1741.667952386481
 30
0.0
 11
1370.982410818695
 21
1736.667952386481
 31
0.0
 12
1385.982410818695
 22
1739.167952386481
 32
0.0
 13
1385.982410818695
 23
1739.167952386481
 33
0.0
  0
MTEXT
  5
A7B0
330
A237
100
AcDbEntity
  8
寸法引出
100
AcDbMText
 10
1015.982410818695
 20
1759.167952386481
 30
0.0
 40
20.0
 41
0.0
 71
     5
 72
     1
  1
\A1;740
  7
SANWA
 73
     1
 44
1.0
1001
ACAD
1000
MTEXTBEGIN
1070
    73
1070
     1
1070
    44
1040
1.0
1070
    74
1070
     0
1000
MTEXTEND
  0
POINT
  5
A7B1
330
A237
100
AcDbEntity
  8
DEFPOINTS
 62
     0
100
AcDbPoint
 10
645.9824108186953
 20
1657.096612352652
 30
0.0
  0
POINT
  5
A7B2
330
A237
100
AcDbEntity
  8
DEFPOINTS
 62
     0
100
AcDbPoint
 10
1385.982410818695
 20
1657.096612352652
 30
0.0
  0
POINT
  5
A7B3
330
A237
100
AcDbEntity
  8
DEFPOINTS
 62
     0
100
AcDbPoint
 10
1385.982410818695
 20
1739.167952386481
 30
0.0
  0
ENDBLK
  5
A242
330
A237
100
AcDbEntity
  8
0
100
AcDbBlockEnd
  0
BLOCK
  5
A24D
330
A243
100
AcDbEntity
  8
0
100
AcDbBlockBegin
  2
*D132
 70
     1
 10
0.0
 20
0.0
 30
0.0
  3
*D132
  1

  0
LINE
  5
A7B4
330
A243
100
AcDbEntity
  8
寸法引出
370
    -2
100
AcDbLine
 10
1023.482410818695
 20
1667.096612352652
 30
0.0
 11
1023.482410818695
 21
1707.939638037911
 31
0.0
  0
LINE
  5
A7B5
330
A243
100
AcDbEntity
  8
寸法引出
370
    -2
100
AcDbLine
 10
1385.982410818695
 20
1667.096612352652
 30
0.0
 11
1385.982410818695
 21
1707.939638037911
 31
0.0
  0
LINE
  5
A7B6
330
A243
100
AcDbEntity
  8
寸法引出
370
    -2
100
AcDbLine
 10
1038.482410818695
 20
1702.939638037911
 30
0.0
 11
1370.982410818695
 21
1702.939638037911
 31
0.0
  0
SOLID
  5
A7B7
330
A243
100
AcDbEntity
  8
寸法引出
100
AcDbTrace
 10
1038.482410818695
 20
1705.439638037911
 30
0.0
 11
1038.482410818695
 21
1700.439638037911
 31
0.0
 12
1023.482410818695
 22
1702.939638037911
 32
0.0
 13
1023.482410818695
 23
1702.939638037911
 33
0.0
  0
SOLID
  5
A7B8
330
A243
100
AcDbEntity
  8
寸法引出
100
AcDbTrace
 10
1370.982410818695
 20
1705.439638037911
 30
0.0
 11
1370.982410818695
 21
1700.439638037911
 31
0.0
 12
1385.982410818695
 22
1702.939638037911
 32
0.0
 13
1385.982410818695
 23
1702.939638037911
 33
0.0
  0
MTEXT
  5
A7B9
330
A243
100
AcDbEntity
  8
寸法引出
100
AcDbMText
 10
1204.732410818695
 20
1722.939638037911
 30
0.0
 40
20.0
 41
0.0
 71
     5
 72
     1
  1
\A1;362.5
  7
SANWA
 73
     1
 44
1.0
1001
ACAD
1000
MTEXTBEGIN
1070
    73
1070
     1
1070
    44
1040
1.0
1070
    74
1070
     0
1000
MTEXTEND
  0
POINT
  5
A7BA
330
A243
100
AcDbEntity
  8
DEFPOINTS
 62
     0
100
AcDbPoint
 10
1023.482410818695
 20
1657.096612352652
 30
0.0
  0
POINT
  5
A7BB
330
A243
100
AcDbEntity
  8
DEFPOINTS
 62
     0
100
AcDbPoint
 10
1385.982410818695
 20
1657.096612352652
 30
0.0
  0
POINT
  5
A7BC
330
A243
100
AcDbEntity
  8
DEFPOINTS
 62
     0
100
AcDbPoint
 10
1385.982410818695
 20
1702.939638037911
 30
0.0
  0
ENDBLK
  5
A24E
330
A243
100
AcDbEntity
  8
0
100
AcDbBlockEnd
  0
BLOCK
  5
A259
330
A24F
100
AcDbEntity
  8
0
100
AcDbBlockBegin
  2
*D133
 70
     1
 10
0.0
 20
0.0
 30
0.0
  3
*D133
  1

  0
LINE
  5
A7BD
330
A24F
100
AcDbEntity
  8
寸法引出
370
    -2
100
AcDbLine
 10
1030.982410818695
 20
1527.096612352652
 30
0.0
 11
1030.982410818695
 21
1450.847313842423
 31
0.0
  0
LINE
  5
A7BE
330
A24F
100
AcDbEntity
  8
寸法引出
370
    -2
100
AcDbLine
 10
1385.982410818695
 20
1527.096612352652
 30
0.0
 11
1385.982410818695
 21
1450.847313842423
 31
0.0
  0
LINE
  5
A7BF
330
A24F
100
AcDbEntity
  8
寸法引出
370
    -2
100
AcDbLine
 10
1045.982410818695
 20
1455.847313842423
 30
0.0
 11
1370.982410818695
 21
1455.847313842423
 31
0.0
  0
SOLID
  5
A7C0
330
A24F
100
AcDbEntity
  8
寸法引出
100
AcDbTrace
 10
1045.982410818695
 20
1458.347313842423
 30
0.0
 11
1045.982410818695
 21
1453.347313842423
 31
0.0
 12
1030.982410818695
 22
1455.847313842423
 32
0.0
 13
1030.982410818695
 23
1455.847313842423
 33
0.0
  0
SOLID
  5
A7C1
330
A24F
100
AcDbEntity
  8
寸法引出
100
AcDbTrace
 10
1370.982410818695
 20
1458.347313842423
 30
0.0
 11
1370.982410818695
 21
1453.347313842423
 31
0.0
 12
1385.982410818695
 22
1455.847313842423
 32
0.0
 13
1385.982410818695
 23
1455.847313842423
 33
0.0
  0
MTEXT
  5
A7C2
330
A24F
100
AcDbEntity
  8
寸法引出
100
AcDbMText
 10
1208.482410818695
 20
1475.847313842423
 30
0.0
 40
20.0
 41
0.0
 71
     5
 72
     1
  1
\A1;355
  7
SANWA
 73
     1
 44
1.0
1001
ACAD
1000
MTEXTBEGIN
1070
    73
1070
     1
1070
    44
1040
1.0
1070
    74
1070
     0
1000
MTEXTEND
  0
POINT
  5
A7C3
330
A24F
100
AcDbEntity
  8
DEFPOINTS
 62
     0
100
AcDbPoint
 10
1030.982410818695
 20
1537.096612352652
 30
0.0
  0
POINT
  5
A7C4
330
A24F
100
AcDbEntity
  8
DEFPOINTS
 62
     0
100
AcDbPoint
 10
1385.982410818695
 20
1537.096612352652
 30
0.0
  0
POINT
  5
A7C5
330
A24F
100
AcDbEntity
  8
DEFPOINTS
 62
     0
100
AcDbPoint
 10
1385.982410818695
 20
1455.847313842423
 30
0.0
  0
ENDBLK
  5
A25A
330
A24F
100
AcDbEntity
  8
0
100
AcDbBlockEnd
  0
BLOCK
  5
A265
330
A25B
100
AcDbEntity
  8
0
100
AcDbBlockBegin
  2
*D134
 70
     1
 10
0.0
 20
0.0
 30
0.0
  3
*D134
  1

  0
LINE
  5
A7C6
330
A25B
100
AcDbEntity
  8
寸法引出
370
    -2
100
AcDbLine
 10
1008.482410818695
 20
1667.096612352652
 30
0.0
 11
1008.482410818695
 21
1707.939638037911
 31
0.0
  0
LINE
  5
A7C7
330
A25B
100
AcDbEntity
  8
寸法引出
370
    -2
100
AcDbLine
 10
645.9824108186953
 20
1667.096612352652
 30
0.0
 11
645.9824108186953
 21
1707.939638037911
 31
0.0
  0
LINE
  5
A7C8
330
A25B
100
AcDbEntity
  8
寸法引出
370
    -2
100
AcDbLine
 10
993.4824108186953
 20
1702.939638037911
 30
0.0
 11
660.9824108186954
 21
1702.939638037911
 31
0.0
  0
SOLID
  5
A7C9
330
A25B
100
AcDbEntity
  8
寸法引出
100
AcDbTrace
 10
993.4824108186953
 20
1705.439638037911
 30
0.0
 11
993.4824108186953
 21
1700.439638037911
 31
0.0
 12
1008.482410818695
 22
1702.939638037911
 32
0.0
 13
1008.482410818695
 23
1702.939638037911
 33
0.0
  0
SOLID
  5
A7CA
330
A25B
100
AcDbEntity
  8
寸法引出
100
AcDbTrace
 10
660.9824108186954
 20
1705.439638037911
 30
0.0
 11
660.9824108186954
 21
1700.439638037911
 31
0.0
 12
645.9824108186953
 22
1702.939638037911
 32
0.0
 13
645.9824108186953
 23
1702.939638037911
 33
0.0
  0
MTEXT
  5
A7CB
330
A25B
100
AcDbEntity
  8
寸法引出
100
AcDbMText
 10
827.2324108186953
 20
1722.939638037911
 30
0.0
 40
20.0
 41
0.0
 71
     5
 72
     1
  1
\A1;362.5
  7
SANWA
 73
     1
 44
1.0
1001
ACAD
1000
MTEXTBEGIN
1070
    73
1070
     1
1070
    44
1040
1.0
1070
    74
1070
     0
1000
MTEXTEND
  0
POINT
  5
A7CC
330
A25B
100
AcDbEntity
  8
DEFPOINTS
 62
     0
100
AcDbPoint
 10
1008.482410818695
 20
1657.096612352652
 30
0.0
  0
POINT
  5
A7CD
330
A25B
100
AcDbEntity
  8
DEFPOINTS
 62
     0
100
AcDbPoint
 10
645.9824108186953
 20
1657.096612352652
 30
0.0
  0
POINT
  5
A7CE
330
A25B
100
AcDbEntity
  8
DEFPOINTS
 62
     0
100
AcDbPoint
 10
645.9824108186953
 20
1702.939638037911
 30
0.0
  0
ENDBLK
  5
A266
330
A25B
100
AcDbEntity
  8
0
100
AcDbBlockEnd
  0
BLOCK
  5
A273
330
A267
100
AcDbEntity
  8
0
100
AcDbBlockBegin
  2
*D135
 70
     1
 10
0.0
 20
0.0
 30
0.0
  3
*D135
  1

  0
LINE
  5
A7CF
330
A267
100
AcDbEntity
  8
寸法引出
370
    -2
100
AcDbLine
 10
1008.482410818695
 20
1667.096612352652
 30
0.0
 11
1008.482410818695
 21
1707.939638037911
 31
0.0
  0
LINE
  5
A7D0
330
A267
100
AcDbEntity
  8
寸法引出
370
    -2
100
AcDbLine
 10
1023.482410818695
 20
1667.096612352652
 30
0.0
 11
1023.482410818695
 21
1707.939638037911
 31
0.0
  0
LINE
  5
A7D1
330
A267
100
AcDbEntity
  8
寸法引出
370
    -2
100
AcDbLine
 10
993.4824108186953
 20
1702.939638037911
 30
0.0
 11
978.4824108186953
 21
1702.939638037911
 31
0.0
  0
LINE
  5
A7D2
330
A267
100
AcDbEntity
  8
寸法引出
370
    -2
100
AcDbLine
 10
1038.482410818695
 20
1702.939638037911
 30
0.0
 11
1053.482410818695
 21
1702.939638037911
 31
0.0
  0
LINE
  5
A7D3
330
A267
100
AcDbEntity
  8
寸法引出
370
    -2
100
AcDbLine
 10
1008.482410818695
 20
1702.939638037911
 30
0.0
 11
1023.482410818695
 21
1702.939638037911
 31
0.0
  0
SOLID
  5
A7D4
330
A267
100
AcDbEntity
  8
寸法引出
100
AcDbTrace
 10
993.4824108186953
 20
1705.439638037911
 30
0.0
 11
993.4824108186953
 21
1700.439638037911
 31
0.0
 12
1008.482410818695
 22
1702.939638037911
 32
0.0
 13
1008.482410818695
 23
1702.939638037911
 33
0.0
  0
SOLID
  5
A7D5
330
A267
100
AcDbEntity
  8
寸法引出
100
AcDbTrace
 10
1038.482410818695
 20
1705.439638037911
 30
0.0
 11
1038.482410818695
 21
1700.439638037911
 31
0.0
 12
1023.482410818695
 22
1702.939638037911
 32
0.0
 13
1023.482410818695
 23
1702.939638037911
 33
0.0
  0
MTEXT
  5
A7D6
330
A267
100
AcDbEntity
  8
寸法引出
100
AcDbMText
 10
1015.982410818695
 20
1722.939638037911
 30
0.0
 40
20.0
 41
0.0
 71
     5
 72
     1
  1
\A1;15
  7
SANWA
 73
     1
 44
1.0
1001
ACAD
1000
MTEXTBEGIN
1070
    73
1070
     1
1070
    44
1040
1.0
1070
    74
1070
     0
1000
MTEXTEND
  0
POINT
  5
A7D7
330
A267
100
AcDbEntity
  8
DEFPOINTS
 62
     0
100
AcDbPoint
 10
1008.482410818695
 20
1657.096612352652
 30
0.0
  0
POINT
  5
A7D8
330
A267
100
AcDbEntity
  8
DEFPOINTS
 62
     0
100
AcDbPoint
 10
1023.482410818695
 20
1657.096612352652
 30
0.0
  0
POINT
  5
A7D9
330
A267
100
AcDbEntity
  8
DEFPOINTS
 62
     0
100
AcDbPoint
 10
1023.482410818695
 20
1702.939638037911
 30
0.0
  0
ENDBLK
  5
A274
330
A267
100
AcDbEntity
  8
0
100
AcDbBlockEnd
  0
BLOCK
  5
A280
330
A275
100
AcDbEntity
  8
0
100
AcDbBlockBegin
  2
*D136
 70
     1
 10
0.0
 20
0.0
 30
0.0
  3
*D136
  1

  0
LINE
  5
A7DA
330
A275
100
AcDbEntity
  8
寸法引出
370
    -2
100
AcDbLine
 10
1023.482410818695
 20
1267.458149219323
 30
0.0
 11
1023.482410818695
 21
1382.482420256454
 31
0.0
  0
LINE
  5
A7DB
330
A275
100
AcDbEntity
  8
寸法引出
370
    -2
100
AcDbLine
 10
993.4824108186953
 20
1377.482420256454
 30
0.0
 11
978.4824108186953
 21
1377.482420256454
 31
0.0
  0
LINE
  5
A7DC
330
A275
100
AcDbEntity
  8
寸法引出
370
    -2
100
AcDbLine
 10
1038.482410818695
 20
1377.482420256454
 30
0.0
 11
1053.482410818695
 21
1377.482420256454
 31
0.0
  0
LINE
  5
A7DD
330
A275
100
AcDbEntity
  8
寸法引出
370
    -2
100
AcDbLine
 10
1008.482410818695
 20
1377.482420256454
 30
0.0
 11
1023.482410818695
 21
1377.482420256454
 31
0.0
  0
SOLID
  5
A7DE
330
A275
100
AcDbEntity
  8
寸法引出
100
AcDbTrace
 10
993.4824108186953
 20
1379.982420256454
 30
0.0
 11
993.4824108186953
 21
1374.982420256454
 31
0.0
 12
1008.482410818695
 22
1377.482420256454
 32
0.0
 13
1008.482410818695
 23
1377.482420256454
 33
0.0
  0
SOLID
  5
A7DF
330
A275
100
AcDbEntity
  8
寸法引出
100
AcDbTrace
 10
1038.482410818695
 20
1379.982420256454
 30
0.0
 11
1038.482410818695
 21
1374.982420256454
 31
0.0
 12
1023.482410818695
 22
1377.482420256454
 32
0.0
 13
1023.482410818695
 23
1377.482420256454
 33
0.0
  0
MTEXT
  5
A7E0
330
A275
100
AcDbEntity
  8
寸法引出
100
AcDbMText
 10
1015.982410818695
 20
1397.482420256454
 30
0.0
 40
20.0
 41
0.0
 71
     5
 72
     1
  1
\A1;15
  7
SANWA
 73
     1
 44
1.0
1001
ACAD
1000
MTEXTBEGIN
1070
    73
1070
     1
1070
    44
1040
1.0
1070
    74
1070
     0
1000
MTEXTEND
  0
POINT
  5
A7E1
330
A275
100
AcDbEntity
  8
DEFPOINTS
 62
     0
100
AcDbPoint
 10
1008.482410818695
 20
1257.458149219323
 30
0.0
  0
POINT
  5
A7E2
330
A275
100
AcDbEntity
  8
DEFPOINTS
 62
     0
100
AcDbPoint
 10
1023.482410818695
 20
1257.458149219323
 30
0.0
  0
POINT
  5
A7E3
330
A275
100
AcDbEntity
  8
DEFPOINTS
 62
     0
100
AcDbPoint
 10
1023.482410818695
 20
1377.482420256454
 30
0.0
  0
ENDBLK
  5
A281
330
A275
100
AcDbEntity
  8
0
100
AcDbBlockEnd
  0
BLOCK
  5
A28C
330
A282
100
AcDbEntity
  8
0
100
AcDbBlockBegin
  2
*D137
 70
     1
 10
0.0
 20
0.0
 30
0.0
  3
*D137
  1

  0
LINE
  5
A7E4
330
A282
100
AcDbEntity
  8
寸法引出
370
    -2
100
AcDbLine
 10
645.9824108186953
 20
1267.458149219323
 30
0.0
 11
645.9824108186953
 21
1382.482420256454
 31
0.0
  0
LINE
  5
A7E5
330
A282
100
AcDbEntity
  8
寸法引出
370
    -2
100
AcDbLine
 10
1008.482410818695
 20
1267.458149219323
 30
0.0
 11
1008.482410818695
 21
1382.482420256454
 31
0.0
  0
LINE
  5
A7E6
330
A282
100
AcDbEntity
  8
寸法引出
370
    -2
100
AcDbLine
 10
660.9824108186954
 20
1377.482420256454
 30
0.0
 11
993.4824108186953
 21
1377.482420256454
 31
0.0
  0
SOLID
  5
A7E7
330
A282
100
AcDbEntity
  8
寸法引出
100
AcDbTrace
 10
660.9824108186954
 20
1379.982420256454
 30
0.0
 11
660.9824108186954
 21
1374.982420256454
 31
0.0
 12
645.9824108186953
 22
1377.482420256454
 32
0.0
 13
645.9824108186953
 23
1377.482420256454
 33
0.0
  0
SOLID
  5
A7E8
330
A282
100
AcDbEntity
  8
寸法引出
100
AcDbTrace
 10
993.4824108186953
 20
1379.982420256454
 30
0.0
 11
993.4824108186953
 21
1374.982420256454
 31
0.0
 12
1008.482410818695
 22
1377.482420256454
 32
0.0
 13
1008.482410818695
 23
1377.482420256454
 33
0.0
  0
MTEXT
  5
A7E9
330
A282
100
AcDbEntity
  8
寸法引出
100
AcDbMText
 10
827.2324108186953
 20
1397.482420256454
 30
0.0
 40
20.0
 41
0.0
 71
     5
 72
     1
  1
\A1;362.5
  7
SANWA
 73
     1
 44
1.0
1001
ACAD
1000
MTEXTBEGIN
1070
    73
1070
     1
1070
    44
1040
1.0
1070
    74
1070
     0
1000
MTEXTEND
  0
POINT
  5
A7EA
330
A282
100
AcDbEntity
  8
DEFPOINTS
 62
     0
100
AcDbPoint
 10
645.9824108186953
 20
1257.458149219323
 30
0.0
  0
POINT
  5
A7EB
330
A282
100
AcDbEntity
  8
DEFPOINTS
 62
     0
100
AcDbPoint
 10
1008.482410818695
 20
1257.458149219323
 30
0.0
  0
POINT
  5
A7EC
330
A282
100
AcDbEntity
  8
DEFPOINTS
 62
     0
100
AcDbPoint
 10
1008.482410818695
 20
1377.482420256454
 30
0.0
  0
ENDBLK
  5
A28D
330
A282
100
AcDbEntity
  8
0
100
AcDbBlockEnd
  0
BLOCK
  5
A29A
330
A28E
100
AcDbEntity
  8
0
100
AcDbBlockBegin
  2
*D138
 70
     1
 10
0.0
 20
0.0
 30
0.0
  3
*D138
  1

  0
LINE
  5
A7ED
330
A28E
100
AcDbEntity
  8
寸法引出
370
    -2
100
AcDbLine
 10
645.9824108186953
 20
1267.458149219323
 30
0.0
 11
645.9824108186953
 21
1342.331674895793
 31
0.0
  0
LINE
  5
A7EE
330
A28E
100
AcDbEntity
  8
寸法引出
370
    -2
100
AcDbLine
 10
680.9824108186953
 20
1267.458149219323
 30
0.0
 11
680.9824108186953
 21
1342.331674895793
 31
0.0
  0
LINE
  5
A7EF
330
A28E
100
AcDbEntity
  8
寸法引出
370
    -2
100
AcDbLine
 10
630.9824108186953
 20
1337.331674895793
 30
0.0
 11
615.9824108186954
 21
1337.331674895793
 31
0.0
  0
LINE
  5
A7F0
330
A28E
100
AcDbEntity
  8
寸法引出
370
    -2
100
AcDbLine
 10
695.9824108186953
 20
1337.331674895793
 30
0.0
 11
710.9824108186954
 21
1337.331674895793
 31
0.0
  0
LINE
  5
A7F1
330
A28E
100
AcDbEntity
  8
寸法引出
370
    -2
100
AcDbLine
 10
645.9824108186953
 20
1337.331674895793
 30
0.0
 11
680.9824108186953
 21
1337.331674895793
 31
0.0
  0
SOLID
  5
A7F2
330
A28E
100
AcDbEntity
  8
寸法引出
100
AcDbTrace
 10
630.9824108186953
 20
1339.831674895793
 30
0.0
 11
630.9824108186953
 21
1334.831674895793
 31
0.0
 12
645.9824108186953
 22
1337.331674895793
 32
0.0
 13
645.9824108186953
 23
1337.331674895793
 33
0.0
  0
SOLID
  5
A7F3
330
A28E
100
AcDbEntity
  8
寸法引出
100
AcDbTrace
 10
695.9824108186953
 20
1339.831674895793
 30
0.0
 11
695.9824108186953
 21
1334.831674895793
 31
0.0
 12
680.9824108186953
 22
1337.331674895793
 32
0.0
 13
680.9824108186953
 23
1337.331674895793
 33
0.0
  0
MTEXT
  5
A7F4
330
A28E
100
AcDbEntity
  8
寸法引出
100
AcDbMText
 10
663.4824108186953
 20
1357.331674895793
 30
0.0
 40
20.0
 41
0.0
 71
     5
 72
     1
  1
\A1;35
  7
SANWA
 73
     1
 44
1.0
1001
ACAD
1000
MTEXTBEGIN
1070
    73
1070
     1
1070
    44
1040
1.0
1070
    74
1070
     0
1000
MTEXTEND
  0
POINT
  5
A7F5
330
A28E
100
AcDbEntity
  8
DEFPOINTS
 62
     0
100
AcDbPoint
 10
645.9824108186953
 20
1257.458149219323
 30
0.0
  0
POINT
  5
A7F6
330
A28E
100
AcDbEntity
  8
DEFPOINTS
 62
     0
100
AcDbPoint
 10
680.9824108186953
 20
1257.458149219323
 30
0.0
  0
POINT
  5
A7F7
330
A28E
100
AcDbEntity
  8
DEFPOINTS
 62
     0
100
AcDbPoint
 10
680.9824108186953
 20
1337.331674895793
 30
0.0
  0
ENDBLK
  5
A29B
330
A28E
100
AcDbEntity
  8
0
100
AcDbBlockEnd
  0
BLOCK
  5
A2A6
330
A29C
100
AcDbEntity
  8
0
100
AcDbBlockBegin
  2
*D139
 70
     1
 10
0.0
 20
0.0
 30
0.0
  3
*D139
  1

  0
LINE
  5
A7F8
330
A29C
100
AcDbEntity
  8
寸法引出
370
    -2
100
AcDbLine
 10
635.9824108186954
 20
1137.458149219323
 30
0.0
 11
546.6202236534663
 21
1137.458149219323
 31
0.0
  0
LINE
  5
A7F9
330
A29C
100
AcDbEntity
  8
寸法引出
370
    -2
100
AcDbLine
 10
635.9824108186954
 20
1257.458149219323
 30
0.0
 11
546.6202236534663
 21
1257.458149219323
 31
0.0
  0
LINE
  5
A7FA
330
A29C
100
AcDbEntity
  8
寸法引出
370
    -2
100
AcDbLine
 10
551.6202236534663
 20
1152.458149219323
 30
0.0
 11
551.6202236534663
 21
1242.458149219323
 31
0.0
  0
SOLID
  5
A7FB
330
A29C
100
AcDbEntity
  8
寸法引出
100
AcDbTrace
 10
549.1202236534664
 20
1152.458149219323
 30
0.0
 11
554.1202236534664
 21
1152.458149219323
 31
0.0
 12
551.6202236534663
 22
1137.458149219323
 32
0.0
 13
551.6202236534663
 23
1137.458149219323
 33
0.0
  0
SOLID
  5
A7FC
330
A29C
100
AcDbEntity
  8
寸法引出
100
AcDbTrace
 10
549.1202236534664
 20
1242.458149219323
 30
0.0
 11
554.1202236534664
 21
1242.458149219323
 31
0.0
 12
551.6202236534663
 22
1257.458149219323
 32
0.0
 13
551.6202236534663
 23
1257.458149219323
 33
0.0
  0
MTEXT
  5
A7FD
330
A29C
100
AcDbEntity
  8
寸法引出
100
AcDbMText
 10
531.6202236534662
 20
1197.458149219323
 30
0.0
 40
20.0
 41
0.0
 71
     5
 72
     1
  1
\A1;120
  7
SANWA
 11
0.0000000000000001
 21
1.0
 31
0.0
 73
     1
 44
1.0
1001
ACAD
1000
MTEXTBEGIN
1070
    73
1070
     1
1070
    44
1040
1.0
1070
    74
1070
     0
1000
MTEXTEND
  0
POINT
  5
A7FE
330
A29C
100
AcDbEntity
  8
DEFPOINTS
 62
     0
100
AcDbPoint
 10
645.9824108186953
 20
1137.458149219323
 30
0.0
  0
POINT
  5
A7FF
330
A29C
100
AcDbEntity
  8
DEFPOINTS
 62
     0
100
AcDbPoint
 10
645.9824108186953
 20
1257.458149219323
 30
0.0
  0
POINT
  5
A800
330
A29C
100
AcDbEntity
  8
DEFPOINTS
 62
     0
100
AcDbPoint
 10
551.6202236534663
 20
1257.458149219323
 30
0.0
  0
ENDBLK
  5
A2A7
330
A29C
100
AcDbEntity
  8
0
100
AcDbBlockEnd
  0
BLOCK
  5
A2B2
330
A2A8
100
AcDbEntity
  8
0
100
AcDbBlockBegin
  2
*D140
 70
     1
 10
0.0
 20
0.0
 30
0.0
  3
*D140
  1

  0
LINE
  5
A801
330
A2A8
100
AcDbEntity
  8
寸法引出
370
    -2
100
AcDbLine
 10
680.9824108186953
 20
1267.458149219323
 30
0.0
 11
680.9824108186953
 21
1342.331674895793
 31
0.0
  0
LINE
  5
A802
330
A2A8
100
AcDbEntity
  8
寸法引出
370
    -2
100
AcDbLine
 10
1015.982410818695
 20
1317.458149219323
 30
0.0
 11
1015.982410818695
 21
1342.331674895793
 31
0.0
  0
LINE
  5
A803
330
A2A8
100
AcDbEntity
  8
寸法引出
370
    -2
100
AcDbLine
 10
695.9824108186953
 20
1337.331674895793
 30
0.0
 11
1000.982410818695
 21
1337.331674895793
 31
0.0
  0
SOLID
  5
A804
330
A2A8
100
AcDbEntity
  8
寸法引出
100
AcDbTrace
 10
695.9824108186953
 20
1339.831674895793
 30
0.0
 11
695.9824108186953
 21
1334.831674895793
 31
0.0
 12
680.9824108186953
 22
1337.331674895793
 32
0.0
 13
680.9824108186953
 23
1337.331674895793
 33
0.0
  0
SOLID
  5
A805
330
A2A8
100
AcDbEntity
  8
寸法引出
100
AcDbTrace
 10
1000.982410818695
 20
1339.831674895793
 30
0.0
 11
1000.982410818695
 21
1334.831674895793
 31
0.0
 12
1015.982410818695
 22
1337.331674895793
 32
0.0
 13
1015.982410818695
 23
1337.331674895793
 33
0.0
  0
MTEXT
  5
A806
330
A2A8
100
AcDbEntity
  8
寸法引出
100
AcDbMText
 10
848.4824108186954
 20
1357.331674895793
 30
0.0
 40
20.0
 41
0.0
 71
     5
 72
     1
  1
\A1;335
  7
SANWA
 73
     1
 44
1.0
1001
ACAD
1000
MTEXTBEGIN
1070
    73
1070
     1
1070
    44
1040
1.0
1070
    74
1070
     0
1000
MTEXTEND
  0
POINT
  5
A807
330
A2A8
100
AcDbEntity
  8
DEFPOINTS
 62
     0
100
AcDbPoint
 10
680.9824108186953
 20
1257.458149219323
 30
0.0
  0
POINT
  5
A808
330
A2A8
100
AcDbEntity
  8
DEFPOINTS
 62
     0
100
AcDbPoint
 10
1015.982410818695
 20
1307.458149219323
 30
0.0
  0
POINT
  5
A809
330
A2A8
100
AcDbEntity
  8
DEFPOINTS
 62
     0
100
AcDbPoint
 10
1015.982410818695
 20
1337.331674895793
 30
0.0
  0
ENDBLK
  5
A2B3
330
A2A8
100
AcDbEntity
  8
0
100
AcDbBlockEnd
  0
BLOCK
  5
A2C0
330
A2B4
100
AcDbEntity
  8
0
100
AcDbBlockBegin
  2
*D141
 70
     1
 10
0.0
 20
0.0
 30
0.0
  3
*D141
  1

  0
LINE
  5
A80A
330
A2B4
100
AcDbEntity
  8
寸法引出
370
    -2
100
AcDbLine
 10
645.9824108186953
 20
1527.096612352652
 30
0.0
 11
645.9824108186953
 21
1487.591358611427
 31
0.0
  0
LINE
  5
A80B
330
A2B4
100
AcDbEntity
  8
寸法引出
370
    -2
100
AcDbLine
 10
680.9824108186953
 20
1527.096612352652
 30
0.0
 11
680.9824108186953
 21
1487.591358611427
 31
0.0
  0
LINE
  5
A80C
330
A2B4
100
AcDbEntity
  8
寸法引出
370
    -2
100
AcDbLine
 10
630.9824108186953
 20
1492.591358611427
 30
0.0
 11
615.9824108186954
 21
1492.591358611427
 31
0.0
  0
LINE
  5
A80D
330
A2B4
100
AcDbEntity
  8
寸法引出
370
    -2
100
AcDbLine
 10
695.9824108186953
 20
1492.591358611427
 30
0.0
 11
710.9824108186954
 21
1492.591358611427
 31
0.0
  0
LINE
  5
A80E
330
A2B4
100
AcDbEntity
  8
寸法引出
370
    -2
100
AcDbLine
 10
645.9824108186953
 20
1492.591358611427
 30
0.0
 11
680.9824108186953
 21
1492.591358611427
 31
0.0
  0
SOLID
  5
A80F
330
A2B4
100
AcDbEntity
  8
寸法引出
100
AcDbTrace
 10
630.9824108186953
 20
1495.091358611427
 30
0.0
 11
630.9824108186953
 21
1490.091358611427
 31
0.0
 12
645.9824108186953
 22
1492.591358611427
 32
0.0
 13
645.9824108186953
 23
1492.591358611427
 33
0.0
  0
SOLID
  5
A810
330
A2B4
100
AcDbEntity
  8
寸法引出
100
AcDbTrace
 10
695.9824108186953
 20
1495.091358611427
 30
0.0
 11
695.9824108186953
 21
1490.091358611427
 31
0.0
 12
680.9824108186953
 22
1492.591358611427
 32
0.0
 13
680.9824108186953
 23
1492.591358611427
 33
0.0
  0
MTEXT
  5
A811
330
A2B4
100
AcDbEntity
  8
寸法引出
100
AcDbMText
 10
663.4824108186953
 20
1512.591358611427
 30
0.0
 40
20.0
 41
0.0
 71
     5
 72
     1
  1
\A1;35
  7
SANWA
 73
     1
 44
1.0
1001
ACAD
1000
MTEXTBEGIN
1070
    73
1070
     1
1070
    44
1040
1.0
1070
    74
1070
     0
1000
MTEXTEND
  0
POINT
  5
A812
330
A2B4
100
AcDbEntity
  8
DEFPOINTS
 62
     0
100
AcDbPoint
 10
645.9824108186953
 20
1537.096612352652
 30
0.0
  0
POINT
  5
A813
330
A2B4
100
AcDbEntity
  8
DEFPOINTS
 62
     0
100
AcDbPoint
 10
680.9824108186953
 20
1537.096612352652
 30
0.0
  0
POINT
  5
A814
330
A2B4
100
AcDbEntity
  8
DEFPOINTS
 62
     0
100
AcDbPoint
 10
680.9824108186953
 20
1492.591358611427
 30
0.0
  0
ENDBLK
  5
A2C1
330
A2B4
100
AcDbEntity
  8
0
100
AcDbBlockEnd
  0
BLOCK
  5
A2CC
330
A2C2
100
AcDbEntity
  8
0
100
AcDbBlockBegin
  2
*D142
 70
     1
 10
0.0
 20
0.0
 30
0.0
  3
*D142
  1

  0
LINE
  5
A815
330
A2C2
100
AcDbEntity
  8
寸法引出
370
    -2
100
AcDbLine
 10
1000.982410818695
 20
1527.096612352652
 30
0.0
 11
1000.982410818695
 21
1450.847313842423
 31
0.0
  0
LINE
  5
A816
330
A2C2
100
AcDbEntity
  8
寸法引出
370
    -2
100
AcDbLine
 10
645.9824108186953
 20
1527.096612352652
 30
0.0
 11
645.9824108186953
 21
1450.847313842423
 31
0.0
  0
LINE
  5
A817
330
A2C2
100
AcDbEntity
  8
寸法引出
370
    -2
100
AcDbLine
 10
985.9824108186952
 20
1455.847313842423
 30
0.0
 11
660.9824108186954
 21
1455.847313842423
 31
0.0
  0
SOLID
  5
A818
330
A2C2
100
AcDbEntity
  8
寸法引出
100
AcDbTrace
 10
985.9824108186952
 20
1458.347313842423
 30
0.0
 11
985.9824108186952
 21
1453.347313842423
 31
0.0
 12
1000.982410818695
 22
1455.847313842423
 32
0.0
 13
1000.982410818695
 23
1455.847313842423
 33
0.0
  0
SOLID
  5
A819
330
A2C2
100
AcDbEntity
  8
寸法引出
100
AcDbTrace
 10
660.9824108186954
 20
1458.347313842423
 30
0.0
 11
660.9824108186954
 21
1453.347313842423
 31
0.0
 12
645.9824108186953
 22
1455.847313842423
 32
0.0
 13
645.9824108186953
 23
1455.847313842423
 33
0.0
  0
MTEXT
  5
A81A
330
A2C2
100
AcDbEntity
  8
寸法引出
100
AcDbMText
 10
823.4824108186952
 20
1475.847313842423
 30
0.0
 40
20.0
 41
0.0
 71
     5
 72
     1
  1
\A1;355
  7
SANWA
 73
     1
 44
1.0
1001
ACAD
1000
MTEXTBEGIN
1070
    73
1070
     1
1070
    44
1040
1.0
1070
    74
1070
     0
1000
MTEXTEND
  0
POINT
  5
A81B
330
A2C2
100
AcDbEntity
  8
DEFPOINTS
 62
     0
100
AcDbPoint
 10
1000.982410818695
 20
1537.096612352652
 30
0.0
  0
POINT
  5
A81C
330
A2C2
100
AcDbEntity
  8
DEFPOINTS
 62
     0
100
AcDbPoint
 10
645.9824108186953
 20
1537.096612352652
 30
0.0
  0
POINT
  5
A81D
330
A2C2
100
AcDbEntity
  8
DEFPOINTS
 62
     0
100
AcDbPoint
 10
645.9824108186953
 20
1455.847313842423
 30
0.0
  0
ENDBLK
  5
A2CD
330
A2C2
100
AcDbEntity
  8
0
100
AcDbBlockEnd
  0
BLOCK
  5
A2DA
330
A2CE
100
AcDbEntity
  8
0
100
AcDbBlockBegin
  2
*D143
 70
     1
 10
0.0
 20
0.0
 30
0.0
  3
*D143
  1

  0
LINE
  5
A81E
330
A2CE
100
AcDbEntity
  8
寸法引出
370
    -2
100
AcDbLine
 10
990.9824108186953
 20
1546.096612352652
 30
0.0
 11
973.8121568129031
 21
1546.096612352652
 31
0.0
  0
LINE
  5
A81F
330
A2CE
100
AcDbEntity
  8
寸法引出
370
    -2
100
AcDbLine
 10
990.9824108186951
 20
1537.096612352652
 30
0.0
 11
973.8121568129031
 21
1537.096612352652
 31
0.0
  0
LINE
  5
A820
330
A2CE
100
AcDbEntity
  8
寸法引出
370
    -2
100
AcDbLine
 10
978.8121568129032
 20
1561.096612352652
 30
0.0
 11
978.8121568129032
 21
1576.096612352652
 31
0.0
  0
LINE
  5
A821
330
A2CE
100
AcDbEntity
  8
寸法引出
370
    -2
100
AcDbLine
 10
978.8121568129032
 20
1522.096612352652
 30
0.0
 11
978.8121568129032
 21
1507.096612352652
 31
0.0
  0
LINE
  5
A822
330
A2CE
100
AcDbEntity
  8
寸法引出
370
    -2
100
AcDbLine
 10
978.8121568129032
 20
1546.096612352652
 30
0.0
 11
978.8121568129032
 21
1537.096612352652
 31
0.0
  0
SOLID
  5
A823
330
A2CE
100
AcDbEntity
  8
寸法引出
100
AcDbTrace
 10
976.3121568129031
 20
1561.096612352652
 30
0.0
 11
981.3121568129032
 21
1561.096612352652
 31
0.0
 12
978.8121568129032
 22
1546.096612352652
 32
0.0
 13
978.8121568129032
 23
1546.096612352652
 33
0.0
  0
SOLID
  5
A824
330
A2CE
100
AcDbEntity
  8
寸法引出
100
AcDbTrace
 10
976.3121568129031
 20
1522.096612352652
 30
0.0
 11
981.3121568129032
 21
1522.096612352652
 31
0.0
 12
978.8121568129032
 22
1537.096612352652
 32
0.0
 13
978.8121568129032
 23
1537.096612352652
 33
0.0
  0
MTEXT
  5
A825
330
A2CE
100
AcDbEntity
  8
寸法引出
100
AcDbMText
 10
958.8121568129029
 20
1541.596612352652
 30
0.0
 40
20.0
 41
0.0
 71
     5
 72
     1
  1
\A1;9
  7
SANWA
 11
0.0000000000000001
 21
1.0
 31
0.0
 73
     1
 44
1.0
1001
ACAD
1000
MTEXTBEGIN
1070
    73
1070
     1
1070
    44
1040
1.0
1070
    74
1070
     0
1000
MTEXTEND
  0
POINT
  5
A826
330
A2CE
100
AcDbEntity
  8
DEFPOINTS
 62
     0
100
AcDbPoint
 10
1000.982410818695
 20
1546.096612352652
 30
0.0
  0
POINT
  5
A827
330
A2CE
100
AcDbEntity
  8
DEFPOINTS
 62
     0
100
AcDbPoint
 10
1000.982410818695
 20
1537.096612352652
 30
0.0
  0
POINT
  5
A828
330
A2CE
100
AcDbEntity
  8
DEFPOINTS
 62
     0
100
AcDbPoint
 10
978.8121568129032
 20
1537.096612352652
 30
0.0
  0
ENDBLK
  5
A2DB
330
A2CE
100
AcDbEntity
  8
0
100
AcDbBlockEnd
  0
BLOCK
  5
A2E8
330
A2DC
100
AcDbEntity
  8
0
100
AcDbBlockBegin
  2
*D144
 70
     1
 10
0.0
 20
0.0
 30
0.0
  3
*D144
  1

  0
LINE
  5
A829
330
A2DC
100
AcDbEntity
  8
寸法引出
370
    -2
100
AcDbLine
 10
1000.982410818695
 20
1527.096612352652
 30
0.0
 11
1000.982410818695
 21
1450.847313842423
 31
0.0
  0
LINE
  5
A82A
330
A2DC
100
AcDbEntity
  8
寸法引出
370
    -2
100
AcDbLine
 10
1030.982410818695
 20
1527.096612352652
 30
0.0
 11
1030.982410818695
 21
1450.847313842423
 31
0.0
  0
LINE
  5
A82B
330
A2DC
100
AcDbEntity
  8
寸法引出
370
    -2
100
AcDbLine
 10
985.9824108186952
 20
1455.847313842423
 30
0.0
 11
970.9824108186952
 21
1455.847313842423
 31
0.0
  0
LINE
  5
A82C
330
A2DC
100
AcDbEntity
  8
寸法引出
370
    -2
100
AcDbLine
 10
1045.982410818695
 20
1455.847313842423
 30
0.0
 11
1060.982410818695
 21
1455.847313842423
 31
0.0
  0
LINE
  5
A82D
330
A2DC
100
AcDbEntity
  8
寸法引出
370
    -2
100
AcDbLine
 10
1000.982410818695
 20
1455.847313842423
 30
0.0
 11
1030.982410818695
 21
1455.847313842423
 31
0.0
  0
SOLID
  5
A82E
330
A2DC
100
AcDbEntity
  8
寸法引出
100
AcDbTrace
 10
985.9824108186952
 20
1458.347313842423
 30
0.0
 11
985.9824108186952
 21
1453.347313842423
 31
0.0
 12
1000.982410818695
 22
1455.847313842423
 32
0.0
 13
1000.982410818695
 23
1455.847313842423
 33
0.0
  0
SOLID
  5
A82F
330
A2DC
100
AcDbEntity
  8
寸法引出
100
AcDbTrace
 10
1045.982410818695
 20
1458.347313842423
 30
0.0
 11
1045.982410818695
 21
1453.347313842423
 31
0.0
 12
1030.982410818695
 22
1455.847313842423
 32
0.0
 13
1030.982410818695
 23
1455.847313842423
 33
0.0
  0
MTEXT
  5
A830
330
A2DC
100
AcDbEntity
  8
寸法引出
100
AcDbMText
 10
1015.982410818695
 20
1475.847313842423
 30
0.0
 40
20.0
 41
0.0
 71
     5
 72
     1
  1
\A1;30
  7
SANWA
 73
     1
 44
1.0
1001
ACAD
1000
MTEXTBEGIN
1070
    73
1070
     1
1070
    44
1040
1.0
1070
    74
1070
     0
1000
MTEXTEND
  0
POINT
  5
A831
330
A2DC
100
AcDbEntity
  8
DEFPOINTS
 62
     0
100
AcDbPoint
 10
1000.982410818695
 20
1537.096612352652
 30
0.0
  0
POINT
  5
A832
330
A2DC
100
AcDbEntity
  8
DEFPOINTS
 62
     0
100
AcDbPoint
 10
1030.982410818695
 20
1537.096612352652
 30
0.0
  0
POINT
  5
A833
330
A2DC
100
AcDbEntity
  8
DEFPOINTS
 62
     0
100
AcDbPoint
 10
1030.982410818695
 20
1455.847313842423
 30
0.0
  0
ENDBLK
  5
A2E9
330
A2DC
100
AcDbEntity
  8
0
100
AcDbBlockEnd
  0
BLOCK
  5
A2F6
330
A2EA
100
AcDbEntity
  8
0
100
AcDbBlockBegin
  2
*D145
 70
     1
 10
0.0
 20
0.0
 30
0.0
  3
*D145
  1

  0
LINE
  5
A834
330
A2EA
100
AcDbEntity
  8
寸法引出
370
    -2
100
AcDbLine
 10
998.4824108186954
 20
1657.096612352652
 30
0.0
 11
973.8121568129031
 21
1657.096612352652
 31
0.0
  0
LINE
  5
A835
330
A2EA
100
AcDbEntity
  8
寸法引出
370
    -2
100
AcDbLine
 10
992.9824108186954
 20
1632.096612352652
 30
0.0
 11
973.8121568129031
 21
1632.096612352652
 31
0.0
  0
LINE
  5
A836
330
A2EA
100
AcDbEntity
  8
寸法引出
370
    -2
100
AcDbLine
 10
978.8121568129032
 20
1672.096612352652
 30
0.0
 11
978.8121568129032
 21
1687.096612352652
 31
0.0
  0
LINE
  5
A837
330
A2EA
100
AcDbEntity
  8
寸法引出
370
    -2
100
AcDbLine
 10
978.8121568129032
 20
1617.096612352652
 30
0.0
 11
978.8121568129032
 21
1602.096612352652
 31
0.0
  0
LINE
  5
A838
330
A2EA
100
AcDbEntity
  8
寸法引出
370
    -2
100
AcDbLine
 10
978.8121568129032
 20
1657.096612352652
 30
0.0
 11
978.8121568129032
 21
1632.096612352652
 31
0.0
  0
SOLID
  5
A839
330
A2EA
100
AcDbEntity
  8
寸法引出
100
AcDbTrace
 10
976.3121568129031
 20
1672.096612352652
 30
0.0
 11
981.3121568129032
 21
1672.096612352652
 31
0.0
 12
978.8121568129032
 22
1657.096612352652
 32
0.0
 13
978.8121568129032
 23
1657.096612352652
 33
0.0
  0
SOLID
  5
A83A
330
A2EA
100
AcDbEntity
  8
寸法引出
100
AcDbTrace
 10
976.3121568129031
 20
1617.096612352652
 30
0.0
 11
981.3121568129032
 21
1617.096612352652
 31
0.0
 12
978.8121568129032
 22
1632.096612352652
 32
0.0
 13
978.8121568129032
 23
1632.096612352652
 33
0.0
  0
MTEXT
  5
A83B
330
A2EA
100
AcDbEntity
  8
寸法引出
100
AcDbMText
 10
958.8121568129029
 20
1644.596612352652
 30
0.0
 40
20.0
 41
0.0
 71
     5
 72
     1
  1
\A1;25
  7
SANWA
 11
0.0000000000000001
 21
1.0
 31
0.0
 73
     1
 44
1.0
1001
ACAD
1000
MTEXTBEGIN
1070
    73
1070
     1
1070
    44
1040
1.0
1070
    74
1070
     0
1000
MTEXTEND
  0
POINT
  5
A83C
330
A2EA
100
AcDbEntity
  8
DEFPOINTS
 62
     0
100
AcDbPoint
 10
1008.482410818695
 20
1657.096612352652
 30
0.0
  0
POINT
  5
A83D
330
A2EA
100
AcDbEntity
  8
DEFPOINTS
 62
     0
100
AcDbPoint
 10
1002.982410818695
 20
1632.096612352652
 30
0.0
  0
POINT
  5
A83E
330
A2EA
100
AcDbEntity
  8
DEFPOINTS
 62
     0
100
AcDbPoint
 10
978.8121568129032
 20
1632.096612352652
 30
0.0
  0
ENDBLK
  5
A2F7
330
A2EA
100
AcDbEntity
  8
0
100
AcDbBlockEnd
  0
BLOCK
  5
A302
330
A2F8
100
AcDbEntity
  8
0
100
AcDbBlockBegin
  2
*D146
 70
     1
 10
0.0
 20
0.0
 30
0.0
  3
*D146
  1

  0
LINE
  5
A83F
330
A2F8
100
AcDbEntity
  8
寸法引出
370
    -2
100
AcDbLine
 10
1580.290860613375
 20
1667.096612352652
 30
0.0
 11
1580.290860613375
 21
1744.167952386481
 31
0.0
  0
LINE
  5
A840
330
A2F8
100
AcDbEntity
  8
寸法引出
370
    -2
100
AcDbLine
 10
2580.290860613375
 20
1667.096612352652
 30
0.0
 11
2580.290860613375
 21
1744.167952386481
 31
0.0
  0
LINE
  5
A841
330
A2F8
100
AcDbEntity
  8
寸法引出
370
    -2
100
AcDbLine
 10
1595.290860613375
 20
1739.167952386481
 30
0.0
 11
2565.290860613375
 21
1739.167952386481
 31
0.0
  0
SOLID
  5
A842
330
A2F8
100
AcDbEntity
  8
寸法引出
100
AcDbTrace
 10
1595.290860613375
 20
1741.667952386481
 30
0.0
 11
1595.290860613375
 21
1736.667952386481
 31
0.0
 12
1580.290860613375
 22
1739.167952386481
 32
0.0
 13
1580.290860613375
 23
1739.167952386481
 33
0.0
  0
SOLID
  5
A843
330
A2F8
100
AcDbEntity
  8
寸法引出
100
AcDbTrace
 10
2565.290860613375
 20
1741.667952386481
 30
0.0
 11
2565.290860613375
 21
1736.667952386481
 31
0.0
 12
2580.290860613375
 22
1739.167952386481
 32
0.0
 13
2580.290860613375
 23
1739.167952386481
 33
0.0
  0
MTEXT
  5
A844
330
A2F8
100
AcDbEntity
  8
寸法引出
100
AcDbMText
 10
2080.290860613375
 20
1759.167952386481
 30
0.0
 40
20.0
 41
0.0
 71
     5
 72
     1
  1
\A1;1000
  7
SANWA
 73
     1
 44
1.0
1001
ACAD
1000
MTEXTBEGIN
1070
    73
1070
     1
1070
    44
1040
1.0
1070
    74
1070
     0
1000
MTEXTEND
  0
POINT
  5
A845
330
A2F8
100
AcDbEntity
  8
DEFPOINTS
 62
     0
100
AcDbPoint
 10
1580.290860613375
 20
1657.096612352652
 30
0.0
  0
POINT
  5
A846
330
A2F8
100
AcDbEntity
  8
DEFPOINTS
 62
     0
100
AcDbPoint
 10
2580.290860613375
 20
1657.096612352652
 30
0.0
  0
POINT
  5
A847
330
A2F8
100
AcDbEntity
  8
DEFPOINTS
 62
     0
100
AcDbPoint
 10
2580.290860613375
 20
1739.167952386481
 30
0.0
  0
ENDBLK
  5
A303
330
A2F8
100
AcDbEntity
  8
0
100
AcDbBlockEnd
  0
BLOCK
  5
A30D
330
A304
100
AcDbEntity
  8
0
100
AcDbBlockBegin
  2
*D147
 70
     1
 10
0.0
 20
0.0
 30
0.0
  3
*D147
  1

  0
LINE
  5
A848
330
A304
100
AcDbEntity
  8
寸法引出
370
    -2
100
AcDbLine
 10
2460.290860613375
 20
1527.096612352652
 30
0.0
 11
2460.290860613375
 21
1477.550175541708
 31
0.0
  0
LINE
  5
A849
330
A304
100
AcDbEntity
  8
寸法引出
370
    -2
100
AcDbLine
 10
1715.290860613375
 20
1482.550175541708
 30
0.0
 11
2445.290860613375
 21
1482.550175541708
 31
0.0
  0
SOLID
  5
A84A
330
A304
100
AcDbEntity
  8
寸法引出
100
AcDbTrace
 10
1715.290860613375
 20
1485.050175541708
 30
0.0
 11
1715.290860613375
 21
1480.050175541708
 31
0.0
 12
1700.290860613375
 22
1482.550175541708
 32
0.0
 13
1700.290860613375
 23
1482.550175541708
 33
0.0
  0
SOLID
  5
A84B
330
A304
100
AcDbEntity
  8
寸法引出
100
AcDbTrace
 10
2445.290860613375
 20
1485.050175541708
 30
0.0
 11
2445.290860613375
 21
1480.050175541708
 31
0.0
 12
2460.290860613375
 22
1482.550175541708
 32
0.0
 13
2460.290860613375
 23
1482.550175541708
 33
0.0
  0
MTEXT
  5
A84C
330
A304
100
AcDbEntity
  8
寸法引出
100
AcDbMText
 10
2080.290860613375
 20
1502.550175541708
 30
0.0
 40
20.0
 41
0.0
 71
     5
 72
     1
  1
\A1;760
  7
SANWA
 73
     1
 44
1.0
1001
ACAD
1000
MTEXTBEGIN
1070
    73
1070
     1
1070
    44
1040
1.0
1070
    74
1070
     0
1000
MTEXTEND
  0
POINT
  5
A84D
330
A304
100
AcDbEntity
  8
DEFPOINTS
 62
     0
100
AcDbPoint
 10
1700.290860613375
 20
1537.096612352652
 30
0.0
  0
POINT
  5
A84E
330
A304
100
AcDbEntity
  8
DEFPOINTS
 62
     0
100
AcDbPoint
 10
2460.290860613375
 20
1537.096612352652
 30
0.0
  0
POINT
  5
A84F
330
A304
100
AcDbEntity
  8
DEFPOINTS
 62
     0
100
AcDbPoint
 10
2460.290860613375
 20
1482.550175541708
 30
0.0
  0
ENDBLK
  5
A30E
330
A304
100
AcDbEntity
  8
0
100
AcDbBlockEnd
  0
BLOCK
  5
A31A
330
A30F
100
AcDbEntity
  8
0
100
AcDbBlockBegin
  2
*D148
 70
     1
 10
0.0
 20
0.0
 30
0.0
  3
*D148
  1

  0
LINE
  5
A850
330
A30F
100
AcDbEntity
  8
寸法引出
370
    -2
100
AcDbLine
 10
1385.982410818695
 20
1267.458149219323
 30
0.0
 11
1385.982410818695
 21
1342.331674895793
 31
0.0
  0
LINE
  5
A851
330
A30F
100
AcDbEntity
  8
寸法引出
370
    -2
100
AcDbLine
 10
1335.982410818695
 20
1337.331674895793
 30
0.0
 11
1320.982410818695
 21
1337.331674895793
 31
0.0
  0
LINE
  5
A852
330
A30F
100
AcDbEntity
  8
寸法引出
370
    -2
100
AcDbLine
 10
1400.982410818695
 20
1337.331674895793
 30
0.0
 11
1415.982410818695
 21
1337.331674895793
 31
0.0
  0
LINE
  5
A853
330
A30F
100
AcDbEntity
  8
寸法引出
370
    -2
100
AcDbLine
 10
1350.982410818695
 20
1337.331674895793
 30
0.0
 11
1385.982410818695
 21
1337.331674895793
 31
0.0
  0
SOLID
  5
A854
330
A30F
100
AcDbEntity
  8
寸法引出
100
AcDbTrace
 10
1335.982410818695
 20
1339.831674895793
 30
0.0
 11
1335.982410818695
 21
1334.831674895793
 31
0.0
 12
1350.982410818695
 22
1337.331674895793
 32
0.0
 13
1350.982410818695
 23
1337.331674895793
 33
0.0
  0
SOLID
  5
A855
330
A30F
100
AcDbEntity
  8
寸法引出
100
AcDbTrace
 10
1400.982410818695
 20
1339.831674895793
 30
0.0
 11
1400.982410818695
 21
1334.831674895793
 31
0.0
 12
1385.982410818695
 22
1337.331674895793
 32
0.0
 13
1385.982410818695
 23
1337.331674895793
 33
0.0
  0
MTEXT
  5
A856
330
A30F
100
AcDbEntity
  8
寸法引出
100
AcDbMText
 10
1368.482410818695
 20
1357.331674895793
 30
0.0
 40
20.0
 41
0.0
 71
     5
 72
     1
  1
\A1;35
  7
SANWA
 73
     1
 44
1.0
1001
ACAD
1000
MTEXTBEGIN
1070
    73
1070
     1
1070
    44
1040
1.0
1070
    74
1070
     0
1000
MTEXTEND
  0
POINT
  5
A857
330
A30F
100
AcDbEntity
  8
DEFPOINTS
 62
     0
100
AcDbPoint
 10
1350.982410818695
 20
1257.458149219323
 30
0.0
  0
POINT
  5
A858
330
A30F
100
AcDbEntity
  8
DEFPOINTS
 62
     0
100
AcDbPoint
 10
1385.982410818695
 20
1257.458149219323
 30
0.0
  0
POINT
  5
A859
330
A30F
100
AcDbEntity
  8
DEFPOINTS
 62
     0
100
AcDbPoint
 10
1385.982410818695
 20
1337.331674895793
 30
0.0
  0
ENDBLK
  5
A31B
330
A30F
100
AcDbEntity
  8
0
100
AcDbBlockEnd
  0
BLOCK
  5
A326
330
A31C
100
AcDbEntity
  8
0
100
AcDbBlockBegin
  2
*D149
 70
     1
 10
0.0
 20
0.0
 30
0.0
  3
*D149
  1

  0
LINE
  5
A85A
330
A31C
100
AcDbEntity
  8
寸法引出
370
    -2
100
AcDbLine
 10
1580.290860613375
 20
1527.096612352652
 30
0.0
 11
1580.290860613375
 21
1477.550175541708
 31
0.0
  0
LINE
  5
A85B
330
A31C
100
AcDbEntity
  8
寸法引出
370
    -2
100
AcDbLine
 10
1700.290860613375
 20
1527.096612352652
 30
0.0
 11
1700.290860613375
 21
1477.550175541708
 31
0.0
  0
LINE
  5
A85C
330
A31C
100
AcDbEntity
  8
寸法引出
370
    -2
100
AcDbLine
 10
1595.290860613375
 20
1482.550175541708
 30
0.0
 11
1685.290860613375
 21
1482.550175541708
 31
0.0
  0
SOLID
  5
A85D
330
A31C
100
AcDbEntity
  8
寸法引出
100
AcDbTrace
 10
1595.290860613375
 20
1485.050175541708
 30
0.0
 11
1595.290860613375
 21
1480.050175541708
 31
0.0
 12
1580.290860613375
 22
1482.550175541708
 32
0.0
 13
1580.290860613375
 23
1482.550175541708
 33
0.0
  0
SOLID
  5
A85E
330
A31C
100
AcDbEntity
  8
寸法引出
100
AcDbTrace
 10
1685.290860613375
 20
1485.050175541708
 30
0.0
 11
1685.290860613375
 21
1480.050175541708
 31
0.0
 12
1700.290860613375
 22
1482.550175541708
 32
0.0
 13
1700.290860613375
 23
1482.550175541708
 33
0.0
  0
MTEXT
  5
A85F
330
A31C
100
AcDbEntity
  8
寸法引出
100
AcDbMText
 10
1640.290860613375
 20
1502.550175541708
 30
0.0
 40
20.0
 41
0.0
 71
     5
 72
     1
  1
\A1;120
  7
SANWA
 73
     1
 44
1.0
1001
ACAD
1000
MTEXTBEGIN
1070
    73
1070
     1
1070
    44
1040
1.0
1070
    74
1070
     0
1000
MTEXTEND
  0
POINT
  5
A860
330
A31C
100
AcDbEntity
  8
DEFPOINTS
 62
     0
100
AcDbPoint
 10
1580.290860613375
 20
1537.096612352652
 30
0.0
  0
POINT
  5
A861
330
A31C
100
AcDbEntity
  8
DEFPOINTS
 62
     0
100
AcDbPoint
 10
1700.290860613375
 20
1537.096612352652
 30
0.0
  0
POINT
  5
A862
330
A31C
100
AcDbEntity
  8
DEFPOINTS
 62
     0
100
AcDbPoint
 10
1700.290860613375
 20
1482.550175541708
 30
0.0
  0
ENDBLK
  5
A327
330
A31C
100
AcDbEntity
  8
0
100
AcDbBlockEnd
  0
BLOCK
  5
A332
330
A328
100
AcDbEntity
  8
0
100
AcDbBlockBegin
  2
*D150
 70
     1
 10
0.0
 20
0.0
 30
0.0
  3
*D150
  1

  0
LINE
  5
A863
330
A328
100
AcDbEntity
  8
寸法引出
370
    -2
100
AcDbLine
 10
1395.982410818695
 20
1657.096612352652
 30
0.0
 11
1473.782847140992
 21
1657.096612352652
 31
0.0
  0
LINE
  5
A864
330
A328
100
AcDbEntity
  8
寸法引出
370
    -2
100
AcDbLine
 10
1395.982410818695
 20
1537.096612352652
 30
0.0
 11
1473.782847140992
 21
1537.096612352652
 31
0.0
  0
LINE
  5
A865
330
A328
100
AcDbEntity
  8
寸法引出
370
    -2
100
AcDbLine
 10
1468.782847140992
 20
1642.096612352652
 30
0.0
 11
1468.782847140992
 21
1552.096612352652
 31
0.0
  0
SOLID
  5
A866
330
A328
100
AcDbEntity
  8
寸法引出
100
AcDbTrace
 10
1466.282847140992
 20
1642.096612352652
 30
0.0
 11
1471.282847140992
 21
1642.096612352652
 31
0.0
 12
1468.782847140992
 22
1657.096612352652
 32
0.0
 13
1468.782847140992
 23
1657.096612352652
 33
0.0
  0
SOLID
  5
A867
330
A328
100
AcDbEntity
  8
寸法引出
100
AcDbTrace
 10
1466.282847140992
 20
1552.096612352652
 30
0.0
 11
1471.282847140992
 21
1552.096612352652
 31
0.0
 12
1468.782847140992
 22
1537.096612352652
 32
0.0
 13
1468.782847140992
 23
1537.096612352652
 33
0.0
  0
MTEXT
  5
A868
330
A328
100
AcDbEntity
  8
寸法引出
100
AcDbMText
 10
1448.782847140991
 20
1597.096612352652
 30
0.0
 40
20.0
 41
0.0
 71
     5
 72
     1
  1
\A1;120
  7
SANWA
 11
0.0000000000000001
 21
1.0
 31
0.0
 73
     1
 44
1.0
1001
ACAD
1000
MTEXTBEGIN
1070
    73
1070
     1
1070
    44
1040
1.0
1070
    74
1070
     0
1000
MTEXTEND
  0
POINT
  5
A869
330
A328
100
AcDbEntity
  8
DEFPOINTS
 62
     0
100
AcDbPoint
 10
1385.982410818695
 20
1657.096612352652
 30
0.0
  0
POINT
  5
A86A
330
A328
100
AcDbEntity
  8
DEFPOINTS
 62
     0
100
AcDbPoint
 10
1385.982410818695
 20
1537.096612352652
 30
0.0
  0
POINT
  5
A86B
330
A328
100
AcDbEntity
  8
DEFPOINTS
 62
     0
100
AcDbPoint
 10
1468.782847140992
 20
1537.096612352652
 30
0.0
  0
ENDBLK
  5
A333
330
A328
100
AcDbEntity
  8
0
100
AcDbBlockEnd
  0
BLOCK
  5
A340
330
A334
100
AcDbEntity
  8
0
100
AcDbBlockBegin
  2
*D151
 70
     1
 10
0.0
 20
0.0
 30
0.0
  3
*D151
  1

  0
LINE
  5
A86C
330
A334
100
AcDbEntity
  8
寸法引出
370
    -2
100
AcDbLine
 10
1350.982410818695
 20
1527.096612352652
 30
0.0
 11
1350.982410818695
 21
1487.591358611427
 31
0.0
  0
LINE
  5
A86D
330
A334
100
AcDbEntity
  8
寸法引出
370
    -2
100
AcDbLine
 10
1385.982410818695
 20
1527.096612352652
 30
0.0
 11
1385.982410818695
 21
1487.591358611427
 31
0.0
  0
LINE
  5
A86E
330
A334
100
AcDbEntity
  8
寸法引出
370
    -2
100
AcDbLine
 10
1335.982410818695
 20
1492.591358611427
 30
0.0
 11
1320.982410818695
 21
1492.591358611427
 31
0.0
  0
LINE
  5
A86F
330
A334
100
AcDbEntity
  8
寸法引出
370
    -2
100
AcDbLine
 10
1400.982410818695
 20
1492.591358611427
 30
0.0
 11
1415.982410818695
 21
1492.591358611427
 31
0.0
  0
LINE
  5
A870
330
A334
100
AcDbEntity
  8
寸法引出
370
    -2
100
AcDbLine
 10
1350.982410818695
 20
1492.591358611427
 30
0.0
 11
1385.982410818695
 21
1492.591358611427
 31
0.0
  0
SOLID
  5
A871
330
A334
100
AcDbEntity
  8
寸法引出
100
AcDbTrace
 10
1335.982410818695
 20
1495.091358611427
 30
0.0
 11
1335.982410818695
 21
1490.091358611427
 31
0.0
 12
1350.982410818695
 22
1492.591358611427
 32
0.0
 13
1350.982410818695
 23
1492.591358611427
 33
0.0
  0
SOLID
  5
A872
330
A334
100
AcDbEntity
  8
寸法引出
100
AcDbTrace
 10
1400.982410818695
 20
1495.091358611427
 30
0.0
 11
1400.982410818695
 21
1490.091358611427
 31
0.0
 12
1385.982410818695
 22
1492.591358611427
 32
0.0
 13
1385.982410818695
 23
1492.591358611427
 33
0.0
  0
MTEXT
  5
A873
330
A334
100
AcDbEntity
  8
寸法引出
100
AcDbMText
 10
1368.482410818695
 20
1512.591358611427
 30
0.0
 40
20.0
 41
0.0
 71
     5
 72
     1
  1
\A1;35
  7
SANWA
 73
     1
 44
1.0
1001
ACAD
1000
MTEXTBEGIN
1070
    73
1070
     1
1070
    44
1040
1.0
1070
    74
1070
     0
1000
MTEXTEND
  0
POINT
  5
A874
330
A334
100
AcDbEntity
  8
DEFPOINTS
 62
     0
100
AcDbPoint
 10
1350.982410818695
 20
1537.096612352652
 30
0.0
  0
POINT
  5
A875
330
A334
100
AcDbEntity
  8
DEFPOINTS
 62
     0
100
AcDbPoint
 10
1385.982410818695
 20
1537.096612352652
 30
0.0
  0
POINT
  5
A876
330
A334
100
AcDbEntity
  8
DEFPOINTS
 62
     0
100
AcDbPoint
 10
1385.982410818695
 20
1492.591358611427
 30
0.0
  0
ENDBLK
  5
A341
330
A334
100
AcDbEntity
  8
0
100
AcDbBlockEnd
  0
BLOCK
  5
A34C
330
A342
100
AcDbEntity
  8
0
100
AcDbBlockBegin
  2
*D152
 70
     1
 10
0.0
 20
0.0
 30
0.0
  3
*D152
  1

  0
LINE
  5
A877
330
A342
100
AcDbEntity
  8
寸法引出
370
    -2
100
AcDbLine
 10
2460.290860613375
 20
1527.096612352652
 30
0.0
 11
2460.290860613375
 21
1477.550175541708
 31
0.0
  0
LINE
  5
A878
330
A342
100
AcDbEntity
  8
寸法引出
370
    -2
100
AcDbLine
 10
2580.290860613375
 20
1527.096612352652
 30
0.0
 11
2580.290860613375
 21
1477.550175541708
 31
0.0
  0
LINE
  5
A879
330
A342
100
AcDbEntity
  8
寸法引出
370
    -2
100
AcDbLine
 10
2475.290860613375
 20
1482.550175541708
 30
0.0
 11
2565.290860613375
 21
1482.550175541708
 31
0.0
  0
SOLID
  5
A87A
330
A342
100
AcDbEntity
  8
寸法引出
100
AcDbTrace
 10
2475.290860613375
 20
1485.050175541708
 30
0.0
 11
2475.290860613375
 21
1480.050175541708
 31
0.0
 12
2460.290860613375
 22
1482.550175541708
 32
0.0
 13
2460.290860613375
 23
1482.550175541708
 33
0.0
  0
SOLID
  5
A87B
330
A342
100
AcDbEntity
  8
寸法引出
100
AcDbTrace
 10
2565.290860613375
 20
1485.050175541708
 30
0.0
 11
2565.290860613375
 21
1480.050175541708
 31
0.0
 12
2580.290860613375
 22
1482.550175541708
 32
0.0
 13
2580.290860613375
 23
1482.550175541708
 33
0.0
  0
MTEXT
  5
A87C
330
A342
100
AcDbEntity
  8
寸法引出
100
AcDbMText
 10
2520.290860613375
 20
1502.550175541708
 30
0.0
 40
20.0
 41
0.0
 71
     5
 72
     1
  1
\A1;120
  7
SANWA
 73
     1
 44
1.0
1001
ACAD
1000
MTEXTBEGIN
1070
    73
1070
     1
1070
    44
1040
1.0
1070
    74
1070
     0
1000
MTEXTEND
  0
POINT
  5
A87D
330
A342
100
AcDbEntity
  8
DEFPOINTS
 62
     0
100
AcDbPoint
 10
2460.290860613375
 20
1537.096612352652
 30
0.0
  0
POINT
  5
A87E
330
A342
100
AcDbEntity
  8
DEFPOINTS
 62
     0
100
AcDbPoint
 10
2580.290860613375
 20
1537.096612352652
 30
0.0
  0
POINT
  5
A87F
330
A342
100
AcDbEntity
  8
DEFPOINTS
 62
     0
100
AcDbPoint
 10
2580.290860613375
 20
1482.550175541708
 30
0.0
  0
ENDBLK
  5
A34D
330
A342
100
AcDbEntity
  8
0
100
AcDbBlockEnd
  0
BLOCK
  5
A358
330
A34E
100
AcDbEntity
  8
0
100
AcDbBlockBegin
  2
*D153
 70
     1
 10
0.0
 20
0.0
 30
0.0
  3
*D153
  1

  0
LINE
  5
A880
330
A34E
100
AcDbEntity
  8
寸法引出
370
    -2
100
AcDbLine
 10
2590.290860613376
 20
1657.096612352652
 30
0.0
 11
2712.161051941134
 21
1657.096612352652
 31
0.0
  0
LINE
  5
A881
330
A34E
100
AcDbEntity
  8
寸法引出
370
    -2
100
AcDbLine
 10
2590.290860613376
 20
1537.096612352652
 30
0.0
 11
2712.161051941134
 21
1537.096612352652
 31
0.0
  0
LINE
  5
A882
330
A34E
100
AcDbEntity
  8
寸法引出
370
    -2
100
AcDbLine
 10
2707.161051941133
 20
1642.096612352652
 30
0.0
 11
2707.161051941133
 21
1552.096612352652
 31
0.0
  0
SOLID
  5
A883
330
A34E
100
AcDbEntity
  8
寸法引出
100
AcDbTrace
 10
2704.661051941134
 20
1642.096612352652
 30
0.0
 11
2709.661051941134
 21
1642.096612352652
 31
0.0
 12
2707.161051941133
 22
1657.096612352652
 32
0.0
 13
2707.161051941133
 23
1657.096612352652
 33
0.0
  0
SOLID
  5
A884
330
A34E
100
AcDbEntity
  8
寸法引出
100
AcDbTrace
 10
2704.661051941134
 20
1552.096612352652
 30
0.0
 11
2709.661051941134
 21
1552.096612352652
 31
0.0
 12
2707.161051941133
 22
1537.096612352652
 32
0.0
 13
2707.161051941133
 23
1537.096612352652
 33
0.0
  0
MTEXT
  5
A885
330
A34E
100
AcDbEntity
  8
寸法引出
100
AcDbMText
 10
2687.161051941133
 20
1597.096612352653
 30
0.0
 40
20.0
 41
0.0
 71
     5
 72
     1
  1
\A1;120
  7
SANWA
 11
0.0000000000000001
 21
1.0
 31
0.0
 73
     1
 44
1.0
1001
ACAD
1000
MTEXTBEGIN
1070
    73
1070
     1
1070
    44
1040
1.0
1070
    74
1070
     0
1000
MTEXTEND
  0
POINT
  5
A886
330
A34E
100
AcDbEntity
  8
DEFPOINTS
 62
     0
100
AcDbPoint
 10
2580.290860613375
 20
1657.096612352652
 30
0.0
  0
POINT
  5
A887
330
A34E
100
AcDbEntity
  8
DEFPOINTS
 62
     0
100
AcDbPoint
 10
2580.290860613375
 20
1537.096612352652
 30
0.0
  0
POINT
  5
A888
330
A34E
100
AcDbEntity
  8
DEFPOINTS
 62
     0
100
AcDbPoint
 10
2707.161051941133
 20
1537.096612352652
 30
0.0
  0
ENDBLK
  5
A359
330
A34E
100
AcDbEntity
  8
0
100
AcDbBlockEnd
  0
BLOCK
  5
A364
330
A35A
100
AcDbEntity
  8
0
100
AcDbBlockBegin
  2
*D154
 70
     1
 10
0.0
 20
0.0
 30
0.0
  3
*D154
  1

  0
LINE
  5
A889
330
A35A
100
AcDbEntity
  8
寸法引出
370
    -2
100
AcDbLine
 10
2590.290860613376
 20
1632.096612352652
 30
0.0
 11
2649.768456715927
 21
1632.096612352652
 31
0.0
  0
LINE
  5
A88A
330
A35A
100
AcDbEntity
  8
寸法引出
370
    -2
100
AcDbLine
 10
2590.290860613376
 20
1537.096612352652
 30
0.0
 11
2649.768456715927
 21
1537.096612352652
 31
0.0
  0
LINE
  5
A88B
330
A35A
100
AcDbEntity
  8
寸法引出
370
    -2
100
AcDbLine
 10
2644.768456715927
 20
1617.096612352652
 30
0.0
 11
2644.768456715927
 21
1552.096612352652
 31
0.0
  0
SOLID
  5
A88C
330
A35A
100
AcDbEntity
  8
寸法引出
100
AcDbTrace
 10
2642.268456715927
 20
1617.096612352652
 30
0.0
 11
2647.268456715927
 21
1617.096612352652
 31
0.0
 12
2644.768456715927
 22
1632.096612352652
 32
0.0
 13
2644.768456715927
 23
1632.096612352652
 33
0.0
  0
SOLID
  5
A88D
330
A35A
100
AcDbEntity
  8
寸法引出
100
AcDbTrace
 10
2642.268456715927
 20
1552.096612352652
 30
0.0
 11
2647.268456715927
 21
1552.096612352652
 31
0.0
 12
2644.768456715927
 22
1537.096612352652
 32
0.0
 13
2644.768456715927
 23
1537.096612352652
 33
0.0
  0
MTEXT
  5
A88E
330
A35A
100
AcDbEntity
  8
寸法引出
100
AcDbMText
 10
2624.768456715927
 20
1584.596612352653
 30
0.0
 40
20.0
 41
0.0
 71
     5
 72
     1
  1
\A1;95
  7
SANWA
 11
0.0000000000000001
 21
1.0
 31
0.0
 73
     1
 44
1.0
1001
ACAD
1000
MTEXTBEGIN
1070
    73
1070
     1
1070
    44
1040
1.0
1070
    74
1070
     0
1000
MTEXTEND
  0
POINT
  5
A88F
330
A35A
100
AcDbEntity
  8
DEFPOINTS
 62
     0
100
AcDbPoint
 10
2580.290860613375
 20
1632.096612352652
 30
0.0
  0
POINT
  5
A890
330
A35A
100
AcDbEntity
  8
DEFPOINTS
 62
     0
100
AcDbPoint
 10
2580.290860613375
 20
1537.096612352652
 30
0.0
  0
POINT
  5
A891
330
A35A
100
AcDbEntity
  8
DEFPOINTS
 62
     0
100
AcDbPoint
 10
2644.768456715927
 20
1537.096612352652
 30
0.0
  0
ENDBLK
  5
A365
330
A35A
100
AcDbEntity
  8
0
100
AcDbBlockEnd
  0
BLOCK
  5
A371
330
A366
100
AcDbEntity
  8
0
100
AcDbBlockBegin
  2
*D155
 70
     1
 10
0.0
 20
0.0
 30
0.0
  3
*D155
  1

  0
LINE
  5
A892
330
A366
100
AcDbEntity
  8
寸法引出
370
    -2
100
AcDbLine
 10
2590.290860613376
 20
1657.096612352652
 30
0.0
 11
2649.768456715927
 21
1657.096612352652
 31
0.0
  0
LINE
  5
A893
330
A366
100
AcDbEntity
  8
寸法引出
370
    -2
100
AcDbLine
 10
2644.768456715927
 20
1617.096612352652
 30
0.0
 11
2644.768456715927
 21
1602.096612352652
 31
0.0
  0
LINE
  5
A894
330
A366
100
AcDbEntity
  8
寸法引出
370
    -2
100
AcDbLine
 10
2644.768456715927
 20
1672.096612352652
 30
0.0
 11
2644.768456715927
 21
1687.096612352652
 31
0.0
  0
LINE
  5
A895
330
A366
100
AcDbEntity
  8
寸法引出
370
    -2
100
AcDbLine
 10
2644.768456715927
 20
1632.096612352652
 30
0.0
 11
2644.768456715927
 21
1657.096612352652
 31
0.0
  0
SOLID
  5
A896
330
A366
100
AcDbEntity
  8
寸法引出
100
AcDbTrace
 10
2642.268456715927
 20
1617.096612352652
 30
0.0
 11
2647.268456715927
 21
1617.096612352652
 31
0.0
 12
2644.768456715927
 22
1632.096612352652
 32
0.0
 13
2644.768456715927
 23
1632.096612352652
 33
0.0
  0
SOLID
  5
A897
330
A366
100
AcDbEntity
  8
寸法引出
100
AcDbTrace
 10
2642.268456715927
 20
1672.096612352652
 30
0.0
 11
2647.268456715927
 21
1672.096612352652
 31
0.0
 12
2644.768456715927
 22
1657.096612352652
 32
0.0
 13
2644.768456715927
 23
1657.096612352652
 33
0.0
  0
MTEXT
  5
A898
330
A366
100
AcDbEntity
  8
寸法引出
100
AcDbMText
 10
2624.768456715927
 20
1644.596612352653
 30
0.0
 40
20.0
 41
0.0
 71
     5
 72
     1
  1
\A1;25
  7
SANWA
 11
0.0000000000000001
 21
1.0
 31
0.0
 73
     1
 44
1.0
1001
ACAD
1000
MTEXTBEGIN
1070
    73
1070
     1
1070
    44
1040
1.0
1070
    74
1070
     0
1000
MTEXTEND
  0
POINT
  5
A899
330
A366
100
AcDbEntity
  8
DEFPOINTS
 62
     0
100
AcDbPoint
 10
2580.290860613375
 20
1632.096612352652
 30
0.0
  0
POINT
  5
A89A
330
A366
100
AcDbEntity
  8
DEFPOINTS
 62
     0
100
AcDbPoint
 10
2580.290860613375
 20
1657.096612352652
 30
0.0
  0
POINT
  5
A89B
330
A366
100
AcDbEntity
  8
DEFPOINTS
 62
     0
100
AcDbPoint
 10
2644.768456715927
 20
1657.096612352652
 30
0.0
  0
ENDBLK
  5
A372
330
A366
100
AcDbEntity
  8
0
100
AcDbBlockEnd
  0
BLOCK
  5
A37D
330
A373
100
AcDbEntity
  8
0
100
AcDbBlockBegin
  2
*D156
 70
     1
 10
0.0
 20
0.0
 30
0.0
  3
*D156
  1

  0
LINE
  5
A89C
330
A373
100
AcDbEntity
  8
寸法引出
370
    -2
100
AcDbLine
 10
4469.438882653596
 20
317.4581492193231
 30
0.0
 11
4645.567398143559
 21
317.458149219323
 31
0.0
  0
LINE
  5
A89D
330
A373
100
AcDbEntity
  8
寸法引出
370
    -2
100
AcDbLine
 10
4469.438882653596
 20
1197.458149219323
 30
0.0
 11
4645.567398143559
 21
1197.458149219323
 31
0.0
  0
LINE
  5
A89E
330
A373
100
AcDbEntity
  8
寸法引出
370
    -2
100
AcDbLine
 10
4640.567398143558
 20
332.458149219323
 30
0.0
 11
4640.567398143558
 21
1182.458149219323
 31
0.0
  0
SOLID
  5
A89F
330
A373
100
AcDbEntity
  8
寸法引出
100
AcDbTrace
 10
4638.067398143559
 20
332.458149219323
 30
0.0
 11
4643.06739814356
 21
332.458149219323
 31
0.0
 12
4640.567398143558
 22
317.458149219323
 32
0.0
 13
4640.567398143558
 23
317.458149219323
 33
0.0
  0
SOLID
  5
A8A0
330
A373
100
AcDbEntity
  8
寸法引出
100
AcDbTrace
 10
4638.067398143559
 20
1182.458149219323
 30
0.0
 11
4643.06739814356
 21
1182.458149219323
 31
0.0
 12
4640.567398143558
 22
1197.458149219323
 32
0.0
 13
4640.567398143558
 23
1197.458149219323
 33
0.0
  0
MTEXT
  5
A8A1
330
A373
100
AcDbEntity
  8
寸法引出
100
AcDbMText
 10
4619.310255286417
 20
757.4581492193238
 30
0.0
 40
20.0
 41
0.0
 71
     5
 72
     1
  1
\A1;4@220=880
  7
SANWA
 11
0.0000000000000001
 21
1.0
 31
0.0
 73
     1
 44
1.0
1001
ACAD
1000
MTEXTBEGIN
1070
    73
1070
     1
1070
    44
1040
1.0
1070
    74
1070
     0
1000
MTEXTEND
  0
POINT
  5
A8A2
330
A373
100
AcDbEntity
  8
DEFPOINTS
 62
     0
100
AcDbPoint
 10
4459.438882653596
 20
317.4581492193231
 30
0.0
  0
POINT
  5
A8A3
330
A373
100
AcDbEntity
  8
DEFPOINTS
 62
     0
100
AcDbPoint
 10
4459.438882653596
 20
1197.458149219323
 30
0.0
  0
POINT
  5
A8A4
330
A373
100
AcDbEntity
  8
DEFPOINTS
 62
     0
100
AcDbPoint
 10
4640.567398143558
 20
1197.458149219323
 30
0.0
  0
ENDBLK
  5
A37E
330
A373
100
AcDbEntity
  8
0
100
AcDbBlockEnd
  0
BLOCK
  5
A389
330
A37F
100
AcDbEntity
  8
0
100
AcDbBlockBegin
  2
*D157
 70
     1
 10
0.0
 20
0.0
 30
0.0
  3
*D157
  1

  0
LINE
  5
A8A5
330
A37F
100
AcDbEntity
  8
寸法引出
370
    -2
100
AcDbLine
 10
3739.438882653597
 20
247.4581492193231
 30
0.0
 11
3739.438882653597
 21
168.3019616760475
 31
0.0
  0
LINE
  5
A8A6
330
A37F
100
AcDbEntity
  8
寸法引出
370
    -2
100
AcDbLine
 10
4439.438882653596
 20
247.4581492193231
 30
0.0
 11
4439.438882653596
 21
168.3019616760475
 31
0.0
  0
LINE
  5
A8A7
330
A37F
100
AcDbEntity
  8
寸法引出
370
    -2
100
AcDbLine
 10
3754.438882653597
 20
173.3019616760475
 30
0.0
 11
4424.438882653595
 21
173.3019616760475
 31
0.0
  0
SOLID
  5
A8A8
330
A37F
100
AcDbEntity
  8
寸法引出
100
AcDbTrace
 10
3754.438882653597
 20
175.8019616760475
 30
0.0
 11
3754.438882653597
 21
170.8019616760475
 31
0.0
 12
3739.438882653597
 22
173.3019616760475
 32
0.0
 13
3739.438882653597
 23
173.3019616760475
 33
0.0
  0
SOLID
  5
A8A9
330
A37F
100
AcDbEntity
  8
寸法引出
100
AcDbTrace
 10
4424.438882653595
 20
175.8019616760475
 30
0.0
 11
4424.438882653595
 21
170.8019616760475
 31
0.0
 12
4439.438882653596
 22
173.3019616760475
 32
0.0
 13
4439.438882653596
 23
173.3019616760475
 33
0.0
  0
MTEXT
  5
A8AA
330
A37F
100
AcDbEntity
  8
寸法引出
100
AcDbMText
 10
4089.438882653595
 20
193.3019616760475
 30
0.0
 40
20.0
 41
0.0
 71
     5
 72
     1
  1
\A1;700
  7
SANWA
 73
     1
 44
1.0
1001
ACAD
1000
MTEXTBEGIN
1070
    73
1070
     1
1070
    44
1040
1.0
1070
    74
1070
     0
1000
MTEXTEND
  0
POINT
  5
A8AB
330
A37F
100
AcDbEntity
  8
DEFPOINTS
 62
     0
100
AcDbPoint
 10
3739.438882653597
 20
257.4581492193231
 30
0.0
  0
POINT
  5
A8AC
330
A37F
100
AcDbEntity
  8
DEFPOINTS
 62
     0
100
AcDbPoint
 10
4439.438882653596
 20
257.4581492193231
 30
0.0
  0
POINT
  5
A8AD
330
A37F
100
AcDbEntity
  8
DEFPOINTS
 62
     0
100
AcDbPoint
 10
4439.438882653596
 20
173.3019616760475
 30
0.0
  0
ENDBLK
  5
A38A
330
A37F
100
AcDbEntity
  8
0
100
AcDbBlockEnd
  0
BLOCK
  5
A397
330
A38B
100
AcDbEntity
  8
0
100
AcDbBlockBegin
  2
*D158
 70
     1
 10
0.0
 20
0.0
 30
0.0
  3
*D158
  1

  0
LINE
  5
A8AE
330
A38B
100
AcDbEntity
  8
寸法引出
370
    -2
100
AcDbLine
 10
3719.438882653597
 20
247.4581492193231
 30
0.0
 11
3719.438882653597
 21
168.3019616760475
 31
0.0
  0
LINE
  5
A8AF
330
A38B
100
AcDbEntity
  8
寸法引出
370
    -2
100
AcDbLine
 10
3739.438882653597
 20
247.4581492193231
 30
0.0
 11
3739.438882653597
 21
168.3019616760475
 31
0.0
  0
LINE
  5
A8B0
330
A38B
100
AcDbEntity
  8
寸法引出
370
    -2
100
AcDbLine
 10
3704.438882653596
 20
173.3019616760475
 30
0.0
 11
3689.438882653597
 21
173.3019616760475
 31
0.0
  0
LINE
  5
A8B1
330
A38B
100
AcDbEntity
  8
寸法引出
370
    -2
100
AcDbLine
 10
3754.438882653597
 20
173.3019616760475
 30
0.0
 11
3769.438882653596
 21
173.3019616760475
 31
0.0
  0
LINE
  5
A8B2
330
A38B
100
AcDbEntity
  8
寸法引出
370
    -2
100
AcDbLine
 10
3719.438882653597
 20
173.3019616760475
 30
0.0
 11
3739.438882653597
 21
173.3019616760475
 31
0.0
  0
SOLID
  5
A8B3
330
A38B
100
AcDbEntity
  8
寸法引出
100
AcDbTrace
 10
3704.438882653596
 20
175.8019616760475
 30
0.0
 11
3704.438882653596
 21
170.8019616760475
 31
0.0
 12
3719.438882653597
 22
173.3019616760475
 32
0.0
 13
3719.438882653597
 23
173.3019616760475
 33
0.0
  0
SOLID
  5
A8B4
330
A38B
100
AcDbEntity
  8
寸法引出
100
AcDbTrace
 10
3754.438882653597
 20
175.8019616760475
 30
0.0
 11
3754.438882653597
 21
170.8019616760475
 31
0.0
 12
3739.438882653597
 22
173.3019616760475
 32
0.0
 13
3739.438882653597
 23
173.3019616760475
 33
0.0
  0
MTEXT
  5
A8B5
330
A38B
100
AcDbEntity
  8
寸法引出
100
AcDbMText
 10
3729.438882653596
 20
193.3019616760475
 30
0.0
 40
20.0
 41
0.0
 71
     5
 72
     1
  1
\A1;20
  7
SANWA
 73
     1
 44
1.0
1001
ACAD
1000
MTEXTBEGIN
1070
    73
1070
     1
1070
    44
1040
1.0
1070
    74
1070
     0
1000
MTEXTEND
  0
POINT
  5
A8B6
330
A38B
100
AcDbEntity
  8
DEFPOINTS
 62
     0
100
AcDbPoint
 10
3719.438882653597
 20
257.4581492193231
 30
0.0
  0
POINT
  5
A8B7
330
A38B
100
AcDbEntity
  8
DEFPOINTS
 62
     0
100
AcDbPoint
 10
3739.438882653597
 20
257.4581492193231
 30
0.0
  0
POINT
  5
A8B8
330
A38B
100
AcDbEntity
  8
DEFPOINTS
 62
     0
100
AcDbPoint
 10
3739.438882653597
 20
173.3019616760475
 30
0.0
  0
ENDBLK
  5
A398
330
A38B
100
AcDbEntity
  8
0
100
AcDbBlockEnd
  0
BLOCK
  5
A3A4
330
A399
100
AcDbEntity
  8
0
100
AcDbBlockBegin
  2
*D159
 70
     1
 10
0.0
 20
0.0
 30
0.0
  3
*D159
  1

  0
LINE
  5
A8B9
330
A399
100
AcDbEntity
  8
寸法引出
370
    -2
100
AcDbLine
 10
4459.438882653596
 20
247.4581492193231
 30
0.0
 11
4459.438882653596
 21
168.3019616760475
 31
0.0
  0
LINE
  5
A8BA
330
A399
100
AcDbEntity
  8
寸法引出
370
    -2
100
AcDbLine
 10
4424.438882653595
 20
173.3019616760475
 30
0.0
 11
4409.438882653596
 21
173.3019616760475
 31
0.0
  0
LINE
  5
A8BB
330
A399
100
AcDbEntity
  8
寸法引出
370
    -2
100
AcDbLine
 10
4474.438882653596
 20
173.3019616760475
 30
0.0
 11
4489.438882653596
 21
173.3019616760475
 31
0.0
  0
LINE
  5
A8BC
330
A399
100
AcDbEntity
  8
寸法引出
370
    -2
100
AcDbLine
 10
4439.438882653596
 20
173.3019616760475
 30
0.0
 11
4459.438882653596
 21
173.3019616760475
 31
0.0
  0
SOLID
  5
A8BD
330
A399
100
AcDbEntity
  8
寸法引出
100
AcDbTrace
 10
4424.438882653595
 20
175.8019616760475
 30
0.0
 11
4424.438882653595
 21
170.8019616760475
 31
0.0
 12
4439.438882653596
 22
173.3019616760475
 32
0.0
 13
4439.438882653596
 23
173.3019616760475
 33
0.0
  0
SOLID
  5
A8BE
330
A399
100
AcDbEntity
  8
寸法引出
100
AcDbTrace
 10
4474.438882653596
 20
175.8019616760475
 30
0.0
 11
4474.438882653596
 21
170.8019616760475
 31
0.0
 12
4459.438882653596
 22
173.3019616760475
 32
0.0
 13
4459.438882653596
 23
173.3019616760475
 33
0.0
  0
MTEXT
  5
A8BF
330
A399
100
AcDbEntity
  8
寸法引出
100
AcDbMText
 10
4449.438882653596
 20
193.3019616760475
 30
0.0
 40
20.0
 41
0.0
 71
     5
 72
     1
  1
\A1;20
  7
SANWA
 73
     1
 44
1.0
1001
ACAD
1000
MTEXTBEGIN
1070
    73
1070
     1
1070
    44
1040
1.0
1070
    74
1070
     0
1000
MTEXTEND
  0
POINT
  5
A8C0
330
A399
100
AcDbEntity
  8
DEFPOINTS
 62
     0
100
AcDbPoint
 10
4439.438882653596
 20
257.4581492193231
 30
0.0
  0
POINT
  5
A8C1
330
A399
100
AcDbEntity
  8
DEFPOINTS
 62
     0
100
AcDbPoint
 10
4459.438882653596
 20
257.4581492193231
 30
0.0
  0
POINT
  5
A8C2
330
A399
100
AcDbEntity
  8
DEFPOINTS
 62
     0
100
AcDbPoint
 10
4459.438882653596
 20
173.3019616760475
 30
0.0
  0
ENDBLK
  5
A3A5
330
A399
100
AcDbEntity
  8
0
100
AcDbBlockEnd
  0
BLOCK
  5
A3B0
330
A3A6
100
AcDbEntity
  8
0
100
AcDbBlockBegin
  2
*D160
 70
     1
 10
0.0
 20
0.0
 30
0.0
  3
*D160
  1

  0
LINE
  5
A8C3
330
A3A6
100
AcDbEntity
  8
寸法引出
370
    -2
100
AcDbLine
 10
4469.438882653596
 20
257.4581492193231
 30
0.0
 11
4645.567398143559
 21
257.458149219323
 31
0.0
  0
LINE
  5
A8C4
330
A3A6
100
AcDbEntity
  8
寸法引出
370
    -2
100
AcDbLine
 10
4469.438882653596
 20
317.4581492193231
 30
0.0
 11
4645.567398143559
 21
317.458149219323
 31
0.0
  0
LINE
  5
A8C5
330
A3A6
100
AcDbEntity
  8
寸法引出
370
    -2
100
AcDbLine
 10
4640.567398143558
 20
272.458149219323
 30
0.0
 11
4640.567398143558
 21
302.4581492193231
 31
0.0
  0
SOLID
  5
A8C6
330
A3A6
100
AcDbEntity
  8
寸法引出
100
AcDbTrace
 10
4638.067398143559
 20
272.458149219323
 30
0.0
 11
4643.06739814356
 21
272.458149219323
 31
0.0
 12
4640.567398143558
 22
257.458149219323
 32
0.0
 13
4640.567398143558
 23
257.458149219323
 33
0.0
  0
SOLID
  5
A8C7
330
A3A6
100
AcDbEntity
  8
寸法引出
100
AcDbTrace
 10
4638.067398143559
 20
302.4581492193231
 30
0.0
 11
4643.06739814356
 21
302.4581492193231
 31
0.0
 12
4640.567398143558
 22
317.458149219323
 32
0.0
 13
4640.567398143558
 23
317.458149219323
 33
0.0
  0
MTEXT
  5
A8C8
330
A3A6
100
AcDbEntity
  8
寸法引出
100
AcDbMText
 10
4620.567398143559
 20
287.4581492193238
 30
0.0
 40
20.0
 41
0.0
 71
     5
 72
     1
  1
\A1;60
  7
SANWA
 11
0.0000000000000001
 21
1.0
 31
0.0
 73
     1
 44
1.0
1001
ACAD
1000
MTEXTBEGIN
1070
    73
1070
     1
1070
    44
1040
1.0
1070
    74
1070
     0
1000
MTEXTEND
  0
POINT
  5
A8C9
330
A3A6
100
AcDbEntity
  8
DEFPOINTS
 62
     0
100
AcDbPoint
 10
4459.438882653596
 20
257.4581492193231
 30
0.0
  0
POINT
  5
A8CA
330
A3A6
100
AcDbEntity
  8
DEFPOINTS
 62
     0
100
AcDbPoint
 10
4459.438882653596
 20
317.4581492193231
 30
0.0
  0
POINT
  5
A8CB
330
A3A6
100
AcDbEntity
  8
DEFPOINTS
 62
     0
100
AcDbPoint
 10
4640.567398143558
 20
317.458149219323
 30
0.0
  0
ENDBLK
  5
A3B1
330
A3A6
100
AcDbEntity
  8
0
100
AcDbBlockEnd
  0
BLOCK
  5
A3BC
330
A3B2
100
AcDbEntity
  8
0
100
AcDbBlockBegin
  2
*D161
 70
     1
 10
0.0
 20
0.0
 30
0.0
  3
*D161
  1

  0
LINE
  5
A8CC
330
A3B2
100
AcDbEntity
  8
寸法引出
370
    -2
100
AcDbLine
 10
4713.747332448276
 20
1527.096612352652
 30
0.0
 11
4713.747332448276
 21
1436.764112585882
 31
0.0
  0
LINE
  5
A8CD
330
A3B2
100
AcDbEntity
  8
寸法引出
370
    -2
100
AcDbLine
 10
5593.747332448277
 20
1527.096612352652
 30
0.0
 11
5593.747332448277
 21
1436.764112585882
 31
0.0
  0
LINE
  5
A8CE
330
A3B2
100
AcDbEntity
  8
寸法引出
370
    -2
100
AcDbLine
 10
4728.747332448276
 20
1441.764112585883
 30
0.0
 11
5578.747332448276
 21
1441.764112585883
 31
0.0
  0
SOLID
  5
A8CF
330
A3B2
100
AcDbEntity
  8
寸法引出
100
AcDbTrace
 10
4728.747332448276
 20
1444.264112585883
 30
0.0
 11
4728.747332448276
 21
1439.264112585882
 31
0.0
 12
4713.747332448276
 22
1441.764112585883
 32
0.0
 13
4713.747332448276
 23
1441.764112585883
 33
0.0
  0
SOLID
  5
A8D0
330
A3B2
100
AcDbEntity
  8
寸法引出
100
AcDbTrace
 10
5578.747332448276
 20
1444.264112585883
 30
0.0
 11
5578.747332448276
 21
1439.264112585882
 31
0.0
 12
5593.747332448277
 22
1441.764112585883
 32
0.0
 13
5593.747332448277
 23
1441.764112585883
 33
0.0
  0
MTEXT
  5
A8D1
330
A3B2
100
AcDbEntity
  8
寸法引出
100
AcDbMText
 10
5153.747332448276
 20
1463.021255443025
 30
0.0
 40
20.0
 41
0.0
 71
     5
 72
     1
  1
\A1;4@220=880
  7
SANWA
 73
     1
 44
1.0
1001
ACAD
1000
MTEXTBEGIN
1070
    73
1070
     1
1070
    44
1040
1.0
1070
    74
1070
     0
1000
MTEXTEND
  0
POINT
  5
A8D2
330
A3B2
100
AcDbEntity
  8
DEFPOINTS
 62
     0
100
AcDbPoint
 10
4713.747332448276
 20
1537.096612352652
 30
0.0
  0
POINT
  5
A8D3
330
A3B2
100
AcDbEntity
  8
DEFPOINTS
 62
     0
100
AcDbPoint
 10
5593.747332448277
 20
1537.096612352652
 30
0.0
  0
POINT
  5
A8D4
330
A3B2
100
AcDbEntity
  8
DEFPOINTS
 62
     0
100
AcDbPoint
 10
5593.747332448277
 20
1441.764112585883
 30
0.0
  0
ENDBLK
  5
A3BD
330
A3B2
100
AcDbEntity
  8
0
100
AcDbBlockEnd
  0
BLOCK
  5
A3C8
330
A3BE
100
AcDbEntity
  8
0
100
AcDbBlockBegin
  2
*D162
 70
     1
 10
0.0
 20
0.0
 30
0.0
  3
*D162
  1

  0
LINE
  5
A8D5
330
A3BE
100
AcDbEntity
  8
寸法引出
370
    -2
100
AcDbLine
 10
4668.747332448275
 20
1527.096612352652
 30
0.0
 11
4668.747332448275
 21
1478.40076501817
 31
0.0
  0
LINE
  5
A8D6
330
A3BE
100
AcDbEntity
  8
寸法引出
370
    -2
100
AcDbLine
 10
5638.747332448275
 20
1527.096612352652
 30
0.0
 11
5638.747332448275
 21
1478.40076501817
 31
0.0
  0
LINE
  5
A8D7
330
A3BE
100
AcDbEntity
  8
寸法引出
370
    -2
100
AcDbLine
 10
4683.747332448276
 20
1483.40076501817
 30
0.0
 11
5623.747332448275
 21
1483.40076501817
 31
0.0
  0
SOLID
  5
A8D8
330
A3BE
100
AcDbEntity
  8
寸法引出
100
AcDbTrace
 10
4683.747332448276
 20
1485.90076501817
 30
0.0
 11
4683.747332448276
 21
1480.90076501817
 31
0.0
 12
4668.747332448275
 22
1483.40076501817
 32
0.0
 13
4668.747332448275
 23
1483.40076501817
 33
0.0
  0
SOLID
  5
A8D9
330
A3BE
100
AcDbEntity
  8
寸法引出
100
AcDbTrace
 10
5623.747332448275
 20
1485.90076501817
 30
0.0
 11
5623.747332448275
 21
1480.90076501817
 31
0.0
 12
5638.747332448275
 22
1483.40076501817
 32
0.0
 13
5638.747332448275
 23
1483.40076501817
 33
0.0
  0
MTEXT
  5
A8DA
330
A3BE
100
AcDbEntity
  8
寸法引出
100
AcDbMText
 10
5153.747332448276
 20
1503.40076501817
 30
0.0
 40
20.0
 41
0.0
 71
     5
 72
     1
  1
\A1;970
  7
SANWA
 73
     1
 44
1.0
1001
ACAD
1000
MTEXTBEGIN
1070
    73
1070
     1
1070
    44
1040
1.0
1070
    74
1070
     0
1000
MTEXTEND
  0
POINT
  5
A8DB
330
A3BE
100
AcDbEntity
  8
DEFPOINTS
 62
     0
100
AcDbPoint
 10
4668.747332448275
 20
1537.096612352652
 30
0.0
  0
POINT
  5
A8DC
330
A3BE
100
AcDbEntity
  8
DEFPOINTS
 62
     0
100
AcDbPoint
 10
5638.747332448275
 20
1537.096612352652
 30
0.0
  0
POINT
  5
A8DD
330
A3BE
100
AcDbEntity
  8
DEFPOINTS
 62
     0
100
AcDbPoint
 10
5638.747332448275
 20
1483.40076501817
 30
0.0
  0
ENDBLK
  5
A3C9
330
A3BE
100
AcDbEntity
  8
0
100
AcDbBlockEnd
  0
BLOCK
  5
A3D4
330
A3CA
100
AcDbEntity
  8
0
100
AcDbBlockBegin
  2
*D163
 70
     1
 10
0.0
 20
0.0
 30
0.0
  3
*D163
  1

  0
LINE
  5
A8DE
330
A3CA
100
AcDbEntity
  8
寸法引出
370
    -2
100
AcDbLine
 10
4653.747332448276
 20
1667.096612352652
 30
0.0
 11
4653.747332448276
 21
1756.225684082781
 31
0.0
  0
LINE
  5
A8DF
330
A3CA
100
AcDbEntity
  8
寸法引出
370
    -2
100
AcDbLine
 10
5653.747332448276
 20
1667.096612352652
 30
0.0
 11
5653.747332448276
 21
1756.225684082781
 31
0.0
  0
LINE
  5
A8E0
330
A3CA
100
AcDbEntity
  8
寸法引出
370
    -2
100
AcDbLine
 10
4668.747332448275
 20
1751.225684082781
 30
0.0
 11
5638.747332448276
 21
1751.225684082781
 31
0.0
  0
SOLID
  5
A8E1
330
A3CA
100
AcDbEntity
  8
寸法引出
100
AcDbTrace
 10
4668.747332448275
 20
1753.725684082781
 30
0.0
 11
4668.747332448275
 21
1748.725684082781
 31
0.0
 12
4653.747332448276
 22
1751.225684082781
 32
0.0
 13
4653.747332448276
 23
1751.225684082781
 33
0.0
  0
SOLID
  5
A8E2
330
A3CA
100
AcDbEntity
  8
寸法引出
100
AcDbTrace
 10
5638.747332448276
 20
1753.725684082781
 30
0.0
 11
5638.747332448276
 21
1748.725684082781
 31
0.0
 12
5653.747332448276
 22
1751.225684082781
 32
0.0
 13
5653.747332448276
 23
1751.225684082781
 33
0.0
  0
MTEXT
  5
A8E3
330
A3CA
100
AcDbEntity
  8
寸法引出
100
AcDbMText
 10
5153.747332448276
 20
1771.225684082781
 30
0.0
 40
20.0
 41
0.0
 71
     5
 72
     1
  1
\A1;1000
  7
SANWA
 73
     1
 44
1.0
1001
ACAD
1000
MTEXTBEGIN
1070
    73
1070
     1
1070
    44
1040
1.0
1070
    74
1070
     0
1000
MTEXTEND
  0
POINT
  5
A8E4
330
A3CA
100
AcDbEntity
  8
DEFPOINTS
 62
     0
100
AcDbPoint
 10
4653.747332448276
 20
1657.096612352652
 30
0.0
  0
POINT
  5
A8E5
330
A3CA
100
AcDbEntity
  8
DEFPOINTS
 62
     0
100
AcDbPoint
 10
5653.747332448276
 20
1657.096612352652
 30
0.0
  0
POINT
  5
A8E6
330
A3CA
100
AcDbEntity
  8
DEFPOINTS
 62
     0
100
AcDbPoint
 10
5653.747332448276
 20
1751.225684082781
 30
0.0
  0
ENDBLK
  5
A3D5
330
A3CA
100
AcDbEntity
  8
0
100
AcDbBlockEnd
  0
BLOCK
  5
A3E0
330
A3D6
100
AcDbEntity
  8
0
100
AcDbBlockBegin
  2
*D164
 70
     1
 10
0.0
 20
0.0
 30
0.0
  3
*D164
  1

  0
LINE
  5
A8E7
330
A3D6
100
AcDbEntity
  8
寸法引出
370
    -2
100
AcDbLine
 10
4703.747332448275
 20
1667.096612352652
 30
0.0
 11
4703.747332448275
 21
1721.340922798596
 31
0.0
  0
LINE
  5
A8E8
330
A3D6
100
AcDbEntity
  8
寸法引出
370
    -2
100
AcDbLine
 10
5603.747332448276
 20
1667.096612352652
 30
0.0
 11
5603.747332448276
 21
1721.340922798596
 31
0.0
  0
LINE
  5
A8E9
330
A3D6
100
AcDbEntity
  8
寸法引出
370
    -2
100
AcDbLine
 10
4718.747332448276
 20
1716.340922798596
 30
0.0
 11
5588.747332448276
 21
1716.340922798596
 31
0.0
  0
SOLID
  5
A8EA
330
A3D6
100
AcDbEntity
  8
寸法引出
100
AcDbTrace
 10
4718.747332448276
 20
1718.840922798596
 30
0.0
 11
4718.747332448276
 21
1713.840922798596
 31
0.0
 12
4703.747332448275
 22
1716.340922798596
 32
0.0
 13
4703.747332448275
 23
1716.340922798596
 33
0.0
  0
SOLID
  5
A8EB
330
A3D6
100
AcDbEntity
  8
寸法引出
100
AcDbTrace
 10
5588.747332448276
 20
1718.840922798596
 30
0.0
 11
5588.747332448276
 21
1713.840922798596
 31
0.0
 12
5603.747332448276
 22
1716.340922798596
 32
0.0
 13
5603.747332448276
 23
1716.340922798596
 33
0.0
  0
MTEXT
  5
A8EC
330
A3D6
100
AcDbEntity
  8
寸法引出
100
AcDbMText
 10
5153.747332448276
 20
1736.340922798596
 30
0.0
 40
20.0
 41
0.0
 71
     5
 72
     1
  1
\A1;900
  7
SANWA
 73
     1
 44
1.0
1001
ACAD
1000
MTEXTBEGIN
1070
    73
1070
     1
1070
    44
1040
1.0
1070
    74
1070
     0
1000
MTEXTEND
  0
POINT
  5
A8ED
330
A3D6
100
AcDbEntity
  8
DEFPOINTS
 62
     0
100
AcDbPoint
 10
4703.747332448275
 20
1657.096612352652
 30
0.0
  0
POINT
  5
A8EE
330
A3D6
100
AcDbEntity
  8
DEFPOINTS
 62
     0
100
AcDbPoint
 10
5603.747332448276
 20
1657.096612352652
 30
0.0
  0
POINT
  5
A8EF
330
A3D6
100
AcDbEntity
  8
DEFPOINTS
 62
     0
100
AcDbPoint
 10
5603.747332448276
 20
1716.340922798596
 30
0.0
  0
ENDBLK
  5
A3E1
330
A3D6
100
AcDbEntity
  8
0
100
AcDbBlockEnd
  0
BLOCK
  5
A3EC
330
A3E2
100
AcDbEntity
  8
0
100
AcDbBlockBegin
  2
*D165
 70
     1
 10
0.0
 20
0.0
 30
0.0
  3
*D165
  1

  0
LINE
  5
A8F0
330
A3E2
100
AcDbEntity
  8
寸法引出
370
    -2
100
AcDbLine
 10
3719.438882653597
 20
1667.096612352652
 30
0.0
 11
3719.438882653597
 21
1766.585890032234
 31
0.0
  0
LINE
  5
A8F1
330
A3E2
100
AcDbEntity
  8
寸法引出
370
    -2
100
AcDbLine
 10
4459.438882653596
 20
1667.096612352652
 30
0.0
 11
4459.438882653596
 21
1766.585890032234
 31
0.0
  0
LINE
  5
A8F2
330
A3E2
100
AcDbEntity
  8
寸法引出
370
    -2
100
AcDbLine
 10
3734.438882653597
 20
1761.585890032234
 30
0.0
 11
4444.438882653596
 21
1761.585890032234
 31
0.0
  0
SOLID
  5
A8F3
330
A3E2
100
AcDbEntity
  8
寸法引出
100
AcDbTrace
 10
3734.438882653597
 20
1764.085890032234
 30
0.0
 11
3734.438882653597
 21
1759.085890032234
 31
0.0
 12
3719.438882653597
 22
1761.585890032234
 32
0.0
 13
3719.438882653597
 23
1761.585890032234
 33
0.0
  0
SOLID
  5
A8F4
330
A3E2
100
AcDbEntity
  8
寸法引出
100
AcDbTrace
 10
4444.438882653596
 20
1764.085890032234
 30
0.0
 11
4444.438882653596
 21
1759.085890032234
 31
0.0
 12
4459.438882653596
 22
1761.585890032234
 32
0.0
 13
4459.438882653596
 23
1761.585890032234
 33
0.0
  0
MTEXT
  5
A8F5
330
A3E2
100
AcDbEntity
  8
寸法引出
100
AcDbMText
 10
4089.438882653595
 20
1781.585890032235
 30
0.0
 40
20.0
 41
0.0
 71
     5
 72
     1
  1
\A1;740
  7
SANWA
 73
     1
 44
1.0
1001
ACAD
1000
MTEXTBEGIN
1070
    73
1070
     1
1070
    44
1040
1.0
1070
    74
1070
     0
1000
MTEXTEND
  0
POINT
  5
A8F6
330
A3E2
100
AcDbEntity
  8
DEFPOINTS
 62
     0
100
AcDbPoint
 10
3719.438882653597
 20
1657.096612352652
 30
0.0
  0
POINT
  5
A8F7
330
A3E2
100
AcDbEntity
  8
DEFPOINTS
 62
     0
100
AcDbPoint
 10
4459.438882653596
 20
1657.096612352652
 30
0.0
  0
POINT
  5
A8F8
330
A3E2
100
AcDbEntity
  8
DEFPOINTS
 62
     0
100
AcDbPoint
 10
4459.438882653596
 20
1761.585890032234
 30
0.0
  0
ENDBLK
  5
A3ED
330
A3E2
100
AcDbEntity
  8
0
100
AcDbBlockEnd
  0
BLOCK
  5
A3F8
330
A3EE
100
AcDbEntity
  8
0
100
AcDbBlockBegin
  2
*D166
 70
     1
 10
0.0
 20
0.0
 30
0.0
  3
*D166
  1

  0
LINE
  5
A8F9
330
A3EE
100
AcDbEntity
  8
寸法引出
370
    -2
100
AcDbLine
 10
3719.438882653597
 20
1667.096612352652
 30
0.0
 11
3719.438882653597
 21
1722.02984683485
 31
0.0
  0
LINE
  5
A8FA
330
A3EE
100
AcDbEntity
  8
寸法引出
370
    -2
100
AcDbLine
 10
3794.438882653596
 20
1667.096612352652
 30
0.0
 11
3794.438882653596
 21
1722.02984683485
 31
0.0
  0
LINE
  5
A8FB
330
A3EE
100
AcDbEntity
  8
寸法引出
370
    -2
100
AcDbLine
 10
3734.438882653597
 20
1717.02984683485
 30
0.0
 11
3779.438882653597
 21
1717.02984683485
 31
0.0
  0
SOLID
  5
A8FC
330
A3EE
100
AcDbEntity
  8
寸法引出
100
AcDbTrace
 10
3734.438882653597
 20
1719.52984683485
 30
0.0
 11
3734.438882653597
 21
1714.52984683485
 31
0.0
 12
3719.438882653597
 22
1717.02984683485
 32
0.0
 13
3719.438882653597
 23
1717.02984683485
 33
0.0
  0
SOLID
  5
A8FD
330
A3EE
100
AcDbEntity
  8
寸法引出
100
AcDbTrace
 10
3779.438882653597
 20
1719.52984683485
 30
0.0
 11
3779.438882653597
 21
1714.52984683485
 31
0.0
 12
3794.438882653596
 22
1717.02984683485
 32
0.0
 13
3794.438882653596
 23
1717.02984683485
 33
0.0
  0
MTEXT
  5
A8FE
330
A3EE
100
AcDbEntity
  8
寸法引出
100
AcDbMText
 10
3756.938882653596
 20
1737.02984683485
 30
0.0
 40
20.0
 41
0.0
 71
     5
 72
     1
  1
\A1;75
  7
SANWA
 73
     1
 44
1.0
1001
ACAD
1000
MTEXTBEGIN
1070
    73
1070
     1
1070
    44
1040
1.0
1070
    74
1070
     0
1000
MTEXTEND
  0
POINT
  5
A8FF
330
A3EE
100
AcDbEntity
  8
DEFPOINTS
 62
     0
100
AcDbPoint
 10
3719.438882653597
 20
1657.096612352652
 30
0.0
  0
POINT
  5
A900
330
A3EE
100
AcDbEntity
  8
DEFPOINTS
 62
     0
100
AcDbPoint
 10
3794.438882653596
 20
1657.096612352652
 30
0.0
  0
POINT
  5
A901
330
A3EE
100
AcDbEntity
  8
DEFPOINTS
 62
     0
100
AcDbPoint
 10
3794.438882653596
 20
1717.02984683485
 30
0.0
  0
ENDBLK
  5
A3F9
330
A3EE
100
AcDbEntity
  8
0
100
AcDbBlockEnd
  0
BLOCK
  5
A403
330
A3FA
100
AcDbEntity
  8
0
100
AcDbBlockBegin
  2
*D167
 70
     1
 10
0.0
 20
0.0
 30
0.0
  3
*D167
  1

  0
LINE
  5
A902
330
A3FA
100
AcDbEntity
  8
寸法引出
370
    -2
100
AcDbLine
 10
4459.438882653596
 20
1667.096612352652
 30
0.0
 11
4459.438882653596
 21
1722.02984683485
 31
0.0
  0
LINE
  5
A903
330
A3FA
100
AcDbEntity
  8
寸法引出
370
    -2
100
AcDbLine
 10
4399.438882653596
 20
1717.02984683485
 30
0.0
 11
4444.438882653596
 21
1717.02984683485
 31
0.0
  0
SOLID
  5
A904
330
A3FA
100
AcDbEntity
  8
寸法引出
100
AcDbTrace
 10
4399.438882653596
 20
1719.52984683485
 30
0.0
 11
4399.438882653596
 21
1714.52984683485
 31
0.0
 12
4384.438882653596
 22
1717.02984683485
 32
0.0
 13
4384.438882653596
 23
1717.02984683485
 33
0.0
  0
SOLID
  5
A905
330
A3FA
100
AcDbEntity
  8
寸法引出
100
AcDbTrace
 10
4444.438882653596
 20
1719.52984683485
 30
0.0
 11
4444.438882653596
 21
1714.52984683485
 31
0.0
 12
4459.438882653596
 22
1717.02984683485
 32
0.0
 13
4459.438882653596
 23
1717.02984683485
 33
0.0
  0
MTEXT
  5
A906
330
A3FA
100
AcDbEntity
  8
寸法引出
100
AcDbMText
 10
4421.938882653596
 20
1737.02984683485
 30
0.0
 40
20.0
 41
0.0
 71
     5
 72
     1
  1
\A1;75
  7
SANWA
 73
     1
 44
1.0
1001
ACAD
1000
MTEXTBEGIN
1070
    73
1070
     1
1070
    44
1040
1.0
1070
    74
1070
     0
1000
MTEXTEND
  0
POINT
  5
A907
330
A3FA
100
AcDbEntity
  8
DEFPOINTS
 62
     0
100
AcDbPoint
 10
4384.438882653596
 20
1657.096612352652
 30
0.0
  0
POINT
  5
A908
330
A3FA
100
AcDbEntity
  8
DEFPOINTS
 62
     0
100
AcDbPoint
 10
4459.438882653596
 20
1657.096612352652
 30
0.0
  0
POINT
  5
A909
330
A3FA
100
AcDbEntity
  8
DEFPOINTS
 62
     0
100
AcDbPoint
 10
4459.438882653596
 20
1717.02984683485
 30
0.0
  0
ENDBLK
  5
A404
330
A3FA
100
AcDbEntity
  8
0
100
AcDbBlockEnd
  0
BLOCK
  5
A40F
330
A405
100
AcDbEntity
  8
0
100
AcDbBlockBegin
  2
*D168
 70
     1
 10
0.0
 20
0.0
 30
0.0
  3
*D168
  1

  0
LINE
  5
A90A
330
A405
100
AcDbEntity
  8
寸法引出
370
    -2
100
AcDbLine
 10
3794.438882653596
 20
1667.096612352652
 30
0.0
 11
3794.438882653596
 21
1722.02984683485
 31
0.0
  0
LINE
  5
A90B
330
A405
100
AcDbEntity
  8
寸法引出
370
    -2
100
AcDbLine
 10
4384.438882653596
 20
1667.096612352652
 30
0.0
 11
4384.438882653596
 21
1722.02984683485
 31
0.0
  0
LINE
  5
A90C
330
A405
100
AcDbEntity
  8
寸法引出
370
    -2
100
AcDbLine
 10
3809.438882653597
 20
1717.02984683485
 30
0.0
 11
4369.438882653596
 21
1717.02984683485
 31
0.0
  0
SOLID
  5
A90D
330
A405
100
AcDbEntity
  8
寸法引出
100
AcDbTrace
 10
3809.438882653597
 20
1719.52984683485
 30
0.0
 11
3809.438882653597
 21
1714.52984683485
 31
0.0
 12
3794.438882653596
 22
1717.02984683485
 32
0.0
 13
3794.438882653596
 23
1717.02984683485
 33
0.0
  0
SOLID
  5
A90E
330
A405
100
AcDbEntity
  8
寸法引出
100
AcDbTrace
 10
4369.438882653596
 20
1719.52984683485
 30
0.0
 11
4369.438882653596
 21
1714.52984683485
 31
0.0
 12
4384.438882653596
 22
1717.02984683485
 32
0.0
 13
4384.438882653596
 23
1717.02984683485
 33
0.0
  0
MTEXT
  5
A90F
330
A405
100
AcDbEntity
  8
寸法引出
100
AcDbMText
 10
4089.438882653595
 20
1737.02984683485
 30
0.0
 40
20.0
 41
0.0
 71
     5
 72
     1
  1
\A1;590
  7
SANWA
 73
     1
 44
1.0
1001
ACAD
1000
MTEXTBEGIN
1070
    73
1070
     1
1070
    44
1040
1.0
1070
    74
1070
     0
1000
MTEXTEND
  0
POINT
  5
A910
330
A405
100
AcDbEntity
  8
DEFPOINTS
 62
     0
100
AcDbPoint
 10
3794.438882653596
 20
1657.096612352652
 30
0.0
  0
POINT
  5
A911
330
A405
100
AcDbEntity
  8
DEFPOINTS
 62
     0
100
AcDbPoint
 10
4384.438882653596
 20
1657.096612352652
 30
0.0
  0
POINT
  5
A912
330
A405
100
AcDbEntity
  8
DEFPOINTS
 62
     0
100
AcDbPoint
 10
4384.438882653596
 20
1717.02984683485
 30
0.0
  0
ENDBLK
  5
A410
330
A405
100
AcDbEntity
  8
0
100
AcDbBlockEnd
  0
BLOCK
  5
A41B
330
A411
100
AcDbEntity
  8
0
100
AcDbBlockBegin
  2
*D169
 70
     1
 10
0.0
 20
0.0
 30
0.0
  3
*D169
  1

  0
LINE
  5
A913
330
A411
100
AcDbEntity
  8
寸法引出
370
    -2
100
AcDbLine
 10
3719.438882653597
 20
1267.458149219323
 30
0.0
 11
3719.438882653597
 21
1367.163253071997
 31
0.0
  0
LINE
  5
A914
330
A411
100
AcDbEntity
  8
寸法引出
370
    -2
100
AcDbLine
 10
4459.438882653596
 20
1267.458149219323
 30
0.0
 11
4459.438882653596
 21
1367.163253071997
 31
0.0
  0
LINE
  5
A915
330
A411
100
AcDbEntity
  8
寸法引出
370
    -2
100
AcDbLine
 10
3734.438882653597
 20
1362.163253071997
 30
0.0
 11
4444.438882653596
 21
1362.163253071997
 31
0.0
  0
SOLID
  5
A916
330
A411
100
AcDbEntity
  8
寸法引出
100
AcDbTrace
 10
3734.438882653597
 20
1364.663253071997
 30
0.0
 11
3734.438882653597
 21
1359.663253071997
 31
0.0
 12
3719.438882653597
 22
1362.163253071997
 32
0.0
 13
3719.438882653597
 23
1362.163253071997
 33
0.0
  0
SOLID
  5
A917
330
A411
100
AcDbEntity
  8
寸法引出
100
AcDbTrace
 10
4444.438882653596
 20
1364.663253071997
 30
0.0
 11
4444.438882653596
 21
1359.663253071997
 31
0.0
 12
4459.438882653596
 22
1362.163253071997
 32
0.0
 13
4459.438882653596
 23
1362.163253071997
 33
0.0
  0
MTEXT
  5
A918
330
A411
100
AcDbEntity
  8
寸法引出
100
AcDbMText
 10
4089.438882653595
 20
1382.163253071997
 30
0.0
 40
20.0
 41
0.0
 71
     5
 72
     1
  1
\A1;740
  7
SANWA
 73
     1
 44
1.0
1001
ACAD
1000
MTEXTBEGIN
1070
    73
1070
     1
1070
    44
1040
1.0
1070
    74
1070
     0
1000
MTEXTEND
  0
POINT
  5
A919
330
A411
100
AcDbEntity
  8
DEFPOINTS
 62
     0
100
AcDbPoint
 10
3719.438882653597
 20
1257.458149219323
 30
0.0
  0
POINT
  5
A91A
330
A411
100
AcDbEntity
  8
DEFPOINTS
 62
     0
100
AcDbPoint
 10
4459.438882653596
 20
1257.458149219323
 30
0.0
  0
POINT
  5
A91B
330
A411
100
AcDbEntity
  8
DEFPOINTS
 62
     0
100
AcDbPoint
 10
4459.438882653596
 20
1362.163253071997
 30
0.0
  0
ENDBLK
  5
A41C
330
A411
100
AcDbEntity
  8
0
100
AcDbBlockEnd
  0
BLOCK
  5
A426
330
A41D
100
AcDbEntity
  8
0
100
AcDbBlockBegin
  2
*D170
 70
     1
 10
0.0
 20
0.0
 30
0.0
  3
*D170
  1

  0
LINE
  5
A91C
330
A41D
100
AcDbEntity
  8
寸法引出
370
    -2
100
AcDbLine
 10
3986.938882653597
 20
1267.458149219323
 30
0.0
 11
3986.938882653597
 21
1323.163719485398
 31
0.0
  0
LINE
  5
A91D
330
A41D
100
AcDbEntity
  8
寸法引出
370
    -2
100
AcDbLine
 10
3809.438882653597
 20
1318.163719485398
 30
0.0
 11
3971.938882653597
 21
1318.163719485398
 31
0.0
  0
SOLID
  5
A91E
330
A41D
100
AcDbEntity
  8
寸法引出
100
AcDbTrace
 10
3809.438882653597
 20
1320.663719485398
 30
0.0
 11
3809.438882653597
 21
1315.663719485398
 31
0.0
 12
3794.438882653596
 22
1318.163719485398
 32
0.0
 13
3794.438882653596
 23
1318.163719485398
 33
0.0
  0
SOLID
  5
A91F
330
A41D
100
AcDbEntity
  8
寸法引出
100
AcDbTrace
 10
3971.938882653597
 20
1320.663719485398
 30
0.0
 11
3971.938882653597
 21
1315.663719485398
 31
0.0
 12
3986.938882653597
 22
1318.163719485398
 32
0.0
 13
3986.938882653597
 23
1318.163719485398
 33
0.0
  0
MTEXT
  5
A920
330
A41D
100
AcDbEntity
  8
寸法引出
100
AcDbMText
 10
3890.688882653597
 20
1338.163719485398
 30
0.0
 40
20.0
 41
0.0
 71
     5
 72
     1
  1
\A1;192.5
  7
SANWA
 73
     1
 44
1.0
1001
ACAD
1000
MTEXTBEGIN
1070
    73
1070
     1
1070
    44
1040
1.0
1070
    74
1070
     0
1000
MTEXTEND
  0
POINT
  5
A921
330
A41D
100
AcDbEntity
  8
DEFPOINTS
 62
     0
100
AcDbPoint
 10
3794.438882653596
 20
1257.458149219323
 30
0.0
  0
POINT
  5
A922
330
A41D
100
AcDbEntity
  8
DEFPOINTS
 62
     0
100
AcDbPoint
 10
3986.938882653597
 20
1257.458149219323
 30
0.0
  0
POINT
  5
A923
330
A41D
100
AcDbEntity
  8
DEFPOINTS
 62
     0
100
AcDbPoint
 10
3986.938882653597
 20
1318.163719485398
 30
0.0
  0
ENDBLK
  5
A427
330
A41D
100
AcDbEntity
  8
0
100
AcDbBlockEnd
  0
BLOCK
  5
A431
330
A428
100
AcDbEntity
  8
0
100
AcDbBlockBegin
  2
*D171
 70
     1
 10
0.0
 20
0.0
 30
0.0
  3
*D171
  1

  0
LINE
  5
A924
330
A428
100
AcDbEntity
  8
寸法引出
370
    -2
100
AcDbLine
 10
3986.938882653597
 20
1527.096612352652
 30
0.0
 11
3986.938882653597
 21
1475.421881826506
 31
0.0
  0
LINE
  5
A925
330
A428
100
AcDbEntity
  8
寸法引出
370
    -2
100
AcDbLine
 10
3809.438882653597
 20
1480.421881826506
 30
0.0
 11
3971.938882653597
 21
1480.421881826506
 31
0.0
  0
SOLID
  5
A926
330
A428
100
AcDbEntity
  8
寸法引出
100
AcDbTrace
 10
3809.438882653597
 20
1482.921881826506
 30
0.0
 11
3809.438882653597
 21
1477.921881826506
 31
0.0
 12
3794.438882653596
 22
1480.421881826506
 32
0.0
 13
3794.438882653596
 23
1480.421881826506
 33
0.0
  0
SOLID
  5
A927
330
A428
100
AcDbEntity
  8
寸法引出
100
AcDbTrace
 10
3971.938882653597
 20
1482.921881826506
 30
0.0
 11
3971.938882653597
 21
1477.921881826506
 31
0.0
 12
3986.938882653597
 22
1480.421881826506
 32
0.0
 13
3986.938882653597
 23
1480.421881826506
 33
0.0
  0
MTEXT
  5
A928
330
A428
100
AcDbEntity
  8
寸法引出
100
AcDbMText
 10
3890.688882653597
 20
1500.421881826506
 30
0.0
 40
20.0
 41
0.0
 71
     5
 72
     1
  1
\A1;192.5
  7
SANWA
 73
     1
 44
1.0
1001
ACAD
1000
MTEXTBEGIN
1070
    73
1070
     1
1070
    44
1040
1.0
1070
    74
1070
     0
1000
MTEXTEND
  0
POINT
  5
A929
330
A428
100
AcDbEntity
  8
DEFPOINTS
 62
     0
100
AcDbPoint
 10
3794.438882653596
 20
1537.096612352652
 30
0.0
  0
POINT
  5
A92A
330
A428
100
AcDbEntity
  8
DEFPOINTS
 62
     0
100
AcDbPoint
 10
3986.938882653597
 20
1537.096612352652
 30
0.0
  0
POINT
  5
A92B
330
A428
100
AcDbEntity
  8
DEFPOINTS
 62
     0
100
AcDbPoint
 10
3986.938882653597
 20
1480.421881826506
 30
0.0
  0
ENDBLK
  5
A432
330
A428
100
AcDbEntity
  8
0
100
AcDbBlockEnd
  0
BLOCK
  5
A43D
330
A433
100
AcDbEntity
  8
0
100
AcDbBlockBegin
  2
*D172
 70
     1
 10
0.0
 20
0.0
 30
0.0
  3
*D172
  1

  0
LINE
  5
A92C
330
A433
100
AcDbEntity
  8
寸法引出
370
    -2
100
AcDbLine
 10
3719.438882653597
 20
1267.458149219323
 30
0.0
 11
3719.438882653597
 21
1323.163719485398
 31
0.0
  0
LINE
  5
A92D
330
A433
100
AcDbEntity
  8
寸法引出
370
    -2
100
AcDbLine
 10
3794.438882653596
 20
1267.458149219323
 30
0.0
 11
3794.438882653596
 21
1323.163719485398
 31
0.0
  0
LINE
  5
A92E
330
A433
100
AcDbEntity
  8
寸法引出
370
    -2
100
AcDbLine
 10
3734.438882653597
 20
1318.163719485398
 30
0.0
 11
3779.438882653597
 21
1318.163719485398
 31
0.0
  0
SOLID
  5
A92F
330
A433
100
AcDbEntity
  8
寸法引出
100
AcDbTrace
 10
3734.438882653597
 20
1320.663719485398
 30
0.0
 11
3734.438882653597
 21
1315.663719485398
 31
0.0
 12
3719.438882653597
 22
1318.163719485398
 32
0.0
 13
3719.438882653597
 23
1318.163719485398
 33
0.0
  0
SOLID
  5
A930
330
A433
100
AcDbEntity
  8
寸法引出
100
AcDbTrace
 10
3779.438882653597
 20
1320.663719485398
 30
0.0
 11
3779.438882653597
 21
1315.663719485398
 31
0.0
 12
3794.438882653596
 22
1318.163719485398
 32
0.0
 13
3794.438882653596
 23
1318.163719485398
 33
0.0
  0
MTEXT
  5
A931
330
A433
100
AcDbEntity
  8
寸法引出
100
AcDbMText
 10
3756.938882653596
 20
1338.163719485398
 30
0.0
 40
20.0
 41
0.0
 71
     5
 72
     1
  1
\A1;75
  7
SANWA
 73
     1
 44
1.0
1001
ACAD
1000
MTEXTBEGIN
1070
    73
1070
     1
1070
    44
1040
1.0
1070
    74
1070
     0
1000
MTEXTEND
  0
POINT
  5
A932
330
A433
100
AcDbEntity
  8
DEFPOINTS
 62
     0
100
AcDbPoint
 10
3719.438882653597
 20
1257.458149219323
 30
0.0
  0
POINT
  5
A933
330
A433
100
AcDbEntity
  8
DEFPOINTS
 62
     0
100
AcDbPoint
 10
3794.438882653596
 20
1257.458149219323
 30
0.0
  0
POINT
  5
A934
330
A433
100
AcDbEntity
  8
DEFPOINTS
 62
     0
100
AcDbPoint
 10
3794.438882653596
 20
1318.163719485398
 30
0.0
  0
ENDBLK
  5
A43E
330
A433
100
AcDbEntity
  8
0
100
AcDbBlockEnd
  0
BLOCK
  5
A449
330
A43F
100
AcDbEntity
  8
0
100
AcDbBlockBegin
  2
*D173
 70
     1
 10
0.0
 20
0.0
 30
0.0
  3
*D173
  1

  0
LINE
  5
A935
330
A43F
100
AcDbEntity
  8
寸法引出
370
    -2
100
AcDbLine
 10
3719.438882653597
 20
1527.096612352652
 30
0.0
 11
3719.438882653597
 21
1475.421881826506
 31
0.0
  0
LINE
  5
A936
330
A43F
100
AcDbEntity
  8
寸法引出
370
    -2
100
AcDbLine
 10
3794.438882653596
 20
1527.096612352652
 30
0.0
 11
3794.438882653596
 21
1475.421881826506
 31
0.0
  0
LINE
  5
A937
330
A43F
100
AcDbEntity
  8
寸法引出
370
    -2
100
AcDbLine
 10
3734.438882653597
 20
1480.421881826506
 30
0.0
 11
3779.438882653597
 21
1480.421881826506
 31
0.0
  0
SOLID
  5
A938
330
A43F
100
AcDbEntity
  8
寸法引出
100
AcDbTrace
 10
3734.438882653597
 20
1482.921881826506
 30
0.0
 11
3734.438882653597
 21
1477.921881826506
 31
0.0
 12
3719.438882653597
 22
1480.421881826506
 32
0.0
 13
3719.438882653597
 23
1480.421881826506
 33
0.0
  0
SOLID
  5
A939
330
A43F
100
AcDbEntity
  8
寸法引出
100
AcDbTrace
 10
3779.438882653597
 20
1482.921881826506
 30
0.0
 11
3779.438882653597
 21
1477.921881826506
 31
0.0
 12
3794.438882653596
 22
1480.421881826506
 32
0.0
 13
3794.438882653596
 23
1480.421881826506
 33
0.0
  0
MTEXT
  5
A93A
330
A43F
100
AcDbEntity
  8
寸法引出
100
AcDbMText
 10
3756.938882653596
 20
1500.421881826506
 30
0.0
 40
20.0
 41
0.0
 71
     5
 72
     1
  1
\A1;75
  7
SANWA
 73
     1
 44
1.0
1001
ACAD
1000
MTEXTBEGIN
1070
    73
1070
     1
1070
    44
1040
1.0
1070
    74
1070
     0
1000
MTEXTEND
  0
POINT
  5
A93B
330
A43F
100
AcDbEntity
  8
DEFPOINTS
 62
     0
100
AcDbPoint
 10
3719.438882653597
 20
1537.096612352652
 30
0.0
  0
POINT
  5
A93C
330
A43F
100
AcDbEntity
  8
DEFPOINTS
 62
     0
100
AcDbPoint
 10
3794.438882653596
 20
1537.096612352652
 30
0.0
  0
POINT
  5
A93D
330
A43F
100
AcDbEntity
  8
DEFPOINTS
 62
     0
100
AcDbPoint
 10
3794.438882653596
 20
1480.421881826506
 30
0.0
  0
ENDBLK
  5
A44A
330
A43F
100
AcDbEntity
  8
0
100
AcDbBlockEnd
  0
BLOCK
  5
A454
330
A44B
100
AcDbEntity
  8
0
100
AcDbBlockBegin
  2
*D174
 70
     1
 10
0.0
 20
0.0
 30
0.0
  3
*D174
  1

  0
LINE
  5
A93E
330
A44B
100
AcDbEntity
  8
寸法引出
370
    -2
100
AcDbLine
 10
4459.438882653596
 20
1267.458149219323
 30
0.0
 11
4459.438882653596
 21
1323.163719485398
 31
0.0
  0
LINE
  5
A93F
330
A44B
100
AcDbEntity
  8
寸法引出
370
    -2
100
AcDbLine
 10
4399.438882653596
 20
1318.163719485398
 30
0.0
 11
4444.438882653596
 21
1318.163719485398
 31
0.0
  0
SOLID
  5
A940
330
A44B
100
AcDbEntity
  8
寸法引出
100
AcDbTrace
 10
4399.438882653596
 20
1320.663719485398
 30
0.0
 11
4399.438882653596
 21
1315.663719485398
 31
0.0
 12
4384.438882653596
 22
1318.163719485398
 32
0.0
 13
4384.438882653596
 23
1318.163719485398
 33
0.0
  0
SOLID
  5
A941
330
A44B
100
AcDbEntity
  8
寸法引出
100
AcDbTrace
 10
4444.438882653596
 20
1320.663719485398
 30
0.0
 11
4444.438882653596
 21
1315.663719485398
 31
0.0
 12
4459.438882653596
 22
1318.163719485398
 32
0.0
 13
4459.438882653596
 23
1318.163719485398
 33
0.0
  0
MTEXT
  5
A942
330
A44B
100
AcDbEntity
  8
寸法引出
100
AcDbMText
 10
4421.938882653596
 20
1338.163719485398
 30
0.0
 40
20.0
 41
0.0
 71
     5
 72
     1
  1
\A1;75
  7
SANWA
 73
     1
 44
1.0
1001
ACAD
1000
MTEXTBEGIN
1070
    73
1070
     1
1070
    44
1040
1.0
1070
    74
1070
     0
1000
MTEXTEND
  0
POINT
  5
A943
330
A44B
100
AcDbEntity
  8
DEFPOINTS
 62
     0
100
AcDbPoint
 10
4384.438882653596
 20
1257.458149219323
 30
0.0
  0
POINT
  5
A944
330
A44B
100
AcDbEntity
  8
DEFPOINTS
 62
     0
100
AcDbPoint
 10
4459.438882653596
 20
1257.458149219323
 30
0.0
  0
POINT
  5
A945
330
A44B
100
AcDbEntity
  8
DEFPOINTS
 62
     0
100
AcDbPoint
 10
4459.438882653596
 20
1318.163719485398
 30
0.0
  0
ENDBLK
  5
A455
330
A44B
100
AcDbEntity
  8
0
100
AcDbBlockEnd
  0
BLOCK
  5
A45F
330
A456
100
AcDbEntity
  8
0
100
AcDbBlockBegin
  2
*D175
 70
     1
 10
0.0
 20
0.0
 30
0.0
  3
*D175
  1

  0
LINE
  5
A946
330
A456
100
AcDbEntity
  8
寸法引出
370
    -2
100
AcDbLine
 10
4384.438882653596
 20
1267.458149219323
 30
0.0
 11
4384.438882653596
 21
1323.163719485398
 31
0.0
  0
LINE
  5
A947
330
A456
100
AcDbEntity
  8
寸法引出
370
    -2
100
AcDbLine
 10
4206.938882653594
 20
1318.163719485398
 30
0.0
 11
4369.438882653596
 21
1318.163719485398
 31
0.0
  0
SOLID
  5
A948
330
A456
100
AcDbEntity
  8
寸法引出
100
AcDbTrace
 10
4206.938882653594
 20
1320.663719485398
 30
0.0
 11
4206.938882653594
 21
1315.663719485398
 31
0.0
 12
4191.938882653594
 22
1318.163719485398
 32
0.0
 13
4191.938882653594
 23
1318.163719485398
 33
0.0
  0
SOLID
  5
A949
330
A456
100
AcDbEntity
  8
寸法引出
100
AcDbTrace
 10
4369.438882653596
 20
1320.663719485398
 30
0.0
 11
4369.438882653596
 21
1315.663719485398
 31
0.0
 12
4384.438882653596
 22
1318.163719485398
 32
0.0
 13
4384.438882653596
 23
1318.163719485398
 33
0.0
  0
MTEXT
  5
A94A
330
A456
100
AcDbEntity
  8
寸法引出
100
AcDbMText
 10
4288.188882653595
 20
1338.163719485398
 30
0.0
 40
20.0
 41
0.0
 71
     5
 72
     1
  1
\A1;192.5
  7
SANWA
 73
     1
 44
1.0
1001
ACAD
1000
MTEXTBEGIN
1070
    73
1070
     1
1070
    44
1040
1.0
1070
    74
1070
     0
1000
MTEXTEND
  0
POINT
  5
A94B
330
A456
100
AcDbEntity
  8
DEFPOINTS
 62
     0
100
AcDbPoint
 10
4191.938882653594
 20
1257.458149219323
 30
0.0
  0
POINT
  5
A94C
330
A456
100
AcDbEntity
  8
DEFPOINTS
 62
     0
100
AcDbPoint
 10
4384.438882653596
 20
1257.458149219323
 30
0.0
  0
POINT
  5
A94D
330
A456
100
AcDbEntity
  8
DEFPOINTS
 62
     0
100
AcDbPoint
 10
4384.438882653596
 20
1318.163719485398
 30
0.0
  0
ENDBLK
  5
A460
330
A456
100
AcDbEntity
  8
0
100
AcDbBlockEnd
  0
BLOCK
  5
A46B
330
A461
100
AcDbEntity
  8
0
100
AcDbBlockBegin
  2
*D176
 70
     1
 10
0.0
 20
0.0
 30
0.0
  3
*D176
  1

  0
LINE
  5
A94E
330
A461
100
AcDbEntity
  8
寸法引出
370
    -2
100
AcDbLine
 10
3986.938882653597
 20
1267.458149219323
 30
0.0
 11
3986.938882653597
 21
1323.163719485398
 31
0.0
  0
LINE
  5
A94F
330
A461
100
AcDbEntity
  8
寸法引出
370
    -2
100
AcDbLine
 10
4191.938882653594
 20
1267.458149219323
 30
0.0
 11
4191.938882653594
 21
1323.163719485398
 31
0.0
  0
LINE
  5
A950
330
A461
100
AcDbEntity
  8
寸法引出
370
    -2
100
AcDbLine
 10
4001.938882653597
 20
1318.163719485398
 30
0.0
 11
4176.938882653594
 21
1318.163719485398
 31
0.0
  0
SOLID
  5
A951
330
A461
100
AcDbEntity
  8
寸法引出
100
AcDbTrace
 10
4001.938882653597
 20
1320.663719485398
 30
0.0
 11
4001.938882653597
 21
1315.663719485398
 31
0.0
 12
3986.938882653597
 22
1318.163719485398
 32
0.0
 13
3986.938882653597
 23
1318.163719485398
 33
0.0
  0
SOLID
  5
A952
330
A461
100
AcDbEntity
  8
寸法引出
100
AcDbTrace
 10
4176.938882653594
 20
1320.663719485398
 30
0.0
 11
4176.938882653594
 21
1315.663719485398
 31
0.0
 12
4191.938882653594
 22
1318.163719485398
 32
0.0
 13
4191.938882653594
 23
1318.163719485398
 33
0.0
  0
MTEXT
  5
A953
330
A461
100
AcDbEntity
  8
寸法引出
100
AcDbMText
 10
4089.438882653595
 20
1338.163719485398
 30
0.0
 40
20.0
 41
0.0
 71
     5
 72
     1
  1
\A1;205
  7
SANWA
 73
     1
 44
1.0
1001
ACAD
1000
MTEXTBEGIN
1070
    73
1070
     1
1070
    44
1040
1.0
1070
    74
1070
     0
1000
MTEXTEND
  0
POINT
  5
A954
330
A461
100
AcDbEntity
  8
DEFPOINTS
 62
     0
100
AcDbPoint
 10
3986.938882653597
 20
1257.458149219323
 30
0.0
  0
POINT
  5
A955
330
A461
100
AcDbEntity
  8
DEFPOINTS
 62
     0
100
AcDbPoint
 10
4191.938882653594
 20
1257.458149219323
 30
0.0
  0
POINT
  5
A956
330
A461
100
AcDbEntity
  8
DEFPOINTS
 62
     0
100
AcDbPoint
 10
4191.938882653594
 20
1318.163719485398
 30
0.0
  0
ENDBLK
  5
A46C
330
A461
100
AcDbEntity
  8
0
100
AcDbBlockEnd
  0
BLOCK
  5
A476
330
A46D
100
AcDbEntity
  8
0
100
AcDbBlockBegin
  2
*D177
 70
     1
 10
0.0
 20
0.0
 30
0.0
  3
*D177
  1

  0
LINE
  5
A957
330
A46D
100
AcDbEntity
  8
寸法引出
370
    -2
100
AcDbLine
 10
4469.438882653596
 20
1257.458149219323
 30
0.0
 11
4645.567398143559
 21
1257.458149219323
 31
0.0
  0
LINE
  5
A958
330
A46D
100
AcDbEntity
  8
寸法引出
370
    -2
100
AcDbLine
 10
4640.567398143558
 20
1212.458149219323
 30
0.0
 11
4640.567398143558
 21
1242.458149219323
 31
0.0
  0
SOLID
  5
A959
330
A46D
100
AcDbEntity
  8
寸法引出
100
AcDbTrace
 10
4638.067398143559
 20
1212.458149219323
 30
0.0
 11
4643.06739814356
 21
1212.458149219323
 31
0.0
 12
4640.567398143558
 22
1197.458149219323
 32
0.0
 13
4640.567398143558
 23
1197.458149219323
 33
0.0
  0
SOLID
  5
A95A
330
A46D
100
AcDbEntity
  8
寸法引出
100
AcDbTrace
 10
4638.067398143559
 20
1242.458149219323
 30
0.0
 11
4643.06739814356
 21
1242.458149219323
 31
0.0
 12
4640.567398143558
 22
1257.458149219323
 32
0.0
 13
4640.567398143558
 23
1257.458149219323
 33
0.0
  0
MTEXT
  5
A95B
330
A46D
100
AcDbEntity
  8
寸法引出
100
AcDbMText
 10
4620.567398143559
 20
1227.458149219324
 30
0.0
 40
20.0
 41
0.0
 71
     5
 72
     1
  1
\A1;60
  7
SANWA
 11
0.0000000000000001
 21
1.0
 31
0.0
 73
     1
 44
1.0
1001
ACAD
1000
MTEXTBEGIN
1070
    73
1070
     1
1070
    44
1040
1.0
1070
    74
1070
     0
1000
MTEXTEND
  0
POINT
  5
A95C
330
A46D
100
AcDbEntity
  8
DEFPOINTS
 62
     0
100
AcDbPoint
 10
4459.438882653596
 20
1197.458149219323
 30
0.0
  0
POINT
  5
A95D
330
A46D
100
AcDbEntity
  8
DEFPOINTS
 62
     0
100
AcDbPoint
 10
4459.438882653596
 20
1257.458149219323
 30
0.0
  0
POINT
  5
A95E
330
A46D
100
AcDbEntity
  8
DEFPOINTS
 62
     0
100
AcDbPoint
 10
4640.567398143558
 20
1257.458149219323
 30
0.0
  0
ENDBLK
  5
A477
330
A46D
100
AcDbEntity
  8
0
100
AcDbBlockEnd
  0
BLOCK
  5
A481
330
A478
100
AcDbEntity
  8
0
100
AcDbBlockBegin
  2
*D178
 70
     1
 10
0.0
 20
0.0
 30
0.0
  3
*D178
  1

  0
LINE
  5
A95F
330
A478
100
AcDbEntity
  8
寸法引出
370
    -2
100
AcDbLine
 10
4459.438882653596
 20
1527.096612352652
 30
0.0
 11
4459.438882653596
 21
1475.421881826506
 31
0.0
  0
LINE
  5
A960
330
A478
100
AcDbEntity
  8
寸法引出
370
    -2
100
AcDbLine
 10
4399.438882653596
 20
1480.421881826506
 30
0.0
 11
4444.438882653596
 21
1480.421881826506
 31
0.0
  0
SOLID
  5
A961
330
A478
100
AcDbEntity
  8
寸法引出
100
AcDbTrace
 10
4399.438882653596
 20
1482.921881826506
 30
0.0
 11
4399.438882653596
 21
1477.921881826506
 31
0.0
 12
4384.438882653596
 22
1480.421881826506
 32
0.0
 13
4384.438882653596
 23
1480.421881826506
 33
0.0
  0
SOLID
  5
A962
330
A478
100
AcDbEntity
  8
寸法引出
100
AcDbTrace
 10
4444.438882653596
 20
1482.921881826506
 30
0.0
 11
4444.438882653596
 21
1477.921881826506
 31
0.0
 12
4459.438882653596
 22
1480.421881826506
 32
0.0
 13
4459.438882653596
 23
1480.421881826506
 33
0.0
  0
MTEXT
  5
A963
330
A478
100
AcDbEntity
  8
寸法引出
100
AcDbMText
 10
4421.938882653596
 20
1500.421881826506
 30
0.0
 40
20.0
 41
0.0
 71
     5
 72
     1
  1
\A1;75
  7
SANWA
 73
     1
 44
1.0
1001
ACAD
1000
MTEXTBEGIN
1070
    73
1070
     1
1070
    44
1040
1.0
1070
    74
1070
     0
1000
MTEXTEND
  0
POINT
  5
A964
330
A478
100
AcDbEntity
  8
DEFPOINTS
 62
     0
100
AcDbPoint
 10
4384.438882653596
 20
1537.096612352652
 30
0.0
  0
POINT
  5
A965
330
A478
100
AcDbEntity
  8
DEFPOINTS
 62
     0
100
AcDbPoint
 10
4459.438882653596
 20
1537.096612352652
 30
0.0
  0
POINT
  5
A966
330
A478
100
AcDbEntity
  8
DEFPOINTS
 62
     0
100
AcDbPoint
 10
4459.438882653596
 20
1480.421881826506
 30
0.0
  0
ENDBLK
  5
A482
330
A478
100
AcDbEntity
  8
0
100
AcDbBlockEnd
  0
BLOCK
  5
A48C
330
A483
100
AcDbEntity
  8
0
100
AcDbBlockBegin
  2
*D179
 70
     1
 10
0.0
 20
0.0
 30
0.0
  3
*D179
  1

  0
LINE
  5
A967
330
A483
100
AcDbEntity
  8
寸法引出
370
    -2
100
AcDbLine
 10
4384.438882653596
 20
1527.096612352652
 30
0.0
 11
4384.438882653596
 21
1475.421881826506
 31
0.0
  0
LINE
  5
A968
330
A483
100
AcDbEntity
  8
寸法引出
370
    -2
100
AcDbLine
 10
4206.938882653596
 20
1480.421881826506
 30
0.0
 11
4369.438882653596
 21
1480.421881826506
 31
0.0
  0
SOLID
  5
A969
330
A483
100
AcDbEntity
  8
寸法引出
100
AcDbTrace
 10
4206.938882653596
 20
1482.921881826506
 30
0.0
 11
4206.938882653596
 21
1477.921881826506
 31
0.0
 12
4191.938882653595
 22
1480.421881826506
 32
0.0
 13
4191.938882653595
 23
1480.421881826506
 33
0.0
  0
SOLID
  5
A96A
330
A483
100
AcDbEntity
  8
寸法引出
100
AcDbTrace
 10
4369.438882653596
 20
1482.921881826506
 30
0.0
 11
4369.438882653596
 21
1477.921881826506
 31
0.0
 12
4384.438882653596
 22
1480.421881826506
 32
0.0
 13
4384.438882653596
 23
1480.421881826506
 33
0.0
  0
MTEXT
  5
A96B
330
A483
100
AcDbEntity
  8
寸法引出
100
AcDbMText
 10
4288.188882653596
 20
1500.421881826506
 30
0.0
 40
20.0
 41
0.0
 71
     5
 72
     1
  1
\A1;192.5
  7
SANWA
 73
     1
 44
1.0
1001
ACAD
1000
MTEXTBEGIN
1070
    73
1070
     1
1070
    44
1040
1.0
1070
    74
1070
     0
1000
MTEXTEND
  0
POINT
  5
A96C
330
A483
100
AcDbEntity
  8
DEFPOINTS
 62
     0
100
AcDbPoint
 10
4191.938882653595
 20
1537.096612352652
 30
0.0
  0
POINT
  5
A96D
330
A483
100
AcDbEntity
  8
DEFPOINTS
 62
     0
100
AcDbPoint
 10
4384.438882653596
 20
1537.096612352652
 30
0.0
  0
POINT
  5
A96E
330
A483
100
AcDbEntity
  8
DEFPOINTS
 62
     0
100
AcDbPoint
 10
4384.438882653596
 20
1480.421881826506
 30
0.0
  0
ENDBLK
  5
A48D
330
A483
100
AcDbEntity
  8
0
100
AcDbBlockEnd
  0
BLOCK
  5
A498
330
A48E
100
AcDbEntity
  8
0
100
AcDbBlockBegin
  2
*D180
 70
     1
 10
0.0
 20
0.0
 30
0.0
  3
*D180
  1

  0
LINE
  5
A96F
330
A48E
100
AcDbEntity
  8
寸法引出
370
    -2
100
AcDbLine
 10
3986.938882653597
 20
1527.096612352652
 30
0.0
 11
3986.938882653597
 21
1475.421881826506
 31
0.0
  0
LINE
  5
A970
330
A48E
100
AcDbEntity
  8
寸法引出
370
    -2
100
AcDbLine
 10
4191.938882653595
 20
1527.096612352652
 30
0.0
 11
4191.938882653595
 21
1475.421881826506
 31
0.0
  0
LINE
  5
A971
330
A48E
100
AcDbEntity
  8
寸法引出
370
    -2
100
AcDbLine
 10
4001.938882653596
 20
1480.421881826506
 30
0.0
 11
4176.938882653596
 21
1480.421881826506
 31
0.0
  0
SOLID
  5
A972
330
A48E
100
AcDbEntity
  8
寸法引出
100
AcDbTrace
 10
4001.938882653596
 20
1482.921881826506
 30
0.0
 11
4001.938882653596
 21
1477.921881826506
 31
0.0
 12
3986.938882653597
 22
1480.421881826506
 32
0.0
 13
3986.938882653597
 23
1480.421881826506
 33
0.0
  0
SOLID
  5
A973
330
A48E
100
AcDbEntity
  8
寸法引出
100
AcDbTrace
 10
4176.938882653596
 20
1482.921881826506
 30
0.0
 11
4176.938882653596
 21
1477.921881826506
 31
0.0
 12
4191.938882653595
 22
1480.421881826506
 32
0.0
 13
4191.938882653595
 23
1480.421881826506
 33
0.0
  0
MTEXT
  5
A974
330
A48E
100
AcDbEntity
  8
寸法引出
100
AcDbMText
 10
4089.438882653595
 20
1500.421881826506
 30
0.0
 40
20.0
 41
0.0
 71
     5
 72
     1
  1
\A1;205
  7
SANWA
 73
     1
 44
1.0
1001
ACAD
1000
MTEXTBEGIN
1070
    73
1070
     1
1070
    44
1040
1.0
1070
    74
1070
     0
1000
MTEXTEND
  0
POINT
  5
A975
330
A48E
100
AcDbEntity
  8
DEFPOINTS
 62
     0
100
AcDbPoint
 10
3986.938882653597
 20
1537.096612352652
 30
0.0
  0
POINT
  5
A976
330
A48E
100
AcDbEntity
  8
DEFPOINTS
 62
     0
100
AcDbPoint
 10
4191.938882653595
 20
1537.096612352652
 30
0.0
  0
POINT
  5
A977
330
A48E
100
AcDbEntity
  8
DEFPOINTS
 62
     0
100
AcDbPoint
 10
4191.938882653595
 20
1480.421881826506
 30
0.0
  0
ENDBLK
  5
A499
330
A48E
100
AcDbEntity
  8
0
100
AcDbBlockEnd
  0
BLOCK
  5
A4A4
330
A49A
100
AcDbEntity
  8
0
100
AcDbBlockBegin
  2
*D181
 70
     1
 10
0.0
 20
0.0
 30
0.0
  3
*D181
  1

  0
LINE
  5
A978
330
A49A
100
AcDbEntity
  8
寸法引出
370
    -2
100
AcDbLine
 10
4469.438882653596
 20
1537.096612352652
 30
0.0
 11
4573.581634166117
 21
1537.096612352652
 31
0.0
  0
LINE
  5
A979
330
A49A
100
AcDbEntity
  8
寸法引出
370
    -2
100
AcDbLine
 10
4469.438882653596
 20
1657.096612352652
 30
0.0
 11
4573.581634166117
 21
1657.096612352652
 31
0.0
  0
LINE
  5
A97A
330
A49A
100
AcDbEntity
  8
寸法引出
370
    -2
100
AcDbLine
 10
4568.581634166117
 20
1552.096612352652
 30
0.0
 11
4568.581634166117
 21
1642.096612352652
 31
0.0
  0
SOLID
  5
A97B
330
A49A
100
AcDbEntity
  8
寸法引出
100
AcDbTrace
 10
4566.081634166117
 20
1552.096612352652
 30
0.0
 11
4571.081634166118
 21
1552.096612352652
 31
0.0
 12
4568.581634166117
 22
1537.096612352652
 32
0.0
 13
4568.581634166117
 23
1537.096612352652
 33
0.0
  0
SOLID
  5
A97C
330
A49A
100
AcDbEntity
  8
寸法引出
100
AcDbTrace
 10
4566.081634166117
 20
1642.096612352652
 30
0.0
 11
4571.081634166118
 21
1642.096612352652
 31
0.0
 12
4568.581634166117
 22
1657.096612352652
 32
0.0
 13
4568.581634166117
 23
1657.096612352652
 33
0.0
  0
MTEXT
  5
A97D
330
A49A
100
AcDbEntity
  8
寸法引出
100
AcDbMText
 10
4548.581634166118
 20
1597.096612352653
 30
0.0
 40
20.0
 41
0.0
 71
     5
 72
     1
  1
\A1;120
  7
SANWA
 11
0.0000000000000001
 21
1.0
 31
0.0
 73
     1
 44
1.0
1001
ACAD
1000
MTEXTBEGIN
1070
    73
1070
     1
1070
    44
1040
1.0
1070
    74
1070
     0
1000
MTEXTEND
  0
POINT
  5
A97E
330
A49A
100
AcDbEntity
  8
DEFPOINTS
 62
     0
100
AcDbPoint
 10
4459.438882653596
 20
1537.096612352652
 30
0.0
  0
POINT
  5
A97F
330
A49A
100
AcDbEntity
  8
DEFPOINTS
 62
     0
100
AcDbPoint
 10
4459.438882653596
 20
1657.096612352652
 30
0.0
  0
POINT
  5
A980
330
A49A
100
AcDbEntity
  8
DEFPOINTS
 62
     0
100
AcDbPoint
 10
4568.581634166117
 20
1657.096612352652
 30
0.0
  0
ENDBLK
  5
A4A5
330
A49A
100
AcDbEntity
  8
0
100
AcDbBlockEnd
  0
BLOCK
  5
A4B2
330
A4A6
100
AcDbEntity
  8
0
100
AcDbBlockBegin
  2
*D182
 70
     1
 10
0.0
 20
0.0
 30
0.0
  3
*D182
  1

  0
LINE
  5
A981
330
A4A6
100
AcDbEntity
  8
寸法引出
370
    -2
100
AcDbLine
 10
4469.438882653596
 20
1537.096612352652
 30
0.0
 11
4521.292207848598
 21
1537.096612352652
 31
0.0
  0
LINE
  5
A982
330
A4A6
100
AcDbEntity
  8
寸法引出
370
    -2
100
AcDbLine
 10
4469.438882653596
 20
1568.096612352652
 30
0.0
 11
4521.292207848598
 21
1568.096612352652
 31
0.0
  0
LINE
  5
A983
330
A4A6
100
AcDbEntity
  8
寸法引出
370
    -2
100
AcDbLine
 10
4516.292207848599
 20
1522.096612352652
 30
0.0
 11
4516.292207848599
 21
1507.096612352652
 31
0.0
  0
LINE
  5
A984
330
A4A6
100
AcDbEntity
  8
寸法引出
370
    -2
100
AcDbLine
 10
4516.292207848599
 20
1583.096612352652
 30
0.0
 11
4516.292207848599
 21
1598.096612352652
 31
0.0
  0
LINE
  5
A985
330
A4A6
100
AcDbEntity
  8
寸法引出
370
    -2
100
AcDbLine
 10
4516.292207848599
 20
1537.096612352652
 30
0.0
 11
4516.292207848599
 21
1568.096612352652
 31
0.0
  0
SOLID
  5
A986
330
A4A6
100
AcDbEntity
  8
寸法引出
100
AcDbTrace
 10
4513.792207848599
 20
1522.096612352652
 30
0.0
 11
4518.792207848599
 21
1522.096612352652
 31
0.0
 12
4516.292207848599
 22
1537.096612352652
 32
0.0
 13
4516.292207848599
 23
1537.096612352652
 33
0.0
  0
SOLID
  5
A987
330
A4A6
100
AcDbEntity
  8
寸法引出
100
AcDbTrace
 10
4513.792207848599
 20
1583.096612352652
 30
0.0
 11
4518.792207848599
 21
1583.096612352652
 31
0.0
 12
4516.292207848599
 22
1568.096612352652
 32
0.0
 13
4516.292207848599
 23
1568.096612352652
 33
0.0
  0
MTEXT
  5
A988
330
A4A6
100
AcDbEntity
  8
寸法引出
100
AcDbMText
 10
4496.292207848599
 20
1552.596612352653
 30
0.0
 40
20.0
 41
0.0
 71
     5
 72
     1
  1
\A1;31
  7
SANWA
 11
0.0000000000000001
 21
1.0
 31
0.0
 73
     1
 44
1.0
1001
ACAD
1000
MTEXTBEGIN
1070
    73
1070
     1
1070
    44
1040
1.0
1070
    74
1070
     0
1000
MTEXTEND
  0
POINT
  5
A989
330
A4A6
100
AcDbEntity
  8
DEFPOINTS
 62
     0
100
AcDbPoint
 10
4459.438882653596
 20
1537.096612352652
 30
0.0
  0
POINT
  5
A98A
330
A4A6
100
AcDbEntity
  8
DEFPOINTS
 62
     0
100
AcDbPoint
 10
4459.438882653596
 20
1568.096612352652
 30
0.0
  0
POINT
  5
A98B
330
A4A6
100
AcDbEntity
  8
DEFPOINTS
 62
     0
100
AcDbPoint
 10
4516.292207848599
 20
1568.096612352652
 30
0.0
  0
ENDBLK
  5
A4B3
330
A4A6
100
AcDbEntity
  8
0
100
AcDbBlockEnd
  0
BLOCK
  5
A4BE
330
A4B4
100
AcDbEntity
  8
0
100
AcDbBlockBegin
  2
*D183
 70
     1
 10
0.0
 20
0.0
 30
0.0
  3
*D183
  1

  0
LINE
  5
A98C
330
A4B4
100
AcDbEntity
  8
寸法引出
370
    -2
100
AcDbLine
 10
4653.747332448276
 20
1527.096612352652
 30
0.0
 11
4653.747332448276
 21
1436.764112585882
 31
0.0
  0
LINE
  5
A98D
330
A4B4
100
AcDbEntity
  8
寸法引出
370
    -2
100
AcDbLine
 10
4713.747332448276
 20
1527.096612352652
 30
0.0
 11
4713.747332448276
 21
1436.764112585882
 31
0.0
  0
LINE
  5
A98E
330
A4B4
100
AcDbEntity
  8
寸法引出
370
    -2
100
AcDbLine
 10
4668.747332448275
 20
1441.764112585883
 30
0.0
 11
4698.747332448276
 21
1441.764112585883
 31
0.0
  0
SOLID
  5
A98F
330
A4B4
100
AcDbEntity
  8
寸法引出
100
AcDbTrace
 10
4668.747332448275
 20
1444.264112585883
 30
0.0
 11
4668.747332448275
 21
1439.264112585882
 31
0.0
 12
4653.747332448276
 22
1441.764112585883
 32
0.0
 13
4653.747332448276
 23
1441.764112585883
 33
0.0
  0
SOLID
  5
A990
330
A4B4
100
AcDbEntity
  8
寸法引出
100
AcDbTrace
 10
4698.747332448276
 20
1444.264112585883
 30
0.0
 11
4698.747332448276
 21
1439.264112585882
 31
0.0
 12
4713.747332448276
 22
1441.764112585883
 32
0.0
 13
4713.747332448276
 23
1441.764112585883
 33
0.0
  0
MTEXT
  5
A991
330
A4B4
100
AcDbEntity
  8
寸法引出
100
AcDbMText
 10
4683.747332448276
 20
1461.764112585882
 30
0.0
 40
20.0
 41
0.0
 71
     5
 72
     1
  1
\A1;60
  7
SANWA
 73
     1
 44
1.0
1001
ACAD
1000
MTEXTBEGIN
1070
    73
1070
     1
1070
    44
1040
1.0
1070
    74
1070
     0
1000
MTEXTEND
  0
POINT
  5
A992
330
A4B4
100
AcDbEntity
  8
DEFPOINTS
 62
     0
100
AcDbPoint
 10
4653.747332448276
 20
1537.096612352652
 30
0.0
  0
POINT
  5
A993
330
A4B4
100
AcDbEntity
  8
DEFPOINTS
 62
     0
100
AcDbPoint
 10
4713.747332448276
 20
1537.096612352652
 30
0.0
  0
POINT
  5
A994
330
A4B4
100
AcDbEntity
  8
DEFPOINTS
 62
     0
100
AcDbPoint
 10
4713.747332448276
 20
1441.764112585883
 30
0.0
  0
ENDBLK
  5
A4BF
330
A4B4
100
AcDbEntity
  8
0
100
AcDbBlockEnd
  0
BLOCK
  5
A4CB
330
A4C0
100
AcDbEntity
  8
0
100
AcDbBlockBegin
  2
*D184
 70
     1
 10
0.0
 20
0.0
 30
0.0
  3
*D184
  1

  0
LINE
  5
A995
330
A4C0
100
AcDbEntity
  8
寸法引出
370
    -2
100
AcDbLine
 10
4469.438882653596
 20
1657.096612352652
 30
0.0
 11
4521.292207848598
 21
1657.096612352652
 31
0.0
  0
LINE
  5
A996
330
A4C0
100
AcDbEntity
  8
寸法引出
370
    -2
100
AcDbLine
 10
4516.292207848599
 20
1604.096612352652
 30
0.0
 11
4516.292207848599
 21
1589.096612352652
 31
0.0
  0
LINE
  5
A997
330
A4C0
100
AcDbEntity
  8
寸法引出
370
    -2
100
AcDbLine
 10
4516.292207848599
 20
1672.096612352652
 30
0.0
 11
4516.292207848599
 21
1687.096612352652
 31
0.0
  0
LINE
  5
A998
330
A4C0
100
AcDbEntity
  8
寸法引出
370
    -2
100
AcDbLine
 10
4516.292207848599
 20
1619.096612352652
 30
0.0
 11
4516.292207848599
 21
1657.096612352652
 31
0.0
  0
SOLID
  5
A999
330
A4C0
100
AcDbEntity
  8
寸法引出
100
AcDbTrace
 10
4513.792207848599
 20
1604.096612352652
 30
0.0
 11
4518.792207848599
 21
1604.096612352652
 31
0.0
 12
4516.292207848599
 22
1619.096612352652
 32
0.0
 13
4516.292207848599
 23
1619.096612352652
 33
0.0
  0
SOLID
  5
A99A
330
A4C0
100
AcDbEntity
  8
寸法引出
100
AcDbTrace
 10
4513.792207848599
 20
1672.096612352652
 30
0.0
 11
4518.792207848599
 21
1672.096612352652
 31
0.0
 12
4516.292207848599
 22
1657.096612352652
 32
0.0
 13
4516.292207848599
 23
1657.096612352652
 33
0.0
  0
MTEXT
  5
A99B
330
A4C0
100
AcDbEntity
  8
寸法引出
100
AcDbMText
 10
4496.292207848599
 20
1638.096612352653
 30
0.0
 40
20.0
 41
0.0
 71
     5
 72
     1
  1
\A1;38
  7
SANWA
 11
0.0000000000000001
 21
1.0
 31
0.0
 73
     1
 44
1.0
1001
ACAD
1000
MTEXTBEGIN
1070
    73
1070
     1
1070
    44
1040
1.0
1070
    74
1070
     0
1000
MTEXTEND
  0
POINT
  5
A99C
330
A4C0
100
AcDbEntity
  8
DEFPOINTS
 62
     0
100
AcDbPoint
 10
4459.438882653596
 20
1619.096612352652
 30
0.0
  0
POINT
  5
A99D
330
A4C0
100
AcDbEntity
  8
DEFPOINTS
 62
     0
100
AcDbPoint
 10
4459.438882653596
 20
1657.096612352652
 30
0.0
  0
POINT
  5
A99E
330
A4C0
100
AcDbEntity
  8
DEFPOINTS
 62
     0
100
AcDbPoint
 10
4516.292207848599
 20
1657.096612352652
 30
0.0
  0
ENDBLK
  5
A4CC
330
A4C0
100
AcDbEntity
  8
0
100
AcDbBlockEnd
  0
BLOCK
  5
A4D6
330
A4CD
100
AcDbEntity
  8
0
100
AcDbBlockBegin
  2
*D185
 70
     1
 10
0.0
 20
0.0
 30
0.0
  3
*D185
  1

  0
LINE
  5
A99F
330
A4CD
100
AcDbEntity
  8
寸法引出
370
    -2
100
AcDbLine
 10
4469.438882653596
 20
1619.096612352652
 30
0.0
 11
4521.292207848598
 21
1619.096612352652
 31
0.0
  0
LINE
  5
A9A0
330
A4CD
100
AcDbEntity
  8
寸法引出
370
    -2
100
AcDbLine
 10
4516.292207848599
 20
1583.096612352652
 30
0.0
 11
4516.292207848599
 21
1604.096612352652
 31
0.0
  0
SOLID
  5
A9A1
330
A4CD
100
AcDbEntity
  8
寸法引出
100
AcDbTrace
 10
4513.792207848599
 20
1583.096612352652
 30
0.0
 11
4518.792207848599
 21
1583.096612352652
 31
0.0
 12
4516.292207848599
 22
1568.096612352652
 32
0.0
 13
4516.292207848599
 23
1568.096612352652
 33
0.0
  0
SOLID
  5
A9A2
330
A4CD
100
AcDbEntity
  8
寸法引出
100
AcDbTrace
 10
4513.792207848599
 20
1604.096612352652
 30
0.0
 11
4518.792207848599
 21
1604.096612352652
 31
0.0
 12
4516.292207848599
 22
1619.096612352652
 32
0.0
 13
4516.292207848599
 23
1619.096612352652
 33
0.0
  0
MTEXT
  5
A9A3
330
A4CD
100
AcDbEntity
  8
寸法引出
100
AcDbMText
 10
4496.292207848599
 20
1593.596612352653
 30
0.0
 40
20.0
 41
0.0
 71
     5
 72
     1
  1
\A1;51
  7
SANWA
 11
0.0000000000000001
 21
1.0
 31
0.0
 73
     1
 44
1.0
1001
ACAD
1000
MTEXTBEGIN
1070
    73
1070
     1
1070
    44
1040
1.0
1070
    74
1070
     0
1000
MTEXTEND
  0
POINT
  5
A9A4
330
A4CD
100
AcDbEntity
  8
DEFPOINTS
 62
     0
100
AcDbPoint
 10
4459.438882653596
 20
1568.096612352652
 30
0.0
  0
POINT
  5
A9A5
330
A4CD
100
AcDbEntity
  8
DEFPOINTS
 62
     0
100
AcDbPoint
 10
4459.438882653596
 20
1619.096612352652
 30
0.0
  0
POINT
  5
A9A6
330
A4CD
100
AcDbEntity
  8
DEFPOINTS
 62
     0
100
AcDbPoint
 10
4516.292207848599
 20
1619.096612352652
 30
0.0
  0
ENDBLK
  5
A4D7
330
A4CD
100
AcDbEntity
  8
0
100
AcDbBlockEnd
  0
BLOCK
  5
A4E1
330
A4D8
100
AcDbEntity
  8
0
100
AcDbBlockBegin
  2
*D186
 70
     1
 10
0.0
 20
0.0
 30
0.0
  3
*D186
  1

  0
LINE
  5
A9A7
330
A4D8
100
AcDbEntity
  8
寸法引出
370
    -2
100
AcDbLine
 10
5653.747332448276
 20
1527.096612352652
 30
0.0
 11
5653.747332448276
 21
1436.764112585882
 31
0.0
  0
LINE
  5
A9A8
330
A4D8
100
AcDbEntity
  8
寸法引出
370
    -2
100
AcDbLine
 10
5608.747332448277
 20
1441.764112585883
 30
0.0
 11
5638.747332448276
 21
1441.764112585883
 31
0.0
  0
SOLID
  5
A9A9
330
A4D8
100
AcDbEntity
  8
寸法引出
100
AcDbTrace
 10
5608.747332448277
 20
1444.264112585883
 30
0.0
 11
5608.747332448277
 21
1439.264112585882
 31
0.0
 12
5593.747332448277
 22
1441.764112585883
 32
0.0
 13
5593.747332448277
 23
1441.764112585883
 33
0.0
  0
SOLID
  5
A9AA
330
A4D8
100
AcDbEntity
  8
寸法引出
100
AcDbTrace
 10
5638.747332448276
 20
1444.264112585883
 30
0.0
 11
5638.747332448276
 21
1439.264112585882
 31
0.0
 12
5653.747332448276
 22
1441.764112585883
 32
0.0
 13
5653.747332448276
 23
1441.764112585883
 33
0.0
  0
MTEXT
  5
A9AB
330
A4D8
100
AcDbEntity
  8
寸法引出
100
AcDbMText
 10
5623.747332448276
 20
1461.764112585882
 30
0.0
 40
20.0
 41
0.0
 71
     5
 72
     1
  1
\A1;60
  7
SANWA
 73
     1
 44
1.0
1001
ACAD
1000
MTEXTBEGIN
1070
    73
1070
     1
1070
    44
1040
1.0
1070
    74
1070
     0
1000
MTEXTEND
  0
POINT
  5
A9AC
330
A4D8
100
AcDbEntity
  8
DEFPOINTS
 62
     0
100
AcDbPoint
 10
5593.747332448277
 20
1537.096612352652
 30
0.0
  0
POINT
  5
A9AD
330
A4D8
100
AcDbEntity
  8
DEFPOINTS
 62
     0
100
AcDbPoint
 10
5653.747332448276
 20
1537.096612352652
 30
0.0
  0
POINT
  5
A9AE
330
A4D8
100
AcDbEntity
  8
DEFPOINTS
 62
     0
100
AcDbPoint
 10
5653.747332448276
 20
1441.764112585883
 30
0.0
  0
ENDBLK
  5
A4E2
330
A4D8
100
AcDbEntity
  8
0
100
AcDbBlockEnd
  0
ENDSEC
  0
SECTION
  2
ENTITIES
  0
DIMENSION
  5
A007
330
747D
100
AcDbEntity
  8
寸法引出
100
AcDbDimension
  2
*D125
 10
1476.198140268028
 20
257.458149219323
 30
0.0
 11
1456.198140268028
 21
757.4581492193232
 31
0.0
 70
    32
 71
     5
 42
1000.0
  3
SANWA
100
AcDbAlignedDimension
 13
1385.982410818695
 23
1257.458149219323
 33
0.0
 14
1385.982410818695
 24
257.4581492193231
 34
0.0
 50
90.0
100
AcDbRotatedDimension
1001
ACAD
1000
DSTYLE
1002
{
1070
   140
1040
2.0
1070
    40
1040
10.0
1070
   147
1040
1.0
1070
    44
1040
0.5
1070
    43
1040
5.0
1070
   178
1070
   256
1070
   177
1070
   256
1070
   176
1070
   256
1070
    41
1040
1.5
1002
}
  0
DIMENSION
  5
A008
330
747D
100
AcDbEntity
  8
寸法引出
100
AcDbDimension
  2
*D126
 10
551.6202236534663
 20
377.4581492193231
 30
0.0
 11
531.6202236534662
 21
757.4581492193233
 31
0.0
 70
    32
 71
     5
 42
760.0
  3
SANWA
100
AcDbAlignedDimension
 13
645.9824108186953
 23
1137.458149219323
 33
0.0
 14
645.9824108186953
 24
377.4581492193231
 34
0.0
 50
90.0
100
AcDbRotatedDimension
1001
ACAD
1000
DSTYLE
1002
{
1070
   140
1040
2.0
1070
    40
1040
10.0
1070
   147
1040
1.0
1070
    44
1040
0.5
1070
    43
1040
5.0
1070
   178
1070
   256
1070
   177
1070
   256
1070
   176
1070
   256
1070
    41
1040
1.5
1002
}
  0
LINE
  5
A009
330
747D
100
AcDbEntity
  8
0
  6
CENTER2
 48
10.0
100
AcDbLine
 10
1015.982410818695
 20
1307.458149219323
 30
0.0
 11
1015.982410818695
 21
231.4868308115822
 31
0.0
  0
LINE
  5
A00A
330
747D
100
AcDbEntity
  8
0
100
AcDbLine
 10
1023.482410818695
 20
1257.458149219323
 30
0.0
 11
1023.482410818695
 21
257.4581492193231
 31
0.0
  0
LINE
  5
A00B
330
747D
100
AcDbEntity
  8
0
100
AcDbLine
 10
1008.482410818695
 20
257.4581492193231
 30
0.0
 11
1008.482410818695
 21
1257.458149219323
 31
0.0
  0
LINE
  5
A00C
330
747D
100
AcDbEntity
  8
0
100
AcDbLine
 10
645.9824108186953
 20
257.4581492193231
 30
0.0
 11
645.9824108186953
 21
1257.458149219323
 31
0.0
  0
LINE
  5
A00D
330
747D
100
AcDbEntity
  8
0
100
AcDbLine
 10
1385.982410818695
 20
1257.458149219323
 30
0.0
 11
1385.982410818695
 21
257.4581492193231
 31
0.0
  0
LINE
  5
A00E
330
747D
100
AcDbEntity
  8
枠
100
AcDbLine
 10
2869.999993348502
 20
100.000002931939
 30
0.0
 11
2869.999993348502
 21
2000.000002931939
 31
0.0
  0
LINE
  5
A00F
330
747D
100
AcDbEntity
  8
枠
100
AcDbLine
 10
249.9999933485014
 20
100.000002931939
 30
0.0
 11
249.9999933485014
 21
2000.000002931939
 31
0.0
  0
DIMENSION
  5
A010
330
747D
100
AcDbEntity
  8
寸法引出
100
AcDbDimension
  2
*D127
 10
1385.982410818695
 20
175.7766554232575
 30
0.0
 11
1015.982410818695
 21
195.7766554232576
 31
0.0
 70
    32
 71
     5
 42
740.0
  3
SANWA
100
AcDbAlignedDimension
 13
645.9824108186953
 23
257.4581492193231
 33
0.0
 14
1385.982410818695
 24
257.4581492193231
 34
0.0
100
AcDbRotatedDimension
1001
ACAD
1000
DSTYLE
1002
{
1070
   140
1040
2.0
1070
    40
1040
10.0
1070
   147
1040
1.0
1070
    44
1040
0.5
1070
    43
1040
5.0
1070
   178
1070
   256
1070
   177
1070
   256
1070
   176
1070
   256
1070
    41
1040
1.5
1002
}
  0
LINE
  5
A011
330
747D
100
AcDbEntity
  8
0
100
AcDbLine
 10
1385.982410818695
 20
257.4581492193231
 30
0.0
 11
1023.482410818695
 21
257.458149219323
 31
0.0
  0
LINE
  5
A012
330
747D
100
AcDbEntity
  8
枠
100
AcDbLine
 10
249.9999933485015
 20
100.00000293194
 30
0.0
 11
2869.999993348502
 21
100.0000029319402
 31
0.0
  0
LINE
  5
A013
330
747D
100
AcDbEntity
  8
0
100
AcDbLine
 10
680.9824108186953
 20
395.4581492193231
 30
0.0
 11
680.9824108186953
 21
359.4581492193231
 31
0.0
  0
LINE
  5
A014
330
747D
100
AcDbEntity
  8
0
100
AcDbLine
 10
249.9999933485014
 20
0.0000029319389796
 30
0.0
 11
-0.0000066514985519
 21
0.0000029319389796
 31
0.0
  0
LINE
  5
A015
330
747D
100
AcDbEntity
  8
0
100
AcDbLine
 10
-0.0000066514985519
 20
0.0000029319389796
 30
0.0
 11
-0.0000066514985519
 21
100.000002931939
 31
0.0
  0
LINE
  5
A016
330
747D
100
AcDbEntity
  8
0
100
AcDbLine
 10
1008.482410818695
 20
257.458149219323
 30
0.0
 11
645.9824108186953
 21
257.4581492193231
 31
0.0
  0
DIMENSION
  5
A017
330
747D
100
AcDbEntity
  8
寸法引出
100
AcDbDimension
  2
*D128
 10
551.6202236534663
 20
257.4581492193232
 30
0.0
 11
531.6202236534662
 21
317.4581492193232
 31
0.0
 70
    32
 71
     5
 42
120.0
  3
SANWA
100
AcDbAlignedDimension
 13
645.9824108186953
 23
377.4581492193231
 33
0.0
 14
645.9824108186953
 24
257.4581492193231
 34
0.0
 50
90.0
100
AcDbRotatedDimension
1001
ACAD
1000
DSTYLE
1002
{
1070
   140
1040
2.0
1070
    40
1040
10.0
1070
   147
1040
1.0
1070
    44
1040
0.5
1070
    43
1040
5.0
1070
   178
1070
   256
1070
   177
1070
   256
1070
   176
1070
   256
1070
    41
1040
1.5
1002
}
  0
CIRCLE
  5
A018
330
747D
100
AcDbEntity
  8
0
100
AcDbCircle
 10
680.9824108186953
 20
377.4581492193231
 30
0.0
 40
8.0
  0
LINE
  5
A019
330
747D
100
AcDbEntity
  8
0
100
AcDbLine
 10
662.9824108186953
 20
377.4581492193231
 30
0.0
 11
698.9824108186954
 21
377.4581492193231
 31
0.0
  0
LINE
  5
A01A
330
747D
100
AcDbEntity
  8
0
100
AcDbLine
 10
1350.982410818695
 20
395.4581492193231
 30
0.0
 11
1350.982410818695
 21
359.4581492193231
 31
0.0
  0
CIRCLE
  5
A01B
330
747D
100
AcDbEntity
  8
0
100
AcDbCircle
 10
1350.982410818695
 20
377.4581492193231
 30
0.0
 40
8.0
  0
LINE
  5
A01C
330
747D
100
AcDbEntity
  8
0
100
AcDbLine
 10
1368.982410818695
 20
377.4581492193231
 30
0.0
 11
1332.982410818695
 21
377.4581492193231
 31
0.0
  0
TEXT
  5
A01D
102
{ACAD_REACTORS
330
A024
102
}
330
747D
100
AcDbEntity
  8
0
 48
2.0
100
AcDbText
 10
2282.833163879501
 20
53.94579881785649
 30
0.0
 40
16.0
  1
大
  7
SANWA
100
AcDbText
  0
CIRCLE
  5
A01E
102
{ACAD_REACTORS
330
A021
102
}
330
747D
100
AcDbEntity
  8
0
100
AcDbCircle
 10
2219.266974292574
 20
50.64097773723052
 30
0.0
 40
31.99008422903171
  0
CIRCLE
  5
A01F
102
{ACAD_REACTORS
330
A021
102
}
330
747D
100
AcDbEntity
  8
0
100
AcDbCircle
 10
2219.266974292574
 20
50.64097773723052
 30
0.0
 40
30.39008422903171
  0
TEXT
  5
A020
102
{ACAD_REACTORS
330
A021
102
}
330
747D
100
AcDbEntity
  8
0
 48
2.0
100
AcDbText
 10
2208.228111510717
 20
55.11633573708604
 30
0.0
 40
16.0
  1
蒔
  7
SANWA
100
AcDbText
  0
HATCH
  5
A021
330
747D
100
AcDbEntity
  8
0
100
AcDbHatch
 10
0.0
 20
0.0
 30
0.0
210
0.0
220
0.0
230
1.0
  2
SOLID
 70
     1
 71
     1
 91
        4
 92
        7
 72
     1
 73
     1
 93
        2
 10
2251.257058521606
 20
50.64097773723052
 42
1.0
 10
2187.276890063543
 20
50.64097773723052
 42
1.0
 97
        1
330
A01E
 92
       22
 72
     1
 73
     1
 93
        2
 10
2249.657058521606
 20
50.64097773723052
 42
1.0
 10
2188.876890063542
 20
50.64097773723052
 42
1.0
 97
        1
330
A01F
 92
      136
 93
        4
 72
     1
 10
2202.948111510716
 20
47.55062145137176
 11
2236.913825796431
 21
47.55062145137176
 72
     1
 10
2236.913825796431
 20
47.55062145137176
 11
2236.913825796431
 21
79.23062145137176
 72
     1
 10
2236.913825796431
 20
79.23062145137176
 11
2202.948111510716
 21
79.23062145137176
 72
     1
 10
2202.948111510716
 20
79.23062145137176
 11
2202.948111510716
 21
47.55062145137176
 97
        1
330
A020
 92
       24
 93
        4
 72
     1
 10
2203.074721611722
 20
23.77921499683949
 11
2236.034721611722
 21
23.77921499683949
 72
     1
 10
2236.034721611722
 20
23.77921499683949
 11
2236.034721611722
 21
52.44207213969662
 72
     1
 10
2236.034721611722
 20
52.44207213969662
 11
2203.074721611722
 21
52.44207213969662
 72
     1
 10
2203.074721611722
 20
52.44207213969662
 11
2203.074721611722
 21
23.77921499683949
 97
        1
330
A027
 75
     0
 76
     1
 47
0.0602706122334892
 98
        2
 10
2234.593831536779
 20
78.14047847108259
 10
2234.593831536779
 20
78.14047847108259
  0
CIRCLE
  5
A022
102
{ACAD_REACTORS
330
A024
102
}
330
747D
100
AcDbEntity
  8
0
100
AcDbCircle
 10
2293.872026661358
 20
48.61120046394034
 30
0.0
 40
30.39008422903171
  0
CIRCLE
  5
A023
102
{ACAD_REACTORS
330
A024
102
}
330
747D
100
AcDbEntity
  8
0
100
AcDbCircle
 10
2293.872026661358
 20
48.61120046394034
 30
0.0
 40
31.99008422903171
  0
HATCH
  5
A024
330
747D
100
AcDbEntity
  8
0
100
AcDbHatch
 10
0.0
 20
0.0
 30
0.0
210
0.0
220
0.0
230
1.0
  2
SOLID
 70
     1
 71
     1
 91
        4
 92
        7
 72
     1
 73
     1
 93
        2
 10
2325.86211089039
 20
48.61120046394034
 42
1.0
 10
2261.881942432327
 20
48.61120046394034
 42
1.0
 97
        1
330
A023
 92
       22
 72
     1
 73
     1
 93
        2
 10
2324.26211089039
 20
48.61120046394034
 42
1.0
 10
2263.481942432326
 20
48.61120046394034
 42
1.0
 97
        1
330
A022
 92
      136
 93
        4
 72
     1
 10
2277.758878165215
 20
47.40865596071362
 11
2311.313163879501
 21
47.40865596071362
 72
     1
 10
2311.313163879501
 20
47.40865596071362
 11
2311.313163879501
 21
77.85437024642792
 72
     1
 10
2311.313163879501
 20
77.85437024642792
 11
2277.758878165215
 21
77.85437024642792
 72
     1
 10
2277.758878165215
 20
77.85437024642792
 11
2277.758878165215
 21
47.40865596071362
 97
        1
330
A01D
 92
      136
 93
        4
 72
     1
 10
2277.131202551935
 20
23.59573428417858
 11
2311.188345409078
 21
23.59573428417858
 72
     1
 10
2311.188345409078
 20
23.59573428417858
 11
2311.188345409078
 21
55.55001999846428
 72
     1
 10
2311.188345409078
 20
55.55001999846428
 11
2277.131202551935
 21
55.55001999846428
 72
     1
 10
2277.131202551935
 20
55.55001999846428
 11
2277.131202551935
 21
23.59573428417858
 97
        1
330
A026
 75
     0
 76
     1
 47
0.0602706122334892
 98
        2
 10
2309.198883905563
 20
76.11070119779242
 10
2309.198883905563
 20
76.11070119779242
  0
LINE
  5
A025
330
747D
100
AcDbEntity
  8
0
100
AcDbLine
 10
2969.999993348502
 20
100.000002931939
 30
0.0
 11
2969.999993348502
 21
0.0000029319389796
 31
0.0
  0
TEXT
  5
A026
102
{ACAD_REACTORS
330
A024
102
}
330
747D
100
AcDbEntity
  8
0
 48
2.0
100
AcDbText
 10
2282.456916837649
 20
31.29859142703572
 30
0.0
 40
16.0
  1
嶋
  7
SANWA
100
AcDbText
  0
TEXT
  5
A027
102
{ACAD_REACTORS
330
A021
102
}
330
747D
100
AcDbEntity
  8
0
 48
2.0
100
AcDbText
 10
2207.851864468866
 20
30.75064356826806
 30
0.0
 40
16.0
  1
田
  7
SANWA
100
AcDbText
  0
LINE
  5
A028
330
747D
100
AcDbEntity
  8
0
100
AcDbLine
 10
2969.999993348502
 20
0.0000029319389796
 30
0.0
 11
2869.999993348502
 21
0.0000029319389796
 31
0.0
  0
TEXT
  5
A029
330
747D
100
AcDbEntity
  8
0
100
AcDbText
 10
2533.482060217799
 20
332.0000029319412
 30
0.0
 40
16.0
  1
マルチスリット側溝蓋
  7
SANWA
 72
     4
 11
2650.510631646371
 21
340.0000029319411
 31
0.0
100
AcDbText
  0
LINE
  5
A02A
330
747D
100
AcDbEntity
  8
0
 62
     0
100
AcDbLine
 10
2399.02126994424
 20
244.0000029319412
 30
0.0
 11
2869.999993348502
 21
244.0000029319412
 31
0.0
  0
LINE
  5
A02B
330
747D
100
AcDbEntity
  8
0
 62
     0
100
AcDbLine
 10
2399.02126994424
 20
308.0000029319411
 30
0.0
 11
2869.999993348502
 21
308.0000029319411
 31
0.0
  0
TEXT
  5
A02C
330
747D
100
AcDbEntity
  8
0
100
AcDbText
 10
2510.938868956806
 20
129.282362016516
 30
0.0
 40
16.0
  1
三和コンクリート工業株式会社
  7
SANWA
100
AcDbText
  0
LINE
  5
A02D
330
747D
100
AcDbEntity
  8
0
100
AcDbLine
 10
2135.02126994424
 20
180.0000029319402
 30
0.0
 11
2869.999993348502
 21
180.0000029319403
 31
0.0
  0
LINE
  5
A02E
330
747D
100
AcDbEntity
  8
0
 62
     0
100
AcDbLine
 10
2135.02126994424
 20
372.0000029319411
 30
0.0
 11
2869.999993348502
 21
372.0000029319411
 31
0.0
  0
TEXT
  5
A02F
330
747D
100
AcDbEntity
  8
0
 48
2.0
100
AcDbText
 10
2214.120446370384
 20
228.3902037968394
 30
0.0
 40
16.0
  1
１：１０
  7
SANWA
100
AcDbText
  0
LINE
  5
A030
330
747D
100
AcDbEntity
  8
0
100
AcDbLine
 10
2431.02126994424
 20
180.0000029319402
 30
0.0
 11
2431.02126994424
 21
372.0000029319411
 31
0.0
  0
TEXT
  5
A031
330
747D
100
AcDbEntity
  8
0
 48
2.0
100
AcDbText
 10
2406.192038634725
 20
216.4564131405225
 30
0.0
 40
11.2
  1
規
  7
SANWA
100
AcDbText
  0
LINE
  5
A032
330
747D
100
AcDbEntity
  8
0
100
AcDbLine
 10
2399.02126994424
 20
100.0000029319402
 30
0.0
 11
2399.02126994424
 21
372.0000029319411
 31
0.0
  0
LINE
  5
A033
330
747D
100
AcDbEntity
  8
0
 62
     0
100
AcDbLine
 10
2135.02126994424
 20
324.0000029319412
 30
0.0
 11
2135.02126994424
 21
228.0000029319402
 31
0.0
  0
LINE
  5
A034
330
747D
100
AcDbEntity
  8
0
 62
     0
100
AcDbLine
 10
2135.02126994424
 20
204.0000029319402
 30
0.0
 11
2399.021269944241
 21
204.0000029319402
 31
0.0
  0
TEXT
  5
A035
330
747D
100
AcDbEntity
  8
0
 48
2.0
100
AcDbText
 10
2167.554935460243
 20
142.7491356076989
 30
0.0
 40
16.0
  1
河
  7
SANWA
100
AcDbText
  0
CIRCLE
  5
A036
102
{ACAD_REACTORS
330
A038
102
}
330
747D
100
AcDbEntity
  8
0
100
AcDbCircle
 10
2178.593798242101
 20
140.6351074346971
 30
0.0
 40
31.99008422903171
  0
CIRCLE
  5
A037
102
{ACAD_REACTORS
330
A038
102
}
330
747D
100
AcDbEntity
  8
0
100
AcDbCircle
 10
2178.593798242101
 20
140.6351074346971
 30
0.0
 40
30.39008422903171
  0
HATCH
  5
A038
330
747D
100
AcDbEntity
  8
0
100
AcDbHatch
 10
0.0
 20
0.0
 30
0.0
210
0.0
220
0.0
230
1.0
  2
SOLID
 70
     1
 71
     1
 91
        2
 92
        7
 72
     1
 73
     1
 93
        2
 10
2210.583882471133
 20
140.6351074346971
 42
1.0
 10
2146.603714013069
 20
140.6351074346971
 42
1.0
 97
        1
330
A036
 92
       22
 72
     1
 73
     1
 93
        2
 10
2208.983882471133
 20
140.6351074346971
 42
1.0
 10
2148.203714013069
 20
140.6351074346971
 42
1.0
 97
        1
330
A037
 75
     0
 76
     1
 47
0.0602706122334892
 98
        2
 10
2193.920655486306
 20
168.1346081685492
 10
2193.920655486306
 20
168.1346081685492
  0
LINE
  5
A039
330
747D
100
AcDbEntity
  8
0
100
AcDbLine
 10
2311.02126994424
 20
100.0000029319402
 30
0.0
 11
2311.02126994424
 21
204.0000029319402
 31
0.0
  0
LINE
  5
A03A
330
747D
100
AcDbEntity
  8
0
100
AcDbLine
 10
2223.021269944239
 20
100.0000029319402
 30
0.0
 11
2223.021269944239
 21
204.0000029319402
 31
0.0
  0
LINE
  5
A03B
330
747D
100
AcDbEntity
  8
0
 62
     0
100
AcDbLine
 10
2135.02126994424
 20
228.0000029319402
 30
0.0
 11
2135.02126994424
 21
100.0000029319402
 31
0.0
  0
TEXT
  5
A03C
330
747D
100
AcDbEntity
  8
0
 48
2.0
100
AcDbText
 10
2167.178688418392
 20
120.1019282168781
 30
0.0
 40
16.0
  1
口
  7
SANWA
100
AcDbText
  0
TEXT
  5
A03D
330
747D
100
AcDbEntity
  8
0
 48
2.0
100
AcDbText
 10
2154.144113303923
 20
183.8478663423695
 30
0.0
 40
16.0
  1
検図
  7
SANWA
100
AcDbText
  0
LINE
  5
A03E
330
747D
100
AcDbEntity
  8
0
100
AcDbLine
 10
2135.02126994424
 20
204.0000029319402
 30
0.0
 11
2135.02126994424
 21
180.0000029319402
 31
0.0
  0
LINE
  5
A03F
330
747D
100
AcDbEntity
  8
0
100
AcDbLine
 10
2135.02126994424
 20
228.0000029319402
 30
0.0
 11
2135.02126994424
 21
175.9567694051168
 31
0.0
  0
LINE
  5
A040
330
747D
100
AcDbEntity
  8
0
100
AcDbLine
 10
2135.02126994424
 20
204.0000029319402
 30
0.0
 11
2135.02126994424
 21
228.0000029319402
 31
0.0
  0
TEXT
  5
A041
330
747D
100
AcDbEntity
  8
0
 48
2.0
100
AcDbText
 10
2246.050650565558
 20
184.7571480994695
 30
0.0
 40
16.0
  1
設計
  7
SANWA
100
AcDbText
  0
CIRCLE
  5
A042
102
{ACAD_REACTORS
330
A045
102
}
330
747D
100
AcDbEntity
  8
0
100
AcDbCircle
 10
2355.961173682317
 20
140.6051923076898
 30
0.0
 40
31.99008422903171
  0
CIRCLE
  5
A043
102
{ACAD_REACTORS
330
A045
102
}
330
747D
100
AcDbEntity
  8
0
100
AcDbCircle
 10
2355.961173682317
 20
140.6051923076898
 30
0.0
 40
30.39008422903171
  0
TEXT
  5
A044
102
{ACAD_REACTORS
330
A045
102
}
330
747D
100
AcDbEntity
  8
0
 48
2.0
100
AcDbText
 10
2344.922310900459
 20
145.9397906616059
 30
0.0
 40
16.0
  1
中
  7
SANWA
100
AcDbText
  0
HATCH
  5
A045
330
747D
100
AcDbEntity
  8
0
100
AcDbHatch
 10
0.0
 20
0.0
 30
0.0
210
0.0
220
0.0
230
1.0
  2
SOLID
 70
     1
 71
     1
 91
        4
 92
        7
 72
     1
 73
     1
 93
        2
 10
2387.951257911348
 20
140.6051923076898
 42
1.0
 10
2323.971089453285
 20
140.6051923076898
 42
1.0
 97
        1
330
A042
 92
       22
 72
     1
 73
     1
 93
        2
 10
2386.351257911349
 20
140.6051923076898
 42
1.0
 10
2325.571089453285
 20
140.6051923076898
 42
1.0
 97
        1
330
A043
 92
      136
 93
        4
 72
     1
 10
2339.596596614745
 20
137.9626478044631
 11
2373.653739471888
 21
137.9626478044631
 72
     1
 10
2373.653739471888
 20
137.9626478044631
 11
2373.653739471888
 21
169.9169335187487
 72
     1
 10
2373.653739471888
 20
169.9169335187487
 11
2339.596596614745
 21
169.9169335187487
 72
     1
 10
2339.596596614745
 20
169.9169335187487
 11
2339.596596614745
 21
137.9626478044631
 97
        1
330
A044
 92
      136
 93
        4
 72
     1
 10
2339.540349572894
 20
116.3668689850708
 11
2372.957492430037
 21
116.3668689850708
 72
     1
 10
2372.957492430037
 20
116.3668689850708
 11
2372.957492430037
 21
146.4011546993565
 72
     1
 10
2372.957492430037
 20
146.4011546993565
 11
2339.540349572894
 21
146.4011546993565
 72
     1
 10
2339.540349572894
 20
146.4011546993565
 11
2339.540349572894
 21
116.3668689850708
 97
        1
330
A050
 75
     0
 76
     1
 47
0.0602706122334892
 98
        2
 10
2371.288030926522
 20
168.1046930415418
 10
2371.288030926522
 20
168.1046930415418
  0
HATCH
  5
A046
330
747D
100
AcDbEntity
  8
0
100
AcDbHatch
 10
0.0
 20
0.0
 30
0.0
210
0.0
220
0.0
230
1.0
  2
SOLID
 70
     1
 71
     1
 91
        3
 92
        7
 72
     1
 73
     1
 93
        4
 10
2433.908893268863
 20
162.0536422825669
 42
0.0
 10
2439.010203125056
 20
156.952332426373
 42
-0.3722683533228781
 10
2467.838069347684
 20
156.9523324263731
 42
0.0
 10
2472.939379203876
 20
162.0536422825683
 42
0.3824979940290051
 97
        4
330
A05F
330
A063
330
A05C
330
A060
 92
        7
 72
     1
 73
     1
 93
        4
 10
2475.202120903674
 20
159.7909005827706
 42
0.0
 10
2470.100811047481
 20
154.6895907265763
 42
-0.616858326909898
 10
2455.024136236372
 20
118.2912779221045
 42
0.0
 10
2455.02413623637
 20
111.0769363376071
 42
0.6292889159379706
 97
        4
330
A05D
330
A04B
330
A054
330
A049
 92
        7
 72
     1
 73
     1
 93
        4
 10
2451.82413623637
 20
111.0769363376071
 42
0.0
 10
2451.824136236372
 20
118.2912779221042
 42
-0.6168583269099645
 10
2436.74746142526
 20
154.6895907265765
 42
0.0
 10
2431.646151569065
 20
159.7909005827704
 42
0.6292889159379636
 97
        4
330
A04E
330
A055
330
A04C
330
A05E
 75
     0
 76
     1
 47
0.0143554168026844
 98
        4
 10
2466.232324537821
 20
165.3933309230709
 10
2472.209298246413
 20
156.0910213781046
 10
2472.209298246413
 20
156.0910213781046
 10
2435.312962252528
 20
155.7464911831314
  0
TEXT
  5
A047
330
747D
100
AcDbEntity
  8
0
100
AcDbText
 10
2444.472661905124
 20
145.2245081444892
 30
0.0
 40
12.0
  1
三
  7
SANWA
100
AcDbText
  0
ARC
  5
A048
102
{ACAD_REACTORS
330
A046
102
}
330
747D
100
AcDbEntity
  8
0
100
AcDbCircle
 10
2453.42413623637
 20
140.2756576152626
 30
0.0
 40
27.64252595536528
100
AcDbArc
 50
276.6476737862027
 51
38.35232621379853
  0
ARC
  5
A049
102
{ACAD_REACTORS
330
A046
102
}
330
747D
100
AcDbEntity
  8
0
100
AcDbCircle
 10
2453.42413623637
 20
140.2756576152626
 30
0.0
 40
29.24252595536528
100
AcDbArc
 50
273.1364954470844
 51
41.86350455291712
  0
ARC
  5
A04A
102
{ACAD_REACTORS
330
A046
102
}
330
747D
100
AcDbEntity
  8
0
100
AcDbCircle
 10
2453.42413623637
 20
140.2756576152626
 30
0.0
 40
23.64252595536527
100
AcDbArc
 50
277.7788203119023
 51
37.22117968809818
  0
ARC
  5
A04B
102
{ACAD_REACTORS
330
A046
102
}
330
747D
100
AcDbEntity
  8
0
100
AcDbCircle
 10
2453.42413623637
 20
140.2756576152626
 30
0.0
 40
22.04252595536527
100
AcDbArc
 50
274.1625874111288
 51
40.83741258887306
  0
ARC
  5
A04C
102
{ACAD_REACTORS
330
A046
102
}
330
747D
100
AcDbEntity
  8
0
100
AcDbCircle
 10
2453.42413623637
 20
140.2756576152626
 30
0.0
 40
22.04252595536527
100
AcDbArc
 50
139.1625874111273
 51
265.8374125888725
  0
ARC
  5
A04D
102
{ACAD_REACTORS
330
A046
102
}
330
747D
100
AcDbEntity
  8
0
100
AcDbCircle
 10
2453.42413623637
 20
140.2756576152626
 30
0.0
 40
23.64252595536527
100
AcDbArc
 50
142.7788203119012
 51
262.2211796880999
  0
ARC
  5
A04E
102
{ACAD_REACTORS
330
A046
102
}
330
747D
100
AcDbEntity
  8
0
100
AcDbCircle
 10
2453.42413623637
 20
140.2756576152626
 30
0.0
 40
29.24252595536528
100
AcDbArc
 50
138.1364954470837
 51
266.8635045529165
  0
ARC
  5
A04F
102
{ACAD_REACTORS
330
A046
102
}
330
747D
100
AcDbEntity
  8
0
100
AcDbCircle
 10
2453.42413623637
 20
140.2756576152626
 30
0.0
 40
27.64252595536528
100
AcDbArc
 50
141.6476737862016
 51
263.3523262137983
  0
TEXT
  5
A050
102
{ACAD_REACTORS
330
A045
102
}
330
747D
100
AcDbEntity
  8
0
 48
2.0
100
AcDbText
 10
2344.546063858608
 20
123.2925832707851
 30
0.0
 40
16.0
  1
川
  7
SANWA
100
AcDbText
  0
TEXT
  5
A051
330
747D
100
AcDbEntity
  8
0
100
AcDbText
 10
2444.472661905124
 20
129.282362016516
 30
0.0
 40
12.0
  1
和
  7
SANWA
100
AcDbText
  0
LINE
  5
A052
102
{ACAD_REACTORS
330
A046
102
}
330
747D
100
AcDbEntity
  8
0
100
AcDbLine
 10
2450.22413623637
 20
112.8189782604491
 30
0.0
 11
2450.224136236371
 21
116.8506915843348
 31
0.0
  0
LINE
  5
A053
102
{ACAD_REACTORS
330
A046
102
}
330
747D
100
AcDbEntity
  8
0
100
AcDbLine
 10
2456.62413623637
 20
112.8189782604491
 30
0.0
 11
2456.62413623637
 21
116.8506915843348
 31
0.0
  0
LINE
  5
A054
102
{ACAD_REACTORS
330
A046
102
}
330
747D
100
AcDbEntity
  8
0
100
AcDbLine
 10
2455.02413623637
 20
111.0769363376071
 30
0.0
 11
2455.024136236372
 21
118.2912779221045
 31
0.0
  0
LINE
  5
A055
102
{ACAD_REACTORS
330
A046
102
}
330
747D
100
AcDbEntity
  8
0
100
AcDbLine
 10
2451.82413623637
 20
111.0769363376071
 30
0.0
 11
2451.824136236372
 21
118.2912779221042
 31
0.0
  0
TEXT
  5
A056
330
747D
100
AcDbEntity
  8
0
 48
2.0
100
AcDbText
 10
2406.192038634725
 20
192.6273974258985
 30
0.0
 40
11.2
  1
格
  7
SANWA
100
AcDbText
  0
TEXT
  5
A057
330
747D
100
AcDbEntity
  8
0
 48
2.0
100
AcDbText
 10
2332.49959071141
 20
184.834255604261
 30
0.0
 40
16.0
  1
製図
  7
SANWA
100
AcDbText
  0
LINE
  5
A058
102
{ACAD_REACTORS
330
A046
102
}
330
747D
100
AcDbEntity
  8
0
100
AcDbLine
 10
2472.2508302657
 20
154.5768682449995
 30
0.0
 11
2475.10168209682
 21
157.4277200761196
 31
0.0
  0
LINE
  5
A059
102
{ACAD_REACTORS
330
A046
102
}
330
747D
100
AcDbEntity
  8
0
100
AcDbLine
 10
2467.725346866107
 20
159.1023516445931
 30
0.0
 11
2470.576198697225
 21
161.9532034757138
 31
0.0
  0
LINE
  5
A05A
102
{ACAD_REACTORS
330
A046
102
}
330
747D
100
AcDbEntity
  8
0
100
AcDbLine
 10
2439.122925606634
 20
159.1023516445931
 30
0.0
 11
2436.272073775514
 21
161.9532034757128
 31
0.0
  0
LINE
  5
A05B
102
{ACAD_REACTORS
330
A046
102
}
330
747D
100
AcDbEntity
  8
0
100
AcDbLine
 10
2434.59744220704
 20
154.5768682449997
 30
0.0
 11
2431.746590375921
 21
157.4277200761195
 31
0.0
  0
LINE
  5
A05C
102
{ACAD_REACTORS
330
A046
102
}
330
747D
100
AcDbEntity
  8
0
100
AcDbLine
 10
2467.838069347684
 20
156.9523324263731
 30
0.0
 11
2472.939379203876
 21
162.0536422825683
 31
0.0
  0
LINE
  5
A05D
102
{ACAD_REACTORS
330
A046
102
}
330
747D
100
AcDbEntity
  8
0
100
AcDbLine
 10
2470.100811047481
 20
154.6895907265763
 30
0.0
 11
2475.202120903674
 21
159.7909005827706
 31
0.0
  0
LINE
  5
A05E
102
{ACAD_REACTORS
330
A046
102
}
330
747D
100
AcDbEntity
  8
0
100
AcDbLine
 10
2436.74746142526
 20
154.6895907265765
 30
0.0
 11
2431.615176984409
 21
159.8218751674268
 31
0.0
  0
LINE
  5
A05F
102
{ACAD_REACTORS
330
A046
102
}
330
747D
100
AcDbEntity
  8
0
100
AcDbLine
 10
2439.010203125056
 20
156.952332426373
 30
0.0
 11
2433.877918684206
 21
162.0846168672237
 31
0.0
  0
ARC
  5
A060
102
{ACAD_REACTORS
330
A046
102
}
330
747D
100
AcDbEntity
  8
0
100
AcDbCircle
 10
2453.42413623637
 20
140.2756576152626
 30
0.0
 40
29.24252595536528
100
AcDbArc
 50
48.13649544708374
 51
131.8635045529165
  0
ARC
  5
A061
102
{ACAD_REACTORS
330
A046
102
}
330
747D
100
AcDbEntity
  8
0
100
AcDbCircle
 10
2453.42413623637
 20
140.2756576152626
 30
0.0
 40
27.64252595536528
100
AcDbArc
 50
51.64767378620499
 51
128.3523262137973
  0
ARC
  5
A062
102
{ACAD_REACTORS
330
A046
102
}
330
747D
100
AcDbEntity
  8
0
100
AcDbCircle
 10
2453.42413623637
 20
140.2756576152626
 30
0.0
 40
23.64252595536527
100
AcDbArc
 50
52.77882031190202
 51
127.2211796880981
  0
ARC
  5
A063
102
{ACAD_REACTORS
330
A046
102
}
330
747D
100
AcDbEntity
  8
0
100
AcDbCircle
 10
2453.42413623637
 20
140.2756576152626
 30
0.0
 40
22.04252595536527
100
AcDbArc
 50
49.16258741112848
 51
130.8374125888727
  0
LINE
  5
A064
330
747D
100
AcDbEntity
  8
0
 62
     0
100
AcDbLine
 10
2135.02126994424
 20
260.0000029319412
 30
0.0
 11
2399.02126994424
 21
260.0000029319412
 31
0.0
  0
LINE
  5
A065
330
747D
100
AcDbEntity
  8
0
 62
     0
100
AcDbLine
 10
2135.02126994424
 20
292.0000029319412
 30
0.0
 11
2399.02126994424
 21
292.0000029319412
 31
0.0
  0
LINE
  5
A066
330
747D
100
AcDbEntity
  8
0
 62
     0
100
AcDbLine
 10
2135.02126994424
 20
340.0000029319412
 30
0.0
 11
2399.02126994424
 21
340.0000029319412
 31
0.0
  0
LINE
  5
A067
330
747D
100
AcDbEntity
  8
0
 62
     0
100
AcDbLine
 10
2135.02126994424
 20
340.0000029319412
 30
0.0
 11
2399.02126994424
 21
340.0000029319412
 31
0.0
  0
LINE
  5
A068
330
747D
100
AcDbEntity
  8
0
100
AcDbLine
 10
2135.02126994424
 20
266.7043813238718
 30
0.0
 11
2135.02126994424
 21
328.8467675599989
 31
0.0
  0
LINE
  5
A069
330
747D
100
AcDbEntity
  8
0
100
AcDbLine
 10
2135.02126994424
 20
244.0000029319412
 30
0.0
 11
2135.02126994424
 21
266.7043813238718
 31
0.0
  0
TEXT
  5
A06A
330
747D
100
AcDbEntity
  8
0
 48
2.0
100
AcDbText
 10
2217.639242121446
 20
265.5892793787491
 30
0.0
 40
16.0
  1
縮    尺
  7
SANWA
100
AcDbText
  0
LINE
  5
A06B
330
747D
100
AcDbEntity
  8
0
100
AcDbLine
 10
2135.02126994424
 20
372.0000029319411
 30
0.0
 11
2135.02126994424
 21
324.0000029319412
 31
0.0
  0
TEXT
  5
A06C
330
747D
100
AcDbEntity
  8
0
 48
2.0
100
AcDbText
 10
2261.559516622807
 20
348.4274640270026
 30
0.0
 40
16.0
  1
番号
  7
SANWA
100
AcDbText
  0
TEXT
  5
A06D
330
747D
100
AcDbEntity
  8
0
 48
2.0
100
AcDbText
 10
2216.938235238671
 20
347.5181937084901
 30
0.0
 40
16.0
  1
図面
  7
SANWA
100
AcDbText
  0
TEXT
  5
A06E
330
747D
100
AcDbEntity
  8
0
 48
2.0
100
AcDbText
 10
2405.91023725845
 20
255.950901968426
 30
0.0
 40
11.2
  1
名
  7
SANWA
100
AcDbText
  0
TEXT
  5
A06F
330
747D
100
AcDbEntity
  8
0
 48
2.0
100
AcDbText
 10
2405.683416606402
 20
271.621746932476
 30
0.0
 40
11.2
  1
び
  7
SANWA
100
AcDbText
  0
TEXT
  5
A070
330
747D
100
AcDbEntity
  8
0
 48
2.0
100
AcDbText
 10
2405.842276887441
 20
286.956549131984
 30
0.0
 40
11.2
  1
呼
  7
SANWA
100
AcDbText
  0
TEXT
  5
A071
330
747D
100
AcDbEntity
  8
0
 48
2.0
100
AcDbText
 10
2405.88868574697
 20
323.3308450950008
 30
0.0
 40
11.2
  1
名
  7
SANWA
100
AcDbText
  0
TEXT
  5
A072
330
747D
100
AcDbEntity
  8
0
 48
2.0
100
AcDbText
 10
2406.495391522482
 20
349.5846007233059
 30
0.0
 40
11.2
  1
品
  7
SANWA
100
AcDbText
  0
LINE
  5
A073
330
747D
100
AcDbEntity
  8
0
100
AcDbLine
 10
2399.02126994424
 20
372.0000029319411
 30
0.0
 11
2414.184841552131
 21
372.0000029319411
 31
0.0
  0
TEXT
  5
A074
330
747D
100
AcDbEntity
  8
0
100
AcDbText
 10
2603.699203074942
 20
203.7257172176554
 30
0.0
 40
16.0
  1
６００用
  7
SANWA
 72
     4
 11
2650.510631646371
 21
212.0000029319411
 31
0.0
100
AcDbText
  0
TEXT
  5
A075
330
747D
100
AcDbEntity
  8
0
100
AcDbText
 10
2627.104917360657
 20
267.1314315033697
 30
0.0
 40
16.0
  1
Ｎ型
  7
SANWA
 72
     4
 11
2650.510631646371
 21
276.0000029319412
 31
0.0
100
AcDbText
  0
DIMENSION
  5
A076
330
747D
100
AcDbEntity
  8
寸法引出
100
AcDbDimension
  2
*D129
 10
1385.982410818695
 20
1377.482420256454
 30
0.0
 11
1204.732410818695
 21
1397.482420256454
 31
0.0
 70
    32
 71
     5
 42
362.5
  3
SANWA
100
AcDbAlignedDimension
 13
1023.482410818695
 23
1257.458149219323
 33
0.0
 14
1385.982410818695
 24
1257.458149219323
 34
0.0
100
AcDbRotatedDimension
1001
ACAD
1000
DSTYLE
1002
{
1070
    40
1040
10.0
1070
    41
1040
1.5
1070
    43
1040
5.0
1070
    44
1040
0.5
1070
    75
1070
     1
1070
   140
1040
2.0
1070
   147
1040
1.0
1070
   176
1070
   256
1070
   177
1070
   256
1070
   178
1070
   256
1070
   279
1070
     1
1002
}
  0
DIMENSION
  5
A077
330
747D
100
AcDbEntity
  8
寸法引出
100
AcDbDimension
  2
*D130
 10
1350.982410818695
 20
1337.331674895793
 30
0.0
 11
1183.482410818695
 21
1357.331674895793
 31
0.0
 70
    32
 71
     5
 42
335.0
  3
SANWA
100
AcDbAlignedDimension
 13
1015.982410818695
 23
1307.458149219323
 33
0.0
 14
1350.982410818695
 24
1257.458149219323
 34
0.0
100
AcDbRotatedDimension
1001
ACAD
1000
DSTYLE
1002
{
1070
    40
1040
10.0
1070
    41
1040
1.5
1070
    43
1040
5.0
1070
    44
1040
0.5
1070
    75
1070
     1
1070
   140
1040
2.0
1070
   147
1040
1.0
1070
   176
1070
   256
1070
   177
1070
   256
1070
   178
1070
   256
1070
   279
1070
     1
1002
}
  0
DIMENSION
  5
A078
330
747D
100
AcDbEntity
  8
寸法引出
100
AcDbDimension
  2
*D131
 10
1385.982410818695
 20
1739.167952386481
 30
0.0
 11
1015.982410818695
 21
1759.167952386481
 31
0.0
 70
    32
 71
     5
 42
740.0
  3
SANWA
100
AcDbAlignedDimension
 13
645.9824108186953
 23
1657.096612352652
 33
0.0
 14
1385.982410818695
 24
1657.096612352652
 34
0.0
100
AcDbRotatedDimension
1001
ACAD
1000
DSTYLE
1002
{
1070
   140
1040
2.0
1070
    40
1040
10.0
1070
   147
1040
1.0
1070
    44
1040
0.5
1070
    43
1040
5.0
1070
   178
1070
   256
1070
   177
1070
   256
1070
   176
1070
   256
1070
    41
1040
1.5
1002
}
  0
DIMENSION
  5
A079
330
747D
100
AcDbEntity
  8
寸法引出
100
AcDbDimension
  2
*D132
 10
1385.982410818695
 20
1702.939638037911
 30
0.0
 11
1204.732410818695
 21
1722.939638037911
 31
0.0
 70
    32
 71
     5
 42
362.5
  3
SANWA
100
AcDbAlignedDimension
 13
1023.482410818695
 23
1657.096612352652
 33
0.0
 14
1385.982410818695
 24
1657.096612352652
 34
0.0
100
AcDbRotatedDimension
1001
ACAD
1000
DSTYLE
1002
{
1070
   140
1040
2.0
1070
    40
1040
10.0
1070
   147
1040
1.0
1070
    44
1040
0.5
1070
    43
1040
5.0
1070
   178
1070
   256
1070
   177
1070
   256
1070
   176
1070
   256
1070
    41
1040
1.5
1002
}
  0
DIMENSION
  5
A07A
330
747D
100
AcDbEntity
  8
寸法引出
100
AcDbDimension
  2
*D133
 10
1385.982410818695
 20
1455.847313842423
 30
0.0
 11
1208.482410818695
 21
1475.847313842423
 31
0.0
 70
    32
 71
     5
 42
355.0
  3
SANWA
100
AcDbAlignedDimension
 13
1030.982410818695
 23
1537.096612352652
 33
0.0
 14
1385.982410818695
 24
1537.096612352652
 34
0.0
100
AcDbRotatedDimension
1001
ACAD
1000
DSTYLE
1002
{
1070
   140
1040
2.0
1070
    40
1040
10.0
1070
   147
1040
1.0
1070
    44
1040
0.5
1070
    43
1040
5.0
1070
   178
1070
   256
1070
   177
1070
   256
1070
   176
1070
   256
1070
    41
1040
1.5
1002
}
  0
LINE
  5
A07B
330
747D
100
AcDbEntity
  8
0
100
AcDbLine
 10
1023.482410818695
 20
1657.096612352652
 30
0.0
 11
1385.982410818695
 21
1657.096612352652
 31
0.0
  0
LINE
  5
A07C
330
747D
100
AcDbEntity
  8
0
100
AcDbLine
 10
1023.482410818695
 20
1657.096612352652
 30
0.0
 11
1385.982410818695
 21
1657.096612352652
 31
0.0
  0
LINE
  5
A07D
330
747D
100
AcDbEntity
  8
0
100
AcDbLine
 10
1385.982410818695
 20
1537.096612352652
 30
0.0
 11
1030.982410818695
 21
1537.096612352652
 31
0.0
  0
LINE
  5
A07E
330
747D
100
AcDbEntity
  8
0
100
AcDbLine
 10
1023.482410818695
 20
1257.458149219323
 30
0.0
 11
1385.982410818695
 21
1257.458149219323
 31
0.0
  0
TEXT
  5
A07F
330
747D
100
AcDbEntity
  8
0
100
AcDbText
 10
1113.300682942465
 20
1850.479331829194
 30
0.0
 40
28.0
  1
マルチスリット側溝蓋  Ｎ型  ６００用
  7
SANWA
 72
     4
 11
1481.940682942465
 21
1864.479331829194
 31
0.0
100
AcDbText
  0
LINE
  5
A080
330
747D
100
AcDbEntity
  8
0
100
AcDbLine
 10
1083.182346174436
 20
1827.30000488102
 30
0.0
 11
2088.163249684682
 21
1827.30000488102
 31
0.0
  0
LINE
  5
A081
330
747D
100
AcDbEntity
  8
0
100
AcDbLine
 10
1083.182346174436
 20
1835.30000488102
 30
0.0
 11
2088.163249684682
 21
1835.30000488102
 31
0.0
  0
LINE
  5
A082
330
747D
100
AcDbEntity
  8
枠
100
AcDbLine
 10
249.9999933485014
 20
2000.000002931939
 30
0.0
 11
2869.999993348502
 21
2000.000002931939
 31
0.0
  0
DIMENSION
  5
A083
330
747D
100
AcDbEntity
  8
寸法引出
100
AcDbDimension
  2
*D134
 10
645.9824108186953
 20
1702.939638037911
 30
0.0
 11
827.2324108186953
 21
1722.939638037911
 31
0.0
 70
    32
 71
     5
 42
362.5
  3
SANWA
100
AcDbAlignedDimension
 13
1008.482410818695
 23
1657.096612352652
 33
0.0
 14
645.9824108186953
 24
1657.096612352652
 34
0.0
100
AcDbRotatedDimension
1001
ACAD
1000
DSTYLE
1002
{
1070
   140
1040
2.0
1070
    40
1040
10.0
1070
   147
1040
1.0
1070
    44
1040
0.5
1070
    43
1040
5.0
1070
   178
1070
   256
1070
   177
1070
   256
1070
   176
1070
   256
1070
    41
1040
1.5
1002
}
  0
DIMENSION
  5
A084
330
747D
100
AcDbEntity
  8
寸法引出
100
AcDbDimension
  2
*D135
 10
1023.482410818695
 20
1702.939638037911
 30
0.0
 11
1015.982410818695
 21
1722.939638037911
 31
0.0
 70
    32
 71
     5
 42
15.0
  3
SANWA
100
AcDbAlignedDimension
 13
1008.482410818695
 23
1657.096612352652
 33
0.0
 14
1023.482410818695
 24
1657.096612352652
 34
0.0
100
AcDbRotatedDimension
1001
ACAD
1000
DSTYLE
1002
{
1070
   140
1040
2.0
1070
    40
1040
10.0
1070
   147
1040
1.0
1070
    44
1040
0.5
1070
    43
1040
5.0
1070
   178
1070
   256
1070
   177
1070
   256
1070
   176
1070
   256
1070
    41
1040
1.5
1002
}
  0
DIMENSION
  5
A085
330
747D
100
AcDbEntity
  8
寸法引出
100
AcDbDimension
  2
*D136
 10
1023.482410818695
 20
1377.482420256454
 30
0.0
 11
1015.982410818695
 21
1397.482420256454
 31
0.0
 70
    32
 71
     5
 42
15.0
  3
SANWA
100
AcDbAlignedDimension
 13
1008.482410818695
 23
1257.458149219323
 33
0.0
 14
1023.482410818695
 24
1257.458149219323
 34
0.0
100
AcDbRotatedDimension
1001
ACAD
1000
DSTYLE
1002
{
1070
    40
1040
10.0
1070
    41
1040
1.5
1070
    43
1040
5.0
1070
    44
1040
0.5
1070
    75
1070
     1
1070
   140
1040
2.0
1070
   147
1040
1.0
1070
   176
1070
   256
1070
   177
1070
   256
1070
   178
1070
   256
1070
   279
1070
     1
1002
}
  0
DIMENSION
  5
A086
330
747D
100
AcDbEntity
  8
寸法引出
100
AcDbDimension
  2
*D137
 10
1008.482410818695
 20
1377.482420256454
 30
0.0
 11
827.2324108186953
 21
1397.482420256454
 31
0.0
 70
    32
 71
     5
 42
362.5
  3
SANWA
100
AcDbAlignedDimension
 13
645.9824108186953
 23
1257.458149219323
 33
0.0
 14
1008.482410818695
 24
1257.458149219323
 34
0.0
100
AcDbRotatedDimension
1001
ACAD
1000
DSTYLE
1002
{
1070
   140
1040
2.0
1070
    40
1040
10.0
1070
   147
1040
1.0
1070
    44
1040
0.5
1070
    43
1040
5.0
1070
   178
1070
   256
1070
   177
1070
   256
1070
   176
1070
   256
1070
    41
1040
1.5
1002
}
  0
DIMENSION
  5
A087
330
747D
100
AcDbEntity
  8
寸法引出
100
AcDbDimension
  2
*D138
 10
680.9824108186953
 20
1337.331674895793
 30
0.0
 11
663.4824108186953
 21
1357.331674895793
 31
0.0
 70
    32
 71
     5
 42
35.0
  3
SANWA
100
AcDbAlignedDimension
 13
645.9824108186953
 23
1257.458149219323
 33
0.0
 14
680.9824108186953
 24
1257.458149219323
 34
0.0
100
AcDbRotatedDimension
1001
ACAD
1000
DSTYLE
1002
{
1070
   140
1040
2.0
1070
    40
1040
10.0
1070
   147
1040
1.0
1070
    44
1040
0.5
1070
    43
1040
5.0
1070
   178
1070
   256
1070
   177
1070
   256
1070
   176
1070
   256
1070
    41
1040
1.5
1002
}
  0
LWPOLYLINE
  5
A088
330
747D
100
AcDbEntity
  8
寸法引出
100
AcDbPolyline
 90
        3
 70
     0
 43
0.0
 10
667.8684679094024
 20
1155.394449213369
 10
582.6875750160398
 20
1304.289127425567
 10
477.8233308751167
 20
1304.289127425567
1001
ACAD
1000
DSTYLE
1002
{
1070
   140
1040
2.0
1070
    40
1040
10.0
1070
   147
1040
1.0
1070
    44
1040
0.5
1070
    43
1040
5.0
1070
   178
1070
   256
1070
   177
1070
   256
1070
   176
1070
   256
1070
    41
1040
1.5
1002
}
  0
LINE
  5
A089
330
747D
100
AcDbEntity
  8
0
100
AcDbLine
 10
645.9824108186953
 20
1257.458149219323
 30
0.0
 11
1008.482410818695
 21
1257.458149219323
 31
0.0
  0
DIMENSION
  5
A08A
330
747D
100
AcDbEntity
  8
寸法引出
100
AcDbDimension
  2
*D139
 10
551.6202236534663
 20
1257.458149219323
 30
0.0
 11
531.6202236534662
 21
1197.458149219323
 31
0.0
 70
    32
 71
     5
 42
120.0
  3
SANWA
100
AcDbAlignedDimension
 13
645.9824108186953
 23
1137.458149219323
 33
0.0
 14
645.9824108186953
 24
1257.458149219323
 34
0.0
 50
90.0
100
AcDbRotatedDimension
1001
ACAD
1000
DSTYLE
1002
{
1070
   140
1040
2.0
1070
    40
1040
10.0
1070
   147
1040
1.0
1070
    44
1040
0.5
1070
    43
1040
5.0
1070
   178
1070
   256
1070
   177
1070
   256
1070
   176
1070
   256
1070
    41
1040
1.5
1002
}
  0
TEXT
  5
A08B
330
747D
100
AcDbEntity
  8
寸法引出
100
AcDbText
 10
475.8121576907592
 20
1311.042128410073
 30
0.0
 40
15.0
  1
インサート
  7
SANWA
100
AcDbText
  0
TEXT
  5
A08C
330
747D
100
AcDbEntity
  8
寸法引出
100
AcDbText
 10
475.8121576907592
 20
1334.973891148045
 30
0.0
 40
15.0
  1
ロックピン用
  7
SANWA
100
AcDbText
  0
CIRCLE
  5
A08D
330
747D
100
AcDbEntity
  8
0
100
AcDbCircle
 10
680.9824108186953
 20
1137.458149219323
 30
0.0
 40
8.0
  0
LINE
  5
A08E
330
747D
100
AcDbEntity
  8
0
100
AcDbLine
 10
680.9824108186953
 20
1119.458149219323
 30
0.0
 11
680.9824108186953
 21
1155.458149219323
 31
0.0
  0
SOLID
  5
A08F
330
747D
100
AcDbEntity
  8
寸法引出
100
AcDbTrace
 10
670.1280007034182
 20
1156.464267680571
 30
0.0
 11
674.287378712616
 21
1141.837252449274
 31
0.0
 12
665.6089351153866
 22
1154.324630746167
 32
0.0
 13
665.6089351153866
 23
1154.324630746167
 33
0.0
1001
ACAD
1000
DSTYLE
1002
{
1070
   140
1040
2.0
1070
    40
1040
10.0
1070
   147
1040
1.0
1070
    44
1040
0.5
1070
    43
1040
5.0
1070
   178
1070
   256
1070
   177
1070
   256
1070
   176
1070
   256
1070
    41
1040
1.5
1002
}
  0
LINE
  5
A090
330
747D
100
AcDbEntity
  8
0
100
AcDbLine
 10
662.9824108186953
 20
1137.458149219323
 30
0.0
 11
698.9824108186954
 21
1137.458149219323
 31
0.0
  0
DIMENSION
  5
A091
330
747D
100
AcDbEntity
  8
寸法引出
100
AcDbDimension
  2
*D140
 10
1015.982410818695
 20
1337.331674895793
 30
0.0
 11
848.4824108186954
 21
1357.331674895793
 31
0.0
 70
    32
 71
     5
 42
335.0
  3
SANWA
100
AcDbAlignedDimension
 13
680.9824108186953
 23
1257.458149219323
 33
0.0
 14
1015.982410818695
 24
1307.458149219323
 34
0.0
100
AcDbRotatedDimension
1001
ACAD
1000
DSTYLE
1002
{
1070
   140
1040
2.0
1070
    40
1040
10.0
1070
   147
1040
1.0
1070
    44
1040
0.5
1070
    43
1040
5.0
1070
   178
1070
   256
1070
   177
1070
   256
1070
   176
1070
   256
1070
    41
1040
1.5
1002
}
  0
DIMENSION
  5
A092
330
747D
100
AcDbEntity
  8
寸法引出
100
AcDbDimension
  2
*D141
 10
680.9824108186953
 20
1492.591358611427
 30
0.0
 11
663.4824108186953
 21
1512.591358611427
 31
0.0
 70
    32
 71
     5
 42
35.0
  3
SANWA
100
AcDbAlignedDimension
 13
645.9824108186953
 23
1537.096612352652
 33
0.0
 14
680.9824108186953
 24
1537.096612352652
 34
0.0
100
AcDbRotatedDimension
1001
ACAD
1000
DSTYLE
1002
{
1070
   140
1040
2.0
1070
    40
1040
10.0
1070
   147
1040
1.0
1070
    44
1040
0.5
1070
    43
1040
5.0
1070
   178
1070
   256
1070
   177
1070
   256
1070
   176
1070
   256
1070
    41
1040
1.5
1002
}
  0
DIMENSION
  5
A093
330
747D
100
AcDbEntity
  8
寸法引出
100
AcDbDimension
  2
*D142
 10
645.9824108186953
 20
1455.847313842423
 30
0.0
 11
823.4824108186952
 21
1475.847313842423
 31
0.0
 70
    32
 71
     5
 42
354.9999999999998
  3
SANWA
100
AcDbAlignedDimension
 13
1000.982410818695
 23
1537.096612352652
 33
0.0
 14
645.9824108186953
 24
1537.096612352652
 34
0.0
100
AcDbRotatedDimension
1001
ACAD
1000
DSTYLE
1002
{
1070
   140
1040
2.0
1070
    40
1040
10.0
1070
   147
1040
1.0
1070
    44
1040
0.5
1070
    43
1040
5.0
1070
   178
1070
   256
1070
   177
1070
   256
1070
   176
1070
   256
1070
    41
1040
1.5
1002
}
  0
LINE
  5
A094
330
747D
100
AcDbEntity
  8
0
100
AcDbLine
 10
645.9824108186953
 20
1657.096612352652
 30
0.0
 11
1008.482410818695
 21
1657.096612352652
 31
0.0
  0
LINE
  5
A095
330
747D
100
AcDbEntity
  8
0
100
AcDbLine
 10
1000.982410818695
 20
1537.096612352652
 30
0.0
 11
645.9824108186953
 21
1537.096612352652
 31
0.0
  0
LINE
  5
A096
330
747D
100
AcDbEntity
  8
0
100
AcDbLine
 10
645.9824108186953
 20
1657.096612352652
 30
0.0
 11
1008.482410818695
 21
1657.096612352652
 31
0.0
  0
LINE
  5
A097
330
747D
100
AcDbEntity
  8
0
100
AcDbLine
 10
645.9824108186953
 20
1537.096612352652
 30
0.0
 11
645.9824108186953
 21
1657.096612352652
 31
0.0
  0
LINE
  5
A098
330
747D
100
AcDbEntity
  8
0
  6
HIDDEN2
 48
5.0
100
AcDbLine
 10
675.9824108186953
 20
1537.096612352652
 30
0.0
 11
675.9824108186953
 21
1564.096612352652
 31
0.0
  0
LINE
  5
A099
330
747D
100
AcDbEntity
  8
0
  6
HIDDEN2
 48
5.0
100
AcDbLine
 10
685.9824108186954
 20
1537.096612352652
 30
0.0
 11
685.9824108186951
 21
1564.096612352653
 31
0.0
  0
DIMENSION
  5
A09A
330
747D
100
AcDbEntity
  8
寸法引出
100
AcDbDimension
  2
*D143
 10
978.8121568129032
 20
1537.096612352652
 30
0.0
 11
958.8121568129029
 21
1541.596612352652
 31
0.0
 70
    32
 71
     5
 42
9.0
  3
SANWA
100
AcDbAlignedDimension
 13
1000.982410818695
 23
1546.096612352652
 33
0.0
 14
1000.982410818695
 24
1537.096612352652
 34
0.0
 50
90.0
100
AcDbRotatedDimension
1001
ACAD
1000
DSTYLE
1002
{
1070
   140
1040
2.0
1070
    40
1040
10.0
1070
   147
1040
1.0
1070
    44
1040
0.5
1070
    43
1040
5.0
1070
   178
1070
   256
1070
   177
1070
   256
1070
   176
1070
   256
1070
    41
1040
1.5
1002
}
  0
LINE
  5
A09B
330
747D
100
AcDbEntity
  8
0
100
AcDbLine
 10
1030.982410818695
 20
1546.096612352653
 30
0.0
 11
1030.982410818696
 21
1537.096612352652
 31
0.0
  0
LINE
  5
A09C
330
747D
100
AcDbEntity
  8
0
100
AcDbLine
 10
1000.982410818695
 20
1546.096612352653
 30
0.0
 11
1000.982410818695
 21
1537.096612352652
 31
0.0
  0
LINE
  5
A09D
330
747D
100
AcDbEntity
  8
0
100
AcDbLine
 10
692.8735840156512
 20
1537.096612352652
 30
0.0
 11
669.0912376217395
 21
1537.096612352652
 31
0.0
  0
DIMENSION
  5
A09E
330
747D
100
AcDbEntity
  8
寸法引出
100
AcDbDimension
  2
*D144
 10
1030.982410818695
 20
1455.847313842423
 30
0.0
 11
1015.982410818695
 21
1475.847313842423
 31
0.0
 70
    32
 71
     5
 42
30.00000000000023
  3
SANWA
100
AcDbAlignedDimension
 13
1000.982410818695
 23
1537.096612352652
 33
0.0
 14
1030.982410818695
 24
1537.096612352652
 34
0.0
100
AcDbRotatedDimension
1001
ACAD
1000
DSTYLE
1002
{
1070
   140
1040
2.0
1070
    40
1040
10.0
1070
   147
1040
1.0
1070
    44
1040
0.5
1070
    43
1040
5.0
1070
   178
1070
   256
1070
   177
1070
   256
1070
   176
1070
   256
1070
    41
1040
1.5
1002
}
  0
LINE
  5
A09F
330
747D
100
AcDbEntity
  8
0
  6
HIDDEN2
 48
5.0
100
AcDbLine
 10
685.9824108186951
 20
1564.096612352653
 30
0.0
 11
675.9824108186953
 21
1564.096612352653
 31
0.0
  0
DIMENSION
  5
A0A0
330
747D
100
AcDbEntity
  8
寸法引出
100
AcDbDimension
  2
*D145
 10
978.8121568129032
 20
1632.096612352652
 30
0.0
 11
958.8121568129029
 21
1644.596612352652
 31
0.0
 70
    32
 71
     5
 42
25.00000000000023
  3
SANWA
100
AcDbAlignedDimension
 13
1008.482410818695
 23
1657.096612352652
 33
0.0
 14
1002.982410818695
 24
1632.096612352652
 34
0.0
 50
90.0
100
AcDbRotatedDimension
1001
ACAD
1000
DSTYLE
1002
{
1070
   140
1040
2.0
1070
    40
1040
10.0
1070
   147
1040
1.0
1070
    44
1040
0.5
1070
    43
1040
5.0
1070
   178
1070
   256
1070
   177
1070
   256
1070
   176
1070
   256
1070
    41
1040
1.5
1002
}
  0
LINE
  5
A0A1
330
747D
100
AcDbEntity
  8
0
100
AcDbLine
 10
1028.982410818695
 20
1632.096612352652
 30
0.0
 11
1030.982410818695
 21
1546.096612352652
 31
0.0
  0
LINE
  5
A0A2
330
747D
100
AcDbEntity
  8
0
100
AcDbLine
 10
1002.982410818695
 20
1632.096612352652
 30
0.0
 11
1000.982410818695
 21
1546.096612352652
 31
0.0
  0
LINE
  5
A0A3
330
747D
100
AcDbEntity
  8
0
100
AcDbLine
 10
1000.982410818695
 20
1546.096612352652
 30
0.0
 11
1030.982410818695
 21
1546.096612352652
 31
0.0
  0
LINE
  5
A0A4
330
747D
100
AcDbEntity
  8
0
100
AcDbLine
 10
1002.982410818695
 20
1632.096612352652
 30
0.0
 11
1028.982410818695
 21
1632.096612352653
 31
0.0
  0
LINE
  5
A0A5
330
747D
100
AcDbEntity
  8
0
100
AcDbLine
 10
1008.482410818695
 20
1657.096612352652
 30
0.0
 11
1008.482410818695
 21
1632.096612352652
 31
0.0
  0
LINE
  5
A0A6
330
747D
100
AcDbEntity
  8
0
100
AcDbLine
 10
1023.482410818695
 20
1657.096612352652
 30
0.0
 11
1023.482410818695
 21
1632.096612352652
 31
0.0
  0
LINE
  5
A0A7
330
747D
100
AcDbEntity
  8
0
100
AcDbLine
 10
-0.0000066514985519
 20
2100.000002931939
 30
0.0
 11
249.9999933485014
 21
2100.000002931939
 31
0.0
  0
LINE
  5
A0A8
330
747D
100
AcDbEntity
  8
0
100
AcDbLine
 10
-0.0000066514985519
 20
2000.000002931939
 30
0.0
 11
-0.0000066514985519
 21
2100.000002931939
 31
0.0
  0
DIMENSION
  5
A0A9
330
747D
100
AcDbEntity
  8
寸法引出
100
AcDbDimension
  2
*D146
 10
2580.290860613375
 20
1739.167952386481
 30
0.0
 11
2080.290860613375
 21
1759.167952386481
 31
0.0
 70
    32
 71
     5
 42
1000.0
  3
SANWA
100
AcDbAlignedDimension
 13
1580.290860613375
 23
1657.096612352652
 33
0.0
 14
2580.290860613375
 24
1657.096612352652
 34
0.0
100
AcDbRotatedDimension
1001
ACAD
1000
DSTYLE
1002
{
1070
   140
1040
2.0
1070
    40
1040
10.0
1070
   147
1040
1.0
1070
    44
1040
0.5
1070
    43
1040
5.0
1070
   178
1070
   256
1070
   177
1070
   256
1070
   176
1070
   256
1070
    41
1040
1.5
1002
}
  0
LINE
  5
A0AA
330
747D
100
AcDbEntity
  8
0
  6
HIDDEN2
 48
10.0
100
AcDbLine
 10
2106.536591254894
 20
1546.096612352652
 30
0.0
 11
2054.045129971857
 21
1546.096612352652
 31
0.0
  0
DIMENSION
  5
A0AB
330
747D
100
AcDbEntity
  8
寸法引出
100
AcDbDimension
  2
*D147
 10
2460.290860613375
 20
1482.550175541708
 30
0.0
 11
2080.290860613375
 21
1502.550175541708
 31
0.0
 70
    32
 71
     5
 42
760.0
  3
SANWA
100
AcDbAlignedDimension
 13
1700.290860613375
 23
1537.096612352652
 33
0.0
 14
2460.290860613375
 24
1537.096612352652
 34
0.0
100
AcDbRotatedDimension
1001
ACAD
1000
DSTYLE
1002
{
1070
    40
1040
10.0
1070
    41
1040
1.5
1070
    43
1040
5.0
1070
    44
1040
0.5
1070
    75
1070
     1
1070
   140
1040
2.0
1070
   147
1040
1.0
1070
   176
1070
   256
1070
   177
1070
   256
1070
   178
1070
   256
1070
   279
1070
     1
1002
}
  0
LINE
  5
A0AC
330
747D
100
AcDbEntity
  8
0
  6
HIDDEN2
 48
10.0
100
AcDbLine
 10
1580.290860613375
 20
1632.096612352652
 30
0.0
 11
2580.290860613375
 21
1632.096612352652
 31
0.0
  0
LINE
  5
A0AD
330
747D
100
AcDbEntity
  8
0
100
AcDbLine
 10
2580.290860613375
 20
1537.096612352652
 30
0.0
 11
1580.290860613375
 21
1537.096612352652
 31
0.0
  0
LINE
  5
A0AE
330
747D
100
AcDbEntity
  8
0
100
AcDbLine
 10
1580.290860613375
 20
1657.096612352652
 30
0.0
 11
2580.290860613375
 21
1657.096612352652
 31
0.0
  0
LINE
  5
A0AF
330
747D
100
AcDbEntity
  8
0
100
AcDbLine
 10
1350.982410818695
 20
1119.458149219323
 30
0.0
 11
1350.982410818695
 21
1155.458149219323
 31
0.0
  0
CIRCLE
  5
A0B0
330
747D
100
AcDbEntity
  8
0
100
AcDbCircle
 10
1350.982410818695
 20
1137.458149219323
 30
0.0
 40
8.0
  0
LINE
  5
A0B1
330
747D
100
AcDbEntity
  8
0
100
AcDbLine
 10
1368.982410818695
 20
1137.458149219323
 30
0.0
 11
1332.982410818695
 21
1137.458149219323
 31
0.0
  0
DIMENSION
  5
A0B2
330
747D
100
AcDbEntity
  8
寸法引出
100
AcDbDimension
  2
*D148
 10
1385.982410818695
 20
1337.331674895793
 30
0.0
 11
1368.482410818695
 21
1357.331674895793
 31
0.0
 70
    32
 71
     5
 42
35.0
  3
SANWA
100
AcDbAlignedDimension
 13
1350.982410818695
 23
1257.458149219323
 33
0.0
 14
1385.982410818695
 24
1257.458149219323
 34
0.0
100
AcDbRotatedDimension
1001
ACAD
1000
DSTYLE
1002
{
1070
    40
1040
10.0
1070
    41
1040
1.5
1070
    43
1040
5.0
1070
    44
1040
0.5
1070
    75
1070
     1
1070
   140
1040
2.0
1070
   147
1040
1.0
1070
   176
1070
   256
1070
   177
1070
   256
1070
   178
1070
   256
1070
   279
1070
     1
1002
}
  0
LINE
  5
A0B3
330
747D
100
AcDbEntity
  8
0
  6
HIDDEN2
 48
10.0
100
AcDbLine
 10
1597.290031764921
 20
1632.096612352652
 30
0.0
 11
1614.045129971857
 21
1546.096612352652
 31
0.0
  0
DIMENSION
  5
A0B4
330
747D
100
AcDbEntity
  8
寸法引出
100
AcDbDimension
  2
*D149
 10
1700.290860613375
 20
1482.550175541708
 30
0.0
 11
1640.290860613375
 21
1502.550175541708
 31
0.0
 70
    32
 71
     5
 42
120.0
  3
SANWA
100
AcDbAlignedDimension
 13
1580.290860613375
 23
1537.096612352652
 33
0.0
 14
1700.290860613375
 24
1537.096612352652
 34
0.0
100
AcDbRotatedDimension
1001
ACAD
1000
DSTYLE
1002
{
1070
   140
1040
2.0
1070
    40
1040
10.0
1070
   147
1040
1.0
1070
    44
1040
0.5
1070
    43
1040
5.0
1070
   178
1070
   256
1070
   177
1070
   256
1070
   176
1070
   256
1070
    41
1040
1.5
1002
}
  0
DIMENSION
  5
A0B5
330
747D
100
AcDbEntity
  8
寸法引出
100
AcDbDimension
  2
*D150
 10
1468.782847140992
 20
1537.096612352652
 30
0.0
 11
1448.782847140991
 21
1597.096612352652
 31
0.0
 70
    32
 71
     5
 42
120.0
  3
SANWA
100
AcDbAlignedDimension
 13
1385.982410818695
 23
1657.096612352652
 33
0.0
 14
1385.982410818695
 24
1537.096612352652
 34
0.0
 50
90.0
100
AcDbRotatedDimension
1001
ACAD
1000
DSTYLE
1002
{
1070
   140
1040
2.0
1070
    40
1040
10.0
1070
   147
1040
1.0
1070
    44
1040
0.5
1070
    43
1040
5.0
1070
   178
1070
   256
1070
   177
1070
   256
1070
   176
1070
   256
1070
    41
1040
1.5
1002
}
  0
LINE
  5
A0B6
330
747D
100
AcDbEntity
  8
0
100
AcDbLine
 10
1580.290860613375
 20
1537.096612352652
 30
0.0
 11
1580.290860613375
 21
1657.096612352652
 31
0.0
  0
LINE
  5
A0B7
330
747D
100
AcDbEntity
  8
0
  6
HIDDEN2
 48
5.0
100
AcDbLine
 10
1345.982410818695
 20
1537.096612352652
 30
0.0
 11
1345.982410818695
 21
1564.096612352653
 31
0.0
  0
LINE
  5
A0B8
330
747D
100
AcDbEntity
  8
0
  6
HIDDEN2
 48
5.0
100
AcDbLine
 10
1355.982410818695
 20
1537.096612352652
 30
0.0
 11
1355.982410818695
 21
1564.096612352652
 31
0.0
  0
LINE
  5
A0B9
330
747D
100
AcDbEntity
  8
0
100
AcDbLine
 10
1385.982410818695
 20
1657.096612352652
 30
0.0
 11
1385.982410818695
 21
1537.096612352652
 31
0.0
  0
DIMENSION
  5
A0BA
330
747D
100
AcDbEntity
  8
寸法引出
100
AcDbDimension
  2
*D151
 10
1385.982410818695
 20
1492.591358611427
 30
0.0
 11
1368.482410818695
 21
1512.591358611427
 31
0.0
 70
    32
 71
     5
 42
35.0
  3
SANWA
100
AcDbAlignedDimension
 13
1350.982410818695
 23
1537.096612352652
 33
0.0
 14
1385.982410818695
 24
1537.096612352652
 34
0.0
100
AcDbRotatedDimension
1001
ACAD
1000
DSTYLE
1002
{
1070
   140
1040
2.0
1070
    40
1040
10.0
1070
   147
1040
1.0
1070
    44
1040
0.5
1070
    43
1040
5.0
1070
   178
1070
   256
1070
   177
1070
   256
1070
   176
1070
   256
1070
    41
1040
1.5
1002
}
  0
LINE
  5
A0BB
330
747D
100
AcDbEntity
  8
0
100
AcDbLine
 10
1339.091237621739
 20
1537.096612352652
 30
0.0
 11
1362.873584015651
 21
1537.096612352652
 31
0.0
  0
POINT
  5
A0BC
330
747D
100
AcDbEntity
  8
寸法引出
100
AcDbPoint
 10
1385.982410818695
 20
1537.096612352652
 30
0.0
  0
POINT
  5
A0BD
330
747D
100
AcDbEntity
  8
寸法引出
100
AcDbPoint
 10
1385.982410818695
 20
1537.096612352652
 30
0.0
  0
LINE
  5
A0BE
330
747D
100
AcDbEntity
  8
0
  6
HIDDEN2
 48
5.0
100
AcDbLine
 10
1345.982410818695
 20
1564.096612352653
 30
0.0
 11
1355.982410818695
 21
1564.096612352653
 31
0.0
  0
POINT
  5
A0BF
330
747D
100
AcDbEntity
  8
DEFPOINTS
  6
ByBlock
 62
     0
100
AcDbPoint
 10
1385.982410818695
 20
1571.096612352652
 30
0.0
  0
POINT
  5
A0C0
330
747D
100
AcDbEntity
  8
DEFPOINTS
  6
ByBlock
 62
     0
100
AcDbPoint
 10
1385.982410818695
 20
1619.096612352652
 30
0.0
  0
POINT
  5
A0C1
330
747D
100
AcDbEntity
  8
DEFPOINTS
  6
ByBlock
 62
     0
100
AcDbPoint
 10
1385.982410818695
 20
1571.096612352652
 30
0.0
  0
POINT
  5
A0C2
330
747D
100
AcDbEntity
  8
DEFPOINTS
  6
ByBlock
 62
     0
100
AcDbPoint
 10
1385.982410818695
 20
1619.096612352652
 30
0.0
  0
POINT
  5
A0C3
330
747D
100
AcDbEntity
  8
寸法引出
100
AcDbPoint
 10
1385.982410818695
 20
1657.096612352652
 30
0.0
  0
POINT
  5
A0C4
330
747D
100
AcDbEntity
  8
寸法引出
100
AcDbPoint
 10
1385.982410818695
 20
1657.096612352652
 30
0.0
  0
LINE
  5
A0C5
330
747D
100
AcDbEntity
  8
0
  6
HIDDEN2
 48
5.0
100
AcDbLine
 10
1695.290860613375
 20
1537.096612352652
 30
0.0
 11
1695.290860613375
 21
1564.096612352653
 31
0.0
  0
LINE
  5
A0C6
330
747D
100
AcDbEntity
  8
0
  6
HIDDEN2
 48
5.0
100
AcDbLine
 10
1705.290860613375
 20
1537.096612352652
 30
0.0
 11
1705.290860613375
 21
1564.096612352652
 31
0.0
  0
LINE
  5
A0C7
330
747D
100
AcDbEntity
  8
0
  6
HIDDEN2
 48
10.0
100
AcDbLine
 10
1886.536591254893
 20
1546.096612352652
 30
0.0
 11
1834.045129971857
 21
1546.096612352652
 31
0.0
  0
LINE
  5
A0C8
330
747D
100
AcDbEntity
  8
0
  6
HIDDEN2
 48
10.0
100
AcDbLine
 10
1817.290031764921
 20
1632.096612352652
 30
0.0
 11
1834.045129971857
 21
1546.096612352652
 31
0.0
  0
LINE
  5
A0C9
330
747D
100
AcDbEntity
  8
0
  6
HIDDEN2
 48
10.0
100
AcDbLine
 10
1683.291689461829
 20
1632.096612352652
 30
0.0
 11
1666.536591254893
 21
1546.096612352652
 31
0.0
  0
LINE
  5
A0CA
330
747D
100
AcDbEntity
  8
0
  6
HIDDEN2
 48
10.0
100
AcDbLine
 10
1666.536591254893
 20
1546.096612352652
 30
0.0
 11
1614.045129971857
 21
1546.096612352652
 31
0.0
  0
LINE
  5
A0CB
330
747D
100
AcDbEntity
  8
0
  6
HIDDEN2
 48
5.0
100
AcDbLine
 10
1695.290860613375
 20
1564.096612352653
 30
0.0
 11
1705.290860613375
 21
1564.096612352653
 31
0.0
  0
LINE
  5
A0CC
330
747D
100
AcDbEntity
  8
0
  6
HIDDEN2
 48
10.0
100
AcDbLine
 10
2037.290031764921
 20
1632.096612352652
 30
0.0
 11
2054.045129971857
 21
1546.096612352652
 31
0.0
  0
LINE
  5
A0CD
330
747D
100
AcDbEntity
  8
0
  6
HIDDEN2
 48
10.0
100
AcDbLine
 10
1903.291689461829
 20
1632.096612352652
 30
0.0
 11
1886.536591254893
 21
1546.096612352652
 31
0.0
  0
LINE
  5
A0CE
330
747D
100
AcDbEntity
  8
0
  6
HIDDEN2
 48
10.0
100
AcDbLine
 10
2563.291689461829
 20
1632.096612352652
 30
0.0
 11
2546.536591254894
 21
1546.096612352652
 31
0.0
  0
DIMENSION
  5
A0CF
330
747D
100
AcDbEntity
  8
寸法引出
100
AcDbDimension
  2
*D152
 10
2580.290860613375
 20
1482.550175541708
 30
0.0
 11
2520.290860613375
 21
1502.550175541708
 31
0.0
 70
    32
 71
     5
 42
120.0
  3
SANWA
100
AcDbAlignedDimension
 13
2460.290860613375
 23
1537.096612352652
 33
0.0
 14
2580.290860613375
 24
1537.096612352652
 34
0.0
100
AcDbRotatedDimension
1001
ACAD
1000
DSTYLE
1002
{
1070
   140
1040
2.0
1070
    40
1040
10.0
1070
   147
1040
1.0
1070
    44
1040
0.5
1070
    43
1040
5.0
1070
   178
1070
   256
1070
   177
1070
   256
1070
   176
1070
   256
1070
    41
1040
1.5
1002
}
  0
LINE
  5
A0D0
330
747D
100
AcDbEntity
  8
0
  6
HIDDEN2
 48
5.0
100
AcDbLine
 10
2455.290860613375
 20
1537.096612352652
 30
0.0
 11
2455.290860613375
 21
1564.096612352652
 31
0.0
  0
LINE
  5
A0D1
330
747D
100
AcDbEntity
  8
0
  6
HIDDEN2
 48
5.0
100
AcDbLine
 10
2465.290860613376
 20
1537.096612352652
 30
0.0
 11
2465.290860613376
 21
1564.096612352653
 31
0.0
  0
LINE
  5
A0D2
330
747D
100
AcDbEntity
  8
0
  6
HIDDEN2
 48
10.0
100
AcDbLine
 10
2326.536591254893
 20
1546.096612352652
 30
0.0
 11
2274.045129971857
 21
1546.096612352652
 31
0.0
  0
LINE
  5
A0D3
330
747D
100
AcDbEntity
  8
0
  6
HIDDEN2
 48
10.0
100
AcDbLine
 10
2257.290031764922
 20
1632.096612352652
 30
0.0
 11
2274.045129971857
 21
1546.096612352652
 31
0.0
  0
LINE
  5
A0D4
330
747D
100
AcDbEntity
  8
0
  6
HIDDEN2
 48
10.0
100
AcDbLine
 10
2123.291689461829
 20
1632.096612352652
 30
0.0
 11
2106.536591254894
 21
1546.096612352652
 31
0.0
  0
LINE
  5
A0D5
330
747D
100
AcDbEntity
  8
0
  6
HIDDEN2
 48
10.0
100
AcDbLine
 10
2343.29168946183
 20
1632.096612352652
 30
0.0
 11
2326.536591254893
 21
1546.096612352652
 31
0.0
  0
LINE
  5
A0D6
330
747D
100
AcDbEntity
  8
0
  6
HIDDEN2
 48
10.0
100
AcDbLine
 10
2477.290031764921
 20
1632.096612352652
 30
0.0
 11
2494.045129971857
 21
1546.096612352652
 31
0.0
  0
LINE
  5
A0D7
330
747D
100
AcDbEntity
  8
0
  6
HIDDEN2
 48
10.0
100
AcDbLine
 10
2546.536591254894
 20
1546.096612352652
 30
0.0
 11
2494.045129971857
 21
1546.096612352652
 31
0.0
  0
LINE
  5
A0D8
330
747D
100
AcDbEntity
  8
0
  6
HIDDEN2
 48
5.0
100
AcDbLine
 10
2465.290860613376
 20
1564.096612352653
 30
0.0
 11
2455.290860613375
 21
1564.096612352653
 31
0.0
  0
DIMENSION
  5
A0D9
330
747D
100
AcDbEntity
  8
寸法引出
100
AcDbDimension
  2
*D153
 10
2707.161051941133
 20
1537.096612352652
 30
0.0
 11
2687.161051941133
 21
1597.096612352653
 31
0.0
 70
    32
 71
     5
 42
120.0
  3
SANWA
100
AcDbAlignedDimension
 13
2580.290860613375
 23
1657.096612352652
 33
0.0
 14
2580.290860613375
 24
1537.096612352652
 34
0.0
 50
90.0
100
AcDbRotatedDimension
1001
ACAD
1000
DSTYLE
1002
{
1070
   140
1040
2.0
1070
    40
1040
10.0
1070
   147
1040
1.0
1070
    44
1040
0.5
1070
    43
1040
5.0
1070
   178
1070
   256
1070
   177
1070
   256
1070
   176
1070
   256
1070
    41
1040
1.5
1002
}
  0
DIMENSION
  5
A0DA
330
747D
100
AcDbEntity
  8
寸法引出
100
AcDbDimension
  2
*D154
 10
2644.768456715927
 20
1537.096612352652
 30
0.0
 11
2624.768456715927
 21
1584.596612352653
 31
0.0
 70
    32
 71
     5
 42
95.0
  3
SANWA
100
AcDbAlignedDimension
 13
2580.290860613375
 23
1632.096612352652
 33
0.0
 14
2580.290860613375
 24
1537.096612352652
 34
0.0
 50
90.0
100
AcDbRotatedDimension
1001
ACAD
1000
DSTYLE
1002
{
1070
   140
1040
2.0
1070
    40
1040
10.0
1070
   147
1040
1.0
1070
    44
1040
0.5
1070
    43
1040
5.0
1070
   178
1070
   256
1070
   177
1070
   256
1070
   176
1070
   256
1070
    41
1040
1.5
1002
}
  0
LINE
  5
A0DB
330
747D
100
AcDbEntity
  8
0
100
AcDbLine
 10
2580.290860613375
 20
1657.096612352652
 30
0.0
 11
2580.290860613375
 21
1537.096612352652
 31
0.0
  0
DIMENSION
  5
A0DC
330
747D
100
AcDbEntity
  8
寸法引出
100
AcDbDimension
  2
*D155
 10
2644.768456715927
 20
1657.096612352652
 30
0.0
 11
2624.768456715927
 21
1644.596612352653
 31
0.0
 70
    32
 71
     5
 42
25.0
  3
SANWA
100
AcDbAlignedDimension
 13
2580.290860613375
 23
1632.096612352652
 33
0.0
 14
2580.290860613375
 24
1657.096612352652
 34
0.0
 50
90.0
100
AcDbRotatedDimension
1001
ACAD
1000
DSTYLE
1002
{
1070
    40
1040
10.0
1070
    41
1040
1.5
1070
    43
1040
5.0
1070
    44
1040
0.5
1070
    75
1070
     1
1070
   140
1040
2.0
1070
   147
1040
1.0
1070
   176
1070
   256
1070
   177
1070
   256
1070
   178
1070
   256
1070
   279
1070
     1
1002
}
  0
TEXT
  5
A0DD
330
747D
100
AcDbEntity
  8
0
100
AcDbText
 10
1937.587907469456
 20
1853.096474686337
 30
0.0
 40
24.0
  1
W=229㎏
  7
SANWA
 72
     4
 11
1999.027907469456
 21
1864.479331829194
 31
0.0
100
AcDbText
  0
LINE
  5
A0DE
330
747D
100
AcDbEntity
  8
0
100
AcDbLine
 10
2969.999993348502
 20
2100.000002931939
 30
0.0
 11
2969.999993348502
 21
2000.000002931939
 31
0.0
  0
LINE
  5
A0DF
330
747D
100
AcDbEntity
  8
0
100
AcDbLine
 10
2869.999993348502
 20
2100.000002931939
 30
0.0
 11
2969.999993348502
 21
2100.000002931939
 31
0.0
  0
VIEWPORT
  5
7540
102
{ACAD_XDICTIONARY
360
A9C3
102
}
330
747A
100
AcDbEntity
 67
     1
  8
0
100
AcDbViewport
 10
3021.590748499245
 20
1439.789625083393
 30
0.0
 40
8025.365032833196
 41
5069.731874961123
 68
     1
 69
     1
 12
3021.590748499245
 22
1439.789625083393
 13
0.0
 23
0.0
 14
10.0
 24
10.0
 15
10.0
 25
10.0
 16
0.0
 26
0.0
 36
1.0
 17
0.0
 27
0.0
 37
0.0
 42
50.0
 43
0.0
 44
0.0
 45
5069.731874961123
 50
0.0
 51
0.0
 72
   100
 90
    32800
  1

281
     0
 71
     1
 74
     0
110
0.0
120
0.0
130
0.0
111
1.0
121
0.0
131
0.0
112
0.0
122
1.0
132
0.0
 79
     0
146
0.0
  0
TEXT
  5
7737
330
747A
100
AcDbEntity
 67
     1
  8
0
 48
2.0
100
AcDbText
 10
331.871196811185
 20
20.60428158404022
 30
0.0
 40
2.0
  1

  7
SANWA
100
AcDbText
  0
ENDSEC
  0
SECTION
  2
OBJECTS
  0
DICTIONARY
  5
7471
330
0
100
AcDbDictionary
281
     1
  3
ACAD_COLOR
350
A748
  3
ACAD_GROUP
350
7472
  3
ACAD_LAYOUT
350
9B1D
  3
ACAD_MATERIAL
350
A71E
  3
ACAD_MLEADERSTYLE
350
A76D
  3
ACAD_MLINESTYLE
350
7473
  3
ACAD_PLOTSETTINGS
350
9B1E
  3
ACAD_PLOTSTYLENAME
350
9B1B
  3
ACAD_SCALELIST
350
A74B
  3
ACAD_TABLESTYLE
350
A749
  3
ACAD_VISUALSTYLE
350
A737
  3
ACDB_RECOMPOSE_DATA
350
A9C1
  3
ACDBVARIABLEDICTIONARY
350
789B
  3
DWGPROPS
350
A9C2
  0
DICTIONARY
  5
A9AF
330
7474
100
AcDbDictionary
280
     1
281
     1
  3
ADSK_XREC_LAYER_RECONCILED
360
A9B0
  0
DICTIONARY
  5
A9B1
330
7486
100
AcDbDictionary
280
     1
281
     1
  3
ADSK_XREC_LAYER_RECONCILED
360
A9B2
  0
DICTIONARY
  5
A9B3
330
7950
100
AcDbDictionary
280
     1
281
     1
  3
ADSK_XREC_LAYER_RECONCILED
360
A9B4
  0
DICTIONARY
  5
A9B5
330
7D58
100
AcDbDictionary
280
     1
281
     1
  3
ADSK_XREC_LAYER_RECONCILED
360
A9B6
  0
DICTIONARY
  5
A9B7
330
7D59
100
AcDbDictionary
280
     1
281
     1
  3
ADSK_XREC_LAYER_RECONCILED
360
A9B8
  0
DICTIONARY
  5
A9B9
330
7D5A
100
AcDbDictionary
280
     1
281
     1
  3
ADSK_XREC_LAYER_RECONCILED
360
A9BA
  0
DICTIONARY
  5
A9C3
330
7540
100
AcDbDictionary
280
     1
281
     1
  3
ACAD_XREC_ROUNDTRIP
360
A9C4
  0
DICTIONARY
  5
A748
102
{ACAD_REACTORS
330
7471
102
}
330
7471
100
AcDbDictionary
281
     1
  0
DICTIONARY
  5
7472
102
{ACAD_REACTORS
330
7471
102
}
330
0
100
AcDbDictionary
281
     1
  0
DICTIONARY
  5
9B1D
102
{ACAD_REACTORS
330
7471
102
}
330
7471
100
AcDbDictionary
281
     1
  3
Model
350
9B1F
  3
ﾚｲｱｳﾄ1
350
9B20
  0
DICTIONARY
  5
A71E
102
{ACAD_REACTORS
330
7471
102
}
330
7471
100
AcDbDictionary
281
     1
  3
ByBlock
350
A727
  3
ByLayer
350
A71F
  3
Global
350
A72F
  0
DICTIONARY
  5
A76D
102
{ACAD_REACTORS
330
7471
102
}
330
7471
100
AcDbDictionary
281
     1
  3
Standard
350
A76E
  0
DICTIONARY
  5
7473
102
{ACAD_REACTORS
330
7471
102
}
330
0
100
AcDbDictionary
281
     1
  3
STANDARD
350
7480
  0
DICTIONARY
  5
9B1E
102
{ACAD_REACTORS
330
7471
102
}
330
7471
100
AcDbDictionary
281
     1
  0
ACDBDICTIONARYWDFLT
  5
9B1B
102
{ACAD_REACTORS
330
7471
102
}
330
7471
100
AcDbDictionary
281
     1
  3
Normal
350
9B1C
100
AcDbDictionaryWithDefault
340
9B1C
  0
DICTIONARY
  5
A74B
102
{ACAD_REACTORS
330
7471
102
}
330
7471
100
AcDbDictionary
281
     1
  3
A0
350
A74C
  3
A1
350
A74D
  3
A2
350
A74E
  3
A3
350
A74F
  3
A4
350
A750
  3
A5
350
A751
  3
A6
350
A752
  3
A7
350
A753
  3
A8
350
A754
  3
A9
350
A755
  3
B0
350
A756
  3
B1
350
A757
  3
B2
350
A758
  3
B3
350
A759
  3
B4
350
A75A
  3
B5
350
A75B
  3
B6
350
A75C
  3
B7
350
A75D
  3
B8
350
A75E
  3
B9
350
A75F
  3
C0
350
A760
  3
C1
350
A761
  3
C2
350
A762
  3
C3
350
A763
  3
C4
350
A764
  3
C5
350
A765
  3
C6
350
A766
  3
C7
350
A767
  3
C8
350
A768
  3
C9
350
A769
  3
D0
350
A76A
  3
D1
350
A76B
  3
D2
350
A76C
  0
DICTIONARY
  5
A749
102
{ACAD_REACTORS
330
7471
102
}
330
7471
100
AcDbDictionary
281
     1
  3
Standard
350
A74A
  0
DICTIONARY
  5
A737
102
{ACAD_REACTORS
330
7471
102
}
330
7471
100
AcDbDictionary
281
     1
  3
2dWireframe
350
A73D
  3
3D Hidden
350
A73F
  3
3dWireframe
350
A73E
  3
Basic
350
A73C
  3
Brighten
350
A743
  3
ColorChange
350
A747
  3
Conceptual
350
A740
  3
Dim
350
A742
  3
Facepattern
350
A746
  3
Flat
350
A738
  3
FlatWithEdges
350
A739
  3
Gouraud
350
A73A
  3
GouraudWithEdges
350
A73B
  3
Linepattern
350
A745
  3
Realistic
350
A741
  3
Thicken
350
A744
  0
XRECORD
  5
A9C1
102
{ACAD_REACTORS
330
7471
102
}
330
7471
100
AcDbXrecord
280
     1
 90
        1
330
A74A
  0
DICTIONARY
  5
789B
102
{ACAD_REACTORS
330
7471
102
}
330
7471
100
AcDbDictionary
281
     1
  3
CANNOSCALE
350
A9BD
  3
CMLEADERSTYLE
350
A9BC
  3
CTABLESTYLE
350
A9BB
  3
DIMASSOC
350
A71C
  3
INDEXCTL
350
A9BE
  3
SORTENTS
350
789C
  0
XRECORD
  5
A9C2
102
{ACAD_REACTORS
330
7471
102
}
330
7471
100
AcDbXrecord
280
     1
  1
DWGPROPS COOKIE
  2

  3

  4

  6

  7

  8
ooshima
  9

300
=
301
=
302
=
303
=
304
=
305
=
306
=
307
=
308
=
309
=
 40
0.3781923263888889
 41
2451573.46699375
 42
2455412.39777684
  1

 90
        0
  0
XRECORD
  5
A9B0
102
{ACAD_REACTORS
330
A9AF
102
}
330
A9AF
100
AcDbXrecord
280
     1
290
     1
  0
XRECORD
  5
A9B2
102
{ACAD_REACTORS
330
A9B1
102
}
330
A9B1
100
AcDbXrecord
280
     1
290
     1
  0
XRECORD
  5
A9B4
102
{ACAD_REACTORS
330
A9B3
102
}
330
A9B3
100
AcDbXrecord
280
     1
290
     1
  0
XRECORD
  5
A9B6
102
{ACAD_REACTORS
330
A9B5
102
}
330
A9B5
100
AcDbXrecord
280
     1
290
     1
  0
XRECORD
  5
A9B8
102
{ACAD_REACTORS
330
A9B7
102
}
330
A9B7
100
AcDbXrecord
280
     1
290
     1
  0
XRECORD
  5
A9BA
102
{ACAD_REACTORS
330
A9B9
102
}
330
A9B9
100
AcDbXrecord
280
     1
290
     1
  0
XRECORD
  5
A9C4
102
{ACAD_REACTORS
330
A9C3
102
}
330
A9C3
100
AcDbXrecord
280
     1
102
SHADEPLOT
 70
     0
  0
LAYOUT
  5
9B1F
102
{ACAD_XDICTIONARY
360
A9C5
102
}
102
{ACAD_REACTORS
330
9B1D
102
}
330
9B1D
100
AcDbPlotSettings
  1

  2
RICOH NX-510
  4
A4
  6

 40
5.873749732971191
 41
4.92125654220581
 42
7.588241577148437
 43
5.81024169921875
 44
209.9944915771484
 45
296.989501953125
 46
0.0
 47
0.0
 48
0.0
 49
0.0
140
0.0
141
0.0
142
1.0
143
1.0
 70
 11952
 72
     1
 73
     1
 74
     0
  7
sanwa3.ctb
 75
     0
147
1.0
148
-1098.245095145866
149
873.4831326541161
100
AcDbLayout
  1
Model
 70
     1
 71
     0
 10
0.0
 20
0.0
 11
12.0
 21
9.0
 12
0.0
 22
0.0
 32
0.0
 14
0.0
 24
0.0
 34
0.0
 15
0.0
 25
0.0
 35
0.0
146
0.0
 13
0.0
 23
0.0
 33
0.0
 16
1.0
 26
0.0
 36
0.0
 17
0.0
 27
1.0
 37
0.0
 76
     0
330
747D
331
A71B
  0
LAYOUT
  5
9B20
102
{ACAD_XDICTIONARY
360
A9C7
102
}
102
{ACAD_REACTORS
330
9B1D
102
}
330
9B1D
100
AcDbPlotSettings
  1

  2
RICOH NX-510
  4
A4
  6

 40
5.873749732971191
 41
4.92125654220581
 42
7.588241577148437
 43
5.81024169921875
 44
209.9944915771484
 45
296.989501953125
 46
0.0
 47
0.0
 48
0.0
 49
0.0
140
0.0
141
0.0
142
1.0
143
21.11320996017392
 70
   688
 72
     1
 73
     1
 74
     1
  7
sanwa3.ctb
 75
     0
147
0.0473637121918605
148
0.1844175842215918
149
0.0640820246935618
100
AcDbLayout
  1
ﾚｲｱｳﾄ1
 70
     1
 71
     1
 10
-122.8572704991847
 20
-124.0777933904298
 11
6147.544440204626
 21
4309.579997757879
 12
0.0
 22
0.0
 32
0.0
 14
-0.1844175842215918
 24
-0.0640820246935618
 34
-0.000000000000016
 15
6043.640917561155
 25
2100.064091803581
 35
0.0000000000000145
146
0.0
 13
0.0
 23
0.0
 33
0.0
 16
1.0
 26
0.0
 36
0.0
 17
0.0
 27
1.0
 37
0.0
 76
     0
330
747A
331
7540
  0
MATERIAL
  5
A727
102
{ACAD_XDICTIONARY
360
A728
102
}
102
{ACAD_REACTORS
330
A71E
102
}
330
A71E
100
AcDbMaterial
  1
ByBlock
 72
     0
 43
0.0208333333333333
 43
0.0
 43
0.0
 43
0.0
 43
0.0
 43
0.0208333333333333
 43
0.0
 43
0.0
 43
0.0
 43
0.0
 43
1.0
 43
0.0
 43
0.0
 43
0.0
 43
0.0
 43
1.0
 77
     0
 47
0.0208333333333333
 47
0.0
 47
0.0
 47
0.0
 47
0.0
 47
0.0208333333333333
 47
0.0
 47
0.0
 47
0.0
 47
0.0
 47
1.0
 47
0.0
 47
0.0
 47
0.0
 47
0.0
 47
1.0
171
     0
 49
0.0208333333333333
 49
0.0
 49
0.0
 49
0.0
 49
0.0
 49
0.0208333333333333
 49
0.0
 49
0.0
 49
0.0
 49
0.0
 49
1.0
 49
0.0
 49
0.0
 49
0.0
 49
0.0
 49
1.0
175
     0
142
0.0208333333333333
142
0.0
142
0.0
142
0.0
142
0.0
142
0.0208333333333333
142
0.0
142
0.0
142
0.0
142
0.0
142
1.0
142
0.0
142
0.0
142
0.0
142
0.0
142
1.0
179
     0
144
0.0208333333333333
144
0.0
144
0.0
144
0.0
144
0.0
144
0.0208333333333333
144
0.0
144
0.0
144
0.0
144
0.0
144
1.0
144
0.0
144
0.0
144
0.0
144
0.0
144
1.0
147
0.0208333333333333
147
0.0
147
0.0
147
0.0
147
0.0
147
0.0208333333333333
147
0.0
147
0.0
147
0.0
147
0.0
147
1.0
147
0.0
147
0.0
147
0.0
147
0.0
147
1.0
  0
MATERIAL
  5
A71F
102
{ACAD_XDICTIONARY
360
A720
102
}
102
{ACAD_REACTORS
330
A71E
102
}
330
A71E
100
AcDbMaterial
  1
ByLayer
 72
     0
 43
0.0208333333333333
 43
0.0
 43
0.0
 43
0.0
 43
0.0
 43
0.0208333333333333
 43
0.0
 43
0.0
 43
0.0
 43
0.0
 43
1.0
 43
0.0
 43
0.0
 43
0.0
 43
0.0
 43
1.0
 77
     0
 47
0.0208333333333333
 47
0.0
 47
0.0
 47
0.0
 47
0.0
 47
0.0208333333333333
 47
0.0
 47
0.0
 47
0.0
 47
0.0
 47
1.0
 47
0.0
 47
0.0
 47
0.0
 47
0.0
 47
1.0
171
     0
 49
0.0208333333333333
 49
0.0
 49
0.0
 49
0.0
 49
0.0
 49
0.0208333333333333
 49
0.0
 49
0.0
 49
0.0
 49
0.0
 49
1.0
 49
0.0
 49
0.0
 49
0.0
 49
0.0
 49
1.0
175
     0
142
0.0208333333333333
142
0.0
142
0.0
142
0.0
142
0.0
142
0.0208333333333333
142
0.0
142
0.0
142
0.0
142
0.0
142
1.0
142
0.0
142
0.0
142
0.0
142
0.0
142
1.0
179
     0
144
0.0208333333333333
144
0.0
144
0.0
144
0.0
144
0.0
144
0.0208333333333333
144
0.0
144
0.0
144
0.0
144
0.0
144
1.0
144
0.0
144
0.0
144
0.0
144
0.0
144
1.0
147
0.0208333333333333
147
0.0
147
0.0
147
0.0
147
0.0
147
0.0208333333333333
147
0.0
147
0.0
147
0.0
147
0.0
147
1.0
147
0.0
147
0.0
147
0.0
147
0.0
147
1.0
  0
MATERIAL
  5
A72F
102
{ACAD_XDICTIONARY
360
A730
102
}
102
{ACAD_REACTORS
330
A71E
102
}
330
A71E
100
AcDbMaterial
  1
Global
 72
     0
 43
0.0208333333333333
 43
0.0
 43
0.0
 43
0.0
 43
0.0
 43
0.0208333333333333
 43
0.0
 43
0.0
 43
0.0
 43
0.0
 43
1.0
 43
0.0
 43
0.0
 43
0.0
 43
0.0
 43
1.0
 77
     0
 47
0.0208333333333333
 47
0.0
 47
0.0
 47
0.0
 47
0.0
 47
0.0208333333333333
 47
0.0
 47
0.0
 47
0.0
 47
0.0
 47
1.0
 47
0.0
 47
0.0
 47
0.0
 47
0.0
 47
1.0
171
     0
 49
0.0208333333333333
 49
0.0
 49
0.0
 49
0.0
 49
0.0
 49
0.0208333333333333
 49
0.0
 49
0.0
 49
0.0
 49
0.0
 49
1.0
 49
0.0
 49
0.0
 49
0.0
 49
0.0
 49
1.0
175
     0
142
0.0208333333333333
142
0.0
142
0.0
142
0.0
142
0.0
142
0.0208333333333333
142
0.0
142
0.0
142
0.0
142
0.0
142
1.0
142
0.0
142
0.0
142
0.0
142
0.0
142
1.0
179
     0
144
0.0208333333333333
144
0.0
144
0.0
144
0.0
144
0.0
144
0.0208333333333333
144
0.0
144
0.0
144
0.0
144
0.0
144
1.0
144
0.0
144
0.0
144
0.0
144
0.0
144
1.0
147
0.0208333333333333
147
0.0
147
0.0
147
0.0
147
0.0
147
0.0208333333333333
147
0.0
147
0.0
147
0.0
147
0.0
147
1.0
147
0.0
147
0.0
147
0.0
147
0.0
147
1.0
  0
MLEADERSTYLE
  5
A76E
102
{ACAD_REACTORS
330
A76D
102
}
330
A76D
100
AcDbMLeaderStyle
170
     2
171
     1
172
     0
 90
        2
 40
0.0
 41
0.0
173
     1
 91
-1056964608
340
7477
 92
       -2
290
     1
 42
2.0
291
     1
 43
0.36
  3
Standard
 44
4.0
300

342
7475
174
     1
178
     6
175
     1
176
     0
 93
-1056964608
 45
4.0
292
     0
297
     0
 46
4.0
 94
-1056964608
 47
1.0
 49
1.0
140
1.0
293
     1
141
0.0
294
     1
177
     0
142
1.0
295
     0
296
     0
143
0.125
1001
ACAD_MLEADERVER
1070
     2
  0
MLINESTYLE
  5
7480
102
{ACAD_REACTORS
330
7473
102
}
330
0
100
AcDbMlineStyle
  2
STANDARD
 70
     0
  3

 62
     0
 51
90.0
 52
90.0
 71
     2
 49
0.5
 62
   256
  6
BYLAYER
 49
-0.5
 62
   256
  6
BYLAYER
  0
ACDBPLACEHOLDER
  5
9B1C
102
{ACAD_REACTORS
330
9B1B
102
}
330
9B1B
  0
SCALE
  5
A74C
102
{ACAD_REACTORS
330
A74B
102
}
330
A74B
100
AcDbScale
 70
     0
300
1:1
140
1.0
141
1.0
290
     1
  0
SCALE
  5
A74D
102
{ACAD_REACTORS
330
A74B
102
}
330
A74B
100
AcDbScale
 70
     0
300
1:2
140
1.0
141
2.0
290
     0
  0
SCALE
  5
A74E
102
{ACAD_REACTORS
330
A74B
102
}
330
A74B
100
AcDbScale
 70
     0
300
1:4
140
1.0
141
4.0
290
     0
  0
SCALE
  5
A74F
102
{ACAD_REACTORS
330
A74B
102
}
330
A74B
100
AcDbScale
 70
     0
300
1:5
140
1.0
141
5.0
290
     0
  0
SCALE
  5
A750
102
{ACAD_REACTORS
330
A74B
102
}
330
A74B
100
AcDbScale
 70
     0
300
1:8
140
1.0
141
8.0
290
     0
  0
SCALE
  5
A751
102
{ACAD_REACTORS
330
A74B
102
}
330
A74B
100
AcDbScale
 70
     0
300
1:10
140
1.0
141
10.0
290
     0
  0
SCALE
  5
A752
102
{ACAD_REACTORS
330
A74B
102
}
330
A74B
100
AcDbScale
 70
     0
300
1:16
140
1.0
141
16.0
290
     0
  0
SCALE
  5
A753
102
{ACAD_REACTORS
330
A74B
102
}
330
A74B
100
AcDbScale
 70
     0
300
1:20
140
1.0
141
20.0
290
     0
  0
SCALE
  5
A754
102
{ACAD_REACTORS
330
A74B
102
}
330
A74B
100
AcDbScale
 70
     0
300
1:30
140
1.0
141
30.0
290
     0
  0
SCALE
  5
A755
102
{ACAD_REACTORS
330
A74B
102
}
330
A74B
100
AcDbScale
 70
     0
300
1:40
140
1.0
141
40.0
290
     0
  0
SCALE
  5
A756
102
{ACAD_REACTORS
330
A74B
102
}
330
A74B
100
AcDbScale
 70
     0
300
1:50
140
1.0
141
50.0
290
     0
  0
SCALE
  5
A757
102
{ACAD_REACTORS
330
A74B
102
}
330
A74B
100
AcDbScale
 70
     0
300
1:100
140
1.0
141
100.0
290
     0
  0
SCALE
  5
A758
102
{ACAD_REACTORS
330
A74B
102
}
330
A74B
100
AcDbScale
 70
     0
300
2:1
140
2.0
141
1.0
290
     0
  0
SCALE
  5
A759
102
{ACAD_REACTORS
330
A74B
102
}
330
A74B
100
AcDbScale
 70
     0
300
4:1
140
4.0
141
1.0
290
     0
  0
SCALE
  5
A75A
102
{ACAD_REACTORS
330
A74B
102
}
330
A74B
100
AcDbScale
 70
     0
300
8:1
140
8.0
141
1.0
290
     0
  0
SCALE
  5
A75B
102
{ACAD_REACTORS
330
A74B
102
}
330
A74B
100
AcDbScale
 70
     0
300
10:1
140
10.0
141
1.0
290
     0
  0
SCALE
  5
A75C
102
{ACAD_REACTORS
330
A74B
102
}
330
A74B
100
AcDbScale
 70
     0
300
100:1
140
100.0
141
1.0
290
     0
  0
SCALE
  5
A75D
102
{ACAD_REACTORS
330
A74B
102
}
330
A74B
100
AcDbScale
 70
     0
300
1/128" = 1'-0"
140
0.0078125
141
12.0
290
     0
  0
SCALE
  5
A75E
102
{ACAD_REACTORS
330
A74B
102
}
330
A74B
100
AcDbScale
 70
     0
300
1/64" = 1'-0"
140
0.015625
141
12.0
290
     0
  0
SCALE
  5
A75F
102
{ACAD_REACTORS
330
A74B
102
}
330
A74B
100
AcDbScale
 70
     0
300
1/32" = 1'-0"
140
0.03125
141
12.0
290
     0
  0
SCALE
  5
A760
102
{ACAD_REACTORS
330
A74B
102
}
330
A74B
100
AcDbScale
 70
     0
300
1/16" = 1'-0"
140
0.0625
141
12.0
290
     0
  0
SCALE
  5
A761
102
{ACAD_REACTORS
330
A74B
102
}
330
A74B
100
AcDbScale
 70
     0
300
3/32" = 1'-0"
140
0.09375
141
12.0
290
     0
  0
SCALE
  5
A762
102
{ACAD_REACTORS
330
A74B
102
}
330
A74B
100
AcDbScale
 70
     0
300
1/8" = 1'-0"
140
0.125
141
12.0
290
     0
  0
SCALE
  5
A763
102
{ACAD_REACTORS
330
A74B
102
}
330
A74B
100
AcDbScale
 70
     0
300
3/16" = 1'-0"
140
0.1875
141
12.0
290
     0
  0
SCALE
  5
A764
102
{ACAD_REACTORS
330
A74B
102
}
330
A74B
100
AcDbScale
 70
     0
300
1/4" = 1'-0"
140
0.25
141
12.0
290
     0
  0
SCALE
  5
A765
102
{ACAD_REACTORS
330
A74B
102
}
330
A74B
100
AcDbScale
 70
     0
300
3/8" = 1'-0"
140
0.375
141
12.0
290
     0
  0
SCALE
  5
A766
102
{ACAD_REACTORS
330
A74B
102
}
330
A74B
100
AcDbScale
 70
     0
300
1/2" = 1'-0"
140
0.5
141
12.0
290
     0
  0
SCALE
  5
A767
102
{ACAD_REACTORS
330
A74B
102
}
330
A74B
100
AcDbScale
 70
     0
300
3/4" = 1'-0"
140
0.75
141
12.0
290
     0
  0
SCALE
  5
A768
102
{ACAD_REACTORS
330
A74B
102
}
330
A74B
100
AcDbScale
 70
     0
300
1" = 1'-0"
140
1.0
141
12.0
290
     0
  0
SCALE
  5
A769
102
{ACAD_REACTORS
330
A74B
102
}
330
A74B
100
AcDbScale
 70
     0
300
1-1/2" = 1'-0"
140
1.5
141
12.0
290
     0
  0
SCALE
  5
A76A
102
{ACAD_REACTORS
330
A74B
102
}
330
A74B
100
AcDbScale
 70
     0
300
3" = 1'-0"
140
3.0
141
12.0
290
     0
  0
SCALE
  5
A76B
102
{ACAD_REACTORS
330
A74B
102
}
330
A74B
100
AcDbScale
 70
     0
300
6" = 1'-0"
140
6.0
141
12.0
290
     0
  0
SCALE
  5
A76C
102
{ACAD_REACTORS
330
A74B
102
}
330
A74B
100
AcDbScale
 70
     0
300
1'-0" = 1'-0"
140
12.0
141
12.0
290
     0
  0
TABLESTYLE
  5
A74A
102
{ACAD_XDICTIONARY
360
A9BF
102
}
102
{ACAD_REACTORS
330
A749
102
}
330
A749
100
AcDbTableStyle
  3
Standard
 70
     0
 71
     0
 40
1.5
 41
1.5
280
     0
281
     0
  7
STANDARD
140
4.5
170
     2
 62
     0
 63
     7
283
     0
274
    -2
284
     1
 64
     0
275
    -2
285
     1
 65
     0
276
    -2
286
     1
 66
     0
277
    -2
287
     1
 67
     0
278
    -2
288
     1
 68
     0
279
    -2
289
     1
 69
     0
  7
STANDARD
140
6.0
170
     5
 62
     0
 63
     7
283
     0
274
    -2
284
     1
 64
     0
275
    -2
285
     1
 65
     0
276
    -2
286
     1
 66
     0
277
    -2
287
     1
 67
     0
278
    -2
288
     1
 68
     0
279
    -2
289
     1
 69
     0
  7
STANDARD
140
4.5
170
     5
 62
     0
 63
     7
283
     0
274
    -2
284
     1
 64
     0
275
    -2
285
     1
 65
     0
276
    -2
286
     1
 66
     0
277
    -2
287
     1
 67
     0
278
    -2
288
     1
 68
     0
279
    -2
289
     1
 69
     0
  0
VISUALSTYLE
  5
A73D
102
{ACAD_REACTORS
330
A737
102
}
330
A737
100
AcDbVisualStyle
  2
2dWireframe
 70
     4
 71
     0
 72
     2
 73
     0
 90
        0
 40
-0.6
 41
-30.0
 62
     5
 63
     7
 74
     1
 91
        4
 64
     7
 65
   257
 75
     1
175
     1
 42
1.0
 92
        0
 66
   257
 43
1.0
 76
     1
 77
     6
 78
     2
 67
     7
 79
     5
170
     0
171
     0
290
     0
174
     0
 93
        1
 44
0.0
173
     0
291
     0
 45
0.0
1001
ACAD
1000
AcDbSavedByObjectVersion
1070
     0
  0
VISUALSTYLE
  5
A73F
102
{ACAD_REACTORS
330
A737
102
}
330
A737
100
AcDbVisualStyle
  2
3D Hidden
 70
     6
 71
     1
 72
     2
 73
     2
 90
        0
 40
-0.6
 41
-30.0
 62
     5
 63
     7
 74
     2
 91
        2
 64
     7
 65
   257
 75
     2
175
     1
 42
40.0
 92
        0
 66
   257
 43
1.0
 76
     1
 77
     6
 78
     2
 67
     7
 79
     3
170
     0
171
     0
290
     0
174
     0
 93
        1
 44
0.0
173
     0
291
     0
 45
0.0
1001
ACAD
1000
AcDbSavedByObjectVersion
1070
     0
  0
VISUALSTYLE
  5
A73E
102
{ACAD_REACTORS
330
A737
102
}
330
A737
100
AcDbVisualStyle
  2
3dWireframe
 70
     5
 71
     0
 72
     2
 73
     0
 90
        0
 40
-0.6
 41
-30.0
 62
     5
 63
     7
 74
     1
 91
        4
 64
     7
 65
   257
 75
     1
175
     1
 42
1.0
 92
        0
 66
   257
 43
1.0
 76
     1
 77
     6
 78
     2
 67
     7
 79
     5
170
     0
171
     0
290
     0
174
     0
 93
        1
 44
0.0
173
     0
291
     0
 45
0.0
1001
ACAD
1000
AcDbSavedByObjectVersion
1070
     0
  0
VISUALSTYLE
  5
A73C
102
{ACAD_REACTORS
330
A737
102
}
330
A737
100
AcDbVisualStyle
  2
Basic
 70
     7
 71
     1
 72
     0
 73
     1
 90
        0
 40
-0.6
 41
-30.0
 62
     5
 63
     7
 74
     0
 91
        4
 64
     7
 65
   257
 75
     1
175
     1
 42
1.0
 92
        8
 66
     7
 43
1.0
 76
     1
 77
     6
 78
     2
 67
     7
 79
     5
170
     0
171
     0
290
     0
174
     0
 93
        1
 44
0.0
173
     0
291
     1
 45
0.0
1001
ACAD
1000
AcDbSavedByObjectVersion
1070
     0
  0
VISUALSTYLE
  5
A743
102
{ACAD_REACTORS
330
A737
102
}
330
A737
100
AcDbVisualStyle
  2
Brighten
 70
    12
 71
     2
 72
     2
 73
     0
 90
        0
 40
-0.6
 41
-30.0
 62
     5
 63
     7
 74
     1
 91
        4
 64
     7
 65
   257
 75
     1
175
     1
 42
1.0
 92
        8
 66
     7
 43
1.0
 76
     1
 77
     6
 78
     2
 67
     7
 79
     5
170
     0
171
     0
290
     0
174
     0
 93
        1
 44
50.0
173
     0
291
     1
 45
0.0
1001
ACAD
1000
AcDbSavedByObjectVersion
1070
     0
  0
VISUALSTYLE
  5
A747
102
{ACAD_REACTORS
330
A737
102
}
330
A737
100
AcDbVisualStyle
  2
ColorChange
 70
    16
 71
     2
 72
     2
 73
     3
 90
        0
 40
-0.6
 41
-30.0
 62
     5
 63
     8
 74
     1
 91
        4
 64
     7
 65
   257
 75
     1
175
     1
 42
1.0
 92
        8
 66
     8
 43
1.0
 76
     1
 77
     6
 78
     2
 67
     7
 79
     5
170
     0
171
     0
290
     0
174
     0
 93
        1
 44
0.0
173
     0
291
     1
 45
0.0
1001
ACAD
1000
AcDbSavedByObjectVersion
1070
     0
  0
VISUALSTYLE
  5
A740
102
{ACAD_REACTORS
330
A737
102
}
330
A737
100
AcDbVisualStyle
  2
Conceptual
 70
     9
 71
     3
 72
     2
 73
     0
 90
        0
 40
-0.6
 41
-30.0
 62
     5
 63
     7
 74
     2
 91
        2
 64
     7
 65
   257
 75
     1
175
     1
 42
40.0
 92
        8
 66
     7
 43
1.0
 76
     1
 77
     6
 78
     2
 67
     7
 79
     3
170
     0
171
     0
290
     0
174
     0
 93
        1
 44
0.0
173
     0
291
     0
 45
0.0
1001
ACAD
1000
AcDbSavedByObjectVersion
1070
     0
  0
VISUALSTYLE
  5
A742
102
{ACAD_REACTORS
330
A737
102
}
330
A737
100
AcDbVisualStyle
  2
Dim
 70
    11
 71
     2
 72
     2
 73
     0
 90
        0
 40
-0.6
 41
-30.0
 62
     5
 63
     7
 74
     1
 91
        4
 64
     7
 65
   257
 75
     1
175
     1
 42
1.0
 92
        8
 66
     7
 43
1.0
 76
     1
 77
     6
 78
     2
 67
     7
 79
     5
170
     0
171
     0
290
     0
174
     0
 93
        1
 44
-50.0
173
     0
291
     1
 45
0.0
1001
ACAD
1000
AcDbSavedByObjectVersion
1070
     0
  0
VISUALSTYLE
  5
A746
102
{ACAD_REACTORS
330
A737
102
}
330
A737
100
AcDbVisualStyle
  2
Facepattern
 70
    15
 71
     2
 72
     2
 73
     0
 90
        0
 40
-0.6
 41
-30.0
 62
     5
 63
     7
 74
     1
 91
        4
 64
     7
 65
   257
 75
     1
175
     1
 42
1.0
 92
        8
 66
     7
 43
1.0
 76
     1
 77
     6
 78
     2
 67
     7
 79
     5
170
     0
171
     0
290
     0
174
     0
 93
        1
 44
0.0
173
     0
291
     1
 45
0.0
1001
ACAD
1000
AcDbSavedByObjectVersion
1070
     0
  0
VISUALSTYLE
  5
A738
102
{ACAD_REACTORS
330
A737
102
}
330
A737
100
AcDbVisualStyle
  2
Flat
 70
     0
 71
     2
 72
     1
 73
     1
 90
        2
 40
-0.6
 41
30.0
 62
     5
 63
     7
 74
     0
 91
        4
 64
     7
 65
   257
 75
     1
175
     1
 42
1.0
 92
        8
 66
     7
 43
1.0
 76
     1
 77
     6
 78
     2
 67
     7
 79
     5
170
     0
171
     0
290
     0
174
     0
 93
       13
 44
0.0
173
     0
291
     1
 45
0.0
1001
ACAD
1000
AcDbSavedByObjectVersion
1070
     0
  0
VISUALSTYLE
  5
A739
102
{ACAD_REACTORS
330
A737
102
}
330
A737
100
AcDbVisualStyle
  2
FlatWithEdges
 70
     1
 71
     2
 72
     1
 73
     1
 90
        2
 40
-0.6
 41
30.0
 62
     5
 63
     7
 74
     1
 91
        4
 64
     7
 65
   257
 75
     1
175
     1
 42
1.0
 92
        0
 66
   257
 43
1.0
 76
     1
 77
     6
 78
     2
 67
     7
 79
     5
170
     0
171
     0
290
     0
174
     0
 93
       13
 44
0.0
173
     0
291
     1
 45
0.0
1001
ACAD
1000
AcDbSavedByObjectVersion
1070
     0
  0
VISUALSTYLE
  5
A73A
102
{ACAD_REACTORS
330
A737
102
}
330
A737
100
AcDbVisualStyle
  2
Gouraud
 70
     2
 71
     2
 72
     2
 73
     1
 90
        2
 40
-0.6
 41
30.0
 62
     5
 63
     7
 74
     0
 91
        4
 64
     7
 65
   257
 75
     1
175
     1
 42
1.0
 92
        0
 66
     7
 43
1.0
 76
     1
 77
     6
 78
     2
 67
     7
 79
     5
170
     0
171
     0
290
     0
174
     0
 93
       13
 44
0.0
173
     0
291
     1
 45
0.0
1001
ACAD
1000
AcDbSavedByObjectVersion
1070
     0
  0
VISUALSTYLE
  5
A73B
102
{ACAD_REACTORS
330
A737
102
}
330
A737
100
AcDbVisualStyle
  2
GouraudWithEdges
 70
     3
 71
     2
 72
     2
 73
     1
 90
        2
 40
-0.6
 41
30.0
 62
     5
 63
     7
 74
     1
 91
        4
 64
     7
 65
   257
 75
     1
175
     1
 42
1.0
 92
        0
 66
   257
 43
1.0
 76
     1
 77
     6
 78
     2
 67
     7
 79
     5
170
     0
171
     0
290
     0
174
     0
 93
       13
 44
0.0
173
     0
291
     1
 45
0.0
1001
ACAD
1000
AcDbSavedByObjectVersion
1070
     0
  0
VISUALSTYLE
  5
A745
102
{ACAD_REACTORS
330
A737
102
}
330
A737
100
AcDbVisualStyle
  2
Linepattern
 70
    14
 71
     2
 72
     2
 73
     0
 90
        0
 40
-0.6
 41
-30.0
 62
     5
 63
     7
 74
     1
 91
        4
 64
     7
 65
   257
 75
     7
175
     7
 42
1.0
 92
        8
 66
     7
 43
1.0
 76
     1
 77
     6
 78
     2
 67
     7
 79
     5
170
     0
171
     0
290
     0
174
     0
 93
        1
 44
0.0
173
     0
291
     1
 45
0.0
1001
ACAD
1000
AcDbSavedByObjectVersion
1070
     0
  0
VISUALSTYLE
  5
A741
102
{ACAD_REACTORS
330
A737
102
}
330
A737
100
AcDbVisualStyle
  2
Realistic
 70
     8
 71
     2
 72
     2
 73
     0
 90
        0
 40
-0.6
 41
-30.0
 62
     5
 63
     7
 74
     1
 91
        0
 64
     7
 65
   257
 75
     1
175
     1
 42
1.0
 92
        8
 66
     8
 43
1.0
 76
     1
 77
     6
 78
     2
 67
     7
 79
     5
170
     0
171
     0
290
     0
174
     0
 93
       13
 44
0.0
173
     0
291
     0
 45
0.0
1001
ACAD
1000
AcDbSavedByObjectVersion
1070
     0
  0
VISUALSTYLE
  5
A744
102
{ACAD_REACTORS
330
A737
102
}
330
A737
100
AcDbVisualStyle
  2
Thicken
 70
    13
 71
     2
 72
     2
 73
     0
 90
        0
 40
-0.6
 41
-30.0
 62
     5
 63
     7
 74
     1
 91
        4
 64
     7
 65
   257
 75
     1
175
     1
 42
1.0
 92
       12
 66
     7
 43
1.0
 76
     1
 77
     6
 78
     2
 67
     7
 79
     5
170
     0
171
     0
290
     0
174
     0
 93
        1
 44
0.0
173
     0
291
     1
 45
0.0
1001
ACAD
1000
AcDbSavedByObjectVersion
1070
     0
  0
DICTIONARYVAR
  5
A9BD
102
{ACAD_REACTORS
330
789B
102
}
330
789B
100
DictionaryVariables
280
     0
  1
1:1
  0
DICTIONARYVAR
  5
A9BC
102
{ACAD_REACTORS
330
789B
102
}
330
789B
100
DictionaryVariables
280
     0
  1
STANDARD
  0
DICTIONARYVAR
  5
A9BB
102
{ACAD_REACTORS
330
789B
102
}
330
789B
100
DictionaryVariables
280
     0
  1
STANDARD
  0
DICTIONARYVAR
  5
A71C
102
{ACAD_REACTORS
330
789B
102
}
330
789B
100
DictionaryVariables
280
     0
  1
1
  0
DICTIONARYVAR
  5
A9BE
102
{ACAD_REACTORS
330
789B
102
}
330
789B
100
DictionaryVariables
280
     0
  1
0
  0
DICTIONARYVAR
  5
789C
102
{ACAD_REACTORS
330
789B
102
}
330
789B
100
DictionaryVariables
280
     0
  1
96
  0
DICTIONARY
  5
A9C5
330
9B1F
100
AcDbDictionary
280
     1
281
     1
  3
ACAD_XREC_ROUNDTRIP
360
A9C6
  0
DICTIONARY
  5
A9C7
330
9B20
100
AcDbDictionary
280
     1
281
     1
  3
ACAD_XREC_ROUNDTRIP
360
A9C8
  0
DICTIONARY
  5
A728
330
A727
100
AcDbDictionary
280
     1
281
     1
  3
ACAD_XREC_ROUNDTRIP
360
A9CA
  3
BUMPTILE
360
A72A
  3
DIFFUSETILE
360
A729
  3
OPACITYTILE
360
A72D
  3
REFLECTIONTILE
360
A72C
  3
REFRACTIONTILE
360
A72E
  3
SPECULARTILE
360
A72B
  0
DICTIONARY
  5
A720
330
A71F
100
AcDbDictionary
280
     1
281
     1
  3
ACAD_XREC_ROUNDTRIP
360
A9C9
  3
BUMPTILE
360
A722
  3
DIFFUSETILE
360
A721
  3
OPACITYTILE
360
A725
  3
REFLECTIONTILE
360
A724
  3
REFRACTIONTILE
360
A726
  3
SPECULARTILE
360
A723
  0
DICTIONARY
  5
A730
330
A72F
100
AcDbDictionary
280
     1
281
     1
  3
ACAD_XREC_ROUNDTRIP
360
A9CB
  3
BUMPTILE
360
A732
  3
DIFFUSETILE
360
A731
  3
OPACITYTILE
360
A735
  3
REFLECTIONTILE
360
A734
  3
REFRACTIONTILE
360
A736
  3
SPECULARTILE
360
A733
  0
DICTIONARY
  5
A9BF
330
A74A
100
AcDbDictionary
280
     1
281
     1
  3
ACAD_ROUNDTRIP_2008_TABLESTYLE_CELLSTYLEMAP
360
A9C0
  3
ACAD_XREC_ROUNDTRIP
360
A9CC
  0
XRECORD
  5
A9C6
102
{ACAD_REACTORS
330
A9C5
102
}
330
A9C5
100
AcDbXrecord
280
     1
102
SHADEPLOT
 70
     0
102
SHADEPLOTRESLEVEL
 70
     2
102
SHADEPLOTCUSTOMDPI
 70
   300
  0
XRECORD
  5
A9C8
102
{ACAD_REACTORS
330
A9C7
102
}
330
A9C7
100
AcDbXrecord
280
     1
102
SHADEPLOT
 70
     0
102
SHADEPLOTRESLEVEL
 70
     2
102
SHADEPLOTCUSTOMDPI
 70
   300
  0
XRECORD
  5
A9CA
102
{ACAD_REACTORS
330
A728
102
}
330
A728
100
AcDbXrecord
280
     1
102
MATERIAL
148
0.0
149
0.0
149
0.0
 93
        0
 94
      127
282
     0
 72
     0
 77
     0
171
     0
175
     0
179
     0
273
     0
  0
XRECORD
  5
A72A
102
{ACAD_REACTORS
330
A728
102
}
330
A728
100
AcDbXrecord
280
     1
270
     1
271
     1
  0
XRECORD
  5
A729
102
{ACAD_REACTORS
330
A728
102
}
330
A728
100
AcDbXrecord
280
     1
270
     1
271
     1
  0
XRECORD
  5
A72D
102
{ACAD_REACTORS
330
A728
102
}
330
A728
100
AcDbXrecord
280
     1
270
     1
271
     1
  0
XRECORD
  5
A72C
102
{ACAD_REACTORS
330
A728
102
}
330
A728
100
AcDbXrecord
280
     1
270
     1
271
     1
  0
XRECORD
  5
A72E
102
{ACAD_REACTORS
330
A728
102
}
330
A728
100
AcDbXrecord
280
     1
270
     1
271
     1
  0
XRECORD
  5
A72B
102
{ACAD_REACTORS
330
A728
102
}
330
A728
100
AcDbXrecord
280
     1
270
     1
271
     1
  0
XRECORD
  5
A9C9
102
{ACAD_REACTORS
330
A720
102
}
330
A720
100
AcDbXrecord
280
     1
102
MATERIAL
148
0.0
149
0.0
149
0.0
 93
        0
 94
      127
282
     0
 72
     0
 77
     0
171
     0
175
     0
179
     0
273
     0
  0
XRECORD
  5
A722
102
{ACAD_REACTORS
330
A720
102
}
330
A720
100
AcDbXrecord
280
     1
270
     1
271
     1
  0
XRECORD
  5
A721
102
{ACAD_REACTORS
330
A720
102
}
330
A720
100
AcDbXrecord
280
     1
270
     1
271
     1
  0
XRECORD
  5
A725
102
{ACAD_REACTORS
330
A720
102
}
330
A720
100
AcDbXrecord
280
     1
270
     1
271
     1
  0
XRECORD
  5
A724
102
{ACAD_REACTORS
330
A720
102
}
330
A720
100
AcDbXrecord
280
     1
270
     1
271
     1
  0
XRECORD
  5
A726
102
{ACAD_REACTORS
330
A720
102
}
330
A720
100
AcDbXrecord
280
     1
270
     1
271
     1
  0
XRECORD
  5
A723
102
{ACAD_REACTORS
330
A720
102
}
330
A720
100
AcDbXrecord
280
     1
270
     1
271
     1
  0
XRECORD
  5
A9CB
102
{ACAD_REACTORS
330
A730
102
}
330
A730
100
AcDbXrecord
280
     1
102
MATERIAL
148
0.0
149
0.0
149
0.0
 93
        0
 94
      127
282
     0
 72
     0
 77
     0
171
     0
175
     0
179
     0
273
     0
  0
XRECORD
  5
A732
102
{ACAD_REACTORS
330
A730
102
}
330
A730
100
AcDbXrecord
280
     1
270
     1
271
     1
  0
XRECORD
  5
A731
102
{ACAD_REACTORS
330
A730
102
}
330
A730
100
AcDbXrecord
280
     1
270
     1
271
     1
  0
XRECORD
  5
A735
102
{ACAD_REACTORS
330
A730
102
}
330
A730
100
AcDbXrecord
280
     1
270
     1
271
     1
  0
XRECORD
  5
A734
102
{ACAD_REACTORS
330
A730
102
}
330
A730
100
AcDbXrecord
280
     1
270
     1
271
     1
  0
XRECORD
  5
A736
102
{ACAD_REACTORS
330
A730
102
}
330
A730
100
AcDbXrecord
280
     1
270
     1
271
     1
  0
XRECORD
  5
A733
102
{ACAD_REACTORS
330
A730
102
}
330
A730
100
AcDbXrecord
280
     1
270
     1
271
     1
  0
CELLSTYLEMAP
  5
A9C0
102
{ACAD_REACTORS
330
A9BF
102
}
330
A9BF
100
AcDbCellStyleMap
 90
        3
300
CELLSTYLE
  1
TABLEFORMAT_BEGIN
 90
        5
170
     1
 91
        0
 92
    32768
 62
   257
 93
        1
300
CONTENTFORMAT
  1
CONTENTFORMAT_BEGIN
 90
        0
 91
        0
 92
      512
 93
        0
300

 40
0.0
140
1.0
 94
        5
 62
     0
340
7475
144
6.0
309
CONTENTFORMAT_END
171
     1
301
MARGIN
  1
CELLMARGIN_BEGIN
 40
1.5
 40
1.5
 40
1.5
 40
1.5
 40
4.5
 40
4.5
309
CELLMARGIN_END
 94
        6
 95
        1
302
GRIDFORMAT
  1
GRIDFORMAT_BEGIN
 90
        0
 91
        1
 62
     0
 92
       -2
340
0
 93
        0
 40
1.125
309
GRIDFORMAT_END
 95
        2
302
GRIDFORMAT
  1
GRIDFORMAT_BEGIN
 90
        0
 91
        1
 62
     0
 92
       -2
340
0
 93
        0
 40
1.125
309
GRIDFORMAT_END
 95
        4
302
GRIDFORMAT
  1
GRIDFORMAT_BEGIN
 90
        0
 91
        1
 62
     0
 92
       -2
340
0
 93
        0
 40
1.125
309
GRIDFORMAT_END
 95
        8
302
GRIDFORMAT
  1
GRIDFORMAT_BEGIN
 90
        0
 91
        1
 62
     0
 92
       -2
340
0
 93
        0
 40
1.125
309
GRIDFORMAT_END
 95
       16
302
GRIDFORMAT
  1
GRIDFORMAT_BEGIN
 90
        0
 91
        1
 62
     0
 92
       -2
340
0
 93
        0
 40
1.125
309
GRIDFORMAT_END
 95
       32
302
GRIDFORMAT
  1
GRIDFORMAT_BEGIN
 90
        0
 91
        1
 62
     0
 92
       -2
340
0
 93
        0
 40
1.125
309
GRIDFORMAT_END
309
TABLEFORMAT_END
  1
CELLSTYLE_BEGIN
 90
        1
 91
        1
300
_TITLE
309
CELLSTYLE_END
300
CELLSTYLE
  1
TABLEFORMAT_BEGIN
 90
        5
170
     1
 91
        0
 92
        0
 62
   257
 93
        1
300
CONTENTFORMAT
  1
CONTENTFORMAT_BEGIN
 90
        0
 91
        0
 92
      512
 93
        0
300

 40
0.0
140
1.0
 94
        5
 62
     0
340
7475
144
4.5
309
CONTENTFORMAT_END
171
     1
301
MARGIN
  1
CELLMARGIN_BEGIN
 40
1.5
 40
1.5
 40
1.5
 40
1.5
 40
4.5
 40
4.5
309
CELLMARGIN_END
 94
        6
 95
        1
302
GRIDFORMAT
  1
GRIDFORMAT_BEGIN
 90
        0
 91
        1
 62
     0
 92
       -2
340
0
 93
        0
 40
1.125
309
GRIDFORMAT_END
 95
        2
302
GRIDFORMAT
  1
GRIDFORMAT_BEGIN
 90
        0
 91
        1
 62
     0
 92
       -2
340
0
 93
        0
 40
1.125
309
GRIDFORMAT_END
 95
        4
302
GRIDFORMAT
  1
GRIDFORMAT_BEGIN
 90
        0
 91
        1
 62
     0
 92
       -2
340
0
 93
        0
 40
1.125
309
GRIDFORMAT_END
 95
        8
302
GRIDFORMAT
  1
GRIDFORMAT_BEGIN
 90
        0
 91
        1
 62
     0
 92
       -2
340
0
 93
        0
 40
1.125
309
GRIDFORMAT_END
 95
       16
302
GRIDFORMAT
  1
GRIDFORMAT_BEGIN
 90
        0
 91
        1
 62
     0
 92
       -2
340
0
 93
        0
 40
1.125
309
GRIDFORMAT_END
 95
       32
302
GRIDFORMAT
  1
GRIDFORMAT_BEGIN
 90
        0
 91
        1
 62
     0
 92
       -2
340
0
 93
        0
 40
1.125
309
GRIDFORMAT_END
309
TABLEFORMAT_END
  1
CELLSTYLE_BEGIN
 90
        2
 91
        1
300
_HEADER
309
CELLSTYLE_END
300
CELLSTYLE
  1
TABLEFORMAT_BEGIN
 90
        5
170
     1
 91
        0
 92
        0
 62
   257
 93
        1
300
CONTENTFORMAT
  1
CONTENTFORMAT_BEGIN
 90
        0
 91
        0
 92
      512
 93
        0
300

 40
0.0
140
1.0
 94
        2
 62
     0
340
7475
144
4.5
309
CONTENTFORMAT_END
171
     1
301
MARGIN
  1
CELLMARGIN_BEGIN
 40
1.5
 40
1.5
 40
1.5
 40
1.5
 40
4.5
 40
4.5
309
CELLMARGIN_END
 94
        6
 95
        1
302
GRIDFORMAT
  1
GRIDFORMAT_BEGIN
 90
        0
 91
        1
 62
     0
 92
       -2
340
0
 93
        0
 40
1.125
309
GRIDFORMAT_END
 95
        2
302
GRIDFORMAT
  1
GRIDFORMAT_BEGIN
 90
        0
 91
        1
 62
     0
 92
       -2
340
0
 93
        0
 40
1.125
309
GRIDFORMAT_END
 95
        4
302
GRIDFORMAT
  1
GRIDFORMAT_BEGIN
 90
        0
 91
        1
 62
     0
 92
       -2
340
0
 93
        0
 40
1.125
309
GRIDFORMAT_END
 95
        8
302
GRIDFORMAT
  1
GRIDFORMAT_BEGIN
 90
        0
 91
        1
 62
     0
 92
       -2
340
0
 93
        0
 40
1.125
309
GRIDFORMAT_END
 95
       16
302
GRIDFORMAT
  1
GRIDFORMAT_BEGIN
 90
        0
 91
        1
 62
     0
 92
       -2
340
0
 93
        0
 40
1.125
309
GRIDFORMAT_END
 95
       32
302
GRIDFORMAT
  1
GRIDFORMAT_BEGIN
 90
        0
 91
        1
 62
     0
 92
       -2
340
0
 93
        0
 40
1.125
309
GRIDFORMAT_END
309
TABLEFORMAT_END
  1
CELLSTYLE_BEGIN
 90
        3
 91
        2
300
_DATA
309
CELLSTYLE_END
  0
XRECORD
  5
A9CC
102
{ACAD_REACTORS
330
A9BF
102
}
330
A9BF
100
AcDbXrecord
280
     1
102
ACAD_ROUNDTRIP_PRE2007_TABLESTYLE
 90
      512
 91
        0
  1

 92
      512
 93
        0
  2

 94
      512
 95
        0
  3

  0
ENDSEC
  0
EOF
