  0
SECTION
  2
HEADER
  9
$ACADVER
  1
AC1015
  9
$ACADMAINTVER
 70
    20
  9
$DWGCODEPAGE
  3
ANSI_932
  9
$INSBASE
 10
0.0
 20
0.0
 30
0.0
  9
$EXTMIN
 10
-0.2824777852893021
 20
-0.0961049443731099
 30
-0.0000000000000008
  9
$EXTMAX
 10
2970.293064676294
 20
2100.096147379522
 30
0.0000000000000145
  9
$LIMMIN
 10
0.0
 20
0.0
  9
$LIMMAX
 10
420.0
 20
297.0
  9
$ORTHOMODE
 70
     0
  9
$REGENMODE
 70
     1
  9
$FILLMODE
 70
     1
  9
$QTEXTMODE
 70
     0
  9
$MIRRTEXT
 70
     1
  9
$LTSCALE
 40
0.5
  9
$ATTMODE
 70
     1
  9
$TEXTSIZE
 40
2.799999999999999
  9
$TRACEWID
 40
1.0
  9
$TEXTSTYLE
  7
SANWA
  9
$CLAYER
  8
0
  9
$CELTYPE
  6
BYLAYER
  9
$CECOLOR
 62
   256
  9
$CELTSCALE
 40
1.0
  9
$DISPSILH
 70
     0
  9
$DIMSCALE
 40
10.0
  9
$DIMASZ
 40
1.5
  9
$DIMEXO
 40
1.0
  9
$DIMDLI
 40
5.0
  9
$DIMRND
 40
0.0
  9
$DIMDLE
 40
0.0
  9
$DIMEXE
 40
0.5
  9
$DIMTP
 40
0.0
  9
$DIMTM
 40
0.0
  9
$DIMTXT
 40
2.0
  9
$DIMCEN
 40
0.0
  9
$DIMTSZ
 40
0.0
  9
$DIMTOL
 70
     0
  9
$DIMLIM
 70
     0
  9
$DIMTIH
 70
     0
  9
$DIMTOH
 70
     0
  9
$DIMSE1
 70
     0
  9
$DIMSE2
 70
     0
  9
$DIMTAD
 70
     1
  9
$DIMZIN
 70
     8
  9
$DIMBLK
  1

  9
$DIMASO
 70
     1
  9
$DIMSHO
 70
     1
  9
$DIMPOST
  1

  9
$DIMAPOST
  1

  9
$DIMALT
 70
     0
  9
$DIMALTD
 70
     2
  9
$DIMALTF
 40
0.0394
  9
$DIMLFAC
 40
1.0
  9
$DIMTOFL
 70
     1
  9
$DIMTVP
 40
0.0
  9
$DIMTIX
 70
     1
  9
$DIMSOXD
 70
     0
  9
$DIMSAH
 70
     0
  9
$DIMBLK1
  1

  9
$DIMBLK2
  1

  9
$DIMSTYLE
  2
SANWA
  9
$DIMCLRD
 70
   256
  9
$DIMCLRE
 70
   256
  9
$DIMCLRT
 70
   256
  9
$DIMTFAC
 40
1.0
  9
$DIMGAP
 40
1.0
  9
$DIMJUST
 70
     0
  9
$DIMSD1
 70
     0
  9
$DIMSD2
 70
     0
  9
$DIMTOLJ
 70
     1
  9
$DIMTZIN
 70
     0
  9
$DIMALTZ
 70
     0
  9
$DIMALTTZ
 70
     0
  9
$DIMUPT
 70
     0
  9
$DIMDEC
 70
     4
  9
$DIMTDEC
 70
     4
  9
$DIMALTU
 70
     2
  9
$DIMALTTD
 70
     2
  9
$DIMTXSTY
  7
SANWA
  9
$DIMAUNIT
 70
     0
  9
$DIMADEC
 70
     0
  9
$DIMALTRND
 40
0.0
  9
$DIMAZIN
 70
     0
  9
$DIMDSEP
 70
    46
  9
$DIMATFIT
 70
     3
  9
$DIMFRAC
 70
     0
  9
$DIMLDRBLK
  1

  9
$DIMLUNIT
 70
     2
  9
$DIMLWD
 70
    -2
  9
$DIMLWE
 70
    -2
  9
$DIMTMOVE
 70
     0
  9
$LUNITS
 70
     2
  9
$LUPREC
 70
     4
  9
$SKETCHINC
 40
1.0
  9
$FILLETRAD
 40
10.0
  9
$AUNITS
 70
     0
  9
$AUPREC
 70
     0
  9
$MENU
  1
acad
  9
$ELEVATION
 40
0.0
  9
$PELEVATION
 40
0.0
  9
$THICKNESS
 40
0.0
  9
$LIMCHECK
 70
     0
  9
$CHAMFERA
 40
0.0
  9
$CHAMFERB
 40
0.0
  9
$CHAMFERC
 40
0.0
  9
$CHAMFERD
 40
0.0
  9
$SKPOLY
 70
     1
  9
$TDCREATE
 40
2451573.466993750
  9
$TDUCREATE
 40
2451573.091993750
  9
$TDUPDATE
 40
2455412.396214097
  9
$TDUUPDATE
 40
2455412.021214097
  9
$TDINDWG
 40
0.2301746644
  9
$TDUSRTIMER
 40
0.2301746644
  9
$USRTIMER
 70
     1
  9
$ANGBASE
 50
0.0
  9
$ANGDIR
 70
     0
  9
$PDMODE
 70
     0
  9
$PDSIZE
 40
0.0
  9
$PLINEWID
 40
0.0
  9
$SPLFRAME
 70
     0
  9
$SPLINETYPE
 70
     6
  9
$SPLINESEGS
 70
     8
  9
$HANDSEED
  5
9E97
  9
$SURFTAB1
 70
     6
  9
$SURFTAB2
 70
     6
  9
$SURFTYPE
 70
     6
  9
$SURFU
 70
     6
  9
$SURFV
 70
     6
  9
$UCSBASE
  2

  9
$UCSNAME
  2

  9
$UCSORG
 10
0.0
 20
0.0
 30
0.0
  9
$UCSXDIR
 10
1.0
 20
0.0
 30
0.0
  9
$UCSYDIR
 10
0.0
 20
1.0
 30
0.0
  9
$UCSORTHOREF
  2

  9
$UCSORTHOVIEW
 70
     0
  9
$UCSORGTOP
 10
0.0
 20
0.0
 30
0.0
  9
$UCSORGBOTTOM
 10
0.0
 20
0.0
 30
0.0
  9
$UCSORGLEFT
 10
0.0
 20
0.0
 30
0.0
  9
$UCSORGRIGHT
 10
0.0
 20
0.0
 30
0.0
  9
$UCSORGFRONT
 10
0.0
 20
0.0
 30
0.0
  9
$UCSORGBACK
 10
0.0
 20
0.0
 30
0.0
  9
$PUCSBASE
  2

  9
$PUCSNAME
  2

  9
$PUCSORG
 10
0.0
 20
0.0
 30
0.0
  9
$PUCSXDIR
 10
1.0
 20
0.0
 30
0.0
  9
$PUCSYDIR
 10
0.0
 20
1.0
 30
0.0
  9
$PUCSORTHOREF
  2

  9
$PUCSORTHOVIEW
 70
     0
  9
$PUCSORGTOP
 10
0.0
 20
0.0
 30
0.0
  9
$PUCSORGBOTTOM
 10
0.0
 20
0.0
 30
0.0
  9
$PUCSORGLEFT
 10
0.0
 20
0.0
 30
0.0
  9
$PUCSORGRIGHT
 10
0.0
 20
0.0
 30
0.0
  9
$PUCSORGFRONT
 10
0.0
 20
0.0
 30
0.0
  9
$PUCSORGBACK
 10
0.0
 20
0.0
 30
0.0
  9
$USERI1
 70
     0
  9
$USERI2
 70
     0
  9
$USERI3
 70
     0
  9
$USERI4
 70
     0
  9
$USERI5
 70
     0
  9
$USERR1
 40
0.0
  9
$USERR2
 40
0.0
  9
$USERR3
 40
0.0
  9
$USERR4
 40
0.0
  9
$USERR5
 40
0.0
  9
$WORLDVIEW
 70
     1
  9
$SHADEDGE
 70
     3
  9
$SHADEDIF
 70
    70
  9
$TILEMODE
 70
     1
  9
$MAXACTVP
 70
    48
  9
$PINSBASE
 10
0.0
 20
0.0
 30
0.0
  9
$PLIMCHECK
 70
     0
  9
$PEXTMIN
 10
0.0
 20
0.0
 30
-0.0000000000000015
  9
$PEXTMAX
 10
6172.279628272238
 20
2100.0
 30
0.0
  9
$PLIMMIN
 10
-125.4761131185909
 20
-126.7212868637587
  9
$PLIMMAX
 10
6278.586350213705
 20
4401.4449687503
  9
$UNITMODE
 70
     0
  9
$VISRETAIN
 70
     1
  9
$PLINEGEN
 70
     0
  9
$PSLTSCALE
 70
     1
  9
$TREEDEPTH
 70
  3020
  9
$CMLSTYLE
  2
STANDARD
  9
$CMLJUST
 70
     0
  9
$CMLSCALE
 40
1.0
  9
$PROXYGRAPHICS
 70
     1
  9
$MEASUREMENT
 70
     1
  9
$CELWEIGHT
370
    -1
  9
$ENDCAPS
280
     0
  9
$JOINSTYLE
280
     0
  9
$LWDISPLAY
290
     0
  9
$INSUNITS
 70
     0
  9
$HYPERLINKBASE
  1

  9
$STYLESHEET
  1
sanwa3.ctb
  9
$XEDIT
290
     1
  9
$CEPSNTYPE
380
     0
  9
$PSTYLEMODE
290
     1
  9
$FINGERPRINTGUID
  2
{026B95D3-D6DA-43F6-810B-A4525BFF881E}
  9
$VERSIONGUID
  2
{7F2BA955-DF8C-4C5B-8C44-7C3BE433C927}
  9
$EXTNAMES
290
     1
  9
$PSVPSCALE
 40
0.0
  9
$OLESTARTUP
290
     0
  0
ENDSEC
  0
SECTION
  2
CLASSES
  0
CLASS
  1
DICTIONARYVAR
  2
AcDbDictionaryVar
  3
ObjectDBX Classes
 90
        0
280
     0
281
     0
  0
CLASS
  1
ACDBDICTIONARYWDFLT
  2
AcDbDictionaryWithDefault
  3
ObjectDBX Classes
 90
        0
280
     0
281
     0
  0
CLASS
  1
ACDBPLACEHOLDER
  2
AcDbPlaceHolder
  3
ObjectDBX Classes
 90
        0
280
     0
281
     0
  0
CLASS
  1
LAYOUT
  2
AcDbLayout
  3
ObjectDBX Classes
 90
        0
280
     0
281
     0
  0
CLASS
  1
MATERIAL
  2
AcDbMaterial
  3
ObjectDBX Classes
 90
     1153
280
     0
281
     0
  0
CLASS
  1
VISUALSTYLE
  2
AcDbVisualStyle
  3
ObjectDBX Classes
 90
     4095
280
     0
281
     0
  0
CLASS
  1
TABLESTYLE
  2
AcDbTableStyle
  3
ObjectDBX Classes
 90
     4095
280
     0
281
     0
  0
CLASS
  1
SCALE
  2
AcDbScale
  3
ObjectDBX Classes
 90
     1153
280
     0
281
     0
  0
CLASS
  1
MLEADERSTYLE
  2
AcDbMLeaderStyle
  3
ACDB_MLEADERSTYLE_CLASS
 90
     4095
280
     0
281
     0
  0
CLASS
  1
CELLSTYLEMAP
  2
AcDbCellStyleMap
  3
ObjectDBX Classes
 90
     1152
280
     0
281
     0
  0
ENDSEC
  0
SECTION
  2
TABLES
  0
TABLE
  2
VPORT
  5
746D
330
0
100
AcDbSymbolTable
 70
     1
  0
VPORT
  5
9BE5
330
746D
100
AcDbSymbolTableRecord
100
AcDbViewportTableRecord
  2
*Active
 70
     0
 10
0.0
 20
0.0
 11
1.0
 21
1.0
 12
1485.005288291482
 22
1050.000017402046
 13
0.0
 23
0.0
 14
10.0
 24
10.0
 15
10.0
 25
10.0
 16
0.0
 26
0.0
 36
1.0
 17
0.0
 27
0.0
 37
0.0
 40
2470.828065026934
 41
1.353070175438596
 42
50.0
 43
0.0
 44
0.0
 50
0.0
 51
0.0
 71
     0
 72
   100
 73
     1
 74
     0
 75
     0
 76
     0
 77
     0
 78
     0
281
     0
 65
     1
110
0.0
120
0.0
130
0.0
111
1.0
121
0.0
131
0.0
112
0.0
122
1.0
132
0.0
 79
     0
146
0.0
  0
ENDTAB
  0
TABLE
  2
LTYPE
  5
746A
330
0
100
AcDbSymbolTable
 70
     5
  0
LTYPE
  5
7477
330
746A
100
AcDbSymbolTableRecord
100
AcDbLinetypeTableRecord
  2
BYBLOCK
 70
     0
  3

 72
    65
 73
     0
 40
0.0
  0
LTYPE
  5
7478
330
746A
100
AcDbSymbolTableRecord
100
AcDbLinetypeTableRecord
  2
BYLAYER
 70
     0
  3

 72
    65
 73
     0
 40
0.0
  0
LTYPE
  5
7479
330
746A
100
AcDbSymbolTableRecord
100
AcDbLinetypeTableRecord
  2
CONTINUOUS
 70
     0
  3
Solid line
 72
    65
 73
     0
 40
0.0
  0
LTYPE
  5
7D54
330
746A
100
AcDbSymbolTableRecord
100
AcDbLinetypeTableRecord
  2
CENTER2
 70
     0
  3
Center (.5x) ___ _ ___ _ ___ _ ___ _ ___ _ ___
 72
    65
 73
     4
 40
28.575
 49
19.05
 74
     0
 49
-3.174999999999999
 74
     0
 49
3.174999999999999
 74
     0
 49
-3.174999999999999
 74
     0
  0
LTYPE
  5
7D55
330
746A
100
AcDbSymbolTableRecord
100
AcDbLinetypeTableRecord
  2
DOT
 70
     0
  3
Dot . . . . . . . . . . . . . . . . . . . . . .
 72
    65
 73
     2
 40
6.349999999999999
 49
0.0
 74
     0
 49
-6.349999999999999
 74
     0
  0
LTYPE
  5
7D56
330
746A
100
AcDbSymbolTableRecord
100
AcDbLinetypeTableRecord
  2
HIDDEN2
 70
     0
  3
Hidden (.5x) _ _ _ _ _ _ _ _ _ _ _ _ _ _ _ _ _
 72
    65
 73
     2
 40
4.762499999999999
 49
3.174999999999999
 74
     0
 49
-1.587499999999999
 74
     0
  0
LTYPE
  5
7D57
330
746A
100
AcDbSymbolTableRecord
100
AcDbLinetypeTableRecord
  2
PHANTOM2
 70
     0
  3
Phantom (.5x) ___ _ _ ___ _ _ ___ _ _ ___ _ _
 72
    65
 73
     6
 40
31.75
 49
15.875
 74
     0
 49
-3.174999999999999
 74
     0
 49
3.174999999999999
 74
     0
 49
-3.174999999999999
 74
     0
 49
3.174999999999999
 74
     0
 49
-3.174999999999999
 74
     0
  0
ENDTAB
  0
TABLE
  2
LAYER
  5
7467
330
0
100
AcDbSymbolTable
 70
     7
  0
LAYER
  5
7474
102
{ACAD_XDICTIONARY
360
9E79
102
}
330
7467
100
AcDbSymbolTableRecord
100
AcDbLayerTableRecord
  2
0
 70
     0
 62
     7
  6
CONTINUOUS
370
    -3
390
8FD0
  0
LAYER
  5
7485
330
7467
100
AcDbSymbolTableRecord
100
AcDbLayerTableRecord
  2
DEFPOINTS
 70
     0
 62
     7
  6
CONTINUOUS
290
     0
370
    -3
390
8FD0
  0
LAYER
  5
7486
102
{ACAD_XDICTIONARY
360
9E7B
102
}
330
7467
100
AcDbSymbolTableRecord
100
AcDbLayerTableRecord
  2
OBJECT
 70
     0
 62
     7
  6
CONTINUOUS
370
    -3
390
8FD0
  0
LAYER
  5
7950
102
{ACAD_XDICTIONARY
360
9E7D
102
}
330
7467
100
AcDbSymbolTableRecord
100
AcDbLayerTableRecord
  2
枠
 70
     0
 62
     3
  6
CONTINUOUS
370
    -3
390
8FD0
  0
LAYER
  5
7D58
102
{ACAD_XDICTIONARY
360
9E7F
102
}
330
7467
100
AcDbSymbolTableRecord
100
AcDbLayerTableRecord
  2
寸法引出
 70
     0
 62
     2
  6
CONTINUOUS
370
    -3
390
8FD0
  0
LAYER
  5
7D59
102
{ACAD_XDICTIONARY
360
9E81
102
}
330
7467
100
AcDbSymbolTableRecord
100
AcDbLayerTableRecord
  2
鉄筋
 70
     0
 62
     4
  6
CONTINUOUS
370
    -3
390
8FD0
  0
LAYER
  5
7D5A
102
{ACAD_XDICTIONARY
360
9E83
102
}
330
7467
100
AcDbSymbolTableRecord
100
AcDbLayerTableRecord
  2
補助線
 70
     0
 62
     6
  6
CONTINUOUS
370
    -3
390
8FD0
  0
ENDTAB
  0
TABLE
  2
STYLE
  5
7468
330
0
100
AcDbSymbolTable
 70
     4
  0
STYLE
  5
7475
330
7468
100
AcDbSymbolTableRecord
100
AcDbTextStyleTableRecord
  2
STANDARD
 70
     0
 40
0.0
 41
1.0
 50
0.0
 71
     0
 42
3.5
  3
txt
  4

  0
STYLE
  5
7481
330
7468
100
AcDbSymbolTableRecord
100
AcDbTextStyleTableRecord
  2
ADESK1
 70
     0
 40
0.0
 41
1.0
 50
0.0
 71
     0
 42
5.0
  3
romans
  4
bigfont
  0
STYLE
  5
7731
330
7468
100
AcDbSymbolTableRecord
100
AcDbTextStyleTableRecord
  2
SANWA
 70
     0
 40
0.0
 41
1.0
 50
0.0
 71
     0
 42
2.799999999999999
  3
MS Mincho.ttf
  4

1001
ACAD
1000
MS Mincho
1071
    32785
  0
STYLE
  5
7D45
330
7468
100
AcDbSymbolTableRecord
100
AcDbTextStyleTableRecord
  2

 70
     1
 40
0.0
 41
1.0
 50
0.0
 71
     0
 42
3.5
  3
ltypeshp.shx
  4

  0
ENDTAB
  0
TABLE
  2
VIEW
  5
746B
330
0
100
AcDbSymbolTable
 70
     0
  0
ENDTAB
  0
TABLE
  2
UCS
  5
746C
330
0
100
AcDbSymbolTable
 70
     0
  0
ENDTAB
  0
TABLE
  2
APPID
  5
746E
330
0
100
AcDbSymbolTable
 70
     2
  0
APPID
  5
7476
330
746E
100
AcDbSymbolTableRecord
100
AcDbRegAppTableRecord
  2
ACAD
 70
     0
  0
APPID
  5
9C38
330
746E
100
AcDbSymbolTableRecord
100
AcDbRegAppTableRecord
  2
ACAD_MLEADERVER
 70
     0
  0
ENDTAB
  0
TABLE
  2
DIMSTYLE
  5
746F
330
0
100
AcDbSymbolTable
 70
     4
100
AcDbDimStyleTable
 71
     0
  0
DIMSTYLE
105
7484
330
746F
100
AcDbSymbolTableRecord
100
AcDbDimStyleTableRecord
  2
JIS
 70
     0
 41
2.5
 42
1.0
 43
7.0
 44
1.0
 73
     0
 74
     0
 77
     1
 78
     8
140
2.5
141
0.0
143
0.0394
147
0.0
172
     1
174
     1
176
     2
177
     2
178
     2
340
7731
  0
DIMSTYLE
105
796F
102
{ACAD_REACTORS
330
94C1
330
94C2
330
94C3
330
94C4
330
94C5
330
94C6
330
94CE
330
94D6
330
94E0
330
94E1
330
94E2
330
94E8
330
94E9
330
94EA
330
94EB
330
94F0
330
94F5
330
94F8
330
94F9
330
94FD
330
9501
330
9561
330
9563
330
956C
330
956E
330
9570
330
9572
330
958D
330
9594
330
9595
330
9598
102
}
330
746F
100
AcDbSymbolTableRecord
100
AcDbDimStyleTableRecord
  2
SANWA
 70
     0
 41
2.5
 42
1.0
 43
7.0
 44
1.0
 73
     0
 74
     0
 77
     1
 78
     8
140
2.5
141
0.0
143
0.0394
147
0.0
172
     1
174
     1
176
     2
177
     2
178
     2
340
7731
  0
DIMSTYLE
105
7C9D
330
746F
100
AcDbSymbolTableRecord
100
AcDbDimStyleTableRecord
  2
SANWA$4
 70
     0
 41
2.5
 42
1.0
 43
5.0
 44
1.0
 73
     0
 74
     0
 77
     1
 78
     8
140
2.5
141
0.0
143
0.0394
147
1.0
172
     1
174
     1
176
     2
177
     2
178
     2
289
     2
340
7731
  0
DIMSTYLE
105
7CB5
330
746F
100
AcDbSymbolTableRecord
100
AcDbDimStyleTableRecord
  2
SANWA$3
 70
     0
 41
2.5
 42
1.0
 43
7.0
 44
1.0
 73
     0
 74
     0
 77
     1
 78
     8
140
2.5
141
0.0
143
0.0394
147
0.0
172
     1
174
     1
176
     2
177
     2
178
     2
289
     0
340
7731
  0
ENDTAB
  0
TABLE
  2
BLOCK_RECORD
  5
7466
330
0
100
AcDbSymbolTable
 70
    63
  0
BLOCK_RECORD
  5
747D
330
7466
100
AcDbSymbolTableRecord
100
AcDbBlockTableRecord
  2
*MODEL_SPACE
340
8FD3
  0
BLOCK_RECORD
  5
747A
330
7466
100
AcDbSymbolTableRecord
100
AcDbBlockTableRecord
  2
*PAPER_SPACE
340
8FD4
  0
BLOCK_RECORD
  5
7493
330
7466
100
AcDbSymbolTableRecord
100
AcDbBlockTableRecord
  2
TITLE_BLOCK
340
0
  0
BLOCK_RECORD
  5
96A8
330
7466
100
AcDbSymbolTableRecord
100
AcDbBlockTableRecord
  2
*D1
340
0
  0
BLOCK_RECORD
  5
96B4
330
7466
100
AcDbSymbolTableRecord
100
AcDbBlockTableRecord
  2
*D2
340
0
  0
BLOCK_RECORD
  5
96BF
330
7466
100
AcDbSymbolTableRecord
100
AcDbBlockTableRecord
  2
*D3
340
0
  0
BLOCK_RECORD
  5
96CA
330
7466
100
AcDbSymbolTableRecord
100
AcDbBlockTableRecord
  2
*D4
340
0
  0
BLOCK_RECORD
  5
96D6
330
7466
100
AcDbSymbolTableRecord
100
AcDbBlockTableRecord
  2
*D5
340
0
  0
BLOCK_RECORD
  5
96E2
330
7466
100
AcDbSymbolTableRecord
100
AcDbBlockTableRecord
  2
*D6
340
0
  0
BLOCK_RECORD
  5
96EE
330
7466
100
AcDbSymbolTableRecord
100
AcDbBlockTableRecord
  2
*D7
340
0
  0
BLOCK_RECORD
  5
96FA
330
7466
100
AcDbSymbolTableRecord
100
AcDbBlockTableRecord
  2
*D8
340
0
  0
BLOCK_RECORD
  5
9706
330
7466
100
AcDbSymbolTableRecord
100
AcDbBlockTableRecord
  2
*D9
340
0
  0
BLOCK_RECORD
  5
9712
330
7466
100
AcDbSymbolTableRecord
100
AcDbBlockTableRecord
  2
*D10
340
0
  0
BLOCK_RECORD
  5
971E
330
7466
100
AcDbSymbolTableRecord
100
AcDbBlockTableRecord
  2
*D11
340
0
  0
BLOCK_RECORD
  5
972A
330
7466
100
AcDbSymbolTableRecord
100
AcDbBlockTableRecord
  2
*D12
340
0
  0
BLOCK_RECORD
  5
9738
330
7466
100
AcDbSymbolTableRecord
100
AcDbBlockTableRecord
  2
*D13
340
0
  0
BLOCK_RECORD
  5
9745
330
7466
100
AcDbSymbolTableRecord
100
AcDbBlockTableRecord
  2
*D14
340
0
  0
BLOCK_RECORD
  5
9751
330
7466
100
AcDbSymbolTableRecord
100
AcDbBlockTableRecord
  2
*D15
340
0
  0
BLOCK_RECORD
  5
975D
330
7466
100
AcDbSymbolTableRecord
100
AcDbBlockTableRecord
  2
*D16
340
0
  0
BLOCK_RECORD
  5
976B
330
7466
100
AcDbSymbolTableRecord
100
AcDbBlockTableRecord
  2
*D17
340
0
  0
BLOCK_RECORD
  5
9779
330
7466
100
AcDbSymbolTableRecord
100
AcDbBlockTableRecord
  2
*D18
340
0
  0
BLOCK_RECORD
  5
9787
330
7466
100
AcDbSymbolTableRecord
100
AcDbBlockTableRecord
  2
*D19
340
0
  0
BLOCK_RECORD
  5
9795
330
7466
100
AcDbSymbolTableRecord
100
AcDbBlockTableRecord
  2
*D20
340
0
  0
BLOCK_RECORD
  5
97A3
330
7466
100
AcDbSymbolTableRecord
100
AcDbBlockTableRecord
  2
*D21
340
0
  0
BLOCK_RECORD
  5
97AF
330
7466
100
AcDbSymbolTableRecord
100
AcDbBlockTableRecord
  2
*D22
340
0
  0
BLOCK_RECORD
  5
97BB
330
7466
100
AcDbSymbolTableRecord
100
AcDbBlockTableRecord
  2
*D23
340
0
  0
BLOCK_RECORD
  5
97C6
330
7466
100
AcDbSymbolTableRecord
100
AcDbBlockTableRecord
  2
*D24
340
0
  0
BLOCK_RECORD
  5
97D3
330
7466
100
AcDbSymbolTableRecord
100
AcDbBlockTableRecord
  2
*D25
340
0
  0
BLOCK_RECORD
  5
97DF
330
7466
100
AcDbSymbolTableRecord
100
AcDbBlockTableRecord
  2
*D26
340
0
  0
BLOCK_RECORD
  5
97EB
330
7466
100
AcDbSymbolTableRecord
100
AcDbBlockTableRecord
  2
*D27
340
0
  0
BLOCK_RECORD
  5
97F9
330
7466
100
AcDbSymbolTableRecord
100
AcDbBlockTableRecord
  2
*D28
340
0
  0
BLOCK_RECORD
  5
9805
330
7466
100
AcDbSymbolTableRecord
100
AcDbBlockTableRecord
  2
*D29
340
0
  0
BLOCK_RECORD
  5
9812
330
7466
100
AcDbSymbolTableRecord
100
AcDbBlockTableRecord
  2
*D30
340
0
  0
BLOCK_RECORD
  5
981E
330
7466
100
AcDbSymbolTableRecord
100
AcDbBlockTableRecord
  2
*D31
340
0
  0
BLOCK_RECORD
  5
982A
330
7466
100
AcDbSymbolTableRecord
100
AcDbBlockTableRecord
  2
*D32
340
0
  0
BLOCK_RECORD
  5
9836
330
7466
100
AcDbSymbolTableRecord
100
AcDbBlockTableRecord
  2
*D33
340
0
  0
BLOCK_RECORD
  5
9842
330
7466
100
AcDbSymbolTableRecord
100
AcDbBlockTableRecord
  2
*D34
340
0
  0
BLOCK_RECORD
  5
984E
330
7466
100
AcDbSymbolTableRecord
100
AcDbBlockTableRecord
  2
*D35
340
0
  0
BLOCK_RECORD
  5
985A
330
7466
100
AcDbSymbolTableRecord
100
AcDbBlockTableRecord
  2
*D36
340
0
  0
BLOCK_RECORD
  5
9866
330
7466
100
AcDbSymbolTableRecord
100
AcDbBlockTableRecord
  2
*D37
340
0
  0
BLOCK_RECORD
  5
9872
330
7466
100
AcDbSymbolTableRecord
100
AcDbBlockTableRecord
  2
*D38
340
0
  0
BLOCK_RECORD
  5
9880
330
7466
100
AcDbSymbolTableRecord
100
AcDbBlockTableRecord
  2
*D39
340
0
  0
BLOCK_RECORD
  5
988D
330
7466
100
AcDbSymbolTableRecord
100
AcDbBlockTableRecord
  2
*D40
340
0
  0
BLOCK_RECORD
  5
9899
330
7466
100
AcDbSymbolTableRecord
100
AcDbBlockTableRecord
  2
*D41
340
0
  0
BLOCK_RECORD
  5
98A5
330
7466
100
AcDbSymbolTableRecord
100
AcDbBlockTableRecord
  2
*D42
340
0
  0
BLOCK_RECORD
  5
98B1
330
7466
100
AcDbSymbolTableRecord
100
AcDbBlockTableRecord
  2
*D43
340
0
  0
BLOCK_RECORD
  5
98BC
330
7466
100
AcDbSymbolTableRecord
100
AcDbBlockTableRecord
  2
*D44
340
0
  0
BLOCK_RECORD
  5
98C8
330
7466
100
AcDbSymbolTableRecord
100
AcDbBlockTableRecord
  2
*D45
340
0
  0
BLOCK_RECORD
  5
98D4
330
7466
100
AcDbSymbolTableRecord
100
AcDbBlockTableRecord
  2
*D46
340
0
  0
BLOCK_RECORD
  5
98DF
330
7466
100
AcDbSymbolTableRecord
100
AcDbBlockTableRecord
  2
*D47
340
0
  0
BLOCK_RECORD
  5
98EB
330
7466
100
AcDbSymbolTableRecord
100
AcDbBlockTableRecord
  2
*D48
340
0
  0
BLOCK_RECORD
  5
98F7
330
7466
100
AcDbSymbolTableRecord
100
AcDbBlockTableRecord
  2
*D49
340
0
  0
BLOCK_RECORD
  5
9902
330
7466
100
AcDbSymbolTableRecord
100
AcDbBlockTableRecord
  2
*D50
340
0
  0
BLOCK_RECORD
  5
990E
330
7466
100
AcDbSymbolTableRecord
100
AcDbBlockTableRecord
  2
*D51
340
0
  0
BLOCK_RECORD
  5
991A
330
7466
100
AcDbSymbolTableRecord
100
AcDbBlockTableRecord
  2
*D52
340
0
  0
BLOCK_RECORD
  5
9925
330
7466
100
AcDbSymbolTableRecord
100
AcDbBlockTableRecord
  2
*D53
340
0
  0
BLOCK_RECORD
  5
9930
330
7466
100
AcDbSymbolTableRecord
100
AcDbBlockTableRecord
  2
*D54
340
0
  0
BLOCK_RECORD
  5
993B
330
7466
100
AcDbSymbolTableRecord
100
AcDbBlockTableRecord
  2
*D55
340
0
  0
BLOCK_RECORD
  5
9946
330
7466
100
AcDbSymbolTableRecord
100
AcDbBlockTableRecord
  2
*D56
340
0
  0
BLOCK_RECORD
  5
9953
330
7466
100
AcDbSymbolTableRecord
100
AcDbBlockTableRecord
  2
*D57
340
0
  0
BLOCK_RECORD
  5
995E
330
7466
100
AcDbSymbolTableRecord
100
AcDbBlockTableRecord
  2
*D58
340
0
  0
BLOCK_RECORD
  5
996A
330
7466
100
AcDbSymbolTableRecord
100
AcDbBlockTableRecord
  2
*D59
340
0
  0
BLOCK_RECORD
  5
9977
330
7466
100
AcDbSymbolTableRecord
100
AcDbBlockTableRecord
  2
*D60
340
0
  0
BLOCK_RECORD
  5
9985
330
7466
100
AcDbSymbolTableRecord
100
AcDbBlockTableRecord
  2
*D61
340
0
  0
BLOCK_RECORD
  5
9990
330
7466
100
AcDbSymbolTableRecord
100
AcDbBlockTableRecord
  2
*D62
340
0
  0
ENDTAB
  0
ENDSEC
  0
SECTION
  2
BLOCKS
  0
BLOCK
  5
7489
330
747D
100
AcDbEntity
  8
0
100
AcDbBlockBegin
  2
*MODEL_SPACE
 70
     0
 10
0.0
 20
0.0
 30
0.0
  3
*MODEL_SPACE
  1

  0
ENDBLK
  5
748A
330
747D
100
AcDbEntity
  8
0
100
AcDbBlockEnd
  0
BLOCK
  5
7487
330
747A
100
AcDbEntity
 67
     1
  8
0
100
AcDbBlockBegin
  2
*PAPER_SPACE
 70
     2
 10
0.0
 20
0.0
 30
0.0
  3
*PAPER_SPACE
  1

  0
ENDBLK
  5
7488
330
747A
100
AcDbEntity
 67
     1
  8
0
100
AcDbBlockEnd
  0
BLOCK
  5
7494
330
7493
100
AcDbEntity
  8
0
100
AcDbBlockBegin
  2
TITLE_BLOCK
 70
     2
 10
0.0
 20
0.0
 30
0.0
  3
TITLE_BLOCK
  1

  0
LINE
  5
7495
330
7493
100
AcDbEntity
  8
0
 62
     0
100
AcDbLine
 10
402.7943262411347
 20
16.00000000000008
 30
0.0
 11
410.0
 21
16.00000000000008
 31
0.0
  0
LINE
  5
7496
330
7493
100
AcDbEntity
  8
0
 62
     0
100
AcDbLine
 10
410.0
 20
10.0
 30
0.0
 11
410.0
 21
49.00000000000036
 31
0.0
  0
LINE
  5
7497
330
7493
100
AcDbEntity
  8
0
 62
     0
100
AcDbLine
 10
410.0
 20
49.00000000000036
 30
0.0
 11
410.0
 21
10.0
 31
0.0
  0
LINE
  5
7498
330
7493
100
AcDbEntity
  8
0
 62
     0
100
AcDbLine
 10
402.7943262411347
 20
22.00000000000012
 30
0.0
 11
402.7943262411347
 21
10.0
 31
0.0
  0
LINE
  5
7499
330
7493
100
AcDbEntity
  8
0
 62
     0
100
AcDbLine
 10
336.1418439716306
 20
49.00000000000036
 30
0.0
 11
336.1418439716306
 21
22.00000000000012
 31
0.0
  0
LINE
  5
749A
330
7493
100
AcDbEntity
  8
0
 62
     0
100
AcDbLine
 10
325.3333333333326
 20
37.00000000000024
 30
0.0
 11
325.3333333333326
 21
25.00000000000012
 31
0.0
  0
LINE
  5
749B
330
7493
100
AcDbEntity
  8
0
 62
     0
100
AcDbLine
 10
318.1276595744673
 20
49.00000000000036
 30
0.0
 11
318.1276595744673
 21
25.00000000000012
 31
0.0
  0
LINE
  5
749C
330
7493
100
AcDbEntity
  8
0
 62
     0
100
AcDbLine
 10
318.1276595744673
 20
25.00000000000012
 30
0.0
 11
348.7517730496447
 21
25.00000000000012
 31
0.0
  0
LINE
  5
749D
330
7493
100
AcDbEntity
  8
0
 62
     0
100
AcDbLine
 10
280.2978723404242
 20
28.00000000000016
 30
0.0
 11
348.7517730496447
 21
28.00000000000016
 31
0.0
  0
LINE
  5
749E
330
7493
100
AcDbEntity
  8
0
 62
     0
100
AcDbLine
 10
280.2978723404242
 20
31.0000000000002
 30
0.0
 11
348.7517730496447
 21
31.0000000000002
 31
0.0
  0
LINE
  5
749F
330
7493
100
AcDbEntity
  8
0
 62
     0
100
AcDbLine
 10
280.2978723404242
 20
34.00000000000024
 30
0.0
 11
348.7517730496447
 21
34.00000000000024
 31
0.0
  0
LINE
  5
74A0
330
7493
100
AcDbEntity
  8
0
 62
     0
100
AcDbLine
 10
280.2978723404242
 20
19.00000000000008
 30
0.0
 11
318.1276595744673
 21
19.00000000000012
 31
0.0
  0
LINE
  5
74A1
330
7493
100
AcDbEntity
  8
0
 62
     0
100
AcDbLine
 10
280.2978723404242
 20
22.00000000000008
 30
0.0
 11
318.1276595744673
 21
22.00000000000012
 31
0.0
  0
LINE
  5
74A2
330
7493
100
AcDbEntity
  8
0
 62
     0
100
AcDbLine
 10
280.2978723404242
 20
25.00000000000012
 30
0.0
 11
318.1276595744673
 21
25.00000000000012
 31
0.0
  0
TEXT
  5
74A3
330
7493
100
AcDbEntity
  8
0
 62
     0
100
AcDbText
 10
342.2447163844405
 20
10.55220101068186
 30
0.0
 40
1.791674070777747
  1
照査
  7
ADESK1
 72
     1
 11
344.1558353932701
 21
10.55220101068186
 31
0.0
100
AcDbText
  0
TEXT
  5
74A4
330
7493
100
AcDbEntity
  8
0
 62
     0
100
AcDbText
 10
332.2960689314087
 20
10.48329012996929
 30
0.0
 40
1.791674070777747
  1
設計
  7
ADESK1
 72
     1
 11
334.2071879402383
 21
10.48329012996929
 31
0.0
100
AcDbText
  0
TEXT
  5
74A5
330
7493
100
AcDbEntity
  8
0
 62
     0
100
AcDbText
 10
321.7174935280942
 20
10.48329012996929
 30
0.0
 40
1.791674070777747
  1
製図
  7
ADESK1
 72
     1
 11
323.5688900678979
 21
10.48329012996929
 31
0.0
100
AcDbText
  0
LINE
  5
74A6
330
7493
100
AcDbEntity
  8
0
 62
     0
100
AcDbLine
 10
280.2978723404242
 20
10.0
 30
0.0
 11
280.2978723404242
 21
13.00000000000004
 31
0.0
  0
LINE
  5
74A7
330
7493
100
AcDbEntity
  8
0
 62
     0
100
AcDbLine
 10
280.2978723404242
 20
16.00000000000008
 30
0.0
 11
318.1276595744673
 21
16.00000000000008
 31
0.0
  0
LINE
  5
74A8
330
7493
100
AcDbEntity
  8
0
 62
     0
100
AcDbLine
 10
339.4042553191484
 20
22.00000000000008
 30
0.0
 11
339.4042553191484
 21
10.0
 31
0.0
  0
LINE
  5
74A9
330
7493
100
AcDbEntity
  8
0
 62
     0
100
AcDbLine
 10
328.7659574468078
 20
22.00000000000008
 30
0.0
 11
328.7659574468078
 21
10.0
 31
0.0
  0
LINE
  5
74AA
330
7493
100
AcDbEntity
  8
0
 62
     0
100
AcDbLine
 10
348.7517730496447
 20
49.00000000000036
 30
0.0
 11
348.7517730496447
 21
10.0
 31
0.0
  0
LINE
  5
74AB
330
7493
100
AcDbEntity
  8
0
 62
     0
100
AcDbLine
 10
280.2978723404242
 20
49.00000000000036
 30
0.0
 11
280.2978723404242
 21
10.0
 31
0.0
  0
LINE
  5
74AC
330
7493
100
AcDbEntity
  8
0
 62
     0
100
AcDbLine
 10
318.1276595744673
 20
25.00000000000012
 30
0.0
 11
318.1276595744673
 21
10.0
 31
0.0
  0
LINE
  5
74AD
330
7493
100
AcDbEntity
  8
0
 62
     0
100
AcDbLine
 10
312.7234042553184
 20
37.00000000000024
 30
0.0
 11
312.7234042553184
 21
10.0
 31
0.0
  0
LINE
  5
74AE
330
7493
100
AcDbEntity
  8
0
 62
     0
100
AcDbLine
 10
285.7021276595731
 20
37.00000000000024
 30
0.0
 11
285.7021276595731
 21
10.0
 31
0.0
  0
LINE
  5
74AF
330
7493
100
AcDbEntity
  8
0
 62
     0
100
AcDbLine
 10
303.7163120567366
 20
37.00000000000024
 30
0.0
 11
303.7163120567366
 21
10.0
 31
0.0
  0
LINE
  5
74B0
330
7493
100
AcDbEntity
  8
0
 62
     0
100
AcDbLine
 10
410.0
 20
49.00000000000036
 30
0.0
 11
280.2978723404242
 21
49.00000000000036
 31
0.0
  0
LINE
  5
74B1
330
7493
100
AcDbEntity
  8
0
 62
     0
100
AcDbLine
 10
280.2978723404242
 20
10.0
 30
0.0
 11
410.0
 21
10.0
 31
0.0
  0
LINE
  5
74B2
330
7493
100
AcDbEntity
  8
0
 62
     0
100
AcDbLine
 10
318.1276595744673
 20
22.00000000000012
 30
0.0
 11
410.0
 21
22.00000000000012
 31
0.0
  0
LINE
  5
74B3
330
7493
100
AcDbEntity
  8
0
 62
     0
100
AcDbLine
 10
280.2978723404242
 20
37.00000000000024
 30
0.0
 11
410.0
 21
37.00000000000024
 31
0.0
  0
LINE
  5
74B4
330
7493
100
AcDbEntity
  8
0
 62
     0
100
AcDbLine
 10
280.2978723404242
 20
13.00000000000004
 30
0.0
 11
410.0
 21
13.00000000000004
 31
0.0
  0
LINE
  5
74B5
330
7493
100
AcDbEntity
  8
0
 62
     0
100
AcDbLine
 10
280.2978723404242
 20
49.00000000000036
 30
0.0
 11
410.0
 21
49.00000000000036
 31
0.0
  0
TEXT
  5
74B6
330
7493
100
AcDbEntity
  8
0
100
AcDbText
 10
411.3708251683467
 20
33.08333333333334
 30
0.0
 40
3.0
  1
F
  7
ADESK1
 72
     1
 11
412.8708251683468
 21
33.08333333333334
 31
0.0
100
AcDbText
  0
TEXT
  5
74B7
330
7493
100
AcDbEntity
  8
0
100
AcDbText
 10
411.3708251683467
 20
79.25
 30
0.0
 40
3.0
  1
E
  7
ADESK1
 72
     1
 11
412.8708251683468
 21
79.25
 31
0.0
100
AcDbText
  0
TEXT
  5
74B8
330
7493
100
AcDbEntity
  8
0
100
AcDbText
 10
411.2993965969182
 20
125.4166666666666
 30
0.0
 40
3.0
  1
D
  7
ADESK1
 72
     1
 11
412.8708251683468
 21
125.4166666666666
 31
0.0
100
AcDbText
  0
TEXT
  5
74B9
330
7493
100
AcDbEntity
  8
0
100
AcDbText
 10
411.3708251683467
 20
171.5833333333333
 30
0.0
 40
3.0
  1
C
  7
ADESK1
 72
     1
 11
412.8708251683468
 21
171.5833333333333
 31
0.0
100
AcDbText
  0
TEXT
  5
74BA
330
7493
100
AcDbEntity
  8
0
100
AcDbText
 10
411.2993965969182
 20
217.75
 30
0.0
 40
3.0
  1
B
  7
ADESK1
 72
     1
 11
412.8708251683468
 21
217.75
 31
0.0
100
AcDbText
  0
TEXT
  5
74BB
330
7493
100
AcDbEntity
  8
0
100
AcDbText
 10
411.5851108826324
 20
263.9166666666666
 30
0.0
 40
3.0
  1
A
  7
ADESK1
 72
     1
 11
412.8708251683468
 21
263.9166666666666
 31
0.0
100
AcDbText
  0
TEXT
  5
74BC
330
7493
100
AcDbEntity
  8
0
100
AcDbText
 10
384.5089285714286
 20
6.019997240728748
 30
0.0
 40
3.0
  1
8
  7
ADESK1
 72
     1
 11
385.9375
 21
6.019997240728748
 31
0.0
100
AcDbText
  0
TEXT
  5
74BD
330
7493
100
AcDbEntity
  8
0
100
AcDbText
 10
336.3839285714286
 20
6.019997240728748
 30
0.0
 40
3.0
  1
7
  7
ADESK1
 72
     1
 11
337.8125
 21
6.019997240728748
 31
0.0
100
AcDbText
  0
TEXT
  5
74BE
330
7493
100
AcDbEntity
  8
0
100
AcDbText
 10
288.1875
 20
6.019997240728748
 30
0.0
 40
3.0
  1
6
  7
ADESK1
 72
     1
 11
289.6875
 21
6.019997240728748
 31
0.0
100
AcDbText
  0
TEXT
  5
74BF
330
7493
100
AcDbEntity
  8
0
100
AcDbText
 10
240.1339285714286
 20
6.019997240728748
 30
0.0
 40
3.0
  1
5
  7
ADESK1
 72
     1
 11
241.5625
 21
6.019997240728748
 31
0.0
100
AcDbText
  0
TEXT
  5
74C0
330
7493
100
AcDbEntity
  8
0
100
AcDbText
 10
191.9375
 20
6.019997240728748
 30
0.0
 40
3.0
  1
4
  7
ADESK1
 72
     1
 11
193.4375
 21
6.019997240728748
 31
0.0
100
AcDbText
  0
TEXT
  5
74C1
330
7493
100
AcDbEntity
  8
0
100
AcDbText
 10
143.8839285714285
 20
6.019997240728748
 30
0.0
 40
3.0
  1
3
  7
ADESK1
 72
     1
 11
145.3125
 21
6.019997240728748
 31
0.0
100
AcDbText
  0
TEXT
  5
74C2
330
7493
100
AcDbEntity
  8
0
100
AcDbText
 10
95.75892857142857
 20
6.019997240728748
 30
0.0
 40
3.0
  1
2
  7
ADESK1
 72
     1
 11
97.1875
 21
6.019997240728748
 31
0.0
100
AcDbText
  0
TEXT
  5
74C3
330
7493
100
AcDbEntity
  8
0
100
AcDbText
 10
47.84821428571429
 20
6.019997240728748
 30
0.0
 40
3.0
  1
1
  7
ADESK1
 72
     1
 11
49.0625
 21
6.019997240728748
 31
0.0
100
AcDbText
  0
TEXT
  5
74C4
330
7493
100
AcDbEntity
  8
0
100
AcDbText
 10
21.1071613595339
 20
33.08333333333334
 30
0.0
 40
3.0
  1
F
  7
ADESK1
 72
     1
 11
22.6071613595339
 21
33.08333333333334
 31
0.0
100
AcDbText
  0
TEXT
  5
74C5
330
7493
100
AcDbEntity
  8
0
100
AcDbText
 10
21.1071613595339
 20
79.25
 30
0.0
 40
3.0
  1
E
  7
ADESK1
 72
     1
 11
22.6071613595339
 21
79.25
 31
0.0
100
AcDbText
  0
TEXT
  5
74C6
330
7493
100
AcDbEntity
  8
0
100
AcDbText
 10
21.03573278810533
 20
125.4166666666666
 30
0.0
 40
3.0
  1
D
  7
ADESK1
 72
     1
 11
22.6071613595339
 21
125.4166666666666
 31
0.0
100
AcDbText
  0
TEXT
  5
74C7
330
7493
100
AcDbEntity
  8
0
100
AcDbText
 10
21.1071613595339
 20
171.5833333333333
 30
0.0
 40
3.0
  1
C
  7
ADESK1
 72
     1
 11
22.6071613595339
 21
171.5833333333333
 31
0.0
100
AcDbText
  0
TEXT
  5
74C8
330
7493
100
AcDbEntity
  8
0
100
AcDbText
 10
21.03573278810533
 20
217.75
 30
0.0
 40
3.0
  1
B
  7
ADESK1
 72
     1
 11
22.6071613595339
 21
217.75
 31
0.0
100
AcDbText
  0
TEXT
  5
74C9
330
7493
100
AcDbEntity
  8
0
100
AcDbText
 10
384.5089285714286
 20
288.0
 30
0.0
 40
3.0
  1
8
  7
ADESK1
 72
     1
 11
385.9375
 21
288.0
 31
0.0
100
AcDbText
  0
TEXT
  5
74CA
330
7493
100
AcDbEntity
  8
0
100
AcDbText
 10
336.3839285714286
 20
288.0
 30
0.0
 40
3.0
  1
7
  7
ADESK1
 72
     1
 11
337.8125
 21
288.0
 31
0.0
100
AcDbText
  0
TEXT
  5
74CB
330
7493
100
AcDbEntity
  8
0
100
AcDbText
 10
288.1875
 20
288.0
 30
0.0
 40
3.0
  1
6
  7
ADESK1
 72
     1
 11
289.6875
 21
288.0
 31
0.0
100
AcDbText
  0
TEXT
  5
74CC
330
7493
100
AcDbEntity
  8
0
100
AcDbText
 10
240.1339285714286
 20
288.0
 30
0.0
 40
3.0
  1
5
  7
ADESK1
 72
     1
 11
241.5625
 21
288.0
 31
0.0
100
AcDbText
  0
TEXT
  5
74CD
330
7493
100
AcDbEntity
  8
0
100
AcDbText
 10
191.9375
 20
288.0
 30
0.0
 40
3.0
  1
4
  7
ADESK1
 72
     1
 11
193.4375
 21
288.0
 31
0.0
100
AcDbText
  0
TEXT
  5
74CE
330
7493
100
AcDbEntity
  8
0
100
AcDbText
 10
143.8839285714285
 20
288.0
 30
0.0
 40
3.0
  1
3
  7
ADESK1
 72
     1
 11
145.3125
 21
288.0
 31
0.0
100
AcDbText
  0
TEXT
  5
74CF
330
7493
100
AcDbEntity
  8
0
100
AcDbText
 10
95.75892857142857
 20
288.0
 30
0.0
 40
3.0
  1
2
  7
ADESK1
 72
     1
 11
97.1875
 21
288.0
 31
0.0
100
AcDbText
  0
TEXT
  5
74D0
330
7493
100
AcDbEntity
  8
0
100
AcDbText
 10
21.32144707381961
 20
263.9166666666666
 30
0.0
 40
3.0
  1
A
  7
ADESK1
 72
     1
 11
22.6071613595339
 21
263.9166666666666
 31
0.0
100
AcDbText
  0
TEXT
  5
74D1
330
7493
100
AcDbEntity
  8
0
100
AcDbText
 10
47.84821428571429
 20
288.0
 30
0.0
 40
3.0
  1
1
  7
ADESK1
 72
     1
 11
49.0625
 21
288.0
 31
0.0
100
AcDbText
  0
LINE
  5
74D2
330
7493
100
AcDbEntity
  8
0
100
AcDbLine
 10
73.125
 20
287.0
 30
0.0
 11
73.125
 21
292.0
 31
0.0
  0
LINE
  5
74D3
330
7493
100
AcDbEntity
  8
0
100
AcDbLine
 10
121.25
 20
287.0
 30
0.0
 11
121.25
 21
292.0
 31
0.0
  0
LINE
  5
74D4
330
7493
100
AcDbEntity
  8
0
100
AcDbLine
 10
169.375
 20
287.0
 30
0.0
 11
169.375
 21
292.0
 31
0.0
  0
LINE
  5
74D5
330
7493
100
AcDbEntity
  8
0
100
AcDbLine
 10
217.5
 20
287.0
 30
0.0
 11
217.5
 21
292.0
 31
0.0
  0
LINE
  5
74D6
330
7493
100
AcDbEntity
  8
0
100
AcDbLine
 10
265.625
 20
287.0
 30
0.0
 11
265.625
 21
292.0
 31
0.0
  0
LINE
  5
74D7
330
7493
100
AcDbEntity
  8
0
100
AcDbLine
 10
313.75
 20
287.0
 30
0.0
 11
313.75
 21
292.0
 31
0.0
  0
LINE
  5
74D8
330
7493
100
AcDbEntity
  8
0
100
AcDbLine
 10
361.875
 20
287.0
 30
0.0
 11
361.875
 21
292.0
 31
0.0
  0
LINE
  5
74D9
330
7493
100
AcDbEntity
  8
0
100
AcDbLine
 10
361.875
 20
10.0
 30
0.0
 11
361.875
 21
5.0
 31
0.0
  0
LINE
  5
74DA
330
7493
100
AcDbEntity
  8
0
100
AcDbLine
 10
313.75
 20
10.0
 30
0.0
 11
313.75
 21
5.0
 31
0.0
  0
LINE
  5
74DB
330
7493
100
AcDbEntity
  8
0
100
AcDbLine
 10
265.625
 20
10.0
 30
0.0
 11
265.625
 21
5.0
 31
0.0
  0
LINE
  5
74DC
330
7493
100
AcDbEntity
  8
0
100
AcDbLine
 10
217.5
 20
10.0
 30
0.0
 11
217.5
 21
5.0
 31
0.0
  0
LINE
  5
74DD
330
7493
100
AcDbEntity
  8
0
100
AcDbLine
 10
169.375
 20
10.0
 30
0.0
 11
169.375
 21
5.0
 31
0.0
  0
LINE
  5
74DE
330
7493
100
AcDbEntity
  8
0
100
AcDbLine
 10
121.25
 20
10.0
 30
0.0
 11
121.25
 21
5.0
 31
0.0
  0
LINE
  5
74DF
330
7493
100
AcDbEntity
  8
0
100
AcDbLine
 10
73.125
 20
10.0
 30
0.0
 11
73.125
 21
5.0
 31
0.0
  0
LINE
  5
74E0
330
7493
100
AcDbEntity
  8
0
100
AcDbLine
 10
410.0
 20
240.8333333333334
 30
0.0
 11
415.0
 21
240.8333333333334
 31
0.0
  0
LINE
  5
74E1
330
7493
100
AcDbEntity
  8
0
100
AcDbLine
 10
410.0
 20
194.6666666666667
 30
0.0
 11
415.0
 21
194.6666666666667
 31
0.0
  0
LINE
  5
74E2
330
7493
100
AcDbEntity
  8
0
100
AcDbLine
 10
410.0
 20
148.5
 30
0.0
 11
415.0
 21
148.5
 31
0.0
  0
LINE
  5
74E3
330
7493
100
AcDbEntity
  8
0
100
AcDbLine
 10
410.0
 20
102.3333333333333
 30
0.0
 11
415.0
 21
102.3333333333333
 31
0.0
  0
LINE
  5
74E4
330
7493
100
AcDbEntity
  8
0
100
AcDbLine
 10
410.0
 20
56.16666666666668
 30
0.0
 11
415.0
 21
56.16666666666668
 31
0.0
  0
LINE
  5
74E5
330
7493
100
AcDbEntity
  8
0
100
AcDbLine
 10
25.0
 20
56.16666666666667
 30
0.0
 11
20.0
 21
56.16666666666667
 31
0.0
  0
LINE
  5
74E6
330
7493
100
AcDbEntity
  8
0
100
AcDbLine
 10
25.0
 20
102.3333333333333
 30
0.0
 11
20.0
 21
102.3333333333333
 31
0.0
  0
LINE
  5
74E7
330
7493
100
AcDbEntity
  8
0
100
AcDbLine
 10
25.0
 20
148.5
 30
0.0
 11
20.0
 21
148.5
 31
0.0
  0
LINE
  5
74E8
330
7493
100
AcDbEntity
  8
0
100
AcDbLine
 10
25.0
 20
194.6666666666666
 30
0.0
 11
20.0
 21
194.6666666666666
 31
0.0
  0
LINE
  5
74E9
330
7493
100
AcDbEntity
  8
0
100
AcDbLine
 10
25.0
 20
240.8333333333333
 30
0.0
 11
20.0
 21
240.8333333333333
 31
0.0
  0
TEXT
  5
74EA
330
7493
100
AcDbEntity
  8
0
100
AcDbText
 10
1.0
 20
1.0
 30
0.0
 40
3.0
  1
この図枠はサンプルです。社内の規格やプロッタの出力範囲に合わせて適当に変更してご利用ください。
  7
ADESK1
100
AcDbText
  0
LINE
  5
74EB
330
7493
100
AcDbEntity
  8
0
100
AcDbLine
 10
25.0
 20
148.5
 30
0.0
 11
0.0
 21
148.5
 31
0.0
  0
LINE
  5
74EC
330
7493
100
AcDbEntity
  8
0
100
AcDbLine
 10
410.0
 20
148.5
 30
0.0
 11
420.0
 21
148.5
 31
0.0
  0
LINE
  5
74ED
330
7493
100
AcDbEntity
  8
0
100
AcDbLine
 10
217.5
 20
287.0
 30
0.0
 11
217.5
 21
297.0
 31
0.0
  0
LINE
  5
74EE
330
7493
100
AcDbEntity
  8
0
100
AcDbLine
 10
217.5
 20
10.0
 30
0.0
 11
217.5
 21
0.0
 31
0.0
  0
LINE
  5
74EF
330
7493
100
AcDbEntity
  8
OBJECT
100
AcDbLine
 10
130.0
 20
40.0
 30
0.0
 11
130.0
 21
10.0
 31
0.0
  0
LINE
  5
74F0
330
7493
100
AcDbEntity
  8
OBJECT
100
AcDbLine
 10
120.0
 20
10.0
 30
0.0
 11
120.0
 21
40.0
 31
0.0
  0
LINE
  5
74F1
330
7493
100
AcDbEntity
  8
OBJECT
100
AcDbLine
 10
44.5
 20
37.0
 30
0.0
 11
45.49999999999999
 21
37.0
 31
0.0
  0
LINE
  5
74F2
330
7493
100
AcDbEntity
  8
OBJECT
100
AcDbLine
 10
44.5
 20
31.0
 30
0.0
 11
45.49999999999999
 21
31.0
 31
0.0
  0
LINE
  5
74F3
330
7493
100
AcDbEntity
  8
OBJECT
100
AcDbLine
 10
39.5
 20
37.0
 30
0.0
 11
40.49999999999999
 21
37.0
 31
0.0
  0
LINE
  5
74F4
330
7493
100
AcDbEntity
  8
OBJECT
100
AcDbLine
 10
39.5
 20
31.0
 30
0.0
 11
40.49999999999999
 21
31.0
 31
0.0
  0
LINE
  5
74F5
330
7493
100
AcDbEntity
  8
OBJECT
100
AcDbLine
 10
44.5
 20
25.0
 30
0.0
 11
45.49999999999999
 21
25.0
 31
0.0
  0
LINE
  5
74F6
330
7493
100
AcDbEntity
  8
OBJECT
100
AcDbLine
 10
39.5
 20
25.0
 30
0.0
 11
40.49999999999999
 21
25.0
 31
0.0
  0
LINE
  5
74F7
330
7493
100
AcDbEntity
  8
OBJECT
100
AcDbLine
 10
44.5
 20
19.0
 30
0.0
 11
45.49999999999999
 21
19.0
 31
0.0
  0
LINE
  5
74F8
330
7493
100
AcDbEntity
  8
OBJECT
100
AcDbLine
 10
39.5
 20
19.0
 30
0.0
 11
40.49999999999999
 21
19.0
 31
0.0
  0
LINE
  5
74F9
330
7493
100
AcDbEntity
  8
OBJECT
100
AcDbLine
 10
28.0
 20
29.53589800000001
 30
0.0
 11
30.0
 21
33.0
 31
0.0
  0
LINE
  5
74FA
330
7493
100
AcDbEntity
  8
OBJECT
100
AcDbLine
 10
28.0
 20
29.53589800000001
 30
0.0
 11
32.0
 21
29.53589800000001
 31
0.0
  0
LINE
  5
74FB
330
7493
100
AcDbEntity
  8
OBJECT
100
AcDbLine
 10
32.0
 20
29.53589800000001
 30
0.0
 11
30.0
 21
33.0
 31
0.0
  0
LINE
  5
74FC
330
7493
100
AcDbEntity
  8
OBJECT
100
AcDbLine
 10
28.0
 20
35.535898
 30
0.0
 11
32.0
 21
35.535898
 31
0.0
  0
LINE
  5
74FD
330
7493
100
AcDbEntity
  8
OBJECT
100
AcDbLine
 10
32.0
 20
35.535898
 30
0.0
 11
30.0
 21
39.0
 31
0.0
  0
LINE
  5
74FE
330
7493
100
AcDbEntity
  8
OBJECT
100
AcDbLine
 10
28.0
 20
35.535898
 30
0.0
 11
30.0
 21
39.0
 31
0.0
  0
LINE
  5
74FF
330
7493
100
AcDbEntity
  8
OBJECT
100
AcDbLine
 10
28.0
 20
23.535898
 30
0.0
 11
30.0
 21
27.0
 31
0.0
  0
LINE
  5
7500
330
7493
100
AcDbEntity
  8
OBJECT
100
AcDbLine
 10
28.0
 20
23.535898
 30
0.0
 11
32.0
 21
23.535898
 31
0.0
  0
LINE
  5
7501
330
7493
100
AcDbEntity
  8
OBJECT
100
AcDbLine
 10
32.0
 20
23.535898
 30
0.0
 11
30.0
 21
27.0
 31
0.0
  0
LINE
  5
7502
330
7493
100
AcDbEntity
  8
OBJECT
100
AcDbLine
 10
28.0
 20
17.535898
 30
0.0
 11
30.0
 21
21.0
 31
0.0
  0
LINE
  5
7503
330
7493
100
AcDbEntity
  8
OBJECT
100
AcDbLine
 10
28.0
 20
17.535898
 30
0.0
 11
32.0
 21
17.535898
 31
0.0
  0
LINE
  5
7504
330
7493
100
AcDbEntity
  8
OBJECT
100
AcDbLine
 10
32.0
 20
17.535898
 30
0.0
 11
30.0
 21
21.0
 31
0.0
  0
LINE
  5
7505
330
7493
100
AcDbEntity
  8
OBJECT
100
AcDbLine
 10
44.5
 20
13.0
 30
0.0
 11
45.49999999999999
 21
13.0
 31
0.0
  0
LINE
  5
7506
330
7493
100
AcDbEntity
  8
OBJECT
100
AcDbLine
 10
39.5
 20
13.0
 30
0.0
 11
40.49999999999999
 21
13.0
 31
0.0
  0
LINE
  5
7507
330
7493
100
AcDbEntity
  8
OBJECT
100
AcDbLine
 10
28.0
 20
11.535898
 30
0.0
 11
32.0
 21
11.535898
 31
0.0
  0
LINE
  5
7508
330
7493
100
AcDbEntity
  8
OBJECT
100
AcDbLine
 10
80.0
 20
10.0
 30
0.0
 11
80.0
 21
40.0
 31
0.0
  0
LINE
  5
7509
330
7493
100
AcDbEntity
  8
OBJECT
100
AcDbLine
 10
50.0
 20
10.0
 30
0.0
 11
50.0
 21
40.0
 31
0.0
  0
LINE
  5
750A
330
7493
100
AcDbEntity
  8
OBJECT
100
AcDbLine
 10
35.0
 20
10.0
 30
0.0
 11
35.0
 21
40.0
 31
0.0
  0
LINE
  5
750B
330
7493
100
AcDbEntity
  8
OBJECT
100
AcDbLine
 10
32.0
 20
11.535898
 30
0.0
 11
30.0
 21
15.0
 31
0.0
  0
LINE
  5
750C
330
7493
100
AcDbEntity
  8
OBJECT
100
AcDbLine
 10
28.0
 20
11.535898
 30
0.0
 11
30.0
 21
15.0
 31
0.0
  0
LINE
  5
750D
330
7493
100
AcDbEntity
  8
OBJECT
100
AcDbLine
 10
130.0
 20
40.0
 30
0.0
 11
25.0
 21
40.0
 31
0.0
  0
LINE
  5
750E
330
7493
100
AcDbEntity
  8
OBJECT
100
AcDbLine
 10
130.0
 20
34.0
 30
0.0
 11
25.0
 21
34.0
 31
0.0
  0
LINE
  5
750F
330
7493
100
AcDbEntity
  8
OBJECT
100
AcDbLine
 10
130.0
 20
28.0
 30
0.0
 11
25.0
 21
28.0
 31
0.0
  0
LINE
  5
7510
330
7493
100
AcDbEntity
  8
OBJECT
100
AcDbLine
 10
130.0
 20
22.0
 30
0.0
 11
25.0
 21
22.0
 31
0.0
  0
LINE
  5
7511
330
7493
100
AcDbEntity
  8
OBJECT
100
AcDbLine
 10
130.0
 20
16.0
 30
0.0
 11
25.0
 21
16.0
 31
0.0
  0
ATTDEF
  5
7512
330
7493
100
AcDbEntity
  8
0
 62
     0
100
AcDbText
 10
19.0
 20
118.0
 30
0.0
 40
3.0
  1

 50
90.0
  7
ADESK1
100
AcDbAttributeDefinition
  3

  2
FNAME
 70
     8
  0
ATTDEF
  5
7513
330
7493
100
AcDbEntity
  8
0
 62
     0
100
AcDbText
 10
19.0
 20
70.0
 30
0.0
 40
3.0
  1

 50
90.0
  7
ADESK1
100
AcDbAttributeDefinition
  3

  2
REVDATE
 70
     8
  0
ATTDEF
  5
7514
330
7493
100
AcDbEntity
  8
0
 62
     0
100
AcDbText
 10
19.0
 20
10.0
 30
0.0
 40
3.0
  1

 50
90.0
  7
ADESK1
100
AcDbAttributeDefinition
  3

  2
USER
 70
     8
  0
LINE
  5
7515
330
7493
100
AcDbEntity
  8
0
100
AcDbLine
 10
410.0
 20
297.0
 30
0.0
 11
420.0
 21
297.0
 31
0.0
  0
LINE
  5
7516
330
7493
100
AcDbEntity
  8
0
100
AcDbLine
 10
420.0
 20
10.0
 30
0.0
 11
420.0
 21
0.0
 31
0.0
  0
LINE
  5
7517
330
7493
100
AcDbEntity
  8
0
100
AcDbLine
 10
25.0
 20
0.0
 30
0.0
 11
0.0
 21
0.0
 31
0.0
  0
LINE
  5
7518
330
7493
100
AcDbEntity
  8
0
100
AcDbLine
 10
0.0
 20
287.0
 30
0.0
 11
0.0
 21
297.0
 31
0.0
  0
LINE
  5
7519
330
7493
100
AcDbEntity
  8
0
100
AcDbLine
 10
25.0
 20
287.0
 30
0.0
 11
410.0
 21
287.0
 31
0.0
  0
LINE
  5
751A
330
7493
100
AcDbEntity
  8
0
100
AcDbLine
 10
410.0
 20
287.0
 30
0.0
 11
410.0
 21
10.0
 31
0.0
  0
LINE
  5
751B
330
7493
100
AcDbEntity
  8
0
100
AcDbLine
 10
410.0
 20
10.0
 30
0.0
 11
25.0
 21
10.0
 31
0.0
  0
LINE
  5
751C
330
7493
100
AcDbEntity
  8
0
100
AcDbLine
 10
25.0
 20
10.0
 30
0.0
 11
25.0
 21
287.0
 31
0.0
  0
LINE
  5
751D
330
7493
100
AcDbEntity
  8
0
100
AcDbLine
 10
420.0
 20
0.0
 30
0.0
 11
410.0
 21
0.0
 31
0.0
  0
LINE
  5
751E
330
7493
100
AcDbEntity
  8
0
100
AcDbLine
 10
420.0
 20
297.0
 30
0.0
 11
420.0
 21
287.0
 31
0.0
  0
LINE
  5
751F
330
7493
100
AcDbEntity
  8
0
100
AcDbLine
 10
0.0
 20
297.0
 30
0.0
 11
25.0
 21
297.0
 31
0.0
  0
LINE
  5
7520
330
7493
100
AcDbEntity
  8
0
100
AcDbLine
 10
0.0
 20
0.0
 30
0.0
 11
0.0
 21
10.0
 31
0.0
  0
ENDBLK
  5
7521
330
7493
100
AcDbEntity
  8
0
100
AcDbBlockEnd
  0
BLOCK
  5
96B2
330
96A8
100
AcDbEntity
  8
0
100
AcDbBlockBegin
  2
*D1
 70
     1
 10
0.0
 20
0.0
 30
0.0
  3
*D1
  1

  0
LINE
  5
9C40
330
96A8
100
AcDbEntity
  8
寸法引出
370
    -2
100
AcDbLine
 10
670.8890542835365
 20
247.4581496048988
 30
0.0
 11
670.8890542835365
 21
170.7766558088333
 31
0.0
  0
LINE
  5
9C41
330
96A8
100
AcDbEntity
  8
寸法引出
370
    -2
100
AcDbLine
 10
1190.889054283536
 20
247.4581496048988
 30
0.0
 11
1190.889054283536
 21
170.7766558088333
 31
0.0
  0
LINE
  5
9C42
330
96A8
100
AcDbEntity
  8
寸法引出
370
    -2
100
AcDbLine
 10
685.8890542835365
 20
175.7766558088333
 30
0.0
 11
1175.889054283536
 21
175.7766558088333
 31
0.0
  0
SOLID
  5
9C43
330
96A8
100
AcDbEntity
  8
寸法引出
100
AcDbTrace
 10
685.8890542835365
 20
178.2766558088333
 30
0.0
 11
685.8890542835365
 21
173.2766558088333
 31
0.0
 12
670.8890542835365
 22
175.7766558088333
 32
0.0
 13
670.8890542835365
 23
175.7766558088333
 33
0.0
  0
SOLID
  5
9C44
330
96A8
100
AcDbEntity
  8
寸法引出
100
AcDbTrace
 10
1175.889054283536
 20
178.2766558088333
 30
0.0
 11
1175.889054283536
 21
173.2766558088333
 31
0.0
 12
1190.889054283536
 22
175.7766558088333
 32
0.0
 13
1190.889054283536
 23
175.7766558088333
 33
0.0
  0
MTEXT
  5
9C45
330
96A8
100
AcDbEntity
  8
寸法引出
100
AcDbMText
 10
930.8890542835365
 20
195.7766558088333
 30
0.0
 40
20.0
 41
0.0
 71
     5
 72
     1
  1
\A1;520
  7
SANWA
 73
     1
 44
1.0
1001
ACAD
1000
MTEXTBEGIN
1070
    73
1070
     1
1070
    44
1040
1.0
1070
    74
1070
     0
1000
MTEXTEND
  0
POINT
  5
9C46
330
96A8
100
AcDbEntity
  8
DEFPOINTS
 62
     0
100
AcDbPoint
 10
670.8890542835365
 20
257.4581496048988
 30
0.0
  0
POINT
  5
9C47
330
96A8
100
AcDbEntity
  8
DEFPOINTS
 62
     0
100
AcDbPoint
 10
1190.889054283536
 20
257.4581496048988
 30
0.0
  0
POINT
  5
9C48
330
96A8
100
AcDbEntity
  8
DEFPOINTS
 62
     0
100
AcDbPoint
 10
1190.889054283536
 20
175.7766558088333
 30
0.0
  0
ENDBLK
  5
96B3
330
96A8
100
AcDbEntity
  8
0
100
AcDbBlockEnd
  0
BLOCK
  5
96BD
330
96B4
100
AcDbEntity
  8
0
100
AcDbBlockBegin
  2
*D2
 70
     1
 10
0.0
 20
0.0
 30
0.0
  3
*D2
  1

  0
LINE
  5
9C49
330
96B4
100
AcDbEntity
  8
寸法引出
370
    -2
100
AcDbLine
 10
1190.889054283536
 20
1267.458149604899
 30
0.0
 11
1190.889054283536
 21
1382.48242064203
 31
0.0
  0
LINE
  5
9C4A
330
96B4
100
AcDbEntity
  8
寸法引出
370
    -2
100
AcDbLine
 10
953.3890542835365
 20
1377.48242064203
 30
0.0
 11
1175.889054283536
 21
1377.48242064203
 31
0.0
  0
SOLID
  5
9C4B
330
96B4
100
AcDbEntity
  8
寸法引出
100
AcDbTrace
 10
953.3890542835365
 20
1379.98242064203
 30
0.0
 11
953.3890542835365
 21
1374.98242064203
 31
0.0
 12
938.3890542835365
 22
1377.48242064203
 32
0.0
 13
938.3890542835365
 23
1377.48242064203
 33
0.0
  0
SOLID
  5
9C4C
330
96B4
100
AcDbEntity
  8
寸法引出
100
AcDbTrace
 10
1175.889054283536
 20
1379.98242064203
 30
0.0
 11
1175.889054283536
 21
1374.98242064203
 31
0.0
 12
1190.889054283536
 22
1377.48242064203
 32
0.0
 13
1190.889054283536
 23
1377.48242064203
 33
0.0
  0
MTEXT
  5
9C4D
330
96B4
100
AcDbEntity
  8
寸法引出
100
AcDbMText
 10
1064.639054283536
 20
1397.48242064203
 30
0.0
 40
20.0
 41
0.0
 71
     5
 72
     1
  1
\A1;252.5
  7
SANWA
 73
     1
 44
1.0
1001
ACAD
1000
MTEXTBEGIN
1070
    73
1070
     1
1070
    44
1040
1.0
1070
    74
1070
     0
1000
MTEXTEND
  0
POINT
  5
9C4E
330
96B4
100
AcDbEntity
  8
DEFPOINTS
 62
     0
100
AcDbPoint
 10
938.3890542835365
 20
1257.458149604899
 30
0.0
  0
POINT
  5
9C4F
330
96B4
100
AcDbEntity
  8
DEFPOINTS
 62
     0
100
AcDbPoint
 10
1190.889054283536
 20
1257.458149604899
 30
0.0
  0
POINT
  5
9C50
330
96B4
100
AcDbEntity
  8
DEFPOINTS
 62
     0
100
AcDbPoint
 10
1190.889054283536
 20
1377.48242064203
 30
0.0
  0
ENDBLK
  5
96BE
330
96B4
100
AcDbEntity
  8
0
100
AcDbBlockEnd
  0
BLOCK
  5
96C8
330
96BF
100
AcDbEntity
  8
0
100
AcDbBlockBegin
  2
*D3
 70
     1
 10
0.0
 20
0.0
 30
0.0
  3
*D3
  1

  0
LINE
  5
9C51
330
96BF
100
AcDbEntity
  8
寸法引出
370
    -2
100
AcDbLine
 10
1160.889054283536
 20
1267.458149604899
 30
0.0
 11
1160.889054283536
 21
1342.331675281369
 31
0.0
  0
LINE
  5
9C52
330
96BF
100
AcDbEntity
  8
寸法引出
370
    -2
100
AcDbLine
 10
945.8890542835366
 20
1337.331675281369
 30
0.0
 11
1145.889054283536
 21
1337.331675281369
 31
0.0
  0
SOLID
  5
9C53
330
96BF
100
AcDbEntity
  8
寸法引出
100
AcDbTrace
 10
945.8890542835366
 20
1339.831675281369
 30
0.0
 11
945.8890542835366
 21
1334.831675281369
 31
0.0
 12
930.8890542835365
 22
1337.331675281369
 32
0.0
 13
930.8890542835365
 23
1337.331675281369
 33
0.0
  0
SOLID
  5
9C54
330
96BF
100
AcDbEntity
  8
寸法引出
100
AcDbTrace
 10
1145.889054283536
 20
1339.831675281369
 30
0.0
 11
1145.889054283536
 21
1334.831675281369
 31
0.0
 12
1160.889054283536
 22
1337.331675281369
 32
0.0
 13
1160.889054283536
 23
1337.331675281369
 33
0.0
  0
MTEXT
  5
9C55
330
96BF
100
AcDbEntity
  8
寸法引出
100
AcDbMText
 10
1045.889054283536
 20
1357.331675281369
 30
0.0
 40
20.0
 41
0.0
 71
     5
 72
     1
  1
\A1;230
  7
SANWA
 73
     1
 44
1.0
1001
ACAD
1000
MTEXTBEGIN
1070
    73
1070
     1
1070
    44
1040
1.0
1070
    74
1070
     0
1000
MTEXTEND
  0
POINT
  5
9C56
330
96BF
100
AcDbEntity
  8
DEFPOINTS
 62
     0
100
AcDbPoint
 10
930.8890542835365
 20
1307.458149604899
 30
0.0
  0
POINT
  5
9C57
330
96BF
100
AcDbEntity
  8
DEFPOINTS
 62
     0
100
AcDbPoint
 10
1160.889054283536
 20
1257.458149604899
 30
0.0
  0
POINT
  5
9C58
330
96BF
100
AcDbEntity
  8
DEFPOINTS
 62
     0
100
AcDbPoint
 10
1160.889054283536
 20
1337.331675281369
 30
0.0
  0
ENDBLK
  5
96C9
330
96BF
100
AcDbEntity
  8
0
100
AcDbBlockEnd
  0
BLOCK
  5
96D4
330
96CA
100
AcDbEntity
  8
0
100
AcDbBlockBegin
  2
*D4
 70
     1
 10
0.0
 20
0.0
 30
0.0
  3
*D4
  1

  0
LINE
  5
9C59
330
96CA
100
AcDbEntity
  8
寸法引出
370
    -2
100
AcDbLine
 10
670.8890542835365
 20
1667.096612738228
 30
0.0
 11
670.8890542835365
 21
1744.167952772057
 31
0.0
  0
LINE
  5
9C5A
330
96CA
100
AcDbEntity
  8
寸法引出
370
    -2
100
AcDbLine
 10
1190.889054283536
 20
1667.096612738228
 30
0.0
 11
1190.889054283536
 21
1744.167952772057
 31
0.0
  0
LINE
  5
9C5B
330
96CA
100
AcDbEntity
  8
寸法引出
370
    -2
100
AcDbLine
 10
685.8890542835365
 20
1739.167952772057
 30
0.0
 11
1175.889054283536
 21
1739.167952772057
 31
0.0
  0
SOLID
  5
9C5C
330
96CA
100
AcDbEntity
  8
寸法引出
100
AcDbTrace
 10
685.8890542835365
 20
1741.667952772057
 30
0.0
 11
685.8890542835365
 21
1736.667952772057
 31
0.0
 12
670.8890542835365
 22
1739.167952772057
 32
0.0
 13
670.8890542835365
 23
1739.167952772057
 33
0.0
  0
SOLID
  5
9C5D
330
96CA
100
AcDbEntity
  8
寸法引出
100
AcDbTrace
 10
1175.889054283536
 20
1741.667952772057
 30
0.0
 11
1175.889054283536
 21
1736.667952772057
 31
0.0
 12
1190.889054283536
 22
1739.167952772057
 32
0.0
 13
1190.889054283536
 23
1739.167952772057
 33
0.0
  0
MTEXT
  5
9C5E
330
96CA
100
AcDbEntity
  8
寸法引出
100
AcDbMText
 10
930.8890542835365
 20
1759.167952772057
 30
0.0
 40
20.0
 41
0.0
 71
     5
 72
     1
  1
\A1;520
  7
SANWA
 73
     1
 44
1.0
1001
ACAD
1000
MTEXTBEGIN
1070
    73
1070
     1
1070
    44
1040
1.0
1070
    74
1070
     0
1000
MTEXTEND
  0
POINT
  5
9C5F
330
96CA
100
AcDbEntity
  8
DEFPOINTS
 62
     0
100
AcDbPoint
 10
670.8890542835365
 20
1657.096612738228
 30
0.0
  0
POINT
  5
9C60
330
96CA
100
AcDbEntity
  8
DEFPOINTS
 62
     0
100
AcDbPoint
 10
1190.889054283536
 20
1657.096612738228
 30
0.0
  0
POINT
  5
9C61
330
96CA
100
AcDbEntity
  8
DEFPOINTS
 62
     0
100
AcDbPoint
 10
1190.889054283536
 20
1739.167952772057
 30
0.0
  0
ENDBLK
  5
96D5
330
96CA
100
AcDbEntity
  8
0
100
AcDbBlockEnd
  0
BLOCK
  5
96E0
330
96D6
100
AcDbEntity
  8
0
100
AcDbBlockBegin
  2
*D5
 70
     1
 10
0.0
 20
0.0
 30
0.0
  3
*D5
  1

  0
LINE
  5
9C62
330
96D6
100
AcDbEntity
  8
寸法引出
370
    -2
100
AcDbLine
 10
938.3890542835365
 20
1667.096612738228
 30
0.0
 11
938.3890542835365
 21
1707.939638423487
 31
0.0
  0
LINE
  5
9C63
330
96D6
100
AcDbEntity
  8
寸法引出
370
    -2
100
AcDbLine
 10
1190.889054283536
 20
1667.096612738228
 30
0.0
 11
1190.889054283536
 21
1707.939638423487
 31
0.0
  0
LINE
  5
9C64
330
96D6
100
AcDbEntity
  8
寸法引出
370
    -2
100
AcDbLine
 10
953.3890542835365
 20
1702.939638423487
 30
0.0
 11
1175.889054283536
 21
1702.939638423487
 31
0.0
  0
SOLID
  5
9C65
330
96D6
100
AcDbEntity
  8
寸法引出
100
AcDbTrace
 10
953.3890542835365
 20
1705.439638423487
 30
0.0
 11
953.3890542835365
 21
1700.439638423487
 31
0.0
 12
938.3890542835365
 22
1702.939638423487
 32
0.0
 13
938.3890542835365
 23
1702.939638423487
 33
0.0
  0
SOLID
  5
9C66
330
96D6
100
AcDbEntity
  8
寸法引出
100
AcDbTrace
 10
1175.889054283536
 20
1705.439638423487
 30
0.0
 11
1175.889054283536
 21
1700.439638423487
 31
0.0
 12
1190.889054283536
 22
1702.939638423487
 32
0.0
 13
1190.889054283536
 23
1702.939638423487
 33
0.0
  0
MTEXT
  5
9C67
330
96D6
100
AcDbEntity
  8
寸法引出
100
AcDbMText
 10
1064.639054283536
 20
1722.939638423487
 30
0.0
 40
20.0
 41
0.0
 71
     5
 72
     1
  1
\A1;252.5
  7
SANWA
 73
     1
 44
1.0
1001
ACAD
1000
MTEXTBEGIN
1070
    73
1070
     1
1070
    44
1040
1.0
1070
    74
1070
     0
1000
MTEXTEND
  0
POINT
  5
9C68
330
96D6
100
AcDbEntity
  8
DEFPOINTS
 62
     0
100
AcDbPoint
 10
938.3890542835365
 20
1657.096612738228
 30
0.0
  0
POINT
  5
9C69
330
96D6
100
AcDbEntity
  8
DEFPOINTS
 62
     0
100
AcDbPoint
 10
1190.889054283536
 20
1657.096612738228
 30
0.0
  0
POINT
  5
9C6A
330
96D6
100
AcDbEntity
  8
DEFPOINTS
 62
     0
100
AcDbPoint
 10
1190.889054283536
 20
1702.939638423487
 30
0.0
  0
ENDBLK
  5
96E1
330
96D6
100
AcDbEntity
  8
0
100
AcDbBlockEnd
  0
BLOCK
  5
96EC
330
96E2
100
AcDbEntity
  8
0
100
AcDbBlockBegin
  2
*D6
 70
     1
 10
0.0
 20
0.0
 30
0.0
  3
*D6
  1

  0
LINE
  5
9C6B
330
96E2
100
AcDbEntity
  8
寸法引出
370
    -2
100
AcDbLine
 10
945.8890542835366
 20
1537.096612738228
 30
0.0
 11
945.8890542835366
 21
1460.847314227999
 31
0.0
  0
LINE
  5
9C6C
330
96E2
100
AcDbEntity
  8
寸法引出
370
    -2
100
AcDbLine
 10
1190.889054283536
 20
1537.096612738228
 30
0.0
 11
1190.889054283536
 21
1460.847314227999
 31
0.0
  0
LINE
  5
9C6D
330
96E2
100
AcDbEntity
  8
寸法引出
370
    -2
100
AcDbLine
 10
960.8890542835366
 20
1465.847314227999
 30
0.0
 11
1175.889054283536
 21
1465.847314227999
 31
0.0
  0
SOLID
  5
9C6E
330
96E2
100
AcDbEntity
  8
寸法引出
100
AcDbTrace
 10
960.8890542835366
 20
1468.347314227999
 30
0.0
 11
960.8890542835366
 21
1463.347314227999
 31
0.0
 12
945.8890542835366
 22
1465.847314227999
 32
0.0
 13
945.8890542835366
 23
1465.847314227999
 33
0.0
  0
SOLID
  5
9C6F
330
96E2
100
AcDbEntity
  8
寸法引出
100
AcDbTrace
 10
1175.889054283536
 20
1468.347314227999
 30
0.0
 11
1175.889054283536
 21
1463.347314227999
 31
0.0
 12
1190.889054283536
 22
1465.847314227999
 32
0.0
 13
1190.889054283536
 23
1465.847314227999
 33
0.0
  0
MTEXT
  5
9C70
330
96E2
100
AcDbEntity
  8
寸法引出
100
AcDbMText
 10
1068.389054283536
 20
1485.847314227999
 30
0.0
 40
20.0
 41
0.0
 71
     5
 72
     1
  1
\A1;245
  7
SANWA
 73
     1
 44
1.0
1001
ACAD
1000
MTEXTBEGIN
1070
    73
1070
     1
1070
    44
1040
1.0
1070
    74
1070
     0
1000
MTEXTEND
  0
POINT
  5
9C71
330
96E2
100
AcDbEntity
  8
DEFPOINTS
 62
     0
100
AcDbPoint
 10
945.8890542835366
 20
1547.096612738228
 30
0.0
  0
POINT
  5
9C72
330
96E2
100
AcDbEntity
  8
DEFPOINTS
 62
     0
100
AcDbPoint
 10
1190.889054283536
 20
1547.096612738228
 30
0.0
  0
POINT
  5
9C73
330
96E2
100
AcDbEntity
  8
DEFPOINTS
 62
     0
100
AcDbPoint
 10
1190.889054283536
 20
1465.847314227999
 30
0.0
  0
ENDBLK
  5
96ED
330
96E2
100
AcDbEntity
  8
0
100
AcDbBlockEnd
  0
BLOCK
  5
96F8
330
96EE
100
AcDbEntity
  8
0
100
AcDbBlockBegin
  2
*D7
 70
     1
 10
0.0
 20
0.0
 30
0.0
  3
*D7
  1

  0
LINE
  5
9C74
330
96EE
100
AcDbEntity
  8
寸法引出
370
    -2
100
AcDbLine
 10
660.8890542835365
 20
1137.458149604898
 30
0.0
 11
571.5268671183077
 21
1137.458149604898
 31
0.0
  0
LINE
  5
9C75
330
96EE
100
AcDbEntity
  8
寸法引出
370
    -2
100
AcDbLine
 10
660.8890542835365
 20
377.4581496048988
 30
0.0
 11
571.5268671183075
 21
377.4581496048989
 31
0.0
  0
LINE
  5
9C76
330
96EE
100
AcDbEntity
  8
寸法引出
370
    -2
100
AcDbLine
 10
576.5268671183076
 20
1122.458149604899
 30
0.0
 11
576.5268671183076
 21
392.4581496048989
 31
0.0
  0
SOLID
  5
9C77
330
96EE
100
AcDbEntity
  8
寸法引出
100
AcDbTrace
 10
574.0268671183076
 20
1122.458149604899
 30
0.0
 11
579.0268671183077
 21
1122.458149604899
 31
0.0
 12
576.5268671183076
 22
1137.458149604898
 32
0.0
 13
576.5268671183076
 23
1137.458149604898
 33
0.0
  0
SOLID
  5
9C78
330
96EE
100
AcDbEntity
  8
寸法引出
100
AcDbTrace
 10
574.0268671183075
 20
392.4581496048989
 30
0.0
 11
579.0268671183075
 21
392.4581496048989
 31
0.0
 12
576.5268671183076
 22
377.4581496048989
 32
0.0
 13
576.5268671183076
 23
377.4581496048989
 33
0.0
  0
MTEXT
  5
9C79
330
96EE
100
AcDbEntity
  8
寸法引出
100
AcDbMText
 10
556.5268671183074
 20
757.458149604899
 30
0.0
 40
20.0
 41
0.0
 71
     5
 72
     1
  1
\A1;760
  7
SANWA
 11
0.0000000000000001
 21
1.0
 31
0.0
 73
     1
 44
1.0
1001
ACAD
1000
MTEXTBEGIN
1070
    73
1070
     1
1070
    44
1040
1.0
1070
    74
1070
     0
1000
MTEXTEND
  0
POINT
  5
9C7A
330
96EE
100
AcDbEntity
  8
DEFPOINTS
 62
     0
100
AcDbPoint
 10
670.8890542835365
 20
1137.458149604898
 30
0.0
  0
POINT
  5
9C7B
330
96EE
100
AcDbEntity
  8
DEFPOINTS
 62
     0
100
AcDbPoint
 10
670.8890542835365
 20
377.4581496048988
 30
0.0
  0
POINT
  5
9C7C
330
96EE
100
AcDbEntity
  8
DEFPOINTS
 62
     0
100
AcDbPoint
 10
576.5268671183076
 20
377.4581496048989
 30
0.0
  0
ENDBLK
  5
96F9
330
96EE
100
AcDbEntity
  8
0
100
AcDbBlockEnd
  0
BLOCK
  5
9704
330
96FA
100
AcDbEntity
  8
0
100
AcDbBlockBegin
  2
*D8
 70
     1
 10
0.0
 20
0.0
 30
0.0
  3
*D8
  1

  0
LINE
  5
9C7D
330
96FA
100
AcDbEntity
  8
寸法引出
370
    -2
100
AcDbLine
 10
660.8890542835365
 20
377.4581496048988
 30
0.0
 11
571.5268671183075
 21
377.4581496048989
 31
0.0
  0
LINE
  5
9C7E
330
96FA
100
AcDbEntity
  8
寸法引出
370
    -2
100
AcDbLine
 10
660.8890542835365
 20
257.4581496048988
 30
0.0
 11
571.5268671183075
 21
257.4581496048989
 31
0.0
  0
LINE
  5
9C7F
330
96FA
100
AcDbEntity
  8
寸法引出
370
    -2
100
AcDbLine
 10
576.5268671183076
 20
362.4581496048989
 30
0.0
 11
576.5268671183076
 21
272.4581496048989
 31
0.0
  0
SOLID
  5
9C80
330
96FA
100
AcDbEntity
  8
寸法引出
100
AcDbTrace
 10
574.0268671183075
 20
362.4581496048989
 30
0.0
 11
579.0268671183075
 21
362.4581496048989
 31
0.0
 12
576.5268671183076
 22
377.4581496048989
 32
0.0
 13
576.5268671183076
 23
377.4581496048989
 33
0.0
  0
SOLID
  5
9C81
330
96FA
100
AcDbEntity
  8
寸法引出
100
AcDbTrace
 10
574.0268671183075
 20
272.4581496048989
 30
0.0
 11
579.0268671183075
 21
272.4581496048989
 31
0.0
 12
576.5268671183076
 22
257.4581496048989
 32
0.0
 13
576.5268671183076
 23
257.4581496048989
 33
0.0
  0
MTEXT
  5
9C82
330
96FA
100
AcDbEntity
  8
寸法引出
100
AcDbMText
 10
556.5268671183074
 20
317.458149604899
 30
0.0
 40
20.0
 41
0.0
 71
     5
 72
     1
  1
\A1;120
  7
SANWA
 11
0.0000000000000001
 21
1.0
 31
0.0
 73
     1
 44
1.0
1001
ACAD
1000
MTEXTBEGIN
1070
    73
1070
     1
1070
    44
1040
1.0
1070
    74
1070
     0
1000
MTEXTEND
  0
POINT
  5
9C83
330
96FA
100
AcDbEntity
  8
DEFPOINTS
 62
     0
100
AcDbPoint
 10
670.8890542835365
 20
377.4581496048988
 30
0.0
  0
POINT
  5
9C84
330
96FA
100
AcDbEntity
  8
DEFPOINTS
 62
     0
100
AcDbPoint
 10
670.8890542835365
 20
257.4581496048988
 30
0.0
  0
POINT
  5
9C85
330
96FA
100
AcDbEntity
  8
DEFPOINTS
 62
     0
100
AcDbPoint
 10
576.5268671183076
 20
257.4581496048989
 30
0.0
  0
ENDBLK
  5
9705
330
96FA
100
AcDbEntity
  8
0
100
AcDbBlockEnd
  0
BLOCK
  5
9710
330
9706
100
AcDbEntity
  8
0
100
AcDbBlockBegin
  2
*D9
 70
     1
 10
0.0
 20
0.0
 30
0.0
  3
*D9
  1

  0
LINE
  5
9C86
330
9706
100
AcDbEntity
  8
寸法引出
370
    -2
100
AcDbLine
 10
660.8890542835365
 20
1137.458149604898
 30
0.0
 11
571.5268671183075
 21
1137.458149604898
 31
0.0
  0
LINE
  5
9C87
330
9706
100
AcDbEntity
  8
寸法引出
370
    -2
100
AcDbLine
 10
660.8890542835365
 20
1257.458149604899
 30
0.0
 11
571.5268671183075
 21
1257.458149604899
 31
0.0
  0
LINE
  5
9C88
330
9706
100
AcDbEntity
  8
寸法引出
370
    -2
100
AcDbLine
 10
576.5268671183076
 20
1152.458149604899
 30
0.0
 11
576.5268671183076
 21
1242.458149604899
 31
0.0
  0
SOLID
  5
9C89
330
9706
100
AcDbEntity
  8
寸法引出
100
AcDbTrace
 10
574.0268671183075
 20
1152.458149604899
 30
0.0
 11
579.0268671183075
 21
1152.458149604899
 31
0.0
 12
576.5268671183076
 22
1137.458149604898
 32
0.0
 13
576.5268671183076
 23
1137.458149604898
 33
0.0
  0
SOLID
  5
9C8A
330
9706
100
AcDbEntity
  8
寸法引出
100
AcDbTrace
 10
574.0268671183075
 20
1242.458149604899
 30
0.0
 11
579.0268671183075
 21
1242.458149604899
 31
0.0
 12
576.5268671183076
 22
1257.458149604899
 32
0.0
 13
576.5268671183076
 23
1257.458149604899
 33
0.0
  0
MTEXT
  5
9C8B
330
9706
100
AcDbEntity
  8
寸法引出
100
AcDbMText
 10
556.5268671183074
 20
1197.458149604899
 30
0.0
 40
20.0
 41
0.0
 71
     5
 72
     1
  1
\A1;120
  7
SANWA
 11
0.0000000000000001
 21
1.0
 31
0.0
 73
     1
 44
1.0
1001
ACAD
1000
MTEXTBEGIN
1070
    73
1070
     1
1070
    44
1040
1.0
1070
    74
1070
     0
1000
MTEXTEND
  0
POINT
  5
9C8C
330
9706
100
AcDbEntity
  8
DEFPOINTS
 62
     0
100
AcDbPoint
 10
670.8890542835365
 20
1137.458149604898
 30
0.0
  0
POINT
  5
9C8D
330
9706
100
AcDbEntity
  8
DEFPOINTS
 62
     0
100
AcDbPoint
 10
670.8890542835365
 20
1257.458149604899
 30
0.0
  0
POINT
  5
9C8E
330
9706
100
AcDbEntity
  8
DEFPOINTS
 62
     0
100
AcDbPoint
 10
576.5268671183076
 20
1257.458149604899
 30
0.0
  0
ENDBLK
  5
9711
330
9706
100
AcDbEntity
  8
0
100
AcDbBlockEnd
  0
BLOCK
  5
971C
330
9712
100
AcDbEntity
  8
0
100
AcDbBlockBegin
  2
*D10
 70
     1
 10
0.0
 20
0.0
 30
0.0
  3
*D10
  1

  0
LINE
  5
9C8F
330
9712
100
AcDbEntity
  8
寸法引出
370
    -2
100
AcDbLine
 10
670.8890542835365
 20
1267.458149604899
 30
0.0
 11
670.8890542835365
 21
1382.48242064203
 31
0.0
  0
LINE
  5
9C90
330
9712
100
AcDbEntity
  8
寸法引出
370
    -2
100
AcDbLine
 10
923.3890542835366
 20
1267.458149604899
 30
0.0
 11
923.3890542835366
 21
1382.48242064203
 31
0.0
  0
LINE
  5
9C91
330
9712
100
AcDbEntity
  8
寸法引出
370
    -2
100
AcDbLine
 10
685.8890542835365
 20
1377.48242064203
 30
0.0
 11
908.3890542835366
 21
1377.48242064203
 31
0.0
  0
SOLID
  5
9C92
330
9712
100
AcDbEntity
  8
寸法引出
100
AcDbTrace
 10
685.8890542835365
 20
1379.98242064203
 30
0.0
 11
685.8890542835365
 21
1374.98242064203
 31
0.0
 12
670.8890542835365
 22
1377.48242064203
 32
0.0
 13
670.8890542835365
 23
1377.48242064203
 33
0.0
  0
SOLID
  5
9C93
330
9712
100
AcDbEntity
  8
寸法引出
100
AcDbTrace
 10
908.3890542835366
 20
1379.98242064203
 30
0.0
 11
908.3890542835366
 21
1374.98242064203
 31
0.0
 12
923.3890542835366
 22
1377.48242064203
 32
0.0
 13
923.3890542835366
 23
1377.48242064203
 33
0.0
  0
MTEXT
  5
9C94
330
9712
100
AcDbEntity
  8
寸法引出
100
AcDbMText
 10
797.1390542835365
 20
1397.48242064203
 30
0.0
 40
20.0
 41
0.0
 71
     5
 72
     1
  1
\A1;252.5
  7
SANWA
 73
     1
 44
1.0
1001
ACAD
1000
MTEXTBEGIN
1070
    73
1070
     1
1070
    44
1040
1.0
1070
    74
1070
     0
1000
MTEXTEND
  0
POINT
  5
9C95
330
9712
100
AcDbEntity
  8
DEFPOINTS
 62
     0
100
AcDbPoint
 10
670.8890542835365
 20
1257.458149604899
 30
0.0
  0
POINT
  5
9C96
330
9712
100
AcDbEntity
  8
DEFPOINTS
 62
     0
100
AcDbPoint
 10
923.3890542835366
 20
1257.458149604899
 30
0.0
  0
POINT
  5
9C97
330
9712
100
AcDbEntity
  8
DEFPOINTS
 62
     0
100
AcDbPoint
 10
923.3890542835366
 20
1377.48242064203
 30
0.0
  0
ENDBLK
  5
971D
330
9712
100
AcDbEntity
  8
0
100
AcDbBlockEnd
  0
BLOCK
  5
9728
330
971E
100
AcDbEntity
  8
0
100
AcDbBlockBegin
  2
*D11
 70
     1
 10
0.0
 20
0.0
 30
0.0
  3
*D11
  1

  0
LINE
  5
9C98
330
971E
100
AcDbEntity
  8
寸法引出
370
    -2
100
AcDbLine
 10
700.8890542835366
 20
1267.458149604899
 30
0.0
 11
700.8890542835366
 21
1342.331675281369
 31
0.0
  0
LINE
  5
9C99
330
971E
100
AcDbEntity
  8
寸法引出
370
    -2
100
AcDbLine
 10
930.8890542835365
 20
1317.458149604899
 30
0.0
 11
930.8890542835365
 21
1342.331675281369
 31
0.0
  0
LINE
  5
9C9A
330
971E
100
AcDbEntity
  8
寸法引出
370
    -2
100
AcDbLine
 10
715.8890542835365
 20
1337.331675281369
 30
0.0
 11
915.8890542835365
 21
1337.331675281369
 31
0.0
  0
SOLID
  5
9C9B
330
971E
100
AcDbEntity
  8
寸法引出
100
AcDbTrace
 10
715.8890542835365
 20
1339.831675281369
 30
0.0
 11
715.8890542835365
 21
1334.831675281369
 31
0.0
 12
700.8890542835366
 22
1337.331675281369
 32
0.0
 13
700.8890542835366
 23
1337.331675281369
 33
0.0
  0
SOLID
  5
9C9C
330
971E
100
AcDbEntity
  8
寸法引出
100
AcDbTrace
 10
915.8890542835365
 20
1339.831675281369
 30
0.0
 11
915.8890542835365
 21
1334.831675281369
 31
0.0
 12
930.8890542835365
 22
1337.331675281369
 32
0.0
 13
930.8890542835365
 23
1337.331675281369
 33
0.0
  0
MTEXT
  5
9C9D
330
971E
100
AcDbEntity
  8
寸法引出
100
AcDbMText
 10
815.8890542835365
 20
1357.331675281369
 30
0.0
 40
20.0
 41
0.0
 71
     5
 72
     1
  1
\A1;230
  7
SANWA
 73
     1
 44
1.0
1001
ACAD
1000
MTEXTBEGIN
1070
    73
1070
     1
1070
    44
1040
1.0
1070
    74
1070
     0
1000
MTEXTEND
  0
POINT
  5
9C9E
330
971E
100
AcDbEntity
  8
DEFPOINTS
 62
     0
100
AcDbPoint
 10
700.8890542835366
 20
1257.458149604899
 30
0.0
  0
POINT
  5
9C9F
330
971E
100
AcDbEntity
  8
DEFPOINTS
 62
     0
100
AcDbPoint
 10
930.8890542835365
 20
1307.458149604899
 30
0.0
  0
POINT
  5
9CA0
330
971E
100
AcDbEntity
  8
DEFPOINTS
 62
     0
100
AcDbPoint
 10
930.8890542835365
 20
1337.331675281369
 30
0.0
  0
ENDBLK
  5
9729
330
971E
100
AcDbEntity
  8
0
100
AcDbBlockEnd
  0
BLOCK
  5
9736
330
972A
100
AcDbEntity
  8
0
100
AcDbBlockBegin
  2
*D12
 70
     1
 10
0.0
 20
0.0
 30
0.0
  3
*D12
  1

  0
LINE
  5
9CA1
330
972A
100
AcDbEntity
  8
寸法引出
370
    -2
100
AcDbLine
 10
670.8890542835365
 20
1267.458149604899
 30
0.0
 11
670.8890542835365
 21
1342.331675281369
 31
0.0
  0
LINE
  5
9CA2
330
972A
100
AcDbEntity
  8
寸法引出
370
    -2
100
AcDbLine
 10
700.8890542835366
 20
1267.458149604899
 30
0.0
 11
700.8890542835366
 21
1342.331675281369
 31
0.0
  0
LINE
  5
9CA3
330
972A
100
AcDbEntity
  8
寸法引出
370
    -2
100
AcDbLine
 10
655.8890542835365
 20
1337.331675281369
 30
0.0
 11
640.8890542835365
 21
1337.331675281369
 31
0.0
  0
LINE
  5
9CA4
330
972A
100
AcDbEntity
  8
寸法引出
370
    -2
100
AcDbLine
 10
715.8890542835365
 20
1337.331675281369
 30
0.0
 11
730.8890542835365
 21
1337.331675281369
 31
0.0
  0
LINE
  5
9CA5
330
972A
100
AcDbEntity
  8
寸法引出
370
    -2
100
AcDbLine
 10
670.8890542835365
 20
1337.331675281369
 30
0.0
 11
700.8890542835366
 21
1337.331675281369
 31
0.0
  0
SOLID
  5
9CA6
330
972A
100
AcDbEntity
  8
寸法引出
100
AcDbTrace
 10
655.8890542835365
 20
1339.831675281369
 30
0.0
 11
655.8890542835365
 21
1334.831675281369
 31
0.0
 12
670.8890542835365
 22
1337.331675281369
 32
0.0
 13
670.8890542835365
 23
1337.331675281369
 33
0.0
  0
SOLID
  5
9CA7
330
972A
100
AcDbEntity
  8
寸法引出
100
AcDbTrace
 10
715.8890542835365
 20
1339.831675281369
 30
0.0
 11
715.8890542835365
 21
1334.831675281369
 31
0.0
 12
700.8890542835366
 22
1337.331675281369
 32
0.0
 13
700.8890542835366
 23
1337.331675281369
 33
0.0
  0
MTEXT
  5
9CA8
330
972A
100
AcDbEntity
  8
寸法引出
100
AcDbMText
 10
685.8890542835365
 20
1357.331675281369
 30
0.0
 40
20.0
 41
0.0
 71
     5
 72
     1
  1
\A1;30
  7
SANWA
 73
     1
 44
1.0
1001
ACAD
1000
MTEXTBEGIN
1070
    73
1070
     1
1070
    44
1040
1.0
1070
    74
1070
     0
1000
MTEXTEND
  0
POINT
  5
9CA9
330
972A
100
AcDbEntity
  8
DEFPOINTS
 62
     0
100
AcDbPoint
 10
670.8890542835365
 20
1257.458149604899
 30
0.0
  0
POINT
  5
9CAA
330
972A
100
AcDbEntity
  8
DEFPOINTS
 62
     0
100
AcDbPoint
 10
700.8890542835366
 20
1257.458149604899
 30
0.0
  0
POINT
  5
9CAB
330
972A
100
AcDbEntity
  8
DEFPOINTS
 62
     0
100
AcDbPoint
 10
700.8890542835366
 20
1337.331675281369
 30
0.0
  0
ENDBLK
  5
9737
330
972A
100
AcDbEntity
  8
0
100
AcDbBlockEnd
  0
BLOCK
  5
9743
330
9738
100
AcDbEntity
  8
0
100
AcDbBlockBegin
  2
*D13
 70
     1
 10
0.0
 20
0.0
 30
0.0
  3
*D13
  1

  0
LINE
  5
9CAC
330
9738
100
AcDbEntity
  8
寸法引出
370
    -2
100
AcDbLine
 10
938.3890542835365
 20
1267.458149604899
 30
0.0
 11
938.3890542835365
 21
1382.48242064203
 31
0.0
  0
LINE
  5
9CAD
330
9738
100
AcDbEntity
  8
寸法引出
370
    -2
100
AcDbLine
 10
908.3890542835366
 20
1377.48242064203
 30
0.0
 11
893.3890542835365
 21
1377.48242064203
 31
0.0
  0
LINE
  5
9CAE
330
9738
100
AcDbEntity
  8
寸法引出
370
    -2
100
AcDbLine
 10
953.3890542835365
 20
1377.48242064203
 30
0.0
 11
968.3890542835365
 21
1377.48242064203
 31
0.0
  0
LINE
  5
9CAF
330
9738
100
AcDbEntity
  8
寸法引出
370
    -2
100
AcDbLine
 10
923.3890542835366
 20
1377.48242064203
 30
0.0
 11
938.3890542835365
 21
1377.48242064203
 31
0.0
  0
SOLID
  5
9CB0
330
9738
100
AcDbEntity
  8
寸法引出
100
AcDbTrace
 10
908.3890542835366
 20
1379.98242064203
 30
0.0
 11
908.3890542835366
 21
1374.98242064203
 31
0.0
 12
923.3890542835366
 22
1377.48242064203
 32
0.0
 13
923.3890542835366
 23
1377.48242064203
 33
0.0
  0
SOLID
  5
9CB1
330
9738
100
AcDbEntity
  8
寸法引出
100
AcDbTrace
 10
953.3890542835365
 20
1379.98242064203
 30
0.0
 11
953.3890542835365
 21
1374.98242064203
 31
0.0
 12
938.3890542835365
 22
1377.48242064203
 32
0.0
 13
938.3890542835365
 23
1377.48242064203
 33
0.0
  0
MTEXT
  5
9CB2
330
9738
100
AcDbEntity
  8
寸法引出
100
AcDbMText
 10
930.8890542835365
 20
1397.48242064203
 30
0.0
 40
20.0
 41
0.0
 71
     5
 72
     1
  1
\A1;15
  7
SANWA
 73
     1
 44
1.0
1001
ACAD
1000
MTEXTBEGIN
1070
    73
1070
     1
1070
    44
1040
1.0
1070
    74
1070
     0
1000
MTEXTEND
  0
POINT
  5
9CB3
330
9738
100
AcDbEntity
  8
DEFPOINTS
 62
     0
100
AcDbPoint
 10
923.3890542835366
 20
1257.458149604899
 30
0.0
  0
POINT
  5
9CB4
330
9738
100
AcDbEntity
  8
DEFPOINTS
 62
     0
100
AcDbPoint
 10
938.3890542835365
 20
1257.458149604899
 30
0.0
  0
POINT
  5
9CB5
330
9738
100
AcDbEntity
  8
DEFPOINTS
 62
     0
100
AcDbPoint
 10
938.3890542835365
 20
1377.48242064203
 30
0.0
  0
ENDBLK
  5
9744
330
9738
100
AcDbEntity
  8
0
100
AcDbBlockEnd
  0
BLOCK
  5
974F
330
9745
100
AcDbEntity
  8
0
100
AcDbBlockBegin
  2
*D14
 70
     1
 10
0.0
 20
0.0
 30
0.0
  3
*D14
  1

  0
LINE
  5
9CB6
330
9745
100
AcDbEntity
  8
寸法引出
370
    -2
100
AcDbLine
 10
915.8890542835363
 20
1537.096612738228
 30
0.0
 11
915.8890542835363
 21
1460.847314227999
 31
0.0
  0
LINE
  5
9CB7
330
9745
100
AcDbEntity
  8
寸法引出
370
    -2
100
AcDbLine
 10
670.8890542835365
 20
1537.096612738228
 30
0.0
 11
670.8890542835365
 21
1460.847314227999
 31
0.0
  0
LINE
  5
9CB8
330
9745
100
AcDbEntity
  8
寸法引出
370
    -2
100
AcDbLine
 10
900.8890542835363
 20
1465.847314227999
 30
0.0
 11
685.8890542835365
 21
1465.847314227999
 31
0.0
  0
SOLID
  5
9CB9
330
9745
100
AcDbEntity
  8
寸法引出
100
AcDbTrace
 10
900.8890542835363
 20
1468.347314227999
 30
0.0
 11
900.8890542835363
 21
1463.347314227999
 31
0.0
 12
915.8890542835363
 22
1465.847314227999
 32
0.0
 13
915.8890542835363
 23
1465.847314227999
 33
0.0
  0
SOLID
  5
9CBA
330
9745
100
AcDbEntity
  8
寸法引出
100
AcDbTrace
 10
685.8890542835365
 20
1468.347314227999
 30
0.0
 11
685.8890542835365
 21
1463.347314227999
 31
0.0
 12
670.8890542835365
 22
1465.847314227999
 32
0.0
 13
670.8890542835365
 23
1465.847314227999
 33
0.0
  0
MTEXT
  5
9CBB
330
9745
100
AcDbEntity
  8
寸法引出
100
AcDbMText
 10
793.3890542835364
 20
1485.847314227999
 30
0.0
 40
20.0
 41
0.0
 71
     5
 72
     1
  1
\A1;245
  7
SANWA
 73
     1
 44
1.0
1001
ACAD
1000
MTEXTBEGIN
1070
    73
1070
     1
1070
    44
1040
1.0
1070
    74
1070
     0
1000
MTEXTEND
  0
POINT
  5
9CBC
330
9745
100
AcDbEntity
  8
DEFPOINTS
 62
     0
100
AcDbPoint
 10
915.8890542835363
 20
1547.096612738228
 30
0.0
  0
POINT
  5
9CBD
330
9745
100
AcDbEntity
  8
DEFPOINTS
 62
     0
100
AcDbPoint
 10
670.8890542835365
 20
1547.096612738228
 30
0.0
  0
POINT
  5
9CBE
330
9745
100
AcDbEntity
  8
DEFPOINTS
 62
     0
100
AcDbPoint
 10
670.8890542835365
 20
1465.847314227999
 30
0.0
  0
ENDBLK
  5
9750
330
9745
100
AcDbEntity
  8
0
100
AcDbBlockEnd
  0
BLOCK
  5
975B
330
9751
100
AcDbEntity
  8
0
100
AcDbBlockBegin
  2
*D15
 70
     1
 10
0.0
 20
0.0
 30
0.0
  3
*D15
  1

  0
LINE
  5
9CBF
330
9751
100
AcDbEntity
  8
寸法引出
370
    -2
100
AcDbLine
 10
923.3890542835366
 20
1667.096612738228
 30
0.0
 11
923.3890542835366
 21
1707.939638423487
 31
0.0
  0
LINE
  5
9CC0
330
9751
100
AcDbEntity
  8
寸法引出
370
    -2
100
AcDbLine
 10
670.8890542835365
 20
1667.096612738228
 30
0.0
 11
670.8890542835365
 21
1707.939638423487
 31
0.0
  0
LINE
  5
9CC1
330
9751
100
AcDbEntity
  8
寸法引出
370
    -2
100
AcDbLine
 10
908.3890542835366
 20
1702.939638423487
 30
0.0
 11
685.8890542835365
 21
1702.939638423487
 31
0.0
  0
SOLID
  5
9CC2
330
9751
100
AcDbEntity
  8
寸法引出
100
AcDbTrace
 10
908.3890542835366
 20
1705.439638423487
 30
0.0
 11
908.3890542835366
 21
1700.439638423487
 31
0.0
 12
923.3890542835366
 22
1702.939638423487
 32
0.0
 13
923.3890542835366
 23
1702.939638423487
 33
0.0
  0
SOLID
  5
9CC3
330
9751
100
AcDbEntity
  8
寸法引出
100
AcDbTrace
 10
685.8890542835365
 20
1705.439638423487
 30
0.0
 11
685.8890542835365
 21
1700.439638423487
 31
0.0
 12
670.8890542835365
 22
1702.939638423487
 32
0.0
 13
670.8890542835365
 23
1702.939638423487
 33
0.0
  0
MTEXT
  5
9CC4
330
9751
100
AcDbEntity
  8
寸法引出
100
AcDbMText
 10
797.1390542835365
 20
1722.939638423487
 30
0.0
 40
20.0
 41
0.0
 71
     5
 72
     1
  1
\A1;252.5
  7
SANWA
 73
     1
 44
1.0
1001
ACAD
1000
MTEXTBEGIN
1070
    73
1070
     1
1070
    44
1040
1.0
1070
    74
1070
     0
1000
MTEXTEND
  0
POINT
  5
9CC5
330
9751
100
AcDbEntity
  8
DEFPOINTS
 62
     0
100
AcDbPoint
 10
923.3890542835366
 20
1657.096612738228
 30
0.0
  0
POINT
  5
9CC6
330
9751
100
AcDbEntity
  8
DEFPOINTS
 62
     0
100
AcDbPoint
 10
670.8890542835365
 20
1657.096612738228
 30
0.0
  0
POINT
  5
9CC7
330
9751
100
AcDbEntity
  8
DEFPOINTS
 62
     0
100
AcDbPoint
 10
670.8890542835365
 20
1702.939638423487
 30
0.0
  0
ENDBLK
  5
975C
330
9751
100
AcDbEntity
  8
0
100
AcDbBlockEnd
  0
BLOCK
  5
9769
330
975D
100
AcDbEntity
  8
0
100
AcDbBlockBegin
  2
*D16
 70
     1
 10
0.0
 20
0.0
 30
0.0
  3
*D16
  1

  0
LINE
  5
9CC8
330
975D
100
AcDbEntity
  8
寸法引出
370
    -2
100
AcDbLine
 10
670.8890542835365
 20
1537.096612738228
 30
0.0
 11
670.8890542835365
 21
1497.591358997003
 31
0.0
  0
LINE
  5
9CC9
330
975D
100
AcDbEntity
  8
寸法引出
370
    -2
100
AcDbLine
 10
700.8890542835366
 20
1537.096612738228
 30
0.0
 11
700.8890542835366
 21
1497.591358997003
 31
0.0
  0
LINE
  5
9CCA
330
975D
100
AcDbEntity
  8
寸法引出
370
    -2
100
AcDbLine
 10
655.8890542835365
 20
1502.591358997003
 30
0.0
 11
640.8890542835365
 21
1502.591358997003
 31
0.0
  0
LINE
  5
9CCB
330
975D
100
AcDbEntity
  8
寸法引出
370
    -2
100
AcDbLine
 10
715.8890542835365
 20
1502.591358997003
 30
0.0
 11
730.8890542835365
 21
1502.591358997003
 31
0.0
  0
LINE
  5
9CCC
330
975D
100
AcDbEntity
  8
寸法引出
370
    -2
100
AcDbLine
 10
670.8890542835365
 20
1502.591358997003
 30
0.0
 11
700.8890542835366
 21
1502.591358997003
 31
0.0
  0
SOLID
  5
9CCD
330
975D
100
AcDbEntity
  8
寸法引出
100
AcDbTrace
 10
655.8890542835365
 20
1505.091358997003
 30
0.0
 11
655.8890542835365
 21
1500.091358997003
 31
0.0
 12
670.8890542835365
 22
1502.591358997003
 32
0.0
 13
670.8890542835365
 23
1502.591358997003
 33
0.0
  0
SOLID
  5
9CCE
330
975D
100
AcDbEntity
  8
寸法引出
100
AcDbTrace
 10
715.8890542835365
 20
1505.091358997003
 30
0.0
 11
715.8890542835365
 21
1500.091358997003
 31
0.0
 12
700.8890542835366
 22
1502.591358997003
 32
0.0
 13
700.8890542835366
 23
1502.591358997003
 33
0.0
  0
MTEXT
  5
9CCF
330
975D
100
AcDbEntity
  8
寸法引出
100
AcDbMText
 10
685.8890542835365
 20
1522.591358997003
 30
0.0
 40
20.0
 41
0.0
 71
     5
 72
     1
  1
\A1;30
  7
SANWA
 73
     1
 44
1.0
1001
ACAD
1000
MTEXTBEGIN
1070
    73
1070
     1
1070
    44
1040
1.0
1070
    74
1070
     0
1000
MTEXTEND
  0
POINT
  5
9CD0
330
975D
100
AcDbEntity
  8
DEFPOINTS
 62
     0
100
AcDbPoint
 10
670.8890542835365
 20
1547.096612738228
 30
0.0
  0
POINT
  5
9CD1
330
975D
100
AcDbEntity
  8
DEFPOINTS
 62
     0
100
AcDbPoint
 10
700.8890542835366
 20
1547.096612738228
 30
0.0
  0
POINT
  5
9CD2
330
975D
100
AcDbEntity
  8
DEFPOINTS
 62
     0
100
AcDbPoint
 10
700.8890542835366
 20
1502.591358997003
 30
0.0
  0
ENDBLK
  5
976A
330
975D
100
AcDbEntity
  8
0
100
AcDbBlockEnd
  0
BLOCK
  5
9777
330
976B
100
AcDbEntity
  8
0
100
AcDbBlockBegin
  2
*D17
 70
     1
 10
0.0
 20
0.0
 30
0.0
  3
*D17
  1

  0
LINE
  5
9CD3
330
976B
100
AcDbEntity
  8
寸法引出
370
    -2
100
AcDbLine
 10
913.3890542835365
 20
1657.096612738228
 30
0.0
 11
888.7188002777444
 21
1657.096612738228
 31
0.0
  0
LINE
  5
9CD4
330
976B
100
AcDbEntity
  8
寸法引出
370
    -2
100
AcDbLine
 10
907.8890542835365
 20
1632.096612738228
 30
0.0
 11
888.7188002777444
 21
1632.096612738228
 31
0.0
  0
LINE
  5
9CD5
330
976B
100
AcDbEntity
  8
寸法引出
370
    -2
100
AcDbLine
 10
893.7188002777443
 20
1672.096612738228
 30
0.0
 11
893.7188002777443
 21
1687.096612738228
 31
0.0
  0
LINE
  5
9CD6
330
976B
100
AcDbEntity
  8
寸法引出
370
    -2
100
AcDbLine
 10
893.7188002777443
 20
1617.096612738228
 30
0.0
 11
893.7188002777443
 21
1602.096612738227
 31
0.0
  0
LINE
  5
9CD7
330
976B
100
AcDbEntity
  8
寸法引出
370
    -2
100
AcDbLine
 10
893.7188002777443
 20
1657.096612738228
 30
0.0
 11
893.7188002777443
 21
1632.096612738228
 31
0.0
  0
SOLID
  5
9CD8
330
976B
100
AcDbEntity
  8
寸法引出
100
AcDbTrace
 10
891.2188002777442
 20
1672.096612738228
 30
0.0
 11
896.2188002777443
 21
1672.096612738228
 31
0.0
 12
893.7188002777443
 22
1657.096612738228
 32
0.0
 13
893.7188002777443
 23
1657.096612738228
 33
0.0
  0
SOLID
  5
9CD9
330
976B
100
AcDbEntity
  8
寸法引出
100
AcDbTrace
 10
891.2188002777442
 20
1617.096612738228
 30
0.0
 11
896.2188002777443
 21
1617.096612738228
 31
0.0
 12
893.7188002777443
 22
1632.096612738228
 32
0.0
 13
893.7188002777443
 23
1632.096612738228
 33
0.0
  0
MTEXT
  5
9CDA
330
976B
100
AcDbEntity
  8
寸法引出
100
AcDbMText
 10
873.7188002777442
 20
1644.596612738228
 30
0.0
 40
20.0
 41
0.0
 71
     5
 72
     1
  1
\A1;25
  7
SANWA
 11
0.0000000000000001
 21
1.0
 31
0.0
 73
     1
 44
1.0
1001
ACAD
1000
MTEXTBEGIN
1070
    73
1070
     1
1070
    44
1040
1.0
1070
    74
1070
     0
1000
MTEXTEND
  0
POINT
  5
9CDB
330
976B
100
AcDbEntity
  8
DEFPOINTS
 62
     0
100
AcDbPoint
 10
923.3890542835366
 20
1657.096612738228
 30
0.0
  0
POINT
  5
9CDC
330
976B
100
AcDbEntity
  8
DEFPOINTS
 62
     0
100
AcDbPoint
 10
917.8890542835365
 20
1632.096612738228
 30
0.0
  0
POINT
  5
9CDD
330
976B
100
AcDbEntity
  8
DEFPOINTS
 62
     0
100
AcDbPoint
 10
893.7188002777443
 20
1632.096612738228
 30
0.0
  0
ENDBLK
  5
9778
330
976B
100
AcDbEntity
  8
0
100
AcDbBlockEnd
  0
BLOCK
  5
9785
330
9779
100
AcDbEntity
  8
0
100
AcDbBlockBegin
  2
*D18
 70
     1
 10
0.0
 20
0.0
 30
0.0
  3
*D18
  1

  0
LINE
  5
9CDE
330
9779
100
AcDbEntity
  8
寸法引出
370
    -2
100
AcDbLine
 10
915.8890542835363
 20
1537.096612738228
 30
0.0
 11
915.8890542835363
 21
1460.847314227999
 31
0.0
  0
LINE
  5
9CDF
330
9779
100
AcDbEntity
  8
寸法引出
370
    -2
100
AcDbLine
 10
945.8890542835366
 20
1537.096612738228
 30
0.0
 11
945.8890542835366
 21
1460.847314227999
 31
0.0
  0
LINE
  5
9CE0
330
9779
100
AcDbEntity
  8
寸法引出
370
    -2
100
AcDbLine
 10
900.8890542835363
 20
1465.847314227999
 30
0.0
 11
885.8890542835363
 21
1465.847314227999
 31
0.0
  0
LINE
  5
9CE1
330
9779
100
AcDbEntity
  8
寸法引出
370
    -2
100
AcDbLine
 10
960.8890542835366
 20
1465.847314227999
 30
0.0
 11
975.8890542835365
 21
1465.847314227999
 31
0.0
  0
LINE
  5
9CE2
330
9779
100
AcDbEntity
  8
寸法引出
370
    -2
100
AcDbLine
 10
915.8890542835363
 20
1465.847314227999
 30
0.0
 11
945.8890542835366
 21
1465.847314227999
 31
0.0
  0
SOLID
  5
9CE3
330
9779
100
AcDbEntity
  8
寸法引出
100
AcDbTrace
 10
900.8890542835363
 20
1468.347314227999
 30
0.0
 11
900.8890542835363
 21
1463.347314227999
 31
0.0
 12
915.8890542835363
 22
1465.847314227999
 32
0.0
 13
915.8890542835363
 23
1465.847314227999
 33
0.0
  0
SOLID
  5
9CE4
330
9779
100
AcDbEntity
  8
寸法引出
100
AcDbTrace
 10
960.8890542835366
 20
1468.347314227999
 30
0.0
 11
960.8890542835366
 21
1463.347314227999
 31
0.0
 12
945.8890542835366
 22
1465.847314227999
 32
0.0
 13
945.8890542835366
 23
1465.847314227999
 33
0.0
  0
MTEXT
  5
9CE5
330
9779
100
AcDbEntity
  8
寸法引出
100
AcDbMText
 10
930.8890542835364
 20
1485.847314227999
 30
0.0
 40
20.0
 41
0.0
 71
     5
 72
     1
  1
\A1;30
  7
SANWA
 73
     1
 44
1.0
1001
ACAD
1000
MTEXTBEGIN
1070
    73
1070
     1
1070
    44
1040
1.0
1070
    74
1070
     0
1000
MTEXTEND
  0
POINT
  5
9CE6
330
9779
100
AcDbEntity
  8
DEFPOINTS
 62
     0
100
AcDbPoint
 10
915.8890542835363
 20
1547.096612738228
 30
0.0
  0
POINT
  5
9CE7
330
9779
100
AcDbEntity
  8
DEFPOINTS
 62
     0
100
AcDbPoint
 10
945.8890542835366
 20
1547.096612738228
 30
0.0
  0
POINT
  5
9CE8
330
9779
100
AcDbEntity
  8
DEFPOINTS
 62
     0
100
AcDbPoint
 10
945.8890542835366
 20
1465.847314227999
 30
0.0
  0
ENDBLK
  5
9786
330
9779
100
AcDbEntity
  8
0
100
AcDbBlockEnd
  0
BLOCK
  5
9793
330
9787
100
AcDbEntity
  8
0
100
AcDbBlockBegin
  2
*D19
 70
     1
 10
0.0
 20
0.0
 30
0.0
  3
*D19
  1

  0
LINE
  5
9CE9
330
9787
100
AcDbEntity
  8
寸法引出
370
    -2
100
AcDbLine
 10
905.8890542835365
 20
1556.096612738228
 30
0.0
 11
888.7188002777444
 21
1556.096612738228
 31
0.0
  0
LINE
  5
9CEA
330
9787
100
AcDbEntity
  8
寸法引出
370
    -2
100
AcDbLine
 10
905.8890542835364
 20
1547.096612738228
 30
0.0
 11
888.7188002777444
 21
1547.096612738228
 31
0.0
  0
LINE
  5
9CEB
330
9787
100
AcDbEntity
  8
寸法引出
370
    -2
100
AcDbLine
 10
893.7188002777443
 20
1571.096612738228
 30
0.0
 11
893.7188002777443
 21
1586.096612738228
 31
0.0
  0
LINE
  5
9CEC
330
9787
100
AcDbEntity
  8
寸法引出
370
    -2
100
AcDbLine
 10
893.7188002777443
 20
1532.096612738228
 30
0.0
 11
893.7188002777443
 21
1517.096612738228
 31
0.0
  0
LINE
  5
9CED
330
9787
100
AcDbEntity
  8
寸法引出
370
    -2
100
AcDbLine
 10
893.7188002777443
 20
1556.096612738228
 30
0.0
 11
893.7188002777443
 21
1547.096612738228
 31
0.0
  0
SOLID
  5
9CEE
330
9787
100
AcDbEntity
  8
寸法引出
100
AcDbTrace
 10
891.2188002777442
 20
1571.096612738228
 30
0.0
 11
896.2188002777443
 21
1571.096612738228
 31
0.0
 12
893.7188002777443
 22
1556.096612738228
 32
0.0
 13
893.7188002777443
 23
1556.096612738228
 33
0.0
  0
SOLID
  5
9CEF
330
9787
100
AcDbEntity
  8
寸法引出
100
AcDbTrace
 10
891.2188002777442
 20
1532.096612738228
 30
0.0
 11
896.2188002777443
 21
1532.096612738228
 31
0.0
 12
893.7188002777443
 22
1547.096612738228
 32
0.0
 13
893.7188002777443
 23
1547.096612738228
 33
0.0
  0
MTEXT
  5
9CF0
330
9787
100
AcDbEntity
  8
寸法引出
100
AcDbMText
 10
873.7188002777442
 20
1551.596612738228
 30
0.0
 40
20.0
 41
0.0
 71
     5
 72
     1
  1
\A1;9
  7
SANWA
 11
0.0000000000000001
 21
1.0
 31
0.0
 73
     1
 44
1.0
1001
ACAD
1000
MTEXTBEGIN
1070
    73
1070
     1
1070
    44
1040
1.0
1070
    74
1070
     0
1000
MTEXTEND
  0
POINT
  5
9CF1
330
9787
100
AcDbEntity
  8
DEFPOINTS
 62
     0
100
AcDbPoint
 10
915.8890542835365
 20
1556.096612738228
 30
0.0
  0
POINT
  5
9CF2
330
9787
100
AcDbEntity
  8
DEFPOINTS
 62
     0
100
AcDbPoint
 10
915.8890542835363
 20
1547.096612738228
 30
0.0
  0
POINT
  5
9CF3
330
9787
100
AcDbEntity
  8
DEFPOINTS
 62
     0
100
AcDbPoint
 10
893.7188002777443
 20
1547.096612738228
 30
0.0
  0
ENDBLK
  5
9794
330
9787
100
AcDbEntity
  8
0
100
AcDbBlockEnd
  0
BLOCK
  5
97A1
330
9795
100
AcDbEntity
  8
0
100
AcDbBlockBegin
  2
*D20
 70
     1
 10
0.0
 20
0.0
 30
0.0
  3
*D20
  1

  0
LINE
  5
9CF4
330
9795
100
AcDbEntity
  8
寸法引出
370
    -2
100
AcDbLine
 10
923.3890542835366
 20
1667.096612738228
 30
0.0
 11
923.3890542835366
 21
1707.939638423487
 31
0.0
  0
LINE
  5
9CF5
330
9795
100
AcDbEntity
  8
寸法引出
370
    -2
100
AcDbLine
 10
938.3890542835365
 20
1667.096612738228
 30
0.0
 11
938.3890542835365
 21
1707.939638423487
 31
0.0
  0
LINE
  5
9CF6
330
9795
100
AcDbEntity
  8
寸法引出
370
    -2
100
AcDbLine
 10
908.3890542835366
 20
1702.939638423487
 30
0.0
 11
893.3890542835365
 21
1702.939638423487
 31
0.0
  0
LINE
  5
9CF7
330
9795
100
AcDbEntity
  8
寸法引出
370
    -2
100
AcDbLine
 10
953.3890542835365
 20
1702.939638423487
 30
0.0
 11
968.3890542835365
 21
1702.939638423487
 31
0.0
  0
LINE
  5
9CF8
330
9795
100
AcDbEntity
  8
寸法引出
370
    -2
100
AcDbLine
 10
923.3890542835366
 20
1702.939638423487
 30
0.0
 11
938.3890542835365
 21
1702.939638423487
 31
0.0
  0
SOLID
  5
9CF9
330
9795
100
AcDbEntity
  8
寸法引出
100
AcDbTrace
 10
908.3890542835366
 20
1705.439638423487
 30
0.0
 11
908.3890542835366
 21
1700.439638423487
 31
0.0
 12
923.3890542835366
 22
1702.939638423487
 32
0.0
 13
923.3890542835366
 23
1702.939638423487
 33
0.0
  0
SOLID
  5
9CFA
330
9795
100
AcDbEntity
  8
寸法引出
100
AcDbTrace
 10
953.3890542835365
 20
1705.439638423487
 30
0.0
 11
953.3890542835365
 21
1700.439638423487
 31
0.0
 12
938.3890542835365
 22
1702.939638423487
 32
0.0
 13
938.3890542835365
 23
1702.939638423487
 33
0.0
  0
MTEXT
  5
9CFB
330
9795
100
AcDbEntity
  8
寸法引出
100
AcDbMText
 10
930.8890542835365
 20
1722.939638423487
 30
0.0
 40
20.0
 41
0.0
 71
     5
 72
     1
  1
\A1;15
  7
SANWA
 73
     1
 44
1.0
1001
ACAD
1000
MTEXTBEGIN
1070
    73
1070
     1
1070
    44
1040
1.0
1070
    74
1070
     0
1000
MTEXTEND
  0
POINT
  5
9CFC
330
9795
100
AcDbEntity
  8
DEFPOINTS
 62
     0
100
AcDbPoint
 10
923.3890542835366
 20
1657.096612738228
 30
0.0
  0
POINT
  5
9CFD
330
9795
100
AcDbEntity
  8
DEFPOINTS
 62
     0
100
AcDbPoint
 10
938.3890542835365
 20
1657.096612738228
 30
0.0
  0
POINT
  5
9CFE
330
9795
100
AcDbEntity
  8
DEFPOINTS
 62
     0
100
AcDbPoint
 10
938.3890542835365
 20
1702.939638423487
 30
0.0
  0
ENDBLK
  5
97A2
330
9795
100
AcDbEntity
  8
0
100
AcDbBlockEnd
  0
BLOCK
  5
97AD
330
97A3
100
AcDbEntity
  8
0
100
AcDbBlockBegin
  2
*D21
 70
     1
 10
0.0
 20
0.0
 30
0.0
  3
*D21
  1

  0
LINE
  5
9CFF
330
97A3
100
AcDbEntity
  8
寸法引出
370
    -2
100
AcDbLine
 10
1200.889054283536
 20
1257.458149604899
 30
0.0
 11
1286.10478373287
 21
1257.458149604899
 31
0.0
  0
LINE
  5
9D00
330
97A3
100
AcDbEntity
  8
寸法引出
370
    -2
100
AcDbLine
 10
1200.889054283536
 20
257.4581496048988
 30
0.0
 11
1286.10478373287
 21
257.4581496048988
 31
0.0
  0
LINE
  5
9D01
330
97A3
100
AcDbEntity
  8
寸法引出
370
    -2
100
AcDbLine
 10
1281.10478373287
 20
1242.458149604899
 30
0.0
 11
1281.104783732869
 21
272.4581496048988
 31
0.0
  0
SOLID
  5
9D02
330
97A3
100
AcDbEntity
  8
寸法引出
100
AcDbTrace
 10
1278.60478373287
 20
1242.458149604899
 30
0.0
 11
1283.60478373287
 21
1242.458149604899
 31
0.0
 12
1281.10478373287
 22
1257.458149604899
 32
0.0
 13
1281.10478373287
 23
1257.458149604899
 33
0.0
  0
SOLID
  5
9D03
330
97A3
100
AcDbEntity
  8
寸法引出
100
AcDbTrace
 10
1278.60478373287
 20
272.4581496048988
 30
0.0
 11
1283.60478373287
 21
272.4581496048988
 31
0.0
 12
1281.104783732869
 22
257.4581496048988
 32
0.0
 13
1281.104783732869
 23
257.4581496048988
 33
0.0
  0
MTEXT
  5
9D04
330
97A3
100
AcDbEntity
  8
寸法引出
100
AcDbMText
 10
1261.10478373287
 20
757.4581496048989
 30
0.0
 40
20.0
 41
0.0
 71
     5
 72
     1
  1
\A1;1000
  7
SANWA
 11
0.0000000000000001
 21
1.0
 31
0.0
 73
     1
 44
1.0
1001
ACAD
1000
MTEXTBEGIN
1070
    73
1070
     1
1070
    44
1040
1.0
1070
    74
1070
     0
1000
MTEXTEND
  0
POINT
  5
9D05
330
97A3
100
AcDbEntity
  8
DEFPOINTS
 62
     0
100
AcDbPoint
 10
1190.889054283536
 20
1257.458149604899
 30
0.0
  0
POINT
  5
9D06
330
97A3
100
AcDbEntity
  8
DEFPOINTS
 62
     0
100
AcDbPoint
 10
1190.889054283536
 20
257.4581496048988
 30
0.0
  0
POINT
  5
9D07
330
97A3
100
AcDbEntity
  8
DEFPOINTS
 62
     0
100
AcDbPoint
 10
1281.104783732869
 20
257.4581496048988
 30
0.0
  0
ENDBLK
  5
97AE
330
97A3
100
AcDbEntity
  8
0
100
AcDbBlockEnd
  0
BLOCK
  5
97B9
330
97AF
100
AcDbEntity
  8
0
100
AcDbBlockBegin
  2
*D22
 70
     1
 10
0.0
 20
0.0
 30
0.0
  3
*D22
  1

  0
LINE
  5
9D08
330
97AF
100
AcDbEntity
  8
寸法引出
370
    -2
100
AcDbLine
 10
1495.197504078216
 20
1667.096612738228
 30
0.0
 11
1495.197504078216
 21
1744.167952772057
 31
0.0
  0
LINE
  5
9D09
330
97AF
100
AcDbEntity
  8
寸法引出
370
    -2
100
AcDbLine
 10
2495.197504078217
 20
1667.096612738228
 30
0.0
 11
2495.197504078217
 21
1744.167952772057
 31
0.0
  0
LINE
  5
9D0A
330
97AF
100
AcDbEntity
  8
寸法引出
370
    -2
100
AcDbLine
 10
1510.197504078216
 20
1739.167952772057
 30
0.0
 11
2480.197504078216
 21
1739.167952772057
 31
0.0
  0
SOLID
  5
9D0B
330
97AF
100
AcDbEntity
  8
寸法引出
100
AcDbTrace
 10
1510.197504078216
 20
1741.667952772057
 30
0.0
 11
1510.197504078216
 21
1736.667952772057
 31
0.0
 12
1495.197504078216
 22
1739.167952772057
 32
0.0
 13
1495.197504078216
 23
1739.167952772057
 33
0.0
  0
SOLID
  5
9D0C
330
97AF
100
AcDbEntity
  8
寸法引出
100
AcDbTrace
 10
2480.197504078216
 20
1741.667952772057
 30
0.0
 11
2480.197504078216
 21
1736.667952772057
 31
0.0
 12
2495.197504078217
 22
1739.167952772057
 32
0.0
 13
2495.197504078217
 23
1739.167952772057
 33
0.0
  0
MTEXT
  5
9D0D
330
97AF
100
AcDbEntity
  8
寸法引出
100
AcDbMText
 10
1995.197504078216
 20
1759.167952772057
 30
0.0
 40
20.0
 41
0.0
 71
     5
 72
     1
  1
\A1;1000
  7
SANWA
 73
     1
 44
1.0
1001
ACAD
1000
MTEXTBEGIN
1070
    73
1070
     1
1070
    44
1040
1.0
1070
    74
1070
     0
1000
MTEXTEND
  0
POINT
  5
9D0E
330
97AF
100
AcDbEntity
  8
DEFPOINTS
 62
     0
100
AcDbPoint
 10
1495.197504078216
 20
1657.096612738228
 30
0.0
  0
POINT
  5
9D0F
330
97AF
100
AcDbEntity
  8
DEFPOINTS
 62
     0
100
AcDbPoint
 10
2495.197504078217
 20
1657.096612738228
 30
0.0
  0
POINT
  5
9D10
330
97AF
100
AcDbEntity
  8
DEFPOINTS
 62
     0
100
AcDbPoint
 10
2495.197504078217
 20
1739.167952772057
 30
0.0
  0
ENDBLK
  5
97BA
330
97AF
100
AcDbEntity
  8
0
100
AcDbBlockEnd
  0
BLOCK
  5
97C4
330
97BB
100
AcDbEntity
  8
0
100
AcDbBlockBegin
  2
*D23
 70
     1
 10
0.0
 20
0.0
 30
0.0
  3
*D23
  1

  0
LINE
  5
9D11
330
97BB
100
AcDbEntity
  8
寸法引出
370
    -2
100
AcDbLine
 10
2375.197504078216
 20
1537.096612738228
 30
0.0
 11
2375.197504078216
 21
1487.550175927284
 31
0.0
  0
LINE
  5
9D12
330
97BB
100
AcDbEntity
  8
寸法引出
370
    -2
100
AcDbLine
 10
1630.197504078216
 20
1492.550175927284
 30
0.0
 11
2360.197504078216
 21
1492.550175927284
 31
0.0
  0
SOLID
  5
9D13
330
97BB
100
AcDbEntity
  8
寸法引出
100
AcDbTrace
 10
1630.197504078216
 20
1495.050175927284
 30
0.0
 11
1630.197504078216
 21
1490.050175927284
 31
0.0
 12
1615.197504078216
 22
1492.550175927284
 32
0.0
 13
1615.197504078216
 23
1492.550175927284
 33
0.0
  0
SOLID
  5
9D14
330
97BB
100
AcDbEntity
  8
寸法引出
100
AcDbTrace
 10
2360.197504078216
 20
1495.050175927284
 30
0.0
 11
2360.197504078216
 21
1490.050175927284
 31
0.0
 12
2375.197504078216
 22
1492.550175927284
 32
0.0
 13
2375.197504078216
 23
1492.550175927284
 33
0.0
  0
MTEXT
  5
9D15
330
97BB
100
AcDbEntity
  8
寸法引出
100
AcDbMText
 10
1995.197504078216
 20
1512.550175927284
 30
0.0
 40
20.0
 41
0.0
 71
     5
 72
     1
  1
\A1;760
  7
SANWA
 73
     1
 44
1.0
1001
ACAD
1000
MTEXTBEGIN
1070
    73
1070
     1
1070
    44
1040
1.0
1070
    74
1070
     0
1000
MTEXTEND
  0
POINT
  5
9D16
330
97BB
100
AcDbEntity
  8
DEFPOINTS
 62
     0
100
AcDbPoint
 10
1615.197504078216
 20
1547.096612738228
 30
0.0
  0
POINT
  5
9D17
330
97BB
100
AcDbEntity
  8
DEFPOINTS
 62
     0
100
AcDbPoint
 10
2375.197504078216
 20
1547.096612738228
 30
0.0
  0
POINT
  5
9D18
330
97BB
100
AcDbEntity
  8
DEFPOINTS
 62
     0
100
AcDbPoint
 10
2375.197504078216
 20
1492.550175927284
 30
0.0
  0
ENDBLK
  5
97C5
330
97BB
100
AcDbEntity
  8
0
100
AcDbBlockEnd
  0
BLOCK
  5
97D1
330
97C6
100
AcDbEntity
  8
0
100
AcDbBlockBegin
  2
*D24
 70
     1
 10
0.0
 20
0.0
 30
0.0
  3
*D24
  1

  0
LINE
  5
9D19
330
97C6
100
AcDbEntity
  8
寸法引出
370
    -2
100
AcDbLine
 10
1190.889054283536
 20
1267.458149604899
 30
0.0
 11
1190.889054283536
 21
1342.331675281369
 31
0.0
  0
LINE
  5
9D1A
330
97C6
100
AcDbEntity
  8
寸法引出
370
    -2
100
AcDbLine
 10
1145.889054283536
 20
1337.331675281369
 30
0.0
 11
1130.889054283536
 21
1337.331675281369
 31
0.0
  0
LINE
  5
9D1B
330
97C6
100
AcDbEntity
  8
寸法引出
370
    -2
100
AcDbLine
 10
1205.889054283536
 20
1337.331675281369
 30
0.0
 11
1220.889054283536
 21
1337.331675281369
 31
0.0
  0
LINE
  5
9D1C
330
97C6
100
AcDbEntity
  8
寸法引出
370
    -2
100
AcDbLine
 10
1160.889054283536
 20
1337.331675281369
 30
0.0
 11
1190.889054283536
 21
1337.331675281369
 31
0.0
  0
SOLID
  5
9D1D
330
97C6
100
AcDbEntity
  8
寸法引出
100
AcDbTrace
 10
1145.889054283536
 20
1339.831675281369
 30
0.0
 11
1145.889054283536
 21
1334.831675281369
 31
0.0
 12
1160.889054283536
 22
1337.331675281369
 32
0.0
 13
1160.889054283536
 23
1337.331675281369
 33
0.0
  0
SOLID
  5
9D1E
330
97C6
100
AcDbEntity
  8
寸法引出
100
AcDbTrace
 10
1205.889054283536
 20
1339.831675281369
 30
0.0
 11
1205.889054283536
 21
1334.831675281369
 31
0.0
 12
1190.889054283536
 22
1337.331675281369
 32
0.0
 13
1190.889054283536
 23
1337.331675281369
 33
0.0
  0
MTEXT
  5
9D1F
330
97C6
100
AcDbEntity
  8
寸法引出
100
AcDbMText
 10
1175.889054283536
 20
1357.331675281369
 30
0.0
 40
20.0
 41
0.0
 71
     5
 72
     1
  1
\A1;30
  7
SANWA
 73
     1
 44
1.0
1001
ACAD
1000
MTEXTBEGIN
1070
    73
1070
     1
1070
    44
1040
1.0
1070
    74
1070
     0
1000
MTEXTEND
  0
POINT
  5
9D20
330
97C6
100
AcDbEntity
  8
DEFPOINTS
 62
     0
100
AcDbPoint
 10
1160.889054283536
 20
1257.458149604899
 30
0.0
  0
POINT
  5
9D21
330
97C6
100
AcDbEntity
  8
DEFPOINTS
 62
     0
100
AcDbPoint
 10
1190.889054283536
 20
1257.458149604899
 30
0.0
  0
POINT
  5
9D22
330
97C6
100
AcDbEntity
  8
DEFPOINTS
 62
     0
100
AcDbPoint
 10
1190.889054283536
 20
1337.331675281369
 30
0.0
  0
ENDBLK
  5
97D2
330
97C6
100
AcDbEntity
  8
0
100
AcDbBlockEnd
  0
BLOCK
  5
97DD
330
97D3
100
AcDbEntity
  8
0
100
AcDbBlockBegin
  2
*D25
 70
     1
 10
0.0
 20
0.0
 30
0.0
  3
*D25
  1

  0
LINE
  5
9D23
330
97D3
100
AcDbEntity
  8
寸法引出
370
    -2
100
AcDbLine
 10
1495.197504078216
 20
1537.096612738228
 30
0.0
 11
1495.197504078216
 21
1487.550175927284
 31
0.0
  0
LINE
  5
9D24
330
97D3
100
AcDbEntity
  8
寸法引出
370
    -2
100
AcDbLine
 10
1615.197504078216
 20
1537.096612738228
 30
0.0
 11
1615.197504078216
 21
1487.550175927284
 31
0.0
  0
LINE
  5
9D25
330
97D3
100
AcDbEntity
  8
寸法引出
370
    -2
100
AcDbLine
 10
1510.197504078216
 20
1492.550175927284
 30
0.0
 11
1600.197504078216
 21
1492.550175927284
 31
0.0
  0
SOLID
  5
9D26
330
97D3
100
AcDbEntity
  8
寸法引出
100
AcDbTrace
 10
1510.197504078216
 20
1495.050175927284
 30
0.0
 11
1510.197504078216
 21
1490.050175927284
 31
0.0
 12
1495.197504078216
 22
1492.550175927284
 32
0.0
 13
1495.197504078216
 23
1492.550175927284
 33
0.0
  0
SOLID
  5
9D27
330
97D3
100
AcDbEntity
  8
寸法引出
100
AcDbTrace
 10
1600.197504078216
 20
1495.050175927284
 30
0.0
 11
1600.197504078216
 21
1490.050175927284
 31
0.0
 12
1615.197504078216
 22
1492.550175927284
 32
0.0
 13
1615.197504078216
 23
1492.550175927284
 33
0.0
  0
MTEXT
  5
9D28
330
97D3
100
AcDbEntity
  8
寸法引出
100
AcDbMText
 10
1555.197504078216
 20
1512.550175927284
 30
0.0
 40
20.0
 41
0.0
 71
     5
 72
     1
  1
\A1;120
  7
SANWA
 73
     1
 44
1.0
1001
ACAD
1000
MTEXTBEGIN
1070
    73
1070
     1
1070
    44
1040
1.0
1070
    74
1070
     0
1000
MTEXTEND
  0
POINT
  5
9D29
330
97D3
100
AcDbEntity
  8
DEFPOINTS
 62
     0
100
AcDbPoint
 10
1495.197504078216
 20
1547.096612738228
 30
0.0
  0
POINT
  5
9D2A
330
97D3
100
AcDbEntity
  8
DEFPOINTS
 62
     0
100
AcDbPoint
 10
1615.197504078216
 20
1547.096612738228
 30
0.0
  0
POINT
  5
9D2B
330
97D3
100
AcDbEntity
  8
DEFPOINTS
 62
     0
100
AcDbPoint
 10
1615.197504078216
 20
1492.550175927284
 30
0.0
  0
ENDBLK
  5
97DE
330
97D3
100
AcDbEntity
  8
0
100
AcDbBlockEnd
  0
BLOCK
  5
97E9
330
97DF
100
AcDbEntity
  8
0
100
AcDbBlockBegin
  2
*D26
 70
     1
 10
0.0
 20
0.0
 30
0.0
  3
*D26
  1

  0
LINE
  5
9D2C
330
97DF
100
AcDbEntity
  8
寸法引出
370
    -2
100
AcDbLine
 10
1200.889054283536
 20
1657.096612738228
 30
0.0
 11
1271.265977789153
 21
1657.096612738228
 31
0.0
  0
LINE
  5
9D2D
330
97DF
100
AcDbEntity
  8
寸法引出
370
    -2
100
AcDbLine
 10
1200.889054283536
 20
1547.096612738228
 30
0.0
 11
1271.265977789153
 21
1547.096612738228
 31
0.0
  0
LINE
  5
9D2E
330
97DF
100
AcDbEntity
  8
寸法引出
370
    -2
100
AcDbLine
 10
1266.265977789153
 20
1642.096612738228
 30
0.0
 11
1266.265977789153
 21
1562.096612738228
 31
0.0
  0
SOLID
  5
9D2F
330
97DF
100
AcDbEntity
  8
寸法引出
100
AcDbTrace
 10
1263.765977789153
 20
1642.096612738228
 30
0.0
 11
1268.765977789153
 21
1642.096612738228
 31
0.0
 12
1266.265977789153
 22
1657.096612738228
 32
0.0
 13
1266.265977789153
 23
1657.096612738228
 33
0.0
  0
SOLID
  5
9D30
330
97DF
100
AcDbEntity
  8
寸法引出
100
AcDbTrace
 10
1263.765977789153
 20
1562.096612738228
 30
0.0
 11
1268.765977789153
 21
1562.096612738228
 31
0.0
 12
1266.265977789153
 22
1547.096612738228
 32
0.0
 13
1266.265977789153
 23
1547.096612738228
 33
0.0
  0
MTEXT
  5
9D31
330
97DF
100
AcDbEntity
  8
寸法引出
100
AcDbMText
 10
1246.265977789153
 20
1602.096612738228
 30
0.0
 40
20.0
 41
0.0
 71
     5
 72
     1
  1
\A1;110
  7
SANWA
 11
0.0000000000000001
 21
1.0
 31
0.0
 73
     1
 44
1.0
1001
ACAD
1000
MTEXTBEGIN
1070
    73
1070
     1
1070
    44
1040
1.0
1070
    74
1070
     0
1000
MTEXTEND
  0
POINT
  5
9D32
330
97DF
100
AcDbEntity
  8
DEFPOINTS
 62
     0
100
AcDbPoint
 10
1190.889054283536
 20
1657.096612738228
 30
0.0
  0
POINT
  5
9D33
330
97DF
100
AcDbEntity
  8
DEFPOINTS
 62
     0
100
AcDbPoint
 10
1190.889054283536
 20
1547.096612738228
 30
0.0
  0
POINT
  5
9D34
330
97DF
100
AcDbEntity
  8
DEFPOINTS
 62
     0
100
AcDbPoint
 10
1266.265977789153
 20
1547.096612738228
 30
0.0
  0
ENDBLK
  5
97EA
330
97DF
100
AcDbEntity
  8
0
100
AcDbBlockEnd
  0
BLOCK
  5
97F7
330
97EB
100
AcDbEntity
  8
0
100
AcDbBlockBegin
  2
*D27
 70
     1
 10
0.0
 20
0.0
 30
0.0
  3
*D27
  1

  0
LINE
  5
9D35
330
97EB
100
AcDbEntity
  8
寸法引出
370
    -2
100
AcDbLine
 10
1160.889054283536
 20
1537.096612738228
 30
0.0
 11
1160.889054283536
 21
1497.591358997003
 31
0.0
  0
LINE
  5
9D36
330
97EB
100
AcDbEntity
  8
寸法引出
370
    -2
100
AcDbLine
 10
1190.889054283536
 20
1537.096612738228
 30
0.0
 11
1190.889054283536
 21
1497.591358997003
 31
0.0
  0
LINE
  5
9D37
330
97EB
100
AcDbEntity
  8
寸法引出
370
    -2
100
AcDbLine
 10
1145.889054283536
 20
1502.591358997003
 30
0.0
 11
1130.889054283536
 21
1502.591358997003
 31
0.0
  0
LINE
  5
9D38
330
97EB
100
AcDbEntity
  8
寸法引出
370
    -2
100
AcDbLine
 10
1205.889054283536
 20
1502.591358997003
 30
0.0
 11
1220.889054283536
 21
1502.591358997003
 31
0.0
  0
LINE
  5
9D39
330
97EB
100
AcDbEntity
  8
寸法引出
370
    -2
100
AcDbLine
 10
1160.889054283536
 20
1502.591358997003
 30
0.0
 11
1190.889054283536
 21
1502.591358997003
 31
0.0
  0
SOLID
  5
9D3A
330
97EB
100
AcDbEntity
  8
寸法引出
100
AcDbTrace
 10
1145.889054283536
 20
1505.091358997003
 30
0.0
 11
1145.889054283536
 21
1500.091358997003
 31
0.0
 12
1160.889054283536
 22
1502.591358997003
 32
0.0
 13
1160.889054283536
 23
1502.591358997003
 33
0.0
  0
SOLID
  5
9D3B
330
97EB
100
AcDbEntity
  8
寸法引出
100
AcDbTrace
 10
1205.889054283536
 20
1505.091358997003
 30
0.0
 11
1205.889054283536
 21
1500.091358997003
 31
0.0
 12
1190.889054283536
 22
1502.591358997003
 32
0.0
 13
1190.889054283536
 23
1502.591358997003
 33
0.0
  0
MTEXT
  5
9D3C
330
97EB
100
AcDbEntity
  8
寸法引出
100
AcDbMText
 10
1175.889054283536
 20
1522.591358997003
 30
0.0
 40
20.0
 41
0.0
 71
     5
 72
     1
  1
\A1;30
  7
SANWA
 73
     1
 44
1.0
1001
ACAD
1000
MTEXTBEGIN
1070
    73
1070
     1
1070
    44
1040
1.0
1070
    74
1070
     0
1000
MTEXTEND
  0
POINT
  5
9D3D
330
97EB
100
AcDbEntity
  8
DEFPOINTS
 62
     0
100
AcDbPoint
 10
1160.889054283536
 20
1547.096612738228
 30
0.0
  0
POINT
  5
9D3E
330
97EB
100
AcDbEntity
  8
DEFPOINTS
 62
     0
100
AcDbPoint
 10
1190.889054283536
 20
1547.096612738228
 30
0.0
  0
POINT
  5
9D3F
330
97EB
100
AcDbEntity
  8
DEFPOINTS
 62
     0
100
AcDbPoint
 10
1190.889054283536
 20
1502.591358997003
 30
0.0
  0
ENDBLK
  5
97F8
330
97EB
100
AcDbEntity
  8
0
100
AcDbBlockEnd
  0
BLOCK
  5
9803
330
97F9
100
AcDbEntity
  8
0
100
AcDbBlockBegin
  2
*D28
 70
     1
 10
0.0
 20
0.0
 30
0.0
  3
*D28
  1

  0
LINE
  5
9D40
330
97F9
100
AcDbEntity
  8
寸法引出
370
    -2
100
AcDbLine
 10
2505.197504078216
 20
1657.096612738228
 30
0.0
 11
2627.067695405975
 21
1657.096612738228
 31
0.0
  0
LINE
  5
9D41
330
97F9
100
AcDbEntity
  8
寸法引出
370
    -2
100
AcDbLine
 10
2505.197504078216
 20
1547.096612738228
 30
0.0
 11
2627.067695405975
 21
1547.096612738228
 31
0.0
  0
LINE
  5
9D42
330
97F9
100
AcDbEntity
  8
寸法引出
370
    -2
100
AcDbLine
 10
2622.067695405974
 20
1642.096612738228
 30
0.0
 11
2622.067695405974
 21
1562.096612738228
 31
0.0
  0
SOLID
  5
9D43
330
97F9
100
AcDbEntity
  8
寸法引出
100
AcDbTrace
 10
2619.567695405975
 20
1642.096612738228
 30
0.0
 11
2624.567695405975
 21
1642.096612738228
 31
0.0
 12
2622.067695405974
 22
1657.096612738228
 32
0.0
 13
2622.067695405974
 23
1657.096612738228
 33
0.0
  0
SOLID
  5
9D44
330
97F9
100
AcDbEntity
  8
寸法引出
100
AcDbTrace
 10
2619.567695405975
 20
1562.096612738228
 30
0.0
 11
2624.567695405975
 21
1562.096612738228
 31
0.0
 12
2622.067695405974
 22
1547.096612738228
 32
0.0
 13
2622.067695405974
 23
1547.096612738228
 33
0.0
  0
MTEXT
  5
9D45
330
97F9
100
AcDbEntity
  8
寸法引出
100
AcDbMText
 10
2602.067695405974
 20
1602.096612738228
 30
0.0
 40
20.0
 41
0.0
 71
     5
 72
     1
  1
\A1;110
  7
SANWA
 11
0.0000000000000001
 21
1.0
 31
0.0
 73
     1
 44
1.0
1001
ACAD
1000
MTEXTBEGIN
1070
    73
1070
     1
1070
    44
1040
1.0
1070
    74
1070
     0
1000
MTEXTEND
  0
POINT
  5
9D46
330
97F9
100
AcDbEntity
  8
DEFPOINTS
 62
     0
100
AcDbPoint
 10
2495.197504078217
 20
1657.096612738228
 30
0.0
  0
POINT
  5
9D47
330
97F9
100
AcDbEntity
  8
DEFPOINTS
 62
     0
100
AcDbPoint
 10
2495.197504078217
 20
1547.096612738228
 30
0.0
  0
POINT
  5
9D48
330
97F9
100
AcDbEntity
  8
DEFPOINTS
 62
     0
100
AcDbPoint
 10
2622.067695405974
 20
1547.096612738228
 30
0.0
  0
ENDBLK
  5
9804
330
97F9
100
AcDbEntity
  8
0
100
AcDbBlockEnd
  0
BLOCK
  5
9810
330
9805
100
AcDbEntity
  8
0
100
AcDbBlockBegin
  2
*D29
 70
     1
 10
0.0
 20
0.0
 30
0.0
  3
*D29
  1

  0
LINE
  5
9D49
330
9805
100
AcDbEntity
  8
寸法引出
370
    -2
100
AcDbLine
 10
2505.197504078216
 20
1657.096612738228
 30
0.0
 11
2564.675100180768
 21
1657.096612738228
 31
0.0
  0
LINE
  5
9D4A
330
9805
100
AcDbEntity
  8
寸法引出
370
    -2
100
AcDbLine
 10
2559.675100180768
 20
1617.096612738228
 30
0.0
 11
2559.675100180768
 21
1602.096612738228
 31
0.0
  0
LINE
  5
9D4B
330
9805
100
AcDbEntity
  8
寸法引出
370
    -2
100
AcDbLine
 10
2559.675100180768
 20
1672.096612738228
 30
0.0
 11
2559.675100180768
 21
1687.096612738228
 31
0.0
  0
LINE
  5
9D4C
330
9805
100
AcDbEntity
  8
寸法引出
370
    -2
100
AcDbLine
 10
2559.675100180768
 20
1632.096612738228
 30
0.0
 11
2559.675100180768
 21
1657.096612738228
 31
0.0
  0
SOLID
  5
9D4D
330
9805
100
AcDbEntity
  8
寸法引出
100
AcDbTrace
 10
2557.175100180768
 20
1617.096612738228
 30
0.0
 11
2562.175100180768
 21
1617.096612738228
 31
0.0
 12
2559.675100180768
 22
1632.096612738228
 32
0.0
 13
2559.675100180768
 23
1632.096612738228
 33
0.0
  0
SOLID
  5
9D4E
330
9805
100
AcDbEntity
  8
寸法引出
100
AcDbTrace
 10
2557.175100180768
 20
1672.096612738228
 30
0.0
 11
2562.175100180768
 21
1672.096612738228
 31
0.0
 12
2559.675100180768
 22
1657.096612738228
 32
0.0
 13
2559.675100180768
 23
1657.096612738228
 33
0.0
  0
MTEXT
  5
9D4F
330
9805
100
AcDbEntity
  8
寸法引出
100
AcDbMText
 10
2539.675100180768
 20
1644.596612738228
 30
0.0
 40
20.0
 41
0.0
 71
     5
 72
     1
  1
\A1;25
  7
SANWA
 11
0.0000000000000001
 21
1.0
 31
0.0
 73
     1
 44
1.0
1001
ACAD
1000
MTEXTBEGIN
1070
    73
1070
     1
1070
    44
1040
1.0
1070
    74
1070
     0
1000
MTEXTEND
  0
POINT
  5
9D50
330
9805
100
AcDbEntity
  8
DEFPOINTS
 62
     0
100
AcDbPoint
 10
2495.197504078217
 20
1632.096612738228
 30
0.0
  0
POINT
  5
9D51
330
9805
100
AcDbEntity
  8
DEFPOINTS
 62
     0
100
AcDbPoint
 10
2495.197504078217
 20
1657.096612738228
 30
0.0
  0
POINT
  5
9D52
330
9805
100
AcDbEntity
  8
DEFPOINTS
 62
     0
100
AcDbPoint
 10
2559.675100180768
 20
1657.096612738228
 30
0.0
  0
ENDBLK
  5
9811
330
9805
100
AcDbEntity
  8
0
100
AcDbBlockEnd
  0
BLOCK
  5
981C
330
9812
100
AcDbEntity
  8
0
100
AcDbBlockBegin
  2
*D30
 70
     1
 10
0.0
 20
0.0
 30
0.0
  3
*D30
  1

  0
LINE
  5
9D53
330
9812
100
AcDbEntity
  8
寸法引出
370
    -2
100
AcDbLine
 10
2505.197504078216
 20
1632.096612738228
 30
0.0
 11
2564.675100180768
 21
1632.096612738228
 31
0.0
  0
LINE
  5
9D54
330
9812
100
AcDbEntity
  8
寸法引出
370
    -2
100
AcDbLine
 10
2505.197504078216
 20
1547.096612738228
 30
0.0
 11
2564.675100180768
 21
1547.096612738228
 31
0.0
  0
LINE
  5
9D55
330
9812
100
AcDbEntity
  8
寸法引出
370
    -2
100
AcDbLine
 10
2559.675100180768
 20
1617.096612738228
 30
0.0
 11
2559.675100180768
 21
1562.096612738228
 31
0.0
  0
SOLID
  5
9D56
330
9812
100
AcDbEntity
  8
寸法引出
100
AcDbTrace
 10
2557.175100180768
 20
1617.096612738228
 30
0.0
 11
2562.175100180768
 21
1617.096612738228
 31
0.0
 12
2559.675100180768
 22
1632.096612738228
 32
0.0
 13
2559.675100180768
 23
1632.096612738228
 33
0.0
  0
SOLID
  5
9D57
330
9812
100
AcDbEntity
  8
寸法引出
100
AcDbTrace
 10
2557.175100180768
 20
1562.096612738228
 30
0.0
 11
2562.175100180768
 21
1562.096612738228
 31
0.0
 12
2559.675100180768
 22
1547.096612738228
 32
0.0
 13
2559.675100180768
 23
1547.096612738228
 33
0.0
  0
MTEXT
  5
9D58
330
9812
100
AcDbEntity
  8
寸法引出
100
AcDbMText
 10
2539.675100180768
 20
1589.596612738228
 30
0.0
 40
20.0
 41
0.0
 71
     5
 72
     1
  1
\A1;85
  7
SANWA
 11
0.0000000000000001
 21
1.0
 31
0.0
 73
     1
 44
1.0
1001
ACAD
1000
MTEXTBEGIN
1070
    73
1070
     1
1070
    44
1040
1.0
1070
    74
1070
     0
1000
MTEXTEND
  0
POINT
  5
9D59
330
9812
100
AcDbEntity
  8
DEFPOINTS
 62
     0
100
AcDbPoint
 10
2495.197504078217
 20
1632.096612738228
 30
0.0
  0
POINT
  5
9D5A
330
9812
100
AcDbEntity
  8
DEFPOINTS
 62
     0
100
AcDbPoint
 10
2495.197504078217
 20
1547.096612738228
 30
0.0
  0
POINT
  5
9D5B
330
9812
100
AcDbEntity
  8
DEFPOINTS
 62
     0
100
AcDbPoint
 10
2559.675100180768
 20
1547.096612738228
 30
0.0
  0
ENDBLK
  5
981D
330
9812
100
AcDbEntity
  8
0
100
AcDbBlockEnd
  0
BLOCK
  5
9828
330
981E
100
AcDbEntity
  8
0
100
AcDbBlockBegin
  2
*D31
 70
     1
 10
0.0
 20
0.0
 30
0.0
  3
*D31
  1

  0
LINE
  5
9D5C
330
981E
100
AcDbEntity
  8
寸法引出
370
    -2
100
AcDbLine
 10
2375.197504078216
 20
1537.096612738228
 30
0.0
 11
2375.197504078216
 21
1487.550175927284
 31
0.0
  0
LINE
  5
9D5D
330
981E
100
AcDbEntity
  8
寸法引出
370
    -2
100
AcDbLine
 10
2495.197504078217
 20
1537.096612738228
 30
0.0
 11
2495.197504078217
 21
1487.550175927284
 31
0.0
  0
LINE
  5
9D5E
330
981E
100
AcDbEntity
  8
寸法引出
370
    -2
100
AcDbLine
 10
2390.197504078216
 20
1492.550175927284
 30
0.0
 11
2480.197504078216
 21
1492.550175927284
 31
0.0
  0
SOLID
  5
9D5F
330
981E
100
AcDbEntity
  8
寸法引出
100
AcDbTrace
 10
2390.197504078216
 20
1495.050175927284
 30
0.0
 11
2390.197504078216
 21
1490.050175927284
 31
0.0
 12
2375.197504078216
 22
1492.550175927284
 32
0.0
 13
2375.197504078216
 23
1492.550175927284
 33
0.0
  0
SOLID
  5
9D60
330
981E
100
AcDbEntity
  8
寸法引出
100
AcDbTrace
 10
2480.197504078216
 20
1495.050175927284
 30
0.0
 11
2480.197504078216
 21
1490.050175927284
 31
0.0
 12
2495.197504078217
 22
1492.550175927284
 32
0.0
 13
2495.197504078217
 23
1492.550175927284
 33
0.0
  0
MTEXT
  5
9D61
330
981E
100
AcDbEntity
  8
寸法引出
100
AcDbMText
 10
2435.197504078217
 20
1512.550175927284
 30
0.0
 40
20.0
 41
0.0
 71
     5
 72
     1
  1
\A1;120
  7
SANWA
 73
     1
 44
1.0
1001
ACAD
1000
MTEXTBEGIN
1070
    73
1070
     1
1070
    44
1040
1.0
1070
    74
1070
     0
1000
MTEXTEND
  0
POINT
  5
9D62
330
981E
100
AcDbEntity
  8
DEFPOINTS
 62
     0
100
AcDbPoint
 10
2375.197504078216
 20
1547.096612738228
 30
0.0
  0
POINT
  5
9D63
330
981E
100
AcDbEntity
  8
DEFPOINTS
 62
     0
100
AcDbPoint
 10
2495.197504078217
 20
1547.096612738228
 30
0.0
  0
POINT
  5
9D64
330
981E
100
AcDbEntity
  8
DEFPOINTS
 62
     0
100
AcDbPoint
 10
2495.197504078217
 20
1492.550175927284
 30
0.0
  0
ENDBLK
  5
9829
330
981E
100
AcDbEntity
  8
0
100
AcDbBlockEnd
  0
BLOCK
  5
9834
330
982A
100
AcDbEntity
  8
0
100
AcDbBlockBegin
  2
*D32
 70
     1
 10
0.0
 20
0.0
 30
0.0
  3
*D32
  1

  0
LINE
  5
9D65
330
982A
100
AcDbEntity
  8
寸法引出
370
    -2
100
AcDbLine
 10
4697.477132350454
 20
1612.202336819424
 30
0.0
 11
4697.477132350454
 21
1707.375305167522
 31
0.0
  0
LINE
  5
9D66
330
982A
100
AcDbEntity
  8
寸法引出
370
    -2
100
AcDbLine
 10
5697.477132350454
 20
1612.202336819424
 30
0.0
 11
5697.477132350454
 21
1707.375305167522
 31
0.0
  0
LINE
  5
9D67
330
982A
100
AcDbEntity
  8
寸法引出
370
    -2
100
AcDbLine
 10
4712.477132350453
 20
1702.375305167522
 30
0.0
 11
5682.477132350453
 21
1702.375305167522
 31
0.0
  0
SOLID
  5
9D68
330
982A
100
AcDbEntity
  8
寸法引出
100
AcDbTrace
 10
4712.477132350453
 20
1704.875305167522
 30
0.0
 11
4712.477132350453
 21
1699.875305167522
 31
0.0
 12
4697.477132350454
 22
1702.375305167522
 32
0.0
 13
4697.477132350454
 23
1702.375305167522
 33
0.0
  0
SOLID
  5
9D69
330
982A
100
AcDbEntity
  8
寸法引出
100
AcDbTrace
 10
5682.477132350453
 20
1704.875305167522
 30
0.0
 11
5682.477132350453
 21
1699.875305167522
 31
0.0
 12
5697.477132350454
 22
1702.375305167522
 32
0.0
 13
5697.477132350454
 23
1702.375305167522
 33
0.0
  0
MTEXT
  5
9D6A
330
982A
100
AcDbEntity
  8
寸法引出
100
AcDbMText
 10
5197.477132350454
 20
1722.375305167522
 30
0.0
 40
20.0
 41
0.0
 71
     5
 72
     1
  1
\A1;1000
  7
SANWA
 73
     1
 44
1.0
1001
ACAD
1000
MTEXTBEGIN
1070
    73
1070
     1
1070
    44
1040
1.0
1070
    74
1070
     0
1000
MTEXTEND
  0
POINT
  5
9D6B
330
982A
100
AcDbEntity
  8
DEFPOINTS
 62
     0
100
AcDbPoint
 10
4697.477132350454
 20
1602.202336819424
 30
0.0
  0
POINT
  5
9D6C
330
982A
100
AcDbEntity
  8
DEFPOINTS
 62
     0
100
AcDbPoint
 10
5697.477132350454
 20
1602.202336819424
 30
0.0
  0
POINT
  5
9D6D
330
982A
100
AcDbEntity
  8
DEFPOINTS
 62
     0
100
AcDbPoint
 10
5697.477132350454
 20
1702.375305167522
 30
0.0
  0
ENDBLK
  5
9835
330
982A
100
AcDbEntity
  8
0
100
AcDbBlockEnd
  0
BLOCK
  5
9840
330
9836
100
AcDbEntity
  8
0
100
AcDbBlockBegin
  2
*D33
 70
     1
 10
0.0
 20
0.0
 30
0.0
  3
*D33
  1

  0
LINE
  5
9D6E
330
9836
100
AcDbEntity
  8
寸法引出
370
    -2
100
AcDbLine
 10
4747.477132350454
 20
1612.202336819424
 30
0.0
 11
4747.477132350454
 21
1670.422143856292
 31
0.0
  0
LINE
  5
9D6F
330
9836
100
AcDbEntity
  8
寸法引出
370
    -2
100
AcDbLine
 10
5647.477132350454
 20
1612.202336819424
 30
0.0
 11
5647.477132350454
 21
1670.422143856292
 31
0.0
  0
LINE
  5
9D70
330
9836
100
AcDbEntity
  8
寸法引出
370
    -2
100
AcDbLine
 10
4762.477132350453
 20
1665.422143856291
 30
0.0
 11
5632.477132350453
 21
1665.422143856291
 31
0.0
  0
SOLID
  5
9D71
330
9836
100
AcDbEntity
  8
寸法引出
100
AcDbTrace
 10
4762.477132350453
 20
1667.922143856292
 30
0.0
 11
4762.477132350453
 21
1662.922143856292
 31
0.0
 12
4747.477132350454
 22
1665.422143856291
 32
0.0
 13
4747.477132350454
 23
1665.422143856291
 33
0.0
  0
SOLID
  5
9D72
330
9836
100
AcDbEntity
  8
寸法引出
100
AcDbTrace
 10
5632.477132350453
 20
1667.922143856292
 30
0.0
 11
5632.477132350453
 21
1662.922143856292
 31
0.0
 12
5647.477132350454
 22
1665.422143856291
 32
0.0
 13
5647.477132350454
 23
1665.422143856291
 33
0.0
  0
MTEXT
  5
9D73
330
9836
100
AcDbEntity
  8
寸法引出
100
AcDbMText
 10
5197.477132350454
 20
1685.422143856292
 30
0.0
 40
20.0
 41
0.0
 71
     5
 72
     1
  1
\A1;900
  7
SANWA
 73
     1
 44
1.0
1001
ACAD
1000
MTEXTBEGIN
1070
    73
1070
     1
1070
    44
1040
1.0
1070
    74
1070
     0
1000
MTEXTEND
  0
POINT
  5
9D74
330
9836
100
AcDbEntity
  8
DEFPOINTS
 62
     0
100
AcDbPoint
 10
4747.477132350454
 20
1602.202336819424
 30
0.0
  0
POINT
  5
9D75
330
9836
100
AcDbEntity
  8
DEFPOINTS
 62
     0
100
AcDbPoint
 10
5647.477132350454
 20
1602.202336819424
 30
0.0
  0
POINT
  5
9D76
330
9836
100
AcDbEntity
  8
DEFPOINTS
 62
     0
100
AcDbPoint
 10
5647.477132350454
 20
1665.422143856291
 30
0.0
  0
ENDBLK
  5
9841
330
9836
100
AcDbEntity
  8
0
100
AcDbBlockEnd
  0
BLOCK
  5
984C
330
9842
100
AcDbEntity
  8
0
100
AcDbBlockBegin
  2
*D34
 70
     1
 10
0.0
 20
0.0
 30
0.0
  3
*D34
  1

  0
LINE
  5
9D77
330
9842
100
AcDbEntity
  8
寸法引出
370
    -2
100
AcDbLine
 10
4757.477132350453
 20
1482.202336819424
 30
0.0
 11
4757.477132350453
 21
1391.204594089814
 31
0.0
  0
LINE
  5
9D78
330
9842
100
AcDbEntity
  8
寸法引出
370
    -2
100
AcDbLine
 10
5637.477132350454
 20
1482.202336819424
 30
0.0
 11
5637.477132350454
 21
1391.204594089814
 31
0.0
  0
LINE
  5
9D79
330
9842
100
AcDbEntity
  8
寸法引出
370
    -2
100
AcDbLine
 10
4772.477132350454
 20
1396.204594089814
 30
0.0
 11
5622.477132350454
 21
1396.204594089814
 31
0.0
  0
SOLID
  5
9D7A
330
9842
100
AcDbEntity
  8
寸法引出
100
AcDbTrace
 10
4772.477132350454
 20
1398.704594089814
 30
0.0
 11
4772.477132350454
 21
1393.704594089814
 31
0.0
 12
4757.477132350453
 22
1396.204594089814
 32
0.0
 13
4757.477132350453
 23
1396.204594089814
 33
0.0
  0
SOLID
  5
9D7B
330
9842
100
AcDbEntity
  8
寸法引出
100
AcDbTrace
 10
5622.477132350454
 20
1398.704594089814
 30
0.0
 11
5622.477132350454
 21
1393.704594089814
 31
0.0
 12
5637.477132350454
 22
1396.204594089814
 32
0.0
 13
5637.477132350454
 23
1396.204594089814
 33
0.0
  0
MTEXT
  5
9D7C
330
9842
100
AcDbEntity
  8
寸法引出
100
AcDbMText
 10
5197.477132350454
 20
1417.461736946957
 30
0.0
 40
20.0
 41
0.0
 71
     5
 72
     1
  1
\A1;5@176=880
  7
SANWA
 73
     1
 44
1.0
1001
ACAD
1000
MTEXTBEGIN
1070
    73
1070
     1
1070
    44
1040
1.0
1070
    74
1070
     0
1000
MTEXTEND
  0
POINT
  5
9D7D
330
9842
100
AcDbEntity
  8
DEFPOINTS
 62
     0
100
AcDbPoint
 10
4757.477132350453
 20
1492.202336819424
 30
0.0
  0
POINT
  5
9D7E
330
9842
100
AcDbEntity
  8
DEFPOINTS
 62
     0
100
AcDbPoint
 10
5637.477132350454
 20
1492.202336819424
 30
0.0
  0
POINT
  5
9D7F
330
9842
100
AcDbEntity
  8
DEFPOINTS
 62
     0
100
AcDbPoint
 10
5637.477132350454
 20
1396.204594089814
 30
0.0
  0
ENDBLK
  5
984D
330
9842
100
AcDbEntity
  8
0
100
AcDbBlockEnd
  0
BLOCK
  5
9858
330
984E
100
AcDbEntity
  8
0
100
AcDbBlockBegin
  2
*D35
 70
     1
 10
0.0
 20
0.0
 30
0.0
  3
*D35
  1

  0
LINE
  5
9D80
330
984E
100
AcDbEntity
  8
寸法引出
370
    -2
100
AcDbLine
 10
4712.477132350453
 20
1482.202336819424
 30
0.0
 11
4712.477132350453
 21
1431.153947808984
 31
0.0
  0
LINE
  5
9D81
330
984E
100
AcDbEntity
  8
寸法引出
370
    -2
100
AcDbLine
 10
5682.477132350452
 20
1482.202336819424
 30
0.0
 11
5682.477132350452
 21
1431.153947808984
 31
0.0
  0
LINE
  5
9D82
330
984E
100
AcDbEntity
  8
寸法引出
370
    -2
100
AcDbLine
 10
4727.477132350453
 20
1436.153947808984
 30
0.0
 11
5667.477132350453
 21
1436.153947808984
 31
0.0
  0
SOLID
  5
9D83
330
984E
100
AcDbEntity
  8
寸法引出
100
AcDbTrace
 10
4727.477132350453
 20
1438.653947808984
 30
0.0
 11
4727.477132350453
 21
1433.653947808984
 31
0.0
 12
4712.477132350453
 22
1436.153947808984
 32
0.0
 13
4712.477132350453
 23
1436.153947808984
 33
0.0
  0
SOLID
  5
9D84
330
984E
100
AcDbEntity
  8
寸法引出
100
AcDbTrace
 10
5667.477132350453
 20
1438.653947808984
 30
0.0
 11
5667.477132350453
 21
1433.653947808984
 31
0.0
 12
5682.477132350452
 22
1436.153947808984
 32
0.0
 13
5682.477132350452
 23
1436.153947808984
 33
0.0
  0
MTEXT
  5
9D85
330
984E
100
AcDbEntity
  8
寸法引出
100
AcDbMText
 10
5197.477132350454
 20
1456.153947808984
 30
0.0
 40
20.0
 41
0.0
 71
     5
 72
     1
  1
\A1;970
  7
SANWA
 73
     1
 44
1.0
1001
ACAD
1000
MTEXTBEGIN
1070
    73
1070
     1
1070
    44
1040
1.0
1070
    74
1070
     0
1000
MTEXTEND
  0
POINT
  5
9D86
330
984E
100
AcDbEntity
  8
DEFPOINTS
 62
     0
100
AcDbPoint
 10
4712.477132350453
 20
1492.202336819424
 30
0.0
  0
POINT
  5
9D87
330
984E
100
AcDbEntity
  8
DEFPOINTS
 62
     0
100
AcDbPoint
 10
5682.477132350452
 20
1492.202336819424
 30
0.0
  0
POINT
  5
9D88
330
984E
100
AcDbEntity
  8
DEFPOINTS
 62
     0
100
AcDbPoint
 10
5682.477132350452
 20
1436.153947808984
 30
0.0
  0
ENDBLK
  5
9859
330
984E
100
AcDbEntity
  8
0
100
AcDbBlockEnd
  0
BLOCK
  5
9864
330
985A
100
AcDbEntity
  8
0
100
AcDbBlockBegin
  2
*D36
 70
     1
 10
0.0
 20
0.0
 30
0.0
  3
*D36
  1

  0
LINE
  5
9D89
330
985A
100
AcDbEntity
  8
寸法引出
370
    -2
100
AcDbLine
 10
4403.168682555773
 20
317.4581496048988
 30
0.0
 11
4551.518830564253
 21
317.4581496048988
 31
0.0
  0
LINE
  5
9D8A
330
985A
100
AcDbEntity
  8
寸法引出
370
    -2
100
AcDbLine
 10
4403.168682555773
 20
1197.458149604899
 30
0.0
 11
4551.518830564253
 21
1197.458149604899
 31
0.0
  0
LINE
  5
9D8B
330
985A
100
AcDbEntity
  8
寸法引出
370
    -2
100
AcDbLine
 10
4546.518830564253
 20
332.4581496048988
 30
0.0
 11
4546.518830564253
 21
1182.458149604899
 31
0.0
  0
SOLID
  5
9D8C
330
985A
100
AcDbEntity
  8
寸法引出
100
AcDbTrace
 10
4544.018830564254
 20
332.4581496048988
 30
0.0
 11
4549.018830564253
 21
332.4581496048988
 31
0.0
 12
4546.518830564253
 22
317.4581496048988
 32
0.0
 13
4546.518830564253
 23
317.4581496048988
 33
0.0
  0
SOLID
  5
9D8D
330
985A
100
AcDbEntity
  8
寸法引出
100
AcDbTrace
 10
4544.018830564254
 20
1182.458149604899
 30
0.0
 11
4549.018830564253
 21
1182.458149604899
 31
0.0
 12
4546.518830564253
 22
1197.458149604899
 32
0.0
 13
4546.518830564253
 23
1197.458149604899
 33
0.0
  0
MTEXT
  5
9D8E
330
985A
100
AcDbEntity
  8
寸法引出
100
AcDbMText
 10
4525.26168770711
 20
757.4581496048994
 30
0.0
 40
20.0
 41
0.0
 71
     5
 72
     1
  1
\A1;5@176=880
  7
SANWA
 11
0.0000000000000001
 21
1.0
 31
0.0
 73
     1
 44
1.0
1001
ACAD
1000
MTEXTBEGIN
1070
    73
1070
     1
1070
    44
1040
1.0
1070
    74
1070
     0
1000
MTEXTEND
  0
POINT
  5
9D8F
330
985A
100
AcDbEntity
  8
DEFPOINTS
 62
     0
100
AcDbPoint
 10
4393.168682555773
 20
317.4581496048988
 30
0.0
  0
POINT
  5
9D90
330
985A
100
AcDbEntity
  8
DEFPOINTS
 62
     0
100
AcDbPoint
 10
4393.168682555773
 20
1197.458149604899
 30
0.0
  0
POINT
  5
9D91
330
985A
100
AcDbEntity
  8
DEFPOINTS
 62
     0
100
AcDbPoint
 10
4546.518830564253
 20
1197.458149604899
 30
0.0
  0
ENDBLK
  5
9865
330
985A
100
AcDbEntity
  8
0
100
AcDbBlockEnd
  0
BLOCK
  5
9870
330
9866
100
AcDbEntity
  8
0
100
AcDbBlockBegin
  2
*D37
 70
     1
 10
0.0
 20
0.0
 30
0.0
  3
*D37
  1

  0
LINE
  5
9D92
330
9866
100
AcDbEntity
  8
寸法引出
370
    -2
100
AcDbLine
 10
3893.168682555774
 20
247.4581496048988
 30
0.0
 11
3893.168682555774
 21
161.0835806110326
 31
0.0
  0
LINE
  5
9D93
330
9866
100
AcDbEntity
  8
寸法引出
370
    -2
100
AcDbLine
 10
4373.168682555774
 20
247.4581496048988
 30
0.0
 11
4373.168682555774
 21
161.0835806110326
 31
0.0
  0
LINE
  5
9D94
330
9866
100
AcDbEntity
  8
寸法引出
370
    -2
100
AcDbLine
 10
3908.168682555774
 20
166.0835806110326
 30
0.0
 11
4358.168682555773
 21
166.0835806110326
 31
0.0
  0
SOLID
  5
9D95
330
9866
100
AcDbEntity
  8
寸法引出
100
AcDbTrace
 10
3908.168682555774
 20
168.5835806110326
 30
0.0
 11
3908.168682555774
 21
163.5835806110326
 31
0.0
 12
3893.168682555774
 22
166.0835806110326
 32
0.0
 13
3893.168682555774
 23
166.0835806110326
 33
0.0
  0
SOLID
  5
9D96
330
9866
100
AcDbEntity
  8
寸法引出
100
AcDbTrace
 10
4358.168682555773
 20
168.5835806110326
 30
0.0
 11
4358.168682555773
 21
163.5835806110326
 31
0.0
 12
4373.168682555774
 22
166.0835806110326
 32
0.0
 13
4373.168682555774
 23
166.0835806110326
 33
0.0
  0
MTEXT
  5
9D97
330
9866
100
AcDbEntity
  8
寸法引出
100
AcDbMText
 10
4133.168682555774
 20
186.0835806110326
 30
0.0
 40
20.0
 41
0.0
 71
     5
 72
     1
  1
\A1;480
  7
SANWA
 73
     1
 44
1.0
1001
ACAD
1000
MTEXTBEGIN
1070
    73
1070
     1
1070
    44
1040
1.0
1070
    74
1070
     0
1000
MTEXTEND
  0
POINT
  5
9D98
330
9866
100
AcDbEntity
  8
DEFPOINTS
 62
     0
100
AcDbPoint
 10
3893.168682555774
 20
257.4581496048988
 30
0.0
  0
POINT
  5
9D99
330
9866
100
AcDbEntity
  8
DEFPOINTS
 62
     0
100
AcDbPoint
 10
4373.168682555774
 20
257.4581496048988
 30
0.0
  0
POINT
  5
9D9A
330
9866
100
AcDbEntity
  8
DEFPOINTS
 62
     0
100
AcDbPoint
 10
4373.168682555774
 20
166.0835806110326
 30
0.0
  0
ENDBLK
  5
9871
330
9866
100
AcDbEntity
  8
0
100
AcDbBlockEnd
  0
BLOCK
  5
987E
330
9872
100
AcDbEntity
  8
0
100
AcDbBlockBegin
  2
*D38
 70
     1
 10
0.0
 20
0.0
 30
0.0
  3
*D38
  1

  0
LINE
  5
9D9B
330
9872
100
AcDbEntity
  8
寸法引出
370
    -2
100
AcDbLine
 10
3873.168682555774
 20
247.4581496048988
 30
0.0
 11
3873.168682555774
 21
161.0835806110326
 31
0.0
  0
LINE
  5
9D9C
330
9872
100
AcDbEntity
  8
寸法引出
370
    -2
100
AcDbLine
 10
3893.168682555774
 20
247.4581496048988
 30
0.0
 11
3893.168682555774
 21
161.0835806110326
 31
0.0
  0
LINE
  5
9D9D
330
9872
100
AcDbEntity
  8
寸法引出
370
    -2
100
AcDbLine
 10
3858.168682555774
 20
166.0835806110326
 30
0.0
 11
3843.168682555774
 21
166.0835806110326
 31
0.0
  0
LINE
  5
9D9E
330
9872
100
AcDbEntity
  8
寸法引出
370
    -2
100
AcDbLine
 10
3908.168682555774
 20
166.0835806110326
 30
0.0
 11
3923.168682555774
 21
166.0835806110326
 31
0.0
  0
LINE
  5
9D9F
330
9872
100
AcDbEntity
  8
寸法引出
370
    -2
100
AcDbLine
 10
3873.168682555774
 20
166.0835806110326
 30
0.0
 11
3893.168682555774
 21
166.0835806110326
 31
0.0
  0
SOLID
  5
9DA0
330
9872
100
AcDbEntity
  8
寸法引出
100
AcDbTrace
 10
3858.168682555774
 20
168.5835806110326
 30
0.0
 11
3858.168682555774
 21
163.5835806110326
 31
0.0
 12
3873.168682555774
 22
166.0835806110326
 32
0.0
 13
3873.168682555774
 23
166.0835806110326
 33
0.0
  0
SOLID
  5
9DA1
330
9872
100
AcDbEntity
  8
寸法引出
100
AcDbTrace
 10
3908.168682555774
 20
168.5835806110326
 30
0.0
 11
3908.168682555774
 21
163.5835806110326
 31
0.0
 12
3893.168682555774
 22
166.0835806110326
 32
0.0
 13
3893.168682555774
 23
166.0835806110326
 33
0.0
  0
MTEXT
  5
9DA2
330
9872
100
AcDbEntity
  8
寸法引出
100
AcDbMText
 10
3883.168682555774
 20
186.0835806110326
 30
0.0
 40
20.0
 41
0.0
 71
     5
 72
     1
  1
\A1;20
  7
SANWA
 73
     1
 44
1.0
1001
ACAD
1000
MTEXTBEGIN
1070
    73
1070
     1
1070
    44
1040
1.0
1070
    74
1070
     0
1000
MTEXTEND
  0
POINT
  5
9DA3
330
9872
100
AcDbEntity
  8
DEFPOINTS
 62
     0
100
AcDbPoint
 10
3873.168682555774
 20
257.4581496048988
 30
0.0
  0
POINT
  5
9DA4
330
9872
100
AcDbEntity
  8
DEFPOINTS
 62
     0
100
AcDbPoint
 10
3893.168682555774
 20
257.4581496048988
 30
0.0
  0
POINT
  5
9DA5
330
9872
100
AcDbEntity
  8
DEFPOINTS
 62
     0
100
AcDbPoint
 10
3893.168682555774
 20
166.0835806110326
 30
0.0
  0
ENDBLK
  5
987F
330
9872
100
AcDbEntity
  8
0
100
AcDbBlockEnd
  0
BLOCK
  5
988B
330
9880
100
AcDbEntity
  8
0
100
AcDbBlockBegin
  2
*D39
 70
     1
 10
0.0
 20
0.0
 30
0.0
  3
*D39
  1

  0
LINE
  5
9DA6
330
9880
100
AcDbEntity
  8
寸法引出
370
    -2
100
AcDbLine
 10
4393.168682555773
 20
247.4581496048988
 30
0.0
 11
4393.168682555773
 21
161.0835806110326
 31
0.0
  0
LINE
  5
9DA7
330
9880
100
AcDbEntity
  8
寸法引出
370
    -2
100
AcDbLine
 10
4358.168682555773
 20
166.0835806110326
 30
0.0
 11
4343.168682555773
 21
166.0835806110326
 31
0.0
  0
LINE
  5
9DA8
330
9880
100
AcDbEntity
  8
寸法引出
370
    -2
100
AcDbLine
 10
4408.168682555774
 20
166.0835806110326
 30
0.0
 11
4423.168682555774
 21
166.0835806110326
 31
0.0
  0
LINE
  5
9DA9
330
9880
100
AcDbEntity
  8
寸法引出
370
    -2
100
AcDbLine
 10
4373.168682555774
 20
166.0835806110326
 30
0.0
 11
4393.168682555773
 21
166.0835806110326
 31
0.0
  0
SOLID
  5
9DAA
330
9880
100
AcDbEntity
  8
寸法引出
100
AcDbTrace
 10
4358.168682555773
 20
168.5835806110326
 30
0.0
 11
4358.168682555773
 21
163.5835806110326
 31
0.0
 12
4373.168682555774
 22
166.0835806110326
 32
0.0
 13
4373.168682555774
 23
166.0835806110326
 33
0.0
  0
SOLID
  5
9DAB
330
9880
100
AcDbEntity
  8
寸法引出
100
AcDbTrace
 10
4408.168682555774
 20
168.5835806110326
 30
0.0
 11
4408.168682555774
 21
163.5835806110326
 31
0.0
 12
4393.168682555773
 22
166.0835806110326
 32
0.0
 13
4393.168682555773
 23
166.0835806110326
 33
0.0
  0
MTEXT
  5
9DAC
330
9880
100
AcDbEntity
  8
寸法引出
100
AcDbMText
 10
4383.168682555774
 20
186.0835806110326
 30
0.0
 40
20.0
 41
0.0
 71
     5
 72
     1
  1
\A1;20
  7
SANWA
 73
     1
 44
1.0
1001
ACAD
1000
MTEXTBEGIN
1070
    73
1070
     1
1070
    44
1040
1.0
1070
    74
1070
     0
1000
MTEXTEND
  0
POINT
  5
9DAD
330
9880
100
AcDbEntity
  8
DEFPOINTS
 62
     0
100
AcDbPoint
 10
4373.168682555774
 20
257.4581496048988
 30
0.0
  0
POINT
  5
9DAE
330
9880
100
AcDbEntity
  8
DEFPOINTS
 62
     0
100
AcDbPoint
 10
4393.168682555773
 20
257.4581496048988
 30
0.0
  0
POINT
  5
9DAF
330
9880
100
AcDbEntity
  8
DEFPOINTS
 62
     0
100
AcDbPoint
 10
4393.168682555773
 20
166.0835806110326
 30
0.0
  0
ENDBLK
  5
988C
330
9880
100
AcDbEntity
  8
0
100
AcDbBlockEnd
  0
BLOCK
  5
9897
330
988D
100
AcDbEntity
  8
0
100
AcDbBlockBegin
  2
*D40
 70
     1
 10
0.0
 20
0.0
 30
0.0
  3
*D40
  1

  0
LINE
  5
9DB0
330
988D
100
AcDbEntity
  8
寸法引出
370
    -2
100
AcDbLine
 10
4403.168682555773
 20
257.4581496048988
 30
0.0
 11
4551.518830564253
 21
257.4581496048988
 31
0.0
  0
LINE
  5
9DB1
330
988D
100
AcDbEntity
  8
寸法引出
370
    -2
100
AcDbLine
 10
4403.168682555773
 20
317.4581496048988
 30
0.0
 11
4551.518830564253
 21
317.4581496048988
 31
0.0
  0
LINE
  5
9DB2
330
988D
100
AcDbEntity
  8
寸法引出
370
    -2
100
AcDbLine
 10
4546.518830564253
 20
272.4581496048988
 30
0.0
 11
4546.518830564253
 21
302.4581496048988
 31
0.0
  0
SOLID
  5
9DB3
330
988D
100
AcDbEntity
  8
寸法引出
100
AcDbTrace
 10
4544.018830564254
 20
272.4581496048988
 30
0.0
 11
4549.018830564253
 21
272.4581496048988
 31
0.0
 12
4546.518830564253
 22
257.4581496048988
 32
0.0
 13
4546.518830564253
 23
257.4581496048988
 33
0.0
  0
SOLID
  5
9DB4
330
988D
100
AcDbEntity
  8
寸法引出
100
AcDbTrace
 10
4544.018830564254
 20
302.4581496048988
 30
0.0
 11
4549.018830564253
 21
302.4581496048988
 31
0.0
 12
4546.518830564253
 22
317.4581496048988
 32
0.0
 13
4546.518830564253
 23
317.4581496048988
 33
0.0
  0
MTEXT
  5
9DB5
330
988D
100
AcDbEntity
  8
寸法引出
100
AcDbMText
 10
4526.518830564253
 20
287.4581496048995
 30
0.0
 40
20.0
 41
0.0
 71
     5
 72
     1
  1
\A1;60
  7
SANWA
 11
0.0000000000000001
 21
1.0
 31
0.0
 73
     1
 44
1.0
1001
ACAD
1000
MTEXTBEGIN
1070
    73
1070
     1
1070
    44
1040
1.0
1070
    74
1070
     0
1000
MTEXTEND
  0
POINT
  5
9DB6
330
988D
100
AcDbEntity
  8
DEFPOINTS
 62
     0
100
AcDbPoint
 10
4393.168682555773
 20
257.4581496048988
 30
0.0
  0
POINT
  5
9DB7
330
988D
100
AcDbEntity
  8
DEFPOINTS
 62
     0
100
AcDbPoint
 10
4393.168682555773
 20
317.4581496048988
 30
0.0
  0
POINT
  5
9DB8
330
988D
100
AcDbEntity
  8
DEFPOINTS
 62
     0
100
AcDbPoint
 10
4546.518830564253
 20
317.4581496048988
 30
0.0
  0
ENDBLK
  5
9898
330
988D
100
AcDbEntity
  8
0
100
AcDbBlockEnd
  0
BLOCK
  5
98A3
330
9899
100
AcDbEntity
  8
0
100
AcDbBlockBegin
  2
*D41
 70
     1
 10
0.0
 20
0.0
 30
0.0
  3
*D41
  1

  0
LINE
  5
9DB9
330
9899
100
AcDbEntity
  8
寸法引出
370
    -2
100
AcDbLine
 10
3873.168682555774
 20
1267.458149604899
 30
0.0
 11
3873.168682555774
 21
1357.831526946192
 31
0.0
  0
LINE
  5
9DBA
330
9899
100
AcDbEntity
  8
寸法引出
370
    -2
100
AcDbLine
 10
4393.168682555773
 20
1267.458149604899
 30
0.0
 11
4393.168682555773
 21
1357.831526946192
 31
0.0
  0
LINE
  5
9DBB
330
9899
100
AcDbEntity
  8
寸法引出
370
    -2
100
AcDbLine
 10
3888.168682555774
 20
1352.831526946192
 30
0.0
 11
4378.168682555773
 21
1352.831526946192
 31
0.0
  0
SOLID
  5
9DBC
330
9899
100
AcDbEntity
  8
寸法引出
100
AcDbTrace
 10
3888.168682555774
 20
1355.331526946192
 30
0.0
 11
3888.168682555774
 21
1350.331526946192
 31
0.0
 12
3873.168682555774
 22
1352.831526946192
 32
0.0
 13
3873.168682555774
 23
1352.831526946192
 33
0.0
  0
SOLID
  5
9DBD
330
9899
100
AcDbEntity
  8
寸法引出
100
AcDbTrace
 10
4378.168682555773
 20
1355.331526946192
 30
0.0
 11
4378.168682555773
 21
1350.331526946192
 31
0.0
 12
4393.168682555773
 22
1352.831526946192
 32
0.0
 13
4393.168682555773
 23
1352.831526946192
 33
0.0
  0
MTEXT
  5
9DBE
330
9899
100
AcDbEntity
  8
寸法引出
100
AcDbMText
 10
4133.168682555774
 20
1372.831526946192
 30
0.0
 40
20.0
 41
0.0
 71
     5
 72
     1
  1
\A1;520
  7
SANWA
 73
     1
 44
1.0
1001
ACAD
1000
MTEXTBEGIN
1070
    73
1070
     1
1070
    44
1040
1.0
1070
    74
1070
     0
1000
MTEXTEND
  0
POINT
  5
9DBF
330
9899
100
AcDbEntity
  8
DEFPOINTS
 62
     0
100
AcDbPoint
 10
3873.168682555774
 20
1257.458149604899
 30
0.0
  0
POINT
  5
9DC0
330
9899
100
AcDbEntity
  8
DEFPOINTS
 62
     0
100
AcDbPoint
 10
4393.168682555773
 20
1257.458149604899
 30
0.0
  0
POINT
  5
9DC1
330
9899
100
AcDbEntity
  8
DEFPOINTS
 62
     0
100
AcDbPoint
 10
4393.168682555773
 20
1352.831526946192
 30
0.0
  0
ENDBLK
  5
98A4
330
9899
100
AcDbEntity
  8
0
100
AcDbBlockEnd
  0
BLOCK
  5
98AF
330
98A5
100
AcDbEntity
  8
0
100
AcDbBlockBegin
  2
*D42
 70
     1
 10
0.0
 20
0.0
 30
0.0
  3
*D42
  1

  0
LINE
  5
9DC2
330
98A5
100
AcDbEntity
  8
寸法引出
370
    -2
100
AcDbLine
 10
4050.668682555774
 20
1267.458149604899
 30
0.0
 11
4050.668682555774
 21
1325.917590270494
 31
0.0
  0
LINE
  5
9DC3
330
98A5
100
AcDbEntity
  8
寸法引出
370
    -2
100
AcDbLine
 10
4215.668682555773
 20
1267.458149604899
 30
0.0
 11
4215.668682555773
 21
1325.917590270494
 31
0.0
  0
LINE
  5
9DC4
330
98A5
100
AcDbEntity
  8
寸法引出
370
    -2
100
AcDbLine
 10
4065.668682555775
 20
1320.917590270495
 30
0.0
 11
4200.668682555773
 21
1320.917590270495
 31
0.0
  0
SOLID
  5
9DC5
330
98A5
100
AcDbEntity
  8
寸法引出
100
AcDbTrace
 10
4065.668682555775
 20
1323.417590270494
 30
0.0
 11
4065.668682555775
 21
1318.417590270495
 31
0.0
 12
4050.668682555774
 22
1320.917590270495
 32
0.0
 13
4050.668682555774
 23
1320.917590270495
 33
0.0
  0
SOLID
  5
9DC6
330
98A5
100
AcDbEntity
  8
寸法引出
100
AcDbTrace
 10
4200.668682555773
 20
1323.417590270494
 30
0.0
 11
4200.668682555773
 21
1318.417590270495
 31
0.0
 12
4215.668682555773
 22
1320.917590270495
 32
0.0
 13
4215.668682555773
 23
1320.917590270495
 33
0.0
  0
MTEXT
  5
9DC7
330
98A5
100
AcDbEntity
  8
寸法引出
100
AcDbMText
 10
4133.168682555774
 20
1340.917590270495
 30
0.0
 40
20.0
 41
0.0
 71
     5
 72
     1
  1
\A1;165
  7
SANWA
 73
     1
 44
1.0
1001
ACAD
1000
MTEXTBEGIN
1070
    73
1070
     1
1070
    44
1040
1.0
1070
    74
1070
     0
1000
MTEXTEND
  0
POINT
  5
9DC8
330
98A5
100
AcDbEntity
  8
DEFPOINTS
 62
     0
100
AcDbPoint
 10
4050.668682555774
 20
1257.458149604899
 30
0.0
  0
POINT
  5
9DC9
330
98A5
100
AcDbEntity
  8
DEFPOINTS
 62
     0
100
AcDbPoint
 10
4215.668682555773
 20
1257.458149604899
 30
0.0
  0
POINT
  5
9DCA
330
98A5
100
AcDbEntity
  8
DEFPOINTS
 62
     0
100
AcDbPoint
 10
4215.668682555773
 20
1320.917590270495
 30
0.0
  0
ENDBLK
  5
98B0
330
98A5
100
AcDbEntity
  8
0
100
AcDbBlockEnd
  0
BLOCK
  5
98BA
330
98B1
100
AcDbEntity
  8
0
100
AcDbBlockBegin
  2
*D43
 70
     1
 10
0.0
 20
0.0
 30
0.0
  3
*D43
  1

  0
LINE
  5
9DCB
330
98B1
100
AcDbEntity
  8
寸法引出
370
    -2
100
AcDbLine
 10
4215.668682555775
 20
1482.202336819424
 30
0.0
 11
4215.668682555775
 21
1432.458115727429
 31
0.0
  0
LINE
  5
9DCC
330
98B1
100
AcDbEntity
  8
寸法引出
370
    -2
100
AcDbLine
 10
4065.668682555775
 20
1437.458115727429
 30
0.0
 11
4200.668682555774
 21
1437.458115727429
 31
0.0
  0
SOLID
  5
9DCD
330
98B1
100
AcDbEntity
  8
寸法引出
100
AcDbTrace
 10
4065.668682555775
 20
1439.958115727429
 30
0.0
 11
4065.668682555775
 21
1434.958115727429
 31
0.0
 12
4050.668682555774
 22
1437.458115727429
 32
0.0
 13
4050.668682555774
 23
1437.458115727429
 33
0.0
  0
SOLID
  5
9DCE
330
98B1
100
AcDbEntity
  8
寸法引出
100
AcDbTrace
 10
4200.668682555774
 20
1439.958115727429
 30
0.0
 11
4200.668682555774
 21
1434.958115727429
 31
0.0
 12
4215.668682555775
 22
1437.458115727429
 32
0.0
 13
4215.668682555775
 23
1437.458115727429
 33
0.0
  0
MTEXT
  5
9DCF
330
98B1
100
AcDbEntity
  8
寸法引出
100
AcDbMText
 10
4133.168682555774
 20
1457.458115727429
 30
0.0
 40
20.0
 41
0.0
 71
     5
 72
     1
  1
\A1;165
  7
SANWA
 73
     1
 44
1.0
1001
ACAD
1000
MTEXTBEGIN
1070
    73
1070
     1
1070
    44
1040
1.0
1070
    74
1070
     0
1000
MTEXTEND
  0
POINT
  5
9DD0
330
98B1
100
AcDbEntity
  8
DEFPOINTS
 62
     0
100
AcDbPoint
 10
4050.668682555774
 20
1492.202336819424
 30
0.0
  0
POINT
  5
9DD1
330
98B1
100
AcDbEntity
  8
DEFPOINTS
 62
     0
100
AcDbPoint
 10
4215.668682555775
 20
1492.202336819424
 30
0.0
  0
POINT
  5
9DD2
330
98B1
100
AcDbEntity
  8
DEFPOINTS
 62
     0
100
AcDbPoint
 10
4215.668682555775
 20
1437.458115727429
 30
0.0
  0
ENDBLK
  5
98BB
330
98B1
100
AcDbEntity
  8
0
100
AcDbBlockEnd
  0
BLOCK
  5
98C6
330
98BC
100
AcDbEntity
  8
0
100
AcDbBlockBegin
  2
*D44
 70
     1
 10
0.0
 20
0.0
 30
0.0
  3
*D44
  1

  0
LINE
  5
9DD3
330
98BC
100
AcDbEntity
  8
寸法引出
370
    -2
100
AcDbLine
 10
3873.168682555774
 20
1612.202336819424
 30
0.0
 11
3873.168682555774
 21
1710.060289114973
 31
0.0
  0
LINE
  5
9DD4
330
98BC
100
AcDbEntity
  8
寸法引出
370
    -2
100
AcDbLine
 10
4393.168682555773
 20
1612.202336819424
 30
0.0
 11
4393.168682555773
 21
1710.060289114973
 31
0.0
  0
LINE
  5
9DD5
330
98BC
100
AcDbEntity
  8
寸法引出
370
    -2
100
AcDbLine
 10
3888.168682555774
 20
1705.060289114973
 30
0.0
 11
4378.168682555773
 21
1705.060289114973
 31
0.0
  0
SOLID
  5
9DD6
330
98BC
100
AcDbEntity
  8
寸法引出
100
AcDbTrace
 10
3888.168682555774
 20
1707.560289114972
 30
0.0
 11
3888.168682555774
 21
1702.560289114973
 31
0.0
 12
3873.168682555774
 22
1705.060289114973
 32
0.0
 13
3873.168682555774
 23
1705.060289114973
 33
0.0
  0
SOLID
  5
9DD7
330
98BC
100
AcDbEntity
  8
寸法引出
100
AcDbTrace
 10
4378.168682555773
 20
1707.560289114972
 30
0.0
 11
4378.168682555773
 21
1702.560289114973
 31
0.0
 12
4393.168682555773
 22
1705.060289114973
 32
0.0
 13
4393.168682555773
 23
1705.060289114973
 33
0.0
  0
MTEXT
  5
9DD8
330
98BC
100
AcDbEntity
  8
寸法引出
100
AcDbMText
 10
4133.168682555774
 20
1725.060289114973
 30
0.0
 40
20.0
 41
0.0
 71
     5
 72
     1
  1
\A1;520
  7
SANWA
 73
     1
 44
1.0
1001
ACAD
1000
MTEXTBEGIN
1070
    73
1070
     1
1070
    44
1040
1.0
1070
    74
1070
     0
1000
MTEXTEND
  0
POINT
  5
9DD9
330
98BC
100
AcDbEntity
  8
DEFPOINTS
 62
     0
100
AcDbPoint
 10
3873.168682555774
 20
1602.202336819424
 30
0.0
  0
POINT
  5
9DDA
330
98BC
100
AcDbEntity
  8
DEFPOINTS
 62
     0
100
AcDbPoint
 10
4393.168682555773
 20
1602.202336819424
 30
0.0
  0
POINT
  5
9DDB
330
98BC
100
AcDbEntity
  8
DEFPOINTS
 62
     0
100
AcDbPoint
 10
4393.168682555773
 20
1705.060289114973
 30
0.0
  0
ENDBLK
  5
98C7
330
98BC
100
AcDbEntity
  8
0
100
AcDbBlockEnd
  0
BLOCK
  5
98D2
330
98C8
100
AcDbEntity
  8
0
100
AcDbBlockBegin
  2
*D45
 70
     1
 10
0.0
 20
0.0
 30
0.0
  3
*D45
  1

  0
LINE
  5
9DDC
330
98C8
100
AcDbEntity
  8
寸法引出
370
    -2
100
AcDbLine
 10
3933.168682555776
 20
1612.202336819424
 30
0.0
 11
3933.168682555776
 21
1671.977876837937
 31
0.0
  0
LINE
  5
9DDD
330
98C8
100
AcDbEntity
  8
寸法引出
370
    -2
100
AcDbLine
 10
4333.168682555775
 20
1612.202336819424
 30
0.0
 11
4333.168682555775
 21
1671.977876837937
 31
0.0
  0
LINE
  5
9DDE
330
98C8
100
AcDbEntity
  8
寸法引出
370
    -2
100
AcDbLine
 10
3948.168682555775
 20
1666.977876837937
 30
0.0
 11
4318.168682555775
 21
1666.977876837937
 31
0.0
  0
SOLID
  5
9DDF
330
98C8
100
AcDbEntity
  8
寸法引出
100
AcDbTrace
 10
3948.168682555775
 20
1669.477876837937
 30
0.0
 11
3948.168682555775
 21
1664.477876837937
 31
0.0
 12
3933.168682555776
 22
1666.977876837937
 32
0.0
 13
3933.168682555776
 23
1666.977876837937
 33
0.0
  0
SOLID
  5
9DE0
330
98C8
100
AcDbEntity
  8
寸法引出
100
AcDbTrace
 10
4318.168682555775
 20
1669.477876837937
 30
0.0
 11
4318.168682555775
 21
1664.477876837937
 31
0.0
 12
4333.168682555775
 22
1666.977876837937
 32
0.0
 13
4333.168682555775
 23
1666.977876837937
 33
0.0
  0
MTEXT
  5
9DE1
330
98C8
100
AcDbEntity
  8
寸法引出
100
AcDbMText
 10
4133.168682555775
 20
1686.977876837937
 30
0.0
 40
20.0
 41
0.0
 71
     5
 72
     1
  1
\A1;400
  7
SANWA
 73
     1
 44
1.0
1001
ACAD
1000
MTEXTBEGIN
1070
    73
1070
     1
1070
    44
1040
1.0
1070
    74
1070
     0
1000
MTEXTEND
  0
POINT
  5
9DE2
330
98C8
100
AcDbEntity
  8
DEFPOINTS
 62
     0
100
AcDbPoint
 10
3933.168682555776
 20
1602.202336819424
 30
0.0
  0
POINT
  5
9DE3
330
98C8
100
AcDbEntity
  8
DEFPOINTS
 62
     0
100
AcDbPoint
 10
4333.168682555775
 20
1602.202336819424
 30
0.0
  0
POINT
  5
9DE4
330
98C8
100
AcDbEntity
  8
DEFPOINTS
 62
     0
100
AcDbPoint
 10
4333.168682555775
 20
1666.977876837937
 30
0.0
  0
ENDBLK
  5
98D3
330
98C8
100
AcDbEntity
  8
0
100
AcDbBlockEnd
  0
BLOCK
  5
98DD
330
98D4
100
AcDbEntity
  8
0
100
AcDbBlockBegin
  2
*D46
 70
     1
 10
0.0
 20
0.0
 30
0.0
  3
*D46
  1

  0
LINE
  5
9DE5
330
98D4
100
AcDbEntity
  8
寸法引出
370
    -2
100
AcDbLine
 10
4050.668682555774
 20
1267.458149604899
 30
0.0
 11
4050.668682555774
 21
1325.917590270494
 31
0.0
  0
LINE
  5
9DE6
330
98D4
100
AcDbEntity
  8
寸法引出
370
    -2
100
AcDbLine
 10
3948.168682555774
 20
1320.917590270495
 30
0.0
 11
4035.668682555774
 21
1320.917590270495
 31
0.0
  0
SOLID
  5
9DE7
330
98D4
100
AcDbEntity
  8
寸法引出
100
AcDbTrace
 10
3948.168682555774
 20
1323.417590270494
 30
0.0
 11
3948.168682555774
 21
1318.417590270495
 31
0.0
 12
3933.168682555774
 22
1320.917590270495
 32
0.0
 13
3933.168682555774
 23
1320.917590270495
 33
0.0
  0
SOLID
  5
9DE8
330
98D4
100
AcDbEntity
  8
寸法引出
100
AcDbTrace
 10
4035.668682555774
 20
1323.417590270494
 30
0.0
 11
4035.668682555774
 21
1318.417590270495
 31
0.0
 12
4050.668682555774
 22
1320.917590270495
 32
0.0
 13
4050.668682555774
 23
1320.917590270495
 33
0.0
  0
MTEXT
  5
9DE9
330
98D4
100
AcDbEntity
  8
寸法引出
100
AcDbMText
 10
3991.918682555775
 20
1340.917590270495
 30
0.0
 40
20.0
 41
0.0
 71
     5
 72
     1
  1
\A1;117.5
  7
SANWA
 73
     1
 44
1.0
1001
ACAD
1000
MTEXTBEGIN
1070
    73
1070
     1
1070
    44
1040
1.0
1070
    74
1070
     0
1000
MTEXTEND
  0
POINT
  5
9DEA
330
98D4
100
AcDbEntity
  8
DEFPOINTS
 62
     0
100
AcDbPoint
 10
3933.168682555774
 20
1257.458149604899
 30
0.0
  0
POINT
  5
9DEB
330
98D4
100
AcDbEntity
  8
DEFPOINTS
 62
     0
100
AcDbPoint
 10
4050.668682555774
 20
1257.458149604899
 30
0.0
  0
POINT
  5
9DEC
330
98D4
100
AcDbEntity
  8
DEFPOINTS
 62
     0
100
AcDbPoint
 10
4050.668682555774
 20
1320.917590270495
 30
0.0
  0
ENDBLK
  5
98DE
330
98D4
100
AcDbEntity
  8
0
100
AcDbBlockEnd
  0
BLOCK
  5
98E9
330
98DF
100
AcDbEntity
  8
0
100
AcDbBlockBegin
  2
*D47
 70
     1
 10
0.0
 20
0.0
 30
0.0
  3
*D47
  1

  0
LINE
  5
9DED
330
98DF
100
AcDbEntity
  8
寸法引出
370
    -2
100
AcDbLine
 10
3873.168682555774
 20
1267.458149604899
 30
0.0
 11
3873.168682555774
 21
1325.917590270494
 31
0.0
  0
LINE
  5
9DEE
330
98DF
100
AcDbEntity
  8
寸法引出
370
    -2
100
AcDbLine
 10
3933.168682555774
 20
1267.458149604899
 30
0.0
 11
3933.168682555774
 21
1325.917590270494
 31
0.0
  0
LINE
  5
9DEF
330
98DF
100
AcDbEntity
  8
寸法引出
370
    -2
100
AcDbLine
 10
3888.168682555774
 20
1320.917590270495
 30
0.0
 11
3918.168682555774
 21
1320.917590270495
 31
0.0
  0
SOLID
  5
9DF0
330
98DF
100
AcDbEntity
  8
寸法引出
100
AcDbTrace
 10
3888.168682555774
 20
1323.417590270494
 30
0.0
 11
3888.168682555774
 21
1318.417590270495
 31
0.0
 12
3873.168682555774
 22
1320.917590270495
 32
0.0
 13
3873.168682555774
 23
1320.917590270495
 33
0.0
  0
SOLID
  5
9DF1
330
98DF
100
AcDbEntity
  8
寸法引出
100
AcDbTrace
 10
3918.168682555774
 20
1323.417590270494
 30
0.0
 11
3918.168682555774
 21
1318.417590270495
 31
0.0
 12
3933.168682555774
 22
1320.917590270495
 32
0.0
 13
3933.168682555774
 23
1320.917590270495
 33
0.0
  0
MTEXT
  5
9DF2
330
98DF
100
AcDbEntity
  8
寸法引出
100
AcDbMText
 10
3903.168682555774
 20
1340.917590270495
 30
0.0
 40
20.0
 41
0.0
 71
     5
 72
     1
  1
\A1;60
  7
SANWA
 73
     1
 44
1.0
1001
ACAD
1000
MTEXTBEGIN
1070
    73
1070
     1
1070
    44
1040
1.0
1070
    74
1070
     0
1000
MTEXTEND
  0
POINT
  5
9DF3
330
98DF
100
AcDbEntity
  8
DEFPOINTS
 62
     0
100
AcDbPoint
 10
3873.168682555774
 20
1257.458149604899
 30
0.0
  0
POINT
  5
9DF4
330
98DF
100
AcDbEntity
  8
DEFPOINTS
 62
     0
100
AcDbPoint
 10
3933.168682555774
 20
1257.458149604899
 30
0.0
  0
POINT
  5
9DF5
330
98DF
100
AcDbEntity
  8
DEFPOINTS
 62
     0
100
AcDbPoint
 10
3933.168682555774
 20
1320.917590270495
 30
0.0
  0
ENDBLK
  5
98EA
330
98DF
100
AcDbEntity
  8
0
100
AcDbBlockEnd
  0
BLOCK
  5
98F5
330
98EB
100
AcDbEntity
  8
0
100
AcDbBlockBegin
  2
*D48
 70
     1
 10
0.0
 20
0.0
 30
0.0
  3
*D48
  1

  0
LINE
  5
9DF6
330
98EB
100
AcDbEntity
  8
寸法引出
370
    -2
100
AcDbLine
 10
3873.168682555774
 20
1612.202336819424
 30
0.0
 11
3873.168682555774
 21
1671.977876837937
 31
0.0
  0
LINE
  5
9DF7
330
98EB
100
AcDbEntity
  8
寸法引出
370
    -2
100
AcDbLine
 10
3933.168682555776
 20
1612.202336819424
 30
0.0
 11
3933.168682555776
 21
1671.977876837937
 31
0.0
  0
LINE
  5
9DF8
330
98EB
100
AcDbEntity
  8
寸法引出
370
    -2
100
AcDbLine
 10
3888.168682555774
 20
1666.977876837937
 30
0.0
 11
3918.168682555775
 21
1666.977876837937
 31
0.0
  0
SOLID
  5
9DF9
330
98EB
100
AcDbEntity
  8
寸法引出
100
AcDbTrace
 10
3888.168682555774
 20
1669.477876837937
 30
0.0
 11
3888.168682555774
 21
1664.477876837937
 31
0.0
 12
3873.168682555774
 22
1666.977876837937
 32
0.0
 13
3873.168682555774
 23
1666.977876837937
 33
0.0
  0
SOLID
  5
9DFA
330
98EB
100
AcDbEntity
  8
寸法引出
100
AcDbTrace
 10
3918.168682555775
 20
1669.477876837937
 30
0.0
 11
3918.168682555775
 21
1664.477876837937
 31
0.0
 12
3933.168682555776
 22
1666.977876837937
 32
0.0
 13
3933.168682555776
 23
1666.977876837937
 33
0.0
  0
MTEXT
  5
9DFB
330
98EB
100
AcDbEntity
  8
寸法引出
100
AcDbMText
 10
3903.168682555775
 20
1686.977876837937
 30
0.0
 40
20.0
 41
0.0
 71
     5
 72
     1
  1
\A1;60
  7
SANWA
 73
     1
 44
1.0
1001
ACAD
1000
MTEXTBEGIN
1070
    73
1070
     1
1070
    44
1040
1.0
1070
    74
1070
     0
1000
MTEXTEND
  0
POINT
  5
9DFC
330
98EB
100
AcDbEntity
  8
DEFPOINTS
 62
     0
100
AcDbPoint
 10
3873.168682555774
 20
1602.202336819424
 30
0.0
  0
POINT
  5
9DFD
330
98EB
100
AcDbEntity
  8
DEFPOINTS
 62
     0
100
AcDbPoint
 10
3933.168682555776
 20
1602.202336819424
 30
0.0
  0
POINT
  5
9DFE
330
98EB
100
AcDbEntity
  8
DEFPOINTS
 62
     0
100
AcDbPoint
 10
3933.168682555776
 20
1666.977876837937
 30
0.0
  0
ENDBLK
  5
98F6
330
98EB
100
AcDbEntity
  8
0
100
AcDbBlockEnd
  0
BLOCK
  5
9900
330
98F7
100
AcDbEntity
  8
0
100
AcDbBlockBegin
  2
*D49
 70
     1
 10
0.0
 20
0.0
 30
0.0
  3
*D49
  1

  0
LINE
  5
9DFF
330
98F7
100
AcDbEntity
  8
寸法引出
370
    -2
100
AcDbLine
 10
4050.668682555774
 20
1482.202336819424
 30
0.0
 11
4050.668682555774
 21
1432.458115727429
 31
0.0
  0
LINE
  5
9E00
330
98F7
100
AcDbEntity
  8
寸法引出
370
    -2
100
AcDbLine
 10
3948.168682555774
 20
1437.458115727429
 30
0.0
 11
4035.668682555774
 21
1437.458115727429
 31
0.0
  0
SOLID
  5
9E01
330
98F7
100
AcDbEntity
  8
寸法引出
100
AcDbTrace
 10
3948.168682555774
 20
1439.958115727429
 30
0.0
 11
3948.168682555774
 21
1434.958115727429
 31
0.0
 12
3933.168682555775
 22
1437.458115727429
 32
0.0
 13
3933.168682555775
 23
1437.458115727429
 33
0.0
  0
SOLID
  5
9E02
330
98F7
100
AcDbEntity
  8
寸法引出
100
AcDbTrace
 10
4035.668682555774
 20
1439.958115727429
 30
0.0
 11
4035.668682555774
 21
1434.958115727429
 31
0.0
 12
4050.668682555774
 22
1437.458115727429
 32
0.0
 13
4050.668682555774
 23
1437.458115727429
 33
0.0
  0
MTEXT
  5
9E03
330
98F7
100
AcDbEntity
  8
寸法引出
100
AcDbMText
 10
3991.918682555775
 20
1457.458115727429
 30
0.0
 40
20.0
 41
0.0
 71
     5
 72
     1
  1
\A1;117.5
  7
SANWA
 73
     1
 44
1.0
1001
ACAD
1000
MTEXTBEGIN
1070
    73
1070
     1
1070
    44
1040
1.0
1070
    74
1070
     0
1000
MTEXTEND
  0
POINT
  5
9E04
330
98F7
100
AcDbEntity
  8
DEFPOINTS
 62
     0
100
AcDbPoint
 10
3933.168682555775
 20
1492.202336819424
 30
0.0
  0
POINT
  5
9E05
330
98F7
100
AcDbEntity
  8
DEFPOINTS
 62
     0
100
AcDbPoint
 10
4050.668682555774
 20
1492.202336819424
 30
0.0
  0
POINT
  5
9E06
330
98F7
100
AcDbEntity
  8
DEFPOINTS
 62
     0
100
AcDbPoint
 10
4050.668682555774
 20
1437.458115727429
 30
0.0
  0
ENDBLK
  5
9901
330
98F7
100
AcDbEntity
  8
0
100
AcDbBlockEnd
  0
BLOCK
  5
990C
330
9902
100
AcDbEntity
  8
0
100
AcDbBlockBegin
  2
*D50
 70
     1
 10
0.0
 20
0.0
 30
0.0
  3
*D50
  1

  0
LINE
  5
9E07
330
9902
100
AcDbEntity
  8
寸法引出
370
    -2
100
AcDbLine
 10
3873.168682555774
 20
1482.202336819424
 30
0.0
 11
3873.168682555774
 21
1432.458115727429
 31
0.0
  0
LINE
  5
9E08
330
9902
100
AcDbEntity
  8
寸法引出
370
    -2
100
AcDbLine
 10
3933.168682555775
 20
1482.202336819424
 30
0.0
 11
3933.168682555775
 21
1432.458115727429
 31
0.0
  0
LINE
  5
9E09
330
9902
100
AcDbEntity
  8
寸法引出
370
    -2
100
AcDbLine
 10
3888.168682555774
 20
1437.458115727429
 30
0.0
 11
3918.168682555775
 21
1437.458115727429
 31
0.0
  0
SOLID
  5
9E0A
330
9902
100
AcDbEntity
  8
寸法引出
100
AcDbTrace
 10
3888.168682555774
 20
1439.958115727429
 30
0.0
 11
3888.168682555774
 21
1434.958115727429
 31
0.0
 12
3873.168682555774
 22
1437.458115727429
 32
0.0
 13
3873.168682555774
 23
1437.458115727429
 33
0.0
  0
SOLID
  5
9E0B
330
9902
100
AcDbEntity
  8
寸法引出
100
AcDbTrace
 10
3918.168682555775
 20
1439.958115727429
 30
0.0
 11
3918.168682555775
 21
1434.958115727429
 31
0.0
 12
3933.168682555775
 22
1437.458115727429
 32
0.0
 13
3933.168682555775
 23
1437.458115727429
 33
0.0
  0
MTEXT
  5
9E0C
330
9902
100
AcDbEntity
  8
寸法引出
100
AcDbMText
 10
3903.168682555775
 20
1457.458115727429
 30
0.0
 40
20.0
 41
0.0
 71
     5
 72
     1
  1
\A1;60
  7
SANWA
 73
     1
 44
1.0
1001
ACAD
1000
MTEXTBEGIN
1070
    73
1070
     1
1070
    44
1040
1.0
1070
    74
1070
     0
1000
MTEXTEND
  0
POINT
  5
9E0D
330
9902
100
AcDbEntity
  8
DEFPOINTS
 62
     0
100
AcDbPoint
 10
3873.168682555774
 20
1492.202336819424
 30
0.0
  0
POINT
  5
9E0E
330
9902
100
AcDbEntity
  8
DEFPOINTS
 62
     0
100
AcDbPoint
 10
3933.168682555775
 20
1492.202336819424
 30
0.0
  0
POINT
  5
9E0F
330
9902
100
AcDbEntity
  8
DEFPOINTS
 62
     0
100
AcDbPoint
 10
3933.168682555775
 20
1437.458115727429
 30
0.0
  0
ENDBLK
  5
990D
330
9902
100
AcDbEntity
  8
0
100
AcDbBlockEnd
  0
BLOCK
  5
9918
330
990E
100
AcDbEntity
  8
0
100
AcDbBlockBegin
  2
*D51
 70
     1
 10
0.0
 20
0.0
 30
0.0
  3
*D51
  1

  0
LINE
  5
9E10
330
990E
100
AcDbEntity
  8
寸法引出
370
    -2
100
AcDbLine
 10
4697.477132350454
 20
1482.202336819424
 30
0.0
 11
4697.477132350454
 21
1391.204594089814
 31
0.0
  0
LINE
  5
9E11
330
990E
100
AcDbEntity
  8
寸法引出
370
    -2
100
AcDbLine
 10
4757.477132350453
 20
1482.202336819424
 30
0.0
 11
4757.477132350453
 21
1391.204594089814
 31
0.0
  0
LINE
  5
9E12
330
990E
100
AcDbEntity
  8
寸法引出
370
    -2
100
AcDbLine
 10
4712.477132350453
 20
1396.204594089814
 30
0.0
 11
4742.477132350454
 21
1396.204594089814
 31
0.0
  0
SOLID
  5
9E13
330
990E
100
AcDbEntity
  8
寸法引出
100
AcDbTrace
 10
4712.477132350453
 20
1398.704594089814
 30
0.0
 11
4712.477132350453
 21
1393.704594089814
 31
0.0
 12
4697.477132350454
 22
1396.204594089814
 32
0.0
 13
4697.477132350454
 23
1396.204594089814
 33
0.0
  0
SOLID
  5
9E14
330
990E
100
AcDbEntity
  8
寸法引出
100
AcDbTrace
 10
4742.477132350454
 20
1398.704594089814
 30
0.0
 11
4742.477132350454
 21
1393.704594089814
 31
0.0
 12
4757.477132350453
 22
1396.204594089814
 32
0.0
 13
4757.477132350453
 23
1396.204594089814
 33
0.0
  0
MTEXT
  5
9E15
330
990E
100
AcDbEntity
  8
寸法引出
100
AcDbMText
 10
4727.477132350453
 20
1416.204594089814
 30
0.0
 40
20.0
 41
0.0
 71
     5
 72
     1
  1
\A1;60
  7
SANWA
 73
     1
 44
1.0
1001
ACAD
1000
MTEXTBEGIN
1070
    73
1070
     1
1070
    44
1040
1.0
1070
    74
1070
     0
1000
MTEXTEND
  0
POINT
  5
9E16
330
990E
100
AcDbEntity
  8
DEFPOINTS
 62
     0
100
AcDbPoint
 10
4697.477132350454
 20
1492.202336819424
 30
0.0
  0
POINT
  5
9E17
330
990E
100
AcDbEntity
  8
DEFPOINTS
 62
     0
100
AcDbPoint
 10
4757.477132350453
 20
1492.202336819424
 30
0.0
  0
POINT
  5
9E18
330
990E
100
AcDbEntity
  8
DEFPOINTS
 62
     0
100
AcDbPoint
 10
4757.477132350453
 20
1396.204594089814
 30
0.0
  0
ENDBLK
  5
9919
330
990E
100
AcDbEntity
  8
0
100
AcDbBlockEnd
  0
BLOCK
  5
9923
330
991A
100
AcDbEntity
  8
0
100
AcDbBlockBegin
  2
*D52
 70
     1
 10
0.0
 20
0.0
 30
0.0
  3
*D52
  1

  0
LINE
  5
9E19
330
991A
100
AcDbEntity
  8
寸法引出
370
    -2
100
AcDbLine
 10
4333.168682555774
 20
1267.458149604899
 30
0.0
 11
4333.168682555774
 21
1325.917590270494
 31
0.0
  0
LINE
  5
9E1A
330
991A
100
AcDbEntity
  8
寸法引出
370
    -2
100
AcDbLine
 10
4230.668682555773
 20
1320.917590270495
 30
0.0
 11
4318.168682555773
 21
1320.917590270495
 31
0.0
  0
SOLID
  5
9E1B
330
991A
100
AcDbEntity
  8
寸法引出
100
AcDbTrace
 10
4230.668682555773
 20
1323.417590270494
 30
0.0
 11
4230.668682555773
 21
1318.417590270495
 31
0.0
 12
4215.668682555773
 22
1320.917590270495
 32
0.0
 13
4215.668682555773
 23
1320.917590270495
 33
0.0
  0
SOLID
  5
9E1C
330
991A
100
AcDbEntity
  8
寸法引出
100
AcDbTrace
 10
4318.168682555773
 20
1323.417590270494
 30
0.0
 11
4318.168682555773
 21
1318.417590270495
 31
0.0
 12
4333.168682555774
 22
1320.917590270495
 32
0.0
 13
4333.168682555774
 23
1320.917590270495
 33
0.0
  0
MTEXT
  5
9E1D
330
991A
100
AcDbEntity
  8
寸法引出
100
AcDbMText
 10
4274.418682555773
 20
1340.917590270495
 30
0.0
 40
20.0
 41
0.0
 71
     5
 72
     1
  1
\A1;117.5
  7
SANWA
 73
     1
 44
1.0
1001
ACAD
1000
MTEXTBEGIN
1070
    73
1070
     1
1070
    44
1040
1.0
1070
    74
1070
     0
1000
MTEXTEND
  0
POINT
  5
9E1E
330
991A
100
AcDbEntity
  8
DEFPOINTS
 62
     0
100
AcDbPoint
 10
4215.668682555773
 20
1257.458149604899
 30
0.0
  0
POINT
  5
9E1F
330
991A
100
AcDbEntity
  8
DEFPOINTS
 62
     0
100
AcDbPoint
 10
4333.168682555774
 20
1257.458149604899
 30
0.0
  0
POINT
  5
9E20
330
991A
100
AcDbEntity
  8
DEFPOINTS
 62
     0
100
AcDbPoint
 10
4333.168682555774
 20
1320.917590270495
 30
0.0
  0
ENDBLK
  5
9924
330
991A
100
AcDbEntity
  8
0
100
AcDbBlockEnd
  0
BLOCK
  5
992E
330
9925
100
AcDbEntity
  8
0
100
AcDbBlockBegin
  2
*D53
 70
     1
 10
0.0
 20
0.0
 30
0.0
  3
*D53
  1

  0
LINE
  5
9E21
330
9925
100
AcDbEntity
  8
寸法引出
370
    -2
100
AcDbLine
 10
4403.168682555773
 20
1257.458149604899
 30
0.0
 11
4551.518830564253
 21
1257.458149604899
 31
0.0
  0
LINE
  5
9E22
330
9925
100
AcDbEntity
  8
寸法引出
370
    -2
100
AcDbLine
 10
4546.518830564253
 20
1212.458149604899
 30
0.0
 11
4546.518830564253
 21
1242.458149604899
 31
0.0
  0
SOLID
  5
9E23
330
9925
100
AcDbEntity
  8
寸法引出
100
AcDbTrace
 10
4544.018830564254
 20
1212.458149604899
 30
0.0
 11
4549.018830564253
 21
1212.458149604899
 31
0.0
 12
4546.518830564253
 22
1197.458149604899
 32
0.0
 13
4546.518830564253
 23
1197.458149604899
 33
0.0
  0
SOLID
  5
9E24
330
9925
100
AcDbEntity
  8
寸法引出
100
AcDbTrace
 10
4544.018830564254
 20
1242.458149604899
 30
0.0
 11
4549.018830564253
 21
1242.458149604899
 31
0.0
 12
4546.518830564253
 22
1257.458149604899
 32
0.0
 13
4546.518830564253
 23
1257.458149604899
 33
0.0
  0
MTEXT
  5
9E25
330
9925
100
AcDbEntity
  8
寸法引出
100
AcDbMText
 10
4526.518830564253
 20
1227.458149604899
 30
0.0
 40
20.0
 41
0.0
 71
     5
 72
     1
  1
\A1;60
  7
SANWA
 11
0.0000000000000001
 21
1.0
 31
0.0
 73
     1
 44
1.0
1001
ACAD
1000
MTEXTBEGIN
1070
    73
1070
     1
1070
    44
1040
1.0
1070
    74
1070
     0
1000
MTEXTEND
  0
POINT
  5
9E26
330
9925
100
AcDbEntity
  8
DEFPOINTS
 62
     0
100
AcDbPoint
 10
4393.168682555773
 20
1197.458149604899
 30
0.0
  0
POINT
  5
9E27
330
9925
100
AcDbEntity
  8
DEFPOINTS
 62
     0
100
AcDbPoint
 10
4393.168682555773
 20
1257.458149604899
 30
0.0
  0
POINT
  5
9E28
330
9925
100
AcDbEntity
  8
DEFPOINTS
 62
     0
100
AcDbPoint
 10
4546.518830564253
 20
1257.458149604899
 30
0.0
  0
ENDBLK
  5
992F
330
9925
100
AcDbEntity
  8
0
100
AcDbBlockEnd
  0
BLOCK
  5
9939
330
9930
100
AcDbEntity
  8
0
100
AcDbBlockBegin
  2
*D54
 70
     1
 10
0.0
 20
0.0
 30
0.0
  3
*D54
  1

  0
LINE
  5
9E29
330
9930
100
AcDbEntity
  8
寸法引出
370
    -2
100
AcDbLine
 10
4393.168682555773
 20
1267.458149604899
 30
0.0
 11
4393.168682555773
 21
1325.917590270494
 31
0.0
  0
LINE
  5
9E2A
330
9930
100
AcDbEntity
  8
寸法引出
370
    -2
100
AcDbLine
 10
4348.168682555773
 20
1320.917590270495
 30
0.0
 11
4378.168682555773
 21
1320.917590270495
 31
0.0
  0
SOLID
  5
9E2B
330
9930
100
AcDbEntity
  8
寸法引出
100
AcDbTrace
 10
4348.168682555773
 20
1323.417590270494
 30
0.0
 11
4348.168682555773
 21
1318.417590270495
 31
0.0
 12
4333.168682555774
 22
1320.917590270495
 32
0.0
 13
4333.168682555774
 23
1320.917590270495
 33
0.0
  0
SOLID
  5
9E2C
330
9930
100
AcDbEntity
  8
寸法引出
100
AcDbTrace
 10
4378.168682555773
 20
1323.417590270494
 30
0.0
 11
4378.168682555773
 21
1318.417590270495
 31
0.0
 12
4393.168682555773
 22
1320.917590270495
 32
0.0
 13
4393.168682555773
 23
1320.917590270495
 33
0.0
  0
MTEXT
  5
9E2D
330
9930
100
AcDbEntity
  8
寸法引出
100
AcDbMText
 10
4363.168682555773
 20
1340.917590270495
 30
0.0
 40
20.0
 41
0.0
 71
     5
 72
     1
  1
\A1;60
  7
SANWA
 73
     1
 44
1.0
1001
ACAD
1000
MTEXTBEGIN
1070
    73
1070
     1
1070
    44
1040
1.0
1070
    74
1070
     0
1000
MTEXTEND
  0
POINT
  5
9E2E
330
9930
100
AcDbEntity
  8
DEFPOINTS
 62
     0
100
AcDbPoint
 10
4333.168682555774
 20
1257.458149604899
 30
0.0
  0
POINT
  5
9E2F
330
9930
100
AcDbEntity
  8
DEFPOINTS
 62
     0
100
AcDbPoint
 10
4393.168682555773
 20
1257.458149604899
 30
0.0
  0
POINT
  5
9E30
330
9930
100
AcDbEntity
  8
DEFPOINTS
 62
     0
100
AcDbPoint
 10
4393.168682555773
 20
1320.917590270495
 30
0.0
  0
ENDBLK
  5
993A
330
9930
100
AcDbEntity
  8
0
100
AcDbBlockEnd
  0
BLOCK
  5
9944
330
993B
100
AcDbEntity
  8
0
100
AcDbBlockBegin
  2
*D55
 70
     1
 10
0.0
 20
0.0
 30
0.0
  3
*D55
  1

  0
LINE
  5
9E31
330
993B
100
AcDbEntity
  8
寸法引出
370
    -2
100
AcDbLine
 10
4333.168682555775
 20
1482.202336819424
 30
0.0
 11
4333.168682555775
 21
1432.458115727429
 31
0.0
  0
LINE
  5
9E32
330
993B
100
AcDbEntity
  8
寸法引出
370
    -2
100
AcDbLine
 10
4230.668682555775
 20
1437.458115727429
 30
0.0
 11
4318.168682555774
 21
1437.458115727429
 31
0.0
  0
SOLID
  5
9E33
330
993B
100
AcDbEntity
  8
寸法引出
100
AcDbTrace
 10
4230.668682555775
 20
1439.958115727429
 30
0.0
 11
4230.668682555775
 21
1434.958115727429
 31
0.0
 12
4215.668682555775
 22
1437.458115727429
 32
0.0
 13
4215.668682555775
 23
1437.458115727429
 33
0.0
  0
SOLID
  5
9E34
330
993B
100
AcDbEntity
  8
寸法引出
100
AcDbTrace
 10
4318.168682555774
 20
1439.958115727429
 30
0.0
 11
4318.168682555774
 21
1434.958115727429
 31
0.0
 12
4333.168682555775
 22
1437.458115727429
 32
0.0
 13
4333.168682555775
 23
1437.458115727429
 33
0.0
  0
MTEXT
  5
9E35
330
993B
100
AcDbEntity
  8
寸法引出
100
AcDbMText
 10
4274.418682555775
 20
1457.458115727429
 30
0.0
 40
20.0
 41
0.0
 71
     5
 72
     1
  1
\A1;117.5
  7
SANWA
 73
     1
 44
1.0
1001
ACAD
1000
MTEXTBEGIN
1070
    73
1070
     1
1070
    44
1040
1.0
1070
    74
1070
     0
1000
MTEXTEND
  0
POINT
  5
9E36
330
993B
100
AcDbEntity
  8
DEFPOINTS
 62
     0
100
AcDbPoint
 10
4215.668682555775
 20
1492.202336819424
 30
0.0
  0
POINT
  5
9E37
330
993B
100
AcDbEntity
  8
DEFPOINTS
 62
     0
100
AcDbPoint
 10
4333.168682555775
 20
1492.202336819424
 30
0.0
  0
POINT
  5
9E38
330
993B
100
AcDbEntity
  8
DEFPOINTS
 62
     0
100
AcDbPoint
 10
4333.168682555775
 20
1437.458115727429
 30
0.0
  0
ENDBLK
  5
9945
330
993B
100
AcDbEntity
  8
0
100
AcDbBlockEnd
  0
BLOCK
  5
9951
330
9946
100
AcDbEntity
  8
0
100
AcDbBlockBegin
  2
*D56
 70
     1
 10
0.0
 20
0.0
 30
0.0
  3
*D56
  1

  0
LINE
  5
9E39
330
9946
100
AcDbEntity
  8
寸法引出
370
    -2
100
AcDbLine
 10
4403.168682555773
 20
1602.202336819424
 30
0.0
 11
4465.676169279481
 21
1602.202336819424
 31
0.0
  0
LINE
  5
9E3A
330
9946
100
AcDbEntity
  8
寸法引出
370
    -2
100
AcDbLine
 10
4460.67616927948
 20
1549.202336819424
 30
0.0
 11
4460.67616927948
 21
1534.202336819424
 31
0.0
  0
LINE
  5
9E3B
330
9946
100
AcDbEntity
  8
寸法引出
370
    -2
100
AcDbLine
 10
4460.67616927948
 20
1617.202336819424
 30
0.0
 11
4460.67616927948
 21
1632.202336819424
 31
0.0
  0
LINE
  5
9E3C
330
9946
100
AcDbEntity
  8
寸法引出
370
    -2
100
AcDbLine
 10
4460.67616927948
 20
1564.202336819424
 30
0.0
 11
4460.67616927948
 21
1602.202336819424
 31
0.0
  0
SOLID
  5
9E3D
330
9946
100
AcDbEntity
  8
寸法引出
100
AcDbTrace
 10
4458.176169279481
 20
1549.202336819424
 30
0.0
 11
4463.17616927948
 21
1549.202336819424
 31
0.0
 12
4460.67616927948
 22
1564.202336819424
 32
0.0
 13
4460.67616927948
 23
1564.202336819424
 33
0.0
  0
SOLID
  5
9E3E
330
9946
100
AcDbEntity
  8
寸法引出
100
AcDbTrace
 10
4458.176169279481
 20
1617.202336819424
 30
0.0
 11
4463.17616927948
 21
1617.202336819424
 31
0.0
 12
4460.67616927948
 22
1602.202336819424
 32
0.0
 13
4460.67616927948
 23
1602.202336819424
 33
0.0
  0
MTEXT
  5
9E3F
330
9946
100
AcDbEntity
  8
寸法引出
100
AcDbMText
 10
4440.67616927948
 20
1583.202336819424
 30
0.0
 40
20.0
 41
0.0
 71
     5
 72
     1
  1
\A1;38
  7
SANWA
 11
0.0000000000000001
 21
1.0
 31
0.0
 73
     1
 44
1.0
1001
ACAD
1000
MTEXTBEGIN
1070
    73
1070
     1
1070
    44
1040
1.0
1070
    74
1070
     0
1000
MTEXTEND
  0
POINT
  5
9E40
330
9946
100
AcDbEntity
  8
DEFPOINTS
 62
     0
100
AcDbPoint
 10
4393.168682555773
 20
1564.202336819424
 30
0.0
  0
POINT
  5
9E41
330
9946
100
AcDbEntity
  8
DEFPOINTS
 62
     0
100
AcDbPoint
 10
4393.168682555773
 20
1602.202336819424
 30
0.0
  0
POINT
  5
9E42
330
9946
100
AcDbEntity
  8
DEFPOINTS
 62
     0
100
AcDbPoint
 10
4460.67616927948
 20
1602.202336819424
 30
0.0
  0
ENDBLK
  5
9952
330
9946
100
AcDbEntity
  8
0
100
AcDbBlockEnd
  0
BLOCK
  5
995C
330
9953
100
AcDbEntity
  8
0
100
AcDbBlockBegin
  2
*D57
 70
     1
 10
0.0
 20
0.0
 30
0.0
  3
*D57
  1

  0
LINE
  5
9E43
330
9953
100
AcDbEntity
  8
寸法引出
370
    -2
100
AcDbLine
 10
4393.168682555773
 20
1612.202336819424
 30
0.0
 11
4393.168682555773
 21
1671.977876837937
 31
0.0
  0
LINE
  5
9E44
330
9953
100
AcDbEntity
  8
寸法引出
370
    -2
100
AcDbLine
 10
4348.168682555775
 20
1666.977876837937
 30
0.0
 11
4378.168682555773
 21
1666.977876837937
 31
0.0
  0
SOLID
  5
9E45
330
9953
100
AcDbEntity
  8
寸法引出
100
AcDbTrace
 10
4348.168682555775
 20
1669.477876837937
 30
0.0
 11
4348.168682555775
 21
1664.477876837937
 31
0.0
 12
4333.168682555775
 22
1666.977876837937
 32
0.0
 13
4333.168682555775
 23
1666.977876837937
 33
0.0
  0
SOLID
  5
9E46
330
9953
100
AcDbEntity
  8
寸法引出
100
AcDbTrace
 10
4378.168682555773
 20
1669.477876837937
 30
0.0
 11
4378.168682555773
 21
1664.477876837937
 31
0.0
 12
4393.168682555773
 22
1666.977876837937
 32
0.0
 13
4393.168682555773
 23
1666.977876837937
 33
0.0
  0
MTEXT
  5
9E47
330
9953
100
AcDbEntity
  8
寸法引出
100
AcDbMText
 10
4363.168682555774
 20
1686.977876837937
 30
0.0
 40
20.0
 41
0.0
 71
     5
 72
     1
  1
\A1;60
  7
SANWA
 73
     1
 44
1.0
1001
ACAD
1000
MTEXTBEGIN
1070
    73
1070
     1
1070
    44
1040
1.0
1070
    74
1070
     0
1000
MTEXTEND
  0
POINT
  5
9E48
330
9953
100
AcDbEntity
  8
DEFPOINTS
 62
     0
100
AcDbPoint
 10
4333.168682555775
 20
1602.202336819424
 30
0.0
  0
POINT
  5
9E49
330
9953
100
AcDbEntity
  8
DEFPOINTS
 62
     0
100
AcDbPoint
 10
4393.168682555773
 20
1602.202336819424
 30
0.0
  0
POINT
  5
9E4A
330
9953
100
AcDbEntity
  8
DEFPOINTS
 62
     0
100
AcDbPoint
 10
4393.168682555773
 20
1666.977876837937
 30
0.0
  0
ENDBLK
  5
995D
330
9953
100
AcDbEntity
  8
0
100
AcDbBlockEnd
  0
BLOCK
  5
9968
330
995E
100
AcDbEntity
  8
0
100
AcDbBlockBegin
  2
*D58
 70
     1
 10
0.0
 20
0.0
 30
0.0
  3
*D58
  1

  0
LINE
  5
9E4B
330
995E
100
AcDbEntity
  8
寸法引出
370
    -2
100
AcDbLine
 10
4403.168682555773
 20
1602.202336819424
 30
0.0
 11
4511.859790578817
 21
1602.202336819424
 31
0.0
  0
LINE
  5
9E4C
330
995E
100
AcDbEntity
  8
寸法引出
370
    -2
100
AcDbLine
 10
4403.168682555773
 20
1492.202336819424
 30
0.0
 11
4511.859790578817
 21
1492.202336819424
 31
0.0
  0
LINE
  5
9E4D
330
995E
100
AcDbEntity
  8
寸法引出
370
    -2
100
AcDbLine
 10
4506.859790578817
 20
1587.202336819424
 30
0.0
 11
4506.859790578817
 21
1507.202336819424
 31
0.0
  0
SOLID
  5
9E4E
330
995E
100
AcDbEntity
  8
寸法引出
100
AcDbTrace
 10
4504.359790578817
 20
1587.202336819424
 30
0.0
 11
4509.359790578817
 21
1587.202336819424
 31
0.0
 12
4506.859790578817
 22
1602.202336819424
 32
0.0
 13
4506.859790578817
 23
1602.202336819424
 33
0.0
  0
SOLID
  5
9E4F
330
995E
100
AcDbEntity
  8
寸法引出
100
AcDbTrace
 10
4504.359790578817
 20
1507.202336819424
 30
0.0
 11
4509.359790578817
 21
1507.202336819424
 31
0.0
 12
4506.859790578817
 22
1492.202336819424
 32
0.0
 13
4506.859790578817
 23
1492.202336819424
 33
0.0
  0
MTEXT
  5
9E50
330
995E
100
AcDbEntity
  8
寸法引出
100
AcDbMText
 10
4486.859790578818
 20
1547.202336819425
 30
0.0
 40
20.0
 41
0.0
 71
     5
 72
     1
  1
\A1;110
  7
SANWA
 11
0.0000000000000001
 21
1.0
 31
0.0
 73
     1
 44
1.0
1001
ACAD
1000
MTEXTBEGIN
1070
    73
1070
     1
1070
    44
1040
1.0
1070
    74
1070
     0
1000
MTEXTEND
  0
POINT
  5
9E51
330
995E
100
AcDbEntity
  8
DEFPOINTS
 62
     0
100
AcDbPoint
 10
4393.168682555773
 20
1602.202336819424
 30
0.0
  0
POINT
  5
9E52
330
995E
100
AcDbEntity
  8
DEFPOINTS
 62
     0
100
AcDbPoint
 10
4393.168682555773
 20
1492.202336819424
 30
0.0
  0
POINT
  5
9E53
330
995E
100
AcDbEntity
  8
DEFPOINTS
 62
     0
100
AcDbPoint
 10
4506.859790578817
 20
1492.202336819424
 30
0.0
  0
ENDBLK
  5
9969
330
995E
100
AcDbEntity
  8
0
100
AcDbBlockEnd
  0
BLOCK
  5
9975
330
996A
100
AcDbEntity
  8
0
100
AcDbBlockBegin
  2
*D59
 70
     1
 10
0.0
 20
0.0
 30
0.0
  3
*D59
  1

  0
LINE
  5
9E54
330
996A
100
AcDbEntity
  8
寸法引出
370
    -2
100
AcDbLine
 10
4403.168682555773
 20
1564.202336819424
 30
0.0
 11
4465.676169279481
 21
1564.202336819424
 31
0.0
  0
LINE
  5
9E55
330
996A
100
AcDbEntity
  8
寸法引出
370
    -2
100
AcDbLine
 10
4460.67616927948
 20
1511.202336819424
 30
0.0
 11
4460.67616927948
 21
1496.202336819424
 31
0.0
  0
LINE
  5
9E56
330
996A
100
AcDbEntity
  8
寸法引出
370
    -2
100
AcDbLine
 10
4460.67616927948
 20
1579.202336819424
 30
0.0
 11
4460.67616927948
 21
1594.202336819424
 31
0.0
  0
LINE
  5
9E57
330
996A
100
AcDbEntity
  8
寸法引出
370
    -2
100
AcDbLine
 10
4460.67616927948
 20
1526.202336819424
 30
0.0
 11
4460.67616927948
 21
1564.202336819424
 31
0.0
  0
SOLID
  5
9E58
330
996A
100
AcDbEntity
  8
寸法引出
100
AcDbTrace
 10
4458.176169279481
 20
1511.202336819424
 30
0.0
 11
4463.17616927948
 21
1511.202336819424
 31
0.0
 12
4460.67616927948
 22
1526.202336819424
 32
0.0
 13
4460.67616927948
 23
1526.202336819424
 33
0.0
  0
SOLID
  5
9E59
330
996A
100
AcDbEntity
  8
寸法引出
100
AcDbTrace
 10
4458.176169279481
 20
1579.202336819424
 30
0.0
 11
4463.17616927948
 21
1579.202336819424
 31
0.0
 12
4460.67616927948
 22
1564.202336819424
 32
0.0
 13
4460.67616927948
 23
1564.202336819424
 33
0.0
  0
MTEXT
  5
9E5A
330
996A
100
AcDbEntity
  8
寸法引出
100
AcDbMText
 10
4440.67616927948
 20
1545.202336819425
 30
0.0
 40
20.0
 41
0.0
 71
     5
 72
     1
  1
\A1;38
  7
SANWA
 11
0.0000000000000001
 21
1.0
 31
0.0
 73
     1
 44
1.0
1001
ACAD
1000
MTEXTBEGIN
1070
    73
1070
     1
1070
    44
1040
1.0
1070
    74
1070
     0
1000
MTEXTEND
  0
POINT
  5
9E5B
330
996A
100
AcDbEntity
  8
DEFPOINTS
 62
     0
100
AcDbPoint
 10
4393.168682555773
 20
1526.202336819424
 30
0.0
  0
POINT
  5
9E5C
330
996A
100
AcDbEntity
  8
DEFPOINTS
 62
     0
100
AcDbPoint
 10
4393.168682555773
 20
1564.202336819424
 30
0.0
  0
POINT
  5
9E5D
330
996A
100
AcDbEntity
  8
DEFPOINTS
 62
     0
100
AcDbPoint
 10
4460.67616927948
 20
1564.202336819424
 30
0.0
  0
ENDBLK
  5
9976
330
996A
100
AcDbEntity
  8
0
100
AcDbBlockEnd
  0
BLOCK
  5
9983
330
9977
100
AcDbEntity
  8
0
100
AcDbBlockBegin
  2
*D60
 70
     1
 10
0.0
 20
0.0
 30
0.0
  3
*D60
  1

  0
LINE
  5
9E5E
330
9977
100
AcDbEntity
  8
寸法引出
370
    -2
100
AcDbLine
 10
4403.168682555773
 20
1492.202336819424
 30
0.0
 11
4465.676169279481
 21
1492.202336819424
 31
0.0
  0
LINE
  5
9E5F
330
9977
100
AcDbEntity
  8
寸法引出
370
    -2
100
AcDbLine
 10
4403.168682555773
 20
1526.202336819424
 30
0.0
 11
4465.676169279481
 21
1526.202336819424
 31
0.0
  0
LINE
  5
9E60
330
9977
100
AcDbEntity
  8
寸法引出
370
    -2
100
AcDbLine
 10
4460.67616927948
 20
1477.202336819424
 30
0.0
 11
4460.67616927948
 21
1462.202336819424
 31
0.0
  0
LINE
  5
9E61
330
9977
100
AcDbEntity
  8
寸法引出
370
    -2
100
AcDbLine
 10
4460.67616927948
 20
1541.202336819424
 30
0.0
 11
4460.67616927948
 21
1556.202336819424
 31
0.0
  0
LINE
  5
9E62
330
9977
100
AcDbEntity
  8
寸法引出
370
    -2
100
AcDbLine
 10
4460.67616927948
 20
1492.202336819424
 30
0.0
 11
4460.67616927948
 21
1526.202336819424
 31
0.0
  0
SOLID
  5
9E63
330
9977
100
AcDbEntity
  8
寸法引出
100
AcDbTrace
 10
4458.176169279481
 20
1477.202336819424
 30
0.0
 11
4463.17616927948
 21
1477.202336819424
 31
0.0
 12
4460.67616927948
 22
1492.202336819424
 32
0.0
 13
4460.67616927948
 23
1492.202336819424
 33
0.0
  0
SOLID
  5
9E64
330
9977
100
AcDbEntity
  8
寸法引出
100
AcDbTrace
 10
4458.176169279481
 20
1541.202336819424
 30
0.0
 11
4463.17616927948
 21
1541.202336819424
 31
0.0
 12
4460.67616927948
 22
1526.202336819424
 32
0.0
 13
4460.67616927948
 23
1526.202336819424
 33
0.0
  0
MTEXT
  5
9E65
330
9977
100
AcDbEntity
  8
寸法引出
100
AcDbMText
 10
4440.67616927948
 20
1509.202336819425
 30
0.0
 40
20.0
 41
0.0
 71
     5
 72
     1
  1
\A1;34
  7
SANWA
 11
0.0000000000000001
 21
1.0
 31
0.0
 73
     1
 44
1.0
1001
ACAD
1000
MTEXTBEGIN
1070
    73
1070
     1
1070
    44
1040
1.0
1070
    74
1070
     0
1000
MTEXTEND
  0
POINT
  5
9E66
330
9977
100
AcDbEntity
  8
DEFPOINTS
 62
     0
100
AcDbPoint
 10
4393.168682555773
 20
1492.202336819424
 30
0.0
  0
POINT
  5
9E67
330
9977
100
AcDbEntity
  8
DEFPOINTS
 62
     0
100
AcDbPoint
 10
4393.168682555773
 20
1526.202336819424
 30
0.0
  0
POINT
  5
9E68
330
9977
100
AcDbEntity
  8
DEFPOINTS
 62
     0
100
AcDbPoint
 10
4460.67616927948
 20
1526.202336819424
 30
0.0
  0
ENDBLK
  5
9984
330
9977
100
AcDbEntity
  8
0
100
AcDbBlockEnd
  0
BLOCK
  5
998E
330
9985
100
AcDbEntity
  8
0
100
AcDbBlockBegin
  2
*D61
 70
     1
 10
0.0
 20
0.0
 30
0.0
  3
*D61
  1

  0
LINE
  5
9E69
330
9985
100
AcDbEntity
  8
寸法引出
370
    -2
100
AcDbLine
 10
4393.168682555773
 20
1482.202336819424
 30
0.0
 11
4393.168682555773
 21
1432.458115727429
 31
0.0
  0
LINE
  5
9E6A
330
9985
100
AcDbEntity
  8
寸法引出
370
    -2
100
AcDbLine
 10
4348.168682555774
 20
1437.458115727429
 30
0.0
 11
4378.168682555773
 21
1437.458115727429
 31
0.0
  0
SOLID
  5
9E6B
330
9985
100
AcDbEntity
  8
寸法引出
100
AcDbTrace
 10
4348.168682555774
 20
1439.958115727429
 30
0.0
 11
4348.168682555774
 21
1434.958115727429
 31
0.0
 12
4333.168682555775
 22
1437.458115727429
 32
0.0
 13
4333.168682555775
 23
1437.458115727429
 33
0.0
  0
SOLID
  5
9E6C
330
9985
100
AcDbEntity
  8
寸法引出
100
AcDbTrace
 10
4378.168682555773
 20
1439.958115727429
 30
0.0
 11
4378.168682555773
 21
1434.958115727429
 31
0.0
 12
4393.168682555773
 22
1437.458115727429
 32
0.0
 13
4393.168682555773
 23
1437.458115727429
 33
0.0
  0
MTEXT
  5
9E6D
330
9985
100
AcDbEntity
  8
寸法引出
100
AcDbMText
 10
4363.168682555773
 20
1457.458115727429
 30
0.0
 40
20.0
 41
0.0
 71
     5
 72
     1
  1
\A1;60
  7
SANWA
 73
     1
 44
1.0
1001
ACAD
1000
MTEXTBEGIN
1070
    73
1070
     1
1070
    44
1040
1.0
1070
    74
1070
     0
1000
MTEXTEND
  0
POINT
  5
9E6E
330
9985
100
AcDbEntity
  8
DEFPOINTS
 62
     0
100
AcDbPoint
 10
4333.168682555775
 20
1492.202336819424
 30
0.0
  0
POINT
  5
9E6F
330
9985
100
AcDbEntity
  8
DEFPOINTS
 62
     0
100
AcDbPoint
 10
4393.168682555773
 20
1492.202336819424
 30
0.0
  0
POINT
  5
9E70
330
9985
100
AcDbEntity
  8
DEFPOINTS
 62
     0
100
AcDbPoint
 10
4393.168682555773
 20
1437.458115727429
 30
0.0
  0
ENDBLK
  5
998F
330
9985
100
AcDbEntity
  8
0
100
AcDbBlockEnd
  0
BLOCK
  5
9999
330
9990
100
AcDbEntity
  8
0
100
AcDbBlockBegin
  2
*D62
 70
     1
 10
0.0
 20
0.0
 30
0.0
  3
*D62
  1

  0
LINE
  5
9E71
330
9990
100
AcDbEntity
  8
寸法引出
370
    -2
100
AcDbLine
 10
5697.477132350454
 20
1482.202336819424
 30
0.0
 11
5697.477132350454
 21
1391.204594089814
 31
0.0
  0
LINE
  5
9E72
330
9990
100
AcDbEntity
  8
寸法引出
370
    -2
100
AcDbLine
 10
5652.477132350454
 20
1396.204594089814
 30
0.0
 11
5682.477132350453
 21
1396.204594089814
 31
0.0
  0
SOLID
  5
9E73
330
9990
100
AcDbEntity
  8
寸法引出
100
AcDbTrace
 10
5652.477132350454
 20
1398.704594089814
 30
0.0
 11
5652.477132350454
 21
1393.704594089814
 31
0.0
 12
5637.477132350454
 22
1396.204594089814
 32
0.0
 13
5637.477132350454
 23
1396.204594089814
 33
0.0
  0
SOLID
  5
9E74
330
9990
100
AcDbEntity
  8
寸法引出
100
AcDbTrace
 10
5682.477132350453
 20
1398.704594089814
 30
0.0
 11
5682.477132350453
 21
1393.704594089814
 31
0.0
 12
5697.477132350454
 22
1396.204594089814
 32
0.0
 13
5697.477132350454
 23
1396.204594089814
 33
0.0
  0
MTEXT
  5
9E75
330
9990
100
AcDbEntity
  8
寸法引出
100
AcDbMText
 10
5667.477132350454
 20
1416.204594089814
 30
0.0
 40
20.0
 41
0.0
 71
     5
 72
     1
  1
\A1;60
  7
SANWA
 73
     1
 44
1.0
1001
ACAD
1000
MTEXTBEGIN
1070
    73
1070
     1
1070
    44
1040
1.0
1070
    74
1070
     0
1000
MTEXTEND
  0
POINT
  5
9E76
330
9990
100
AcDbEntity
  8
DEFPOINTS
 62
     0
100
AcDbPoint
 10
5637.477132350454
 20
1492.202336819424
 30
0.0
  0
POINT
  5
9E77
330
9990
100
AcDbEntity
  8
DEFPOINTS
 62
     0
100
AcDbPoint
 10
5697.477132350454
 20
1492.202336819424
 30
0.0
  0
POINT
  5
9E78
330
9990
100
AcDbEntity
  8
DEFPOINTS
 62
     0
100
AcDbPoint
 10
5697.477132350454
 20
1396.204594089814
 30
0.0
  0
ENDBLK
  5
999A
330
9990
100
AcDbEntity
  8
0
100
AcDbBlockEnd
  0
ENDSEC
  0
SECTION
  2
ENTITIES
  0
DIMENSION
  5
94C1
330
747D
100
AcDbEntity
  8
寸法引出
100
AcDbDimension
  2
*D1
 10
1190.889054283536
 20
175.7766558088333
 30
0.0
 11
930.8890542835365
 21
195.7766558088333
 31
0.0
 70
    32
 71
     5
 42
520.0
  3
SANWA
100
AcDbAlignedDimension
 13
670.8890542835365
 23
257.4581496048988
 33
0.0
 14
1190.889054283536
 24
257.4581496048988
 34
0.0
100
AcDbRotatedDimension
1001
ACAD
1000
DSTYLE
1002
{
1070
   140
1040
2.0
1070
    40
1040
10.0
1070
   147
1040
1.0
1070
    44
1040
0.5
1070
    43
1040
5.0
1070
   178
1070
   256
1070
   177
1070
   256
1070
   176
1070
   256
1070
    41
1040
1.5
1002
}
  0
DIMENSION
  5
94C2
330
747D
100
AcDbEntity
  8
寸法引出
100
AcDbDimension
  2
*D2
 10
1190.889054283536
 20
1377.48242064203
 30
0.0
 11
1064.639054283536
 21
1397.48242064203
 31
0.0
 70
    32
 71
     5
 42
252.5
  3
SANWA
100
AcDbAlignedDimension
 13
938.3890542835365
 23
1257.458149604899
 33
0.0
 14
1190.889054283536
 24
1257.458149604899
 34
0.0
100
AcDbRotatedDimension
1001
ACAD
1000
DSTYLE
1002
{
1070
    40
1040
10.0
1070
    41
1040
1.5
1070
    43
1040
5.0
1070
    44
1040
0.5
1070
    75
1070
     1
1070
   140
1040
2.0
1070
   147
1040
1.0
1070
   176
1070
   256
1070
   177
1070
   256
1070
   178
1070
   256
1070
   279
1070
     1
1002
}
  0
DIMENSION
  5
94C3
330
747D
100
AcDbEntity
  8
寸法引出
100
AcDbDimension
  2
*D3
 10
1160.889054283536
 20
1337.331675281369
 30
0.0
 11
1045.889054283536
 21
1357.331675281369
 31
0.0
 70
    32
 71
     5
 42
230.0
  3
SANWA
100
AcDbAlignedDimension
 13
930.8890542835365
 23
1307.458149604899
 33
0.0
 14
1160.889054283536
 24
1257.458149604899
 34
0.0
100
AcDbRotatedDimension
1001
ACAD
1000
DSTYLE
1002
{
1070
    40
1040
10.0
1070
    41
1040
1.5
1070
    43
1040
5.0
1070
    44
1040
0.5
1070
    75
1070
     1
1070
   140
1040
2.0
1070
   147
1040
1.0
1070
   176
1070
   256
1070
   177
1070
   256
1070
   178
1070
   256
1070
   279
1070
     1
1002
}
  0
DIMENSION
  5
94C4
330
747D
100
AcDbEntity
  8
寸法引出
100
AcDbDimension
  2
*D4
 10
1190.889054283536
 20
1739.167952772057
 30
0.0
 11
930.8890542835365
 21
1759.167952772057
 31
0.0
 70
    32
 71
     5
 42
520.0
  3
SANWA
100
AcDbAlignedDimension
 13
670.8890542835365
 23
1657.096612738228
 33
0.0
 14
1190.889054283536
 24
1657.096612738228
 34
0.0
100
AcDbRotatedDimension
1001
ACAD
1000
DSTYLE
1002
{
1070
   140
1040
2.0
1070
    40
1040
10.0
1070
   147
1040
1.0
1070
    44
1040
0.5
1070
    43
1040
5.0
1070
   178
1070
   256
1070
   177
1070
   256
1070
   176
1070
   256
1070
    41
1040
1.5
1002
}
  0
DIMENSION
  5
94C5
330
747D
100
AcDbEntity
  8
寸法引出
100
AcDbDimension
  2
*D5
 10
1190.889054283536
 20
1702.939638423487
 30
0.0
 11
1064.639054283536
 21
1722.939638423487
 31
0.0
 70
    32
 71
     5
 42
252.5
  3
SANWA
100
AcDbAlignedDimension
 13
938.3890542835365
 23
1657.096612738228
 33
0.0
 14
1190.889054283536
 24
1657.096612738228
 34
0.0
100
AcDbRotatedDimension
1001
ACAD
1000
DSTYLE
1002
{
1070
   140
1040
2.0
1070
    40
1040
10.0
1070
   147
1040
1.0
1070
    44
1040
0.5
1070
    43
1040
5.0
1070
   178
1070
   256
1070
   177
1070
   256
1070
   176
1070
   256
1070
    41
1040
1.5
1002
}
  0
DIMENSION
  5
94C6
330
747D
100
AcDbEntity
  8
寸法引出
100
AcDbDimension
  2
*D6
 10
1190.889054283536
 20
1465.847314227999
 30
0.0
 11
1068.389054283536
 21
1485.847314227999
 31
0.0
 70
    32
 71
     5
 42
245.0
  3
SANWA
100
AcDbAlignedDimension
 13
945.8890542835366
 23
1547.096612738228
 33
0.0
 14
1190.889054283536
 24
1547.096612738228
 34
0.0
100
AcDbRotatedDimension
1001
ACAD
1000
DSTYLE
1002
{
1070
   140
1040
2.0
1070
    40
1040
10.0
1070
   147
1040
1.0
1070
    44
1040
0.5
1070
    43
1040
5.0
1070
   178
1070
   256
1070
   177
1070
   256
1070
   176
1070
   256
1070
    41
1040
1.5
1002
}
  0
LINE
  5
94C7
330
747D
100
AcDbEntity
  8
0
100
AcDbLine
 10
938.3890542835365
 20
1657.096612738228
 30
0.0
 11
1190.889054283536
 21
1657.096612738228
 31
0.0
  0
LINE
  5
94C8
330
747D
100
AcDbEntity
  8
0
100
AcDbLine
 10
938.3890542835365
 20
1657.096612738228
 30
0.0
 11
1190.889054283536
 21
1657.096612738228
 31
0.0
  0
LINE
  5
94C9
330
747D
100
AcDbEntity
  8
0
100
AcDbLine
 10
1190.889054283536
 20
1547.096612738228
 30
0.0
 11
945.8890542835366
 21
1547.096612738228
 31
0.0
  0
LINE
  5
94CA
330
747D
100
AcDbEntity
  8
0
100
AcDbLine
 10
938.3890542835365
 20
1257.458149604899
 30
0.0
 11
1190.889054283536
 21
1257.458149604899
 31
0.0
  0
LINE
  5
94CB
330
747D
100
AcDbEntity
  8
0
100
AcDbLine
 10
1190.889054283536
 20
257.4581496048988
 30
0.0
 11
938.3890542835365
 21
257.4581496048987
 31
0.0
  0
LINE
  5
94CC
330
747D
100
AcDbEntity
  8
枠
100
AcDbLine
 10
249.9999920191767
 20
100.0000033175157
 30
0.0
 11
2869.999992019177
 21
100.000003317516
 31
0.0
  0
LINE
  5
94CD
330
747D
100
AcDbEntity
  8
枠
100
AcDbLine
 10
249.9999920191767
 20
2000.000003317515
 30
0.0
 11
2869.999992019177
 21
2000.000003317515
 31
0.0
  0
DIMENSION
  5
94CE
330
747D
100
AcDbEntity
  8
寸法引出
100
AcDbDimension
  2
*D7
 10
576.5268671183076
 20
377.4581496048989
 30
0.0
 11
556.5268671183074
 21
757.458149604899
 31
0.0
 70
    32
 71
     5
 42
760.0
  3
SANWA
100
AcDbAlignedDimension
 13
670.8890542835365
 23
1137.458149604898
 33
0.0
 14
670.8890542835365
 24
377.4581496048988
 34
0.0
 50
90.0
100
AcDbRotatedDimension
1001
ACAD
1000
DSTYLE
1002
{
1070
   140
1040
2.0
1070
    40
1040
10.0
1070
   147
1040
1.0
1070
    44
1040
0.5
1070
    43
1040
5.0
1070
   178
1070
   256
1070
   177
1070
   256
1070
   176
1070
   256
1070
    41
1040
1.5
1002
}
  0
LINE
  5
94CF
330
747D
100
AcDbEntity
  8
0
  6
CENTER2
 48
10.0
100
AcDbLine
 10
930.8890542835365
 20
1307.458149604899
 30
0.0
 11
930.8890542835365
 21
231.4868311971579
 31
0.0
  0
LINE
  5
94D0
330
747D
100
AcDbEntity
  8
0
100
AcDbLine
 10
938.3890542835365
 20
1257.458149604899
 30
0.0
 11
938.3890542835365
 21
257.4581496048988
 31
0.0
  0
LINE
  5
94D1
330
747D
100
AcDbEntity
  8
0
100
AcDbLine
 10
923.3890542835366
 20
257.4581496048988
 30
0.0
 11
923.3890542835366
 21
1257.458149604899
 31
0.0
  0
LINE
  5
94D2
330
747D
100
AcDbEntity
  8
0
100
AcDbLine
 10
670.8890542835365
 20
257.4581496048988
 30
0.0
 11
670.8890542835365
 21
1257.458149604899
 31
0.0
  0
LINE
  5
94D3
330
747D
100
AcDbEntity
  8
枠
100
AcDbLine
 10
249.9999920191767
 20
100.0000033175147
 30
0.0
 11
249.9999920191767
 21
2000.000003317515
 31
0.0
  0
LINE
  5
94D4
330
747D
100
AcDbEntity
  8
0
100
AcDbLine
 10
249.9999920191767
 20
0.0000033175147109
 30
0.0
 11
-0.000007980823284
 21
0.0000033175147109
 31
0.0
  0
LINE
  5
94D5
330
747D
100
AcDbEntity
  8
0
100
AcDbLine
 10
-0.000007980823284
 20
0.0000033175147109
 30
0.0
 11
-0.000007980823284
 21
100.0000033175147
 31
0.0
  0
DIMENSION
  5
94D6
330
747D
100
AcDbEntity
  8
寸法引出
100
AcDbDimension
  2
*D8
 10
576.5268671183076
 20
257.4581496048989
 30
0.0
 11
556.5268671183074
 21
317.458149604899
 31
0.0
 70
    32
 71
     5
 42
120.0
  3
SANWA
100
AcDbAlignedDimension
 13
670.8890542835365
 23
377.4581496048988
 33
0.0
 14
670.8890542835365
 24
257.4581496048988
 34
0.0
 50
90.0
100
AcDbRotatedDimension
1001
ACAD
1000
DSTYLE
1002
{
1070
   140
1040
2.0
1070
    40
1040
10.0
1070
   147
1040
1.0
1070
    44
1040
0.5
1070
    43
1040
5.0
1070
   178
1070
   256
1070
   177
1070
   256
1070
   176
1070
   256
1070
    41
1040
1.5
1002
}
  0
LINE
  5
94D7
330
747D
100
AcDbEntity
  8
0
100
AcDbLine
 10
700.8890542835366
 20
395.4581496048988
 30
0.0
 11
700.8890542835366
 21
359.4581496048988
 31
0.0
  0
LINE
  5
94D8
330
747D
100
AcDbEntity
  8
0
100
AcDbLine
 10
923.3890542835366
 20
257.4581496048987
 30
0.0
 11
670.8890542835365
 21
257.4581496048988
 31
0.0
  0
CIRCLE
  5
94D9
330
747D
100
AcDbEntity
  8
0
100
AcDbCircle
 10
700.8890542835366
 20
377.4581496048988
 30
0.0
 40
8.0
  0
LINE
  5
94DA
330
747D
100
AcDbEntity
  8
0
100
AcDbLine
 10
682.8890542835365
 20
377.4581496048988
 30
0.0
 11
718.8890542835365
 21
377.4581496048988
 31
0.0
  0
LINE
  5
94DB
330
747D
100
AcDbEntity
  8
0
100
AcDbLine
 10
-0.000007980823284
 20
2100.000003317515
 30
0.0
 11
249.9999920191767
 21
2100.000003317515
 31
0.0
  0
LINE
  5
94DC
330
747D
100
AcDbEntity
  8
0
100
AcDbLine
 10
-0.000007980823284
 20
2000.000003317515
 30
0.0
 11
-0.000007980823284
 21
2100.000003317515
 31
0.0
  0
TEXT
  5
94DD
330
747D
100
AcDbEntity
  8
寸法引出
100
AcDbText
 10
500.7188011556003
 20
1311.042128795649
 30
0.0
 40
15.0
  1
インサート
  7
SANWA
100
AcDbText
  0
LWPOLYLINE
  5
94DE
330
747D
100
AcDbEntity
  8
寸法引出
100
AcDbPolyline
 90
        3
 70
     0
 43
0.0
 10
687.7751113742435
 20
1155.394449598944
 10
607.5942184808809
 20
1304.289127811143
 10
502.7299743399578
 20
1304.289127811143
1001
ACAD
1000
DSTYLE
1002
{
1070
   140
1040
2.0
1070
    40
1040
10.0
1070
   147
1040
1.0
1070
    44
1040
0.5
1070
    43
1040
5.0
1070
   178
1070
   256
1070
   177
1070
   256
1070
   176
1070
   256
1070
    41
1040
1.5
1002
}
  0
TEXT
  5
94DF
330
747D
100
AcDbEntity
  8
寸法引出
100
AcDbText
 10
500.7188011556003
 20
1334.97389153362
 30
0.0
 40
15.0
  1
ロックピン用
  7
SANWA
100
AcDbText
  0
DIMENSION
  5
94E0
330
747D
100
AcDbEntity
  8
寸法引出
100
AcDbDimension
  2
*D9
 10
576.5268671183076
 20
1257.458149604899
 30
0.0
 11
556.5268671183074
 21
1197.458149604899
 31
0.0
 70
    32
 71
     5
 42
120.0
  3
SANWA
100
AcDbAlignedDimension
 13
670.8890542835365
 23
1137.458149604898
 33
0.0
 14
670.8890542835365
 24
1257.458149604899
 34
0.0
 50
90.0
100
AcDbRotatedDimension
1001
ACAD
1000
DSTYLE
1002
{
1070
   140
1040
2.0
1070
    40
1040
10.0
1070
   147
1040
1.0
1070
    44
1040
0.5
1070
    43
1040
5.0
1070
   178
1070
   256
1070
   177
1070
   256
1070
   176
1070
   256
1070
    41
1040
1.5
1002
}
  0
DIMENSION
  5
94E1
330
747D
100
AcDbEntity
  8
寸法引出
100
AcDbDimension
  2
*D10
 10
923.3890542835366
 20
1377.48242064203
 30
0.0
 11
797.1390542835365
 21
1397.48242064203
 31
0.0
 70
    32
 71
     5
 42
252.5
  3
SANWA
100
AcDbAlignedDimension
 13
670.8890542835365
 23
1257.458149604899
 33
0.0
 14
923.3890542835366
 24
1257.458149604899
 34
0.0
100
AcDbRotatedDimension
1001
ACAD
1000
DSTYLE
1002
{
1070
   140
1040
2.0
1070
    40
1040
10.0
1070
   147
1040
1.0
1070
    44
1040
0.5
1070
    43
1040
5.0
1070
   178
1070
   256
1070
   177
1070
   256
1070
   176
1070
   256
1070
    41
1040
1.5
1002
}
  0
DIMENSION
  5
94E2
330
747D
100
AcDbEntity
  8
寸法引出
100
AcDbDimension
  2
*D11
 10
930.8890542835365
 20
1337.331675281369
 30
0.0
 11
815.8890542835365
 21
1357.331675281369
 31
0.0
 70
    32
 71
     5
 42
230.0
  3
SANWA
100
AcDbAlignedDimension
 13
700.8890542835366
 23
1257.458149604899
 33
0.0
 14
930.8890542835365
 24
1307.458149604899
 34
0.0
100
AcDbRotatedDimension
1001
ACAD
1000
DSTYLE
1002
{
1070
   140
1040
2.0
1070
    40
1040
10.0
1070
   147
1040
1.0
1070
    44
1040
0.5
1070
    43
1040
5.0
1070
   178
1070
   256
1070
   177
1070
   256
1070
   176
1070
   256
1070
    41
1040
1.5
1002
}
  0
LINE
  5
94E3
330
747D
100
AcDbEntity
  8
0
100
AcDbLine
 10
670.8890542835365
 20
1257.458149604899
 30
0.0
 11
923.3890542835366
 21
1257.458149604899
 31
0.0
  0
CIRCLE
  5
94E4
330
747D
100
AcDbEntity
  8
0
100
AcDbCircle
 10
700.8890542835366
 20
1137.458149604898
 30
0.0
 40
8.0
  0
LINE
  5
94E5
330
747D
100
AcDbEntity
  8
0
100
AcDbLine
 10
682.8890542835365
 20
1137.458149604898
 30
0.0
 11
718.8890542835365
 21
1137.458149604898
 31
0.0
  0
SOLID
  5
94E6
330
747D
100
AcDbEntity
  8
寸法引出
100
AcDbTrace
 10
690.0346441682594
 20
1156.464268066147
 30
0.0
 11
694.1940221774572
 21
1141.837252834849
 31
0.0
 12
685.5155785802278
 22
1154.324631131742
 32
0.0
 13
685.5155785802278
 23
1154.324631131742
 33
0.0
1001
ACAD
1000
DSTYLE
1002
{
1070
   140
1040
2.0
1070
    40
1040
10.0
1070
   147
1040
1.0
1070
    44
1040
0.5
1070
    43
1040
5.0
1070
   178
1070
   256
1070
   177
1070
   256
1070
   176
1070
   256
1070
    41
1040
1.5
1002
}
  0
LINE
  5
94E7
330
747D
100
AcDbEntity
  8
0
100
AcDbLine
 10
700.8890542835366
 20
1119.458149604898
 30
0.0
 11
700.8890542835366
 21
1155.458149604899
 31
0.0
  0
DIMENSION
  5
94E8
330
747D
100
AcDbEntity
  8
寸法引出
100
AcDbDimension
  2
*D12
 10
700.8890542835366
 20
1337.331675281369
 30
0.0
 11
685.8890542835365
 21
1357.331675281369
 31
0.0
 70
    32
 71
     5
 42
30.0
  3
SANWA
100
AcDbAlignedDimension
 13
670.8890542835365
 23
1257.458149604899
 33
0.0
 14
700.8890542835366
 24
1257.458149604899
 34
0.0
100
AcDbRotatedDimension
1001
ACAD
1000
DSTYLE
1002
{
1070
   140
1040
2.0
1070
    40
1040
10.0
1070
   147
1040
1.0
1070
    44
1040
0.5
1070
    43
1040
5.0
1070
   178
1070
   256
1070
   177
1070
   256
1070
   176
1070
   256
1070
    41
1040
1.5
1002
}
  0
DIMENSION
  5
94E9
330
747D
100
AcDbEntity
  8
寸法引出
100
AcDbDimension
  2
*D13
 10
938.3890542835365
 20
1377.48242064203
 30
0.0
 11
930.8890542835365
 21
1397.48242064203
 31
0.0
 70
    32
 71
     5
 42
15.0
  3
SANWA
100
AcDbAlignedDimension
 13
923.3890542835366
 23
1257.458149604899
 33
0.0
 14
938.3890542835365
 24
1257.458149604899
 34
0.0
100
AcDbRotatedDimension
1001
ACAD
1000
DSTYLE
1002
{
1070
    40
1040
10.0
1070
    41
1040
1.5
1070
    43
1040
5.0
1070
    44
1040
0.5
1070
    75
1070
     1
1070
   140
1040
2.0
1070
   147
1040
1.0
1070
   176
1070
   256
1070
   177
1070
   256
1070
   178
1070
   256
1070
   279
1070
     1
1002
}
  0
DIMENSION
  5
94EA
330
747D
100
AcDbEntity
  8
寸法引出
100
AcDbDimension
  2
*D14
 10
670.8890542835365
 20
1465.847314227999
 30
0.0
 11
793.3890542835364
 21
1485.847314227999
 31
0.0
 70
    32
 71
     5
 42
244.9999999999998
  3
SANWA
100
AcDbAlignedDimension
 13
915.8890542835363
 23
1547.096612738228
 33
0.0
 14
670.8890542835365
 24
1547.096612738228
 34
0.0
100
AcDbRotatedDimension
1001
ACAD
1000
DSTYLE
1002
{
1070
   140
1040
2.0
1070
    40
1040
10.0
1070
   147
1040
1.0
1070
    44
1040
0.5
1070
    43
1040
5.0
1070
   178
1070
   256
1070
   177
1070
   256
1070
   176
1070
   256
1070
    41
1040
1.5
1002
}
  0
DIMENSION
  5
94EB
330
747D
100
AcDbEntity
  8
寸法引出
100
AcDbDimension
  2
*D15
 10
670.8890542835365
 20
1702.939638423487
 30
0.0
 11
797.1390542835365
 21
1722.939638423487
 31
0.0
 70
    32
 71
     5
 42
252.5
  3
SANWA
100
AcDbAlignedDimension
 13
923.3890542835366
 23
1657.096612738228
 33
0.0
 14
670.8890542835365
 24
1657.096612738228
 34
0.0
100
AcDbRotatedDimension
1001
ACAD
1000
DSTYLE
1002
{
1070
   140
1040
2.0
1070
    40
1040
10.0
1070
   147
1040
1.0
1070
    44
1040
0.5
1070
    43
1040
5.0
1070
   178
1070
   256
1070
   177
1070
   256
1070
   176
1070
   256
1070
    41
1040
1.5
1002
}
  0
LINE
  5
94EC
330
747D
100
AcDbEntity
  8
0
100
AcDbLine
 10
670.8890542835365
 20
1657.096612738228
 30
0.0
 11
923.3890542835366
 21
1657.096612738228
 31
0.0
  0
LINE
  5
94ED
330
747D
100
AcDbEntity
  8
0
100
AcDbLine
 10
915.8890542835365
 20
1547.096612738228
 30
0.0
 11
670.8890542835365
 21
1547.096612738228
 31
0.0
  0
LINE
  5
94EE
330
747D
100
AcDbEntity
  8
0
100
AcDbLine
 10
670.8890542835365
 20
1657.096612738228
 30
0.0
 11
923.3890542835366
 21
1657.096612738228
 31
0.0
  0
LINE
  5
94EF
330
747D
100
AcDbEntity
  8
0
100
AcDbLine
 10
670.8890542835365
 20
1547.096612738228
 30
0.0
 11
670.8890542835365
 21
1657.096612738228
 31
0.0
  0
DIMENSION
  5
94F0
330
747D
100
AcDbEntity
  8
寸法引出
100
AcDbDimension
  2
*D16
 10
700.8890542835366
 20
1502.591358997003
 30
0.0
 11
685.8890542835365
 21
1522.591358997003
 31
0.0
 70
    32
 71
     5
 42
30.0
  3
SANWA
100
AcDbAlignedDimension
 13
670.8890542835365
 23
1547.096612738228
 33
0.0
 14
700.8890542835366
 24
1547.096612738228
 34
0.0
100
AcDbRotatedDimension
1001
ACAD
1000
DSTYLE
1002
{
1070
   140
1040
2.0
1070
    40
1040
10.0
1070
   147
1040
1.0
1070
    44
1040
0.5
1070
    43
1040
5.0
1070
   178
1070
   256
1070
   177
1070
   256
1070
   176
1070
   256
1070
    41
1040
1.5
1002
}
  0
LINE
  5
94F1
330
747D
100
AcDbEntity
  8
0
  6
HIDDEN2
 48
5.0
100
AcDbLine
 10
705.8890542835363
 20
1574.096612738228
 30
0.0
 11
695.8890542835365
 21
1574.096612738228
 31
0.0
  0
LINE
  5
94F2
330
747D
100
AcDbEntity
  8
0
100
AcDbLine
 10
712.7802274804923
 20
1547.096612738228
 30
0.0
 11
688.9978810865807
 21
1547.096612738228
 31
0.0
  0
LINE
  5
94F3
330
747D
100
AcDbEntity
  8
0
  6
HIDDEN2
 48
5.0
100
AcDbLine
 10
695.8890542835365
 20
1547.096612738228
 30
0.0
 11
695.8890542835365
 21
1574.096612738228
 31
0.0
  0
LINE
  5
94F4
330
747D
100
AcDbEntity
  8
0
  6
HIDDEN2
 48
5.0
100
AcDbLine
 10
705.8890542835365
 20
1547.096612738228
 30
0.0
 11
705.8890542835363
 21
1574.096612738228
 31
0.0
  0
DIMENSION
  5
94F5
330
747D
100
AcDbEntity
  8
寸法引出
100
AcDbDimension
  2
*D17
 10
893.7188002777443
 20
1632.096612738228
 30
0.0
 11
873.7188002777442
 21
1644.596612738228
 31
0.0
 70
    32
 71
     5
 42
25.00000000000023
  3
SANWA
100
AcDbAlignedDimension
 13
923.3890542835366
 23
1657.096612738228
 33
0.0
 14
917.8890542835365
 24
1632.096612738228
 34
0.0
 50
90.0
100
AcDbRotatedDimension
1001
ACAD
1000
DSTYLE
1002
{
1070
   140
1040
2.0
1070
    40
1040
10.0
1070
   147
1040
1.0
1070
    44
1040
0.5
1070
    43
1040
5.0
1070
   178
1070
   256
1070
   177
1070
   256
1070
   176
1070
   256
1070
    41
1040
1.5
1002
}
  0
LINE
  5
94F6
330
747D
100
AcDbEntity
  8
0
100
AcDbLine
 10
943.8890542835364
 20
1632.096612738228
 30
0.0
 11
945.8890542835366
 21
1556.096612738228
 31
0.0
  0
LINE
  5
94F7
330
747D
100
AcDbEntity
  8
0
100
AcDbLine
 10
917.8890542835365
 20
1632.096612738228
 30
0.0
 11
915.8890542835365
 21
1556.096612738228
 31
0.0
  0
DIMENSION
  5
94F8
330
747D
100
AcDbEntity
  8
寸法引出
100
AcDbDimension
  2
*D18
 10
945.8890542835366
 20
1465.847314227999
 30
0.0
 11
930.8890542835364
 21
1485.847314227999
 31
0.0
 70
    32
 71
     5
 42
30.00000000000023
  3
SANWA
100
AcDbAlignedDimension
 13
915.8890542835363
 23
1547.096612738228
 33
0.0
 14
945.8890542835366
 24
1547.096612738228
 34
0.0
100
AcDbRotatedDimension
1001
ACAD
1000
DSTYLE
1002
{
1070
   140
1040
2.0
1070
    40
1040
10.0
1070
   147
1040
1.0
1070
    44
1040
0.5
1070
    43
1040
5.0
1070
   178
1070
   256
1070
   177
1070
   256
1070
   176
1070
   256
1070
    41
1040
1.5
1002
}
  0
DIMENSION
  5
94F9
330
747D
100
AcDbEntity
  8
寸法引出
100
AcDbDimension
  2
*D19
 10
893.7188002777443
 20
1547.096612738228
 30
0.0
 11
873.7188002777442
 21
1551.596612738228
 31
0.0
 70
    32
 71
     5
 42
9.0
  3
SANWA
100
AcDbAlignedDimension
 13
915.8890542835365
 23
1556.096612738228
 33
0.0
 14
915.8890542835363
 24
1547.096612738228
 34
0.0
 50
90.0
100
AcDbRotatedDimension
1001
ACAD
1000
DSTYLE
1002
{
1070
   140
1040
2.0
1070
    40
1040
10.0
1070
   147
1040
1.0
1070
    44
1040
0.5
1070
    43
1040
5.0
1070
   178
1070
   256
1070
   177
1070
   256
1070
   176
1070
   256
1070
    41
1040
1.5
1002
}
  0
LINE
  5
94FA
330
747D
100
AcDbEntity
  8
0
100
AcDbLine
 10
915.8890542835365
 20
1556.096612738228
 30
0.0
 11
945.8890542835366
 21
1556.096612738228
 31
0.0
  0
LINE
  5
94FB
330
747D
100
AcDbEntity
  8
0
100
AcDbLine
 10
945.8890542835366
 20
1556.096612738229
 30
0.0
 11
945.8890542835368
 21
1547.096612738228
 31
0.0
  0
LINE
  5
94FC
330
747D
100
AcDbEntity
  8
0
100
AcDbLine
 10
915.8890542835365
 20
1556.096612738229
 30
0.0
 11
915.8890542835363
 21
1547.096612738228
 31
0.0
  0
DIMENSION
  5
94FD
330
747D
100
AcDbEntity
  8
寸法引出
100
AcDbDimension
  2
*D20
 10
938.3890542835365
 20
1702.939638423487
 30
0.0
 11
930.8890542835365
 21
1722.939638423487
 31
0.0
 70
    32
 71
     5
 42
15.0
  3
SANWA
100
AcDbAlignedDimension
 13
923.3890542835366
 23
1657.096612738228
 33
0.0
 14
938.3890542835365
 24
1657.096612738228
 34
0.0
100
AcDbRotatedDimension
1001
ACAD
1000
DSTYLE
1002
{
1070
   140
1040
2.0
1070
    40
1040
10.0
1070
   147
1040
1.0
1070
    44
1040
0.5
1070
    43
1040
5.0
1070
   178
1070
   256
1070
   177
1070
   256
1070
   176
1070
   256
1070
    41
1040
1.5
1002
}
  0
LINE
  5
94FE
330
747D
100
AcDbEntity
  8
0
100
AcDbLine
 10
917.8890542835365
 20
1632.096612738228
 30
0.0
 11
943.8890542835364
 21
1632.096612738228
 31
0.0
  0
LINE
  5
94FF
330
747D
100
AcDbEntity
  8
0
100
AcDbLine
 10
923.3890542835366
 20
1657.096612738228
 30
0.0
 11
923.3890542835366
 21
1632.096612738228
 31
0.0
  0
LINE
  5
9500
330
747D
100
AcDbEntity
  8
0
100
AcDbLine
 10
938.3890542835365
 20
1657.096612738228
 30
0.0
 11
938.3890542835365
 21
1632.096612738228
 31
0.0
  0
DIMENSION
  5
9501
330
747D
100
AcDbEntity
  8
寸法引出
100
AcDbDimension
  2
*D21
 10
1281.104783732869
 20
257.4581496048988
 30
0.0
 11
1261.10478373287
 21
757.4581496048989
 31
0.0
 70
    32
 71
     5
 42
1000.0
  3
SANWA
100
AcDbAlignedDimension
 13
1190.889054283536
 23
1257.458149604899
 33
0.0
 14
1190.889054283536
 24
257.4581496048988
 34
0.0
 50
90.0
100
AcDbRotatedDimension
1001
ACAD
1000
DSTYLE
1002
{
1070
   140
1040
2.0
1070
    40
1040
10.0
1070
   147
1040
1.0
1070
    44
1040
0.5
1070
    43
1040
5.0
1070
   178
1070
   256
1070
   177
1070
   256
1070
   176
1070
   256
1070
    41
1040
1.5
1002
}
  0
LINE
  5
9502
330
747D
100
AcDbEntity
  8
0
100
AcDbLine
 10
1190.889054283536
 20
1257.458149604899
 30
0.0
 11
1190.889054283536
 21
257.4581496048988
 31
0.0
  0
LINE
  5
9503
330
747D
100
AcDbEntity
  8
枠
100
AcDbLine
 10
2869.999992019177
 20
100.0000033175147
 30
0.0
 11
2869.999992019177
 21
2000.000003317515
 31
0.0
  0
LINE
  5
9504
330
747D
100
AcDbEntity
  8
0
100
AcDbLine
 10
1160.889054283536
 20
395.4581496048988
 30
0.0
 11
1160.889054283536
 21
359.4581496048988
 31
0.0
  0
CIRCLE
  5
9505
330
747D
100
AcDbEntity
  8
0
100
AcDbCircle
 10
1160.889054283536
 20
377.4581496048988
 30
0.0
 40
8.0
  0
LINE
  5
9506
330
747D
100
AcDbEntity
  8
0
100
AcDbLine
 10
1178.889054283536
 20
377.4581496048988
 30
0.0
 11
1142.889054283536
 21
377.4581496048988
 31
0.0
  0
LINE
  5
9507
330
747D
100
AcDbEntity
  8
0
100
AcDbLine
 10
2969.999992019177
 20
100.0000033175147
 30
0.0
 11
2969.999992019177
 21
0.0000033175147109
 31
0.0
  0
LINE
  5
9508
330
747D
100
AcDbEntity
  8
0
100
AcDbLine
 10
2969.999992019177
 20
0.0000033175147109
 30
0.0
 11
2869.999992019177
 21
0.0000033175147109
 31
0.0
  0
TEXT
  5
9509
330
747D
100
AcDbEntity
  8
0
100
AcDbText
 10
2533.482058888475
 20
332.0000033175169
 30
0.0
 40
16.0
  1
マルチスリット側溝蓋
  7
SANWA
 72
     4
 11
2650.510630317046
 21
340.0000033175169
 31
0.0
100
AcDbText
  0
LINE
  5
950A
330
747D
100
AcDbEntity
  8
0
 62
     0
100
AcDbLine
 10
2399.021268614915
 20
244.0000033175169
 30
0.0
 11
2869.999992019177
 21
244.0000033175169
 31
0.0
  0
LINE
  5
950B
330
747D
100
AcDbEntity
  8
0
 62
     0
100
AcDbLine
 10
2399.021268614915
 20
308.0000033175169
 30
0.0
 11
2869.999992019177
 21
308.0000033175169
 31
0.0
  0
TEXT
  5
950C
330
747D
100
AcDbEntity
  8
0
100
AcDbText
 10
2510.938867627481
 20
129.2823624020917
 30
0.0
 40
16.0
  1
三和コンクリート工業株式会社
  7
SANWA
100
AcDbText
  0
LINE
  5
950D
330
747D
100
AcDbEntity
  8
0
100
AcDbLine
 10
2135.021268614915
 20
180.0000033175159
 30
0.0
 11
2869.999992019177
 21
180.000003317516
 31
0.0
  0
LINE
  5
950E
330
747D
100
AcDbEntity
  8
0
 62
     0
100
AcDbLine
 10
2135.021268614915
 20
372.0000033175169
 30
0.0
 11
2869.999992019177
 21
372.0000033175169
 31
0.0
  0
LINE
  5
950F
330
747D
100
AcDbEntity
  8
0
100
AcDbLine
 10
2431.021268614915
 20
180.0000033175159
 30
0.0
 11
2431.021268614915
 21
372.0000033175168
 31
0.0
  0
LINE
  5
9510
330
747D
100
AcDbEntity
  8
0
100
AcDbLine
 10
2399.021268614915
 20
100.0000033175159
 30
0.0
 11
2399.021268614915
 21
372.0000033175169
 31
0.0
  0
LINE
  5
9511
330
747D
100
AcDbEntity
  8
0
100
AcDbLine
 10
2135.021268614915
 20
372.0000033175169
 30
0.0
 11
2135.021268614915
 21
324.0000033175169
 31
0.0
  0
CIRCLE
  5
9512
102
{ACAD_REACTORS
330
9514
102
}
330
747D
100
AcDbEntity
  8
0
100
AcDbCircle
 10
2355.961172352992
 20
140.6051926932655
 30
0.0
 40
31.99008422903171
  0
CIRCLE
  5
9513
102
{ACAD_REACTORS
330
9514
102
}
330
747D
100
AcDbEntity
  8
0
100
AcDbCircle
 10
2355.961172352992
 20
140.6051926932655
 30
0.0
 40
30.39008422903171
  0
HATCH
  5
9514
330
747D
100
AcDbEntity
  8
0
100
AcDbHatch
 10
0.0
 20
0.0
 30
0.0
210
0.0
220
0.0
230
1.0
  2
SOLID
 70
     1
 71
     1
 91
        4
 92
        7
 72
     1
 73
     1
 93
        2
 10
2387.951256582024
 20
140.6051926932655
 42
1.0
 10
2323.97108812396
 20
140.6051926932655
 42
1.0
 97
        1
330
9512
 92
       22
 72
     1
 73
     1
 93
        2
 10
2386.351256582024
 20
140.6051926932655
 42
1.0
 10
2325.57108812396
 20
140.6051926932655
 42
1.0
 97
        1
330
9513
 92
      136
 93
        4
 72
     1
 10
2339.596595285421
 20
137.9626481900388
 11
2373.653738142563
 21
137.9626481900388
 72
     1
 10
2373.653738142563
 20
137.9626481900388
 11
2373.653738142563
 21
169.9169339043244
 72
     1
 10
2373.653738142563
 20
169.9169339043244
 11
2339.596595285421
 21
169.9169339043244
 72
     1
 10
2339.596595285421
 20
169.9169339043244
 11
2339.596595285421
 21
137.9626481900388
 97
        1
330
9545
 92
      136
 93
        4
 72
     1
 10
2339.540348243569
 20
116.3668693706465
 11
2372.957491100712
 21
116.3668693706465
 72
     1
 10
2372.957491100712
 20
116.3668693706465
 11
2372.957491100712
 21
146.4011550849323
 72
     1
 10
2372.957491100712
 20
146.4011550849323
 11
2339.540348243569
 21
146.4011550849323
 72
     1
 10
2339.540348243569
 20
146.4011550849323
 11
2339.540348243569
 21
116.3668693706465
 97
        1
330
9544
 75
     0
 76
     1
 47
0.0602706122334892
 98
        2
 10
2371.288029597197
 20
168.1046934271176
 10
2371.288029597197
 20
168.1046934271176
  0
LINE
  5
9515
330
747D
100
AcDbEntity
  8
0
 62
     0
100
AcDbLine
 10
2135.021268614915
 20
260.0000033175169
 30
0.0
 11
2399.021268614915
 21
260.0000033175169
 31
0.0
  0
LINE
  5
9516
330
747D
100
AcDbEntity
  8
0
 62
     0
100
AcDbLine
 10
2135.021268614915
 20
292.0000033175169
 30
0.0
 11
2399.021268614915
 21
292.0000033175169
 31
0.0
  0
LINE
  5
9517
330
747D
100
AcDbEntity
  8
0
 62
     0
100
AcDbLine
 10
2135.021268614915
 20
340.0000033175169
 30
0.0
 11
2399.021268614915
 21
340.0000033175169
 31
0.0
  0
LINE
  5
9518
330
747D
100
AcDbEntity
  8
0
 62
     0
100
AcDbLine
 10
2135.021268614915
 20
340.0000033175169
 30
0.0
 11
2399.021268614915
 21
340.0000033175169
 31
0.0
  0
LINE
  5
9519
330
747D
100
AcDbEntity
  8
0
 62
     0
100
AcDbLine
 10
2135.021268614915
 20
204.0000033175159
 30
0.0
 11
2399.021268614916
 21
204.0000033175159
 31
0.0
  0
TEXT
  5
951A
330
747D
100
AcDbEntity
  8
0
 48
2.0
100
AcDbText
 10
2246.050649236233
 20
184.7571484850453
 30
0.0
 40
16.0
  1
設計
  7
SANWA
100
AcDbText
  0
LINE
  5
951B
330
747D
100
AcDbEntity
  8
0
100
AcDbLine
 10
2311.021268614915
 20
100.0000033175159
 30
0.0
 11
2311.021268614915
 21
204.0000033175159
 31
0.0
  0
LINE
  5
951C
330
747D
100
AcDbEntity
  8
0
100
AcDbLine
 10
2223.021268614914
 20
100.0000033175159
 30
0.0
 11
2223.021268614914
 21
204.0000033175159
 31
0.0
  0
TEXT
  5
951D
330
747D
100
AcDbEntity
  8
0
 48
2.0
100
AcDbText
 10
2154.144111974598
 20
183.8478667279453
 30
0.0
 40
16.0
  1
検図
  7
SANWA
100
AcDbText
  0
LINE
  5
951E
330
747D
100
AcDbEntity
  8
0
100
AcDbLine
 10
2135.021268614915
 20
204.0000033175159
 30
0.0
 11
2135.021268614915
 21
180.0000033175159
 31
0.0
  0
LINE
  5
951F
330
747D
100
AcDbEntity
  8
0
100
AcDbLine
 10
2135.021268614915
 20
228.000003317516
 30
0.0
 11
2135.021268614915
 21
175.9567697906925
 31
0.0
  0
LINE
  5
9520
330
747D
100
AcDbEntity
  8
0
 62
     0
100
AcDbLine
 10
2135.021268614915
 20
228.000003317516
 30
0.0
 11
2135.021268614915
 21
100.0000033175159
 31
0.0
  0
CIRCLE
  5
9521
102
{ACAD_REACTORS
330
9523
102
}
330
747D
100
AcDbEntity
  8
0
100
AcDbCircle
 10
2178.593796912776
 20
140.6351078202729
 30
0.0
 40
31.99008422903171
  0
CIRCLE
  5
9522
102
{ACAD_REACTORS
330
9523
102
}
330
747D
100
AcDbEntity
  8
0
100
AcDbCircle
 10
2178.593796912776
 20
140.6351078202729
 30
0.0
 40
30.39008422903171
  0
HATCH
  5
9523
330
747D
100
AcDbEntity
  8
0
100
AcDbHatch
 10
0.0
 20
0.0
 30
0.0
210
0.0
220
0.0
230
1.0
  2
SOLID
 70
     1
 71
     1
 91
        2
 92
        7
 72
     1
 73
     1
 93
        2
 10
2210.583881141808
 20
140.6351078202729
 42
1.0
 10
2146.603712683745
 20
140.6351078202729
 42
1.0
 97
        1
330
9521
 92
       22
 72
     1
 73
     1
 93
        2
 10
2208.983881141808
 20
140.6351078202729
 42
1.0
 10
2148.203712683744
 20
140.6351078202729
 42
1.0
 97
        1
330
9522
 75
     0
 76
     1
 47
0.0602706122334892
 98
        2
 10
2193.920654156981
 20
168.1346085541249
 10
2193.920654156981
 20
168.1346085541249
  0
CIRCLE
  5
9524
102
{ACAD_REACTORS
330
9526
102
}
330
747D
100
AcDbEntity
  8
0
100
AcDbCircle
 10
2219.26697296325
 20
50.64097812280625
 30
0.0
 40
31.99008422903171
  0
CIRCLE
  5
9525
102
{ACAD_REACTORS
330
9526
102
}
330
747D
100
AcDbEntity
  8
0
100
AcDbCircle
 10
2219.26697296325
 20
50.64097812280625
 30
0.0
 40
30.39008422903171
  0
HATCH
  5
9526
330
747D
100
AcDbEntity
  8
0
100
AcDbHatch
 10
0.0
 20
0.0
 30
0.0
210
0.0
220
0.0
230
1.0
  2
SOLID
 70
     1
 71
     1
 91
        4
 92
        7
 72
     1
 73
     1
 93
        2
 10
2251.257057192281
 20
50.64097812280625
 42
1.0
 10
2187.276888734217
 20
50.64097812280625
 42
1.0
 97
        1
330
9524
 92
       22
 72
     1
 73
     1
 93
        2
 10
2249.657057192282
 20
50.64097812280625
 42
1.0
 10
2188.876888734218
 20
50.64097812280625
 42
1.0
 97
        1
330
9525
 92
      136
 93
        4
 72
     1
 10
2202.948110181392
 20
47.55062183694749
 11
2236.913824467106
 21
47.55062183694749
 72
     1
 10
2236.913824467106
 20
47.55062183694749
 11
2236.913824467106
 21
79.23062183694749
 72
     1
 10
2236.913824467106
 20
79.23062183694749
 11
2202.948110181392
 21
79.23062183694749
 72
     1
 10
2202.948110181392
 20
79.23062183694749
 11
2202.948110181392
 21
47.55062183694749
 97
        1
330
952C
 92
       24
 93
        4
 72
     1
 10
2203.074720282398
 20
23.77921538241522
 11
2236.034720282397
 21
23.77921538241522
 72
     1
 10
2236.034720282397
 20
23.77921538241522
 11
2236.034720282397
 21
52.44207252527235
 72
     1
 10
2236.034720282397
 20
52.44207252527235
 11
2203.074720282398
 21
52.44207252527235
 72
     1
 10
2203.074720282398
 20
52.44207252527235
 11
2203.074720282398
 21
23.77921538241522
 97
        1
330
952B
 75
     0
 76
     1
 47
0.0602706122334892
 98
        2
 10
2234.593830207455
 20
78.14047885665832
 10
2234.593830207455
 20
78.14047885665832
  0
TEXT
  5
9527
330
747D
100
AcDbEntity
  8
0
 48
2.0
100
AcDbText
 10
2167.178687089068
 20
120.1019286024539
 30
0.0
 40
16.0
  1
口
  7
SANWA
100
AcDbText
  0
TEXT
  5
9528
330
747D
100
AcDbEntity
  8
0
 48
2.0
100
AcDbText
 10
2167.554934130919
 20
142.7491359932746
 30
0.0
 40
16.0
  1
河
  7
SANWA
100
AcDbText
  0
TEXT
  5
9529
102
{ACAD_REACTORS
330
952F
102
}
330
747D
100
AcDbEntity
  8
0
 48
2.0
100
AcDbText
 10
2282.833162550176
 20
53.94579920343222
 30
0.0
 40
16.0
  1
大
  7
SANWA
100
AcDbText
  0
TEXT
  5
952A
102
{ACAD_REACTORS
330
952F
102
}
330
747D
100
AcDbEntity
  8
0
 48
2.0
100
AcDbText
 10
2282.456915508324
 20
31.29859181261145
 30
0.0
 40
16.0
  1
嶋
  7
SANWA
100
AcDbText
  0
TEXT
  5
952B
102
{ACAD_REACTORS
330
9526
102
}
330
747D
100
AcDbEntity
  8
0
 48
2.0
100
AcDbText
 10
2207.85186313954
 20
30.75064395384379
 30
0.0
 40
16.0
  1
田
  7
SANWA
100
AcDbText
  0
TEXT
  5
952C
102
{ACAD_REACTORS
330
9526
102
}
330
747D
100
AcDbEntity
  8
0
 48
2.0
100
AcDbText
 10
2208.228110181392
 20
55.11633612266177
 30
0.0
 40
16.0
  1
蒔
  7
SANWA
100
AcDbText
  0
CIRCLE
  5
952D
102
{ACAD_REACTORS
330
952F
102
}
330
747D
100
AcDbEntity
  8
0
100
AcDbCircle
 10
2293.872025332033
 20
48.61120084951608
 30
0.0
 40
30.39008422903171
  0
CIRCLE
  5
952E
102
{ACAD_REACTORS
330
952F
102
}
330
747D
100
AcDbEntity
  8
0
100
AcDbCircle
 10
2293.872025332033
 20
48.61120084951608
 30
0.0
 40
31.99008422903171
  0
HATCH
  5
952F
330
747D
100
AcDbEntity
  8
0
100
AcDbHatch
 10
0.0
 20
0.0
 30
0.0
210
0.0
220
0.0
230
1.0
  2
SOLID
 70
     1
 71
     1
 91
        4
 92
        7
 72
     1
 73
     1
 93
        2
 10
2325.862109561065
 20
48.61120084951608
 42
1.0
 10
2261.881941103002
 20
48.61120084951608
 42
1.0
 97
        1
330
952E
 92
       22
 72
     1
 73
     1
 93
        2
 10
2324.262109561065
 20
48.61120084951608
 42
1.0
 10
2263.481941103002
 20
48.61120084951608
 42
1.0
 97
        1
330
952D
 92
      136
 93
        4
 72
     1
 10
2277.75887683589
 20
47.40865634628935
 11
2311.313162550176
 21
47.40865634628935
 72
     1
 10
2311.313162550176
 20
47.40865634628935
 11
2311.313162550176
 21
77.85437063200365
 72
     1
 10
2311.313162550176
 20
77.85437063200365
 11
2277.75887683589
 21
77.85437063200365
 72
     1
 10
2277.75887683589
 20
77.85437063200365
 11
2277.75887683589
 21
47.40865634628935
 97
        1
330
9529
 92
      136
 93
        4
 72
     1
 10
2277.13120122261
 20
23.59573466975431
 11
2311.188344079753
 21
23.59573466975431
 72
     1
 10
2311.188344079753
 20
23.59573466975431
 11
2311.188344079753
 21
55.55002038404001
 72
     1
 10
2311.188344079753
 20
55.55002038404001
 11
2277.13120122261
 21
55.55002038404001
 72
     1
 10
2277.13120122261
 20
55.55002038404001
 11
2277.13120122261
 21
23.59573466975431
 97
        1
330
952A
 75
     0
 76
     1
 47
0.0602706122334892
 98
        2
 10
2309.198882576238
 20
76.11070158336815
 10
2309.198882576238
 20
76.11070158336815
  0
LINE
  5
9530
330
747D
100
AcDbEntity
  8
0
100
AcDbLine
 10
2135.021268614915
 20
266.7043817094475
 30
0.0
 11
2135.021268614915
 21
328.8467679455747
 31
0.0
  0
LINE
  5
9531
330
747D
100
AcDbEntity
  8
0
100
AcDbLine
 10
2135.021268614915
 20
244.0000033175169
 30
0.0
 11
2135.021268614915
 21
266.7043817094475
 31
0.0
  0
LINE
  5
9532
330
747D
100
AcDbEntity
  8
0
100
AcDbLine
 10
2135.021268614915
 20
204.0000033175159
 30
0.0
 11
2135.021268614915
 21
228.000003317516
 31
0.0
  0
LINE
  5
9533
330
747D
100
AcDbEntity
  8
0
 62
     0
100
AcDbLine
 10
2135.021268614915
 20
324.0000033175169
 30
0.0
 11
2135.021268614915
 21
228.000003317516
 31
0.0
  0
TEXT
  5
9534
330
747D
100
AcDbEntity
  8
0
 48
2.0
100
AcDbText
 10
2207.541700981594
 20
228.3902041824151
 30
0.0
 40
16.0
  1
１：１０
  7
SANWA
100
AcDbText
  0
TEXT
  5
9535
330
747D
100
AcDbEntity
  8
0
 48
2.0
100
AcDbText
 10
2231.680986552351
 20
308.3902041824151
 30
0.0
 40
16.0
  1
YN400
  7
SANWA
100
AcDbText
  0
TEXT
  5
9536
330
747D
100
AcDbEntity
  8
0
 48
2.0
100
AcDbText
 10
2217.639240792121
 20
265.5892797643249
 30
0.0
 40
16.0
  1
縮    尺
  7
SANWA
100
AcDbText
  0
TEXT
  5
9537
330
747D
100
AcDbEntity
  8
0
 48
2.0
100
AcDbText
 10
2261.559515293482
 20
348.4274644125784
 30
0.0
 40
16.0
  1
番号
  7
SANWA
100
AcDbText
  0
TEXT
  5
9538
330
747D
100
AcDbEntity
  8
0
 48
2.0
100
AcDbText
 10
2216.938233909346
 20
347.5181940940658
 30
0.0
 40
16.0
  1
図面
  7
SANWA
100
AcDbText
  0
TEXT
  5
9539
330
747D
100
AcDbEntity
  8
0
 48
2.0
100
AcDbText
 10
2406.1920373054
 20
192.6273978114743
 30
0.0
 40
11.2
  1
格
  7
SANWA
100
AcDbText
  0
TEXT
  5
953A
330
747D
100
AcDbEntity
  8
0
 48
2.0
100
AcDbText
 10
2332.499589382085
 20
184.8342559898368
 30
0.0
 40
16.0
  1
製図
  7
SANWA
100
AcDbText
  0
HATCH
  5
953B
330
747D
100
AcDbEntity
  8
0
100
AcDbHatch
 10
0.0
 20
0.0
 30
0.0
210
0.0
220
0.0
230
1.0
  2
SOLID
 70
     1
 71
     0
 91
        6
 92
        7
 72
     1
 73
     1
 93
        4
 10
2433.908891939538
 20
162.0536426681429
 42
0.0
 10
2439.010201795732
 20
156.9523328119487
 42
-0.3722683533228781
 10
2467.838068018359
 20
156.9523328119488
 42
0.0
 10
2472.939377874552
 20
162.0536426681441
 42
0.3824979940290051
 97
        0
 92
       22
 72
     1
 73
     1
 93
        4
 10
2470.576197367901
 20
161.9532038612895
 42
0.0
 10
2467.725345536782
 20
159.1023520301687
 42
0.3367429548951041
 10
2439.122924277309
 20
159.102352030169
 42
0.0
 10
2436.272072446189
 20
161.9532038612885
 42
-0.3477704275230906
 97
        0
 92
        7
 72
     1
 73
     1
 93
        4
 10
2470.100809718156
 20
154.6895911121521
 42
-0.6168583269099008
 10
2455.024134907048
 20
118.2912783076802
 42
0.0
 10
2455.024134907045
 20
111.0769367231828
 42
0.629288915937971
 10
2475.20211957435
 20
159.7909009683464
 42
0.0
 97
        0
 92
       22
 72
     1
 73
     1
 93
        4
 10
2475.101680767495
 20
157.4277204616953
 42
-0.5873104908889213
 10
2456.624134907045
 20
112.8189786460248
 42
0.0
 10
2456.624134907045
 20
116.8506919699106
 42
0.5741105922167417
 10
2472.250828936376
 20
154.5768686305753
 42
0.0
 97
        0
 92
        7
 72
     1
 73
     1
 93
        4
 10
2431.646150239741
 20
159.7909009683461
 42
0.6292889159379629
 10
2451.824134907045
 20
111.0769367231829
 42
0.0
 10
2451.824134907047
 20
118.2912783076799
 42
-0.6168583269099632
 10
2436.747460095935
 20
154.6895911121522
 42
0.0
 97
        0
 92
       22
 72
     1
 73
     1
 93
        4
 10
2434.597440877715
 20
154.5768686305754
 42
0.5741105922167512
 10
2450.224134907046
 20
116.8506919699105
 42
0.0
 10
2450.224134907046
 20
112.8189786460248
 42
-0.5873104908889201
 10
2431.746589046596
 20
157.4277204616953
 42
0.0
 97
        0
 75
     0
 76
     1
 47
0.0143554168026844
 98
        6
 10
2466.232323208497
 20
165.3933313086466
 10
2466.232323208497
 20
165.3933313086466
 10
2472.209296917088
 20
156.0910217636804
 10
2472.209296917088
 20
156.0910217636804
 10
2435.312960923204
 20
155.7464915687071
 10
2435.312960923204
 20
155.7464915687071
  0
TEXT
  5
953C
330
747D
100
AcDbEntity
  8
0
100
AcDbText
 10
2444.472660575799
 20
129.2823624020917
 30
0.0
 40
12.0
  1
和
  7
SANWA
100
AcDbText
  0
TEXT
  5
953D
330
747D
100
AcDbEntity
  8
0
100
AcDbText
 10
2444.472660575799
 20
145.2245085300649
 30
0.0
 40
12.0
  1
三
  7
SANWA
100
AcDbText
  0
ARC
  5
953E
330
747D
100
AcDbEntity
  8
0
100
AcDbCircle
 10
2453.424134907046
 20
140.2756580008384
 30
0.0
 40
29.24252595536528
100
AcDbArc
 50
48.13649544708374
 51
131.8635045529165
  0
ARC
  5
953F
330
747D
100
AcDbEntity
  8
0
100
AcDbCircle
 10
2453.424134907046
 20
140.2756580008384
 30
0.0
 40
27.64252595536528
100
AcDbArc
 50
51.64767378620499
 51
128.3523262137973
  0
ARC
  5
9540
330
747D
100
AcDbEntity
  8
0
100
AcDbCircle
 10
2453.424134907046
 20
140.2756580008384
 30
0.0
 40
23.64252595536527
100
AcDbArc
 50
52.77882031190202
 51
127.2211796880981
  0
ARC
  5
9541
330
747D
100
AcDbEntity
  8
0
100
AcDbCircle
 10
2453.424134907046
 20
140.2756580008384
 30
0.0
 40
22.04252595536527
100
AcDbArc
 50
49.16258741112848
 51
130.8374125888727
  0
ARC
  5
9542
330
747D
100
AcDbEntity
  8
0
100
AcDbCircle
 10
2453.424134907046
 20
140.2756580008384
 30
0.0
 40
22.04252595536527
100
AcDbArc
 50
139.1625874111273
 51
265.8374125888725
  0
ARC
  5
9543
330
747D
100
AcDbEntity
  8
0
100
AcDbCircle
 10
2453.424134907046
 20
140.2756580008384
 30
0.0
 40
29.24252595536528
100
AcDbArc
 50
138.1364954470837
 51
266.8635045529165
  0
TEXT
  5
9544
102
{ACAD_REACTORS
330
9514
102
}
330
747D
100
AcDbEntity
  8
0
 48
2.0
100
AcDbText
 10
2344.546062529283
 20
123.2925836563609
 30
0.0
 40
16.0
  1
川
  7
SANWA
100
AcDbText
  0
TEXT
  5
9545
102
{ACAD_REACTORS
330
9514
102
}
330
747D
100
AcDbEntity
  8
0
 48
2.0
100
AcDbText
 10
2344.922309571135
 20
145.9397910471816
 30
0.0
 40
16.0
  1
中
  7
SANWA
100
AcDbText
  0
LINE
  5
9546
330
747D
100
AcDbEntity
  8
0
100
AcDbLine
 10
2450.224134907046
 20
112.8189786460248
 30
0.0
 11
2450.224134907046
 21
116.8506919699105
 31
0.0
  0
LINE
  5
9547
330
747D
100
AcDbEntity
  8
0
100
AcDbLine
 10
2439.122924277309
 20
159.1023520301689
 30
0.0
 11
2436.272072446189
 21
161.9532038612886
 31
0.0
  0
LINE
  5
9548
330
747D
100
AcDbEntity
  8
0
100
AcDbLine
 10
2434.597440877715
 20
154.5768686305755
 30
0.0
 11
2431.746589046596
 21
157.4277204616952
 31
0.0
  0
LINE
  5
9549
330
747D
100
AcDbEntity
  8
0
100
AcDbLine
 10
2436.747460095935
 20
154.6895911121522
 30
0.0
 11
2431.615175655085
 21
159.8218755530025
 31
0.0
  0
LINE
  5
954A
330
747D
100
AcDbEntity
  8
0
100
AcDbLine
 10
2439.010201795732
 20
156.9523328119487
 30
0.0
 11
2433.877917354881
 21
162.0846172527994
 31
0.0
  0
ARC
  5
954B
330
747D
100
AcDbEntity
  8
0
100
AcDbCircle
 10
2453.424134907046
 20
140.2756580008384
 30
0.0
 40
23.64252595536527
100
AcDbArc
 50
142.7788203119012
 51
262.2211796880999
  0
ARC
  5
954C
330
747D
100
AcDbEntity
  8
0
100
AcDbCircle
 10
2453.424134907046
 20
140.2756580008384
 30
0.0
 40
27.64252595536528
100
AcDbArc
 50
141.6476737862016
 51
263.3523262137983
  0
LINE
  5
954D
330
747D
100
AcDbEntity
  8
0
100
AcDbLine
 10
2456.624134907045
 20
112.8189786460248
 30
0.0
 11
2456.624134907045
 21
116.8506919699106
 31
0.0
  0
LINE
  5
954E
330
747D
100
AcDbEntity
  8
0
100
AcDbLine
 10
2472.250828936376
 20
154.5768686305752
 30
0.0
 11
2475.101680767495
 21
157.4277204616953
 31
0.0
  0
LINE
  5
954F
330
747D
100
AcDbEntity
  8
0
100
AcDbLine
 10
2467.725345536782
 20
159.1023520301688
 30
0.0
 11
2470.576197367901
 21
161.9532038612895
 31
0.0
  0
ARC
  5
9550
330
747D
100
AcDbEntity
  8
0
100
AcDbCircle
 10
2453.424134907046
 20
140.2756580008384
 30
0.0
 40
27.64252595536528
100
AcDbArc
 50
276.6476737862027
 51
38.35232621379853
  0
ARC
  5
9551
330
747D
100
AcDbEntity
  8
0
100
AcDbCircle
 10
2453.424134907046
 20
140.2756580008384
 30
0.0
 40
29.24252595536528
100
AcDbArc
 50
273.1364954470844
 51
41.86350455291712
  0
ARC
  5
9552
330
747D
100
AcDbEntity
  8
0
100
AcDbCircle
 10
2453.424134907046
 20
140.2756580008384
 30
0.0
 40
23.64252595536527
100
AcDbArc
 50
277.7788203119023
 51
37.22117968809818
  0
ARC
  5
9553
330
747D
100
AcDbEntity
  8
0
100
AcDbCircle
 10
2453.424134907046
 20
140.2756580008384
 30
0.0
 40
22.04252595536527
100
AcDbArc
 50
274.1625874111288
 51
40.83741258887306
  0
LINE
  5
9554
330
747D
100
AcDbEntity
  8
0
100
AcDbLine
 10
2455.024134907045
 20
111.0769367231829
 30
0.0
 11
2455.024134907048
 21
118.2912783076802
 31
0.0
  0
LINE
  5
9555
330
747D
100
AcDbEntity
  8
0
100
AcDbLine
 10
2451.824134907045
 20
111.0769367231829
 30
0.0
 11
2451.824134907047
 21
118.2912783076799
 31
0.0
  0
LINE
  5
9556
330
747D
100
AcDbEntity
  8
0
100
AcDbLine
 10
2467.838068018359
 20
156.9523328119488
 30
0.0
 11
2472.939377874552
 21
162.053642668144
 31
0.0
  0
LINE
  5
9557
330
747D
100
AcDbEntity
  8
0
100
AcDbLine
 10
2470.100809718156
 20
154.689591112152
 30
0.0
 11
2475.20211957435
 21
159.7909009683464
 31
0.0
  0
TEXT
  5
9558
330
747D
100
AcDbEntity
  8
0
 48
2.0
100
AcDbText
 10
2406.1920373054
 20
216.4564135260982
 30
0.0
 40
11.2
  1
規
  7
SANWA
100
AcDbText
  0
TEXT
  5
9559
330
747D
100
AcDbEntity
  8
0
 48
2.0
100
AcDbText
 10
2405.910235929125
 20
255.9509023540017
 30
0.0
 40
11.2
  1
名
  7
SANWA
100
AcDbText
  0
TEXT
  5
955A
330
747D
100
AcDbEntity
  8
0
 48
2.0
100
AcDbText
 10
2405.683415277077
 20
271.6217473180517
 30
0.0
 40
11.2
  1
び
  7
SANWA
100
AcDbText
  0
TEXT
  5
955B
330
747D
100
AcDbEntity
  8
0
 48
2.0
100
AcDbText
 10
2405.842275558116
 20
286.9565495175597
 30
0.0
 40
11.2
  1
呼
  7
SANWA
100
AcDbText
  0
TEXT
  5
955C
330
747D
100
AcDbEntity
  8
0
 48
2.0
100
AcDbText
 10
2405.888684417645
 20
323.3308454805766
 30
0.0
 40
11.2
  1
名
  7
SANWA
100
AcDbText
  0
TEXT
  5
955D
330
747D
100
AcDbEntity
  8
0
 48
2.0
100
AcDbText
 10
2406.495390193157
 20
349.5846011088816
 30
0.0
 40
11.2
  1
品
  7
SANWA
100
AcDbText
  0
LINE
  5
955E
330
747D
100
AcDbEntity
  8
0
100
AcDbLine
 10
2399.021268614915
 20
372.0000033175169
 30
0.0
 11
2414.184840222806
 21
372.0000033175169
 31
0.0
  0
TEXT
  5
955F
330
747D
100
AcDbEntity
  8
0
100
AcDbText
 10
2603.699201745618
 20
203.7257176032312
 30
0.0
 40
16.0
  1
４００用
  7
SANWA
 72
     4
 11
2650.510630317046
 21
212.0000033175169
 31
0.0
100
AcDbText
  0
TEXT
  5
9560
330
747D
100
AcDbEntity
  8
0
100
AcDbText
 10
2627.104916031332
 20
267.1314318889454
 30
0.0
 40
16.0
  1
Ｎ型
  7
SANWA
 72
     4
 11
2650.510630317046
 21
276.0000033175169
 31
0.0
100
AcDbText
  0
DIMENSION
  5
9561
330
747D
100
AcDbEntity
  8
寸法引出
100
AcDbDimension
  2
*D22
 10
2495.197504078217
 20
1739.167952772057
 30
0.0
 11
1995.197504078216
 21
1759.167952772057
 31
0.0
 70
    32
 71
     5
 42
1000.0
  3
SANWA
100
AcDbAlignedDimension
 13
1495.197504078216
 23
1657.096612738228
 33
0.0
 14
2495.197504078217
 24
1657.096612738228
 34
0.0
100
AcDbRotatedDimension
1001
ACAD
1000
DSTYLE
1002
{
1070
   140
1040
2.0
1070
    40
1040
10.0
1070
   147
1040
1.0
1070
    44
1040
0.5
1070
    43
1040
5.0
1070
   178
1070
   256
1070
   177
1070
   256
1070
   176
1070
   256
1070
    41
1040
1.5
1002
}
  0
LINE
  5
9562
330
747D
100
AcDbEntity
  8
0
  6
HIDDEN2
 48
10.0
100
AcDbLine
 10
2104.120503359121
 20
1556.096612738228
 30
0.0
 11
2062.274504797312
 21
1556.096612738228
 31
0.0
  0
DIMENSION
  5
9563
330
747D
100
AcDbEntity
  8
寸法引出
100
AcDbDimension
  2
*D23
 10
2375.197504078216
 20
1492.550175927284
 30
0.0
 11
1995.197504078216
 21
1512.550175927284
 31
0.0
 70
    32
 71
     5
 42
760.0
  3
SANWA
100
AcDbAlignedDimension
 13
1615.197504078216
 23
1547.096612738228
 33
0.0
 14
2375.197504078216
 24
1547.096612738228
 34
0.0
100
AcDbRotatedDimension
1001
ACAD
1000
DSTYLE
1002
{
1070
    40
1040
10.0
1070
    41
1040
1.5
1070
    43
1040
5.0
1070
    44
1040
0.5
1070
    75
1070
     1
1070
   140
1040
2.0
1070
   147
1040
1.0
1070
   176
1070
   256
1070
   177
1070
   256
1070
   178
1070
   256
1070
   279
1070
     1
1002
}
  0
LINE
  5
9564
330
747D
100
AcDbEntity
  8
0
  6
HIDDEN2
 48
10.0
100
AcDbLine
 10
1495.197504078216
 20
1632.096612738228
 30
0.0
 11
2495.197504078217
 21
1632.096612738228
 31
0.0
  0
LINE
  5
9565
330
747D
100
AcDbEntity
  8
0
100
AcDbLine
 10
2495.197504078217
 20
1547.096612738228
 30
0.0
 11
1495.197504078216
 21
1547.096612738228
 31
0.0
  0
LINE
  5
9566
330
747D
100
AcDbEntity
  8
0
100
AcDbLine
 10
1495.197504078216
 20
1657.096612738228
 30
0.0
 11
2495.197504078217
 21
1657.096612738228
 31
0.0
  0
LINE
  5
9567
330
747D
100
AcDbEntity
  8
0
100
AcDbLine
 10
1083.182344845112
 20
1827.300005266596
 30
0.0
 11
2088.163248355358
 21
1827.300005266596
 31
0.0
  0
LINE
  5
9568
330
747D
100
AcDbEntity
  8
0
100
AcDbLine
 10
1083.182344845112
 20
1835.300005266596
 30
0.0
 11
2088.163248355358
 21
1835.300005266596
 31
0.0
  0
LINE
  5
9569
330
747D
100
AcDbEntity
  8
0
100
AcDbLine
 10
1160.889054283536
 20
1119.458149604898
 30
0.0
 11
1160.889054283536
 21
1155.458149604899
 31
0.0
  0
LINE
  5
956A
330
747D
100
AcDbEntity
  8
0
100
AcDbLine
 10
1178.889054283536
 20
1137.458149604898
 30
0.0
 11
1142.889054283536
 21
1137.458149604898
 31
0.0
  0
CIRCLE
  5
956B
330
747D
100
AcDbEntity
  8
0
100
AcDbCircle
 10
1160.889054283536
 20
1137.458149604898
 30
0.0
 40
8.0
  0
DIMENSION
  5
956C
330
747D
100
AcDbEntity
  8
寸法引出
100
AcDbDimension
  2
*D24
 10
1190.889054283536
 20
1337.331675281369
 30
0.0
 11
1175.889054283536
 21
1357.331675281369
 31
0.0
 70
    32
 71
     5
 42
30.0
  3
SANWA
100
AcDbAlignedDimension
 13
1160.889054283536
 23
1257.458149604899
 33
0.0
 14
1190.889054283536
 24
1257.458149604899
 34
0.0
100
AcDbRotatedDimension
1001
ACAD
1000
DSTYLE
1002
{
1070
    40
1040
10.0
1070
    41
1040
1.5
1070
    43
1040
5.0
1070
    44
1040
0.5
1070
    75
1070
     1
1070
   140
1040
2.0
1070
   147
1040
1.0
1070
   176
1070
   256
1070
   177
1070
   256
1070
   178
1070
   256
1070
   279
1070
     1
1002
}
  0
LINE
  5
956D
330
747D
100
AcDbEntity
  8
0
  6
HIDDEN2
 48
10.0
100
AcDbLine
 10
1576.12050335912
 20
1556.096612738228
 30
0.0
 11
1534.274504797312
 21
1556.096612738228
 31
0.0
  0
DIMENSION
  5
956E
330
747D
100
AcDbEntity
  8
寸法引出
100
AcDbDimension
  2
*D25
 10
1615.197504078216
 20
1492.550175927284
 30
0.0
 11
1555.197504078216
 21
1512.550175927284
 31
0.0
 70
    32
 71
     5
 42
120.0
  3
SANWA
100
AcDbAlignedDimension
 13
1495.197504078216
 23
1547.096612738228
 33
0.0
 14
1615.197504078216
 24
1547.096612738228
 34
0.0
100
AcDbRotatedDimension
1001
ACAD
1000
DSTYLE
1002
{
1070
   140
1040
2.0
1070
    40
1040
10.0
1070
   147
1040
1.0
1070
    44
1040
0.5
1070
    43
1040
5.0
1070
   178
1070
   256
1070
   177
1070
   256
1070
   176
1070
   256
1070
    41
1040
1.5
1002
}
  0
TEXT
  5
956F
330
747D
100
AcDbEntity
  8
0
100
AcDbText
 10
1113.300681613141
 20
1850.47933221477
 30
0.0
 40
28.0
  1
マルチスリット側溝蓋  Ｎ型  ４００用
  7
SANWA
 72
     4
 11
1481.940681613141
 21
1864.47933221477
 31
0.0
100
AcDbText
  0
DIMENSION
  5
9570
330
747D
100
AcDbEntity
  8
寸法引出
100
AcDbDimension
  2
*D26
 10
1266.265977789153
 20
1547.096612738228
 30
0.0
 11
1246.265977789153
 21
1602.096612738228
 31
0.0
 70
    32
 71
     5
 42
110.0
  3
SANWA
100
AcDbAlignedDimension
 13
1190.889054283536
 23
1657.096612738228
 33
0.0
 14
1190.889054283536
 24
1547.096612738228
 34
0.0
 50
90.0
100
AcDbRotatedDimension
1001
ACAD
1000
DSTYLE
1002
{
1070
   140
1040
2.0
1070
    40
1040
10.0
1070
   147
1040
1.0
1070
    44
1040
0.5
1070
    43
1040
5.0
1070
   178
1070
   256
1070
   177
1070
   256
1070
   176
1070
   256
1070
    41
1040
1.5
1002
}
  0
LINE
  5
9571
330
747D
100
AcDbEntity
  8
0
100
AcDbLine
 10
1190.889054283536
 20
1657.096612738228
 30
0.0
 11
1190.889054283536
 21
1547.096612738228
 31
0.0
  0
DIMENSION
  5
9572
330
747D
100
AcDbEntity
  8
寸法引出
100
AcDbDimension
  2
*D27
 10
1190.889054283536
 20
1502.591358997003
 30
0.0
 11
1175.889054283536
 21
1522.591358997003
 31
0.0
 70
    32
 71
     5
 42
30.0
  3
SANWA
100
AcDbAlignedDimension
 13
1160.889054283536
 23
1547.096612738228
 33
0.0
 14
1190.889054283536
 24
1547.096612738228
 34
0.0
100
AcDbRotatedDimension
1001
ACAD
1000
DSTYLE
1002
{
1070
   140
1040
2.0
1070
    40
1040
10.0
1070
   147
1040
1.0
1070
    44
1040
0.5
1070
    43
1040
5.0
1070
   178
1070
   256
1070
   177
1070
   256
1070
   176
1070
   256
1070
    41
1040
1.5
1002
}
  0
LINE
  5
9573
330
747D
100
AcDbEntity
  8
0
  6
HIDDEN2
 48
5.0
100
AcDbLine
 10
1155.889054283536
 20
1547.096612738228
 30
0.0
 11
1155.889054283536
 21
1574.096612738228
 31
0.0
  0
LINE
  5
9574
330
747D
100
AcDbEntity
  8
0
  6
HIDDEN2
 48
5.0
100
AcDbLine
 10
1165.889054283536
 20
1547.096612738228
 30
0.0
 11
1165.889054283536
 21
1574.096612738228
 31
0.0
  0
LINE
  5
9575
330
747D
100
AcDbEntity
  8
0
  6
HIDDEN2
 48
5.0
100
AcDbLine
 10
1155.889054283536
 20
1574.096612738228
 30
0.0
 11
1165.889054283536
 21
1574.096612738228
 31
0.0
  0
LINE
  5
9576
330
747D
100
AcDbEntity
  8
0
100
AcDbLine
 10
1148.997881086581
 20
1547.096612738228
 30
0.0
 11
1172.780227480492
 21
1547.096612738228
 31
0.0
  0
POINT
  5
9577
330
747D
100
AcDbEntity
  8
寸法引出
100
AcDbPoint
 10
1190.889054283536
 20
1547.096612738228
 30
0.0
  0
POINT
  5
9578
330
747D
100
AcDbEntity
  8
DEFPOINTS
  6
ByBlock
 62
     0
100
AcDbPoint
 10
1190.889054283536
 20
1581.096612738228
 30
0.0
  0
POINT
  5
9579
330
747D
100
AcDbEntity
  8
寸法引出
100
AcDbPoint
 10
1190.889054283536
 20
1547.096612738228
 30
0.0
  0
POINT
  5
957A
330
747D
100
AcDbEntity
  8
DEFPOINTS
  6
ByBlock
 62
     0
100
AcDbPoint
 10
1190.889054283536
 20
1581.096612738228
 30
0.0
  0
POINT
  5
957B
330
747D
100
AcDbEntity
  8
寸法引出
100
AcDbPoint
 10
1190.889054283536
 20
1657.096612738228
 30
0.0
  0
POINT
  5
957C
330
747D
100
AcDbEntity
  8
DEFPOINTS
  6
ByBlock
 62
     0
100
AcDbPoint
 10
1190.889054283536
 20
1619.096612738228
 30
0.0
  0
POINT
  5
957D
330
747D
100
AcDbEntity
  8
DEFPOINTS
  6
ByBlock
 62
     0
100
AcDbPoint
 10
1190.889054283536
 20
1619.096612738228
 30
0.0
  0
POINT
  5
957E
330
747D
100
AcDbEntity
  8
寸法引出
100
AcDbPoint
 10
1190.889054283536
 20
1657.096612738228
 30
0.0
  0
LINE
  5
957F
330
747D
100
AcDbEntity
  8
0
  6
HIDDEN2
 48
10.0
100
AcDbLine
 10
1520.323321737056
 20
1632.096612738228
 30
0.0
 11
1534.274504797312
 21
1556.096612738228
 31
0.0
  0
LINE
  5
9580
330
747D
100
AcDbEntity
  8
0
100
AcDbLine
 10
1495.197504078216
 20
1547.096612738228
 30
0.0
 11
1495.197504078216
 21
1657.096612738228
 31
0.0
  0
LINE
  5
9581
330
747D
100
AcDbEntity
  8
0
  6
HIDDEN2
 48
10.0
100
AcDbLine
 10
1766.071686419377
 20
1632.096612738228
 30
0.0
 11
1752.120503359121
 21
1556.096612738228
 31
0.0
  0
LINE
  5
9582
330
747D
100
AcDbEntity
  8
0
  6
HIDDEN2
 48
10.0
100
AcDbLine
 10
1696.323321737056
 20
1632.096612738228
 30
0.0
 11
1710.274504797312
 21
1556.096612738228
 31
0.0
  0
LINE
  5
9583
330
747D
100
AcDbEntity
  8
0
  6
HIDDEN2
 48
10.0
100
AcDbLine
 10
1590.071686419377
 20
1632.096612738228
 30
0.0
 11
1576.120503359121
 21
1556.096612738228
 31
0.0
  0
LINE
  5
9584
330
747D
100
AcDbEntity
  8
0
  6
HIDDEN2
 48
5.0
100
AcDbLine
 10
1610.197504078216
 20
1547.096612738228
 30
0.0
 11
1610.197504078216
 21
1574.096612738228
 31
0.0
  0
LINE
  5
9585
330
747D
100
AcDbEntity
  8
0
  6
HIDDEN2
 48
5.0
100
AcDbLine
 10
1620.197504078216
 20
1547.096612738228
 30
0.0
 11
1620.197504078216
 21
1574.096612738228
 31
0.0
  0
LINE
  5
9586
330
747D
100
AcDbEntity
  8
0
  6
HIDDEN2
 48
5.0
100
AcDbLine
 10
1610.197504078216
 20
1574.096612738228
 30
0.0
 11
1620.197504078216
 21
1574.096612738228
 31
0.0
  0
LINE
  5
9587
330
747D
100
AcDbEntity
  8
0
  6
HIDDEN2
 48
10.0
100
AcDbLine
 10
1752.12050335912
 20
1556.096612738228
 30
0.0
 11
1710.274504797311
 21
1556.096612738228
 31
0.0
  0
LINE
  5
9588
330
747D
100
AcDbEntity
  8
0
  6
HIDDEN2
 48
10.0
100
AcDbLine
 10
2048.323321737056
 20
1632.096612738228
 30
0.0
 11
2062.274504797312
 21
1556.096612738228
 31
0.0
  0
LINE
  5
9589
330
747D
100
AcDbEntity
  8
0
  6
HIDDEN2
 48
10.0
100
AcDbLine
 10
1942.071686419376
 20
1632.096612738228
 30
0.0
 11
1928.12050335912
 21
1556.096612738228
 31
0.0
  0
LINE
  5
958A
330
747D
100
AcDbEntity
  8
0
  6
HIDDEN2
 48
10.0
100
AcDbLine
 10
1872.323321737056
 20
1632.096612738228
 30
0.0
 11
1886.274504797312
 21
1556.096612738228
 31
0.0
  0
LINE
  5
958B
330
747D
100
AcDbEntity
  8
0
  6
HIDDEN2
 48
10.0
100
AcDbLine
 10
1928.12050335912
 20
1556.096612738228
 30
0.0
 11
1886.274504797311
 21
1556.096612738228
 31
0.0
  0
TEXT
  5
958C
330
747D
100
AcDbEntity
  8
0
100
AcDbText
 10
1937.587906140132
 20
1853.096475071913
 30
0.0
 40
24.0
  1
W=139㎏
  7
SANWA
 72
     4
 11
1999.027906140131
 21
1864.47933221477
 31
0.0
100
AcDbText
  0
DIMENSION
  5
958D
330
747D
100
AcDbEntity
  8
寸法引出
100
AcDbDimension
  2
*D28
 10
2622.067695405974
 20
1547.096612738228
 30
0.0
 11
2602.067695405974
 21
1602.096612738228
 31
0.0
 70
    32
 71
     5
 42
110.0
  3
SANWA
100
AcDbAlignedDimension
 13
2495.197504078217
 23
1657.096612738228
 33
0.0
 14
2495.197504078217
 24
1547.096612738228
 34
0.0
 50
90.0
100
AcDbRotatedDimension
1001
ACAD
1000
DSTYLE
1002
{
1070
   140
1040
2.0
1070
    40
1040
10.0
1070
   147
1040
1.0
1070
    44
1040
0.5
1070
    43
1040
5.0
1070
   178
1070
   256
1070
   177
1070
   256
1070
   176
1070
   256
1070
    41
1040
1.5
1002
}
  0
LINE
  5
958E
330
747D
100
AcDbEntity
  8
0
  6
HIDDEN2
 48
10.0
100
AcDbLine
 10
2294.071686419377
 20
1632.096612738228
 30
0.0
 11
2280.120503359121
 21
1556.096612738228
 31
0.0
  0
LINE
  5
958F
330
747D
100
AcDbEntity
  8
0
  6
HIDDEN2
 48
10.0
100
AcDbLine
 10
2224.323321737056
 20
1632.096612738228
 30
0.0
 11
2238.274504797312
 21
1556.096612738228
 31
0.0
  0
LINE
  5
9590
330
747D
100
AcDbEntity
  8
0
  6
HIDDEN2
 48
10.0
100
AcDbLine
 10
2118.071686419377
 20
1632.096612738228
 30
0.0
 11
2104.120503359121
 21
1556.096612738228
 31
0.0
  0
LINE
  5
9591
330
747D
100
AcDbEntity
  8
0
  6
HIDDEN2
 48
10.0
100
AcDbLine
 10
2280.120503359121
 20
1556.096612738228
 30
0.0
 11
2238.274504797312
 21
1556.096612738228
 31
0.0
  0
LINE
  5
9592
330
747D
100
AcDbEntity
  8
0
  6
HIDDEN2
 48
10.0
100
AcDbLine
 10
2470.071686419377
 20
1632.096612738228
 30
0.0
 11
2456.12050335912
 21
1556.096612738228
 31
0.0
  0
LINE
  5
9593
330
747D
100
AcDbEntity
  8
0
  6
HIDDEN2
 48
10.0
100
AcDbLine
 10
2400.323321737056
 20
1632.096612738228
 30
0.0
 11
2414.274504797312
 21
1556.096612738228
 31
0.0
  0
DIMENSION
  5
9594
330
747D
100
AcDbEntity
  8
寸法引出
100
AcDbDimension
  2
*D29
 10
2559.675100180768
 20
1657.096612738228
 30
0.0
 11
2539.675100180768
 21
1644.596612738228
 31
0.0
 70
    32
 71
     5
 42
25.0
  3
SANWA
100
AcDbAlignedDimension
 13
2495.197504078217
 23
1632.096612738228
 33
0.0
 14
2495.197504078217
 24
1657.096612738228
 34
0.0
 50
90.0
100
AcDbRotatedDimension
1001
ACAD
1000
DSTYLE
1002
{
1070
    40
1040
10.0
1070
    41
1040
1.5
1070
    43
1040
5.0
1070
    44
1040
0.5
1070
    75
1070
     1
1070
   140
1040
2.0
1070
   147
1040
1.0
1070
   176
1070
   256
1070
   177
1070
   256
1070
   178
1070
   256
1070
   279
1070
     1
1002
}
  0
DIMENSION
  5
9595
330
747D
100
AcDbEntity
  8
寸法引出
100
AcDbDimension
  2
*D30
 10
2559.675100180768
 20
1547.096612738228
 30
0.0
 11
2539.675100180768
 21
1589.596612738228
 31
0.0
 70
    32
 71
     5
 42
85.0
  3
SANWA
100
AcDbAlignedDimension
 13
2495.197504078217
 23
1632.096612738228
 33
0.0
 14
2495.197504078217
 24
1547.096612738228
 34
0.0
 50
90.0
100
AcDbRotatedDimension
1001
ACAD
1000
DSTYLE
1002
{
1070
   140
1040
2.0
1070
    40
1040
10.0
1070
   147
1040
1.0
1070
    44
1040
0.5
1070
    43
1040
5.0
1070
   178
1070
   256
1070
   177
1070
   256
1070
   176
1070
   256
1070
    41
1040
1.5
1002
}
  0
LINE
  5
9596
330
747D
100
AcDbEntity
  8
0
100
AcDbLine
 10
2495.197504078217
 20
1657.096612738228
 30
0.0
 11
2495.197504078217
 21
1547.096612738228
 31
0.0
  0
LINE
  5
9597
330
747D
100
AcDbEntity
  8
0
  6
HIDDEN2
 48
10.0
100
AcDbLine
 10
2456.12050335912
 20
1556.096612738228
 30
0.0
 11
2414.274504797312
 21
1556.096612738228
 31
0.0
  0
DIMENSION
  5
9598
330
747D
100
AcDbEntity
  8
寸法引出
100
AcDbDimension
  2
*D31
 10
2495.197504078217
 20
1492.550175927284
 30
0.0
 11
2435.197504078217
 21
1512.550175927284
 31
0.0
 70
    32
 71
     5
 42
120.0
  3
SANWA
100
AcDbAlignedDimension
 13
2375.197504078216
 23
1547.096612738228
 33
0.0
 14
2495.197504078217
 24
1547.096612738228
 34
0.0
100
AcDbRotatedDimension
1001
ACAD
1000
DSTYLE
1002
{
1070
   140
1040
2.0
1070
    40
1040
10.0
1070
   147
1040
1.0
1070
    44
1040
0.5
1070
    43
1040
5.0
1070
   178
1070
   256
1070
   177
1070
   256
1070
   176
1070
   256
1070
    41
1040
1.5
1002
}
  0
LINE
  5
9599
330
747D
100
AcDbEntity
  8
0
  6
HIDDEN2
 48
5.0
100
AcDbLine
 10
2370.197504078216
 20
1547.096612738228
 30
0.0
 11
2370.197504078216
 21
1574.096612738228
 31
0.0
  0
LINE
  5
959A
330
747D
100
AcDbEntity
  8
0
  6
HIDDEN2
 48
5.0
100
AcDbLine
 10
2380.197504078216
 20
1547.096612738228
 30
0.0
 11
2380.197504078216
 21
1574.096612738228
 31
0.0
  0
LINE
  5
959B
330
747D
100
AcDbEntity
  8
0
  6
HIDDEN2
 48
5.0
100
AcDbLine
 10
2380.197504078216
 20
1574.096612738228
 30
0.0
 11
2370.197504078216
 21
1574.096612738228
 31
0.0
  0
LINE
  5
959C
330
747D
100
AcDbEntity
  8
0
100
AcDbLine
 10
2869.999992019177
 20
2100.000003317515
 30
0.0
 11
2969.999992019177
 21
2100.000003317515
 31
0.0
  0
LINE
  5
959D
330
747D
100
AcDbEntity
  8
0
100
AcDbLine
 10
2969.999992019177
 20
2100.000003317515
 30
0.0
 11
2969.999992019177
 21
2000.000003317515
 31
0.0
  0
VIEWPORT
  5
7540
102
{ACAD_XDICTIONARY
360
9E8D
102
}
330
747A
100
AcDbEntity
 67
     1
  8
0
100
AcDbViewport
 10
3738.870547722452
 20
1860.447198378536
 30
0.0
 40
10220.09127693237
 41
6456.170192844751
 68
     1
 69
     1
 12
3738.870547722452
 22
1860.447198378536
 13
0.0
 23
0.0
 14
10.0
 24
10.0
 15
10.0
 25
10.0
 16
0.0
 26
0.0
 36
1.0
 17
0.0
 27
0.0
 37
0.0
 42
50.0
 43
0.0
 44
0.0
 45
6456.170192844751
 50
0.0
 51
0.0
 72
   100
 90
    32800
  1

281
     0
 71
     1
 74
     0
110
0.0
120
0.0
130
0.0
111
1.0
121
0.0
131
0.0
112
0.0
122
1.0
132
0.0
 79
     0
146
0.0
  0
TEXT
  5
7737
330
747A
100
AcDbEntity
 67
     1
  8
0
 48
2.0
100
AcDbText
 10
331.871196811185
 20
20.60428158404022
 30
0.0
 40
2.0
  1

  7
SANWA
100
AcDbText
  0
ENDSEC
  0
SECTION
  2
OBJECTS
  0
DICTIONARY
  5
7471
330
0
100
AcDbDictionary
281
     1
  3
ACAD_COLOR
350
9C11
  3
ACAD_GROUP
350
7472
  3
ACAD_LAYOUT
350
8FD1
  3
ACAD_MATERIAL
350
9BE7
  3
ACAD_MLEADERSTYLE
350
9C36
  3
ACAD_MLINESTYLE
350
7473
  3
ACAD_PLOTSETTINGS
350
8FD2
  3
ACAD_PLOTSTYLENAME
350
8FCF
  3
ACAD_SCALELIST
350
9C14
  3
ACAD_TABLESTYLE
350
9C12
  3
ACAD_VISUALSTYLE
350
9C00
  3
ACDB_RECOMPOSE_DATA
350
9E8B
  3
ACDBVARIABLEDICTIONARY
350
789B
  3
DWGPROPS
350
9E8C
  0
DICTIONARY
  5
9E79
330
7474
100
AcDbDictionary
280
     1
281
     1
  3
ADSK_XREC_LAYER_RECONCILED
360
9E7A
  0
DICTIONARY
  5
9E7B
330
7486
100
AcDbDictionary
280
     1
281
     1
  3
ADSK_XREC_LAYER_RECONCILED
360
9E7C
  0
DICTIONARY
  5
9E7D
330
7950
100
AcDbDictionary
280
     1
281
     1
  3
ADSK_XREC_LAYER_RECONCILED
360
9E7E
  0
DICTIONARY
  5
9E7F
330
7D58
100
AcDbDictionary
280
     1
281
     1
  3
ADSK_XREC_LAYER_RECONCILED
360
9E80
  0
DICTIONARY
  5
9E81
330
7D59
100
AcDbDictionary
280
     1
281
     1
  3
ADSK_XREC_LAYER_RECONCILED
360
9E82
  0
DICTIONARY
  5
9E83
330
7D5A
100
AcDbDictionary
280
     1
281
     1
  3
ADSK_XREC_LAYER_RECONCILED
360
9E84
  0
DICTIONARY
  5
9E8D
330
7540
100
AcDbDictionary
280
     1
281
     1
  3
ACAD_XREC_ROUNDTRIP
360
9E8E
  0
DICTIONARY
  5
9C11
102
{ACAD_REACTORS
330
7471
102
}
330
7471
100
AcDbDictionary
281
     1
  0
DICTIONARY
  5
7472
102
{ACAD_REACTORS
330
7471
102
}
330
0
100
AcDbDictionary
281
     1
  0
DICTIONARY
  5
8FD1
102
{ACAD_REACTORS
330
7471
102
}
330
7471
100
AcDbDictionary
281
     1
  3
Model
350
8FD3
  3
ﾚｲｱｳﾄ1
350
8FD4
  0
DICTIONARY
  5
9BE7
102
{ACAD_REACTORS
330
7471
102
}
330
7471
100
AcDbDictionary
281
     1
  3
ByBlock
350
9BF0
  3
ByLayer
350
9BE8
  3
Global
350
9BF8
  0
DICTIONARY
  5
9C36
102
{ACAD_REACTORS
330
7471
102
}
330
7471
100
AcDbDictionary
281
     1
  3
Standard
350
9C37
  0
DICTIONARY
  5
7473
102
{ACAD_REACTORS
330
7471
102
}
330
0
100
AcDbDictionary
281
     1
  3
STANDARD
350
7480
  0
DICTIONARY
  5
8FD2
102
{ACAD_REACTORS
330
7471
102
}
330
7471
100
AcDbDictionary
281
     1
  0
ACDBDICTIONARYWDFLT
  5
8FCF
102
{ACAD_REACTORS
330
7471
102
}
330
7471
100
AcDbDictionary
281
     1
  3
Normal
350
8FD0
100
AcDbDictionaryWithDefault
340
8FD0
  0
DICTIONARY
  5
9C14
102
{ACAD_REACTORS
330
7471
102
}
330
7471
100
AcDbDictionary
281
     1
  3
A0
350
9C15
  3
A1
350
9C16
  3
A2
350
9C17
  3
A3
350
9C18
  3
A4
350
9C19
  3
A5
350
9C1A
  3
A6
350
9C1B
  3
A7
350
9C1C
  3
A8
350
9C1D
  3
A9
350
9C1E
  3
B0
350
9C1F
  3
B1
350
9C20
  3
B2
350
9C21
  3
B3
350
9C22
  3
B4
350
9C23
  3
B5
350
9C24
  3
B6
350
9C25
  3
B7
350
9C26
  3
B8
350
9C27
  3
B9
350
9C28
  3
C0
350
9C29
  3
C1
350
9C2A
  3
C2
350
9C2B
  3
C3
350
9C2C
  3
C4
350
9C2D
  3
C5
350
9C2E
  3
C6
350
9C2F
  3
C7
350
9C30
  3
C8
350
9C31
  3
C9
350
9C32
  3
D0
350
9C33
  3
D1
350
9C34
  3
D2
350
9C35
  0
DICTIONARY
  5
9C12
102
{ACAD_REACTORS
330
7471
102
}
330
7471
100
AcDbDictionary
281
     1
  3
Standard
350
9C13
  0
DICTIONARY
  5
9C00
102
{ACAD_REACTORS
330
7471
102
}
330
7471
100
AcDbDictionary
281
     1
  3
2dWireframe
350
9C06
  3
3D Hidden
350
9C08
  3
3dWireframe
350
9C07
  3
Basic
350
9C05
  3
Brighten
350
9C0C
  3
ColorChange
350
9C10
  3
Conceptual
350
9C09
  3
Dim
350
9C0B
  3
Facepattern
350
9C0F
  3
Flat
350
9C01
  3
FlatWithEdges
350
9C02
  3
Gouraud
350
9C03
  3
GouraudWithEdges
350
9C04
  3
Linepattern
350
9C0E
  3
Realistic
350
9C0A
  3
Thicken
350
9C0D
  0
XRECORD
  5
9E8B
102
{ACAD_REACTORS
330
7471
102
}
330
7471
100
AcDbXrecord
280
     1
 90
        1
330
9C13
  0
DICTIONARY
  5
789B
102
{ACAD_REACTORS
330
7471
102
}
330
7471
100
AcDbDictionary
281
     1
  3
CANNOSCALE
350
9E87
  3
CMLEADERSTYLE
350
9E86
  3
CTABLESTYLE
350
9E85
  3
DIMASSOC
350
8FDB
  3
INDEXCTL
350
9E88
  3
SORTENTS
350
789C
  0
XRECORD
  5
9E8C
102
{ACAD_REACTORS
330
7471
102
}
330
7471
100
AcDbXrecord
280
     1
  1
DWGPROPS COOKIE
  2

  3

  4

  6

  7

  8
ooshima
  9

300
=
301
=
302
=
303
=
304
=
305
=
306
=
307
=
308
=
309
=
 40
0.2301746643518518
 41
2451573.46699375
 42
2455412.396214097
  1

 90
        0
  0
XRECORD
  5
9E7A
102
{ACAD_REACTORS
330
9E79
102
}
330
9E79
100
AcDbXrecord
280
     1
290
     1
  0
XRECORD
  5
9E7C
102
{ACAD_REACTORS
330
9E7B
102
}
330
9E7B
100
AcDbXrecord
280
     1
290
     1
  0
XRECORD
  5
9E7E
102
{ACAD_REACTORS
330
9E7D
102
}
330
9E7D
100
AcDbXrecord
280
     1
290
     1
  0
XRECORD
  5
9E80
102
{ACAD_REACTORS
330
9E7F
102
}
330
9E7F
100
AcDbXrecord
280
     1
290
     1
  0
XRECORD
  5
9E82
102
{ACAD_REACTORS
330
9E81
102
}
330
9E81
100
AcDbXrecord
280
     1
290
     1
  0
XRECORD
  5
9E84
102
{ACAD_REACTORS
330
9E83
102
}
330
9E83
100
AcDbXrecord
280
     1
290
     1
  0
XRECORD
  5
9E8E
102
{ACAD_REACTORS
330
9E8D
102
}
330
9E8D
100
AcDbXrecord
280
     1
102
SHADEPLOT
 70
     0
  0
LAYOUT
  5
8FD3
102
{ACAD_XDICTIONARY
360
9E8F
102
}
102
{ACAD_REACTORS
330
8FD1
102
}
330
8FD1
100
AcDbPlotSettings
  1

  2
DocuPrint 205
  4
A4
  6

 40
4.900083065032958
 41
4.900057315826416
 42
4.90008544921875
 43
4.90008544921875
 44
210.0156707763672
 45
297.0106506347656
 46
5.11
 47
12.61
 48
3452.279620291414
 49
100.0000033175147
140
6072.279620291414
141
2000.000003317515
142
1.0
143
10.0
 70
 11940
 72
     1
 73
     1
 74
     4
  7
sanwa3.ctb
 75
     0
147
0.1
148
-3452.279620291414
149
-100.0000033175147
100
AcDbLayout
  1
Model
 70
     1
 71
     0
 10
0.0
 20
0.0
 11
12.0
 21
9.0
 12
0.0
 22
0.0
 32
0.0
 14
0.0
 24
0.0
 34
0.0
 15
0.0
 25
0.0
 35
0.0
146
0.0
 13
0.0
 23
0.0
 33
0.0
 16
1.0
 26
0.0
 36
0.0
 17
0.0
 27
1.0
 37
0.0
 76
     0
330
747D
331
9BE5
  0
LAYOUT
  5
8FD4
102
{ACAD_XDICTIONARY
360
9E91
102
}
102
{ACAD_REACTORS
330
8FD1
102
}
330
8FD1
100
AcDbPlotSettings
  1

  2
RICOH NX-510
  4
A4
  6

 40
5.873749732971191
 41
4.92125654220581
 42
7.588241577148437
 43
5.81024169921875
 44
209.9944915771484
 45
296.989501953125
 46
0.0
 47
0.0
 48
0.0
 49
0.0
140
0.0
141
0.0
142
1.0
143
21.56326207228387
 70
   688
 72
     1
 73
     1
 74
     1
  7
sanwa3.ctb
 75
     0
147
0.0463751725804669
148
0.1883486550250382
149
0.0640820246935618
100
AcDbLayout
  1
ﾚｲｱｳﾄ1
 70
     1
 71
     1
 10
-125.4761131185909
 20
-126.7212868637587
 11
6278.586350213705
 21
4401.4449687503
 12
0.0
 22
0.0
 32
0.0
 14
0.0
 24
0.0
 34
-0.0000000000000015
 15
6172.279628272238
 25
2100.0
 35
0.0
146
0.0
 13
0.0
 23
0.0
 33
0.0
 16
1.0
 26
0.0
 36
0.0
 17
0.0
 27
1.0
 37
0.0
 76
     0
330
747A
331
7540
  0
MATERIAL
  5
9BF0
102
{ACAD_XDICTIONARY
360
9BF1
102
}
102
{ACAD_REACTORS
330
9BE7
102
}
330
9BE7
100
AcDbMaterial
  1
ByBlock
 72
     0
 43
0.0208333333333333
 43
0.0
 43
0.0
 43
0.0
 43
0.0
 43
0.0208333333333333
 43
0.0
 43
0.0
 43
0.0
 43
0.0
 43
1.0
 43
0.0
 43
0.0
 43
0.0
 43
0.0
 43
1.0
 77
     0
 47
0.0208333333333333
 47
0.0
 47
0.0
 47
0.0
 47
0.0
 47
0.0208333333333333
 47
0.0
 47
0.0
 47
0.0
 47
0.0
 47
1.0
 47
0.0
 47
0.0
 47
0.0
 47
0.0
 47
1.0
171
     0
 49
0.0208333333333333
 49
0.0
 49
0.0
 49
0.0
 49
0.0
 49
0.0208333333333333
 49
0.0
 49
0.0
 49
0.0
 49
0.0
 49
1.0
 49
0.0
 49
0.0
 49
0.0
 49
0.0
 49
1.0
175
     0
142
0.0208333333333333
142
0.0
142
0.0
142
0.0
142
0.0
142
0.0208333333333333
142
0.0
142
0.0
142
0.0
142
0.0
142
1.0
142
0.0
142
0.0
142
0.0
142
0.0
142
1.0
179
     0
144
0.0208333333333333
144
0.0
144
0.0
144
0.0
144
0.0
144
0.0208333333333333
144
0.0
144
0.0
144
0.0
144
0.0
144
1.0
144
0.0
144
0.0
144
0.0
144
0.0
144
1.0
147
0.0208333333333333
147
0.0
147
0.0
147
0.0
147
0.0
147
0.0208333333333333
147
0.0
147
0.0
147
0.0
147
0.0
147
1.0
147
0.0
147
0.0
147
0.0
147
0.0
147
1.0
  0
MATERIAL
  5
9BE8
102
{ACAD_XDICTIONARY
360
9BE9
102
}
102
{ACAD_REACTORS
330
9BE7
102
}
330
9BE7
100
AcDbMaterial
  1
ByLayer
 72
     0
 43
0.0208333333333333
 43
0.0
 43
0.0
 43
0.0
 43
0.0
 43
0.0208333333333333
 43
0.0
 43
0.0
 43
0.0
 43
0.0
 43
1.0
 43
0.0
 43
0.0
 43
0.0
 43
0.0
 43
1.0
 77
     0
 47
0.0208333333333333
 47
0.0
 47
0.0
 47
0.0
 47
0.0
 47
0.0208333333333333
 47
0.0
 47
0.0
 47
0.0
 47
0.0
 47
1.0
 47
0.0
 47
0.0
 47
0.0
 47
0.0
 47
1.0
171
     0
 49
0.0208333333333333
 49
0.0
 49
0.0
 49
0.0
 49
0.0
 49
0.0208333333333333
 49
0.0
 49
0.0
 49
0.0
 49
0.0
 49
1.0
 49
0.0
 49
0.0
 49
0.0
 49
0.0
 49
1.0
175
     0
142
0.0208333333333333
142
0.0
142
0.0
142
0.0
142
0.0
142
0.0208333333333333
142
0.0
142
0.0
142
0.0
142
0.0
142
1.0
142
0.0
142
0.0
142
0.0
142
0.0
142
1.0
179
     0
144
0.0208333333333333
144
0.0
144
0.0
144
0.0
144
0.0
144
0.0208333333333333
144
0.0
144
0.0
144
0.0
144
0.0
144
1.0
144
0.0
144
0.0
144
0.0
144
0.0
144
1.0
147
0.0208333333333333
147
0.0
147
0.0
147
0.0
147
0.0
147
0.0208333333333333
147
0.0
147
0.0
147
0.0
147
0.0
147
1.0
147
0.0
147
0.0
147
0.0
147
0.0
147
1.0
  0
MATERIAL
  5
9BF8
102
{ACAD_XDICTIONARY
360
9BF9
102
}
102
{ACAD_REACTORS
330
9BE7
102
}
330
9BE7
100
AcDbMaterial
  1
Global
 72
     0
 43
0.0208333333333333
 43
0.0
 43
0.0
 43
0.0
 43
0.0
 43
0.0208333333333333
 43
0.0
 43
0.0
 43
0.0
 43
0.0
 43
1.0
 43
0.0
 43
0.0
 43
0.0
 43
0.0
 43
1.0
 77
     0
 47
0.0208333333333333
 47
0.0
 47
0.0
 47
0.0
 47
0.0
 47
0.0208333333333333
 47
0.0
 47
0.0
 47
0.0
 47
0.0
 47
1.0
 47
0.0
 47
0.0
 47
0.0
 47
0.0
 47
1.0
171
     0
 49
0.0208333333333333
 49
0.0
 49
0.0
 49
0.0
 49
0.0
 49
0.0208333333333333
 49
0.0
 49
0.0
 49
0.0
 49
0.0
 49
1.0
 49
0.0
 49
0.0
 49
0.0
 49
0.0
 49
1.0
175
     0
142
0.0208333333333333
142
0.0
142
0.0
142
0.0
142
0.0
142
0.0208333333333333
142
0.0
142
0.0
142
0.0
142
0.0
142
1.0
142
0.0
142
0.0
142
0.0
142
0.0
142
1.0
179
     0
144
0.0208333333333333
144
0.0
144
0.0
144
0.0
144
0.0
144
0.0208333333333333
144
0.0
144
0.0
144
0.0
144
0.0
144
1.0
144
0.0
144
0.0
144
0.0
144
0.0
144
1.0
147
0.0208333333333333
147
0.0
147
0.0
147
0.0
147
0.0
147
0.0208333333333333
147
0.0
147
0.0
147
0.0
147
0.0
147
1.0
147
0.0
147
0.0
147
0.0
147
0.0
147
1.0
  0
MLEADERSTYLE
  5
9C37
102
{ACAD_REACTORS
330
9C36
102
}
330
9C36
100
AcDbMLeaderStyle
170
     2
171
     1
172
     0
 90
        2
 40
0.0
 41
0.0
173
     1
 91
-1056964608
340
7477
 92
       -2
290
     1
 42
2.0
291
     1
 43
0.36
  3
Standard
 44
4.0
300

342
7475
174
     1
178
     6
175
     1
176
     0
 93
-1056964608
 45
4.0
292
     0
297
     0
 46
4.0
 94
-1056964608
 47
1.0
 49
1.0
140
1.0
293
     1
141
0.0
294
     1
177
     0
142
1.0
295
     0
296
     0
143
0.125
1001
ACAD_MLEADERVER
1070
     2
  0
MLINESTYLE
  5
7480
102
{ACAD_REACTORS
330
7473
102
}
330
0
100
AcDbMlineStyle
  2
STANDARD
 70
     0
  3

 62
     0
 51
90.0
 52
90.0
 71
     2
 49
0.5
 62
   256
  6
BYLAYER
 49
-0.5
 62
   256
  6
BYLAYER
  0
ACDBPLACEHOLDER
  5
8FD0
102
{ACAD_REACTORS
330
8FCF
102
}
330
8FCF
  0
SCALE
  5
9C15
102
{ACAD_REACTORS
330
9C14
102
}
330
9C14
100
AcDbScale
 70
     0
300
1:1
140
1.0
141
1.0
290
     1
  0
SCALE
  5
9C16
102
{ACAD_REACTORS
330
9C14
102
}
330
9C14
100
AcDbScale
 70
     0
300
1:2
140
1.0
141
2.0
290
     0
  0
SCALE
  5
9C17
102
{ACAD_REACTORS
330
9C14
102
}
330
9C14
100
AcDbScale
 70
     0
300
1:4
140
1.0
141
4.0
290
     0
  0
SCALE
  5
9C18
102
{ACAD_REACTORS
330
9C14
102
}
330
9C14
100
AcDbScale
 70
     0
300
1:5
140
1.0
141
5.0
290
     0
  0
SCALE
  5
9C19
102
{ACAD_REACTORS
330
9C14
102
}
330
9C14
100
AcDbScale
 70
     0
300
1:8
140
1.0
141
8.0
290
     0
  0
SCALE
  5
9C1A
102
{ACAD_REACTORS
330
9C14
102
}
330
9C14
100
AcDbScale
 70
     0
300
1:10
140
1.0
141
10.0
290
     0
  0
SCALE
  5
9C1B
102
{ACAD_REACTORS
330
9C14
102
}
330
9C14
100
AcDbScale
 70
     0
300
1:16
140
1.0
141
16.0
290
     0
  0
SCALE
  5
9C1C
102
{ACAD_REACTORS
330
9C14
102
}
330
9C14
100
AcDbScale
 70
     0
300
1:20
140
1.0
141
20.0
290
     0
  0
SCALE
  5
9C1D
102
{ACAD_REACTORS
330
9C14
102
}
330
9C14
100
AcDbScale
 70
     0
300
1:30
140
1.0
141
30.0
290
     0
  0
SCALE
  5
9C1E
102
{ACAD_REACTORS
330
9C14
102
}
330
9C14
100
AcDbScale
 70
     0
300
1:40
140
1.0
141
40.0
290
     0
  0
SCALE
  5
9C1F
102
{ACAD_REACTORS
330
9C14
102
}
330
9C14
100
AcDbScale
 70
     0
300
1:50
140
1.0
141
50.0
290
     0
  0
SCALE
  5
9C20
102
{ACAD_REACTORS
330
9C14
102
}
330
9C14
100
AcDbScale
 70
     0
300
1:100
140
1.0
141
100.0
290
     0
  0
SCALE
  5
9C21
102
{ACAD_REACTORS
330
9C14
102
}
330
9C14
100
AcDbScale
 70
     0
300
2:1
140
2.0
141
1.0
290
     0
  0
SCALE
  5
9C22
102
{ACAD_REACTORS
330
9C14
102
}
330
9C14
100
AcDbScale
 70
     0
300
4:1
140
4.0
141
1.0
290
     0
  0
SCALE
  5
9C23
102
{ACAD_REACTORS
330
9C14
102
}
330
9C14
100
AcDbScale
 70
     0
300
8:1
140
8.0
141
1.0
290
     0
  0
SCALE
  5
9C24
102
{ACAD_REACTORS
330
9C14
102
}
330
9C14
100
AcDbScale
 70
     0
300
10:1
140
10.0
141
1.0
290
     0
  0
SCALE
  5
9C25
102
{ACAD_REACTORS
330
9C14
102
}
330
9C14
100
AcDbScale
 70
     0
300
100:1
140
100.0
141
1.0
290
     0
  0
SCALE
  5
9C26
102
{ACAD_REACTORS
330
9C14
102
}
330
9C14
100
AcDbScale
 70
     0
300
1/128" = 1'-0"
140
0.0078125
141
12.0
290
     0
  0
SCALE
  5
9C27
102
{ACAD_REACTORS
330
9C14
102
}
330
9C14
100
AcDbScale
 70
     0
300
1/64" = 1'-0"
140
0.015625
141
12.0
290
     0
  0
SCALE
  5
9C28
102
{ACAD_REACTORS
330
9C14
102
}
330
9C14
100
AcDbScale
 70
     0
300
1/32" = 1'-0"
140
0.03125
141
12.0
290
     0
  0
SCALE
  5
9C29
102
{ACAD_REACTORS
330
9C14
102
}
330
9C14
100
AcDbScale
 70
     0
300
1/16" = 1'-0"
140
0.0625
141
12.0
290
     0
  0
SCALE
  5
9C2A
102
{ACAD_REACTORS
330
9C14
102
}
330
9C14
100
AcDbScale
 70
     0
300
3/32" = 1'-0"
140
0.09375
141
12.0
290
     0
  0
SCALE
  5
9C2B
102
{ACAD_REACTORS
330
9C14
102
}
330
9C14
100
AcDbScale
 70
     0
300
1/8" = 1'-0"
140
0.125
141
12.0
290
     0
  0
SCALE
  5
9C2C
102
{ACAD_REACTORS
330
9C14
102
}
330
9C14
100
AcDbScale
 70
     0
300
3/16" = 1'-0"
140
0.1875
141
12.0
290
     0
  0
SCALE
  5
9C2D
102
{ACAD_REACTORS
330
9C14
102
}
330
9C14
100
AcDbScale
 70
     0
300
1/4" = 1'-0"
140
0.25
141
12.0
290
     0
  0
SCALE
  5
9C2E
102
{ACAD_REACTORS
330
9C14
102
}
330
9C14
100
AcDbScale
 70
     0
300
3/8" = 1'-0"
140
0.375
141
12.0
290
     0
  0
SCALE
  5
9C2F
102
{ACAD_REACTORS
330
9C14
102
}
330
9C14
100
AcDbScale
 70
     0
300
1/2" = 1'-0"
140
0.5
141
12.0
290
     0
  0
SCALE
  5
9C30
102
{ACAD_REACTORS
330
9C14
102
}
330
9C14
100
AcDbScale
 70
     0
300
3/4" = 1'-0"
140
0.75
141
12.0
290
     0
  0
SCALE
  5
9C31
102
{ACAD_REACTORS
330
9C14
102
}
330
9C14
100
AcDbScale
 70
     0
300
1" = 1'-0"
140
1.0
141
12.0
290
     0
  0
SCALE
  5
9C32
102
{ACAD_REACTORS
330
9C14
102
}
330
9C14
100
AcDbScale
 70
     0
300
1-1/2" = 1'-0"
140
1.5
141
12.0
290
     0
  0
SCALE
  5
9C33
102
{ACAD_REACTORS
330
9C14
102
}
330
9C14
100
AcDbScale
 70
     0
300
3" = 1'-0"
140
3.0
141
12.0
290
     0
  0
SCALE
  5
9C34
102
{ACAD_REACTORS
330
9C14
102
}
330
9C14
100
AcDbScale
 70
     0
300
6" = 1'-0"
140
6.0
141
12.0
290
     0
  0
SCALE
  5
9C35
102
{ACAD_REACTORS
330
9C14
102
}
330
9C14
100
AcDbScale
 70
     0
300
1'-0" = 1'-0"
140
12.0
141
12.0
290
     0
  0
TABLESTYLE
  5
9C13
102
{ACAD_XDICTIONARY
360
9E89
102
}
102
{ACAD_REACTORS
330
9C12
102
}
330
9C12
100
AcDbTableStyle
  3
Standard
 70
     0
 71
     0
 40
1.5
 41
1.5
280
     0
281
     0
  7
STANDARD
140
4.5
170
     2
 62
     0
 63
     7
283
     0
274
    -2
284
     1
 64
     0
275
    -2
285
     1
 65
     0
276
    -2
286
     1
 66
     0
277
    -2
287
     1
 67
     0
278
    -2
288
     1
 68
     0
279
    -2
289
     1
 69
     0
  7
STANDARD
140
6.0
170
     5
 62
     0
 63
     7
283
     0
274
    -2
284
     1
 64
     0
275
    -2
285
     1
 65
     0
276
    -2
286
     1
 66
     0
277
    -2
287
     1
 67
     0
278
    -2
288
     1
 68
     0
279
    -2
289
     1
 69
     0
  7
STANDARD
140
4.5
170
     5
 62
     0
 63
     7
283
     0
274
    -2
284
     1
 64
     0
275
    -2
285
     1
 65
     0
276
    -2
286
     1
 66
     0
277
    -2
287
     1
 67
     0
278
    -2
288
     1
 68
     0
279
    -2
289
     1
 69
     0
  0
VISUALSTYLE
  5
9C06
102
{ACAD_REACTORS
330
9C00
102
}
330
9C00
100
AcDbVisualStyle
  2
2dWireframe
 70
     4
 71
     0
 72
     2
 73
     0
 90
        0
 40
-0.6
 41
-30.0
 62
     5
 63
     7
 74
     1
 91
        4
 64
     7
 65
   257
 75
     1
175
     1
 42
1.0
 92
        0
 66
   257
 43
1.0
 76
     1
 77
     6
 78
     2
 67
     7
 79
     5
170
     0
171
     0
290
     0
174
     0
 93
        1
 44
0.0
173
     0
291
     0
 45
0.0
1001
ACAD
1000
AcDbSavedByObjectVersion
1070
     0
  0
VISUALSTYLE
  5
9C08
102
{ACAD_REACTORS
330
9C00
102
}
330
9C00
100
AcDbVisualStyle
  2
3D Hidden
 70
     6
 71
     1
 72
     2
 73
     2
 90
        0
 40
-0.6
 41
-30.0
 62
     5
 63
     7
 74
     2
 91
        2
 64
     7
 65
   257
 75
     2
175
     1
 42
40.0
 92
        0
 66
   257
 43
1.0
 76
     1
 77
     6
 78
     2
 67
     7
 79
     3
170
     0
171
     0
290
     0
174
     0
 93
        1
 44
0.0
173
     0
291
     0
 45
0.0
1001
ACAD
1000
AcDbSavedByObjectVersion
1070
     0
  0
VISUALSTYLE
  5
9C07
102
{ACAD_REACTORS
330
9C00
102
}
330
9C00
100
AcDbVisualStyle
  2
3dWireframe
 70
     5
 71
     0
 72
     2
 73
     0
 90
        0
 40
-0.6
 41
-30.0
 62
     5
 63
     7
 74
     1
 91
        4
 64
     7
 65
   257
 75
     1
175
     1
 42
1.0
 92
        0
 66
   257
 43
1.0
 76
     1
 77
     6
 78
     2
 67
     7
 79
     5
170
     0
171
     0
290
     0
174
     0
 93
        1
 44
0.0
173
     0
291
     0
 45
0.0
1001
ACAD
1000
AcDbSavedByObjectVersion
1070
     0
  0
VISUALSTYLE
  5
9C05
102
{ACAD_REACTORS
330
9C00
102
}
330
9C00
100
AcDbVisualStyle
  2
Basic
 70
     7
 71
     1
 72
     0
 73
     1
 90
        0
 40
-0.6
 41
-30.0
 62
     5
 63
     7
 74
     0
 91
        4
 64
     7
 65
   257
 75
     1
175
     1
 42
1.0
 92
        8
 66
     7
 43
1.0
 76
     1
 77
     6
 78
     2
 67
     7
 79
     5
170
     0
171
     0
290
     0
174
     0
 93
        1
 44
0.0
173
     0
291
     1
 45
0.0
1001
ACAD
1000
AcDbSavedByObjectVersion
1070
     0
  0
VISUALSTYLE
  5
9C0C
102
{ACAD_REACTORS
330
9C00
102
}
330
9C00
100
AcDbVisualStyle
  2
Brighten
 70
    12
 71
     2
 72
     2
 73
     0
 90
        0
 40
-0.6
 41
-30.0
 62
     5
 63
     7
 74
     1
 91
        4
 64
     7
 65
   257
 75
     1
175
     1
 42
1.0
 92
        8
 66
     7
 43
1.0
 76
     1
 77
     6
 78
     2
 67
     7
 79
     5
170
     0
171
     0
290
     0
174
     0
 93
        1
 44
50.0
173
     0
291
     1
 45
0.0
1001
ACAD
1000
AcDbSavedByObjectVersion
1070
     0
  0
VISUALSTYLE
  5
9C10
102
{ACAD_REACTORS
330
9C00
102
}
330
9C00
100
AcDbVisualStyle
  2
ColorChange
 70
    16
 71
     2
 72
     2
 73
     3
 90
        0
 40
-0.6
 41
-30.0
 62
     5
 63
     8
 74
     1
 91
        4
 64
     7
 65
   257
 75
     1
175
     1
 42
1.0
 92
        8
 66
     8
 43
1.0
 76
     1
 77
     6
 78
     2
 67
     7
 79
     5
170
     0
171
     0
290
     0
174
     0
 93
        1
 44
0.0
173
     0
291
     1
 45
0.0
1001
ACAD
1000
AcDbSavedByObjectVersion
1070
     0
  0
VISUALSTYLE
  5
9C09
102
{ACAD_REACTORS
330
9C00
102
}
330
9C00
100
AcDbVisualStyle
  2
Conceptual
 70
     9
 71
     3
 72
     2
 73
     0
 90
        0
 40
-0.6
 41
-30.0
 62
     5
 63
     7
 74
     2
 91
        2
 64
     7
 65
   257
 75
     1
175
     1
 42
40.0
 92
        8
 66
     7
 43
1.0
 76
     1
 77
     6
 78
     2
 67
     7
 79
     3
170
     0
171
     0
290
     0
174
     0
 93
        1
 44
0.0
173
     0
291
     0
 45
0.0
1001
ACAD
1000
AcDbSavedByObjectVersion
1070
     0
  0
VISUALSTYLE
  5
9C0B
102
{ACAD_REACTORS
330
9C00
102
}
330
9C00
100
AcDbVisualStyle
  2
Dim
 70
    11
 71
     2
 72
     2
 73
     0
 90
        0
 40
-0.6
 41
-30.0
 62
     5
 63
     7
 74
     1
 91
        4
 64
     7
 65
   257
 75
     1
175
     1
 42
1.0
 92
        8
 66
     7
 43
1.0
 76
     1
 77
     6
 78
     2
 67
     7
 79
     5
170
     0
171
     0
290
     0
174
     0
 93
        1
 44
-50.0
173
     0
291
     1
 45
0.0
1001
ACAD
1000
AcDbSavedByObjectVersion
1070
     0
  0
VISUALSTYLE
  5
9C0F
102
{ACAD_REACTORS
330
9C00
102
}
330
9C00
100
AcDbVisualStyle
  2
Facepattern
 70
    15
 71
     2
 72
     2
 73
     0
 90
        0
 40
-0.6
 41
-30.0
 62
     5
 63
     7
 74
     1
 91
        4
 64
     7
 65
   257
 75
     1
175
     1
 42
1.0
 92
        8
 66
     7
 43
1.0
 76
     1
 77
     6
 78
     2
 67
     7
 79
     5
170
     0
171
     0
290
     0
174
     0
 93
        1
 44
0.0
173
     0
291
     1
 45
0.0
1001
ACAD
1000
AcDbSavedByObjectVersion
1070
     0
  0
VISUALSTYLE
  5
9C01
102
{ACAD_REACTORS
330
9C00
102
}
330
9C00
100
AcDbVisualStyle
  2
Flat
 70
     0
 71
     2
 72
     1
 73
     1
 90
        2
 40
-0.6
 41
30.0
 62
     5
 63
     7
 74
     0
 91
        4
 64
     7
 65
   257
 75
     1
175
     1
 42
1.0
 92
        8
 66
     7
 43
1.0
 76
     1
 77
     6
 78
     2
 67
     7
 79
     5
170
     0
171
     0
290
     0
174
     0
 93
       13
 44
0.0
173
     0
291
     1
 45
0.0
1001
ACAD
1000
AcDbSavedByObjectVersion
1070
     0
  0
VISUALSTYLE
  5
9C02
102
{ACAD_REACTORS
330
9C00
102
}
330
9C00
100
AcDbVisualStyle
  2
FlatWithEdges
 70
     1
 71
     2
 72
     1
 73
     1
 90
        2
 40
-0.6
 41
30.0
 62
     5
 63
     7
 74
     1
 91
        4
 64
     7
 65
   257
 75
     1
175
     1
 42
1.0
 92
        0
 66
   257
 43
1.0
 76
     1
 77
     6
 78
     2
 67
     7
 79
     5
170
     0
171
     0
290
     0
174
     0
 93
       13
 44
0.0
173
     0
291
     1
 45
0.0
1001
ACAD
1000
AcDbSavedByObjectVersion
1070
     0
  0
VISUALSTYLE
  5
9C03
102
{ACAD_REACTORS
330
9C00
102
}
330
9C00
100
AcDbVisualStyle
  2
Gouraud
 70
     2
 71
     2
 72
     2
 73
     1
 90
        2
 40
-0.6
 41
30.0
 62
     5
 63
     7
 74
     0
 91
        4
 64
     7
 65
   257
 75
     1
175
     1
 42
1.0
 92
        0
 66
     7
 43
1.0
 76
     1
 77
     6
 78
     2
 67
     7
 79
     5
170
     0
171
     0
290
     0
174
     0
 93
       13
 44
0.0
173
     0
291
     1
 45
0.0
1001
ACAD
1000
AcDbSavedByObjectVersion
1070
     0
  0
VISUALSTYLE
  5
9C04
102
{ACAD_REACTORS
330
9C00
102
}
330
9C00
100
AcDbVisualStyle
  2
GouraudWithEdges
 70
     3
 71
     2
 72
     2
 73
     1
 90
        2
 40
-0.6
 41
30.0
 62
     5
 63
     7
 74
     1
 91
        4
 64
     7
 65
   257
 75
     1
175
     1
 42
1.0
 92
        0
 66
   257
 43
1.0
 76
     1
 77
     6
 78
     2
 67
     7
 79
     5
170
     0
171
     0
290
     0
174
     0
 93
       13
 44
0.0
173
     0
291
     1
 45
0.0
1001
ACAD
1000
AcDbSavedByObjectVersion
1070
     0
  0
VISUALSTYLE
  5
9C0E
102
{ACAD_REACTORS
330
9C00
102
}
330
9C00
100
AcDbVisualStyle
  2
Linepattern
 70
    14
 71
     2
 72
     2
 73
     0
 90
        0
 40
-0.6
 41
-30.0
 62
     5
 63
     7
 74
     1
 91
        4
 64
     7
 65
   257
 75
     7
175
     7
 42
1.0
 92
        8
 66
     7
 43
1.0
 76
     1
 77
     6
 78
     2
 67
     7
 79
     5
170
     0
171
     0
290
     0
174
     0
 93
        1
 44
0.0
173
     0
291
     1
 45
0.0
1001
ACAD
1000
AcDbSavedByObjectVersion
1070
     0
  0
VISUALSTYLE
  5
9C0A
102
{ACAD_REACTORS
330
9C00
102
}
330
9C00
100
AcDbVisualStyle
  2
Realistic
 70
     8
 71
     2
 72
     2
 73
     0
 90
        0
 40
-0.6
 41
-30.0
 62
     5
 63
     7
 74
     1
 91
        0
 64
     7
 65
   257
 75
     1
175
     1
 42
1.0
 92
        8
 66
     8
 43
1.0
 76
     1
 77
     6
 78
     2
 67
     7
 79
     5
170
     0
171
     0
290
     0
174
     0
 93
       13
 44
0.0
173
     0
291
     0
 45
0.0
1001
ACAD
1000
AcDbSavedByObjectVersion
1070
     0
  0
VISUALSTYLE
  5
9C0D
102
{ACAD_REACTORS
330
9C00
102
}
330
9C00
100
AcDbVisualStyle
  2
Thicken
 70
    13
 71
     2
 72
     2
 73
     0
 90
        0
 40
-0.6
 41
-30.0
 62
     5
 63
     7
 74
     1
 91
        4
 64
     7
 65
   257
 75
     1
175
     1
 42
1.0
 92
       12
 66
     7
 43
1.0
 76
     1
 77
     6
 78
     2
 67
     7
 79
     5
170
     0
171
     0
290
     0
174
     0
 93
        1
 44
0.0
173
     0
291
     1
 45
0.0
1001
ACAD
1000
AcDbSavedByObjectVersion
1070
     0
  0
DICTIONARYVAR
  5
9E87
102
{ACAD_REACTORS
330
789B
102
}
330
789B
100
DictionaryVariables
280
     0
  1
1:1
  0
DICTIONARYVAR
  5
9E86
102
{ACAD_REACTORS
330
789B
102
}
330
789B
100
DictionaryVariables
280
     0
  1
STANDARD
  0
DICTIONARYVAR
  5
9E85
102
{ACAD_REACTORS
330
789B
102
}
330
789B
100
DictionaryVariables
280
     0
  1
STANDARD
  0
DICTIONARYVAR
  5
8FDB
102
{ACAD_REACTORS
330
789B
102
}
330
789B
100
DictionaryVariables
280
     0
  1
1
  0
DICTIONARYVAR
  5
9E88
102
{ACAD_REACTORS
330
789B
102
}
330
789B
100
DictionaryVariables
280
     0
  1
0
  0
DICTIONARYVAR
  5
789C
102
{ACAD_REACTORS
330
789B
102
}
330
789B
100
DictionaryVariables
280
     0
  1
96
  0
DICTIONARY
  5
9E8F
330
8FD3
100
AcDbDictionary
280
     1
281
     1
  3
ACAD_XREC_ROUNDTRIP
360
9E90
  0
DICTIONARY
  5
9E91
330
8FD4
100
AcDbDictionary
280
     1
281
     1
  3
ACAD_XREC_ROUNDTRIP
360
9E92
  0
DICTIONARY
  5
9BF1
330
9BF0
100
AcDbDictionary
280
     1
281
     1
  3
ACAD_XREC_ROUNDTRIP
360
9E94
  3
BUMPTILE
360
9BF3
  3
DIFFUSETILE
360
9BF2
  3
OPACITYTILE
360
9BF6
  3
REFLECTIONTILE
360
9BF5
  3
REFRACTIONTILE
360
9BF7
  3
SPECULARTILE
360
9BF4
  0
DICTIONARY
  5
9BE9
330
9BE8
100
AcDbDictionary
280
     1
281
     1
  3
ACAD_XREC_ROUNDTRIP
360
9E93
  3
BUMPTILE
360
9BEB
  3
DIFFUSETILE
360
9BEA
  3
OPACITYTILE
360
9BEE
  3
REFLECTIONTILE
360
9BED
  3
REFRACTIONTILE
360
9BEF
  3
SPECULARTILE
360
9BEC
  0
DICTIONARY
  5
9BF9
330
9BF8
100
AcDbDictionary
280
     1
281
     1
  3
ACAD_XREC_ROUNDTRIP
360
9E95
  3
BUMPTILE
360
9BFB
  3
DIFFUSETILE
360
9BFA
  3
OPACITYTILE
360
9BFE
  3
REFLECTIONTILE
360
9BFD
  3
REFRACTIONTILE
360
9BFF
  3
SPECULARTILE
360
9BFC
  0
DICTIONARY
  5
9E89
330
9C13
100
AcDbDictionary
280
     1
281
     1
  3
ACAD_ROUNDTRIP_2008_TABLESTYLE_CELLSTYLEMAP
360
9E8A
  3
ACAD_XREC_ROUNDTRIP
360
9E96
  0
XRECORD
  5
9E90
102
{ACAD_REACTORS
330
9E8F
102
}
330
9E8F
100
AcDbXrecord
280
     1
102
SHADEPLOT
 70
     0
102
SHADEPLOTRESLEVEL
 70
     2
102
SHADEPLOTCUSTOMDPI
 70
   300
  0
XRECORD
  5
9E92
102
{ACAD_REACTORS
330
9E91
102
}
330
9E91
100
AcDbXrecord
280
     1
102
SHADEPLOT
 70
     0
102
SHADEPLOTRESLEVEL
 70
     2
102
SHADEPLOTCUSTOMDPI
 70
   300
  0
XRECORD
  5
9E94
102
{ACAD_REACTORS
330
9BF1
102
}
330
9BF1
100
AcDbXrecord
280
     1
102
MATERIAL
148
0.0
149
0.0
149
0.0
 93
        0
 94
      127
282
     0
 72
     0
 77
     0
171
     0
175
     0
179
     0
273
     0
  0
XRECORD
  5
9BF3
102
{ACAD_REACTORS
330
9BF1
102
}
330
9BF1
100
AcDbXrecord
280
     1
270
     1
271
     1
  0
XRECORD
  5
9BF2
102
{ACAD_REACTORS
330
9BF1
102
}
330
9BF1
100
AcDbXrecord
280
     1
270
     1
271
     1
  0
XRECORD
  5
9BF6
102
{ACAD_REACTORS
330
9BF1
102
}
330
9BF1
100
AcDbXrecord
280
     1
270
     1
271
     1
  0
XRECORD
  5
9BF5
102
{ACAD_REACTORS
330
9BF1
102
}
330
9BF1
100
AcDbXrecord
280
     1
270
     1
271
     1
  0
XRECORD
  5
9BF7
102
{ACAD_REACTORS
330
9BF1
102
}
330
9BF1
100
AcDbXrecord
280
     1
270
     1
271
     1
  0
XRECORD
  5
9BF4
102
{ACAD_REACTORS
330
9BF1
102
}
330
9BF1
100
AcDbXrecord
280
     1
270
     1
271
     1
  0
XRECORD
  5
9E93
102
{ACAD_REACTORS
330
9BE9
102
}
330
9BE9
100
AcDbXrecord
280
     1
102
MATERIAL
148
0.0
149
0.0
149
0.0
 93
        0
 94
      127
282
     0
 72
     0
 77
     0
171
     0
175
     0
179
     0
273
     0
  0
XRECORD
  5
9BEB
102
{ACAD_REACTORS
330
9BE9
102
}
330
9BE9
100
AcDbXrecord
280
     1
270
     1
271
     1
  0
XRECORD
  5
9BEA
102
{ACAD_REACTORS
330
9BE9
102
}
330
9BE9
100
AcDbXrecord
280
     1
270
     1
271
     1
  0
XRECORD
  5
9BEE
102
{ACAD_REACTORS
330
9BE9
102
}
330
9BE9
100
AcDbXrecord
280
     1
270
     1
271
     1
  0
XRECORD
  5
9BED
102
{ACAD_REACTORS
330
9BE9
102
}
330
9BE9
100
AcDbXrecord
280
     1
270
     1
271
     1
  0
XRECORD
  5
9BEF
102
{ACAD_REACTORS
330
9BE9
102
}
330
9BE9
100
AcDbXrecord
280
     1
270
     1
271
     1
  0
XRECORD
  5
9BEC
102
{ACAD_REACTORS
330
9BE9
102
}
330
9BE9
100
AcDbXrecord
280
     1
270
     1
271
     1
  0
XRECORD
  5
9E95
102
{ACAD_REACTORS
330
9BF9
102
}
330
9BF9
100
AcDbXrecord
280
     1
102
MATERIAL
148
0.0
149
0.0
149
0.0
 93
        0
 94
      127
282
     0
 72
     0
 77
     0
171
     0
175
     0
179
     0
273
     0
  0
XRECORD
  5
9BFB
102
{ACAD_REACTORS
330
9BF9
102
}
330
9BF9
100
AcDbXrecord
280
     1
270
     1
271
     1
  0
XRECORD
  5
9BFA
102
{ACAD_REACTORS
330
9BF9
102
}
330
9BF9
100
AcDbXrecord
280
     1
270
     1
271
     1
  0
XRECORD
  5
9BFE
102
{ACAD_REACTORS
330
9BF9
102
}
330
9BF9
100
AcDbXrecord
280
     1
270
     1
271
     1
  0
XRECORD
  5
9BFD
102
{ACAD_REACTORS
330
9BF9
102
}
330
9BF9
100
AcDbXrecord
280
     1
270
     1
271
     1
  0
XRECORD
  5
9BFF
102
{ACAD_REACTORS
330
9BF9
102
}
330
9BF9
100
AcDbXrecord
280
     1
270
     1
271
     1
  0
XRECORD
  5
9BFC
102
{ACAD_REACTORS
330
9BF9
102
}
330
9BF9
100
AcDbXrecord
280
     1
270
     1
271
     1
  0
CELLSTYLEMAP
  5
9E8A
102
{ACAD_REACTORS
330
9E89
102
}
330
9E89
100
AcDbCellStyleMap
 90
        3
300
CELLSTYLE
  1
TABLEFORMAT_BEGIN
 90
        5
170
     1
 91
        0
 92
    32768
 62
   257
 93
        1
300
CONTENTFORMAT
  1
CONTENTFORMAT_BEGIN
 90
        0
 91
        0
 92
      512
 93
        0
300

 40
0.0
140
1.0
 94
        5
 62
     0
340
7475
144
6.0
309
CONTENTFORMAT_END
171
     1
301
MARGIN
  1
CELLMARGIN_BEGIN
 40
1.5
 40
1.5
 40
1.5
 40
1.5
 40
4.5
 40
4.5
309
CELLMARGIN_END
 94
        6
 95
        1
302
GRIDFORMAT
  1
GRIDFORMAT_BEGIN
 90
        0
 91
        1
 62
     0
 92
       -2
340
0
 93
        0
 40
1.125
309
GRIDFORMAT_END
 95
        2
302
GRIDFORMAT
  1
GRIDFORMAT_BEGIN
 90
        0
 91
        1
 62
     0
 92
       -2
340
0
 93
        0
 40
1.125
309
GRIDFORMAT_END
 95
        4
302
GRIDFORMAT
  1
GRIDFORMAT_BEGIN
 90
        0
 91
        1
 62
     0
 92
       -2
340
0
 93
        0
 40
1.125
309
GRIDFORMAT_END
 95
        8
302
GRIDFORMAT
  1
GRIDFORMAT_BEGIN
 90
        0
 91
        1
 62
     0
 92
       -2
340
0
 93
        0
 40
1.125
309
GRIDFORMAT_END
 95
       16
302
GRIDFORMAT
  1
GRIDFORMAT_BEGIN
 90
        0
 91
        1
 62
     0
 92
       -2
340
0
 93
        0
 40
1.125
309
GRIDFORMAT_END
 95
       32
302
GRIDFORMAT
  1
GRIDFORMAT_BEGIN
 90
        0
 91
        1
 62
     0
 92
       -2
340
0
 93
        0
 40
1.125
309
GRIDFORMAT_END
309
TABLEFORMAT_END
  1
CELLSTYLE_BEGIN
 90
        1
 91
        1
300
_TITLE
309
CELLSTYLE_END
300
CELLSTYLE
  1
TABLEFORMAT_BEGIN
 90
        5
170
     1
 91
        0
 92
        0
 62
   257
 93
        1
300
CONTENTFORMAT
  1
CONTENTFORMAT_BEGIN
 90
        0
 91
        0
 92
      512
 93
        0
300

 40
0.0
140
1.0
 94
        5
 62
     0
340
7475
144
4.5
309
CONTENTFORMAT_END
171
     1
301
MARGIN
  1
CELLMARGIN_BEGIN
 40
1.5
 40
1.5
 40
1.5
 40
1.5
 40
4.5
 40
4.5
309
CELLMARGIN_END
 94
        6
 95
        1
302
GRIDFORMAT
  1
GRIDFORMAT_BEGIN
 90
        0
 91
        1
 62
     0
 92
       -2
340
0
 93
        0
 40
1.125
309
GRIDFORMAT_END
 95
        2
302
GRIDFORMAT
  1
GRIDFORMAT_BEGIN
 90
        0
 91
        1
 62
     0
 92
       -2
340
0
 93
        0
 40
1.125
309
GRIDFORMAT_END
 95
        4
302
GRIDFORMAT
  1
GRIDFORMAT_BEGIN
 90
        0
 91
        1
 62
     0
 92
       -2
340
0
 93
        0
 40
1.125
309
GRIDFORMAT_END
 95
        8
302
GRIDFORMAT
  1
GRIDFORMAT_BEGIN
 90
        0
 91
        1
 62
     0
 92
       -2
340
0
 93
        0
 40
1.125
309
GRIDFORMAT_END
 95
       16
302
GRIDFORMAT
  1
GRIDFORMAT_BEGIN
 90
        0
 91
        1
 62
     0
 92
       -2
340
0
 93
        0
 40
1.125
309
GRIDFORMAT_END
 95
       32
302
GRIDFORMAT
  1
GRIDFORMAT_BEGIN
 90
        0
 91
        1
 62
     0
 92
       -2
340
0
 93
        0
 40
1.125
309
GRIDFORMAT_END
309
TABLEFORMAT_END
  1
CELLSTYLE_BEGIN
 90
        2
 91
        1
300
_HEADER
309
CELLSTYLE_END
300
CELLSTYLE
  1
TABLEFORMAT_BEGIN
 90
        5
170
     1
 91
        0
 92
        0
 62
   257
 93
        1
300
CONTENTFORMAT
  1
CONTENTFORMAT_BEGIN
 90
        0
 91
        0
 92
      512
 93
        0
300

 40
0.0
140
1.0
 94
        2
 62
     0
340
7475
144
4.5
309
CONTENTFORMAT_END
171
     1
301
MARGIN
  1
CELLMARGIN_BEGIN
 40
1.5
 40
1.5
 40
1.5
 40
1.5
 40
4.5
 40
4.5
309
CELLMARGIN_END
 94
        6
 95
        1
302
GRIDFORMAT
  1
GRIDFORMAT_BEGIN
 90
        0
 91
        1
 62
     0
 92
       -2
340
0
 93
        0
 40
1.125
309
GRIDFORMAT_END
 95
        2
302
GRIDFORMAT
  1
GRIDFORMAT_BEGIN
 90
        0
 91
        1
 62
     0
 92
       -2
340
0
 93
        0
 40
1.125
309
GRIDFORMAT_END
 95
        4
302
GRIDFORMAT
  1
GRIDFORMAT_BEGIN
 90
        0
 91
        1
 62
     0
 92
       -2
340
0
 93
        0
 40
1.125
309
GRIDFORMAT_END
 95
        8
302
GRIDFORMAT
  1
GRIDFORMAT_BEGIN
 90
        0
 91
        1
 62
     0
 92
       -2
340
0
 93
        0
 40
1.125
309
GRIDFORMAT_END
 95
       16
302
GRIDFORMAT
  1
GRIDFORMAT_BEGIN
 90
        0
 91
        1
 62
     0
 92
       -2
340
0
 93
        0
 40
1.125
309
GRIDFORMAT_END
 95
       32
302
GRIDFORMAT
  1
GRIDFORMAT_BEGIN
 90
        0
 91
        1
 62
     0
 92
       -2
340
0
 93
        0
 40
1.125
309
GRIDFORMAT_END
309
TABLEFORMAT_END
  1
CELLSTYLE_BEGIN
 90
        3
 91
        2
300
_DATA
309
CELLSTYLE_END
  0
XRECORD
  5
9E96
102
{ACAD_REACTORS
330
9E89
102
}
330
9E89
100
AcDbXrecord
280
     1
102
ACAD_ROUNDTRIP_PRE2007_TABLESTYLE
 90
      512
 91
        0
  1

 92
      512
 93
        0
  2

 94
      512
 95
        0
  3

  0
ENDSEC
  0
EOF
