  0
SECTION
  2
HEADER
  9
$ACADVER
  1
AC1015
  9
$ACADMAINTVER
 70
    20
  9
$DWGCODEPAGE
  3
ANSI_932
  9
$INSBASE
 10
0.0
 20
0.0
 30
0.0
  9
$EXTMIN
 10
-0.0513832771739544
 20
-0.1281711586507299
 30
-0.0000000000000084
  9
$EXTMAX
 10
2970.128282185975
 20
2100.128184321008
 30
0.0000000000000069
  9
$LIMMIN
 10
0.0
 20
0.0
  9
$LIMMAX
 10
420.0
 20
297.0
  9
$ORTHOMODE
 70
     1
  9
$REGENMODE
 70
     1
  9
$FILLMODE
 70
     1
  9
$QTEXTMODE
 70
     0
  9
$MIRRTEXT
 70
     1
  9
$LTSCALE
 40
0.5
  9
$ATTMODE
 70
     1
  9
$TEXTSIZE
 40
2.799999999999999
  9
$TRACEWID
 40
1.0
  9
$TEXTSTYLE
  7
SANWA
  9
$CLAYER
  8
0
  9
$CELTYPE
  6
BYLAYER
  9
$CECOLOR
 62
   256
  9
$CELTSCALE
 40
1.0
  9
$DISPSILH
 70
     0
  9
$DIMSCALE
 40
10.0
  9
$DIMASZ
 40
1.5
  9
$DIMEXO
 40
1.0
  9
$DIMDLI
 40
5.0
  9
$DIMRND
 40
0.0
  9
$DIMDLE
 40
0.0
  9
$DIMEXE
 40
0.5
  9
$DIMTP
 40
0.0
  9
$DIMTM
 40
0.0
  9
$DIMTXT
 40
2.0
  9
$DIMCEN
 40
0.0
  9
$DIMTSZ
 40
0.0
  9
$DIMTOL
 70
     0
  9
$DIMLIM
 70
     0
  9
$DIMTIH
 70
     0
  9
$DIMTOH
 70
     0
  9
$DIMSE1
 70
     0
  9
$DIMSE2
 70
     0
  9
$DIMTAD
 70
     1
  9
$DIMZIN
 70
     8
  9
$DIMBLK
  1

  9
$DIMASO
 70
     1
  9
$DIMSHO
 70
     1
  9
$DIMPOST
  1

  9
$DIMAPOST
  1

  9
$DIMALT
 70
     0
  9
$DIMALTD
 70
     2
  9
$DIMALTF
 40
0.0394
  9
$DIMLFAC
 40
1.0
  9
$DIMTOFL
 70
     1
  9
$DIMTVP
 40
0.0
  9
$DIMTIX
 70
     1
  9
$DIMSOXD
 70
     0
  9
$DIMSAH
 70
     0
  9
$DIMBLK1
  1

  9
$DIMBLK2
  1

  9
$DIMSTYLE
  2
SANWA
  9
$DIMCLRD
 70
   256
  9
$DIMCLRE
 70
   256
  9
$DIMCLRT
 70
   256
  9
$DIMTFAC
 40
1.0
  9
$DIMGAP
 40
1.0
  9
$DIMJUST
 70
     0
  9
$DIMSD1
 70
     0
  9
$DIMSD2
 70
     0
  9
$DIMTOLJ
 70
     1
  9
$DIMTZIN
 70
     0
  9
$DIMALTZ
 70
     0
  9
$DIMALTTZ
 70
     0
  9
$DIMUPT
 70
     0
  9
$DIMDEC
 70
     4
  9
$DIMTDEC
 70
     4
  9
$DIMALTU
 70
     2
  9
$DIMALTTD
 70
     2
  9
$DIMTXSTY
  7
SANWA
  9
$DIMAUNIT
 70
     0
  9
$DIMADEC
 70
     0
  9
$DIMALTRND
 40
0.0
  9
$DIMAZIN
 70
     0
  9
$DIMDSEP
 70
    46
  9
$DIMATFIT
 70
     3
  9
$DIMFRAC
 70
     0
  9
$DIMLDRBLK
  1

  9
$DIMLUNIT
 70
     2
  9
$DIMLWD
 70
    -2
  9
$DIMLWE
 70
    -2
  9
$DIMTMOVE
 70
     0
  9
$LUNITS
 70
     2
  9
$LUPREC
 70
     4
  9
$SKETCHINC
 40
1.0
  9
$FILLETRAD
 40
10.0
  9
$AUNITS
 70
     0
  9
$AUPREC
 70
     0
  9
$MENU
  1
acad
  9
$ELEVATION
 40
0.0
  9
$PELEVATION
 40
0.0
  9
$THICKNESS
 40
0.0
  9
$LIMCHECK
 70
     0
  9
$CHAMFERA
 40
0.0
  9
$CHAMFERB
 40
0.0
  9
$CHAMFERC
 40
0.0
  9
$CHAMFERD
 40
0.0
  9
$SKPOLY
 70
     1
  9
$TDCREATE
 40
2451573.466993750
  9
$TDUCREATE
 40
2451573.091993750
  9
$TDUPDATE
 40
2455412.384823403
  9
$TDUUPDATE
 40
2455412.009823403
  9
$TDINDWG
 40
0.4362005440
  9
$TDUSRTIMER
 40
0.4362005440
  9
$USRTIMER
 70
     1
  9
$ANGBASE
 50
0.0
  9
$ANGDIR
 70
     0
  9
$PDMODE
 70
     0
  9
$PDSIZE
 40
0.0
  9
$PLINEWID
 40
0.0
  9
$SPLFRAME
 70
     0
  9
$SPLINETYPE
 70
     6
  9
$SPLINESEGS
 70
     8
  9
$HANDSEED
  5
A47D
  9
$SURFTAB1
 70
     6
  9
$SURFTAB2
 70
     6
  9
$SURFTYPE
 70
     6
  9
$SURFU
 70
     6
  9
$SURFV
 70
     6
  9
$UCSBASE
  2

  9
$UCSNAME
  2

  9
$UCSORG
 10
0.0
 20
0.0
 30
0.0
  9
$UCSXDIR
 10
1.0
 20
0.0
 30
0.0
  9
$UCSYDIR
 10
0.0
 20
1.0
 30
0.0
  9
$UCSORTHOREF
  2

  9
$UCSORTHOVIEW
 70
     0
  9
$UCSORGTOP
 10
0.0
 20
0.0
 30
0.0
  9
$UCSORGBOTTOM
 10
0.0
 20
0.0
 30
0.0
  9
$UCSORGLEFT
 10
0.0
 20
0.0
 30
0.0
  9
$UCSORGRIGHT
 10
0.0
 20
0.0
 30
0.0
  9
$UCSORGFRONT
 10
0.0
 20
0.0
 30
0.0
  9
$UCSORGBACK
 10
0.0
 20
0.0
 30
0.0
  9
$PUCSBASE
  2

  9
$PUCSNAME
  2

  9
$PUCSORG
 10
0.0
 20
0.0
 30
0.0
  9
$PUCSXDIR
 10
1.0
 20
0.0
 30
0.0
  9
$PUCSYDIR
 10
0.0
 20
1.0
 30
0.0
  9
$PUCSORTHOREF
  2

  9
$PUCSORTHOVIEW
 70
     0
  9
$PUCSORGTOP
 10
0.0
 20
0.0
 30
0.0
  9
$PUCSORGBOTTOM
 10
0.0
 20
0.0
 30
0.0
  9
$PUCSORGLEFT
 10
0.0
 20
0.0
 30
0.0
  9
$PUCSORGRIGHT
 10
0.0
 20
0.0
 30
0.0
  9
$PUCSORGFRONT
 10
0.0
 20
0.0
 30
0.0
  9
$PUCSORGBACK
 10
0.0
 20
0.0
 30
0.0
  9
$USERI1
 70
     0
  9
$USERI2
 70
     0
  9
$USERI3
 70
     0
  9
$USERI4
 70
     0
  9
$USERI5
 70
     0
  9
$USERR1
 40
0.0
  9
$USERR2
 40
0.0
  9
$USERR3
 40
0.0
  9
$USERR4
 40
0.0
  9
$USERR5
 40
0.0
  9
$WORLDVIEW
 70
     1
  9
$SHADEDGE
 70
     3
  9
$SHADEDIF
 70
    70
  9
$TILEMODE
 70
     1
  9
$MAXACTVP
 70
    48
  9
$PINSBASE
 10
0.0
 20
0.0
 30
0.0
  9
$PLIMCHECK
 70
     0
  9
$PEXTMIN
 10
1.000000000000000E+20
 20
1.000000000000000E+20
 30
1.000000000000000E+20
  9
$PEXTMAX
 10
-1.000000000000000E+20
 20
-1.000000000000000E+20
 30
-1.000000000000000E+20
  9
$PLIMMIN
 10
-124.8217079508596
 20
-126.0607218580602
  9
$PLIMMAX
 10
6245.841158706618
 20
4378.489442020483
  9
$UNITMODE
 70
     0
  9
$VISRETAIN
 70
     1
  9
$PLINEGEN
 70
     0
  9
$PSLTSCALE
 70
     1
  9
$TREEDEPTH
 70
  3020
  9
$CMLSTYLE
  2
STANDARD
  9
$CMLJUST
 70
     0
  9
$CMLSCALE
 40
1.0
  9
$PROXYGRAPHICS
 70
     1
  9
$MEASUREMENT
 70
     1
  9
$CELWEIGHT
370
    -1
  9
$ENDCAPS
280
     0
  9
$JOINSTYLE
280
     0
  9
$LWDISPLAY
290
     0
  9
$INSUNITS
 70
     0
  9
$HYPERLINKBASE
  1

  9
$STYLESHEET
  1
sanwa3.ctb
  9
$XEDIT
290
     1
  9
$CEPSNTYPE
380
     0
  9
$PSTYLEMODE
290
     1
  9
$FINGERPRINTGUID
  2
{152F3ED1-7A25-4BF2-8B30-9EFB00BEB1A0}
  9
$VERSIONGUID
  2
{00258802-2D68-4A6B-9F08-7A3D61EFBF50}
  9
$EXTNAMES
290
     1
  9
$PSVPSCALE
 40
0.0
  9
$OLESTARTUP
290
     0
  0
ENDSEC
  0
SECTION
  2
CLASSES
  0
CLASS
  1
DICTIONARYVAR
  2
AcDbDictionaryVar
  3
ObjectDBX Classes
 90
        0
280
     0
281
     0
  0
CLASS
  1
ACDBDICTIONARYWDFLT
  2
AcDbDictionaryWithDefault
  3
ObjectDBX Classes
 90
        0
280
     0
281
     0
  0
CLASS
  1
ACDBPLACEHOLDER
  2
AcDbPlaceHolder
  3
ObjectDBX Classes
 90
        0
280
     0
281
     0
  0
CLASS
  1
LAYOUT
  2
AcDbLayout
  3
ObjectDBX Classes
 90
        0
280
     0
281
     0
  0
CLASS
  1
MATERIAL
  2
AcDbMaterial
  3
ObjectDBX Classes
 90
     1153
280
     0
281
     0
  0
CLASS
  1
VISUALSTYLE
  2
AcDbVisualStyle
  3
ObjectDBX Classes
 90
     4095
280
     0
281
     0
  0
CLASS
  1
TABLESTYLE
  2
AcDbTableStyle
  3
ObjectDBX Classes
 90
     4095
280
     0
281
     0
  0
CLASS
  1
SCALE
  2
AcDbScale
  3
ObjectDBX Classes
 90
     1153
280
     0
281
     0
  0
CLASS
  1
MLEADERSTYLE
  2
AcDbMLeaderStyle
  3
ACDB_MLEADERSTYLE_CLASS
 90
     4095
280
     0
281
     0
  0
CLASS
  1
CELLSTYLEMAP
  2
AcDbCellStyleMap
  3
ObjectDBX Classes
 90
     1152
280
     0
281
     0
  0
ENDSEC
  0
SECTION
  2
TABLES
  0
TABLE
  2
VPORT
  5
746D
330
0
100
AcDbSymbolTable
 70
     1
  0
VPORT
  5
A2D5
330
746D
100
AcDbSymbolTableRecord
100
AcDbViewportTableRecord
  2
*Active
 70
     0
 10
0.0
 20
0.0
 11
1.0
 21
1.0
 12
1485.038446033872
 22
1050.000005750308
 13
0.0
 23
0.0
 14
10.0
 24
10.0
 15
10.0
 25
10.0
 16
0.0
 26
0.0
 36
1.0
 17
0.0
 27
0.0
 37
0.0
 40
2448.440761216979
 41
1.353070175438596
 42
50.0
 43
0.0
 44
0.0
 50
0.0
 51
0.0
 71
     0
 72
   100
 73
     1
 74
     0
 75
     0
 76
     0
 77
     0
 78
     0
281
     0
 65
     1
110
0.0
120
0.0
130
0.0
111
1.0
121
0.0
131
0.0
112
0.0
122
1.0
132
0.0
 79
     0
146
0.0
  0
ENDTAB
  0
TABLE
  2
LTYPE
  5
746A
330
0
100
AcDbSymbolTable
 70
     5
  0
LTYPE
  5
7477
330
746A
100
AcDbSymbolTableRecord
100
AcDbLinetypeTableRecord
  2
BYBLOCK
 70
     0
  3

 72
    65
 73
     0
 40
0.0
  0
LTYPE
  5
7478
330
746A
100
AcDbSymbolTableRecord
100
AcDbLinetypeTableRecord
  2
BYLAYER
 70
     0
  3

 72
    65
 73
     0
 40
0.0
  0
LTYPE
  5
7479
330
746A
100
AcDbSymbolTableRecord
100
AcDbLinetypeTableRecord
  2
CONTINUOUS
 70
     0
  3
Solid line
 72
    65
 73
     0
 40
0.0
  0
LTYPE
  5
7D54
330
746A
100
AcDbSymbolTableRecord
100
AcDbLinetypeTableRecord
  2
CENTER2
 70
     0
  3
Center (.5x) ___ _ ___ _ ___ _ ___ _ ___ _ ___
 72
    65
 73
     4
 40
28.575
 49
19.05
 74
     0
 49
-3.174999999999999
 74
     0
 49
3.174999999999999
 74
     0
 49
-3.174999999999999
 74
     0
  0
LTYPE
  5
7D55
330
746A
100
AcDbSymbolTableRecord
100
AcDbLinetypeTableRecord
  2
DOT
 70
     0
  3
Dot . . . . . . . . . . . . . . . . . . . . . .
 72
    65
 73
     2
 40
6.349999999999999
 49
0.0
 74
     0
 49
-6.349999999999999
 74
     0
  0
LTYPE
  5
7D56
330
746A
100
AcDbSymbolTableRecord
100
AcDbLinetypeTableRecord
  2
HIDDEN2
 70
     0
  3
Hidden (.5x) _ _ _ _ _ _ _ _ _ _ _ _ _ _ _ _ _
 72
    65
 73
     2
 40
4.762499999999999
 49
3.174999999999999
 74
     0
 49
-1.587499999999999
 74
     0
  0
LTYPE
  5
7D57
330
746A
100
AcDbSymbolTableRecord
100
AcDbLinetypeTableRecord
  2
PHANTOM2
 70
     0
  3
Phantom (.5x) ___ _ _ ___ _ _ ___ _ _ ___ _ _
 72
    65
 73
     6
 40
31.75
 49
15.875
 74
     0
 49
-3.174999999999999
 74
     0
 49
3.174999999999999
 74
     0
 49
-3.174999999999999
 74
     0
 49
3.174999999999999
 74
     0
 49
-3.174999999999999
 74
     0
  0
ENDTAB
  0
TABLE
  2
LAYER
  5
7467
330
0
100
AcDbSymbolTable
 70
     7
  0
LAYER
  5
7474
102
{ACAD_XDICTIONARY
360
A451
102
}
330
7467
100
AcDbSymbolTableRecord
100
AcDbLayerTableRecord
  2
0
 70
     0
 62
     7
  6
CONTINUOUS
370
    -3
390
95D1
  0
LAYER
  5
7485
330
7467
100
AcDbSymbolTableRecord
100
AcDbLayerTableRecord
  2
DEFPOINTS
 70
     0
 62
     7
  6
CONTINUOUS
290
     0
370
    -3
390
95D1
  0
LAYER
  5
7486
102
{ACAD_XDICTIONARY
360
A453
102
}
330
7467
100
AcDbSymbolTableRecord
100
AcDbLayerTableRecord
  2
OBJECT
 70
     0
 62
     7
  6
CONTINUOUS
370
    -3
390
95D1
  0
LAYER
  5
7950
102
{ACAD_XDICTIONARY
360
A455
102
}
330
7467
100
AcDbSymbolTableRecord
100
AcDbLayerTableRecord
  2
枠
 70
     0
 62
     3
  6
CONTINUOUS
370
    -3
390
95D1
  0
LAYER
  5
7D58
102
{ACAD_XDICTIONARY
360
A457
102
}
330
7467
100
AcDbSymbolTableRecord
100
AcDbLayerTableRecord
  2
寸法引出
 70
     0
 62
     2
  6
CONTINUOUS
370
    -3
390
95D1
  0
LAYER
  5
7D59
102
{ACAD_XDICTIONARY
360
A459
102
}
330
7467
100
AcDbSymbolTableRecord
100
AcDbLayerTableRecord
  2
鉄筋
 70
     0
 62
     4
  6
CONTINUOUS
370
    -3
390
95D1
  0
LAYER
  5
7D5A
102
{ACAD_XDICTIONARY
360
A45B
102
}
330
7467
100
AcDbSymbolTableRecord
100
AcDbLayerTableRecord
  2
補助線
 70
     0
 62
     6
  6
CONTINUOUS
370
    -3
390
95D1
  0
ENDTAB
  0
TABLE
  2
STYLE
  5
7468
330
0
100
AcDbSymbolTable
 70
     4
  0
STYLE
  5
7475
330
7468
100
AcDbSymbolTableRecord
100
AcDbTextStyleTableRecord
  2
STANDARD
 70
     0
 40
0.0
 41
1.0
 50
0.0
 71
     0
 42
3.5
  3
txt
  4

  0
STYLE
  5
7481
330
7468
100
AcDbSymbolTableRecord
100
AcDbTextStyleTableRecord
  2
ADESK1
 70
     0
 40
0.0
 41
1.0
 50
0.0
 71
     0
 42
5.0
  3
romans
  4
bigfont
  0
STYLE
  5
7731
330
7468
100
AcDbSymbolTableRecord
100
AcDbTextStyleTableRecord
  2
SANWA
 70
     0
 40
0.0
 41
1.0
 50
0.0
 71
     0
 42
2.799999999999999
  3
MS Mincho.ttf
  4

1001
ACAD
1000
MS Mincho
1071
    32785
  0
STYLE
  5
7D45
330
7468
100
AcDbSymbolTableRecord
100
AcDbTextStyleTableRecord
  2

 70
     1
 40
0.0
 41
1.0
 50
0.0
 71
     0
 42
3.5
  3
ltypeshp.shx
  4

  0
ENDTAB
  0
TABLE
  2
VIEW
  5
746B
330
0
100
AcDbSymbolTable
 70
     0
  0
ENDTAB
  0
TABLE
  2
UCS
  5
746C
330
0
100
AcDbSymbolTable
 70
     0
  0
ENDTAB
  0
TABLE
  2
APPID
  5
746E
330
0
100
AcDbSymbolTable
 70
     2
  0
APPID
  5
7476
330
746E
100
AcDbSymbolTableRecord
100
AcDbRegAppTableRecord
  2
ACAD
 70
     0
  0
APPID
  5
A328
330
746E
100
AcDbSymbolTableRecord
100
AcDbRegAppTableRecord
  2
ACAD_MLEADERVER
 70
     0
  0
ENDTAB
  0
TABLE
  2
DIMSTYLE
  5
746F
330
0
100
AcDbSymbolTable
 70
     4
100
AcDbDimStyleTable
 71
     1
340
796F
  0
DIMSTYLE
105
7484
330
746F
100
AcDbSymbolTableRecord
100
AcDbDimStyleTableRecord
  2
JIS
 70
     0
 41
2.5
 42
1.0
 43
7.0
 44
1.0
 73
     0
 74
     0
 77
     1
 78
     8
140
2.5
141
0.0
143
0.0394
147
0.0
172
     1
174
     1
176
     2
177
     2
178
     2
340
7731
  0
DIMSTYLE
105
796F
102
{ACAD_REACTORS
330
9AF9
330
9AFE
330
9AFF
330
9B04
330
9B09
330
9B0E
330
9B13
330
9B14
330
9B74
330
9B75
330
9B79
330
9B7E
330
9B82
330
9B84
330
9B9E
330
9B9F
330
9BA0
330
9BA6
330
9AD4
330
9AD5
330
9AD6
330
9AD7
330
9AD8
330
9AD9
330
9AE1
330
9AE9
330
9AF0
330
9AF1
330
9AF5
330
9AF6
330
9AF7
102
}
330
746F
100
AcDbSymbolTableRecord
100
AcDbDimStyleTableRecord
  2
SANWA
 70
     0
 41
2.5
 42
1.0
 43
7.0
 44
1.0
 73
     0
 74
     0
 77
     1
 78
     8
140
2.5
141
0.0
143
0.0394
147
0.0
172
     1
174
     1
176
     2
177
     2
178
     2
340
7731
  0
DIMSTYLE
105
7C9D
330
746F
100
AcDbSymbolTableRecord
100
AcDbDimStyleTableRecord
  2
SANWA$4
 70
     0
 41
2.5
 42
1.0
 43
5.0
 44
1.0
 73
     0
 74
     0
 77
     1
 78
     8
140
2.5
141
0.0
143
0.0394
147
1.0
172
     1
174
     1
176
     2
177
     2
178
     2
289
     2
340
7731
  0
DIMSTYLE
105
7CB5
330
746F
100
AcDbSymbolTableRecord
100
AcDbDimStyleTableRecord
  2
SANWA$3
 70
     0
 41
2.5
 42
1.0
 43
7.0
 44
1.0
 73
     0
 74
     0
 77
     1
 78
     8
140
2.5
141
0.0
143
0.0394
147
0.0
172
     1
174
     1
176
     2
177
     2
178
     2
289
     0
340
7731
  0
ENDTAB
  0
TABLE
  2
BLOCK_RECORD
  5
7466
330
0
100
AcDbSymbolTable
 70
    65
  0
BLOCK_RECORD
  5
747D
330
7466
100
AcDbSymbolTableRecord
100
AcDbBlockTableRecord
  2
*MODEL_SPACE
340
95D4
  0
BLOCK_RECORD
  5
747A
330
7466
100
AcDbSymbolTableRecord
100
AcDbBlockTableRecord
  2
*PAPER_SPACE
340
95D5
  0
BLOCK_RECORD
  5
7493
330
7466
100
AcDbSymbolTableRecord
100
AcDbBlockTableRecord
  2
TITLE_BLOCK
340
0
  0
BLOCK_RECORD
  5
9CB9
330
7466
100
AcDbSymbolTableRecord
100
AcDbBlockTableRecord
  2
*D1
340
0
  0
BLOCK_RECORD
  5
9CC7
330
7466
100
AcDbSymbolTableRecord
100
AcDbBlockTableRecord
  2
*D2
340
0
  0
BLOCK_RECORD
  5
9CD4
330
7466
100
AcDbSymbolTableRecord
100
AcDbBlockTableRecord
  2
*D3
340
0
  0
BLOCK_RECORD
  5
9CE0
330
7466
100
AcDbSymbolTableRecord
100
AcDbBlockTableRecord
  2
*D4
340
0
  0
BLOCK_RECORD
  5
9CEE
330
7466
100
AcDbSymbolTableRecord
100
AcDbBlockTableRecord
  2
*D5
340
0
  0
BLOCK_RECORD
  5
9CFC
330
7466
100
AcDbSymbolTableRecord
100
AcDbBlockTableRecord
  2
*D6
340
0
  0
BLOCK_RECORD
  5
9D0A
330
7466
100
AcDbSymbolTableRecord
100
AcDbBlockTableRecord
  2
*D7
340
0
  0
BLOCK_RECORD
  5
9D18
330
7466
100
AcDbSymbolTableRecord
100
AcDbBlockTableRecord
  2
*D8
340
0
  0
BLOCK_RECORD
  5
9D24
330
7466
100
AcDbSymbolTableRecord
100
AcDbBlockTableRecord
  2
*D9
340
0
  0
BLOCK_RECORD
  5
9D30
330
7466
100
AcDbSymbolTableRecord
100
AcDbBlockTableRecord
  2
*D10
340
0
  0
BLOCK_RECORD
  5
9D3B
330
7466
100
AcDbSymbolTableRecord
100
AcDbBlockTableRecord
  2
*D11
340
0
  0
BLOCK_RECORD
  5
9D48
330
7466
100
AcDbSymbolTableRecord
100
AcDbBlockTableRecord
  2
*D12
340
0
  0
BLOCK_RECORD
  5
9D54
330
7466
100
AcDbSymbolTableRecord
100
AcDbBlockTableRecord
  2
*D13
340
0
  0
BLOCK_RECORD
  5
9D60
330
7466
100
AcDbSymbolTableRecord
100
AcDbBlockTableRecord
  2
*D14
340
0
  0
BLOCK_RECORD
  5
9D6E
330
7466
100
AcDbSymbolTableRecord
100
AcDbBlockTableRecord
  2
*D15
340
0
  0
BLOCK_RECORD
  5
9D7A
330
7466
100
AcDbSymbolTableRecord
100
AcDbBlockTableRecord
  2
*D16
340
0
  0
BLOCK_RECORD
  5
9D87
330
7466
100
AcDbSymbolTableRecord
100
AcDbBlockTableRecord
  2
*D17
340
0
  0
BLOCK_RECORD
  5
9D93
330
7466
100
AcDbSymbolTableRecord
100
AcDbBlockTableRecord
  2
*D18
340
0
  0
BLOCK_RECORD
  5
9F27
330
7466
100
AcDbSymbolTableRecord
100
AcDbBlockTableRecord
  2
*D52
340
0
  0
BLOCK_RECORD
  5
9F32
330
7466
100
AcDbSymbolTableRecord
100
AcDbBlockTableRecord
  2
*D53
340
0
  0
BLOCK_RECORD
  5
9F3D
330
7466
100
AcDbSymbolTableRecord
100
AcDbBlockTableRecord
  2
*D54
340
0
  0
BLOCK_RECORD
  5
9F49
330
7466
100
AcDbSymbolTableRecord
100
AcDbBlockTableRecord
  2
*D55
340
0
  0
BLOCK_RECORD
  5
9F55
330
7466
100
AcDbSymbolTableRecord
100
AcDbBlockTableRecord
  2
*D56
340
0
  0
BLOCK_RECORD
  5
9F60
330
7466
100
AcDbSymbolTableRecord
100
AcDbBlockTableRecord
  2
*D57
340
0
  0
BLOCK_RECORD
  5
9F6B
330
7466
100
AcDbSymbolTableRecord
100
AcDbBlockTableRecord
  2
*D58
340
0
  0
BLOCK_RECORD
  5
9F77
330
7466
100
AcDbSymbolTableRecord
100
AcDbBlockTableRecord
  2
*D59
340
0
  0
BLOCK_RECORD
  5
9F83
330
7466
100
AcDbSymbolTableRecord
100
AcDbBlockTableRecord
  2
*D60
340
0
  0
BLOCK_RECORD
  5
9F90
330
7466
100
AcDbSymbolTableRecord
100
AcDbBlockTableRecord
  2
*D61
340
0
  0
BLOCK_RECORD
  5
9F9C
330
7466
100
AcDbSymbolTableRecord
100
AcDbBlockTableRecord
  2
*D62
340
0
  0
BLOCK_RECORD
  5
9FA8
330
7466
100
AcDbSymbolTableRecord
100
AcDbBlockTableRecord
  2
*D63
340
0
  0
BLOCK_RECORD
  5
9FB4
330
7466
100
AcDbSymbolTableRecord
100
AcDbBlockTableRecord
  2
*D64
340
0
  0
ENDTAB
  0
ENDSEC
  0
SECTION
  2
BLOCKS
  0
BLOCK
  5
7489
330
747D
100
AcDbEntity
  8
0
100
AcDbBlockBegin
  2
*MODEL_SPACE
 70
     0
 10
0.0
 20
0.0
 30
0.0
  3
*MODEL_SPACE
  1

  0
ENDBLK
  5
748A
330
747D
100
AcDbEntity
  8
0
100
AcDbBlockEnd
  0
BLOCK
  5
7487
330
747A
100
AcDbEntity
 67
     1
  8
0
100
AcDbBlockBegin
  2
*PAPER_SPACE
 70
     2
 10
0.0
 20
0.0
 30
0.0
  3
*PAPER_SPACE
  1

  0
ENDBLK
  5
7488
330
747A
100
AcDbEntity
 67
     1
  8
0
100
AcDbBlockEnd
  0
BLOCK
  5
7494
330
7493
100
AcDbEntity
  8
0
100
AcDbBlockBegin
  2
TITLE_BLOCK
 70
     2
 10
0.0
 20
0.0
 30
0.0
  3
TITLE_BLOCK
  1

  0
LINE
  5
7495
330
7493
100
AcDbEntity
  8
0
 62
     0
100
AcDbLine
 10
402.7943262411347
 20
16.00000000000008
 30
0.0
 11
410.0
 21
16.00000000000008
 31
0.0
  0
LINE
  5
7496
330
7493
100
AcDbEntity
  8
0
 62
     0
100
AcDbLine
 10
410.0
 20
10.0
 30
0.0
 11
410.0
 21
49.00000000000036
 31
0.0
  0
LINE
  5
7497
330
7493
100
AcDbEntity
  8
0
 62
     0
100
AcDbLine
 10
410.0
 20
49.00000000000036
 30
0.0
 11
410.0
 21
10.0
 31
0.0
  0
LINE
  5
7498
330
7493
100
AcDbEntity
  8
0
 62
     0
100
AcDbLine
 10
402.7943262411347
 20
22.00000000000012
 30
0.0
 11
402.7943262411347
 21
10.0
 31
0.0
  0
LINE
  5
7499
330
7493
100
AcDbEntity
  8
0
 62
     0
100
AcDbLine
 10
336.1418439716306
 20
49.00000000000036
 30
0.0
 11
336.1418439716306
 21
22.00000000000012
 31
0.0
  0
LINE
  5
749A
330
7493
100
AcDbEntity
  8
0
 62
     0
100
AcDbLine
 10
325.3333333333326
 20
37.00000000000024
 30
0.0
 11
325.3333333333326
 21
25.00000000000012
 31
0.0
  0
LINE
  5
749B
330
7493
100
AcDbEntity
  8
0
 62
     0
100
AcDbLine
 10
318.1276595744673
 20
49.00000000000036
 30
0.0
 11
318.1276595744673
 21
25.00000000000012
 31
0.0
  0
LINE
  5
749C
330
7493
100
AcDbEntity
  8
0
 62
     0
100
AcDbLine
 10
318.1276595744673
 20
25.00000000000012
 30
0.0
 11
348.7517730496447
 21
25.00000000000012
 31
0.0
  0
LINE
  5
749D
330
7493
100
AcDbEntity
  8
0
 62
     0
100
AcDbLine
 10
280.2978723404242
 20
28.00000000000016
 30
0.0
 11
348.7517730496447
 21
28.00000000000016
 31
0.0
  0
LINE
  5
749E
330
7493
100
AcDbEntity
  8
0
 62
     0
100
AcDbLine
 10
280.2978723404242
 20
31.0000000000002
 30
0.0
 11
348.7517730496447
 21
31.0000000000002
 31
0.0
  0
LINE
  5
749F
330
7493
100
AcDbEntity
  8
0
 62
     0
100
AcDbLine
 10
280.2978723404242
 20
34.00000000000024
 30
0.0
 11
348.7517730496447
 21
34.00000000000024
 31
0.0
  0
LINE
  5
74A0
330
7493
100
AcDbEntity
  8
0
 62
     0
100
AcDbLine
 10
280.2978723404242
 20
19.00000000000008
 30
0.0
 11
318.1276595744673
 21
19.00000000000012
 31
0.0
  0
LINE
  5
74A1
330
7493
100
AcDbEntity
  8
0
 62
     0
100
AcDbLine
 10
280.2978723404242
 20
22.00000000000008
 30
0.0
 11
318.1276595744673
 21
22.00000000000012
 31
0.0
  0
LINE
  5
74A2
330
7493
100
AcDbEntity
  8
0
 62
     0
100
AcDbLine
 10
280.2978723404242
 20
25.00000000000012
 30
0.0
 11
318.1276595744673
 21
25.00000000000012
 31
0.0
  0
TEXT
  5
74A3
330
7493
100
AcDbEntity
  8
0
 62
     0
100
AcDbText
 10
342.2447163844405
 20
10.55220101068186
 30
0.0
 40
1.791674070777747
  1
照査
  7
ADESK1
 72
     1
 11
344.1558353932701
 21
10.55220101068186
 31
0.0
100
AcDbText
  0
TEXT
  5
74A4
330
7493
100
AcDbEntity
  8
0
 62
     0
100
AcDbText
 10
332.2960689314087
 20
10.48329012996929
 30
0.0
 40
1.791674070777747
  1
設計
  7
ADESK1
 72
     1
 11
334.2071879402383
 21
10.48329012996929
 31
0.0
100
AcDbText
  0
TEXT
  5
74A5
330
7493
100
AcDbEntity
  8
0
 62
     0
100
AcDbText
 10
321.7174935280942
 20
10.48329012996929
 30
0.0
 40
1.791674070777747
  1
製図
  7
ADESK1
 72
     1
 11
323.5688900678979
 21
10.48329012996929
 31
0.0
100
AcDbText
  0
LINE
  5
74A6
330
7493
100
AcDbEntity
  8
0
 62
     0
100
AcDbLine
 10
280.2978723404242
 20
10.0
 30
0.0
 11
280.2978723404242
 21
13.00000000000004
 31
0.0
  0
LINE
  5
74A7
330
7493
100
AcDbEntity
  8
0
 62
     0
100
AcDbLine
 10
280.2978723404242
 20
16.00000000000008
 30
0.0
 11
318.1276595744673
 21
16.00000000000008
 31
0.0
  0
LINE
  5
74A8
330
7493
100
AcDbEntity
  8
0
 62
     0
100
AcDbLine
 10
339.4042553191484
 20
22.00000000000008
 30
0.0
 11
339.4042553191484
 21
10.0
 31
0.0
  0
LINE
  5
74A9
330
7493
100
AcDbEntity
  8
0
 62
     0
100
AcDbLine
 10
328.7659574468078
 20
22.00000000000008
 30
0.0
 11
328.7659574468078
 21
10.0
 31
0.0
  0
LINE
  5
74AA
330
7493
100
AcDbEntity
  8
0
 62
     0
100
AcDbLine
 10
348.7517730496447
 20
49.00000000000036
 30
0.0
 11
348.7517730496447
 21
10.0
 31
0.0
  0
LINE
  5
74AB
330
7493
100
AcDbEntity
  8
0
 62
     0
100
AcDbLine
 10
280.2978723404242
 20
49.00000000000036
 30
0.0
 11
280.2978723404242
 21
10.0
 31
0.0
  0
LINE
  5
74AC
330
7493
100
AcDbEntity
  8
0
 62
     0
100
AcDbLine
 10
318.1276595744673
 20
25.00000000000012
 30
0.0
 11
318.1276595744673
 21
10.0
 31
0.0
  0
LINE
  5
74AD
330
7493
100
AcDbEntity
  8
0
 62
     0
100
AcDbLine
 10
312.7234042553184
 20
37.00000000000024
 30
0.0
 11
312.7234042553184
 21
10.0
 31
0.0
  0
LINE
  5
74AE
330
7493
100
AcDbEntity
  8
0
 62
     0
100
AcDbLine
 10
285.7021276595731
 20
37.00000000000024
 30
0.0
 11
285.7021276595731
 21
10.0
 31
0.0
  0
LINE
  5
74AF
330
7493
100
AcDbEntity
  8
0
 62
     0
100
AcDbLine
 10
303.7163120567366
 20
37.00000000000024
 30
0.0
 11
303.7163120567366
 21
10.0
 31
0.0
  0
LINE
  5
74B0
330
7493
100
AcDbEntity
  8
0
 62
     0
100
AcDbLine
 10
410.0
 20
49.00000000000036
 30
0.0
 11
280.2978723404242
 21
49.00000000000036
 31
0.0
  0
LINE
  5
74B1
330
7493
100
AcDbEntity
  8
0
 62
     0
100
AcDbLine
 10
280.2978723404242
 20
10.0
 30
0.0
 11
410.0
 21
10.0
 31
0.0
  0
LINE
  5
74B2
330
7493
100
AcDbEntity
  8
0
 62
     0
100
AcDbLine
 10
318.1276595744673
 20
22.00000000000012
 30
0.0
 11
410.0
 21
22.00000000000012
 31
0.0
  0
LINE
  5
74B3
330
7493
100
AcDbEntity
  8
0
 62
     0
100
AcDbLine
 10
280.2978723404242
 20
37.00000000000024
 30
0.0
 11
410.0
 21
37.00000000000024
 31
0.0
  0
LINE
  5
74B4
330
7493
100
AcDbEntity
  8
0
 62
     0
100
AcDbLine
 10
280.2978723404242
 20
13.00000000000004
 30
0.0
 11
410.0
 21
13.00000000000004
 31
0.0
  0
LINE
  5
74B5
330
7493
100
AcDbEntity
  8
0
 62
     0
100
AcDbLine
 10
280.2978723404242
 20
49.00000000000036
 30
0.0
 11
410.0
 21
49.00000000000036
 31
0.0
  0
TEXT
  5
74B6
330
7493
100
AcDbEntity
  8
0
100
AcDbText
 10
411.3708251683467
 20
33.08333333333334
 30
0.0
 40
3.0
  1
F
  7
ADESK1
 72
     1
 11
412.8708251683468
 21
33.08333333333334
 31
0.0
100
AcDbText
  0
TEXT
  5
74B7
330
7493
100
AcDbEntity
  8
0
100
AcDbText
 10
411.3708251683467
 20
79.25
 30
0.0
 40
3.0
  1
E
  7
ADESK1
 72
     1
 11
412.8708251683468
 21
79.25
 31
0.0
100
AcDbText
  0
TEXT
  5
74B8
330
7493
100
AcDbEntity
  8
0
100
AcDbText
 10
411.2993965969182
 20
125.4166666666666
 30
0.0
 40
3.0
  1
D
  7
ADESK1
 72
     1
 11
412.8708251683468
 21
125.4166666666666
 31
0.0
100
AcDbText
  0
TEXT
  5
74B9
330
7493
100
AcDbEntity
  8
0
100
AcDbText
 10
411.3708251683467
 20
171.5833333333333
 30
0.0
 40
3.0
  1
C
  7
ADESK1
 72
     1
 11
412.8708251683468
 21
171.5833333333333
 31
0.0
100
AcDbText
  0
TEXT
  5
74BA
330
7493
100
AcDbEntity
  8
0
100
AcDbText
 10
411.2993965969182
 20
217.75
 30
0.0
 40
3.0
  1
B
  7
ADESK1
 72
     1
 11
412.8708251683468
 21
217.75
 31
0.0
100
AcDbText
  0
TEXT
  5
74BB
330
7493
100
AcDbEntity
  8
0
100
AcDbText
 10
411.5851108826324
 20
263.9166666666666
 30
0.0
 40
3.0
  1
A
  7
ADESK1
 72
     1
 11
412.8708251683468
 21
263.9166666666666
 31
0.0
100
AcDbText
  0
TEXT
  5
74BC
330
7493
100
AcDbEntity
  8
0
100
AcDbText
 10
384.5089285714286
 20
6.019997240728748
 30
0.0
 40
3.0
  1
8
  7
ADESK1
 72
     1
 11
385.9375
 21
6.019997240728748
 31
0.0
100
AcDbText
  0
TEXT
  5
74BD
330
7493
100
AcDbEntity
  8
0
100
AcDbText
 10
336.3839285714286
 20
6.019997240728748
 30
0.0
 40
3.0
  1
7
  7
ADESK1
 72
     1
 11
337.8125
 21
6.019997240728748
 31
0.0
100
AcDbText
  0
TEXT
  5
74BE
330
7493
100
AcDbEntity
  8
0
100
AcDbText
 10
288.1875
 20
6.019997240728748
 30
0.0
 40
3.0
  1
6
  7
ADESK1
 72
     1
 11
289.6875
 21
6.019997240728748
 31
0.0
100
AcDbText
  0
TEXT
  5
74BF
330
7493
100
AcDbEntity
  8
0
100
AcDbText
 10
240.1339285714286
 20
6.019997240728748
 30
0.0
 40
3.0
  1
5
  7
ADESK1
 72
     1
 11
241.5625
 21
6.019997240728748
 31
0.0
100
AcDbText
  0
TEXT
  5
74C0
330
7493
100
AcDbEntity
  8
0
100
AcDbText
 10
191.9375
 20
6.019997240728748
 30
0.0
 40
3.0
  1
4
  7
ADESK1
 72
     1
 11
193.4375
 21
6.019997240728748
 31
0.0
100
AcDbText
  0
TEXT
  5
74C1
330
7493
100
AcDbEntity
  8
0
100
AcDbText
 10
143.8839285714285
 20
6.019997240728748
 30
0.0
 40
3.0
  1
3
  7
ADESK1
 72
     1
 11
145.3125
 21
6.019997240728748
 31
0.0
100
AcDbText
  0
TEXT
  5
74C2
330
7493
100
AcDbEntity
  8
0
100
AcDbText
 10
95.75892857142857
 20
6.019997240728748
 30
0.0
 40
3.0
  1
2
  7
ADESK1
 72
     1
 11
97.1875
 21
6.019997240728748
 31
0.0
100
AcDbText
  0
TEXT
  5
74C3
330
7493
100
AcDbEntity
  8
0
100
AcDbText
 10
47.84821428571429
 20
6.019997240728748
 30
0.0
 40
3.0
  1
1
  7
ADESK1
 72
     1
 11
49.0625
 21
6.019997240728748
 31
0.0
100
AcDbText
  0
TEXT
  5
74C4
330
7493
100
AcDbEntity
  8
0
100
AcDbText
 10
21.1071613595339
 20
33.08333333333334
 30
0.0
 40
3.0
  1
F
  7
ADESK1
 72
     1
 11
22.6071613595339
 21
33.08333333333334
 31
0.0
100
AcDbText
  0
TEXT
  5
74C5
330
7493
100
AcDbEntity
  8
0
100
AcDbText
 10
21.1071613595339
 20
79.25
 30
0.0
 40
3.0
  1
E
  7
ADESK1
 72
     1
 11
22.6071613595339
 21
79.25
 31
0.0
100
AcDbText
  0
TEXT
  5
74C6
330
7493
100
AcDbEntity
  8
0
100
AcDbText
 10
21.03573278810533
 20
125.4166666666666
 30
0.0
 40
3.0
  1
D
  7
ADESK1
 72
     1
 11
22.6071613595339
 21
125.4166666666666
 31
0.0
100
AcDbText
  0
TEXT
  5
74C7
330
7493
100
AcDbEntity
  8
0
100
AcDbText
 10
21.1071613595339
 20
171.5833333333333
 30
0.0
 40
3.0
  1
C
  7
ADESK1
 72
     1
 11
22.6071613595339
 21
171.5833333333333
 31
0.0
100
AcDbText
  0
TEXT
  5
74C8
330
7493
100
AcDbEntity
  8
0
100
AcDbText
 10
21.03573278810533
 20
217.75
 30
0.0
 40
3.0
  1
B
  7
ADESK1
 72
     1
 11
22.6071613595339
 21
217.75
 31
0.0
100
AcDbText
  0
TEXT
  5
74C9
330
7493
100
AcDbEntity
  8
0
100
AcDbText
 10
384.5089285714286
 20
288.0
 30
0.0
 40
3.0
  1
8
  7
ADESK1
 72
     1
 11
385.9375
 21
288.0
 31
0.0
100
AcDbText
  0
TEXT
  5
74CA
330
7493
100
AcDbEntity
  8
0
100
AcDbText
 10
336.3839285714286
 20
288.0
 30
0.0
 40
3.0
  1
7
  7
ADESK1
 72
     1
 11
337.8125
 21
288.0
 31
0.0
100
AcDbText
  0
TEXT
  5
74CB
330
7493
100
AcDbEntity
  8
0
100
AcDbText
 10
288.1875
 20
288.0
 30
0.0
 40
3.0
  1
6
  7
ADESK1
 72
     1
 11
289.6875
 21
288.0
 31
0.0
100
AcDbText
  0
TEXT
  5
74CC
330
7493
100
AcDbEntity
  8
0
100
AcDbText
 10
240.1339285714286
 20
288.0
 30
0.0
 40
3.0
  1
5
  7
ADESK1
 72
     1
 11
241.5625
 21
288.0
 31
0.0
100
AcDbText
  0
TEXT
  5
74CD
330
7493
100
AcDbEntity
  8
0
100
AcDbText
 10
191.9375
 20
288.0
 30
0.0
 40
3.0
  1
4
  7
ADESK1
 72
     1
 11
193.4375
 21
288.0
 31
0.0
100
AcDbText
  0
TEXT
  5
74CE
330
7493
100
AcDbEntity
  8
0
100
AcDbText
 10
143.8839285714285
 20
288.0
 30
0.0
 40
3.0
  1
3
  7
ADESK1
 72
     1
 11
145.3125
 21
288.0
 31
0.0
100
AcDbText
  0
TEXT
  5
74CF
330
7493
100
AcDbEntity
  8
0
100
AcDbText
 10
95.75892857142857
 20
288.0
 30
0.0
 40
3.0
  1
2
  7
ADESK1
 72
     1
 11
97.1875
 21
288.0
 31
0.0
100
AcDbText
  0
TEXT
  5
74D0
330
7493
100
AcDbEntity
  8
0
100
AcDbText
 10
21.32144707381961
 20
263.9166666666666
 30
0.0
 40
3.0
  1
A
  7
ADESK1
 72
     1
 11
22.6071613595339
 21
263.9166666666666
 31
0.0
100
AcDbText
  0
TEXT
  5
74D1
330
7493
100
AcDbEntity
  8
0
100
AcDbText
 10
47.84821428571429
 20
288.0
 30
0.0
 40
3.0
  1
1
  7
ADESK1
 72
     1
 11
49.0625
 21
288.0
 31
0.0
100
AcDbText
  0
LINE
  5
74D2
330
7493
100
AcDbEntity
  8
0
100
AcDbLine
 10
73.125
 20
287.0
 30
0.0
 11
73.125
 21
292.0
 31
0.0
  0
LINE
  5
74D3
330
7493
100
AcDbEntity
  8
0
100
AcDbLine
 10
121.25
 20
287.0
 30
0.0
 11
121.25
 21
292.0
 31
0.0
  0
LINE
  5
74D4
330
7493
100
AcDbEntity
  8
0
100
AcDbLine
 10
169.375
 20
287.0
 30
0.0
 11
169.375
 21
292.0
 31
0.0
  0
LINE
  5
74D5
330
7493
100
AcDbEntity
  8
0
100
AcDbLine
 10
217.5
 20
287.0
 30
0.0
 11
217.5
 21
292.0
 31
0.0
  0
LINE
  5
74D6
330
7493
100
AcDbEntity
  8
0
100
AcDbLine
 10
265.625
 20
287.0
 30
0.0
 11
265.625
 21
292.0
 31
0.0
  0
LINE
  5
74D7
330
7493
100
AcDbEntity
  8
0
100
AcDbLine
 10
313.75
 20
287.0
 30
0.0
 11
313.75
 21
292.0
 31
0.0
  0
LINE
  5
74D8
330
7493
100
AcDbEntity
  8
0
100
AcDbLine
 10
361.875
 20
287.0
 30
0.0
 11
361.875
 21
292.0
 31
0.0
  0
LINE
  5
74D9
330
7493
100
AcDbEntity
  8
0
100
AcDbLine
 10
361.875
 20
10.0
 30
0.0
 11
361.875
 21
5.0
 31
0.0
  0
LINE
  5
74DA
330
7493
100
AcDbEntity
  8
0
100
AcDbLine
 10
313.75
 20
10.0
 30
0.0
 11
313.75
 21
5.0
 31
0.0
  0
LINE
  5
74DB
330
7493
100
AcDbEntity
  8
0
100
AcDbLine
 10
265.625
 20
10.0
 30
0.0
 11
265.625
 21
5.0
 31
0.0
  0
LINE
  5
74DC
330
7493
100
AcDbEntity
  8
0
100
AcDbLine
 10
217.5
 20
10.0
 30
0.0
 11
217.5
 21
5.0
 31
0.0
  0
LINE
  5
74DD
330
7493
100
AcDbEntity
  8
0
100
AcDbLine
 10
169.375
 20
10.0
 30
0.0
 11
169.375
 21
5.0
 31
0.0
  0
LINE
  5
74DE
330
7493
100
AcDbEntity
  8
0
100
AcDbLine
 10
121.25
 20
10.0
 30
0.0
 11
121.25
 21
5.0
 31
0.0
  0
LINE
  5
74DF
330
7493
100
AcDbEntity
  8
0
100
AcDbLine
 10
73.125
 20
10.0
 30
0.0
 11
73.125
 21
5.0
 31
0.0
  0
LINE
  5
74E0
330
7493
100
AcDbEntity
  8
0
100
AcDbLine
 10
410.0
 20
240.8333333333334
 30
0.0
 11
415.0
 21
240.8333333333334
 31
0.0
  0
LINE
  5
74E1
330
7493
100
AcDbEntity
  8
0
100
AcDbLine
 10
410.0
 20
194.6666666666667
 30
0.0
 11
415.0
 21
194.6666666666667
 31
0.0
  0
LINE
  5
74E2
330
7493
100
AcDbEntity
  8
0
100
AcDbLine
 10
410.0
 20
148.5
 30
0.0
 11
415.0
 21
148.5
 31
0.0
  0
LINE
  5
74E3
330
7493
100
AcDbEntity
  8
0
100
AcDbLine
 10
410.0
 20
102.3333333333333
 30
0.0
 11
415.0
 21
102.3333333333333
 31
0.0
  0
LINE
  5
74E4
330
7493
100
AcDbEntity
  8
0
100
AcDbLine
 10
410.0
 20
56.16666666666668
 30
0.0
 11
415.0
 21
56.16666666666668
 31
0.0
  0
LINE
  5
74E5
330
7493
100
AcDbEntity
  8
0
100
AcDbLine
 10
25.0
 20
56.16666666666667
 30
0.0
 11
20.0
 21
56.16666666666667
 31
0.0
  0
LINE
  5
74E6
330
7493
100
AcDbEntity
  8
0
100
AcDbLine
 10
25.0
 20
102.3333333333333
 30
0.0
 11
20.0
 21
102.3333333333333
 31
0.0
  0
LINE
  5
74E7
330
7493
100
AcDbEntity
  8
0
100
AcDbLine
 10
25.0
 20
148.5
 30
0.0
 11
20.0
 21
148.5
 31
0.0
  0
LINE
  5
74E8
330
7493
100
AcDbEntity
  8
0
100
AcDbLine
 10
25.0
 20
194.6666666666666
 30
0.0
 11
20.0
 21
194.6666666666666
 31
0.0
  0
LINE
  5
74E9
330
7493
100
AcDbEntity
  8
0
100
AcDbLine
 10
25.0
 20
240.8333333333333
 30
0.0
 11
20.0
 21
240.8333333333333
 31
0.0
  0
TEXT
  5
74EA
330
7493
100
AcDbEntity
  8
0
100
AcDbText
 10
1.0
 20
1.0
 30
0.0
 40
3.0
  1
この図枠はサンプルです。社内の規格やプロッタの出力範囲に合わせて適当に変更してご利用ください。
  7
ADESK1
100
AcDbText
  0
LINE
  5
74EB
330
7493
100
AcDbEntity
  8
0
100
AcDbLine
 10
25.0
 20
148.5
 30
0.0
 11
0.0
 21
148.5
 31
0.0
  0
LINE
  5
74EC
330
7493
100
AcDbEntity
  8
0
100
AcDbLine
 10
410.0
 20
148.5
 30
0.0
 11
420.0
 21
148.5
 31
0.0
  0
LINE
  5
74ED
330
7493
100
AcDbEntity
  8
0
100
AcDbLine
 10
217.5
 20
287.0
 30
0.0
 11
217.5
 21
297.0
 31
0.0
  0
LINE
  5
74EE
330
7493
100
AcDbEntity
  8
0
100
AcDbLine
 10
217.5
 20
10.0
 30
0.0
 11
217.5
 21
0.0
 31
0.0
  0
LINE
  5
74EF
330
7493
100
AcDbEntity
  8
OBJECT
100
AcDbLine
 10
130.0
 20
40.0
 30
0.0
 11
130.0
 21
10.0
 31
0.0
  0
LINE
  5
74F0
330
7493
100
AcDbEntity
  8
OBJECT
100
AcDbLine
 10
120.0
 20
10.0
 30
0.0
 11
120.0
 21
40.0
 31
0.0
  0
LINE
  5
74F1
330
7493
100
AcDbEntity
  8
OBJECT
100
AcDbLine
 10
44.5
 20
37.0
 30
0.0
 11
45.49999999999999
 21
37.0
 31
0.0
  0
LINE
  5
74F2
330
7493
100
AcDbEntity
  8
OBJECT
100
AcDbLine
 10
44.5
 20
31.0
 30
0.0
 11
45.49999999999999
 21
31.0
 31
0.0
  0
LINE
  5
74F3
330
7493
100
AcDbEntity
  8
OBJECT
100
AcDbLine
 10
39.5
 20
37.0
 30
0.0
 11
40.49999999999999
 21
37.0
 31
0.0
  0
LINE
  5
74F4
330
7493
100
AcDbEntity
  8
OBJECT
100
AcDbLine
 10
39.5
 20
31.0
 30
0.0
 11
40.49999999999999
 21
31.0
 31
0.0
  0
LINE
  5
74F5
330
7493
100
AcDbEntity
  8
OBJECT
100
AcDbLine
 10
44.5
 20
25.0
 30
0.0
 11
45.49999999999999
 21
25.0
 31
0.0
  0
LINE
  5
74F6
330
7493
100
AcDbEntity
  8
OBJECT
100
AcDbLine
 10
39.5
 20
25.0
 30
0.0
 11
40.49999999999999
 21
25.0
 31
0.0
  0
LINE
  5
74F7
330
7493
100
AcDbEntity
  8
OBJECT
100
AcDbLine
 10
44.5
 20
19.0
 30
0.0
 11
45.49999999999999
 21
19.0
 31
0.0
  0
LINE
  5
74F8
330
7493
100
AcDbEntity
  8
OBJECT
100
AcDbLine
 10
39.5
 20
19.0
 30
0.0
 11
40.49999999999999
 21
19.0
 31
0.0
  0
LINE
  5
74F9
330
7493
100
AcDbEntity
  8
OBJECT
100
AcDbLine
 10
28.0
 20
29.53589800000001
 30
0.0
 11
30.0
 21
33.0
 31
0.0
  0
LINE
  5
74FA
330
7493
100
AcDbEntity
  8
OBJECT
100
AcDbLine
 10
28.0
 20
29.53589800000001
 30
0.0
 11
32.0
 21
29.53589800000001
 31
0.0
  0
LINE
  5
74FB
330
7493
100
AcDbEntity
  8
OBJECT
100
AcDbLine
 10
32.0
 20
29.53589800000001
 30
0.0
 11
30.0
 21
33.0
 31
0.0
  0
LINE
  5
74FC
330
7493
100
AcDbEntity
  8
OBJECT
100
AcDbLine
 10
28.0
 20
35.535898
 30
0.0
 11
32.0
 21
35.535898
 31
0.0
  0
LINE
  5
74FD
330
7493
100
AcDbEntity
  8
OBJECT
100
AcDbLine
 10
32.0
 20
35.535898
 30
0.0
 11
30.0
 21
39.0
 31
0.0
  0
LINE
  5
74FE
330
7493
100
AcDbEntity
  8
OBJECT
100
AcDbLine
 10
28.0
 20
35.535898
 30
0.0
 11
30.0
 21
39.0
 31
0.0
  0
LINE
  5
74FF
330
7493
100
AcDbEntity
  8
OBJECT
100
AcDbLine
 10
28.0
 20
23.535898
 30
0.0
 11
30.0
 21
27.0
 31
0.0
  0
LINE
  5
7500
330
7493
100
AcDbEntity
  8
OBJECT
100
AcDbLine
 10
28.0
 20
23.535898
 30
0.0
 11
32.0
 21
23.535898
 31
0.0
  0
LINE
  5
7501
330
7493
100
AcDbEntity
  8
OBJECT
100
AcDbLine
 10
32.0
 20
23.535898
 30
0.0
 11
30.0
 21
27.0
 31
0.0
  0
LINE
  5
7502
330
7493
100
AcDbEntity
  8
OBJECT
100
AcDbLine
 10
28.0
 20
17.535898
 30
0.0
 11
30.0
 21
21.0
 31
0.0
  0
LINE
  5
7503
330
7493
100
AcDbEntity
  8
OBJECT
100
AcDbLine
 10
28.0
 20
17.535898
 30
0.0
 11
32.0
 21
17.535898
 31
0.0
  0
LINE
  5
7504
330
7493
100
AcDbEntity
  8
OBJECT
100
AcDbLine
 10
32.0
 20
17.535898
 30
0.0
 11
30.0
 21
21.0
 31
0.0
  0
LINE
  5
7505
330
7493
100
AcDbEntity
  8
OBJECT
100
AcDbLine
 10
44.5
 20
13.0
 30
0.0
 11
45.49999999999999
 21
13.0
 31
0.0
  0
LINE
  5
7506
330
7493
100
AcDbEntity
  8
OBJECT
100
AcDbLine
 10
39.5
 20
13.0
 30
0.0
 11
40.49999999999999
 21
13.0
 31
0.0
  0
LINE
  5
7507
330
7493
100
AcDbEntity
  8
OBJECT
100
AcDbLine
 10
28.0
 20
11.535898
 30
0.0
 11
32.0
 21
11.535898
 31
0.0
  0
LINE
  5
7508
330
7493
100
AcDbEntity
  8
OBJECT
100
AcDbLine
 10
80.0
 20
10.0
 30
0.0
 11
80.0
 21
40.0
 31
0.0
  0
LINE
  5
7509
330
7493
100
AcDbEntity
  8
OBJECT
100
AcDbLine
 10
50.0
 20
10.0
 30
0.0
 11
50.0
 21
40.0
 31
0.0
  0
LINE
  5
750A
330
7493
100
AcDbEntity
  8
OBJECT
100
AcDbLine
 10
35.0
 20
10.0
 30
0.0
 11
35.0
 21
40.0
 31
0.0
  0
LINE
  5
750B
330
7493
100
AcDbEntity
  8
OBJECT
100
AcDbLine
 10
32.0
 20
11.535898
 30
0.0
 11
30.0
 21
15.0
 31
0.0
  0
LINE
  5
750C
330
7493
100
AcDbEntity
  8
OBJECT
100
AcDbLine
 10
28.0
 20
11.535898
 30
0.0
 11
30.0
 21
15.0
 31
0.0
  0
LINE
  5
750D
330
7493
100
AcDbEntity
  8
OBJECT
100
AcDbLine
 10
130.0
 20
40.0
 30
0.0
 11
25.0
 21
40.0
 31
0.0
  0
LINE
  5
750E
330
7493
100
AcDbEntity
  8
OBJECT
100
AcDbLine
 10
130.0
 20
34.0
 30
0.0
 11
25.0
 21
34.0
 31
0.0
  0
LINE
  5
750F
330
7493
100
AcDbEntity
  8
OBJECT
100
AcDbLine
 10
130.0
 20
28.0
 30
0.0
 11
25.0
 21
28.0
 31
0.0
  0
LINE
  5
7510
330
7493
100
AcDbEntity
  8
OBJECT
100
AcDbLine
 10
130.0
 20
22.0
 30
0.0
 11
25.0
 21
22.0
 31
0.0
  0
LINE
  5
7511
330
7493
100
AcDbEntity
  8
OBJECT
100
AcDbLine
 10
130.0
 20
16.0
 30
0.0
 11
25.0
 21
16.0
 31
0.0
  0
ATTDEF
  5
7512
330
7493
100
AcDbEntity
  8
0
 62
     0
100
AcDbText
 10
19.0
 20
118.0
 30
0.0
 40
3.0
  1

 50
90.0
  7
ADESK1
100
AcDbAttributeDefinition
  3

  2
FNAME
 70
     8
  0
ATTDEF
  5
7513
330
7493
100
AcDbEntity
  8
0
 62
     0
100
AcDbText
 10
19.0
 20
70.0
 30
0.0
 40
3.0
  1

 50
90.0
  7
ADESK1
100
AcDbAttributeDefinition
  3

  2
REVDATE
 70
     8
  0
ATTDEF
  5
7514
330
7493
100
AcDbEntity
  8
0
 62
     0
100
AcDbText
 10
19.0
 20
10.0
 30
0.0
 40
3.0
  1

 50
90.0
  7
ADESK1
100
AcDbAttributeDefinition
  3

  2
USER
 70
     8
  0
LINE
  5
7515
330
7493
100
AcDbEntity
  8
0
100
AcDbLine
 10
410.0
 20
297.0
 30
0.0
 11
420.0
 21
297.0
 31
0.0
  0
LINE
  5
7516
330
7493
100
AcDbEntity
  8
0
100
AcDbLine
 10
420.0
 20
10.0
 30
0.0
 11
420.0
 21
0.0
 31
0.0
  0
LINE
  5
7517
330
7493
100
AcDbEntity
  8
0
100
AcDbLine
 10
25.0
 20
0.0
 30
0.0
 11
0.0
 21
0.0
 31
0.0
  0
LINE
  5
7518
330
7493
100
AcDbEntity
  8
0
100
AcDbLine
 10
0.0
 20
287.0
 30
0.0
 11
0.0
 21
297.0
 31
0.0
  0
LINE
  5
7519
330
7493
100
AcDbEntity
  8
0
100
AcDbLine
 10
25.0
 20
287.0
 30
0.0
 11
410.0
 21
287.0
 31
0.0
  0
LINE
  5
751A
330
7493
100
AcDbEntity
  8
0
100
AcDbLine
 10
410.0
 20
287.0
 30
0.0
 11
410.0
 21
10.0
 31
0.0
  0
LINE
  5
751B
330
7493
100
AcDbEntity
  8
0
100
AcDbLine
 10
410.0
 20
10.0
 30
0.0
 11
25.0
 21
10.0
 31
0.0
  0
LINE
  5
751C
330
7493
100
AcDbEntity
  8
0
100
AcDbLine
 10
25.0
 20
10.0
 30
0.0
 11
25.0
 21
287.0
 31
0.0
  0
LINE
  5
751D
330
7493
100
AcDbEntity
  8
0
100
AcDbLine
 10
420.0
 20
0.0
 30
0.0
 11
410.0
 21
0.0
 31
0.0
  0
LINE
  5
751E
330
7493
100
AcDbEntity
  8
0
100
AcDbLine
 10
420.0
 20
297.0
 30
0.0
 11
420.0
 21
287.0
 31
0.0
  0
LINE
  5
751F
330
7493
100
AcDbEntity
  8
0
100
AcDbLine
 10
0.0
 20
297.0
 30
0.0
 11
25.0
 21
297.0
 31
0.0
  0
LINE
  5
7520
330
7493
100
AcDbEntity
  8
0
100
AcDbLine
 10
0.0
 20
0.0
 30
0.0
 11
0.0
 21
10.0
 31
0.0
  0
ENDBLK
  5
7521
330
7493
100
AcDbEntity
  8
0
100
AcDbBlockEnd
  0
BLOCK
  5
9CC5
330
9CB9
100
AcDbEntity
  8
0
100
AcDbBlockBegin
  2
*D1
 70
     1
 10
0.0
 20
0.0
 30
0.0
  3
*D1
  1

  0
LINE
  5
A3A2
330
9CB9
100
AcDbEntity
  8
寸法引出
370
    -2
100
AcDbLine
 10
755.8890619327907
 20
1234.120336091007
 30
0.0
 11
755.8890619327907
 21
1302.123281704614
 31
0.0
  0
LINE
  5
A3A3
330
9CB9
100
AcDbEntity
  8
寸法引出
370
    -2
100
AcDbLine
 10
780.8890619327907
 20
1234.120336091007
 30
0.0
 11
780.8890619327907
 21
1302.123281704614
 31
0.0
  0
LINE
  5
A3A4
330
9CB9
100
AcDbEntity
  8
寸法引出
370
    -2
100
AcDbLine
 10
740.8890619327908
 20
1297.123281704614
 30
0.0
 11
725.8890619327908
 21
1297.123281704614
 31
0.0
  0
LINE
  5
A3A5
330
9CB9
100
AcDbEntity
  8
寸法引出
370
    -2
100
AcDbLine
 10
795.8890619327908
 20
1297.123281704614
 30
0.0
 11
810.8890619327908
 21
1297.123281704614
 31
0.0
  0
LINE
  5
A3A6
330
9CB9
100
AcDbEntity
  8
寸法引出
370
    -2
100
AcDbLine
 10
755.8890619327907
 20
1297.123281704614
 30
0.0
 11
780.8890619327907
 21
1297.123281704614
 31
0.0
  0
SOLID
  5
A3A7
330
9CB9
100
AcDbEntity
  8
寸法引出
100
AcDbTrace
 10
740.8890619327908
 20
1299.623281704614
 30
0.0
 11
740.8890619327908
 21
1294.623281704614
 31
0.0
 12
755.8890619327907
 22
1297.123281704614
 32
0.0
 13
755.8890619327907
 23
1297.123281704614
 33
0.0
  0
SOLID
  5
A3A8
330
9CB9
100
AcDbEntity
  8
寸法引出
100
AcDbTrace
 10
795.8890619327908
 20
1299.623281704614
 30
0.0
 11
795.8890619327908
 21
1294.623281704614
 31
0.0
 12
780.8890619327907
 22
1297.123281704614
 32
0.0
 13
780.8890619327907
 23
1297.123281704614
 33
0.0
  0
MTEXT
  5
A3A9
330
9CB9
100
AcDbEntity
  8
寸法引出
100
AcDbMText
 10
768.3890619327907
 20
1317.123281704614
 30
0.0
 40
20.0
 41
0.0
 71
     5
 72
     1
  1
\A1;25
  7
SANWA
 73
     1
 44
1.0
1001
ACAD
1000
MTEXTBEGIN
1070
    73
1070
     1
1070
    44
1040
1.0
1070
    74
1070
     0
1000
MTEXTEND
  0
POINT
  5
A3AA
330
9CB9
100
AcDbEntity
  8
DEFPOINTS
 62
     0
100
AcDbPoint
 10
755.8890619327907
 20
1224.120336091007
 30
0.0
  0
POINT
  5
A3AB
330
9CB9
100
AcDbEntity
  8
DEFPOINTS
 62
     0
100
AcDbPoint
 10
780.8890619327907
 20
1224.120336091007
 30
0.0
  0
POINT
  5
A3AC
330
9CB9
100
AcDbEntity
  8
DEFPOINTS
 62
     0
100
AcDbPoint
 10
780.8890619327907
 20
1297.123281704614
 30
0.0
  0
ENDBLK
  5
9CC6
330
9CB9
100
AcDbEntity
  8
0
100
AcDbBlockEnd
  0
BLOCK
  5
9CD2
330
9CC7
100
AcDbEntity
  8
0
100
AcDbBlockBegin
  2
*D2
 70
     1
 10
0.0
 20
0.0
 30
0.0
  3
*D2
  1

  0
LINE
  5
A3AD
330
9CC7
100
AcDbEntity
  8
寸法引出
370
    -2
100
AcDbLine
 10
938.3890619327909
 20
1234.120336091007
 30
0.0
 11
938.3890619327909
 21
1340.39929904212
 31
0.0
  0
LINE
  5
A3AE
330
9CC7
100
AcDbEntity
  8
寸法引出
370
    -2
100
AcDbLine
 10
908.3890619327908
 20
1335.39929904212
 30
0.0
 11
893.3890619327907
 21
1335.39929904212
 31
0.0
  0
LINE
  5
A3AF
330
9CC7
100
AcDbEntity
  8
寸法引出
370
    -2
100
AcDbLine
 10
953.3890619327907
 20
1335.39929904212
 30
0.0
 11
968.3890619327907
 21
1335.39929904212
 31
0.0
  0
LINE
  5
A3B0
330
9CC7
100
AcDbEntity
  8
寸法引出
370
    -2
100
AcDbLine
 10
923.3890619327908
 20
1335.39929904212
 30
0.0
 11
938.3890619327909
 21
1335.39929904212
 31
0.0
  0
SOLID
  5
A3B1
330
9CC7
100
AcDbEntity
  8
寸法引出
100
AcDbTrace
 10
908.3890619327908
 20
1337.89929904212
 30
0.0
 11
908.3890619327908
 21
1332.89929904212
 31
0.0
 12
923.3890619327908
 22
1335.39929904212
 32
0.0
 13
923.3890619327908
 23
1335.39929904212
 33
0.0
  0
SOLID
  5
A3B2
330
9CC7
100
AcDbEntity
  8
寸法引出
100
AcDbTrace
 10
953.3890619327907
 20
1337.89929904212
 30
0.0
 11
953.3890619327907
 21
1332.89929904212
 31
0.0
 12
938.3890619327909
 22
1335.39929904212
 32
0.0
 13
938.3890619327909
 23
1335.39929904212
 33
0.0
  0
MTEXT
  5
A3B3
330
9CC7
100
AcDbEntity
  8
寸法引出
100
AcDbMText
 10
930.8890619327907
 20
1355.39929904212
 30
0.0
 40
20.0
 41
0.0
 71
     5
 72
     1
  1
\A1;15
  7
SANWA
 73
     1
 44
1.0
1001
ACAD
1000
MTEXTBEGIN
1070
    73
1070
     1
1070
    44
1040
1.0
1070
    74
1070
     0
1000
MTEXTEND
  0
POINT
  5
A3B4
330
9CC7
100
AcDbEntity
  8
DEFPOINTS
 62
     0
100
AcDbPoint
 10
923.3890619327908
 20
1224.120336091007
 30
0.0
  0
POINT
  5
A3B5
330
9CC7
100
AcDbEntity
  8
DEFPOINTS
 62
     0
100
AcDbPoint
 10
938.3890619327909
 20
1224.120336091007
 30
0.0
  0
POINT
  5
A3B6
330
9CC7
100
AcDbEntity
  8
DEFPOINTS
 62
     0
100
AcDbPoint
 10
938.3890619327909
 20
1335.39929904212
 30
0.0
  0
ENDBLK
  5
9CD3
330
9CC7
100
AcDbEntity
  8
0
100
AcDbBlockEnd
  0
BLOCK
  5
9CDE
330
9CD4
100
AcDbEntity
  8
0
100
AcDbBlockBegin
  2
*D3
 70
     1
 10
0.0
 20
0.0
 30
0.0
  3
*D3
  1

  0
LINE
  5
A3B7
330
9CD4
100
AcDbEntity
  8
寸法引出
370
    -2
100
AcDbLine
 10
755.8890619327907
 20
1612.202330303902
 30
0.0
 11
755.8890619327907
 21
1658.484164181648
 31
0.0
  0
LINE
  5
A3B8
330
9CD4
100
AcDbEntity
  8
寸法引出
370
    -2
100
AcDbLine
 10
923.3890619327908
 20
1612.202330303902
 30
0.0
 11
923.3890619327908
 21
1658.484164181648
 31
0.0
  0
LINE
  5
A3B9
330
9CD4
100
AcDbEntity
  8
寸法引出
370
    -2
100
AcDbLine
 10
770.8890619327908
 20
1653.484164181648
 30
0.0
 11
908.3890619327908
 21
1653.484164181648
 31
0.0
  0
SOLID
  5
A3BA
330
9CD4
100
AcDbEntity
  8
寸法引出
100
AcDbTrace
 10
770.8890619327908
 20
1655.984164181648
 30
0.0
 11
770.8890619327908
 21
1650.984164181648
 31
0.0
 12
755.8890619327907
 22
1653.484164181648
 32
0.0
 13
755.8890619327907
 23
1653.484164181648
 33
0.0
  0
SOLID
  5
A3BB
330
9CD4
100
AcDbEntity
  8
寸法引出
100
AcDbTrace
 10
908.3890619327908
 20
1655.984164181648
 30
0.0
 11
908.3890619327908
 21
1650.984164181648
 31
0.0
 12
923.3890619327908
 22
1653.484164181648
 32
0.0
 13
923.3890619327908
 23
1653.484164181648
 33
0.0
  0
MTEXT
  5
A3BC
330
9CD4
100
AcDbEntity
  8
寸法引出
100
AcDbMText
 10
839.6390619327908
 20
1673.484164181648
 30
0.0
 40
20.0
 41
0.0
 71
     5
 72
     1
  1
\A1;167.5
  7
SANWA
 73
     1
 44
1.0
1001
ACAD
1000
MTEXTBEGIN
1070
    73
1070
     1
1070
    44
1040
1.0
1070
    74
1070
     0
1000
MTEXTEND
  0
POINT
  5
A3BD
330
9CD4
100
AcDbEntity
  8
DEFPOINTS
 62
     0
100
AcDbPoint
 10
755.8890619327907
 20
1602.202330303902
 30
0.0
  0
POINT
  5
A3BE
330
9CD4
100
AcDbEntity
  8
DEFPOINTS
 62
     0
100
AcDbPoint
 10
923.3890619327908
 20
1602.202330303902
 30
0.0
  0
POINT
  5
A3BF
330
9CD4
100
AcDbEntity
  8
DEFPOINTS
 62
     0
100
AcDbPoint
 10
923.3890619327908
 20
1653.484164181648
 30
0.0
  0
ENDBLK
  5
9CDF
330
9CD4
100
AcDbEntity
  8
0
100
AcDbBlockEnd
  0
BLOCK
  5
9CEC
330
9CE0
100
AcDbEntity
  8
0
100
AcDbBlockBegin
  2
*D4
 70
     1
 10
0.0
 20
0.0
 30
0.0
  3
*D4
  1

  0
LINE
  5
A3C0
330
9CE0
100
AcDbEntity
  8
寸法引出
370
    -2
100
AcDbLine
 10
755.8890619327907
 20
1492.202330303902
 30
0.0
 11
755.8890619327907
 21
1447.843884267756
 31
0.0
  0
LINE
  5
A3C1
330
9CE0
100
AcDbEntity
  8
寸法引出
370
    -2
100
AcDbLine
 10
780.8890619327907
 20
1492.202330303902
 30
0.0
 11
780.8890619327907
 21
1447.843884267756
 31
0.0
  0
LINE
  5
A3C2
330
9CE0
100
AcDbEntity
  8
寸法引出
370
    -2
100
AcDbLine
 10
740.8890619327908
 20
1452.843884267756
 30
0.0
 11
725.8890619327908
 21
1452.843884267756
 31
0.0
  0
LINE
  5
A3C3
330
9CE0
100
AcDbEntity
  8
寸法引出
370
    -2
100
AcDbLine
 10
795.8890619327907
 20
1452.843884267756
 30
0.0
 11
810.8890619327906
 21
1452.843884267756
 31
0.0
  0
LINE
  5
A3C4
330
9CE0
100
AcDbEntity
  8
寸法引出
370
    -2
100
AcDbLine
 10
755.8890619327907
 20
1452.843884267756
 30
0.0
 11
780.8890619327907
 21
1452.843884267756
 31
0.0
  0
SOLID
  5
A3C5
330
9CE0
100
AcDbEntity
  8
寸法引出
100
AcDbTrace
 10
740.8890619327908
 20
1455.343884267756
 30
0.0
 11
740.8890619327908
 21
1450.343884267756
 31
0.0
 12
755.8890619327907
 22
1452.843884267756
 32
0.0
 13
755.8890619327907
 23
1452.843884267756
 33
0.0
  0
SOLID
  5
A3C6
330
9CE0
100
AcDbEntity
  8
寸法引出
100
AcDbTrace
 10
795.8890619327907
 20
1455.343884267756
 30
0.0
 11
795.8890619327907
 21
1450.343884267756
 31
0.0
 12
780.8890619327907
 22
1452.843884267756
 32
0.0
 13
780.8890619327907
 23
1452.843884267756
 33
0.0
  0
MTEXT
  5
A3C7
330
9CE0
100
AcDbEntity
  8
寸法引出
100
AcDbMText
 10
768.3890619327907
 20
1472.843884267756
 30
0.0
 40
20.0
 41
0.0
 71
     5
 72
     1
  1
\A1;25
  7
SANWA
 73
     1
 44
1.0
1001
ACAD
1000
MTEXTBEGIN
1070
    73
1070
     1
1070
    44
1040
1.0
1070
    74
1070
     0
1000
MTEXTEND
  0
POINT
  5
A3C8
330
9CE0
100
AcDbEntity
  8
DEFPOINTS
 62
     0
100
AcDbPoint
 10
755.8890619327907
 20
1502.202330303902
 30
0.0
  0
POINT
  5
A3C9
330
9CE0
100
AcDbEntity
  8
DEFPOINTS
 62
     0
100
AcDbPoint
 10
780.8890619327907
 20
1502.202330303902
 30
0.0
  0
POINT
  5
A3CA
330
9CE0
100
AcDbEntity
  8
DEFPOINTS
 62
     0
100
AcDbPoint
 10
780.8890619327907
 20
1452.843884267756
 30
0.0
  0
ENDBLK
  5
9CED
330
9CE0
100
AcDbEntity
  8
0
100
AcDbBlockEnd
  0
BLOCK
  5
9CFA
330
9CEE
100
AcDbEntity
  8
0
100
AcDbBlockBegin
  2
*D5
 70
     1
 10
0.0
 20
0.0
 30
0.0
  3
*D5
  1

  0
LINE
  5
A3CB
330
9CEE
100
AcDbEntity
  8
寸法引出
370
    -2
100
AcDbLine
 10
913.3890619327909
 20
1602.202330303902
 30
0.0
 11
888.7188079269986
 21
1602.202330303902
 31
0.0
  0
LINE
  5
A3CC
330
9CEE
100
AcDbEntity
  8
寸法引出
370
    -2
100
AcDbLine
 10
907.8890619327907
 20
1577.202330303902
 30
0.0
 11
888.7188079269986
 21
1577.202330303902
 31
0.0
  0
LINE
  5
A3CD
330
9CEE
100
AcDbEntity
  8
寸法引出
370
    -2
100
AcDbLine
 10
893.7188079269985
 20
1617.202330303902
 30
0.0
 11
893.7188079269985
 21
1632.202330303902
 31
0.0
  0
LINE
  5
A3CE
330
9CEE
100
AcDbEntity
  8
寸法引出
370
    -2
100
AcDbLine
 10
893.7188079269985
 20
1562.202330303902
 30
0.0
 11
893.7188079269985
 21
1547.202330303902
 31
0.0
  0
LINE
  5
A3CF
330
9CEE
100
AcDbEntity
  8
寸法引出
370
    -2
100
AcDbLine
 10
893.7188079269985
 20
1602.202330303902
 30
0.0
 11
893.7188079269985
 21
1577.202330303902
 31
0.0
  0
SOLID
  5
A3D0
330
9CEE
100
AcDbEntity
  8
寸法引出
100
AcDbTrace
 10
891.2188079269986
 20
1617.202330303902
 30
0.0
 11
896.2188079269985
 21
1617.202330303902
 31
0.0
 12
893.7188079269985
 22
1602.202330303902
 32
0.0
 13
893.7188079269985
 23
1602.202330303902
 33
0.0
  0
SOLID
  5
A3D1
330
9CEE
100
AcDbEntity
  8
寸法引出
100
AcDbTrace
 10
891.2188079269986
 20
1562.202330303902
 30
0.0
 11
896.2188079269985
 21
1562.202330303902
 31
0.0
 12
893.7188079269985
 22
1577.202330303902
 32
0.0
 13
893.7188079269985
 23
1577.202330303902
 33
0.0
  0
MTEXT
  5
A3D2
330
9CEE
100
AcDbEntity
  8
寸法引出
100
AcDbMText
 10
873.7188079269984
 20
1589.702330303902
 30
0.0
 40
20.0
 41
0.0
 71
     5
 72
     1
  1
\A1;25
  7
SANWA
 11
0.0000000000000001
 21
1.0
 31
0.0
 73
     1
 44
1.0
1001
ACAD
1000
MTEXTBEGIN
1070
    73
1070
     1
1070
    44
1040
1.0
1070
    74
1070
     0
1000
MTEXTEND
  0
POINT
  5
A3D3
330
9CEE
100
AcDbEntity
  8
DEFPOINTS
 62
     0
100
AcDbPoint
 10
923.3890619327908
 20
1602.202330303902
 30
0.0
  0
POINT
  5
A3D4
330
9CEE
100
AcDbEntity
  8
DEFPOINTS
 62
     0
100
AcDbPoint
 10
917.8890619327908
 20
1577.202330303902
 30
0.0
  0
POINT
  5
A3D5
330
9CEE
100
AcDbEntity
  8
DEFPOINTS
 62
     0
100
AcDbPoint
 10
893.7188079269985
 20
1577.202330303902
 30
0.0
  0
ENDBLK
  5
9CFB
330
9CEE
100
AcDbEntity
  8
0
100
AcDbBlockEnd
  0
BLOCK
  5
9D08
330
9CFC
100
AcDbEntity
  8
0
100
AcDbBlockBegin
  2
*D6
 70
     1
 10
0.0
 20
0.0
 30
0.0
  3
*D6
  1

  0
LINE
  5
A3D6
330
9CFC
100
AcDbEntity
  8
寸法引出
370
    -2
100
AcDbLine
 10
905.8890619327907
 20
1511.202330303903
 30
0.0
 11
888.7188079269986
 21
1511.202330303903
 31
0.0
  0
LINE
  5
A3D7
330
9CFC
100
AcDbEntity
  8
寸法引出
370
    -2
100
AcDbLine
 10
905.8890619327907
 20
1502.202330303902
 30
0.0
 11
888.7188079269986
 21
1502.202330303902
 31
0.0
  0
LINE
  5
A3D8
330
9CFC
100
AcDbEntity
  8
寸法引出
370
    -2
100
AcDbLine
 10
893.7188079269985
 20
1526.202330303903
 30
0.0
 11
893.7188079269985
 21
1541.202330303903
 31
0.0
  0
LINE
  5
A3D9
330
9CFC
100
AcDbEntity
  8
寸法引出
370
    -2
100
AcDbLine
 10
893.7188079269985
 20
1487.202330303902
 30
0.0
 11
893.7188079269985
 21
1472.202330303902
 31
0.0
  0
LINE
  5
A3DA
330
9CFC
100
AcDbEntity
  8
寸法引出
370
    -2
100
AcDbLine
 10
893.7188079269985
 20
1511.202330303903
 30
0.0
 11
893.7188079269985
 21
1502.202330303902
 31
0.0
  0
SOLID
  5
A3DB
330
9CFC
100
AcDbEntity
  8
寸法引出
100
AcDbTrace
 10
891.2188079269986
 20
1526.202330303903
 30
0.0
 11
896.2188079269985
 21
1526.202330303903
 31
0.0
 12
893.7188079269985
 22
1511.202330303903
 32
0.0
 13
893.7188079269985
 23
1511.202330303903
 33
0.0
  0
SOLID
  5
A3DC
330
9CFC
100
AcDbEntity
  8
寸法引出
100
AcDbTrace
 10
891.2188079269986
 20
1487.202330303902
 30
0.0
 11
896.2188079269985
 21
1487.202330303902
 31
0.0
 12
893.7188079269985
 22
1502.202330303902
 32
0.0
 13
893.7188079269985
 23
1502.202330303902
 33
0.0
  0
MTEXT
  5
A3DD
330
9CFC
100
AcDbEntity
  8
寸法引出
100
AcDbMText
 10
873.7188079269984
 20
1506.702330303903
 30
0.0
 40
20.0
 41
0.0
 71
     5
 72
     1
  1
\A1;9
  7
SANWA
 11
0.0000000000000001
 21
1.0
 31
0.0
 73
     1
 44
1.0
1001
ACAD
1000
MTEXTBEGIN
1070
    73
1070
     1
1070
    44
1040
1.0
1070
    74
1070
     0
1000
MTEXTEND
  0
POINT
  5
A3DE
330
9CFC
100
AcDbEntity
  8
DEFPOINTS
 62
     0
100
AcDbPoint
 10
915.8890619327907
 20
1511.202330303903
 30
0.0
  0
POINT
  5
A3DF
330
9CFC
100
AcDbEntity
  8
DEFPOINTS
 62
     0
100
AcDbPoint
 10
915.8890619327907
 20
1502.202330303902
 30
0.0
  0
POINT
  5
A3E0
330
9CFC
100
AcDbEntity
  8
DEFPOINTS
 62
     0
100
AcDbPoint
 10
893.7188079269985
 20
1502.202330303902
 30
0.0
  0
ENDBLK
  5
9D09
330
9CFC
100
AcDbEntity
  8
0
100
AcDbBlockEnd
  0
BLOCK
  5
9D16
330
9D0A
100
AcDbEntity
  8
0
100
AcDbBlockBegin
  2
*D7
 70
     1
 10
0.0
 20
0.0
 30
0.0
  3
*D7
  1

  0
LINE
  5
A3E1
330
9D0A
100
AcDbEntity
  8
寸法引出
370
    -2
100
AcDbLine
 10
923.3890619327908
 20
1612.202330303902
 30
0.0
 11
923.3890619327908
 21
1658.484164181648
 31
0.0
  0
LINE
  5
A3E2
330
9D0A
100
AcDbEntity
  8
寸法引出
370
    -2
100
AcDbLine
 10
938.3890619327907
 20
1612.202330303902
 30
0.0
 11
938.3890619327907
 21
1658.484164181648
 31
0.0
  0
LINE
  5
A3E3
330
9D0A
100
AcDbEntity
  8
寸法引出
370
    -2
100
AcDbLine
 10
908.389061932791
 20
1653.484164181648
 30
0.0
 11
893.3890619327909
 21
1653.484164181648
 31
0.0
  0
LINE
  5
A3E4
330
9D0A
100
AcDbEntity
  8
寸法引出
370
    -2
100
AcDbLine
 10
953.3890619327907
 20
1653.484164181648
 30
0.0
 11
968.3890619327907
 21
1653.484164181648
 31
0.0
  0
LINE
  5
A3E5
330
9D0A
100
AcDbEntity
  8
寸法引出
370
    -2
100
AcDbLine
 10
923.3890619327908
 20
1653.484164181648
 30
0.0
 11
938.3890619327907
 21
1653.484164181648
 31
0.0
  0
SOLID
  5
A3E6
330
9D0A
100
AcDbEntity
  8
寸法引出
100
AcDbTrace
 10
908.389061932791
 20
1655.984164181648
 30
0.0
 11
908.389061932791
 21
1650.984164181648
 31
0.0
 12
923.3890619327908
 22
1653.484164181648
 32
0.0
 13
923.3890619327908
 23
1653.484164181648
 33
0.0
  0
SOLID
  5
A3E7
330
9D0A
100
AcDbEntity
  8
寸法引出
100
AcDbTrace
 10
953.3890619327907
 20
1655.984164181648
 30
0.0
 11
953.3890619327907
 21
1650.984164181648
 31
0.0
 12
938.3890619327907
 22
1653.484164181648
 32
0.0
 13
938.3890619327907
 23
1653.484164181648
 33
0.0
  0
MTEXT
  5
A3E8
330
9D0A
100
AcDbEntity
  8
寸法引出
100
AcDbMText
 10
930.8890619327907
 20
1673.484164181648
 30
0.0
 40
20.0
 41
0.0
 71
     5
 72
     1
  1
\A1;15
  7
SANWA
 73
     1
 44
1.0
1001
ACAD
1000
MTEXTBEGIN
1070
    73
1070
     1
1070
    44
1040
1.0
1070
    74
1070
     0
1000
MTEXTEND
  0
POINT
  5
A3E9
330
9D0A
100
AcDbEntity
  8
DEFPOINTS
 62
     0
100
AcDbPoint
 10
923.3890619327908
 20
1602.202330303902
 30
0.0
  0
POINT
  5
A3EA
330
9D0A
100
AcDbEntity
  8
DEFPOINTS
 62
     0
100
AcDbPoint
 10
938.3890619327907
 20
1602.202330303902
 30
0.0
  0
POINT
  5
A3EB
330
9D0A
100
AcDbEntity
  8
DEFPOINTS
 62
     0
100
AcDbPoint
 10
938.3890619327907
 20
1653.484164181648
 30
0.0
  0
ENDBLK
  5
9D17
330
9D0A
100
AcDbEntity
  8
0
100
AcDbBlockEnd
  0
BLOCK
  5
9D22
330
9D18
100
AcDbEntity
  8
0
100
AcDbBlockBegin
  2
*D8
 70
     1
 10
0.0
 20
0.0
 30
0.0
  3
*D8
  1

  0
LINE
  5
A3EC
330
9D18
100
AcDbEntity
  8
寸法引出
370
    -2
100
AcDbLine
 10
1115.889061932791
 20
1224.120336091007
 30
0.0
 11
1222.849086338551
 21
1224.120336091007
 31
0.0
  0
LINE
  5
A3ED
330
9D18
100
AcDbEntity
  8
寸法引出
370
    -2
100
AcDbLine
 10
1115.889061932791
 20
224.1203360910069
 30
0.0
 11
1222.84908633855
 21
224.1203360910069
 31
0.0
  0
LINE
  5
A3EE
330
9D18
100
AcDbEntity
  8
寸法引出
370
    -2
100
AcDbLine
 10
1217.84908633855
 20
1209.120336091007
 30
0.0
 11
1217.84908633855
 21
239.1203360910069
 31
0.0
  0
SOLID
  5
A3EF
330
9D18
100
AcDbEntity
  8
寸法引出
100
AcDbTrace
 10
1215.34908633855
 20
1209.120336091007
 30
0.0
 11
1220.349086338551
 21
1209.120336091007
 31
0.0
 12
1217.84908633855
 22
1224.120336091007
 32
0.0
 13
1217.84908633855
 23
1224.120336091007
 33
0.0
  0
SOLID
  5
A3F0
330
9D18
100
AcDbEntity
  8
寸法引出
100
AcDbTrace
 10
1215.34908633855
 20
239.1203360910069
 30
0.0
 11
1220.34908633855
 21
239.1203360910069
 31
0.0
 12
1217.84908633855
 22
224.1203360910069
 32
0.0
 13
1217.84908633855
 23
224.1203360910069
 33
0.0
  0
MTEXT
  5
A3F1
330
9D18
100
AcDbEntity
  8
寸法引出
100
AcDbMText
 10
1197.84908633855
 20
724.120336091007
 30
0.0
 40
20.0
 41
0.0
 71
     5
 72
     1
  1
\A1;1000
  7
SANWA
 11
0.0000000000000001
 21
1.0
 31
0.0
 73
     1
 44
1.0
1001
ACAD
1000
MTEXTBEGIN
1070
    73
1070
     1
1070
    44
1040
1.0
1070
    74
1070
     0
1000
MTEXTEND
  0
POINT
  5
A3F2
330
9D18
100
AcDbEntity
  8
DEFPOINTS
 62
     0
100
AcDbPoint
 10
1105.889061932791
 20
1224.120336091007
 30
0.0
  0
POINT
  5
A3F3
330
9D18
100
AcDbEntity
  8
DEFPOINTS
 62
     0
100
AcDbPoint
 10
1105.889061932791
 20
224.1203360910069
 30
0.0
  0
POINT
  5
A3F4
330
9D18
100
AcDbEntity
  8
DEFPOINTS
 62
     0
100
AcDbPoint
 10
1217.84908633855
 20
224.1203360910069
 30
0.0
  0
ENDBLK
  5
9D23
330
9D18
100
AcDbEntity
  8
0
100
AcDbBlockEnd
  0
BLOCK
  5
9D2E
330
9D24
100
AcDbEntity
  8
0
100
AcDbBlockBegin
  2
*D9
 70
     1
 10
0.0
 20
0.0
 30
0.0
  3
*D9
  1

  0
LINE
  5
A3F5
330
9D24
100
AcDbEntity
  8
寸法引出
370
    -2
100
AcDbLine
 10
1495.19751172747
 20
1612.202330303902
 30
0.0
 11
1495.19751172747
 21
1671.051028121152
 31
0.0
  0
LINE
  5
A3F6
330
9D24
100
AcDbEntity
  8
寸法引出
370
    -2
100
AcDbLine
 10
2495.197511727471
 20
1612.202330303902
 30
0.0
 11
2495.197511727471
 21
1671.051028121152
 31
0.0
  0
LINE
  5
A3F7
330
9D24
100
AcDbEntity
  8
寸法引出
370
    -2
100
AcDbLine
 10
1510.19751172747
 20
1666.051028121152
 30
0.0
 11
2480.197511727471
 21
1666.051028121152
 31
0.0
  0
SOLID
  5
A3F8
330
9D24
100
AcDbEntity
  8
寸法引出
100
AcDbTrace
 10
1510.19751172747
 20
1668.551028121151
 30
0.0
 11
1510.19751172747
 21
1663.551028121152
 31
0.0
 12
1495.19751172747
 22
1666.051028121152
 32
0.0
 13
1495.19751172747
 23
1666.051028121152
 33
0.0
  0
SOLID
  5
A3F9
330
9D24
100
AcDbEntity
  8
寸法引出
100
AcDbTrace
 10
2480.197511727471
 20
1668.551028121151
 30
0.0
 11
2480.197511727471
 21
1663.551028121152
 31
0.0
 12
2495.197511727471
 22
1666.051028121152
 32
0.0
 13
2495.197511727471
 23
1666.051028121152
 33
0.0
  0
MTEXT
  5
A3FA
330
9D24
100
AcDbEntity
  8
寸法引出
100
AcDbMText
 10
1995.19751172747
 20
1686.051028121152
 30
0.0
 40
20.0
 41
0.0
 71
     5
 72
     1
  1
\A1;1000
  7
SANWA
 73
     1
 44
1.0
1001
ACAD
1000
MTEXTBEGIN
1070
    73
1070
     1
1070
    44
1040
1.0
1070
    74
1070
     0
1000
MTEXTEND
  0
POINT
  5
A3FB
330
9D24
100
AcDbEntity
  8
DEFPOINTS
 62
     0
100
AcDbPoint
 10
1495.19751172747
 20
1602.202330303902
 30
0.0
  0
POINT
  5
A3FC
330
9D24
100
AcDbEntity
  8
DEFPOINTS
 62
     0
100
AcDbPoint
 10
2495.197511727471
 20
1602.202330303902
 30
0.0
  0
POINT
  5
A3FD
330
9D24
100
AcDbEntity
  8
DEFPOINTS
 62
     0
100
AcDbPoint
 10
2495.197511727471
 20
1666.051028121152
 30
0.0
  0
ENDBLK
  5
9D2F
330
9D24
100
AcDbEntity
  8
0
100
AcDbBlockEnd
  0
BLOCK
  5
9D39
330
9D30
100
AcDbEntity
  8
0
100
AcDbBlockBegin
  2
*D10
 70
     1
 10
0.0
 20
0.0
 30
0.0
  3
*D10
  1

  0
LINE
  5
A3FE
330
9D30
100
AcDbEntity
  8
寸法引出
370
    -2
100
AcDbLine
 10
2375.197511727471
 20
1492.202330303902
 30
0.0
 11
2375.197511727471
 21
1440.021979291171
 31
0.0
  0
LINE
  5
A3FF
330
9D30
100
AcDbEntity
  8
寸法引出
370
    -2
100
AcDbLine
 10
1630.19751172747
 20
1445.021979291171
 30
0.0
 11
2360.19751172747
 21
1445.021979291171
 31
0.0
  0
SOLID
  5
A400
330
9D30
100
AcDbEntity
  8
寸法引出
100
AcDbTrace
 10
1630.19751172747
 20
1447.521979291171
 30
0.0
 11
1630.19751172747
 21
1442.521979291171
 31
0.0
 12
1615.19751172747
 22
1445.021979291171
 32
0.0
 13
1615.19751172747
 23
1445.021979291171
 33
0.0
  0
SOLID
  5
A401
330
9D30
100
AcDbEntity
  8
寸法引出
100
AcDbTrace
 10
2360.19751172747
 20
1447.521979291171
 30
0.0
 11
2360.19751172747
 21
1442.521979291171
 31
0.0
 12
2375.197511727471
 22
1445.021979291171
 32
0.0
 13
2375.197511727471
 23
1445.021979291171
 33
0.0
  0
MTEXT
  5
A402
330
9D30
100
AcDbEntity
  8
寸法引出
100
AcDbMText
 10
1995.19751172747
 20
1465.021979291171
 30
0.0
 40
20.0
 41
0.0
 71
     5
 72
     1
  1
\A1;760
  7
SANWA
 73
     1
 44
1.0
1001
ACAD
1000
MTEXTBEGIN
1070
    73
1070
     1
1070
    44
1040
1.0
1070
    74
1070
     0
1000
MTEXTEND
  0
POINT
  5
A403
330
9D30
100
AcDbEntity
  8
DEFPOINTS
 62
     0
100
AcDbPoint
 10
1615.19751172747
 20
1502.202330303902
 30
0.0
  0
POINT
  5
A404
330
9D30
100
AcDbEntity
  8
DEFPOINTS
 62
     0
100
AcDbPoint
 10
2375.197511727471
 20
1502.202330303902
 30
0.0
  0
POINT
  5
A405
330
9D30
100
AcDbEntity
  8
DEFPOINTS
 62
     0
100
AcDbPoint
 10
2375.197511727471
 20
1445.021979291171
 30
0.0
  0
ENDBLK
  5
9D3A
330
9D30
100
AcDbEntity
  8
0
100
AcDbBlockEnd
  0
BLOCK
  5
9D46
330
9D3B
100
AcDbEntity
  8
0
100
AcDbBlockBegin
  2
*D11
 70
     1
 10
0.0
 20
0.0
 30
0.0
  3
*D11
  1

  0
LINE
  5
A406
330
9D3B
100
AcDbEntity
  8
寸法引出
370
    -2
100
AcDbLine
 10
1105.889061932791
 20
1234.120336091007
 30
0.0
 11
1105.889061932791
 21
1302.123281704614
 31
0.0
  0
LINE
  5
A407
330
9D3B
100
AcDbEntity
  8
寸法引出
370
    -2
100
AcDbLine
 10
1065.88906193279
 20
1297.123281704614
 30
0.0
 11
1050.889061932791
 21
1297.123281704614
 31
0.0
  0
LINE
  5
A408
330
9D3B
100
AcDbEntity
  8
寸法引出
370
    -2
100
AcDbLine
 10
1120.889061932791
 20
1297.123281704614
 30
0.0
 11
1135.889061932791
 21
1297.123281704614
 31
0.0
  0
LINE
  5
A409
330
9D3B
100
AcDbEntity
  8
寸法引出
370
    -2
100
AcDbLine
 10
1080.889061932791
 20
1297.123281704614
 30
0.0
 11
1105.889061932791
 21
1297.123281704614
 31
0.0
  0
SOLID
  5
A40A
330
9D3B
100
AcDbEntity
  8
寸法引出
100
AcDbTrace
 10
1065.88906193279
 20
1299.623281704614
 30
0.0
 11
1065.88906193279
 21
1294.623281704614
 31
0.0
 12
1080.889061932791
 22
1297.123281704614
 32
0.0
 13
1080.889061932791
 23
1297.123281704614
 33
0.0
  0
SOLID
  5
A40B
330
9D3B
100
AcDbEntity
  8
寸法引出
100
AcDbTrace
 10
1120.889061932791
 20
1299.623281704614
 30
0.0
 11
1120.889061932791
 21
1294.623281704614
 31
0.0
 12
1105.889061932791
 22
1297.123281704614
 32
0.0
 13
1105.889061932791
 23
1297.123281704614
 33
0.0
  0
MTEXT
  5
A40C
330
9D3B
100
AcDbEntity
  8
寸法引出
100
AcDbMText
 10
1093.389061932791
 20
1317.123281704614
 30
0.0
 40
20.0
 41
0.0
 71
     5
 72
     1
  1
\A1;25
  7
SANWA
 73
     1
 44
1.0
1001
ACAD
1000
MTEXTBEGIN
1070
    73
1070
     1
1070
    44
1040
1.0
1070
    74
1070
     0
1000
MTEXTEND
  0
POINT
  5
A40D
330
9D3B
100
AcDbEntity
  8
DEFPOINTS
 62
     0
100
AcDbPoint
 10
1080.889061932791
 20
1224.120336091007
 30
0.0
  0
POINT
  5
A40E
330
9D3B
100
AcDbEntity
  8
DEFPOINTS
 62
     0
100
AcDbPoint
 10
1105.889061932791
 20
1224.120336091007
 30
0.0
  0
POINT
  5
A40F
330
9D3B
100
AcDbEntity
  8
DEFPOINTS
 62
     0
100
AcDbPoint
 10
1105.889061932791
 20
1297.123281704614
 30
0.0
  0
ENDBLK
  5
9D47
330
9D3B
100
AcDbEntity
  8
0
100
AcDbBlockEnd
  0
BLOCK
  5
9D52
330
9D48
100
AcDbEntity
  8
0
100
AcDbBlockBegin
  2
*D12
 70
     1
 10
0.0
 20
0.0
 30
0.0
  3
*D12
  1

  0
LINE
  5
A410
330
9D48
100
AcDbEntity
  8
寸法引出
370
    -2
100
AcDbLine
 10
1495.19751172747
 20
1492.202330303902
 30
0.0
 11
1495.19751172747
 21
1440.021979291171
 31
0.0
  0
LINE
  5
A411
330
9D48
100
AcDbEntity
  8
寸法引出
370
    -2
100
AcDbLine
 10
1615.19751172747
 20
1492.202330303902
 30
0.0
 11
1615.19751172747
 21
1440.021979291171
 31
0.0
  0
LINE
  5
A412
330
9D48
100
AcDbEntity
  8
寸法引出
370
    -2
100
AcDbLine
 10
1510.19751172747
 20
1445.021979291171
 30
0.0
 11
1600.19751172747
 21
1445.021979291171
 31
0.0
  0
SOLID
  5
A413
330
9D48
100
AcDbEntity
  8
寸法引出
100
AcDbTrace
 10
1510.19751172747
 20
1447.521979291171
 30
0.0
 11
1510.19751172747
 21
1442.521979291171
 31
0.0
 12
1495.19751172747
 22
1445.021979291171
 32
0.0
 13
1495.19751172747
 23
1445.021979291171
 33
0.0
  0
SOLID
  5
A414
330
9D48
100
AcDbEntity
  8
寸法引出
100
AcDbTrace
 10
1600.19751172747
 20
1447.521979291171
 30
0.0
 11
1600.19751172747
 21
1442.521979291171
 31
0.0
 12
1615.19751172747
 22
1445.021979291171
 32
0.0
 13
1615.19751172747
 23
1445.021979291171
 33
0.0
  0
MTEXT
  5
A415
330
9D48
100
AcDbEntity
  8
寸法引出
100
AcDbMText
 10
1555.19751172747
 20
1465.021979291171
 30
0.0
 40
20.0
 41
0.0
 71
     5
 72
     1
  1
\A1;120
  7
SANWA
 73
     1
 44
1.0
1001
ACAD
1000
MTEXTBEGIN
1070
    73
1070
     1
1070
    44
1040
1.0
1070
    74
1070
     0
1000
MTEXTEND
  0
POINT
  5
A416
330
9D48
100
AcDbEntity
  8
DEFPOINTS
 62
     0
100
AcDbPoint
 10
1495.19751172747
 20
1502.202330303902
 30
0.0
  0
POINT
  5
A417
330
9D48
100
AcDbEntity
  8
DEFPOINTS
 62
     0
100
AcDbPoint
 10
1615.19751172747
 20
1502.202330303902
 30
0.0
  0
POINT
  5
A418
330
9D48
100
AcDbEntity
  8
DEFPOINTS
 62
     0
100
AcDbPoint
 10
1615.19751172747
 20
1445.021979291171
 30
0.0
  0
ENDBLK
  5
9D53
330
9D48
100
AcDbEntity
  8
0
100
AcDbBlockEnd
  0
BLOCK
  5
9D5E
330
9D54
100
AcDbEntity
  8
0
100
AcDbBlockBegin
  2
*D13
 70
     1
 10
0.0
 20
0.0
 30
0.0
  3
*D13
  1

  0
LINE
  5
A419
330
9D54
100
AcDbEntity
  8
寸法引出
370
    -2
100
AcDbLine
 10
1115.889061932791
 20
1602.202330303902
 30
0.0
 11
1198.072624575174
 21
1602.202330303902
 31
0.0
  0
LINE
  5
A41A
330
9D54
100
AcDbEntity
  8
寸法引出
370
    -2
100
AcDbLine
 10
1115.889061932791
 20
1502.202330303902
 30
0.0
 11
1198.072624575174
 21
1502.202330303902
 31
0.0
  0
LINE
  5
A41B
330
9D54
100
AcDbEntity
  8
寸法引出
370
    -2
100
AcDbLine
 10
1193.072624575174
 20
1587.202330303902
 30
0.0
 11
1193.072624575174
 21
1517.202330303902
 31
0.0
  0
SOLID
  5
A41C
330
9D54
100
AcDbEntity
  8
寸法引出
100
AcDbTrace
 10
1190.572624575174
 20
1587.202330303902
 30
0.0
 11
1195.572624575174
 21
1587.202330303902
 31
0.0
 12
1193.072624575174
 22
1602.202330303902
 32
0.0
 13
1193.072624575174
 23
1602.202330303902
 33
0.0
  0
SOLID
  5
A41D
330
9D54
100
AcDbEntity
  8
寸法引出
100
AcDbTrace
 10
1190.572624575174
 20
1517.202330303902
 30
0.0
 11
1195.572624575174
 21
1517.202330303902
 31
0.0
 12
1193.072624575174
 22
1502.202330303902
 32
0.0
 13
1193.072624575174
 23
1502.202330303902
 33
0.0
  0
MTEXT
  5
A41E
330
9D54
100
AcDbEntity
  8
寸法引出
100
AcDbMText
 10
1173.072624575174
 20
1552.202330303902
 30
0.0
 40
20.0
 41
0.0
 71
     5
 72
     1
  1
\A1;100
  7
SANWA
 11
0.0000000000000001
 21
1.0
 31
0.0
 73
     1
 44
1.0
1001
ACAD
1000
MTEXTBEGIN
1070
    73
1070
     1
1070
    44
1040
1.0
1070
    74
1070
     0
1000
MTEXTEND
  0
POINT
  5
A41F
330
9D54
100
AcDbEntity
  8
DEFPOINTS
 62
     0
100
AcDbPoint
 10
1105.889061932791
 20
1602.202330303902
 30
0.0
  0
POINT
  5
A420
330
9D54
100
AcDbEntity
  8
DEFPOINTS
 62
     0
100
AcDbPoint
 10
1105.889061932791
 20
1502.202330303902
 30
0.0
  0
POINT
  5
A421
330
9D54
100
AcDbEntity
  8
DEFPOINTS
 62
     0
100
AcDbPoint
 10
1193.072624575174
 20
1502.202330303902
 30
0.0
  0
ENDBLK
  5
9D5F
330
9D54
100
AcDbEntity
  8
0
100
AcDbBlockEnd
  0
BLOCK
  5
9D6C
330
9D60
100
AcDbEntity
  8
0
100
AcDbBlockBegin
  2
*D14
 70
     1
 10
0.0
 20
0.0
 30
0.0
  3
*D14
  1

  0
LINE
  5
A422
330
9D60
100
AcDbEntity
  8
寸法引出
370
    -2
100
AcDbLine
 10
1080.889061932791
 20
1492.202330303902
 30
0.0
 11
1080.889061932791
 21
1447.843884267756
 31
0.0
  0
LINE
  5
A423
330
9D60
100
AcDbEntity
  8
寸法引出
370
    -2
100
AcDbLine
 10
1105.889061932791
 20
1492.202330303902
 30
0.0
 11
1105.889061932791
 21
1447.843884267756
 31
0.0
  0
LINE
  5
A424
330
9D60
100
AcDbEntity
  8
寸法引出
370
    -2
100
AcDbLine
 10
1065.88906193279
 20
1452.843884267756
 30
0.0
 11
1050.889061932791
 21
1452.843884267756
 31
0.0
  0
LINE
  5
A425
330
9D60
100
AcDbEntity
  8
寸法引出
370
    -2
100
AcDbLine
 10
1120.889061932791
 20
1452.843884267756
 30
0.0
 11
1135.889061932791
 21
1452.843884267756
 31
0.0
  0
LINE
  5
A426
330
9D60
100
AcDbEntity
  8
寸法引出
370
    -2
100
AcDbLine
 10
1080.889061932791
 20
1452.843884267756
 30
0.0
 11
1105.889061932791
 21
1452.843884267756
 31
0.0
  0
SOLID
  5
A427
330
9D60
100
AcDbEntity
  8
寸法引出
100
AcDbTrace
 10
1065.88906193279
 20
1455.343884267756
 30
0.0
 11
1065.88906193279
 21
1450.343884267756
 31
0.0
 12
1080.889061932791
 22
1452.843884267756
 32
0.0
 13
1080.889061932791
 23
1452.843884267756
 33
0.0
  0
SOLID
  5
A428
330
9D60
100
AcDbEntity
  8
寸法引出
100
AcDbTrace
 10
1120.889061932791
 20
1455.343884267756
 30
0.0
 11
1120.889061932791
 21
1450.343884267756
 31
0.0
 12
1105.889061932791
 22
1452.843884267756
 32
0.0
 13
1105.889061932791
 23
1452.843884267756
 33
0.0
  0
MTEXT
  5
A429
330
9D60
100
AcDbEntity
  8
寸法引出
100
AcDbMText
 10
1093.389061932791
 20
1472.843884267756
 30
0.0
 40
20.0
 41
0.0
 71
     5
 72
     1
  1
\A1;25
  7
SANWA
 73
     1
 44
1.0
1001
ACAD
1000
MTEXTBEGIN
1070
    73
1070
     1
1070
    44
1040
1.0
1070
    74
1070
     0
1000
MTEXTEND
  0
POINT
  5
A42A
330
9D60
100
AcDbEntity
  8
DEFPOINTS
 62
     0
100
AcDbPoint
 10
1080.889061932791
 20
1502.202330303902
 30
0.0
  0
POINT
  5
A42B
330
9D60
100
AcDbEntity
  8
DEFPOINTS
 62
     0
100
AcDbPoint
 10
1105.889061932791
 20
1502.202330303902
 30
0.0
  0
POINT
  5
A42C
330
9D60
100
AcDbEntity
  8
DEFPOINTS
 62
     0
100
AcDbPoint
 10
1105.889061932791
 20
1452.843884267756
 30
0.0
  0
ENDBLK
  5
9D6D
330
9D60
100
AcDbEntity
  8
0
100
AcDbBlockEnd
  0
BLOCK
  5
9D78
330
9D6E
100
AcDbEntity
  8
0
100
AcDbBlockBegin
  2
*D15
 70
     1
 10
0.0
 20
0.0
 30
0.0
  3
*D15
  1

  0
LINE
  5
A42D
330
9D6E
100
AcDbEntity
  8
寸法引出
370
    -2
100
AcDbLine
 10
2505.197511727471
 20
1602.202330303902
 30
0.0
 11
2627.067703055229
 21
1602.202330303902
 31
0.0
  0
LINE
  5
A42E
330
9D6E
100
AcDbEntity
  8
寸法引出
370
    -2
100
AcDbLine
 10
2505.197511727471
 20
1502.202330303902
 30
0.0
 11
2627.067703055229
 21
1502.202330303902
 31
0.0
  0
LINE
  5
A42F
330
9D6E
100
AcDbEntity
  8
寸法引出
370
    -2
100
AcDbLine
 10
2622.067703055229
 20
1587.202330303902
 30
0.0
 11
2622.067703055229
 21
1517.202330303902
 31
0.0
  0
SOLID
  5
A430
330
9D6E
100
AcDbEntity
  8
寸法引出
100
AcDbTrace
 10
2619.567703055229
 20
1587.202330303902
 30
0.0
 11
2624.567703055229
 21
1587.202330303902
 31
0.0
 12
2622.067703055229
 22
1602.202330303902
 32
0.0
 13
2622.067703055229
 23
1602.202330303902
 33
0.0
  0
SOLID
  5
A431
330
9D6E
100
AcDbEntity
  8
寸法引出
100
AcDbTrace
 10
2619.567703055229
 20
1517.202330303902
 30
0.0
 11
2624.567703055229
 21
1517.202330303902
 31
0.0
 12
2622.067703055229
 22
1502.202330303902
 32
0.0
 13
2622.067703055229
 23
1502.202330303902
 33
0.0
  0
MTEXT
  5
A432
330
9D6E
100
AcDbEntity
  8
寸法引出
100
AcDbMText
 10
2602.067703055229
 20
1552.202330303902
 30
0.0
 40
20.0
 41
0.0
 71
     5
 72
     1
  1
\A1;100
  7
SANWA
 11
0.0000000000000001
 21
1.0
 31
0.0
 73
     1
 44
1.0
1001
ACAD
1000
MTEXTBEGIN
1070
    73
1070
     1
1070
    44
1040
1.0
1070
    74
1070
     0
1000
MTEXTEND
  0
POINT
  5
A433
330
9D6E
100
AcDbEntity
  8
DEFPOINTS
 62
     0
100
AcDbPoint
 10
2495.197511727471
 20
1602.202330303902
 30
0.0
  0
POINT
  5
A434
330
9D6E
100
AcDbEntity
  8
DEFPOINTS
 62
     0
100
AcDbPoint
 10
2495.197511727471
 20
1502.202330303902
 30
0.0
  0
POINT
  5
A435
330
9D6E
100
AcDbEntity
  8
DEFPOINTS
 62
     0
100
AcDbPoint
 10
2622.067703055229
 20
1502.202330303902
 30
0.0
  0
ENDBLK
  5
9D79
330
9D6E
100
AcDbEntity
  8
0
100
AcDbBlockEnd
  0
BLOCK
  5
9D85
330
9D7A
100
AcDbEntity
  8
0
100
AcDbBlockBegin
  2
*D16
 70
     1
 10
0.0
 20
0.0
 30
0.0
  3
*D16
  1

  0
LINE
  5
A436
330
9D7A
100
AcDbEntity
  8
寸法引出
370
    -2
100
AcDbLine
 10
2505.197511727471
 20
1602.202330303902
 30
0.0
 11
2564.675107830022
 21
1602.202330303902
 31
0.0
  0
LINE
  5
A437
330
9D7A
100
AcDbEntity
  8
寸法引出
370
    -2
100
AcDbLine
 10
2559.675107830023
 20
1562.202330303902
 30
0.0
 11
2559.675107830023
 21
1547.202330303902
 31
0.0
  0
LINE
  5
A438
330
9D7A
100
AcDbEntity
  8
寸法引出
370
    -2
100
AcDbLine
 10
2559.675107830023
 20
1617.202330303902
 30
0.0
 11
2559.675107830023
 21
1632.202330303902
 31
0.0
  0
LINE
  5
A439
330
9D7A
100
AcDbEntity
  8
寸法引出
370
    -2
100
AcDbLine
 10
2559.675107830023
 20
1577.202330303902
 30
0.0
 11
2559.675107830023
 21
1602.202330303902
 31
0.0
  0
SOLID
  5
A43A
330
9D7A
100
AcDbEntity
  8
寸法引出
100
AcDbTrace
 10
2557.175107830023
 20
1562.202330303902
 30
0.0
 11
2562.175107830022
 21
1562.202330303902
 31
0.0
 12
2559.675107830023
 22
1577.202330303902
 32
0.0
 13
2559.675107830023
 23
1577.202330303902
 33
0.0
  0
SOLID
  5
A43B
330
9D7A
100
AcDbEntity
  8
寸法引出
100
AcDbTrace
 10
2557.175107830023
 20
1617.202330303902
 30
0.0
 11
2562.175107830022
 21
1617.202330303902
 31
0.0
 12
2559.675107830023
 22
1602.202330303902
 32
0.0
 13
2559.675107830023
 23
1602.202330303902
 33
0.0
  0
MTEXT
  5
A43C
330
9D7A
100
AcDbEntity
  8
寸法引出
100
AcDbMText
 10
2539.675107830022
 20
1589.702330303902
 30
0.0
 40
20.0
 41
0.0
 71
     5
 72
     1
  1
\A1;25
  7
SANWA
 11
0.0000000000000001
 21
1.0
 31
0.0
 73
     1
 44
1.0
1001
ACAD
1000
MTEXTBEGIN
1070
    73
1070
     1
1070
    44
1040
1.0
1070
    74
1070
     0
1000
MTEXTEND
  0
POINT
  5
A43D
330
9D7A
100
AcDbEntity
  8
DEFPOINTS
 62
     0
100
AcDbPoint
 10
2495.197511727471
 20
1577.202330303902
 30
0.0
  0
POINT
  5
A43E
330
9D7A
100
AcDbEntity
  8
DEFPOINTS
 62
     0
100
AcDbPoint
 10
2495.197511727471
 20
1602.202330303902
 30
0.0
  0
POINT
  5
A43F
330
9D7A
100
AcDbEntity
  8
DEFPOINTS
 62
     0
100
AcDbPoint
 10
2559.675107830023
 20
1602.202330303902
 30
0.0
  0
ENDBLK
  5
9D86
330
9D7A
100
AcDbEntity
  8
0
100
AcDbBlockEnd
  0
BLOCK
  5
9D91
330
9D87
100
AcDbEntity
  8
0
100
AcDbBlockBegin
  2
*D17
 70
     1
 10
0.0
 20
0.0
 30
0.0
  3
*D17
  1

  0
LINE
  5
A440
330
9D87
100
AcDbEntity
  8
寸法引出
370
    -2
100
AcDbLine
 10
2505.197511727471
 20
1577.202330303902
 30
0.0
 11
2564.675107830022
 21
1577.202330303902
 31
0.0
  0
LINE
  5
A441
330
9D87
100
AcDbEntity
  8
寸法引出
370
    -2
100
AcDbLine
 10
2505.197511727471
 20
1502.202330303902
 30
0.0
 11
2564.675107830022
 21
1502.202330303902
 31
0.0
  0
LINE
  5
A442
330
9D87
100
AcDbEntity
  8
寸法引出
370
    -2
100
AcDbLine
 10
2559.675107830023
 20
1562.202330303902
 30
0.0
 11
2559.675107830023
 21
1517.202330303902
 31
0.0
  0
SOLID
  5
A443
330
9D87
100
AcDbEntity
  8
寸法引出
100
AcDbTrace
 10
2557.175107830023
 20
1562.202330303902
 30
0.0
 11
2562.175107830022
 21
1562.202330303902
 31
0.0
 12
2559.675107830023
 22
1577.202330303902
 32
0.0
 13
2559.675107830023
 23
1577.202330303902
 33
0.0
  0
SOLID
  5
A444
330
9D87
100
AcDbEntity
  8
寸法引出
100
AcDbTrace
 10
2557.175107830023
 20
1517.202330303902
 30
0.0
 11
2562.175107830022
 21
1517.202330303902
 31
0.0
 12
2559.675107830023
 22
1502.202330303902
 32
0.0
 13
2559.675107830023
 23
1502.202330303902
 33
0.0
  0
MTEXT
  5
A445
330
9D87
100
AcDbEntity
  8
寸法引出
100
AcDbMText
 10
2539.675107830022
 20
1539.702330303902
 30
0.0
 40
20.0
 41
0.0
 71
     5
 72
     1
  1
\A1;75
  7
SANWA
 11
0.0000000000000001
 21
1.0
 31
0.0
 73
     1
 44
1.0
1001
ACAD
1000
MTEXTBEGIN
1070
    73
1070
     1
1070
    44
1040
1.0
1070
    74
1070
     0
1000
MTEXTEND
  0
POINT
  5
A446
330
9D87
100
AcDbEntity
  8
DEFPOINTS
 62
     0
100
AcDbPoint
 10
2495.197511727471
 20
1577.202330303902
 30
0.0
  0
POINT
  5
A447
330
9D87
100
AcDbEntity
  8
DEFPOINTS
 62
     0
100
AcDbPoint
 10
2495.197511727471
 20
1502.202330303902
 30
0.0
  0
POINT
  5
A448
330
9D87
100
AcDbEntity
  8
DEFPOINTS
 62
     0
100
AcDbPoint
 10
2559.675107830023
 20
1502.202330303902
 30
0.0
  0
ENDBLK
  5
9D92
330
9D87
100
AcDbEntity
  8
0
100
AcDbBlockEnd
  0
BLOCK
  5
9D9C
330
9D93
100
AcDbEntity
  8
0
100
AcDbBlockBegin
  2
*D18
 70
     1
 10
0.0
 20
0.0
 30
0.0
  3
*D18
  1

  0
LINE
  5
A449
330
9D93
100
AcDbEntity
  8
寸法引出
370
    -2
100
AcDbLine
 10
2495.197511727471
 20
1492.202330303902
 30
0.0
 11
2495.197511727471
 21
1440.021979291171
 31
0.0
  0
LINE
  5
A44A
330
9D93
100
AcDbEntity
  8
寸法引出
370
    -2
100
AcDbLine
 10
2390.197511727471
 20
1445.021979291171
 30
0.0
 11
2480.197511727471
 21
1445.021979291171
 31
0.0
  0
SOLID
  5
A44B
330
9D93
100
AcDbEntity
  8
寸法引出
100
AcDbTrace
 10
2390.197511727471
 20
1447.521979291171
 30
0.0
 11
2390.197511727471
 21
1442.521979291171
 31
0.0
 12
2375.197511727471
 22
1445.021979291171
 32
0.0
 13
2375.197511727471
 23
1445.021979291171
 33
0.0
  0
SOLID
  5
A44C
330
9D93
100
AcDbEntity
  8
寸法引出
100
AcDbTrace
 10
2480.197511727471
 20
1447.521979291171
 30
0.0
 11
2480.197511727471
 21
1442.521979291171
 31
0.0
 12
2495.197511727471
 22
1445.021979291171
 32
0.0
 13
2495.197511727471
 23
1445.021979291171
 33
0.0
  0
MTEXT
  5
A44D
330
9D93
100
AcDbEntity
  8
寸法引出
100
AcDbMText
 10
2435.197511727471
 20
1465.021979291171
 30
0.0
 40
20.0
 41
0.0
 71
     5
 72
     1
  1
\A1;120
  7
SANWA
 73
     1
 44
1.0
1001
ACAD
1000
MTEXTBEGIN
1070
    73
1070
     1
1070
    44
1040
1.0
1070
    74
1070
     0
1000
MTEXTEND
  0
POINT
  5
A44E
330
9D93
100
AcDbEntity
  8
DEFPOINTS
 62
     0
100
AcDbPoint
 10
2375.197511727471
 20
1502.202330303902
 30
0.0
  0
POINT
  5
A44F
330
9D93
100
AcDbEntity
  8
DEFPOINTS
 62
     0
100
AcDbPoint
 10
2495.197511727471
 20
1502.202330303902
 30
0.0
  0
POINT
  5
A450
330
9D93
100
AcDbEntity
  8
DEFPOINTS
 62
     0
100
AcDbPoint
 10
2495.197511727471
 20
1445.021979291171
 30
0.0
  0
ENDBLK
  5
9D9D
330
9D93
100
AcDbEntity
  8
0
100
AcDbBlockEnd
  0
BLOCK
  5
9F30
330
9F27
100
AcDbEntity
  8
0
100
AcDbBlockBegin
  2
*D52
 70
     1
 10
0.0
 20
0.0
 30
0.0
  3
*D52
  1

  0
LINE
  5
A330
330
9F27
100
AcDbEntity
  8
寸法引出
370
    -2
100
AcDbLine
 10
1105.889061932791
 20
1234.120336091007
 30
0.0
 11
1105.889061932791
 21
1340.39929904212
 31
0.0
  0
LINE
  5
A331
330
9F27
100
AcDbEntity
  8
寸法引出
370
    -2
100
AcDbLine
 10
953.3890619327907
 20
1335.39929904212
 30
0.0
 11
1090.889061932791
 21
1335.39929904212
 31
0.0
  0
SOLID
  5
A332
330
9F27
100
AcDbEntity
  8
寸法引出
100
AcDbTrace
 10
953.3890619327907
 20
1337.89929904212
 30
0.0
 11
953.3890619327907
 21
1332.89929904212
 31
0.0
 12
938.3890619327909
 22
1335.39929904212
 32
0.0
 13
938.3890619327909
 23
1335.39929904212
 33
0.0
  0
SOLID
  5
A333
330
9F27
100
AcDbEntity
  8
寸法引出
100
AcDbTrace
 10
1090.889061932791
 20
1337.89929904212
 30
0.0
 11
1090.889061932791
 21
1332.89929904212
 31
0.0
 12
1105.889061932791
 22
1335.39929904212
 32
0.0
 13
1105.889061932791
 23
1335.39929904212
 33
0.0
  0
MTEXT
  5
A334
330
9F27
100
AcDbEntity
  8
寸法引出
100
AcDbMText
 10
1022.139061932791
 20
1355.39929904212
 30
0.0
 40
20.0
 41
0.0
 71
     5
 72
     1
  1
\A1;167.5
  7
SANWA
 73
     1
 44
1.0
1001
ACAD
1000
MTEXTBEGIN
1070
    73
1070
     1
1070
    44
1040
1.0
1070
    74
1070
     0
1000
MTEXTEND
  0
POINT
  5
A335
330
9F27
100
AcDbEntity
  8
DEFPOINTS
 62
     0
100
AcDbPoint
 10
938.3890619327909
 20
1224.120336091007
 30
0.0
  0
POINT
  5
A336
330
9F27
100
AcDbEntity
  8
DEFPOINTS
 62
     0
100
AcDbPoint
 10
1105.889061932791
 20
1224.120336091007
 30
0.0
  0
POINT
  5
A337
330
9F27
100
AcDbEntity
  8
DEFPOINTS
 62
     0
100
AcDbPoint
 10
1105.889061932791
 20
1335.39929904212
 30
0.0
  0
ENDBLK
  5
9F31
330
9F27
100
AcDbEntity
  8
0
100
AcDbBlockEnd
  0
BLOCK
  5
9F3B
330
9F32
100
AcDbEntity
  8
0
100
AcDbBlockBegin
  2
*D53
 70
     1
 10
0.0
 20
0.0
 30
0.0
  3
*D53
  1

  0
LINE
  5
A338
330
9F32
100
AcDbEntity
  8
寸法引出
370
    -2
100
AcDbLine
 10
1080.889061932791
 20
1234.120336091007
 30
0.0
 11
1080.889061932791
 21
1302.123281704614
 31
0.0
  0
LINE
  5
A339
330
9F32
100
AcDbEntity
  8
寸法引出
370
    -2
100
AcDbLine
 10
945.8890619327908
 20
1297.123281704614
 30
0.0
 11
1065.88906193279
 21
1297.123281704614
 31
0.0
  0
SOLID
  5
A33A
330
9F32
100
AcDbEntity
  8
寸法引出
100
AcDbTrace
 10
945.8890619327908
 20
1299.623281704614
 30
0.0
 11
945.8890619327908
 21
1294.623281704614
 31
0.0
 12
930.8890619327907
 22
1297.123281704614
 32
0.0
 13
930.8890619327907
 23
1297.123281704614
 33
0.0
  0
SOLID
  5
A33B
330
9F32
100
AcDbEntity
  8
寸法引出
100
AcDbTrace
 10
1065.88906193279
 20
1299.623281704614
 30
0.0
 11
1065.88906193279
 21
1294.623281704614
 31
0.0
 12
1080.889061932791
 22
1297.123281704614
 32
0.0
 13
1080.889061932791
 23
1297.123281704614
 33
0.0
  0
MTEXT
  5
A33C
330
9F32
100
AcDbEntity
  8
寸法引出
100
AcDbMText
 10
1005.889061932791
 20
1317.123281704614
 30
0.0
 40
20.0
 41
0.0
 71
     5
 72
     1
  1
\A1;150
  7
SANWA
 73
     1
 44
1.0
1001
ACAD
1000
MTEXTBEGIN
1070
    73
1070
     1
1070
    44
1040
1.0
1070
    74
1070
     0
1000
MTEXTEND
  0
POINT
  5
A33D
330
9F32
100
AcDbEntity
  8
DEFPOINTS
 62
     0
100
AcDbPoint
 10
930.8890619327907
 20
1274.120336091007
 30
0.0
  0
POINT
  5
A33E
330
9F32
100
AcDbEntity
  8
DEFPOINTS
 62
     0
100
AcDbPoint
 10
1080.889061932791
 20
1224.120336091007
 30
0.0
  0
POINT
  5
A33F
330
9F32
100
AcDbEntity
  8
DEFPOINTS
 62
     0
100
AcDbPoint
 10
1080.889061932791
 20
1297.123281704614
 30
0.0
  0
ENDBLK
  5
9F3C
330
9F32
100
AcDbEntity
  8
0
100
AcDbBlockEnd
  0
BLOCK
  5
9F47
330
9F3D
100
AcDbEntity
  8
0
100
AcDbBlockBegin
  2
*D54
 70
     1
 10
0.0
 20
0.0
 30
0.0
  3
*D54
  1

  0
LINE
  5
A340
330
9F3D
100
AcDbEntity
  8
寸法引出
370
    -2
100
AcDbLine
 10
755.8890619327907
 20
214.1203360910069
 30
0.0
 11
755.8890619327907
 21
125.2100191280542
 31
0.0
  0
LINE
  5
A341
330
9F3D
100
AcDbEntity
  8
寸法引出
370
    -2
100
AcDbLine
 10
1105.889061932791
 20
214.1203360910069
 30
0.0
 11
1105.889061932791
 21
125.2100191280542
 31
0.0
  0
LINE
  5
A342
330
9F3D
100
AcDbEntity
  8
寸法引出
370
    -2
100
AcDbLine
 10
770.8890619327908
 20
130.2100191280542
 30
0.0
 11
1090.889061932791
 21
130.2100191280542
 31
0.0
  0
SOLID
  5
A343
330
9F3D
100
AcDbEntity
  8
寸法引出
100
AcDbTrace
 10
770.8890619327908
 20
132.7100191280542
 30
0.0
 11
770.8890619327908
 21
127.7100191280542
 31
0.0
 12
755.8890619327907
 22
130.2100191280542
 32
0.0
 13
755.8890619327907
 23
130.2100191280542
 33
0.0
  0
SOLID
  5
A344
330
9F3D
100
AcDbEntity
  8
寸法引出
100
AcDbTrace
 10
1090.889061932791
 20
132.7100191280542
 30
0.0
 11
1090.889061932791
 21
127.7100191280542
 31
0.0
 12
1105.889061932791
 22
130.2100191280542
 32
0.0
 13
1105.889061932791
 23
130.2100191280542
 33
0.0
  0
MTEXT
  5
A345
330
9F3D
100
AcDbEntity
  8
寸法引出
100
AcDbMText
 10
930.8890619327907
 20
150.2100191280542
 30
0.0
 40
20.0
 41
0.0
 71
     5
 72
     1
  1
\A1;350
  7
SANWA
 73
     1
 44
1.0
1001
ACAD
1000
MTEXTBEGIN
1070
    73
1070
     1
1070
    44
1040
1.0
1070
    74
1070
     0
1000
MTEXTEND
  0
POINT
  5
A346
330
9F3D
100
AcDbEntity
  8
DEFPOINTS
 62
     0
100
AcDbPoint
 10
755.8890619327907
 20
224.1203360910069
 30
0.0
  0
POINT
  5
A347
330
9F3D
100
AcDbEntity
  8
DEFPOINTS
 62
     0
100
AcDbPoint
 10
1105.889061932791
 20
224.1203360910069
 30
0.0
  0
POINT
  5
A348
330
9F3D
100
AcDbEntity
  8
DEFPOINTS
 62
     0
100
AcDbPoint
 10
1105.889061932791
 20
130.2100191280542
 30
0.0
  0
ENDBLK
  5
9F48
330
9F3D
100
AcDbEntity
  8
0
100
AcDbBlockEnd
  0
BLOCK
  5
9F53
330
9F49
100
AcDbEntity
  8
0
100
AcDbBlockBegin
  2
*D55
 70
     1
 10
0.0
 20
0.0
 30
0.0
  3
*D55
  1

  0
LINE
  5
A349
330
9F49
100
AcDbEntity
  8
寸法引出
370
    -2
100
AcDbLine
 10
755.8890619327907
 20
1612.202330303902
 30
0.0
 11
755.8890619327907
 21
1697.656786078242
 31
0.0
  0
LINE
  5
A34A
330
9F49
100
AcDbEntity
  8
寸法引出
370
    -2
100
AcDbLine
 10
1105.889061932791
 20
1612.202330303902
 30
0.0
 11
1105.889061932791
 21
1697.656786078242
 31
0.0
  0
LINE
  5
A34B
330
9F49
100
AcDbEntity
  8
寸法引出
370
    -2
100
AcDbLine
 10
770.8890619327908
 20
1692.656786078242
 30
0.0
 11
1090.889061932791
 21
1692.656786078242
 31
0.0
  0
SOLID
  5
A34C
330
9F49
100
AcDbEntity
  8
寸法引出
100
AcDbTrace
 10
770.8890619327908
 20
1695.156786078242
 30
0.0
 11
770.8890619327908
 21
1690.156786078242
 31
0.0
 12
755.8890619327907
 22
1692.656786078242
 32
0.0
 13
755.8890619327907
 23
1692.656786078242
 33
0.0
  0
SOLID
  5
A34D
330
9F49
100
AcDbEntity
  8
寸法引出
100
AcDbTrace
 10
1090.889061932791
 20
1695.156786078242
 30
0.0
 11
1090.889061932791
 21
1690.156786078242
 31
0.0
 12
1105.889061932791
 22
1692.656786078242
 32
0.0
 13
1105.889061932791
 23
1692.656786078242
 33
0.0
  0
MTEXT
  5
A34E
330
9F49
100
AcDbEntity
  8
寸法引出
100
AcDbMText
 10
930.8890619327907
 20
1712.656786078242
 30
0.0
 40
20.0
 41
0.0
 71
     5
 72
     1
  1
\A1;350
  7
SANWA
 73
     1
 44
1.0
1001
ACAD
1000
MTEXTBEGIN
1070
    73
1070
     1
1070
    44
1040
1.0
1070
    74
1070
     0
1000
MTEXTEND
  0
POINT
  5
A34F
330
9F49
100
AcDbEntity
  8
DEFPOINTS
 62
     0
100
AcDbPoint
 10
755.8890619327907
 20
1602.202330303902
 30
0.0
  0
POINT
  5
A350
330
9F49
100
AcDbEntity
  8
DEFPOINTS
 62
     0
100
AcDbPoint
 10
1105.889061932791
 20
1602.202330303902
 30
0.0
  0
POINT
  5
A351
330
9F49
100
AcDbEntity
  8
DEFPOINTS
 62
     0
100
AcDbPoint
 10
1105.889061932791
 20
1692.656786078242
 30
0.0
  0
ENDBLK
  5
9F54
330
9F49
100
AcDbEntity
  8
0
100
AcDbBlockEnd
  0
BLOCK
  5
9F5E
330
9F55
100
AcDbEntity
  8
0
100
AcDbBlockBegin
  2
*D56
 70
     1
 10
0.0
 20
0.0
 30
0.0
  3
*D56
  1

  0
LINE
  5
A352
330
9F55
100
AcDbEntity
  8
寸法引出
370
    -2
100
AcDbLine
 10
1105.889061932791
 20
1492.202330303902
 30
0.0
 11
1105.889061932791
 21
1406.760398626616
 31
0.0
  0
LINE
  5
A353
330
9F55
100
AcDbEntity
  8
寸法引出
370
    -2
100
AcDbLine
 10
960.8890619327908
 20
1411.760398626616
 30
0.0
 11
1090.889061932791
 21
1411.760398626616
 31
0.0
  0
SOLID
  5
A354
330
9F55
100
AcDbEntity
  8
寸法引出
100
AcDbTrace
 10
960.8890619327908
 20
1414.260398626615
 30
0.0
 11
960.8890619327908
 21
1409.260398626616
 31
0.0
 12
945.889061932791
 22
1411.760398626616
 32
0.0
 13
945.889061932791
 23
1411.760398626616
 33
0.0
  0
SOLID
  5
A355
330
9F55
100
AcDbEntity
  8
寸法引出
100
AcDbTrace
 10
1090.889061932791
 20
1414.260398626615
 30
0.0
 11
1090.889061932791
 21
1409.260398626616
 31
0.0
 12
1105.889061932791
 22
1411.760398626616
 32
0.0
 13
1105.889061932791
 23
1411.760398626616
 33
0.0
  0
MTEXT
  5
A356
330
9F55
100
AcDbEntity
  8
寸法引出
100
AcDbMText
 10
1025.889061932791
 20
1431.760398626616
 30
0.0
 40
20.0
 41
0.0
 71
     5
 72
     1
  1
\A1;160
  7
SANWA
 73
     1
 44
1.0
1001
ACAD
1000
MTEXTBEGIN
1070
    73
1070
     1
1070
    44
1040
1.0
1070
    74
1070
     0
1000
MTEXTEND
  0
POINT
  5
A357
330
9F55
100
AcDbEntity
  8
DEFPOINTS
 62
     0
100
AcDbPoint
 10
945.889061932791
 20
1502.202330303902
 30
0.0
  0
POINT
  5
A358
330
9F55
100
AcDbEntity
  8
DEFPOINTS
 62
     0
100
AcDbPoint
 10
1105.889061932791
 20
1502.202330303902
 30
0.0
  0
POINT
  5
A359
330
9F55
100
AcDbEntity
  8
DEFPOINTS
 62
     0
100
AcDbPoint
 10
1105.889061932791
 20
1411.760398626616
 30
0.0
  0
ENDBLK
  5
9F5F
330
9F55
100
AcDbEntity
  8
0
100
AcDbBlockEnd
  0
BLOCK
  5
9F69
330
9F60
100
AcDbEntity
  8
0
100
AcDbBlockBegin
  2
*D57
 70
     1
 10
0.0
 20
0.0
 30
0.0
  3
*D57
  1

  0
LINE
  5
A35A
330
9F60
100
AcDbEntity
  8
寸法引出
370
    -2
100
AcDbLine
 10
1105.889061932791
 20
1612.202330303902
 30
0.0
 11
1105.889061932791
 21
1658.484164181648
 31
0.0
  0
LINE
  5
A35B
330
9F60
100
AcDbEntity
  8
寸法引出
370
    -2
100
AcDbLine
 10
953.3890619327907
 20
1653.484164181648
 30
0.0
 11
1090.889061932791
 21
1653.484164181648
 31
0.0
  0
SOLID
  5
A35C
330
9F60
100
AcDbEntity
  8
寸法引出
100
AcDbTrace
 10
953.3890619327907
 20
1655.984164181648
 30
0.0
 11
953.3890619327907
 21
1650.984164181648
 31
0.0
 12
938.3890619327907
 22
1653.484164181648
 32
0.0
 13
938.3890619327907
 23
1653.484164181648
 33
0.0
  0
SOLID
  5
A35D
330
9F60
100
AcDbEntity
  8
寸法引出
100
AcDbTrace
 10
1090.889061932791
 20
1655.984164181648
 30
0.0
 11
1090.889061932791
 21
1650.984164181648
 31
0.0
 12
1105.889061932791
 22
1653.484164181648
 32
0.0
 13
1105.889061932791
 23
1653.484164181648
 33
0.0
  0
MTEXT
  5
A35E
330
9F60
100
AcDbEntity
  8
寸法引出
100
AcDbMText
 10
1022.139061932791
 20
1673.484164181648
 30
0.0
 40
20.0
 41
0.0
 71
     5
 72
     1
  1
\A1;167.5
  7
SANWA
 73
     1
 44
1.0
1001
ACAD
1000
MTEXTBEGIN
1070
    73
1070
     1
1070
    44
1040
1.0
1070
    74
1070
     0
1000
MTEXTEND
  0
POINT
  5
A35F
330
9F60
100
AcDbEntity
  8
DEFPOINTS
 62
     0
100
AcDbPoint
 10
938.3890619327907
 20
1602.202330303902
 30
0.0
  0
POINT
  5
A360
330
9F60
100
AcDbEntity
  8
DEFPOINTS
 62
     0
100
AcDbPoint
 10
1105.889061932791
 20
1602.202330303902
 30
0.0
  0
POINT
  5
A361
330
9F60
100
AcDbEntity
  8
DEFPOINTS
 62
     0
100
AcDbPoint
 10
1105.889061932791
 20
1653.484164181648
 30
0.0
  0
ENDBLK
  5
9F6A
330
9F60
100
AcDbEntity
  8
0
100
AcDbBlockEnd
  0
BLOCK
  5
9F75
330
9F6B
100
AcDbEntity
  8
0
100
AcDbBlockBegin
  2
*D58
 70
     1
 10
0.0
 20
0.0
 30
0.0
  3
*D58
  1

  0
LINE
  5
A362
330
9F6B
100
AcDbEntity
  8
寸法引出
370
    -2
100
AcDbLine
 10
745.8890619327908
 20
1104.120336091007
 30
0.0
 11
590.9024147764068
 21
1104.120336091007
 31
0.0
  0
LINE
  5
A363
330
9F6B
100
AcDbEntity
  8
寸法引出
370
    -2
100
AcDbLine
 10
745.8890619327908
 20
344.120336091007
 30
0.0
 11
590.9024147764066
 21
344.120336091007
 31
0.0
  0
LINE
  5
A364
330
9F6B
100
AcDbEntity
  8
寸法引出
370
    -2
100
AcDbLine
 10
595.9024147764067
 20
1089.120336091007
 30
0.0
 11
595.9024147764067
 21
359.120336091007
 31
0.0
  0
SOLID
  5
A365
330
9F6B
100
AcDbEntity
  8
寸法引出
100
AcDbTrace
 10
593.4024147764067
 20
1089.120336091007
 30
0.0
 11
598.4024147764067
 21
1089.120336091007
 31
0.0
 12
595.9024147764067
 22
1104.120336091007
 32
0.0
 13
595.9024147764067
 23
1104.120336091007
 33
0.0
  0
SOLID
  5
A366
330
9F6B
100
AcDbEntity
  8
寸法引出
100
AcDbTrace
 10
593.4024147764066
 20
359.120336091007
 30
0.0
 11
598.4024147764066
 21
359.120336091007
 31
0.0
 12
595.9024147764067
 22
344.120336091007
 32
0.0
 13
595.9024147764067
 23
344.120336091007
 33
0.0
  0
MTEXT
  5
A367
330
9F6B
100
AcDbEntity
  8
寸法引出
100
AcDbMText
 10
575.9024147764065
 20
724.1203360910072
 30
0.0
 40
20.0
 41
0.0
 71
     5
 72
     1
  1
\A1;760
  7
SANWA
 11
0.0000000000000001
 21
1.0
 31
0.0
 73
     1
 44
1.0
1001
ACAD
1000
MTEXTBEGIN
1070
    73
1070
     1
1070
    44
1040
1.0
1070
    74
1070
     0
1000
MTEXTEND
  0
POINT
  5
A368
330
9F6B
100
AcDbEntity
  8
DEFPOINTS
 62
     0
100
AcDbPoint
 10
755.8890619327907
 20
1104.120336091007
 30
0.0
  0
POINT
  5
A369
330
9F6B
100
AcDbEntity
  8
DEFPOINTS
 62
     0
100
AcDbPoint
 10
755.8890619327907
 20
344.120336091007
 30
0.0
  0
POINT
  5
A36A
330
9F6B
100
AcDbEntity
  8
DEFPOINTS
 62
     0
100
AcDbPoint
 10
595.9024147764067
 20
344.120336091007
 30
0.0
  0
ENDBLK
  5
9F76
330
9F6B
100
AcDbEntity
  8
0
100
AcDbBlockEnd
  0
BLOCK
  5
9F81
330
9F77
100
AcDbEntity
  8
0
100
AcDbBlockBegin
  2
*D59
 70
     1
 10
0.0
 20
0.0
 30
0.0
  3
*D59
  1

  0
LINE
  5
A36B
330
9F77
100
AcDbEntity
  8
寸法引出
370
    -2
100
AcDbLine
 10
745.8890619327908
 20
344.120336091007
 30
0.0
 11
590.9024147764068
 21
344.120336091007
 31
0.0
  0
LINE
  5
A36C
330
9F77
100
AcDbEntity
  8
寸法引出
370
    -2
100
AcDbLine
 10
745.8890619327908
 20
224.1203360910069
 30
0.0
 11
590.9024147764066
 21
224.120336091007
 31
0.0
  0
LINE
  5
A36D
330
9F77
100
AcDbEntity
  8
寸法引出
370
    -2
100
AcDbLine
 10
595.9024147764067
 20
329.120336091007
 30
0.0
 11
595.9024147764067
 21
239.120336091007
 31
0.0
  0
SOLID
  5
A36E
330
9F77
100
AcDbEntity
  8
寸法引出
100
AcDbTrace
 10
593.4024147764067
 20
329.120336091007
 30
0.0
 11
598.4024147764067
 21
329.120336091007
 31
0.0
 12
595.9024147764067
 22
344.120336091007
 32
0.0
 13
595.9024147764067
 23
344.120336091007
 33
0.0
  0
SOLID
  5
A36F
330
9F77
100
AcDbEntity
  8
寸法引出
100
AcDbTrace
 10
593.4024147764066
 20
239.120336091007
 30
0.0
 11
598.4024147764066
 21
239.120336091007
 31
0.0
 12
595.9024147764067
 22
224.120336091007
 32
0.0
 13
595.9024147764067
 23
224.120336091007
 33
0.0
  0
MTEXT
  5
A370
330
9F77
100
AcDbEntity
  8
寸法引出
100
AcDbMText
 10
575.9024147764066
 20
284.1203360910071
 30
0.0
 40
20.0
 41
0.0
 71
     5
 72
     1
  1
\A1;120
  7
SANWA
 11
0.0000000000000001
 21
1.0
 31
0.0
 73
     1
 44
1.0
1001
ACAD
1000
MTEXTBEGIN
1070
    73
1070
     1
1070
    44
1040
1.0
1070
    74
1070
     0
1000
MTEXTEND
  0
POINT
  5
A371
330
9F77
100
AcDbEntity
  8
DEFPOINTS
 62
     0
100
AcDbPoint
 10
755.8890619327907
 20
344.120336091007
 30
0.0
  0
POINT
  5
A372
330
9F77
100
AcDbEntity
  8
DEFPOINTS
 62
     0
100
AcDbPoint
 10
755.8890619327907
 20
224.1203360910069
 30
0.0
  0
POINT
  5
A373
330
9F77
100
AcDbEntity
  8
DEFPOINTS
 62
     0
100
AcDbPoint
 10
595.9024147764067
 20
224.120336091007
 30
0.0
  0
ENDBLK
  5
9F82
330
9F77
100
AcDbEntity
  8
0
100
AcDbBlockEnd
  0
BLOCK
  5
9F8E
330
9F83
100
AcDbEntity
  8
0
100
AcDbBlockBegin
  2
*D60
 70
     1
 10
0.0
 20
0.0
 30
0.0
  3
*D60
  1

  0
LINE
  5
A374
330
9F83
100
AcDbEntity
  8
寸法引出
370
    -2
100
AcDbLine
 10
945.889061932791
 20
1492.202330303902
 30
0.0
 11
945.889061932791
 21
1406.760398626616
 31
0.0
  0
LINE
  5
A375
330
9F83
100
AcDbEntity
  8
寸法引出
370
    -2
100
AcDbLine
 10
900.8890619327907
 20
1411.760398626616
 30
0.0
 11
885.8890619327906
 21
1411.760398626616
 31
0.0
  0
LINE
  5
A376
330
9F83
100
AcDbEntity
  8
寸法引出
370
    -2
100
AcDbLine
 10
960.8890619327908
 20
1411.760398626616
 30
0.0
 11
975.8890619327909
 21
1411.760398626616
 31
0.0
  0
LINE
  5
A377
330
9F83
100
AcDbEntity
  8
寸法引出
370
    -2
100
AcDbLine
 10
915.8890619327907
 20
1411.760398626616
 30
0.0
 11
945.889061932791
 21
1411.760398626616
 31
0.0
  0
SOLID
  5
A378
330
9F83
100
AcDbEntity
  8
寸法引出
100
AcDbTrace
 10
900.8890619327907
 20
1414.260398626615
 30
0.0
 11
900.8890619327907
 21
1409.260398626616
 31
0.0
 12
915.8890619327907
 22
1411.760398626616
 32
0.0
 13
915.8890619327907
 23
1411.760398626616
 33
0.0
  0
SOLID
  5
A379
330
9F83
100
AcDbEntity
  8
寸法引出
100
AcDbTrace
 10
960.8890619327908
 20
1414.260398626615
 30
0.0
 11
960.8890619327908
 21
1409.260398626616
 31
0.0
 12
945.889061932791
 22
1411.760398626616
 32
0.0
 13
945.889061932791
 23
1411.760398626616
 33
0.0
  0
MTEXT
  5
A37A
330
9F83
100
AcDbEntity
  8
寸法引出
100
AcDbMText
 10
930.8890619327907
 20
1431.760398626616
 30
0.0
 40
20.0
 41
0.0
 71
     5
 72
     1
  1
\A1;30
  7
SANWA
 73
     1
 44
1.0
1001
ACAD
1000
MTEXTBEGIN
1070
    73
1070
     1
1070
    44
1040
1.0
1070
    74
1070
     0
1000
MTEXTEND
  0
POINT
  5
A37B
330
9F83
100
AcDbEntity
  8
DEFPOINTS
 62
     0
100
AcDbPoint
 10
915.8890619327907
 20
1502.202330303902
 30
0.0
  0
POINT
  5
A37C
330
9F83
100
AcDbEntity
  8
DEFPOINTS
 62
     0
100
AcDbPoint
 10
945.889061932791
 20
1502.202330303902
 30
0.0
  0
POINT
  5
A37D
330
9F83
100
AcDbEntity
  8
DEFPOINTS
 62
     0
100
AcDbPoint
 10
945.889061932791
 20
1411.760398626616
 30
0.0
  0
ENDBLK
  5
9F8F
330
9F83
100
AcDbEntity
  8
0
100
AcDbBlockEnd
  0
BLOCK
  5
9F9A
330
9F90
100
AcDbEntity
  8
0
100
AcDbBlockBegin
  2
*D61
 70
     1
 10
0.0
 20
0.0
 30
0.0
  3
*D61
  1

  0
LINE
  5
A37E
330
9F90
100
AcDbEntity
  8
寸法引出
370
    -2
100
AcDbLine
 10
755.8890619327907
 20
1492.202330303902
 30
0.0
 11
755.8890619327907
 21
1406.760398626616
 31
0.0
  0
LINE
  5
A37F
330
9F90
100
AcDbEntity
  8
寸法引出
370
    -2
100
AcDbLine
 10
915.8890619327907
 20
1492.202330303902
 30
0.0
 11
915.8890619327907
 21
1406.760398626616
 31
0.0
  0
LINE
  5
A380
330
9F90
100
AcDbEntity
  8
寸法引出
370
    -2
100
AcDbLine
 10
770.8890619327908
 20
1411.760398626616
 30
0.0
 11
900.8890619327907
 21
1411.760398626616
 31
0.0
  0
SOLID
  5
A381
330
9F90
100
AcDbEntity
  8
寸法引出
100
AcDbTrace
 10
770.8890619327908
 20
1414.260398626615
 30
0.0
 11
770.8890619327908
 21
1409.260398626616
 31
0.0
 12
755.8890619327907
 22
1411.760398626616
 32
0.0
 13
755.8890619327907
 23
1411.760398626616
 33
0.0
  0
SOLID
  5
A382
330
9F90
100
AcDbEntity
  8
寸法引出
100
AcDbTrace
 10
900.8890619327907
 20
1414.260398626615
 30
0.0
 11
900.8890619327907
 21
1409.260398626616
 31
0.0
 12
915.8890619327907
 22
1411.760398626616
 32
0.0
 13
915.8890619327907
 23
1411.760398626616
 33
0.0
  0
MTEXT
  5
A383
330
9F90
100
AcDbEntity
  8
寸法引出
100
AcDbMText
 10
835.8890619327908
 20
1431.760398626616
 30
0.0
 40
20.0
 41
0.0
 71
     5
 72
     1
  1
\A1;160
  7
SANWA
 73
     1
 44
1.0
1001
ACAD
1000
MTEXTBEGIN
1070
    73
1070
     1
1070
    44
1040
1.0
1070
    74
1070
     0
1000
MTEXTEND
  0
POINT
  5
A384
330
9F90
100
AcDbEntity
  8
DEFPOINTS
 62
     0
100
AcDbPoint
 10
755.8890619327907
 20
1502.202330303902
 30
0.0
  0
POINT
  5
A385
330
9F90
100
AcDbEntity
  8
DEFPOINTS
 62
     0
100
AcDbPoint
 10
915.8890619327907
 20
1502.202330303902
 30
0.0
  0
POINT
  5
A386
330
9F90
100
AcDbEntity
  8
DEFPOINTS
 62
     0
100
AcDbPoint
 10
915.8890619327907
 20
1411.760398626616
 30
0.0
  0
ENDBLK
  5
9F9B
330
9F90
100
AcDbEntity
  8
0
100
AcDbBlockEnd
  0
BLOCK
  5
9FA6
330
9F9C
100
AcDbEntity
  8
0
100
AcDbBlockBegin
  2
*D62
 70
     1
 10
0.0
 20
0.0
 30
0.0
  3
*D62
  1

  0
LINE
  5
A387
330
9F9C
100
AcDbEntity
  8
寸法引出
370
    -2
100
AcDbLine
 10
745.8890619327908
 20
1104.120336091007
 30
0.0
 11
590.9024147764066
 21
1104.120336091007
 31
0.0
  0
LINE
  5
A388
330
9F9C
100
AcDbEntity
  8
寸法引出
370
    -2
100
AcDbLine
 10
745.8890619327908
 20
1224.120336091007
 30
0.0
 11
590.9024147764066
 21
1224.120336091007
 31
0.0
  0
LINE
  5
A389
330
9F9C
100
AcDbEntity
  8
寸法引出
370
    -2
100
AcDbLine
 10
595.9024147764067
 20
1119.120336091007
 30
0.0
 11
595.9024147764067
 21
1209.120336091007
 31
0.0
  0
SOLID
  5
A38A
330
9F9C
100
AcDbEntity
  8
寸法引出
100
AcDbTrace
 10
593.4024147764066
 20
1119.120336091007
 30
0.0
 11
598.4024147764066
 21
1119.120336091007
 31
0.0
 12
595.9024147764067
 22
1104.120336091007
 32
0.0
 13
595.9024147764067
 23
1104.120336091007
 33
0.0
  0
SOLID
  5
A38B
330
9F9C
100
AcDbEntity
  8
寸法引出
100
AcDbTrace
 10
593.4024147764066
 20
1209.120336091007
 30
0.0
 11
598.4024147764066
 21
1209.120336091007
 31
0.0
 12
595.9024147764067
 22
1224.120336091007
 32
0.0
 13
595.9024147764067
 23
1224.120336091007
 33
0.0
  0
MTEXT
  5
A38C
330
9F9C
100
AcDbEntity
  8
寸法引出
100
AcDbMText
 10
575.9024147764065
 20
1164.120336091007
 30
0.0
 40
20.0
 41
0.0
 71
     5
 72
     1
  1
\A1;120
  7
SANWA
 11
0.0000000000000001
 21
1.0
 31
0.0
 73
     1
 44
1.0
1001
ACAD
1000
MTEXTBEGIN
1070
    73
1070
     1
1070
    44
1040
1.0
1070
    74
1070
     0
1000
MTEXTEND
  0
POINT
  5
A38D
330
9F9C
100
AcDbEntity
  8
DEFPOINTS
 62
     0
100
AcDbPoint
 10
755.8890619327907
 20
1104.120336091007
 30
0.0
  0
POINT
  5
A38E
330
9F9C
100
AcDbEntity
  8
DEFPOINTS
 62
     0
100
AcDbPoint
 10
755.8890619327907
 20
1224.120336091007
 30
0.0
  0
POINT
  5
A38F
330
9F9C
100
AcDbEntity
  8
DEFPOINTS
 62
     0
100
AcDbPoint
 10
595.9024147764067
 20
1224.120336091007
 30
0.0
  0
ENDBLK
  5
9FA7
330
9F9C
100
AcDbEntity
  8
0
100
AcDbBlockEnd
  0
BLOCK
  5
9FB2
330
9FA8
100
AcDbEntity
  8
0
100
AcDbBlockBegin
  2
*D63
 70
     1
 10
0.0
 20
0.0
 30
0.0
  3
*D63
  1

  0
LINE
  5
A390
330
9FA8
100
AcDbEntity
  8
寸法引出
370
    -2
100
AcDbLine
 10
755.8890619327907
 20
1234.120336091007
 30
0.0
 11
755.8890619327907
 21
1340.39929904212
 31
0.0
  0
LINE
  5
A391
330
9FA8
100
AcDbEntity
  8
寸法引出
370
    -2
100
AcDbLine
 10
923.3890619327908
 20
1234.120336091007
 30
0.0
 11
923.3890619327908
 21
1340.39929904212
 31
0.0
  0
LINE
  5
A392
330
9FA8
100
AcDbEntity
  8
寸法引出
370
    -2
100
AcDbLine
 10
770.8890619327908
 20
1335.39929904212
 30
0.0
 11
908.3890619327908
 21
1335.39929904212
 31
0.0
  0
SOLID
  5
A393
330
9FA8
100
AcDbEntity
  8
寸法引出
100
AcDbTrace
 10
770.8890619327908
 20
1337.89929904212
 30
0.0
 11
770.8890619327908
 21
1332.89929904212
 31
0.0
 12
755.8890619327907
 22
1335.39929904212
 32
0.0
 13
755.8890619327907
 23
1335.39929904212
 33
0.0
  0
SOLID
  5
A394
330
9FA8
100
AcDbEntity
  8
寸法引出
100
AcDbTrace
 10
908.3890619327908
 20
1337.89929904212
 30
0.0
 11
908.3890619327908
 21
1332.89929904212
 31
0.0
 12
923.3890619327908
 22
1335.39929904212
 32
0.0
 13
923.3890619327908
 23
1335.39929904212
 33
0.0
  0
MTEXT
  5
A395
330
9FA8
100
AcDbEntity
  8
寸法引出
100
AcDbMText
 10
839.6390619327908
 20
1355.39929904212
 30
0.0
 40
20.0
 41
0.0
 71
     5
 72
     1
  1
\A1;167.5
  7
SANWA
 73
     1
 44
1.0
1001
ACAD
1000
MTEXTBEGIN
1070
    73
1070
     1
1070
    44
1040
1.0
1070
    74
1070
     0
1000
MTEXTEND
  0
POINT
  5
A396
330
9FA8
100
AcDbEntity
  8
DEFPOINTS
 62
     0
100
AcDbPoint
 10
755.8890619327907
 20
1224.120336091007
 30
0.0
  0
POINT
  5
A397
330
9FA8
100
AcDbEntity
  8
DEFPOINTS
 62
     0
100
AcDbPoint
 10
923.3890619327908
 20
1224.120336091007
 30
0.0
  0
POINT
  5
A398
330
9FA8
100
AcDbEntity
  8
DEFPOINTS
 62
     0
100
AcDbPoint
 10
923.3890619327908
 20
1335.39929904212
 30
0.0
  0
ENDBLK
  5
9FB3
330
9FA8
100
AcDbEntity
  8
0
100
AcDbBlockEnd
  0
BLOCK
  5
9FBE
330
9FB4
100
AcDbEntity
  8
0
100
AcDbBlockBegin
  2
*D64
 70
     1
 10
0.0
 20
0.0
 30
0.0
  3
*D64
  1

  0
LINE
  5
A399
330
9FB4
100
AcDbEntity
  8
寸法引出
370
    -2
100
AcDbLine
 10
780.8890619327907
 20
1234.120336091007
 30
0.0
 11
780.8890619327907
 21
1302.123281704614
 31
0.0
  0
LINE
  5
A39A
330
9FB4
100
AcDbEntity
  8
寸法引出
370
    -2
100
AcDbLine
 10
930.8890619327907
 20
1284.120336091007
 30
0.0
 11
930.8890619327907
 21
1302.123281704614
 31
0.0
  0
LINE
  5
A39B
330
9FB4
100
AcDbEntity
  8
寸法引出
370
    -2
100
AcDbLine
 10
795.8890619327908
 20
1297.123281704614
 30
0.0
 11
915.8890619327907
 21
1297.123281704614
 31
0.0
  0
SOLID
  5
A39C
330
9FB4
100
AcDbEntity
  8
寸法引出
100
AcDbTrace
 10
795.8890619327908
 20
1299.623281704614
 30
0.0
 11
795.8890619327908
 21
1294.623281704614
 31
0.0
 12
780.8890619327907
 22
1297.123281704614
 32
0.0
 13
780.8890619327907
 23
1297.123281704614
 33
0.0
  0
SOLID
  5
A39D
330
9FB4
100
AcDbEntity
  8
寸法引出
100
AcDbTrace
 10
915.8890619327907
 20
1299.623281704614
 30
0.0
 11
915.8890619327907
 21
1294.623281704614
 31
0.0
 12
930.8890619327907
 22
1297.123281704614
 32
0.0
 13
930.8890619327907
 23
1297.123281704614
 33
0.0
  0
MTEXT
  5
A39E
330
9FB4
100
AcDbEntity
  8
寸法引出
100
AcDbMText
 10
855.8890619327907
 20
1317.123281704614
 30
0.0
 40
20.0
 41
0.0
 71
     5
 72
     1
  1
\A1;150
  7
SANWA
 73
     1
 44
1.0
1001
ACAD
1000
MTEXTBEGIN
1070
    73
1070
     1
1070
    44
1040
1.0
1070
    74
1070
     0
1000
MTEXTEND
  0
POINT
  5
A39F
330
9FB4
100
AcDbEntity
  8
DEFPOINTS
 62
     0
100
AcDbPoint
 10
780.8890619327907
 20
1224.120336091007
 30
0.0
  0
POINT
  5
A3A0
330
9FB4
100
AcDbEntity
  8
DEFPOINTS
 62
     0
100
AcDbPoint
 10
930.8890619327907
 20
1274.120336091007
 30
0.0
  0
POINT
  5
A3A1
330
9FB4
100
AcDbEntity
  8
DEFPOINTS
 62
     0
100
AcDbPoint
 10
930.8890619327907
 20
1297.123281704614
 30
0.0
  0
ENDBLK
  5
9FBF
330
9FB4
100
AcDbEntity
  8
0
100
AcDbBlockEnd
  0
ENDSEC
  0
SECTION
  2
ENTITIES
  0
DIMENSION
  5
9AD4
330
747D
100
AcDbEntity
  8
寸法引出
100
AcDbDimension
  2
*D52
 10
1105.889061932791
 20
1335.39929904212
 30
0.0
 11
1022.139061932791
 21
1355.39929904212
 31
0.0
 70
    32
 71
     5
 42
167.5
  3
SANWA
100
AcDbAlignedDimension
 13
938.3890619327909
 23
1224.120336091007
 33
0.0
 14
1105.889061932791
 24
1224.120336091007
 34
0.0
100
AcDbRotatedDimension
1001
ACAD
1000
DSTYLE
1002
{
1070
    40
1040
10.0
1070
    41
1040
1.5
1070
    43
1040
5.0
1070
    44
1040
0.5
1070
    75
1070
     1
1070
   140
1040
2.0
1070
   147
1040
1.0
1070
   176
1070
   256
1070
   177
1070
   256
1070
   178
1070
   256
1070
   279
1070
     1
1002
}
  0
DIMENSION
  5
9AD5
330
747D
100
AcDbEntity
  8
寸法引出
100
AcDbDimension
  2
*D53
 10
1080.889061932791
 20
1297.123281704614
 30
0.0
 11
1005.889061932791
 21
1317.123281704614
 31
0.0
 70
    32
 71
     5
 42
150.0
  3
SANWA
100
AcDbAlignedDimension
 13
930.8890619327907
 23
1274.120336091007
 33
0.0
 14
1080.889061932791
 24
1224.120336091007
 34
0.0
100
AcDbRotatedDimension
1001
ACAD
1000
DSTYLE
1002
{
1070
    40
1040
10.0
1070
    41
1040
1.5
1070
    43
1040
5.0
1070
    44
1040
0.5
1070
    75
1070
     1
1070
   140
1040
2.0
1070
   147
1040
1.0
1070
   176
1070
   256
1070
   177
1070
   256
1070
   178
1070
   256
1070
   279
1070
     1
1002
}
  0
DIMENSION
  5
9AD6
330
747D
100
AcDbEntity
  8
寸法引出
100
AcDbDimension
  2
*D54
 10
1105.889061932791
 20
130.2100191280542
 30
0.0
 11
930.8890619327907
 21
150.2100191280542
 31
0.0
 70
    32
 71
     5
 42
350.0
  3
SANWA
100
AcDbAlignedDimension
 13
755.8890619327907
 23
224.1203360910069
 33
0.0
 14
1105.889061932791
 24
224.1203360910069
 34
0.0
100
AcDbRotatedDimension
1001
ACAD
1000
DSTYLE
1002
{
1070
   140
1040
2.0
1070
    40
1040
10.0
1070
   147
1040
1.0
1070
    44
1040
0.5
1070
    43
1040
5.0
1070
   178
1070
   256
1070
   177
1070
   256
1070
   176
1070
   256
1070
    41
1040
1.5
1002
}
  0
DIMENSION
  5
9AD7
330
747D
100
AcDbEntity
  8
寸法引出
100
AcDbDimension
  2
*D55
 10
1105.889061932791
 20
1692.656786078242
 30
0.0
 11
930.8890619327907
 21
1712.656786078242
 31
0.0
 70
    32
 71
     5
 42
350.0
  3
SANWA
100
AcDbAlignedDimension
 13
755.8890619327907
 23
1602.202330303902
 33
0.0
 14
1105.889061932791
 24
1602.202330303902
 34
0.0
100
AcDbRotatedDimension
1001
ACAD
1000
DSTYLE
1002
{
1070
   140
1040
2.0
1070
    40
1040
10.0
1070
   147
1040
1.0
1070
    44
1040
0.5
1070
    43
1040
5.0
1070
   178
1070
   256
1070
   177
1070
   256
1070
   176
1070
   256
1070
    41
1040
1.5
1002
}
  0
DIMENSION
  5
9AD8
330
747D
100
AcDbEntity
  8
寸法引出
100
AcDbDimension
  2
*D56
 10
1105.889061932791
 20
1411.760398626616
 30
0.0
 11
1025.889061932791
 21
1431.760398626616
 31
0.0
 70
    32
 71
     5
 42
159.9999999999999
  3
SANWA
100
AcDbAlignedDimension
 13
945.889061932791
 23
1502.202330303902
 33
0.0
 14
1105.889061932791
 24
1502.202330303902
 34
0.0
100
AcDbRotatedDimension
1001
ACAD
1000
DSTYLE
1002
{
1070
    40
1040
10.0
1070
    41
1040
1.5
1070
    43
1040
5.0
1070
    44
1040
0.5
1070
    75
1070
     1
1070
   140
1040
2.0
1070
   147
1040
1.0
1070
   176
1070
   256
1070
   177
1070
   256
1070
   178
1070
   256
1070
   279
1070
     1
1002
}
  0
DIMENSION
  5
9AD9
330
747D
100
AcDbEntity
  8
寸法引出
100
AcDbDimension
  2
*D57
 10
1105.889061932791
 20
1653.484164181648
 30
0.0
 11
1022.139061932791
 21
1673.484164181648
 31
0.0
 70
    32
 71
     5
 42
167.5000000000001
  3
SANWA
100
AcDbAlignedDimension
 13
938.3890619327907
 23
1602.202330303902
 33
0.0
 14
1105.889061932791
 24
1602.202330303902
 34
0.0
100
AcDbRotatedDimension
1001
ACAD
1000
DSTYLE
1002
{
1070
    40
1040
10.0
1070
    41
1040
1.5
1070
    43
1040
5.0
1070
    44
1040
0.5
1070
    75
1070
     1
1070
   140
1040
2.0
1070
   147
1040
1.0
1070
   176
1070
   256
1070
   177
1070
   256
1070
   178
1070
   256
1070
   279
1070
     1
1002
}
  0
LINE
  5
9ADA
330
747D
100
AcDbEntity
  8
0
100
AcDbLine
 10
938.3890619327907
 20
1602.202330303902
 30
0.0
 11
1105.889061932791
 21
1602.202330303902
 31
0.0
  0
LINE
  5
9ADB
330
747D
100
AcDbEntity
  8
0
100
AcDbLine
 10
938.3890619327907
 20
1602.202330303902
 30
0.0
 11
1105.889061932791
 21
1602.202330303902
 31
0.0
  0
LINE
  5
9ADC
330
747D
100
AcDbEntity
  8
0
100
AcDbLine
 10
1105.889061932791
 20
1502.202330303902
 30
0.0
 11
945.889061932791
 21
1502.202330303902
 31
0.0
  0
LINE
  5
9ADD
330
747D
100
AcDbEntity
  8
0
100
AcDbLine
 10
938.3890619327909
 20
1224.120336091007
 30
0.0
 11
1105.889061932791
 21
1224.120336091007
 31
0.0
  0
LINE
  5
9ADE
330
747D
100
AcDbEntity
  8
0
100
AcDbLine
 10
1105.889061932791
 20
224.1203360910069
 30
0.0
 11
938.3890619327909
 21
224.1203360910068
 31
0.0
  0
LINE
  5
9ADF
330
747D
100
AcDbEntity
  8
枠
100
AcDbLine
 10
249.999999668431
 20
99.99999680199396
 30
0.0
 11
2869.999999668431
 21
99.99999680199417
 31
0.0
  0
LINE
  5
9AE0
330
747D
100
AcDbEntity
  8
枠
100
AcDbLine
 10
249.999999668431
 20
1999.999996801992
 30
0.0
 11
2869.999999668431
 21
1999.999996801992
 31
0.0
  0
DIMENSION
  5
9AE1
330
747D
100
AcDbEntity
  8
寸法引出
100
AcDbDimension
  2
*D58
 10
595.9024147764067
 20
344.120336091007
 30
0.0
 11
575.9024147764065
 21
724.1203360910072
 31
0.0
 70
    32
 71
     5
 42
760.0
  3
SANWA
100
AcDbAlignedDimension
 13
755.8890619327907
 23
1104.120336091007
 33
0.0
 14
755.8890619327907
 24
344.120336091007
 34
0.0
 50
90.0
100
AcDbRotatedDimension
1001
ACAD
1000
DSTYLE
1002
{
1070
   140
1040
2.0
1070
    40
1040
10.0
1070
   147
1040
1.0
1070
    44
1040
0.5
1070
    43
1040
5.0
1070
   178
1070
   256
1070
   177
1070
   256
1070
   176
1070
   256
1070
    41
1040
1.5
1002
}
  0
LINE
  5
9AE2
330
747D
100
AcDbEntity
  8
0
  6
CENTER2
 48
10.0
100
AcDbLine
 10
930.8890619327907
 20
1274.120336091007
 30
0.0
 11
930.8890619327907
 21
198.149017683266
 31
0.0
  0
LINE
  5
9AE3
330
747D
100
AcDbEntity
  8
0
100
AcDbLine
 10
938.3890619327909
 20
1224.120336091007
 30
0.0
 11
938.3890619327909
 21
224.1203360910069
 31
0.0
  0
LINE
  5
9AE4
330
747D
100
AcDbEntity
  8
0
100
AcDbLine
 10
923.3890619327908
 20
224.1203360910069
 30
0.0
 11
923.3890619327908
 21
1224.120336091007
 31
0.0
  0
LINE
  5
9AE5
330
747D
100
AcDbEntity
  8
0
100
AcDbLine
 10
755.8890619327907
 20
224.1203360910069
 30
0.0
 11
755.8890619327907
 21
1224.120336091007
 31
0.0
  0
LINE
  5
9AE6
330
747D
100
AcDbEntity
  8
枠
100
AcDbLine
 10
249.999999668431
 20
99.99999680199289
 30
0.0
 11
249.999999668431
 21
1999.999996801992
 31
0.0
  0
LINE
  5
9AE7
330
747D
100
AcDbEntity
  8
0
100
AcDbLine
 10
249.999999668431
 20
-0.0000031980071071
 30
0.0
 11
-0.0000003315690265
 21
-0.0000031980071071
 31
0.0
  0
LINE
  5
9AE8
330
747D
100
AcDbEntity
  8
0
100
AcDbLine
 10
-0.0000003315690265
 20
-0.0000031980071071
 30
0.0
 11
-0.0000003315690265
 21
99.99999680199289
 31
0.0
  0
DIMENSION
  5
9AE9
330
747D
100
AcDbEntity
  8
寸法引出
100
AcDbDimension
  2
*D59
 10
595.9024147764067
 20
224.120336091007
 30
0.0
 11
575.9024147764066
 21
284.1203360910071
 31
0.0
 70
    32
 71
     5
 42
120.0
  3
SANWA
100
AcDbAlignedDimension
 13
755.8890619327907
 23
344.120336091007
 33
0.0
 14
755.8890619327907
 24
224.1203360910069
 34
0.0
 50
90.0
100
AcDbRotatedDimension
1001
ACAD
1000
DSTYLE
1002
{
1070
   140
1040
2.0
1070
    40
1040
10.0
1070
   147
1040
1.0
1070
    44
1040
0.5
1070
    43
1040
5.0
1070
   178
1070
   256
1070
   177
1070
   256
1070
   176
1070
   256
1070
    41
1040
1.5
1002
}
  0
LINE
  5
9AEA
330
747D
100
AcDbEntity
  8
0
100
AcDbLine
 10
923.3890619327908
 20
224.1203360910068
 30
0.0
 11
755.8890619327907
 21
224.1203360910069
 31
0.0
  0
LINE
  5
9AEB
330
747D
100
AcDbEntity
  8
0
100
AcDbLine
 10
780.8890619327907
 20
362.1203360910069
 30
0.0
 11
780.8890619327907
 21
326.1203360910069
 31
0.0
  0
CIRCLE
  5
9AEC
330
747D
100
AcDbEntity
  8
0
100
AcDbCircle
 10
780.8890619327907
 20
344.120336091007
 30
0.0
 40
8.0
  0
LINE
  5
9AED
330
747D
100
AcDbEntity
  8
0
100
AcDbLine
 10
762.8890619327908
 20
344.120336091007
 30
0.0
 11
798.8890619327908
 21
344.120336091007
 31
0.0
  0
LINE
  5
9AEE
330
747D
100
AcDbEntity
  8
0
100
AcDbLine
 10
-0.0000003315690265
 20
2099.999996801993
 30
0.0
 11
249.999999668431
 21
2099.999996801993
 31
0.0
  0
LINE
  5
9AEF
330
747D
100
AcDbEntity
  8
0
100
AcDbLine
 10
-0.0000003315690265
 20
1999.999996801992
 30
0.0
 11
-0.0000003315690265
 21
2099.999996801993
 31
0.0
  0
DIMENSION
  5
9AF0
330
747D
100
AcDbEntity
  8
寸法引出
100
AcDbDimension
  2
*D60
 10
945.889061932791
 20
1411.760398626616
 30
0.0
 11
930.8890619327907
 21
1431.760398626616
 31
0.0
 70
    32
 71
     5
 42
30.00000000000023
  3
SANWA
100
AcDbAlignedDimension
 13
915.8890619327907
 23
1502.202330303902
 33
0.0
 14
945.889061932791
 24
1502.202330303902
 34
0.0
100
AcDbRotatedDimension
1001
ACAD
1000
DSTYLE
1002
{
1070
    40
1040
10.0
1070
    41
1040
1.5
1070
    43
1040
5.0
1070
    44
1040
0.5
1070
    75
1070
     1
1070
   140
1040
2.0
1070
   147
1040
1.0
1070
   176
1070
   256
1070
   177
1070
   256
1070
   178
1070
   256
1070
   279
1070
     1
1002
}
  0
DIMENSION
  5
9AF1
330
747D
100
AcDbEntity
  8
寸法引出
100
AcDbDimension
  2
*D61
 10
915.8890619327907
 20
1411.760398626616
 30
0.0
 11
835.8890619327908
 21
1431.760398626616
 31
0.0
 70
    32
 71
     5
 42
159.9999999999999
  3
SANWA
100
AcDbAlignedDimension
 13
755.8890619327907
 23
1502.202330303902
 33
0.0
 14
915.8890619327907
 24
1502.202330303902
 34
0.0
100
AcDbRotatedDimension
1001
ACAD
1000
DSTYLE
1002
{
1070
   140
1040
2.0
1070
    40
1040
10.0
1070
   147
1040
1.0
1070
    44
1040
0.5
1070
    43
1040
5.0
1070
   178
1070
   256
1070
   177
1070
   256
1070
   176
1070
   256
1070
    41
1040
1.5
1002
}
  0
TEXT
  5
9AF2
330
747D
100
AcDbEntity
  8
寸法引出
100
AcDbText
 10
580.7188088048547
 20
1277.704315281757
 30
0.0
 40
15.0
  1
インサート
  7
SANWA
100
AcDbText
  0
LWPOLYLINE
  5
9AF3
330
747D
100
AcDbEntity
  8
寸法引出
100
AcDbPolyline
 90
        3
 70
     0
 43
0.0
 10
767.7751190234978
 20
1122.056636085053
 10
687.5942261301352
 20
1270.951314297251
 10
582.7299819892121
 20
1270.951314297251
1001
ACAD
1000
DSTYLE
1002
{
1070
   140
1040
2.0
1070
    40
1040
10.0
1070
   147
1040
1.0
1070
    44
1040
0.5
1070
    43
1040
5.0
1070
   178
1070
   256
1070
   177
1070
   256
1070
   176
1070
   256
1070
    41
1040
1.5
1002
}
  0
TEXT
  5
9AF4
330
747D
100
AcDbEntity
  8
寸法引出
100
AcDbText
 10
580.7188088048547
 20
1301.636078019728
 30
0.0
 40
15.0
  1
ロックピン用
  7
SANWA
100
AcDbText
  0
DIMENSION
  5
9AF5
330
747D
100
AcDbEntity
  8
寸法引出
100
AcDbDimension
  2
*D62
 10
595.9024147764067
 20
1224.120336091007
 30
0.0
 11
575.9024147764065
 21
1164.120336091007
 31
0.0
 70
    32
 71
     5
 42
120.0
  3
SANWA
100
AcDbAlignedDimension
 13
755.8890619327907
 23
1104.120336091007
 33
0.0
 14
755.8890619327907
 24
1224.120336091007
 34
0.0
 50
90.0
100
AcDbRotatedDimension
1001
ACAD
1000
DSTYLE
1002
{
1070
   140
1040
2.0
1070
    40
1040
10.0
1070
   147
1040
1.0
1070
    44
1040
0.5
1070
    43
1040
5.0
1070
   178
1070
   256
1070
   177
1070
   256
1070
   176
1070
   256
1070
    41
1040
1.5
1002
}
  0
DIMENSION
  5
9AF6
330
747D
100
AcDbEntity
  8
寸法引出
100
AcDbDimension
  2
*D63
 10
923.3890619327908
 20
1335.39929904212
 30
0.0
 11
839.6390619327908
 21
1355.39929904212
 31
0.0
 70
    32
 71
     5
 42
167.5
  3
SANWA
100
AcDbAlignedDimension
 13
755.8890619327907
 23
1224.120336091007
 33
0.0
 14
923.3890619327908
 24
1224.120336091007
 34
0.0
100
AcDbRotatedDimension
1001
ACAD
1000
DSTYLE
1002
{
1070
   140
1040
2.0
1070
    40
1040
10.0
1070
   147
1040
1.0
1070
    44
1040
0.5
1070
    43
1040
5.0
1070
   178
1070
   256
1070
   177
1070
   256
1070
   176
1070
   256
1070
    41
1040
1.5
1002
}
  0
DIMENSION
  5
9AF7
330
747D
100
AcDbEntity
  8
寸法引出
100
AcDbDimension
  2
*D64
 10
930.8890619327907
 20
1297.123281704614
 30
0.0
 11
855.8890619327907
 21
1317.123281704614
 31
0.0
 70
    32
 71
     5
 42
150.0
  3
SANWA
100
AcDbAlignedDimension
 13
780.8890619327907
 23
1224.120336091007
 33
0.0
 14
930.8890619327907
 24
1274.120336091007
 34
0.0
100
AcDbRotatedDimension
1001
ACAD
1000
DSTYLE
1002
{
1070
   140
1040
2.0
1070
    40
1040
10.0
1070
   147
1040
1.0
1070
    44
1040
0.5
1070
    43
1040
5.0
1070
   178
1070
   256
1070
   177
1070
   256
1070
   176
1070
   256
1070
    41
1040
1.5
1002
}
  0
LINE
  5
9AF8
330
747D
100
AcDbEntity
  8
0
100
AcDbLine
 10
755.8890619327907
 20
1224.120336091007
 30
0.0
 11
923.3890619327908
 21
1224.120336091007
 31
0.0
  0
DIMENSION
  5
9AF9
330
747D
100
AcDbEntity
  8
寸法引出
100
AcDbDimension
  2
*D1
 10
780.8890619327907
 20
1297.123281704614
 30
0.0
 11
768.3890619327907
 21
1317.123281704614
 31
0.0
 70
    32
 71
     5
 42
25.0
  3
SANWA
100
AcDbAlignedDimension
 13
755.8890619327907
 23
1224.120336091007
 33
0.0
 14
780.8890619327907
 24
1224.120336091007
 34
0.0
100
AcDbRotatedDimension
1001
ACAD
1000
DSTYLE
1002
{
1070
   140
1040
2.0
1070
    40
1040
10.0
1070
   147
1040
1.0
1070
    44
1040
0.5
1070
    43
1040
5.0
1070
   178
1070
   256
1070
   177
1070
   256
1070
   176
1070
   256
1070
    41
1040
1.5
1002
}
  0
SOLID
  5
9AFA
330
747D
100
AcDbEntity
  8
寸法引出
100
AcDbTrace
 10
770.0346518175138
 20
1123.126454552255
 30
0.0
 11
774.1940298267113
 21
1108.499439320958
 31
0.0
 12
765.5155862294821
 22
1120.986817617851
 32
0.0
 13
765.5155862294821
 23
1120.986817617851
 33
0.0
1001
ACAD
1000
DSTYLE
1002
{
1070
   140
1040
2.0
1070
    40
1040
10.0
1070
   147
1040
1.0
1070
    44
1040
0.5
1070
    43
1040
5.0
1070
   178
1070
   256
1070
   177
1070
   256
1070
   176
1070
   256
1070
    41
1040
1.5
1002
}
  0
CIRCLE
  5
9AFB
330
747D
100
AcDbEntity
  8
0
100
AcDbCircle
 10
780.8890619327907
 20
1104.120336091007
 30
0.0
 40
8.0
  0
LINE
  5
9AFC
330
747D
100
AcDbEntity
  8
0
100
AcDbLine
 10
762.8890619327908
 20
1104.120336091007
 30
0.0
 11
798.8890619327908
 21
1104.120336091007
 31
0.0
  0
LINE
  5
9AFD
330
747D
100
AcDbEntity
  8
0
100
AcDbLine
 10
780.8890619327907
 20
1086.120336091007
 30
0.0
 11
780.8890619327907
 21
1122.120336091007
 31
0.0
  0
DIMENSION
  5
9AFE
330
747D
100
AcDbEntity
  8
寸法引出
100
AcDbDimension
  2
*D2
 10
938.3890619327909
 20
1335.39929904212
 30
0.0
 11
930.8890619327907
 21
1355.39929904212
 31
0.0
 70
    32
 71
     5
 42
15.0
  3
SANWA
100
AcDbAlignedDimension
 13
923.3890619327908
 23
1224.120336091007
 33
0.0
 14
938.3890619327909
 24
1224.120336091007
 34
0.0
100
AcDbRotatedDimension
1001
ACAD
1000
DSTYLE
1002
{
1070
    40
1040
10.0
1070
    41
1040
1.5
1070
    43
1040
5.0
1070
    44
1040
0.5
1070
    75
1070
     1
1070
   140
1040
2.0
1070
   147
1040
1.0
1070
   176
1070
   256
1070
   177
1070
   256
1070
   178
1070
   256
1070
   279
1070
     1
1002
}
  0
DIMENSION
  5
9AFF
330
747D
100
AcDbEntity
  8
寸法引出
100
AcDbDimension
  2
*D3
 10
923.3890619327908
 20
1653.484164181648
 30
0.0
 11
839.6390619327908
 21
1673.484164181648
 31
0.0
 70
    32
 71
     5
 42
167.5
  3
SANWA
100
AcDbAlignedDimension
 13
755.8890619327907
 23
1602.202330303902
 33
0.0
 14
923.3890619327908
 24
1602.202330303902
 34
0.0
100
AcDbRotatedDimension
1001
ACAD
1000
DSTYLE
1002
{
1070
   140
1040
2.0
1070
    40
1040
10.0
1070
   147
1040
1.0
1070
    44
1040
0.5
1070
    43
1040
5.0
1070
   178
1070
   256
1070
   177
1070
   256
1070
   176
1070
   256
1070
    41
1040
1.5
1002
}
  0
LINE
  5
9B00
330
747D
100
AcDbEntity
  8
0
100
AcDbLine
 10
755.8890619327907
 20
1602.202330303902
 30
0.0
 11
923.3890619327908
 21
1602.202330303902
 31
0.0
  0
LINE
  5
9B01
330
747D
100
AcDbEntity
  8
0
100
AcDbLine
 10
915.8890619327907
 20
1502.202330303902
 30
0.0
 11
755.8890619327907
 21
1502.202330303902
 31
0.0
  0
LINE
  5
9B02
330
747D
100
AcDbEntity
  8
0
100
AcDbLine
 10
755.8890619327907
 20
1602.202330303902
 30
0.0
 11
923.3890619327908
 21
1602.202330303902
 31
0.0
  0
LINE
  5
9B03
330
747D
100
AcDbEntity
  8
0
100
AcDbLine
 10
755.8890619327907
 20
1502.202330303902
 30
0.0
 11
755.8890619327907
 21
1602.202330303902
 31
0.0
  0
DIMENSION
  5
9B04
330
747D
100
AcDbEntity
  8
寸法引出
100
AcDbDimension
  2
*D4
 10
780.8890619327907
 20
1452.843884267756
 30
0.0
 11
768.3890619327907
 21
1472.843884267756
 31
0.0
 70
    32
 71
     5
 42
24.99999999999989
  3
SANWA
100
AcDbAlignedDimension
 13
755.8890619327907
 23
1502.202330303902
 33
0.0
 14
780.8890619327907
 24
1502.202330303902
 34
0.0
100
AcDbRotatedDimension
1001
ACAD
1000
DSTYLE
1002
{
1070
   140
1040
2.0
1070
    40
1040
10.0
1070
   147
1040
1.0
1070
    44
1040
0.5
1070
    43
1040
5.0
1070
   178
1070
   256
1070
   177
1070
   256
1070
   176
1070
   256
1070
    41
1040
1.5
1002
}
  0
LINE
  5
9B05
330
747D
100
AcDbEntity
  8
0
  6
HIDDEN2
 48
5.0
100
AcDbLine
 10
785.8890619327906
 20
1529.202330303902
 30
0.0
 11
775.8890619327908
 21
1529.202330303902
 31
0.0
  0
LINE
  5
9B06
330
747D
100
AcDbEntity
  8
0
  6
HIDDEN2
 48
5.0
100
AcDbLine
 10
775.8890619327908
 20
1502.202330303902
 30
0.0
 11
775.8890619327908
 21
1529.202330303902
 31
0.0
  0
LINE
  5
9B07
330
747D
100
AcDbEntity
  8
0
  6
HIDDEN2
 48
5.0
100
AcDbLine
 10
785.8890619327909
 20
1502.202330303902
 30
0.0
 11
785.8890619327906
 21
1529.202330303902
 31
0.0
  0
LINE
  5
9B08
330
747D
100
AcDbEntity
  8
0
100
AcDbLine
 10
797.7802351297466
 20
1502.202330303902
 30
0.0
 11
773.997888735835
 21
1502.202330303902
 31
0.0
  0
DIMENSION
  5
9B09
330
747D
100
AcDbEntity
  8
寸法引出
100
AcDbDimension
  2
*D5
 10
893.7188079269985
 20
1577.202330303902
 30
0.0
 11
873.7188079269984
 21
1589.702330303902
 31
0.0
 70
    32
 71
     5
 42
25.00000000000023
  3
SANWA
100
AcDbAlignedDimension
 13
923.3890619327908
 23
1602.202330303902
 33
0.0
 14
917.8890619327908
 24
1577.202330303902
 34
0.0
 50
90.0
100
AcDbRotatedDimension
1001
ACAD
1000
DSTYLE
1002
{
1070
   140
1040
2.0
1070
    40
1040
10.0
1070
   147
1040
1.0
1070
    44
1040
0.5
1070
    43
1040
5.0
1070
   178
1070
   256
1070
   177
1070
   256
1070
   176
1070
   256
1070
    41
1040
1.5
1002
}
  0
LINE
  5
9B0A
330
747D
100
AcDbEntity
  8
0
100
AcDbLine
 10
923.3890619327908
 20
1602.202330303902
 30
0.0
 11
923.3890619327908
 21
1577.202330303902
 31
0.0
  0
LINE
  5
9B0B
330
747D
100
AcDbEntity
  8
0
100
AcDbLine
 10
938.3890619327909
 20
1602.202330303902
 30
0.0
 11
938.3890619327907
 21
1577.202330303902
 31
0.0
  0
LINE
  5
9B0C
330
747D
100
AcDbEntity
  8
0
100
AcDbLine
 10
915.8890619327907
 20
1511.202330303902
 30
0.0
 11
945.889061932791
 21
1511.202330303902
 31
0.0
  0
LINE
  5
9B0D
330
747D
100
AcDbEntity
  8
0
100
AcDbLine
 10
943.8890619327908
 20
1577.202330303902
 30
0.0
 11
945.8890619327908
 21
1511.202330303902
 31
0.0
  0
DIMENSION
  5
9B0E
330
747D
100
AcDbEntity
  8
寸法引出
100
AcDbDimension
  2
*D6
 10
893.7188079269985
 20
1502.202330303902
 30
0.0
 11
873.7188079269984
 21
1506.702330303903
 31
0.0
 70
    32
 71
     5
 42
9.000000000001136
  3
SANWA
100
AcDbAlignedDimension
 13
915.8890619327907
 23
1511.202330303903
 33
0.0
 14
915.8890619327907
 24
1502.202330303902
 34
0.0
 50
90.0
100
AcDbRotatedDimension
1001
ACAD
1000
DSTYLE
1002
{
1070
   140
1040
2.0
1070
    40
1040
10.0
1070
   147
1040
1.0
1070
    44
1040
0.5
1070
    43
1040
5.0
1070
   178
1070
   256
1070
   177
1070
   256
1070
   176
1070
   256
1070
    41
1040
1.5
1002
}
  0
LINE
  5
9B0F
330
747D
100
AcDbEntity
  8
0
100
AcDbLine
 10
915.8890619327907
 20
1511.202330303903
 30
0.0
 11
915.8890619327905
 21
1502.202330303902
 31
0.0
  0
LINE
  5
9B10
330
747D
100
AcDbEntity
  8
0
100
AcDbLine
 10
917.8890619327908
 20
1577.202330303902
 30
0.0
 11
915.8890619327907
 21
1511.202330303902
 31
0.0
  0
LINE
  5
9B11
330
747D
100
AcDbEntity
  8
0
100
AcDbLine
 10
917.8890619327908
 20
1577.202330303902
 30
0.0
 11
943.8890619327906
 21
1577.202330303903
 31
0.0
  0
LINE
  5
9B12
330
747D
100
AcDbEntity
  8
0
100
AcDbLine
 10
945.889061932791
 20
1511.202330303903
 30
0.0
 11
945.889061932791
 21
1502.202330303902
 31
0.0
  0
DIMENSION
  5
9B13
330
747D
100
AcDbEntity
  8
寸法引出
100
AcDbDimension
  2
*D7
 10
938.3890619327907
 20
1653.484164181648
 30
0.0
 11
930.8890619327907
 21
1673.484164181648
 31
0.0
 70
    32
 71
     5
 42
14.99999999999977
  3
SANWA
100
AcDbAlignedDimension
 13
923.3890619327908
 23
1602.202330303902
 33
0.0
 14
938.3890619327907
 24
1602.202330303902
 34
0.0
100
AcDbRotatedDimension
1001
ACAD
1000
DSTYLE
1002
{
1070
   140
1040
2.0
1070
    40
1040
10.0
1070
   147
1040
1.0
1070
    44
1040
0.5
1070
    43
1040
5.0
1070
   178
1070
   256
1070
   177
1070
   256
1070
   176
1070
   256
1070
    41
1040
1.5
1002
}
  0
DIMENSION
  5
9B14
330
747D
100
AcDbEntity
  8
寸法引出
100
AcDbDimension
  2
*D8
 10
1217.84908633855
 20
224.1203360910069
 30
0.0
 11
1197.84908633855
 21
724.120336091007
 31
0.0
 70
    32
 71
     5
 42
1000.0
  3
SANWA
100
AcDbAlignedDimension
 13
1105.889061932791
 23
1224.120336091007
 33
0.0
 14
1105.889061932791
 24
224.1203360910069
 34
0.0
 50
90.0
100
AcDbRotatedDimension
1001
ACAD
1000
DSTYLE
1002
{
1070
   140
1040
2.0
1070
    40
1040
10.0
1070
   147
1040
1.0
1070
    44
1040
0.5
1070
    43
1040
5.0
1070
   178
1070
   256
1070
   177
1070
   256
1070
   176
1070
   256
1070
    41
1040
1.5
1002
}
  0
LINE
  5
9B15
330
747D
100
AcDbEntity
  8
0
100
AcDbLine
 10
1105.889061932791
 20
1224.120336091007
 30
0.0
 11
1105.889061932791
 21
224.1203360910069
 31
0.0
  0
LINE
  5
9B16
330
747D
100
AcDbEntity
  8
枠
100
AcDbLine
 10
2869.999999668431
 20
99.99999680199289
 30
0.0
 11
2869.999999668431
 21
1999.999996801992
 31
0.0
  0
LINE
  5
9B17
330
747D
100
AcDbEntity
  8
0
100
AcDbLine
 10
1080.889061932791
 20
362.1203360910069
 30
0.0
 11
1080.889061932791
 21
326.1203360910069
 31
0.0
  0
LINE
  5
9B18
330
747D
100
AcDbEntity
  8
0
100
AcDbLine
 10
1098.889061932791
 20
344.120336091007
 30
0.0
 11
1062.889061932791
 21
344.120336091007
 31
0.0
  0
CIRCLE
  5
9B19
330
747D
100
AcDbEntity
  8
0
100
AcDbCircle
 10
1080.889061932791
 20
344.120336091007
 30
0.0
 40
8.0
  0
LINE
  5
9B1A
330
747D
100
AcDbEntity
  8
0
100
AcDbLine
 10
2969.999999668431
 20
99.99999680199289
 30
0.0
 11
2969.999999668431
 21
-0.0000031980071071
 31
0.0
  0
LINE
  5
9B1B
330
747D
100
AcDbEntity
  8
0
100
AcDbLine
 10
2969.999999668431
 20
-0.0000031980071071
 30
0.0
 11
2869.999999668431
 21
-0.0000031980071071
 31
0.0
  0
TEXT
  5
9B1C
330
747D
100
AcDbEntity
  8
0
100
AcDbText
 10
2533.482066537729
 20
331.9999968019951
 30
0.0
 40
16.0
  1
マルチスリット側溝蓋
  7
SANWA
 72
     4
 11
2650.510637966301
 21
339.9999968019951
 31
0.0
100
AcDbText
  0
LINE
  5
9B1D
330
747D
100
AcDbEntity
  8
0
 62
     0
100
AcDbLine
 10
2399.02127626417
 20
243.9999968019951
 30
0.0
 11
2869.999999668431
 21
243.9999968019951
 31
0.0
  0
LINE
  5
9B1E
330
747D
100
AcDbEntity
  8
0
 62
     0
100
AcDbLine
 10
2399.02127626417
 20
307.9999968019951
 30
0.0
 11
2869.999999668431
 21
307.9999968019951
 31
0.0
  0
TEXT
  5
9B1F
330
747D
100
AcDbEntity
  8
0
100
AcDbText
 10
2510.938875276736
 20
129.2823558865699
 30
0.0
 40
16.0
  1
三和コンクリート工業株式会社
  7
SANWA
100
AcDbText
  0
LINE
  5
9B20
330
747D
100
AcDbEntity
  8
0
100
AcDbLine
 10
2135.02127626417
 20
179.9999968019941
 30
0.0
 11
2869.999999668431
 21
179.9999968019942
 31
0.0
  0
LINE
  5
9B21
330
747D
100
AcDbEntity
  8
0
 62
     0
100
AcDbLine
 10
2135.02127626417
 20
371.999996801995
 30
0.0
 11
2869.999999668431
 21
371.999996801995
 31
0.0
  0
TEXT
  5
9B22
330
747D
100
AcDbEntity
  8
0
 48
2.0
100
AcDbText
 10
2261.559522942736
 20
348.4274578970566
 30
0.0
 40
16.0
  1
番号
  7
SANWA
100
AcDbText
  0
TEXT
  5
9B23
330
747D
100
AcDbEntity
  8
0
 48
2.0
100
AcDbText
 10
2216.938241558601
 20
347.518187578544
 30
0.0
 40
16.0
  1
図面
  7
SANWA
100
AcDbText
  0
LINE
  5
9B24
330
747D
100
AcDbEntity
  8
0
100
AcDbLine
 10
2431.021276264169
 20
179.9999968019941
 30
0.0
 11
2431.02127626417
 21
371.999996801995
 31
0.0
  0
LINE
  5
9B25
330
747D
100
AcDbEntity
  8
0
100
AcDbLine
 10
2399.021276264169
 20
99.99999680199415
 30
0.0
 11
2399.02127626417
 21
371.999996801995
 31
0.0
  0
LINE
  5
9B26
330
747D
100
AcDbEntity
  8
0
100
AcDbLine
 10
2135.02127626417
 20
371.999996801995
 30
0.0
 11
2135.02127626417
 21
323.999996801995
 31
0.0
  0
CIRCLE
  5
9B27
102
{ACAD_REACTORS
330
9B29
102
}
330
747D
100
AcDbEntity
  8
0
100
AcDbCircle
 10
2293.872032981288
 20
48.61119433399426
 30
0.0
 40
30.39008422903171
  0
CIRCLE
  5
9B28
102
{ACAD_REACTORS
330
9B29
102
}
330
747D
100
AcDbEntity
  8
0
100
AcDbCircle
 10
2293.872032981288
 20
48.61119433399426
 30
0.0
 40
31.99008422903171
  0
HATCH
  5
9B29
330
747D
100
AcDbEntity
  8
0
100
AcDbHatch
 10
0.0
 20
0.0
 30
0.0
210
0.0
220
0.0
230
1.0
  2
SOLID
 70
     1
 71
     1
 91
        4
 92
        7
 72
     1
 73
     1
 93
        2
 10
2325.862117210319
 20
48.61119433399426
 42
1.0
 10
2261.881948752256
 20
48.61119433399426
 42
1.0
 97
        1
330
9B28
 92
       22
 72
     1
 73
     1
 93
        2
 10
2324.26211721032
 20
48.61119433399426
 42
1.0
 10
2263.481948752256
 20
48.61119433399426
 42
1.0
 97
        1
330
9B27
 92
      136
 93
        4
 72
     1
 10
2277.758884485145
 20
47.40864983076753
 11
2311.31317019943
 21
47.40864983076753
 72
     1
 10
2311.31317019943
 20
47.40864983076753
 11
2311.31317019943
 21
77.85436411648183
 72
     1
 10
2311.31317019943
 20
77.85436411648183
 11
2277.758884485145
 21
77.85436411648183
 72
     1
 10
2277.758884485145
 20
77.85436411648183
 11
2277.758884485145
 21
47.40864983076753
 97
        1
330
9B3E
 92
      136
 93
        4
 72
     1
 10
2277.131208871864
 20
23.59572815423249
 11
2311.188351729007
 21
23.59572815423249
 72
     1
 10
2311.188351729007
 20
23.59572815423249
 11
2311.188351729007
 21
55.5500138685182
 72
     1
 10
2311.188351729007
 20
55.5500138685182
 11
2277.131208871864
 21
55.5500138685182
 72
     1
 10
2277.131208871864
 20
55.5500138685182
 11
2277.131208871864
 21
23.59572815423249
 97
        1
330
9B3F
 75
     0
 76
     1
 47
0.0602706122334892
 98
        2
 10
2309.198890225493
 20
76.11069506784634
 10
2309.198890225493
 20
76.11069506784634
  0
LINE
  5
9B2A
330
747D
100
AcDbEntity
  8
0
 62
     0
100
AcDbLine
 10
2135.02127626417
 20
259.9999968019951
 30
0.0
 11
2399.02127626417
 21
259.9999968019951
 31
0.0
  0
LINE
  5
9B2B
330
747D
100
AcDbEntity
  8
0
 62
     0
100
AcDbLine
 10
2135.02127626417
 20
291.9999968019951
 30
0.0
 11
2399.02127626417
 21
291.9999968019951
 31
0.0
  0
LINE
  5
9B2C
330
747D
100
AcDbEntity
  8
0
 62
     0
100
AcDbLine
 10
2135.02127626417
 20
339.9999968019951
 30
0.0
 11
2399.02127626417
 21
339.9999968019951
 31
0.0
  0
LINE
  5
9B2D
330
747D
100
AcDbEntity
  8
0
 62
     0
100
AcDbLine
 10
2135.02127626417
 20
339.9999968019951
 30
0.0
 11
2399.02127626417
 21
339.9999968019951
 31
0.0
  0
LINE
  5
9B2E
330
747D
100
AcDbEntity
  8
0
 62
     0
100
AcDbLine
 10
2135.02127626417
 20
203.9999968019941
 30
0.0
 11
2399.02127626417
 21
203.9999968019941
 31
0.0
  0
TEXT
  5
9B2F
330
747D
100
AcDbEntity
  8
0
 48
2.0
100
AcDbText
 10
2246.050656885487
 20
184.7571419695235
 30
0.0
 40
16.0
  1
設計
  7
SANWA
100
AcDbText
  0
LINE
  5
9B30
330
747D
100
AcDbEntity
  8
0
100
AcDbLine
 10
2311.021276264169
 20
99.99999680199415
 30
0.0
 11
2311.021276264169
 21
203.9999968019941
 31
0.0
  0
LINE
  5
9B31
330
747D
100
AcDbEntity
  8
0
100
AcDbLine
 10
2223.021276264169
 20
99.99999680199415
 30
0.0
 11
2223.021276264169
 21
203.9999968019941
 31
0.0
  0
TEXT
  5
9B32
330
747D
100
AcDbEntity
  8
0
 48
2.0
100
AcDbText
 10
2154.144119623852
 20
183.8478602124235
 30
0.0
 40
16.0
  1
検図
  7
SANWA
100
AcDbText
  0
LINE
  5
9B33
330
747D
100
AcDbEntity
  8
0
100
AcDbLine
 10
2135.02127626417
 20
203.9999968019941
 30
0.0
 11
2135.02127626417
 21
179.9999968019941
 31
0.0
  0
LINE
  5
9B34
330
747D
100
AcDbEntity
  8
0
100
AcDbLine
 10
2135.02127626417
 20
227.9999968019942
 30
0.0
 11
2135.02127626417
 21
175.9567632751707
 31
0.0
  0
LINE
  5
9B35
330
747D
100
AcDbEntity
  8
0
 62
     0
100
AcDbLine
 10
2135.02127626417
 20
227.9999968019942
 30
0.0
 11
2135.02127626417
 21
99.99999680199415
 31
0.0
  0
TEXT
  5
9B36
330
747D
100
AcDbEntity
  8
0
 48
2.0
100
AcDbText
 10
2167.178694738322
 20
120.101922086932
 30
0.0
 40
16.0
  1
口
  7
SANWA
100
AcDbText
  0
TEXT
  5
9B37
330
747D
100
AcDbEntity
  8
0
 48
2.0
100
AcDbText
 10
2167.554941780173
 20
142.7491294777528
 30
0.0
 40
16.0
  1
河
  7
SANWA
100
AcDbText
  0
CIRCLE
  5
9B38
102
{ACAD_REACTORS
330
9B3A
102
}
330
747D
100
AcDbEntity
  8
0
100
AcDbCircle
 10
2178.59380456203
 20
140.635101304751
 30
0.0
 40
31.99008422903171
  0
CIRCLE
  5
9B39
102
{ACAD_REACTORS
330
9B3A
102
}
330
747D
100
AcDbEntity
  8
0
100
AcDbCircle
 10
2178.59380456203
 20
140.635101304751
 30
0.0
 40
30.39008422903171
  0
HATCH
  5
9B3A
330
747D
100
AcDbEntity
  8
0
100
AcDbHatch
 10
0.0
 20
0.0
 30
0.0
210
0.0
220
0.0
230
1.0
  2
SOLID
 70
     1
 71
     1
 91
        2
 92
        7
 72
     1
 73
     1
 93
        2
 10
2210.583888791062
 20
140.635101304751
 42
1.0
 10
2146.603720332999
 20
140.635101304751
 42
1.0
 97
        1
330
9B38
 92
       22
 72
     1
 73
     1
 93
        2
 10
2208.983888791062
 20
140.635101304751
 42
1.0
 10
2148.203720332999
 20
140.635101304751
 42
1.0
 97
        1
330
9B39
 75
     0
 76
     1
 47
0.0602706122334892
 98
        2
 10
2193.920661806235
 20
168.1346020386031
 10
2193.920661806235
 20
168.1346020386031
  0
CIRCLE
  5
9B3B
102
{ACAD_REACTORS
330
9B3D
102
}
330
747D
100
AcDbEntity
  8
0
100
AcDbCircle
 10
2216.439389156735
 20
52.43179015799751
 30
0.0
 40
31.99008422903171
  0
CIRCLE
  5
9B3C
102
{ACAD_REACTORS
330
9B3D
102
}
330
747D
100
AcDbEntity
  8
0
100
AcDbCircle
 10
2216.439389156735
 20
52.43179015799751
 30
0.0
 40
30.39008422903171
  0
HATCH
  5
9B3D
330
747D
100
AcDbEntity
  8
0
100
AcDbHatch
 10
0.0
 20
0.0
 30
0.0
210
0.0
220
0.0
230
1.0
  2
SOLID
 70
     1
 71
     1
 91
        4
 92
        7
 72
     1
 73
     1
 93
        2
 10
2248.429473385766
 20
52.43179015799751
 42
1.0
 10
2184.449304927703
 20
52.43179015799751
 42
1.0
 97
        1
330
9B3B
 92
       22
 72
     1
 73
     1
 93
        2
 10
2246.829473385766
 20
52.43179015799751
 42
1.0
 10
2186.049304927703
 20
52.43179015799751
 42
1.0
 97
        1
330
9B3C
 92
      136
 93
        4
 72
     1
 10
2200.120526374877
 20
49.34143387213875
 11
2234.086240660591
 21
49.34143387213875
 72
     1
 10
2234.086240660591
 20
49.34143387213875
 11
2234.086240660591
 21
81.02143387213876
 72
     1
 10
2234.086240660591
 20
81.02143387213876
 11
2200.120526374877
 21
81.02143387213876
 72
     1
 10
2200.120526374877
 20
81.02143387213876
 11
2200.120526374877
 21
49.34143387213875
 97
        1
330
9B41
 92
       24
 93
        4
 72
     1
 10
2200.247136475883
 20
25.57002741760649
 11
2233.207136475883
 21
25.57002741760649
 72
     1
 10
2233.207136475883
 20
25.57002741760649
 11
2233.207136475883
 21
54.23288456046362
 72
     1
 10
2233.207136475883
 20
54.23288456046362
 11
2200.247136475883
 21
54.23288456046362
 72
     1
 10
2200.247136475883
 20
54.23288456046362
 11
2200.247136475883
 21
25.57002741760649
 97
        1
330
9B40
 75
     0
 76
     1
 47
0.0602706122334892
 98
        2
 10
2231.76624640094
 20
79.93129089184958
 10
2231.76624640094
 20
79.93129089184958
  0
TEXT
  5
9B3E
102
{ACAD_REACTORS
330
9B29
102
}
330
747D
100
AcDbEntity
  8
0
 48
2.0
100
AcDbText
 10
2282.83317019943
 20
53.9457926879104
 30
0.0
 40
16.0
  1
大
  7
SANWA
100
AcDbText
  0
TEXT
  5
9B3F
102
{ACAD_REACTORS
330
9B29
102
}
330
747D
100
AcDbEntity
  8
0
 48
2.0
100
AcDbText
 10
2282.456923157579
 20
31.29858529708963
 30
0.0
 40
16.0
  1
嶋
  7
SANWA
100
AcDbText
  0
TEXT
  5
9B40
102
{ACAD_REACTORS
330
9B3D
102
}
330
747D
100
AcDbEntity
  8
0
 48
2.0
100
AcDbText
 10
2205.024279333026
 20
32.54145598903506
 30
0.0
 40
16.0
  1
田
  7
SANWA
100
AcDbText
  0
TEXT
  5
9B41
102
{ACAD_REACTORS
330
9B3D
102
}
330
747D
100
AcDbEntity
  8
0
 48
2.0
100
AcDbText
 10
2205.400526374877
 20
56.90714815785304
 30
0.0
 40
16.0
  1
蒔
  7
SANWA
100
AcDbText
  0
LINE
  5
9B42
330
747D
100
AcDbEntity
  8
0
100
AcDbLine
 10
2135.02127626417
 20
266.7043751939257
 30
0.0
 11
2135.02127626417
 21
328.8467614300528
 31
0.0
  0
LINE
  5
9B43
330
747D
100
AcDbEntity
  8
0
100
AcDbLine
 10
2135.02127626417
 20
243.9999968019951
 30
0.0
 11
2135.02127626417
 21
266.7043751939257
 31
0.0
  0
LINE
  5
9B44
330
747D
100
AcDbEntity
  8
0
100
AcDbLine
 10
2135.02127626417
 20
203.9999968019941
 30
0.0
 11
2135.02127626417
 21
227.9999968019942
 31
0.0
  0
LINE
  5
9B45
330
747D
100
AcDbEntity
  8
0
 62
     0
100
AcDbLine
 10
2135.02127626417
 20
323.999996801995
 30
0.0
 11
2135.02127626417
 21
227.9999968019942
 31
0.0
  0
TEXT
  5
9B46
330
747D
100
AcDbEntity
  8
0
 48
2.0
100
AcDbText
 10
2207.541708630849
 20
228.3901976668933
 30
0.0
 40
16.0
  1
１：１０
  7
SANWA
100
AcDbText
  0
TEXT
  5
9B48
330
747D
100
AcDbEntity
  8
0
 48
2.0
100
AcDbText
 10
2217.639248441376
 20
265.5892732488031
 30
0.0
 40
16.0
  1
縮    尺
  7
SANWA
100
AcDbText
  0
TEXT
  5
9B49
330
747D
100
AcDbEntity
  8
0
 48
2.0
100
AcDbText
 10
2406.192044954654
 20
192.6273912959524
 30
0.0
 40
11.2
  1
格
  7
SANWA
100
AcDbText
  0
TEXT
  5
9B4A
330
747D
100
AcDbEntity
  8
0
 48
2.0
100
AcDbText
 10
2332.49959703134
 20
184.8342494743149
 30
0.0
 40
16.0
  1
製図
  7
SANWA
100
AcDbText
  0
HATCH
  5
9B4B
330
747D
100
AcDbEntity
  8
0
100
AcDbHatch
 10
0.0
 20
0.0
 30
0.0
210
0.0
220
0.0
230
1.0
  2
SOLID
 70
     1
 71
     1
 91
        3
 92
        7
 72
     1
 73
     1
 93
        4
 10
2433.908899588792
 20
162.0536361526208
 42
0.0
 10
2439.010209444986
 20
156.9523262964269
 42
-0.3722683533228781
 10
2467.838075667613
 20
156.952326296427
 42
0.0
 10
2472.939385523806
 20
162.0536361526222
 42
0.3824979940290051
 97
        4
330
9B4D
330
9B6A
330
9B67
330
9B4E
 92
        7
 72
     1
 73
     1
 93
        4
 10
2475.202127223604
 20
159.7908944528245
 42
0.0
 10
2470.10081736741
 20
154.6895845966302
 42
-0.616858326909898
 10
2455.024142556302
 20
118.2912717921584
 42
0.0
 10
2455.024142556299
 20
111.076930207661
 42
0.6292889159379706
 97
        4
330
9B68
330
9B64
330
9B65
330
9B62
 92
        7
 72
     1
 73
     1
 93
        4
 10
2431.646157888995
 20
159.7908944528243
 42
0.6292889159379636
 10
2451.824142556299
 20
111.076930207661
 42
0.0
 10
2451.824142556301
 20
118.2912717921581
 42
-0.6168583269099645
 10
2436.747467745189
 20
154.6895845966304
 42
0.0
 97
        4
330
9B52
330
9B66
330
9B50
330
9B5A
 75
     0
 76
     1
 47
0.0143554168026844
 98
        4
 10
2466.232330857751
 20
165.3933247931248
 10
2472.209304566343
 20
156.0910152481586
 10
2472.209304566343
 20
156.0910152481586
 10
2435.312968572458
 20
155.7464850531853
  0
LINE
  5
9B4C
102
{ACAD_REACTORS
330
9B4B
102
}
330
747D
100
AcDbEntity
  8
0
100
AcDbLine
 10
2439.122931926563
 20
159.1023455146471
 30
0.0
 11
2436.272080095443
 21
161.9531973457667
 31
0.0
  0
LINE
  5
9B4D
102
{ACAD_REACTORS
330
9B4B
102
}
330
747D
100
AcDbEntity
  8
0
100
AcDbLine
 10
2439.010209444986
 20
156.9523262964269
 30
0.0
 11
2433.877925004135
 21
162.0846107372776
 31
0.0
  0
ARC
  5
9B4E
102
{ACAD_REACTORS
330
9B4B
102
}
330
747D
100
AcDbEntity
  8
0
100
AcDbCircle
 10
2453.4241425563
 20
140.2756514853165
 30
0.0
 40
29.24252595536528
100
AcDbArc
 50
48.13649544708374
 51
131.8635045529165
  0
ARC
  5
9B4F
102
{ACAD_REACTORS
330
9B4B
102
}
330
747D
100
AcDbEntity
  8
0
100
AcDbCircle
 10
2453.4241425563
 20
140.2756514853165
 30
0.0
 40
27.64252595536528
100
AcDbArc
 50
51.64767378620499
 51
128.3523262137973
  0
ARC
  5
9B50
102
{ACAD_REACTORS
330
9B4B
102
}
330
747D
100
AcDbEntity
  8
0
100
AcDbCircle
 10
2453.4241425563
 20
140.2756514853165
 30
0.0
 40
22.04252595536527
100
AcDbArc
 50
139.1625874111273
 51
265.8374125888725
  0
ARC
  5
9B51
102
{ACAD_REACTORS
330
9B4B
102
}
330
747D
100
AcDbEntity
  8
0
100
AcDbCircle
 10
2453.4241425563
 20
140.2756514853165
 30
0.0
 40
23.64252595536527
100
AcDbArc
 50
142.7788203119012
 51
262.2211796880999
  0
ARC
  5
9B52
102
{ACAD_REACTORS
330
9B4B
102
}
330
747D
100
AcDbEntity
  8
0
100
AcDbCircle
 10
2453.4241425563
 20
140.2756514853165
 30
0.0
 40
29.24252595536528
100
AcDbArc
 50
138.1364954470837
 51
266.8635045529165
  0
ARC
  5
9B53
102
{ACAD_REACTORS
330
9B4B
102
}
330
747D
100
AcDbEntity
  8
0
100
AcDbCircle
 10
2453.4241425563
 20
140.2756514853165
 30
0.0
 40
27.64252595536528
100
AcDbArc
 50
141.6476737862016
 51
263.3523262137983
  0
TEXT
  5
9B54
102
{ACAD_REACTORS
330
9B58
102
}
330
747D
100
AcDbEntity
  8
0
 48
2.0
100
AcDbText
 10
2344.749687766212
 20
123.3704629164131
 30
0.0
 40
16.0
  1
川
  7
SANWA
100
AcDbText
  0
CIRCLE
  5
9B55
102
{ACAD_REACTORS
330
9B58
102
}
330
747D
100
AcDbEntity
  8
0
100
AcDbCircle
 10
2356.164797589921
 20
140.6830719533177
 30
0.0
 40
31.99008422903171
  0
CIRCLE
  5
9B56
102
{ACAD_REACTORS
330
9B58
102
}
330
747D
100
AcDbEntity
  8
0
100
AcDbCircle
 10
2356.164797589921
 20
140.6830719533177
 30
0.0
 40
30.39008422903171
  0
TEXT
  5
9B57
102
{ACAD_REACTORS
330
9B58
102
}
330
747D
100
AcDbEntity
  8
0
 48
2.0
100
AcDbText
 10
2345.125934808064
 20
146.0176703072338
 30
0.0
 40
16.0
  1
中
  7
SANWA
100
AcDbText
  0
HATCH
  5
9B58
330
747D
100
AcDbEntity
  8
0
100
AcDbHatch
 10
0.0
 20
0.0
 30
0.0
210
0.0
220
0.0
230
1.0
  2
SOLID
 70
     1
 71
     1
 91
        4
 92
        7
 72
     1
 73
     1
 93
        2
 10
2388.154881818953
 20
140.6830719533177
 42
1.0
 10
2324.174713360889
 20
140.6830719533177
 42
1.0
 97
        1
330
9B55
 92
       22
 72
     1
 73
     1
 93
        2
 10
2386.554881818953
 20
140.6830719533177
 42
1.0
 10
2325.774713360889
 20
140.6830719533177
 42
1.0
 97
        1
330
9B56
 92
      136
 93
        4
 72
     1
 10
2339.800220522349
 20
138.040527450091
 11
2373.857363379492
 21
138.040527450091
 72
     1
 10
2373.857363379492
 20
138.040527450091
 11
2373.857363379492
 21
169.9948131643767
 72
     1
 10
2373.857363379492
 20
169.9948131643767
 11
2339.800220522349
 21
169.9948131643767
 72
     1
 10
2339.800220522349
 20
169.9948131643767
 11
2339.800220522349
 21
138.040527450091
 97
        1
330
9B57
 92
      136
 93
        4
 72
     1
 10
2339.743973480498
 20
116.4447486306988
 11
2373.161116337641
 21
116.4447486306988
 72
     1
 10
2373.161116337641
 20
116.4447486306988
 11
2373.161116337641
 21
146.4790343449845
 72
     1
 10
2373.161116337641
 20
146.4790343449845
 11
2339.743973480498
 21
146.4790343449845
 72
     1
 10
2339.743973480498
 20
146.4790343449845
 11
2339.743973480498
 21
116.4447486306988
 97
        1
330
9B54
 75
     0
 76
     1
 47
0.0602706122334892
 98
        2
 10
2371.491654834126
 20
168.1825726871698
 10
2371.491654834126
 20
168.1825726871698
  0
LINE
  5
9B59
102
{ACAD_REACTORS
330
9B4B
102
}
330
747D
100
AcDbEntity
  8
0
100
AcDbLine
 10
2434.597448526969
 20
154.5768621150537
 30
0.0
 11
2431.74659669585
 21
157.4277139461734
 31
0.0
  0
LINE
  5
9B5A
102
{ACAD_REACTORS
330
9B4B
102
}
330
747D
100
AcDbEntity
  8
0
100
AcDbLine
 10
2436.747467745189
 20
154.6895845966304
 30
0.0
 11
2431.615183304339
 21
159.8218690374807
 31
0.0
  0
TEXT
  5
9B5B
330
747D
100
AcDbEntity
  8
0
100
AcDbText
 10
2444.472668225053
 20
129.2823558865699
 30
0.0
 40
12.0
  1
和
  7
SANWA
100
AcDbText
  0
TEXT
  5
9B5C
330
747D
100
AcDbEntity
  8
0
100
AcDbText
 10
2444.472668225053
 20
145.2245020145431
 30
0.0
 40
12.0
  1
三
  7
SANWA
100
AcDbText
  0
LINE
  5
9B5D
102
{ACAD_REACTORS
330
9B4B
102
}
330
747D
100
AcDbEntity
  8
0
100
AcDbLine
 10
2450.2241425563
 20
112.818972130503
 30
0.0
 11
2450.2241425563
 21
116.8506854543887
 31
0.0
  0
LINE
  5
9B5E
102
{ACAD_REACTORS
330
9B4B
102
}
330
747D
100
AcDbEntity
  8
0
100
AcDbLine
 10
2456.624142556299
 20
112.818972130503
 30
0.0
 11
2456.624142556299
 21
116.8506854543887
 31
0.0
  0
LINE
  5
9B5F
102
{ACAD_REACTORS
330
9B4B
102
}
330
747D
100
AcDbEntity
  8
0
100
AcDbLine
 10
2472.25083658563
 20
154.5768621150534
 30
0.0
 11
2475.10168841675
 21
157.4277139461735
 31
0.0
  0
LINE
  5
9B60
102
{ACAD_REACTORS
330
9B4B
102
}
330
747D
100
AcDbEntity
  8
0
100
AcDbLine
 10
2467.725353186037
 20
159.102345514647
 30
0.0
 11
2470.576205017155
 21
161.9531973457677
 31
0.0
  0
ARC
  5
9B61
102
{ACAD_REACTORS
330
9B4B
102
}
330
747D
100
AcDbEntity
  8
0
100
AcDbCircle
 10
2453.4241425563
 20
140.2756514853165
 30
0.0
 40
27.64252595536528
100
AcDbArc
 50
276.6476737862027
 51
38.35232621379853
  0
ARC
  5
9B62
102
{ACAD_REACTORS
330
9B4B
102
}
330
747D
100
AcDbEntity
  8
0
100
AcDbCircle
 10
2453.4241425563
 20
140.2756514853165
 30
0.0
 40
29.24252595536528
100
AcDbArc
 50
273.1364954470844
 51
41.86350455291712
  0
ARC
  5
9B63
102
{ACAD_REACTORS
330
9B4B
102
}
330
747D
100
AcDbEntity
  8
0
100
AcDbCircle
 10
2453.4241425563
 20
140.2756514853165
 30
0.0
 40
23.64252595536527
100
AcDbArc
 50
277.7788203119023
 51
37.22117968809818
  0
ARC
  5
9B64
102
{ACAD_REACTORS
330
9B4B
102
}
330
747D
100
AcDbEntity
  8
0
100
AcDbCircle
 10
2453.4241425563
 20
140.2756514853165
 30
0.0
 40
22.04252595536527
100
AcDbArc
 50
274.1625874111288
 51
40.83741258887306
  0
LINE
  5
9B65
102
{ACAD_REACTORS
330
9B4B
102
}
330
747D
100
AcDbEntity
  8
0
100
AcDbLine
 10
2455.024142556299
 20
111.076930207661
 30
0.0
 11
2455.024142556302
 21
118.2912717921584
 31
0.0
  0
LINE
  5
9B66
102
{ACAD_REACTORS
330
9B4B
102
}
330
747D
100
AcDbEntity
  8
0
100
AcDbLine
 10
2451.824142556299
 20
111.076930207661
 30
0.0
 11
2451.824142556301
 21
118.2912717921581
 31
0.0
  0
LINE
  5
9B67
102
{ACAD_REACTORS
330
9B4B
102
}
330
747D
100
AcDbEntity
  8
0
100
AcDbLine
 10
2467.838075667613
 20
156.952326296427
 30
0.0
 11
2472.939385523806
 21
162.0536361526222
 31
0.0
  0
LINE
  5
9B68
102
{ACAD_REACTORS
330
9B4B
102
}
330
747D
100
AcDbEntity
  8
0
100
AcDbLine
 10
2470.10081736741
 20
154.6895845966302
 30
0.0
 11
2475.202127223604
 21
159.7908944528245
 31
0.0
  0
ARC
  5
9B69
102
{ACAD_REACTORS
330
9B4B
102
}
330
747D
100
AcDbEntity
  8
0
100
AcDbCircle
 10
2453.4241425563
 20
140.2756514853165
 30
0.0
 40
23.64252595536527
100
AcDbArc
 50
52.77882031190202
 51
127.2211796880981
  0
ARC
  5
9B6A
102
{ACAD_REACTORS
330
9B4B
102
}
330
747D
100
AcDbEntity
  8
0
100
AcDbCircle
 10
2453.4241425563
 20
140.2756514853165
 30
0.0
 40
22.04252595536527
100
AcDbArc
 50
49.16258741112848
 51
130.8374125888727
  0
TEXT
  5
9B6B
330
747D
100
AcDbEntity
  8
0
 48
2.0
100
AcDbText
 10
2406.192044954654
 20
216.4564070105764
 30
0.0
 40
11.2
  1
規
  7
SANWA
100
AcDbText
  0
TEXT
  5
9B6C
330
747D
100
AcDbEntity
  8
0
 48
2.0
100
AcDbText
 10
2405.910243578379
 20
255.9508958384799
 30
0.0
 40
11.2
  1
名
  7
SANWA
100
AcDbText
  0
TEXT
  5
9B6D
330
747D
100
AcDbEntity
  8
0
 48
2.0
100
AcDbText
 10
2405.683422926331
 20
271.6217408025299
 30
0.0
 40
11.2
  1
び
  7
SANWA
100
AcDbText
  0
TEXT
  5
9B6E
330
747D
100
AcDbEntity
  8
0
 48
2.0
100
AcDbText
 10
2405.84228320737
 20
286.9565430020379
 30
0.0
 40
11.2
  1
呼
  7
SANWA
100
AcDbText
  0
TEXT
  5
9B6F
330
747D
100
AcDbEntity
  8
0
 48
2.0
100
AcDbText
 10
2405.888692066899
 20
323.3308389650547
 30
0.0
 40
11.2
  1
名
  7
SANWA
100
AcDbText
  0
TEXT
  5
9B70
330
747D
100
AcDbEntity
  8
0
 48
2.0
100
AcDbText
 10
2406.495397842411
 20
349.5845945933598
 30
0.0
 40
11.2
  1
品
  7
SANWA
100
AcDbText
  0
LINE
  5
9B71
330
747D
100
AcDbEntity
  8
0
100
AcDbLine
 10
2399.02127626417
 20
371.999996801995
 30
0.0
 11
2414.184847872061
 21
371.999996801995
 31
0.0
  0
TEXT
  5
9B72
330
747D
100
AcDbEntity
  8
0
100
AcDbText
 10
2603.699209394872
 20
203.7257110877093
 30
0.0
 40
16.0
  1
２５０用
  7
SANWA
 72
     4
 11
2650.510637966301
 21
211.999996801995
 31
0.0
100
AcDbText
  0
TEXT
  5
9B73
330
747D
100
AcDbEntity
  8
0
100
AcDbText
 10
2627.104923680586
 20
267.1314253734236
 30
0.0
 40
16.0
  1
Ｎ型
  7
SANWA
 72
     4
 11
2650.510637966301
 21
275.999996801995
 31
0.0
100
AcDbText
  0
DIMENSION
  5
9B74
330
747D
100
AcDbEntity
  8
寸法引出
100
AcDbDimension
  2
*D9
 10
2495.197511727471
 20
1666.051028121152
 30
0.0
 11
1995.19751172747
 21
1686.051028121152
 31
0.0
 70
    32
 71
     5
 42
1000.0
  3
SANWA
100
AcDbAlignedDimension
 13
1495.19751172747
 23
1602.202330303902
 33
0.0
 14
2495.197511727471
 24
1602.202330303902
 34
0.0
100
AcDbRotatedDimension
1001
ACAD
1000
DSTYLE
1002
{
1070
   140
1040
2.0
1070
    40
1040
10.0
1070
   147
1040
1.0
1070
    44
1040
0.5
1070
    43
1040
5.0
1070
   178
1070
   256
1070
   177
1070
   256
1070
   176
1070
   256
1070
    41
1040
1.5
1002
}
  0
DIMENSION
  5
9B75
330
747D
100
AcDbEntity
  8
寸法引出
100
AcDbDimension
  2
*D10
 10
2375.197511727471
 20
1445.021979291171
 30
0.0
 11
1995.19751172747
 21
1465.021979291171
 31
0.0
 70
    32
 71
     5
 42
760.0
  3
SANWA
100
AcDbAlignedDimension
 13
1615.19751172747
 23
1502.202330303902
 33
0.0
 14
2375.197511727471
 24
1502.202330303902
 34
0.0
100
AcDbRotatedDimension
1001
ACAD
1000
DSTYLE
1002
{
1070
    40
1040
10.0
1070
    41
1040
1.5
1070
    43
1040
5.0
1070
    44
1040
0.5
1070
    75
1070
     1
1070
   140
1040
2.0
1070
   147
1040
1.0
1070
   176
1070
   256
1070
   177
1070
   256
1070
   178
1070
   256
1070
   279
1070
     1
1002
}
  0
LINE
  5
9B76
330
747D
100
AcDbEntity
  8
0
  6
HIDDEN2
 48
10.0
100
AcDbLine
 10
1495.19751172747
 20
1577.202330303902
 30
0.0
 11
2495.197511727471
 21
1577.202330303902
 31
0.0
  0
LINE
  5
9B77
330
747D
100
AcDbEntity
  8
0
100
AcDbLine
 10
2495.197511727471
 20
1502.202330303902
 30
0.0
 11
1495.19751172747
 21
1502.202330303902
 31
0.0
  0
LINE
  5
9B78
330
747D
100
AcDbEntity
  8
0
100
AcDbLine
 10
1495.19751172747
 20
1602.202330303902
 30
0.0
 11
2495.197511727471
 21
1602.202330303902
 31
0.0
  0
DIMENSION
  5
9B79
330
747D
100
AcDbEntity
  8
寸法引出
100
AcDbDimension
  2
*D11
 10
1105.889061932791
 20
1297.123281704614
 30
0.0
 11
1093.389061932791
 21
1317.123281704614
 31
0.0
 70
    32
 71
     5
 42
25.0
  3
SANWA
100
AcDbAlignedDimension
 13
1080.889061932791
 23
1224.120336091007
 33
0.0
 14
1105.889061932791
 24
1224.120336091007
 34
0.0
100
AcDbRotatedDimension
1001
ACAD
1000
DSTYLE
1002
{
1070
    40
1040
10.0
1070
    41
1040
1.5
1070
    43
1040
5.0
1070
    44
1040
0.5
1070
    75
1070
     1
1070
   140
1040
2.0
1070
   147
1040
1.0
1070
   176
1070
   256
1070
   177
1070
   256
1070
   178
1070
   256
1070
   279
1070
     1
1002
}
  0
LINE
  5
9B7A
330
747D
100
AcDbEntity
  8
0
100
AcDbLine
 10
1080.889061932791
 20
1086.120336091007
 30
0.0
 11
1080.889061932791
 21
1122.120336091007
 31
0.0
  0
CIRCLE
  5
9B7B
330
747D
100
AcDbEntity
  8
0
100
AcDbCircle
 10
1080.889061932791
 20
1104.120336091007
 30
0.0
 40
8.0
  0
LINE
  5
9B7C
330
747D
100
AcDbEntity
  8
0
100
AcDbLine
 10
1098.889061932791
 20
1104.120336091007
 30
0.0
 11
1062.889061932791
 21
1104.120336091007
 31
0.0
  0
LINE
  5
9B7D
330
747D
100
AcDbEntity
  8
0
  6
HIDDEN2
 48
10.0
100
AcDbLine
 10
1572.185318418651
 20
1516.202330303902
 30
0.0
 11
1538.20970503629
 21
1516.202330303902
 31
0.0
  0
DIMENSION
  5
9B7E
330
747D
100
AcDbEntity
  8
寸法引出
100
AcDbDimension
  2
*D12
 10
1615.19751172747
 20
1445.021979291171
 30
0.0
 11
1555.19751172747
 21
1465.021979291171
 31
0.0
 70
    32
 71
     5
 42
120.0
  3
SANWA
100
AcDbAlignedDimension
 13
1495.19751172747
 23
1502.202330303902
 33
0.0
 14
1615.19751172747
 24
1502.202330303902
 34
0.0
100
AcDbRotatedDimension
1001
ACAD
1000
DSTYLE
1002
{
1070
   140
1040
2.0
1070
    40
1040
10.0
1070
   147
1040
1.0
1070
    44
1040
0.5
1070
    43
1040
5.0
1070
   178
1070
   256
1070
   177
1070
   256
1070
   176
1070
   256
1070
    41
1040
1.5
1002
}
  0
TEXT
  5
9B7F
330
747D
100
AcDbEntity
  8
0
100
AcDbText
 10
1098.744455141809
 20
1858.463297012574
 30
0.0
 40
28.0
  1
マルチスリット側溝蓋 Ｎ型 ２５０用   
  7
SANWA
 72
     4
 11
1477.624455141809
 21
1872.463297012574
 31
0.0
100
AcDbText
  0
LINE
  5
9B80
330
747D
100
AcDbEntity
  8
0
100
AcDbLine
 10
1077.82710510173
 20
1835.2839700644
 30
0.0
 11
2006.529607311354
 21
1835.2839700644
 31
0.0
  0
LINE
  5
9B81
330
747D
100
AcDbEntity
  8
0
100
AcDbLine
 10
1077.82710510173
 20
1843.2839700644
 30
0.0
 11
2006.529607311354
 21
1843.2839700644
 31
0.0
  0
DIMENSION
  5
9B82
330
747D
100
AcDbEntity
  8
寸法引出
100
AcDbDimension
  2
*D13
 10
1193.072624575174
 20
1502.202330303902
 30
0.0
 11
1173.072624575174
 21
1552.202330303902
 31
0.0
 70
    32
 71
     5
 42
100.0
  3
SANWA
100
AcDbAlignedDimension
 13
1105.889061932791
 23
1602.202330303902
 33
0.0
 14
1105.889061932791
 24
1502.202330303902
 34
0.0
 50
90.0
100
AcDbRotatedDimension
1001
ACAD
1000
DSTYLE
1002
{
1070
   140
1040
2.0
1070
    40
1040
10.0
1070
   147
1040
1.0
1070
    44
1040
0.5
1070
    43
1040
5.0
1070
   178
1070
   256
1070
   177
1070
   256
1070
   176
1070
   256
1070
    41
1040
1.5
1002
}
  0
LINE
  5
9B83
330
747D
100
AcDbEntity
  8
0
100
AcDbLine
 10
1105.889061932791
 20
1602.202330303902
 30
0.0
 11
1105.889061932791
 21
1502.202330303902
 31
0.0
  0
DIMENSION
  5
9B84
330
747D
100
AcDbEntity
  8
寸法引出
100
AcDbDimension
  2
*D14
 10
1105.889061932791
 20
1452.843884267756
 30
0.0
 11
1093.389061932791
 21
1472.843884267756
 31
0.0
 70
    32
 71
     5
 42
25.0
  3
SANWA
100
AcDbAlignedDimension
 13
1080.889061932791
 23
1502.202330303902
 33
0.0
 14
1105.889061932791
 24
1502.202330303902
 34
0.0
100
AcDbRotatedDimension
1001
ACAD
1000
DSTYLE
1002
{
1070
   140
1040
2.0
1070
    40
1040
10.0
1070
   147
1040
1.0
1070
    44
1040
0.5
1070
    43
1040
5.0
1070
   178
1070
   256
1070
   177
1070
   256
1070
   176
1070
   256
1070
    41
1040
1.5
1002
}
  0
POINT
  5
9B85
330
747D
100
AcDbEntity
  8
DEFPOINTS
  6
ByBlock
 62
     0
100
AcDbPoint
 10
1105.889061932791
 20
1526.202330303902
 30
0.0
  0
POINT
  5
9B86
330
747D
100
AcDbEntity
  8
DEFPOINTS
  6
ByBlock
 62
     0
100
AcDbPoint
 10
1105.889061932791
 20
1564.202330303902
 30
0.0
  0
LINE
  5
9B87
330
747D
100
AcDbEntity
  8
0
  6
HIDDEN2
 48
5.0
100
AcDbLine
 10
1075.889061932791
 20
1502.202330303902
 30
0.0
 11
1075.889061932791
 21
1529.202330303902
 31
0.0
  0
LINE
  5
9B88
330
747D
100
AcDbEntity
  8
0
  6
HIDDEN2
 48
5.0
100
AcDbLine
 10
1085.889061932791
 20
1502.202330303902
 30
0.0
 11
1085.889061932791
 21
1529.202330303902
 31
0.0
  0
LINE
  5
9B89
330
747D
100
AcDbEntity
  8
0
  6
HIDDEN2
 48
5.0
100
AcDbLine
 10
1075.889061932791
 20
1529.202330303902
 30
0.0
 11
1085.889061932791
 21
1529.202330303902
 31
0.0
  0
LINE
  5
9B8A
330
747D
100
AcDbEntity
  8
0
100
AcDbLine
 10
1063.997888735835
 20
1502.202330303902
 30
0.0
 11
1087.780235129746
 21
1502.202330303902
 31
0.0
  0
POINT
  5
9B8B
330
747D
100
AcDbEntity
  8
寸法引出
100
AcDbPoint
 10
1105.889061932791
 20
1502.202330303902
 30
0.0
  0
POINT
  5
9B8C
330
747D
100
AcDbEntity
  8
DEFPOINTS
  6
ByBlock
 62
     0
100
AcDbPoint
 10
1105.889061932791
 20
1526.202330303902
 30
0.0
  0
POINT
  5
9B8D
330
747D
100
AcDbEntity
  8
DEFPOINTS
  6
ByBlock
 62
     0
100
AcDbPoint
 10
1105.889061932791
 20
1564.202330303902
 30
0.0
  0
POINT
  5
9B8E
330
747D
100
AcDbEntity
  8
寸法引出
100
AcDbPoint
 10
1105.889061932791
 20
1502.202330303902
 30
0.0
  0
POINT
  5
9B8F
330
747D
100
AcDbEntity
  8
DEFPOINTS
  6
ByBlock
 62
     0
100
AcDbPoint
 10
1105.889061932791
 20
1526.202330303902
 30
0.0
  0
POINT
  5
9B90
330
747D
100
AcDbEntity
  8
DEFPOINTS
  6
ByBlock
 62
     0
100
AcDbPoint
 10
1105.889061932791
 20
1564.202330303902
 30
0.0
  0
POINT
  5
9B91
330
747D
100
AcDbEntity
  8
寸法引出
100
AcDbPoint
 10
1105.889061932791
 20
1602.202330303902
 30
0.0
  0
POINT
  5
9B92
330
747D
100
AcDbEntity
  8
寸法引出
100
AcDbPoint
 10
1105.889061932791
 20
1602.202330303902
 30
0.0
  0
LINE
  5
9B93
330
747D
100
AcDbEntity
  8
0
100
AcDbLine
 10
1495.19751172747
 20
1502.202330303902
 30
0.0
 11
1495.19751172747
 21
1602.202330303902
 31
0.0
  0
LINE
  5
9B94
330
747D
100
AcDbEntity
  8
0
  6
HIDDEN2
 48
10.0
100
AcDbLine
 10
1512.942677731532
 20
1577.202330303902
 30
0.0
 11
1538.20970503629
 21
1516.202330303902
 31
0.0
  0
LINE
  5
9B95
330
747D
100
AcDbEntity
  8
0
  6
HIDDEN2
 48
10.0
100
AcDbLine
 10
1952.942677731532
 20
1577.202330303902
 30
0.0
 11
1978.20970503629
 21
1516.202330303902
 31
0.0
  0
LINE
  5
9B96
330
747D
100
AcDbEntity
  8
0
  6
HIDDEN2
 48
10.0
100
AcDbLine
 10
1572.185318418651
 20
1516.202330303902
 30
0.0
 11
1597.452345723409
 21
1577.202330303902
 31
0.0
  0
LINE
  5
9B97
330
747D
100
AcDbEntity
  8
0
  6
HIDDEN2
 48
5.0
100
AcDbLine
 10
1610.197511727471
 20
1502.202330303902
 30
0.0
 11
1610.197511727471
 21
1529.202330303902
 31
0.0
  0
LINE
  5
9B98
330
747D
100
AcDbEntity
  8
0
  6
HIDDEN2
 48
5.0
100
AcDbLine
 10
1620.19751172747
 20
1502.202330303902
 30
0.0
 11
1620.19751172747
 21
1529.202330303902
 31
0.0
  0
LINE
  5
9B99
330
747D
100
AcDbEntity
  8
0
  6
HIDDEN2
 48
5.0
100
AcDbLine
 10
1610.197511727471
 20
1529.202330303902
 30
0.0
 11
1620.19751172747
 21
1529.202330303902
 31
0.0
  0
LINE
  5
9B9A
330
747D
100
AcDbEntity
  8
0
  6
HIDDEN2
 48
5.0
100
AcDbLine
 10
1603.306338530515
 20
1502.202330303902
 30
0.0
 11
1627.088684924426
 21
1502.202330303902
 31
0.0
  0
LINE
  5
9B9B
330
747D
100
AcDbEntity
  8
0
  6
HIDDEN2
 48
10.0
100
AcDbLine
 10
2012.185318418651
 20
1516.202330303902
 30
0.0
 11
1978.20970503629
 21
1516.202330303902
 31
0.0
  0
LINE
  5
9B9C
330
747D
100
AcDbEntity
  8
0
  6
HIDDEN2
 48
10.0
100
AcDbLine
 10
2012.185318418651
 20
1516.202330303902
 30
0.0
 11
2037.452345723409
 21
1577.202330303902
 31
0.0
  0
TEXT
  5
9B9D
330
747D
100
AcDbEntity
  8
0
100
AcDbText
 10
1861.564961571431
 20
1861.080439869717
 30
0.0
 40
24.0
  1
W=86㎏
  7
SANWA
 72
     4
 11
1914.227818714288
 21
1872.463297012574
 31
0.0
100
AcDbText
  0
DIMENSION
  5
9B9E
330
747D
100
AcDbEntity
  8
寸法引出
100
AcDbDimension
  2
*D15
 10
2622.067703055229
 20
1502.202330303902
 30
0.0
 11
2602.067703055229
 21
1552.202330303902
 31
0.0
 70
    32
 71
     5
 42
100.0
  3
SANWA
100
AcDbAlignedDimension
 13
2495.197511727471
 23
1602.202330303902
 33
0.0
 14
2495.197511727471
 24
1502.202330303902
 34
0.0
 50
90.0
100
AcDbRotatedDimension
1001
ACAD
1000
DSTYLE
1002
{
1070
   140
1040
2.0
1070
    40
1040
10.0
1070
   147
1040
1.0
1070
    44
1040
0.5
1070
    43
1040
5.0
1070
   178
1070
   256
1070
   177
1070
   256
1070
   176
1070
   256
1070
    41
1040
1.5
1002
}
  0
DIMENSION
  5
9B9F
330
747D
100
AcDbEntity
  8
寸法引出
100
AcDbDimension
  2
*D16
 10
2559.675107830023
 20
1602.202330303902
 30
0.0
 11
2539.675107830022
 21
1589.702330303902
 31
0.0
 70
    32
 71
     5
 42
25.0
  3
SANWA
100
AcDbAlignedDimension
 13
2495.197511727471
 23
1577.202330303902
 33
0.0
 14
2495.197511727471
 24
1602.202330303902
 34
0.0
 50
90.0
100
AcDbRotatedDimension
1001
ACAD
1000
DSTYLE
1002
{
1070
    40
1040
10.0
1070
    41
1040
1.5
1070
    43
1040
5.0
1070
    44
1040
0.5
1070
    75
1070
     1
1070
   140
1040
2.0
1070
   147
1040
1.0
1070
   176
1070
   256
1070
   177
1070
   256
1070
   178
1070
   256
1070
   279
1070
     1
1002
}
  0
DIMENSION
  5
9BA0
330
747D
100
AcDbEntity
  8
寸法引出
100
AcDbDimension
  2
*D17
 10
2559.675107830023
 20
1502.202330303902
 30
0.0
 11
2539.675107830022
 21
1539.702330303902
 31
0.0
 70
    32
 71
     5
 42
75.0
  3
SANWA
100
AcDbAlignedDimension
 13
2495.197511727471
 23
1577.202330303902
 33
0.0
 14
2495.197511727471
 24
1502.202330303902
 34
0.0
 50
90.0
100
AcDbRotatedDimension
1001
ACAD
1000
DSTYLE
1002
{
1070
   140
1040
2.0
1070
    40
1040
10.0
1070
   147
1040
1.0
1070
    44
1040
0.5
1070
    43
1040
5.0
1070
   178
1070
   256
1070
   177
1070
   256
1070
   176
1070
   256
1070
    41
1040
1.5
1002
}
  0
LINE
  5
9BA4
330
747D
100
AcDbEntity
  8
0
100
AcDbLine
 10
2495.197511727471
 20
1602.202330303902
 30
0.0
 11
2495.197511727471
 21
1502.202330303902
 31
0.0
  0
LINE
  5
9BA5
330
747D
100
AcDbEntity
  8
0
  6
HIDDEN2
 48
10.0
100
AcDbLine
 10
2452.185318418651
 20
1516.202330303902
 30
0.0
 11
2418.20970503629
 21
1516.202330303902
 31
0.0
  0
DIMENSION
  5
9BA6
330
747D
100
AcDbEntity
  8
寸法引出
100
AcDbDimension
  2
*D18
 10
2495.197511727471
 20
1445.021979291171
 30
0.0
 11
2435.197511727471
 21
1465.021979291171
 31
0.0
 70
    32
 71
     5
 42
120.0
  3
SANWA
100
AcDbAlignedDimension
 13
2375.197511727471
 23
1502.202330303902
 33
0.0
 14
2495.197511727471
 24
1502.202330303902
 34
0.0
100
AcDbRotatedDimension
1001
ACAD
1000
DSTYLE
1002
{
1070
    40
1040
10.0
1070
    41
1040
1.5
1070
    43
1040
5.0
1070
    44
1040
0.5
1070
    75
1070
     1
1070
   140
1040
2.0
1070
   147
1040
1.0
1070
   176
1070
   256
1070
   177
1070
   256
1070
   178
1070
   256
1070
   279
1070
     1
1002
}
  0
LINE
  5
9BA7
330
747D
100
AcDbEntity
  8
0
  6
HIDDEN2
 48
10.0
100
AcDbLine
 10
2392.942677731532
 20
1577.202330303902
 30
0.0
 11
2418.20970503629
 21
1516.202330303902
 31
0.0
  0
LINE
  5
9BA8
330
747D
100
AcDbEntity
  8
0
  6
HIDDEN2
 48
5.0
100
AcDbLine
 10
2387.088684924426
 20
1502.202330303902
 30
0.0
 11
2363.306338530515
 21
1502.202330303902
 31
0.0
  0
LINE
  5
9BA9
330
747D
100
AcDbEntity
  8
0
  6
HIDDEN2
 48
5.0
100
AcDbLine
 10
2370.197511727471
 20
1502.202330303902
 30
0.0
 11
2370.197511727471
 21
1529.202330303902
 31
0.0
  0
LINE
  5
9BAA
330
747D
100
AcDbEntity
  8
0
  6
HIDDEN2
 48
5.0
100
AcDbLine
 10
2380.19751172747
 20
1502.202330303902
 30
0.0
 11
2380.19751172747
 21
1529.202330303902
 31
0.0
  0
LINE
  5
9BAB
330
747D
100
AcDbEntity
  8
0
  6
HIDDEN2
 48
5.0
100
AcDbLine
 10
2380.19751172747
 20
1529.202330303902
 30
0.0
 11
2370.197511727471
 21
1529.202330303902
 31
0.0
  0
LINE
  5
9BAC
330
747D
100
AcDbEntity
  8
0
  6
HIDDEN2
 48
10.0
100
AcDbLine
 10
2452.185318418651
 20
1516.202330303902
 30
0.0
 11
2477.452345723409
 21
1577.202330303902
 31
0.0
  0
LINE
  5
9BAD
330
747D
100
AcDbEntity
  8
0
100
AcDbLine
 10
2869.999999668431
 20
2099.999996801993
 30
0.0
 11
2969.999999668431
 21
2099.999996801993
 31
0.0
  0
LINE
  5
9BAE
330
747D
100
AcDbEntity
  8
0
100
AcDbLine
 10
2969.999999668431
 20
2099.999996801993
 30
0.0
 11
2969.999999668431
 21
1999.999996801992
 31
0.0
  0
VIEWPORT
  5
7540
102
{ACAD_XDICTIONARY
360
A473
102
}
330
747A
100
AcDbEntity
 67
     1
  8
0
100
AcDbViewport
 10
3060.50972537788
 20
2126.214360081212
 30
0.0
 40
8687.267815741968
 41
4555.835364985319
 68
     1
 69
     1
 12
3060.50972537788
 22
2126.214360081212
 13
0.0
 23
0.0
 14
10.0
 24
10.0
 15
10.0
 25
10.0
 16
0.0
 26
0.0
 36
1.0
 17
0.0
 27
0.0
 37
0.0
 42
50.0
 43
0.0
 44
0.0
 45
4555.835364985319
 50
0.0
 51
0.0
 72
   100
 90
    32800
  1

281
     0
 71
     1
 74
     0
110
0.0
120
0.0
130
0.0
111
1.0
121
0.0
131
0.0
112
0.0
122
1.0
132
0.0
 79
     0
146
0.0
  0
TEXT
  5
7737
330
747A
100
AcDbEntity
 67
     1
  8
0
 48
2.0
100
AcDbText
 10
331.871196811185
 20
20.60428158404022
 30
0.0
 40
2.0
  1

  7
SANWA
100
AcDbText
  0
ENDSEC
  0
SECTION
  2
OBJECTS
  0
DICTIONARY
  5
7471
330
0
100
AcDbDictionary
281
     1
  3
ACAD_COLOR
350
A301
  3
ACAD_GROUP
350
7472
  3
ACAD_LAYOUT
350
95D2
  3
ACAD_MATERIAL
350
A2D7
  3
ACAD_MLEADERSTYLE
350
A326
  3
ACAD_MLINESTYLE
350
7473
  3
ACAD_PLOTSETTINGS
350
95D3
  3
ACAD_PLOTSTYLENAME
350
95D0
  3
ACAD_SCALELIST
350
A304
  3
ACAD_TABLESTYLE
350
A302
  3
ACAD_VISUALSTYLE
350
A2F0
  3
ACDB_RECOMPOSE_DATA
350
A471
  3
ACDBVARIABLEDICTIONARY
350
789B
  3
DWGPROPS
350
A472
  0
DICTIONARY
  5
A451
330
7474
100
AcDbDictionary
280
     1
281
     1
  3
ADSK_XREC_LAYER_RECONCILED
360
A452
  0
DICTIONARY
  5
A453
330
7486
100
AcDbDictionary
280
     1
281
     1
  3
ADSK_XREC_LAYER_RECONCILED
360
A454
  0
DICTIONARY
  5
A455
330
7950
100
AcDbDictionary
280
     1
281
     1
  3
ADSK_XREC_LAYER_RECONCILED
360
A456
  0
DICTIONARY
  5
A457
330
7D58
100
AcDbDictionary
280
     1
281
     1
  3
ADSK_XREC_LAYER_RECONCILED
360
A458
  0
DICTIONARY
  5
A459
330
7D59
100
AcDbDictionary
280
     1
281
     1
  3
ADSK_XREC_LAYER_RECONCILED
360
A45A
  0
DICTIONARY
  5
A45B
330
7D5A
100
AcDbDictionary
280
     1
281
     1
  3
ADSK_XREC_LAYER_RECONCILED
360
A45C
  0
DICTIONARY
  5
A473
330
7540
100
AcDbDictionary
280
     1
281
     1
  3
ACAD_XREC_ROUNDTRIP
360
A474
  0
DICTIONARY
  5
A301
102
{ACAD_REACTORS
330
7471
102
}
330
7471
100
AcDbDictionary
281
     1
  0
DICTIONARY
  5
7472
102
{ACAD_REACTORS
330
7471
102
}
330
0
100
AcDbDictionary
281
     1
  0
DICTIONARY
  5
95D2
102
{ACAD_REACTORS
330
7471
102
}
330
7471
100
AcDbDictionary
281
     1
  3
Model
350
95D4
  3
ﾚｲｱｳﾄ1
350
95D5
  0
DICTIONARY
  5
A2D7
102
{ACAD_REACTORS
330
7471
102
}
330
7471
100
AcDbDictionary
281
     1
  3
ByBlock
350
A2E0
  3
ByLayer
350
A2D8
  3
Global
350
A2E8
  0
DICTIONARY
  5
A326
102
{ACAD_REACTORS
330
7471
102
}
330
7471
100
AcDbDictionary
281
     1
  3
Standard
350
A327
  0
DICTIONARY
  5
7473
102
{ACAD_REACTORS
330
7471
102
}
330
0
100
AcDbDictionary
281
     1
  3
STANDARD
350
7480
  0
DICTIONARY
  5
95D3
102
{ACAD_REACTORS
330
7471
102
}
330
7471
100
AcDbDictionary
281
     1
  0
ACDBDICTIONARYWDFLT
  5
95D0
102
{ACAD_REACTORS
330
7471
102
}
330
7471
100
AcDbDictionary
281
     1
  3
Normal
350
95D1
100
AcDbDictionaryWithDefault
340
95D1
  0
DICTIONARY
  5
A304
102
{ACAD_REACTORS
330
7471
102
}
330
7471
100
AcDbDictionary
281
     1
  3
A0
350
A305
  3
A1
350
A306
  3
A2
350
A307
  3
A3
350
A308
  3
A4
350
A309
  3
A5
350
A30A
  3
A6
350
A30B
  3
A7
350
A30C
  3
A8
350
A30D
  3
A9
350
A30E
  3
B0
350
A30F
  3
B1
350
A310
  3
B2
350
A311
  3
B3
350
A312
  3
B4
350
A313
  3
B5
350
A314
  3
B6
350
A315
  3
B7
350
A316
  3
B8
350
A317
  3
B9
350
A318
  3
C0
350
A319
  3
C1
350
A31A
  3
C2
350
A31B
  3
C3
350
A31C
  3
C4
350
A31D
  3
C5
350
A31E
  3
C6
350
A31F
  3
C7
350
A320
  3
C8
350
A321
  3
C9
350
A322
  3
D0
350
A323
  3
D1
350
A324
  3
D2
350
A325
  0
DICTIONARY
  5
A302
102
{ACAD_REACTORS
330
7471
102
}
330
7471
100
AcDbDictionary
281
     1
  3
Standard
350
A303
  0
DICTIONARY
  5
A2F0
102
{ACAD_REACTORS
330
7471
102
}
330
7471
100
AcDbDictionary
281
     1
  3
2dWireframe
350
A2F6
  3
3D Hidden
350
A2F8
  3
3dWireframe
350
A2F7
  3
Basic
350
A2F5
  3
Brighten
350
A2FC
  3
ColorChange
350
A300
  3
Conceptual
350
A2F9
  3
Dim
350
A2FB
  3
Facepattern
350
A2FF
  3
Flat
350
A2F1
  3
FlatWithEdges
350
A2F2
  3
Gouraud
350
A2F3
  3
GouraudWithEdges
350
A2F4
  3
Linepattern
350
A2FE
  3
Realistic
350
A2FA
  3
Thicken
350
A2FD
  0
XRECORD
  5
A471
102
{ACAD_REACTORS
330
7471
102
}
330
7471
100
AcDbXrecord
280
     1
 90
        1
330
A303
  0
DICTIONARY
  5
789B
102
{ACAD_REACTORS
330
7471
102
}
330
7471
100
AcDbDictionary
281
     1
  3
CANNOSCALE
350
A45F
  3
CMLEADERSTYLE
350
A45E
  3
CTABLESTYLE
350
A45D
  3
DIMASSOC
350
95DC
  3
INDEXCTL
350
A460
  3
SORTENTS
350
789C
  0
XRECORD
  5
A472
102
{ACAD_REACTORS
330
7471
102
}
330
7471
100
AcDbXrecord
280
     1
  1
DWGPROPS COOKIE
  2

  3

  4

  6

  7

  8
ooshima
  9

300
=
301
=
302
=
303
=
304
=
305
=
306
=
307
=
308
=
309
=
 40
0.4362003587962964
 41
2451573.46699375
 42
2455412.384823403
  1

 90
        0
  0
XRECORD
  5
A452
102
{ACAD_REACTORS
330
A451
102
}
330
A451
100
AcDbXrecord
280
     1
290
     1
  0
XRECORD
  5
A454
102
{ACAD_REACTORS
330
A453
102
}
330
A453
100
AcDbXrecord
280
     1
290
     1
  0
XRECORD
  5
A456
102
{ACAD_REACTORS
330
A455
102
}
330
A455
100
AcDbXrecord
280
     1
290
     1
  0
XRECORD
  5
A458
102
{ACAD_REACTORS
330
A457
102
}
330
A457
100
AcDbXrecord
280
     1
290
     1
  0
XRECORD
  5
A45A
102
{ACAD_REACTORS
330
A459
102
}
330
A459
100
AcDbXrecord
280
     1
290
     1
  0
XRECORD
  5
A45C
102
{ACAD_REACTORS
330
A45B
102
}
330
A45B
100
AcDbXrecord
280
     1
290
     1
  0
XRECORD
  5
A474
102
{ACAD_REACTORS
330
A473
102
}
330
A473
100
AcDbXrecord
280
     1
102
SHADEPLOT
 70
     0
  0
LAYOUT
  5
95D4
102
{ACAD_XDICTIONARY
360
A475
102
}
102
{ACAD_REACTORS
330
95D2
102
}
330
95D2
100
AcDbPlotSettings
  1

  2
RICOH NX-510
  4
A4
  6

 40
5.873749732971191
 41
4.92125654220581
 42
7.588241577148437
 43
5.81024169921875
 44
209.9944915771484
 45
296.989501953125
 46
0.0
 47
0.0
 48
0.0
 49
0.0
140
0.0
141
0.0
142
1.0
143
1.0
 70
 11952
 72
     1
 73
     1
 74
     0
  7
sanwa3.ctb
 75
     0
147
1.0
148
-422.7067451565019
149
12.33169569034066
100
AcDbLayout
  1
Model
 70
     1
 71
     0
 10
0.0
 20
0.0
 11
12.0
 21
9.0
 12
0.0
 22
0.0
 32
0.0
 14
0.0
 24
0.0
 34
0.0
 15
0.0
 25
0.0
 35
0.0
146
0.0
 13
0.0
 23
0.0
 33
0.0
 16
1.0
 26
0.0
 36
0.0
 17
0.0
 27
1.0
 37
0.0
 76
     0
330
747D
331
A2D5
  0
LAYOUT
  5
95D5
102
{ACAD_XDICTIONARY
360
A477
102
}
102
{ACAD_REACTORS
330
95D2
102
}
330
95D2
100
AcDbPlotSettings
  1

  2
RICOH NX-510
  4
A4
  6

 40
5.873749732971191
 41
4.92125654220581
 42
7.588241577148437
 43
5.81024169921875
 44
209.9944915771484
 45
296.989501953125
 46
0.0
 47
0.0
 48
0.0
 49
0.0
140
0.0
141
0.0
142
1.0
143
21.45080154268545
 70
   688
 72
     1
 73
     1
 74
     1
  7
sanwa3.ctb
 75
     0
147
0.0466183045892284
148
0.187366345882765
149
0.0640820246935618
100
AcDbLayout
  1
ﾚｲｱｳﾄ1
 70
     1
 71
     1
 10
-124.8217079508596
 20
-126.0607218580602
 11
6245.841158706618
 21
4378.489442020483
 12
0.0
 22
0.0
 32
0.0
 14
1.000000000000000E+20
 24
1.000000000000000E+20
 34
1.000000000000000E+20
 15
-1.000000000000000E+20
 25
-1.000000000000000E+20
 35
-1.000000000000000E+20
146
0.0
 13
0.0
 23
0.0
 33
0.0
 16
1.0
 26
0.0
 36
0.0
 17
0.0
 27
1.0
 37
0.0
 76
     0
330
747A
331
7540
  0
MATERIAL
  5
A2E0
102
{ACAD_XDICTIONARY
360
A2E1
102
}
102
{ACAD_REACTORS
330
A2D7
102
}
330
A2D7
100
AcDbMaterial
  1
ByBlock
 72
     0
 43
0.0208333333333333
 43
0.0
 43
0.0
 43
0.0
 43
0.0
 43
0.0208333333333333
 43
0.0
 43
0.0
 43
0.0
 43
0.0
 43
1.0
 43
0.0
 43
0.0
 43
0.0
 43
0.0
 43
1.0
 77
     0
 47
0.0208333333333333
 47
0.0
 47
0.0
 47
0.0
 47
0.0
 47
0.0208333333333333
 47
0.0
 47
0.0
 47
0.0
 47
0.0
 47
1.0
 47
0.0
 47
0.0
 47
0.0
 47
0.0
 47
1.0
171
     0
 49
0.0208333333333333
 49
0.0
 49
0.0
 49
0.0
 49
0.0
 49
0.0208333333333333
 49
0.0
 49
0.0
 49
0.0
 49
0.0
 49
1.0
 49
0.0
 49
0.0
 49
0.0
 49
0.0
 49
1.0
175
     0
142
0.0208333333333333
142
0.0
142
0.0
142
0.0
142
0.0
142
0.0208333333333333
142
0.0
142
0.0
142
0.0
142
0.0
142
1.0
142
0.0
142
0.0
142
0.0
142
0.0
142
1.0
179
     0
144
0.0208333333333333
144
0.0
144
0.0
144
0.0
144
0.0
144
0.0208333333333333
144
0.0
144
0.0
144
0.0
144
0.0
144
1.0
144
0.0
144
0.0
144
0.0
144
0.0
144
1.0
147
0.0208333333333333
147
0.0
147
0.0
147
0.0
147
0.0
147
0.0208333333333333
147
0.0
147
0.0
147
0.0
147
0.0
147
1.0
147
0.0
147
0.0
147
0.0
147
0.0
147
1.0
  0
MATERIAL
  5
A2D8
102
{ACAD_XDICTIONARY
360
A2D9
102
}
102
{ACAD_REACTORS
330
A2D7
102
}
330
A2D7
100
AcDbMaterial
  1
ByLayer
 72
     0
 43
0.0208333333333333
 43
0.0
 43
0.0
 43
0.0
 43
0.0
 43
0.0208333333333333
 43
0.0
 43
0.0
 43
0.0
 43
0.0
 43
1.0
 43
0.0
 43
0.0
 43
0.0
 43
0.0
 43
1.0
 77
     0
 47
0.0208333333333333
 47
0.0
 47
0.0
 47
0.0
 47
0.0
 47
0.0208333333333333
 47
0.0
 47
0.0
 47
0.0
 47
0.0
 47
1.0
 47
0.0
 47
0.0
 47
0.0
 47
0.0
 47
1.0
171
     0
 49
0.0208333333333333
 49
0.0
 49
0.0
 49
0.0
 49
0.0
 49
0.0208333333333333
 49
0.0
 49
0.0
 49
0.0
 49
0.0
 49
1.0
 49
0.0
 49
0.0
 49
0.0
 49
0.0
 49
1.0
175
     0
142
0.0208333333333333
142
0.0
142
0.0
142
0.0
142
0.0
142
0.0208333333333333
142
0.0
142
0.0
142
0.0
142
0.0
142
1.0
142
0.0
142
0.0
142
0.0
142
0.0
142
1.0
179
     0
144
0.0208333333333333
144
0.0
144
0.0
144
0.0
144
0.0
144
0.0208333333333333
144
0.0
144
0.0
144
0.0
144
0.0
144
1.0
144
0.0
144
0.0
144
0.0
144
0.0
144
1.0
147
0.0208333333333333
147
0.0
147
0.0
147
0.0
147
0.0
147
0.0208333333333333
147
0.0
147
0.0
147
0.0
147
0.0
147
1.0
147
0.0
147
0.0
147
0.0
147
0.0
147
1.0
  0
MATERIAL
  5
A2E8
102
{ACAD_XDICTIONARY
360
A2E9
102
}
102
{ACAD_REACTORS
330
A2D7
102
}
330
A2D7
100
AcDbMaterial
  1
Global
 72
     0
 43
0.0208333333333333
 43
0.0
 43
0.0
 43
0.0
 43
0.0
 43
0.0208333333333333
 43
0.0
 43
0.0
 43
0.0
 43
0.0
 43
1.0
 43
0.0
 43
0.0
 43
0.0
 43
0.0
 43
1.0
 77
     0
 47
0.0208333333333333
 47
0.0
 47
0.0
 47
0.0
 47
0.0
 47
0.0208333333333333
 47
0.0
 47
0.0
 47
0.0
 47
0.0
 47
1.0
 47
0.0
 47
0.0
 47
0.0
 47
0.0
 47
1.0
171
     0
 49
0.0208333333333333
 49
0.0
 49
0.0
 49
0.0
 49
0.0
 49
0.0208333333333333
 49
0.0
 49
0.0
 49
0.0
 49
0.0
 49
1.0
 49
0.0
 49
0.0
 49
0.0
 49
0.0
 49
1.0
175
     0
142
0.0208333333333333
142
0.0
142
0.0
142
0.0
142
0.0
142
0.0208333333333333
142
0.0
142
0.0
142
0.0
142
0.0
142
1.0
142
0.0
142
0.0
142
0.0
142
0.0
142
1.0
179
     0
144
0.0208333333333333
144
0.0
144
0.0
144
0.0
144
0.0
144
0.0208333333333333
144
0.0
144
0.0
144
0.0
144
0.0
144
1.0
144
0.0
144
0.0
144
0.0
144
0.0
144
1.0
147
0.0208333333333333
147
0.0
147
0.0
147
0.0
147
0.0
147
0.0208333333333333
147
0.0
147
0.0
147
0.0
147
0.0
147
1.0
147
0.0
147
0.0
147
0.0
147
0.0
147
1.0
  0
MLEADERSTYLE
  5
A327
102
{ACAD_REACTORS
330
A326
102
}
330
A326
100
AcDbMLeaderStyle
170
     2
171
     1
172
     0
 90
        2
 40
0.0
 41
0.0
173
     1
 91
-1056964608
340
7477
 92
       -2
290
     1
 42
2.0
291
     1
 43
0.36
  3
Standard
 44
4.0
300

342
7475
174
     1
178
     6
175
     1
176
     0
 93
-1056964608
 45
4.0
292
     0
297
     0
 46
4.0
 94
-1056964608
 47
1.0
 49
1.0
140
1.0
293
     1
141
0.0
294
     1
177
     0
142
1.0
295
     0
296
     0
143
0.125
1001
ACAD_MLEADERVER
1070
     2
  0
MLINESTYLE
  5
7480
102
{ACAD_REACTORS
330
7473
102
}
330
0
100
AcDbMlineStyle
  2
STANDARD
 70
     0
  3

 62
     0
 51
90.0
 52
90.0
 71
     2
 49
0.5
 62
   256
  6
BYLAYER
 49
-0.5
 62
   256
  6
BYLAYER
  0
ACDBPLACEHOLDER
  5
95D1
102
{ACAD_REACTORS
330
95D0
102
}
330
95D0
  0
SCALE
  5
A305
102
{ACAD_REACTORS
330
A304
102
}
330
A304
100
AcDbScale
 70
     0
300
1:1
140
1.0
141
1.0
290
     1
  0
SCALE
  5
A306
102
{ACAD_REACTORS
330
A304
102
}
330
A304
100
AcDbScale
 70
     0
300
1:2
140
1.0
141
2.0
290
     0
  0
SCALE
  5
A307
102
{ACAD_REACTORS
330
A304
102
}
330
A304
100
AcDbScale
 70
     0
300
1:4
140
1.0
141
4.0
290
     0
  0
SCALE
  5
A308
102
{ACAD_REACTORS
330
A304
102
}
330
A304
100
AcDbScale
 70
     0
300
1:5
140
1.0
141
5.0
290
     0
  0
SCALE
  5
A309
102
{ACAD_REACTORS
330
A304
102
}
330
A304
100
AcDbScale
 70
     0
300
1:8
140
1.0
141
8.0
290
     0
  0
SCALE
  5
A30A
102
{ACAD_REACTORS
330
A304
102
}
330
A304
100
AcDbScale
 70
     0
300
1:10
140
1.0
141
10.0
290
     0
  0
SCALE
  5
A30B
102
{ACAD_REACTORS
330
A304
102
}
330
A304
100
AcDbScale
 70
     0
300
1:16
140
1.0
141
16.0
290
     0
  0
SCALE
  5
A30C
102
{ACAD_REACTORS
330
A304
102
}
330
A304
100
AcDbScale
 70
     0
300
1:20
140
1.0
141
20.0
290
     0
  0
SCALE
  5
A30D
102
{ACAD_REACTORS
330
A304
102
}
330
A304
100
AcDbScale
 70
     0
300
1:30
140
1.0
141
30.0
290
     0
  0
SCALE
  5
A30E
102
{ACAD_REACTORS
330
A304
102
}
330
A304
100
AcDbScale
 70
     0
300
1:40
140
1.0
141
40.0
290
     0
  0
SCALE
  5
A30F
102
{ACAD_REACTORS
330
A304
102
}
330
A304
100
AcDbScale
 70
     0
300
1:50
140
1.0
141
50.0
290
     0
  0
SCALE
  5
A310
102
{ACAD_REACTORS
330
A304
102
}
330
A304
100
AcDbScale
 70
     0
300
1:100
140
1.0
141
100.0
290
     0
  0
SCALE
  5
A311
102
{ACAD_REACTORS
330
A304
102
}
330
A304
100
AcDbScale
 70
     0
300
2:1
140
2.0
141
1.0
290
     0
  0
SCALE
  5
A312
102
{ACAD_REACTORS
330
A304
102
}
330
A304
100
AcDbScale
 70
     0
300
4:1
140
4.0
141
1.0
290
     0
  0
SCALE
  5
A313
102
{ACAD_REACTORS
330
A304
102
}
330
A304
100
AcDbScale
 70
     0
300
8:1
140
8.0
141
1.0
290
     0
  0
SCALE
  5
A314
102
{ACAD_REACTORS
330
A304
102
}
330
A304
100
AcDbScale
 70
     0
300
10:1
140
10.0
141
1.0
290
     0
  0
SCALE
  5
A315
102
{ACAD_REACTORS
330
A304
102
}
330
A304
100
AcDbScale
 70
     0
300
100:1
140
100.0
141
1.0
290
     0
  0
SCALE
  5
A316
102
{ACAD_REACTORS
330
A304
102
}
330
A304
100
AcDbScale
 70
     0
300
1/128" = 1'-0"
140
0.0078125
141
12.0
290
     0
  0
SCALE
  5
A317
102
{ACAD_REACTORS
330
A304
102
}
330
A304
100
AcDbScale
 70
     0
300
1/64" = 1'-0"
140
0.015625
141
12.0
290
     0
  0
SCALE
  5
A318
102
{ACAD_REACTORS
330
A304
102
}
330
A304
100
AcDbScale
 70
     0
300
1/32" = 1'-0"
140
0.03125
141
12.0
290
     0
  0
SCALE
  5
A319
102
{ACAD_REACTORS
330
A304
102
}
330
A304
100
AcDbScale
 70
     0
300
1/16" = 1'-0"
140
0.0625
141
12.0
290
     0
  0
SCALE
  5
A31A
102
{ACAD_REACTORS
330
A304
102
}
330
A304
100
AcDbScale
 70
     0
300
3/32" = 1'-0"
140
0.09375
141
12.0
290
     0
  0
SCALE
  5
A31B
102
{ACAD_REACTORS
330
A304
102
}
330
A304
100
AcDbScale
 70
     0
300
1/8" = 1'-0"
140
0.125
141
12.0
290
     0
  0
SCALE
  5
A31C
102
{ACAD_REACTORS
330
A304
102
}
330
A304
100
AcDbScale
 70
     0
300
3/16" = 1'-0"
140
0.1875
141
12.0
290
     0
  0
SCALE
  5
A31D
102
{ACAD_REACTORS
330
A304
102
}
330
A304
100
AcDbScale
 70
     0
300
1/4" = 1'-0"
140
0.25
141
12.0
290
     0
  0
SCALE
  5
A31E
102
{ACAD_REACTORS
330
A304
102
}
330
A304
100
AcDbScale
 70
     0
300
3/8" = 1'-0"
140
0.375
141
12.0
290
     0
  0
SCALE
  5
A31F
102
{ACAD_REACTORS
330
A304
102
}
330
A304
100
AcDbScale
 70
     0
300
1/2" = 1'-0"
140
0.5
141
12.0
290
     0
  0
SCALE
  5
A320
102
{ACAD_REACTORS
330
A304
102
}
330
A304
100
AcDbScale
 70
     0
300
3/4" = 1'-0"
140
0.75
141
12.0
290
     0
  0
SCALE
  5
A321
102
{ACAD_REACTORS
330
A304
102
}
330
A304
100
AcDbScale
 70
     0
300
1" = 1'-0"
140
1.0
141
12.0
290
     0
  0
SCALE
  5
A322
102
{ACAD_REACTORS
330
A304
102
}
330
A304
100
AcDbScale
 70
     0
300
1-1/2" = 1'-0"
140
1.5
141
12.0
290
     0
  0
SCALE
  5
A323
102
{ACAD_REACTORS
330
A304
102
}
330
A304
100
AcDbScale
 70
     0
300
3" = 1'-0"
140
3.0
141
12.0
290
     0
  0
SCALE
  5
A324
102
{ACAD_REACTORS
330
A304
102
}
330
A304
100
AcDbScale
 70
     0
300
6" = 1'-0"
140
6.0
141
12.0
290
     0
  0
SCALE
  5
A325
102
{ACAD_REACTORS
330
A304
102
}
330
A304
100
AcDbScale
 70
     0
300
1'-0" = 1'-0"
140
12.0
141
12.0
290
     0
  0
TABLESTYLE
  5
A303
102
{ACAD_XDICTIONARY
360
A46F
102
}
102
{ACAD_REACTORS
330
A302
102
}
330
A302
100
AcDbTableStyle
  3
Standard
 70
     0
 71
     0
 40
1.5
 41
1.5
280
     0
281
     0
  7
STANDARD
140
4.5
170
     2
 62
     0
 63
     7
283
     0
274
    -2
284
     1
 64
     0
275
    -2
285
     1
 65
     0
276
    -2
286
     1
 66
     0
277
    -2
287
     1
 67
     0
278
    -2
288
     1
 68
     0
279
    -2
289
     1
 69
     0
  7
STANDARD
140
6.0
170
     5
 62
     0
 63
     7
283
     0
274
    -2
284
     1
 64
     0
275
    -2
285
     1
 65
     0
276
    -2
286
     1
 66
     0
277
    -2
287
     1
 67
     0
278
    -2
288
     1
 68
     0
279
    -2
289
     1
 69
     0
  7
STANDARD
140
4.5
170
     5
 62
     0
 63
     7
283
     0
274
    -2
284
     1
 64
     0
275
    -2
285
     1
 65
     0
276
    -2
286
     1
 66
     0
277
    -2
287
     1
 67
     0
278
    -2
288
     1
 68
     0
279
    -2
289
     1
 69
     0
  0
VISUALSTYLE
  5
A2F6
102
{ACAD_REACTORS
330
A2F0
102
}
330
A2F0
100
AcDbVisualStyle
  2
2dWireframe
 70
     4
 71
     0
 72
     2
 73
     0
 90
        0
 40
-0.6
 41
-30.0
 62
     5
 63
     7
 74
     1
 91
        4
 64
     7
 65
   257
 75
     1
175
     1
 42
1.0
 92
        0
 66
   257
 43
1.0
 76
     1
 77
     6
 78
     2
 67
     7
 79
     5
170
     0
171
     0
290
     0
174
     0
 93
        1
 44
0.0
173
     0
291
     0
 45
0.0
1001
ACAD
1000
AcDbSavedByObjectVersion
1070
     0
  0
VISUALSTYLE
  5
A2F8
102
{ACAD_REACTORS
330
A2F0
102
}
330
A2F0
100
AcDbVisualStyle
  2
3D Hidden
 70
     6
 71
     1
 72
     2
 73
     2
 90
        0
 40
-0.6
 41
-30.0
 62
     5
 63
     7
 74
     2
 91
        2
 64
     7
 65
   257
 75
     2
175
     1
 42
40.0
 92
        0
 66
   257
 43
1.0
 76
     1
 77
     6
 78
     2
 67
     7
 79
     3
170
     0
171
     0
290
     0
174
     0
 93
        1
 44
0.0
173
     0
291
     0
 45
0.0
1001
ACAD
1000
AcDbSavedByObjectVersion
1070
     0
  0
VISUALSTYLE
  5
A2F7
102
{ACAD_REACTORS
330
A2F0
102
}
330
A2F0
100
AcDbVisualStyle
  2
3dWireframe
 70
     5
 71
     0
 72
     2
 73
     0
 90
        0
 40
-0.6
 41
-30.0
 62
     5
 63
     7
 74
     1
 91
        4
 64
     7
 65
   257
 75
     1
175
     1
 42
1.0
 92
        0
 66
   257
 43
1.0
 76
     1
 77
     6
 78
     2
 67
     7
 79
     5
170
     0
171
     0
290
     0
174
     0
 93
        1
 44
0.0
173
     0
291
     0
 45
0.0
1001
ACAD
1000
AcDbSavedByObjectVersion
1070
     0
  0
VISUALSTYLE
  5
A2F5
102
{ACAD_REACTORS
330
A2F0
102
}
330
A2F0
100
AcDbVisualStyle
  2
Basic
 70
     7
 71
     1
 72
     0
 73
     1
 90
        0
 40
-0.6
 41
-30.0
 62
     5
 63
     7
 74
     0
 91
        4
 64
     7
 65
   257
 75
     1
175
     1
 42
1.0
 92
        8
 66
     7
 43
1.0
 76
     1
 77
     6
 78
     2
 67
     7
 79
     5
170
     0
171
     0
290
     0
174
     0
 93
        1
 44
0.0
173
     0
291
     1
 45
0.0
1001
ACAD
1000
AcDbSavedByObjectVersion
1070
     0
  0
VISUALSTYLE
  5
A2FC
102
{ACAD_REACTORS
330
A2F0
102
}
330
A2F0
100
AcDbVisualStyle
  2
Brighten
 70
    12
 71
     2
 72
     2
 73
     0
 90
        0
 40
-0.6
 41
-30.0
 62
     5
 63
     7
 74
     1
 91
        4
 64
     7
 65
   257
 75
     1
175
     1
 42
1.0
 92
        8
 66
     7
 43
1.0
 76
     1
 77
     6
 78
     2
 67
     7
 79
     5
170
     0
171
     0
290
     0
174
     0
 93
        1
 44
50.0
173
     0
291
     1
 45
0.0
1001
ACAD
1000
AcDbSavedByObjectVersion
1070
     0
  0
VISUALSTYLE
  5
A300
102
{ACAD_REACTORS
330
A2F0
102
}
330
A2F0
100
AcDbVisualStyle
  2
ColorChange
 70
    16
 71
     2
 72
     2
 73
     3
 90
        0
 40
-0.6
 41
-30.0
 62
     5
 63
     8
 74
     1
 91
        4
 64
     7
 65
   257
 75
     1
175
     1
 42
1.0
 92
        8
 66
     8
 43
1.0
 76
     1
 77
     6
 78
     2
 67
     7
 79
     5
170
     0
171
     0
290
     0
174
     0
 93
        1
 44
0.0
173
     0
291
     1
 45
0.0
1001
ACAD
1000
AcDbSavedByObjectVersion
1070
     0
  0
VISUALSTYLE
  5
A2F9
102
{ACAD_REACTORS
330
A2F0
102
}
330
A2F0
100
AcDbVisualStyle
  2
Conceptual
 70
     9
 71
     3
 72
     2
 73
     0
 90
        0
 40
-0.6
 41
-30.0
 62
     5
 63
     7
 74
     2
 91
        2
 64
     7
 65
   257
 75
     1
175
     1
 42
40.0
 92
        8
 66
     7
 43
1.0
 76
     1
 77
     6
 78
     2
 67
     7
 79
     3
170
     0
171
     0
290
     0
174
     0
 93
        1
 44
0.0
173
     0
291
     0
 45
0.0
1001
ACAD
1000
AcDbSavedByObjectVersion
1070
     0
  0
VISUALSTYLE
  5
A2FB
102
{ACAD_REACTORS
330
A2F0
102
}
330
A2F0
100
AcDbVisualStyle
  2
Dim
 70
    11
 71
     2
 72
     2
 73
     0
 90
        0
 40
-0.6
 41
-30.0
 62
     5
 63
     7
 74
     1
 91
        4
 64
     7
 65
   257
 75
     1
175
     1
 42
1.0
 92
        8
 66
     7
 43
1.0
 76
     1
 77
     6
 78
     2
 67
     7
 79
     5
170
     0
171
     0
290
     0
174
     0
 93
        1
 44
-50.0
173
     0
291
     1
 45
0.0
1001
ACAD
1000
AcDbSavedByObjectVersion
1070
     0
  0
VISUALSTYLE
  5
A2FF
102
{ACAD_REACTORS
330
A2F0
102
}
330
A2F0
100
AcDbVisualStyle
  2
Facepattern
 70
    15
 71
     2
 72
     2
 73
     0
 90
        0
 40
-0.6
 41
-30.0
 62
     5
 63
     7
 74
     1
 91
        4
 64
     7
 65
   257
 75
     1
175
     1
 42
1.0
 92
        8
 66
     7
 43
1.0
 76
     1
 77
     6
 78
     2
 67
     7
 79
     5
170
     0
171
     0
290
     0
174
     0
 93
        1
 44
0.0
173
     0
291
     1
 45
0.0
1001
ACAD
1000
AcDbSavedByObjectVersion
1070
     0
  0
VISUALSTYLE
  5
A2F1
102
{ACAD_REACTORS
330
A2F0
102
}
330
A2F0
100
AcDbVisualStyle
  2
Flat
 70
     0
 71
     2
 72
     1
 73
     1
 90
        2
 40
-0.6
 41
30.0
 62
     5
 63
     7
 74
     0
 91
        4
 64
     7
 65
   257
 75
     1
175
     1
 42
1.0
 92
        8
 66
     7
 43
1.0
 76
     1
 77
     6
 78
     2
 67
     7
 79
     5
170
     0
171
     0
290
     0
174
     0
 93
       13
 44
0.0
173
     0
291
     1
 45
0.0
1001
ACAD
1000
AcDbSavedByObjectVersion
1070
     0
  0
VISUALSTYLE
  5
A2F2
102
{ACAD_REACTORS
330
A2F0
102
}
330
A2F0
100
AcDbVisualStyle
  2
FlatWithEdges
 70
     1
 71
     2
 72
     1
 73
     1
 90
        2
 40
-0.6
 41
30.0
 62
     5
 63
     7
 74
     1
 91
        4
 64
     7
 65
   257
 75
     1
175
     1
 42
1.0
 92
        0
 66
   257
 43
1.0
 76
     1
 77
     6
 78
     2
 67
     7
 79
     5
170
     0
171
     0
290
     0
174
     0
 93
       13
 44
0.0
173
     0
291
     1
 45
0.0
1001
ACAD
1000
AcDbSavedByObjectVersion
1070
     0
  0
VISUALSTYLE
  5
A2F3
102
{ACAD_REACTORS
330
A2F0
102
}
330
A2F0
100
AcDbVisualStyle
  2
Gouraud
 70
     2
 71
     2
 72
     2
 73
     1
 90
        2
 40
-0.6
 41
30.0
 62
     5
 63
     7
 74
     0
 91
        4
 64
     7
 65
   257
 75
     1
175
     1
 42
1.0
 92
        0
 66
     7
 43
1.0
 76
     1
 77
     6
 78
     2
 67
     7
 79
     5
170
     0
171
     0
290
     0
174
     0
 93
       13
 44
0.0
173
     0
291
     1
 45
0.0
1001
ACAD
1000
AcDbSavedByObjectVersion
1070
     0
  0
VISUALSTYLE
  5
A2F4
102
{ACAD_REACTORS
330
A2F0
102
}
330
A2F0
100
AcDbVisualStyle
  2
GouraudWithEdges
 70
     3
 71
     2
 72
     2
 73
     1
 90
        2
 40
-0.6
 41
30.0
 62
     5
 63
     7
 74
     1
 91
        4
 64
     7
 65
   257
 75
     1
175
     1
 42
1.0
 92
        0
 66
   257
 43
1.0
 76
     1
 77
     6
 78
     2
 67
     7
 79
     5
170
     0
171
     0
290
     0
174
     0
 93
       13
 44
0.0
173
     0
291
     1
 45
0.0
1001
ACAD
1000
AcDbSavedByObjectVersion
1070
     0
  0
VISUALSTYLE
  5
A2FE
102
{ACAD_REACTORS
330
A2F0
102
}
330
A2F0
100
AcDbVisualStyle
  2
Linepattern
 70
    14
 71
     2
 72
     2
 73
     0
 90
        0
 40
-0.6
 41
-30.0
 62
     5
 63
     7
 74
     1
 91
        4
 64
     7
 65
   257
 75
     7
175
     7
 42
1.0
 92
        8
 66
     7
 43
1.0
 76
     1
 77
     6
 78
     2
 67
     7
 79
     5
170
     0
171
     0
290
     0
174
     0
 93
        1
 44
0.0
173
     0
291
     1
 45
0.0
1001
ACAD
1000
AcDbSavedByObjectVersion
1070
     0
  0
VISUALSTYLE
  5
A2FA
102
{ACAD_REACTORS
330
A2F0
102
}
330
A2F0
100
AcDbVisualStyle
  2
Realistic
 70
     8
 71
     2
 72
     2
 73
     0
 90
        0
 40
-0.6
 41
-30.0
 62
     5
 63
     7
 74
     1
 91
        0
 64
     7
 65
   257
 75
     1
175
     1
 42
1.0
 92
        8
 66
     8
 43
1.0
 76
     1
 77
     6
 78
     2
 67
     7
 79
     5
170
     0
171
     0
290
     0
174
     0
 93
       13
 44
0.0
173
     0
291
     0
 45
0.0
1001
ACAD
1000
AcDbSavedByObjectVersion
1070
     0
  0
VISUALSTYLE
  5
A2FD
102
{ACAD_REACTORS
330
A2F0
102
}
330
A2F0
100
AcDbVisualStyle
  2
Thicken
 70
    13
 71
     2
 72
     2
 73
     0
 90
        0
 40
-0.6
 41
-30.0
 62
     5
 63
     7
 74
     1
 91
        4
 64
     7
 65
   257
 75
     1
175
     1
 42
1.0
 92
       12
 66
     7
 43
1.0
 76
     1
 77
     6
 78
     2
 67
     7
 79
     5
170
     0
171
     0
290
     0
174
     0
 93
        1
 44
0.0
173
     0
291
     1
 45
0.0
1001
ACAD
1000
AcDbSavedByObjectVersion
1070
     0
  0
DICTIONARYVAR
  5
A45F
102
{ACAD_REACTORS
330
789B
102
}
330
789B
100
DictionaryVariables
280
     0
  1
1:1
  0
DICTIONARYVAR
  5
A45E
102
{ACAD_REACTORS
330
789B
102
}
330
789B
100
DictionaryVariables
280
     0
  1
STANDARD
  0
DICTIONARYVAR
  5
A45D
102
{ACAD_REACTORS
330
789B
102
}
330
789B
100
DictionaryVariables
280
     0
  1
STANDARD
  0
DICTIONARYVAR
  5
95DC
102
{ACAD_REACTORS
330
789B
102
}
330
789B
100
DictionaryVariables
280
     0
  1
1
  0
DICTIONARYVAR
  5
A460
102
{ACAD_REACTORS
330
789B
102
}
330
789B
100
DictionaryVariables
280
     0
  1
0
  0
DICTIONARYVAR
  5
789C
102
{ACAD_REACTORS
330
789B
102
}
330
789B
100
DictionaryVariables
280
     0
  1
96
  0
DICTIONARY
  5
A475
330
95D4
100
AcDbDictionary
280
     1
281
     1
  3
ACAD_XREC_ROUNDTRIP
360
A476
  0
DICTIONARY
  5
A477
330
95D5
100
AcDbDictionary
280
     1
281
     1
  3
ACAD_XREC_ROUNDTRIP
360
A478
  0
DICTIONARY
  5
A2E1
330
A2E0
100
AcDbDictionary
280
     1
281
     1
  3
ACAD_XREC_ROUNDTRIP
360
A47A
  3
BUMPTILE
360
A2E3
  3
DIFFUSETILE
360
A2E2
  3
OPACITYTILE
360
A2E6
  3
REFLECTIONTILE
360
A2E5
  3
REFRACTIONTILE
360
A2E7
  3
SPECULARTILE
360
A2E4
  0
DICTIONARY
  5
A2D9
330
A2D8
100
AcDbDictionary
280
     1
281
     1
  3
ACAD_XREC_ROUNDTRIP
360
A479
  3
BUMPTILE
360
A2DB
  3
DIFFUSETILE
360
A2DA
  3
OPACITYTILE
360
A2DE
  3
REFLECTIONTILE
360
A2DD
  3
REFRACTIONTILE
360
A2DF
  3
SPECULARTILE
360
A2DC
  0
DICTIONARY
  5
A2E9
330
A2E8
100
AcDbDictionary
280
     1
281
     1
  3
ACAD_XREC_ROUNDTRIP
360
A47B
  3
BUMPTILE
360
A2EB
  3
DIFFUSETILE
360
A2EA
  3
OPACITYTILE
360
A2EE
  3
REFLECTIONTILE
360
A2ED
  3
REFRACTIONTILE
360
A2EF
  3
SPECULARTILE
360
A2EC
  0
DICTIONARY
  5
A46F
330
A303
100
AcDbDictionary
280
     1
281
     1
  3
ACAD_ROUNDTRIP_2008_TABLESTYLE_CELLSTYLEMAP
360
A470
  3
ACAD_XREC_ROUNDTRIP
360
A47C
  0
XRECORD
  5
A476
102
{ACAD_REACTORS
330
A475
102
}
330
A475
100
AcDbXrecord
280
     1
102
SHADEPLOT
 70
     0
102
SHADEPLOTRESLEVEL
 70
     2
102
SHADEPLOTCUSTOMDPI
 70
   300
  0
XRECORD
  5
A478
102
{ACAD_REACTORS
330
A477
102
}
330
A477
100
AcDbXrecord
280
     1
102
SHADEPLOT
 70
     0
102
SHADEPLOTRESLEVEL
 70
     2
102
SHADEPLOTCUSTOMDPI
 70
   300
  0
XRECORD
  5
A47A
102
{ACAD_REACTORS
330
A2E1
102
}
330
A2E1
100
AcDbXrecord
280
     1
102
MATERIAL
148
0.0
149
0.0
149
0.0
 93
        0
 94
      127
282
     0
 72
     0
 77
     0
171
     0
175
     0
179
     0
273
     0
  0
XRECORD
  5
A2E3
102
{ACAD_REACTORS
330
A2E1
102
}
330
A2E1
100
AcDbXrecord
280
     1
270
     1
271
     1
  0
XRECORD
  5
A2E2
102
{ACAD_REACTORS
330
A2E1
102
}
330
A2E1
100
AcDbXrecord
280
     1
270
     1
271
     1
  0
XRECORD
  5
A2E6
102
{ACAD_REACTORS
330
A2E1
102
}
330
A2E1
100
AcDbXrecord
280
     1
270
     1
271
     1
  0
XRECORD
  5
A2E5
102
{ACAD_REACTORS
330
A2E1
102
}
330
A2E1
100
AcDbXrecord
280
     1
270
     1
271
     1
  0
XRECORD
  5
A2E7
102
{ACAD_REACTORS
330
A2E1
102
}
330
A2E1
100
AcDbXrecord
280
     1
270
     1
271
     1
  0
XRECORD
  5
A2E4
102
{ACAD_REACTORS
330
A2E1
102
}
330
A2E1
100
AcDbXrecord
280
     1
270
     1
271
     1
  0
XRECORD
  5
A479
102
{ACAD_REACTORS
330
A2D9
102
}
330
A2D9
100
AcDbXrecord
280
     1
102
MATERIAL
148
0.0
149
0.0
149
0.0
 93
        0
 94
      127
282
     0
 72
     0
 77
     0
171
     0
175
     0
179
     0
273
     0
  0
XRECORD
  5
A2DB
102
{ACAD_REACTORS
330
A2D9
102
}
330
A2D9
100
AcDbXrecord
280
     1
270
     1
271
     1
  0
XRECORD
  5
A2DA
102
{ACAD_REACTORS
330
A2D9
102
}
330
A2D9
100
AcDbXrecord
280
     1
270
     1
271
     1
  0
XRECORD
  5
A2DE
102
{ACAD_REACTORS
330
A2D9
102
}
330
A2D9
100
AcDbXrecord
280
     1
270
     1
271
     1
  0
XRECORD
  5
A2DD
102
{ACAD_REACTORS
330
A2D9
102
}
330
A2D9
100
AcDbXrecord
280
     1
270
     1
271
     1
  0
XRECORD
  5
A2DF
102
{ACAD_REACTORS
330
A2D9
102
}
330
A2D9
100
AcDbXrecord
280
     1
270
     1
271
     1
  0
XRECORD
  5
A2DC
102
{ACAD_REACTORS
330
A2D9
102
}
330
A2D9
100
AcDbXrecord
280
     1
270
     1
271
     1
  0
XRECORD
  5
A47B
102
{ACAD_REACTORS
330
A2E9
102
}
330
A2E9
100
AcDbXrecord
280
     1
102
MATERIAL
148
0.0
149
0.0
149
0.0
 93
        0
 94
      127
282
     0
 72
     0
 77
     0
171
     0
175
     0
179
     0
273
     0
  0
XRECORD
  5
A2EB
102
{ACAD_REACTORS
330
A2E9
102
}
330
A2E9
100
AcDbXrecord
280
     1
270
     1
271
     1
  0
XRECORD
  5
A2EA
102
{ACAD_REACTORS
330
A2E9
102
}
330
A2E9
100
AcDbXrecord
280
     1
270
     1
271
     1
  0
XRECORD
  5
A2EE
102
{ACAD_REACTORS
330
A2E9
102
}
330
A2E9
100
AcDbXrecord
280
     1
270
     1
271
     1
  0
XRECORD
  5
A2ED
102
{ACAD_REACTORS
330
A2E9
102
}
330
A2E9
100
AcDbXrecord
280
     1
270
     1
271
     1
  0
XRECORD
  5
A2EF
102
{ACAD_REACTORS
330
A2E9
102
}
330
A2E9
100
AcDbXrecord
280
     1
270
     1
271
     1
  0
XRECORD
  5
A2EC
102
{ACAD_REACTORS
330
A2E9
102
}
330
A2E9
100
AcDbXrecord
280
     1
270
     1
271
     1
  0
CELLSTYLEMAP
  5
A470
102
{ACAD_REACTORS
330
A46F
102
}
330
A46F
100
AcDbCellStyleMap
 90
        3
300
CELLSTYLE
  1
TABLEFORMAT_BEGIN
 90
        5
170
     1
 91
        0
 92
    32768
 62
   257
 93
        1
300
CONTENTFORMAT
  1
CONTENTFORMAT_BEGIN
 90
        0
 91
        0
 92
      512
 93
        0
300

 40
0.0
140
1.0
 94
        5
 62
     0
340
7475
144
6.0
309
CONTENTFORMAT_END
171
     1
301
MARGIN
  1
CELLMARGIN_BEGIN
 40
1.5
 40
1.5
 40
1.5
 40
1.5
 40
4.5
 40
4.5
309
CELLMARGIN_END
 94
        6
 95
        1
302
GRIDFORMAT
  1
GRIDFORMAT_BEGIN
 90
        0
 91
        1
 62
     0
 92
       -2
340
0
 93
        0
 40
1.125
309
GRIDFORMAT_END
 95
        2
302
GRIDFORMAT
  1
GRIDFORMAT_BEGIN
 90
        0
 91
        1
 62
     0
 92
       -2
340
0
 93
        0
 40
1.125
309
GRIDFORMAT_END
 95
        4
302
GRIDFORMAT
  1
GRIDFORMAT_BEGIN
 90
        0
 91
        1
 62
     0
 92
       -2
340
0
 93
        0
 40
1.125
309
GRIDFORMAT_END
 95
        8
302
GRIDFORMAT
  1
GRIDFORMAT_BEGIN
 90
        0
 91
        1
 62
     0
 92
       -2
340
0
 93
        0
 40
1.125
309
GRIDFORMAT_END
 95
       16
302
GRIDFORMAT
  1
GRIDFORMAT_BEGIN
 90
        0
 91
        1
 62
     0
 92
       -2
340
0
 93
        0
 40
1.125
309
GRIDFORMAT_END
 95
       32
302
GRIDFORMAT
  1
GRIDFORMAT_BEGIN
 90
        0
 91
        1
 62
     0
 92
       -2
340
0
 93
        0
 40
1.125
309
GRIDFORMAT_END
309
TABLEFORMAT_END
  1
CELLSTYLE_BEGIN
 90
        1
 91
        1
300
_TITLE
309
CELLSTYLE_END
300
CELLSTYLE
  1
TABLEFORMAT_BEGIN
 90
        5
170
     1
 91
        0
 92
        0
 62
   257
 93
        1
300
CONTENTFORMAT
  1
CONTENTFORMAT_BEGIN
 90
        0
 91
        0
 92
      512
 93
        0
300

 40
0.0
140
1.0
 94
        5
 62
     0
340
7475
144
4.5
309
CONTENTFORMAT_END
171
     1
301
MARGIN
  1
CELLMARGIN_BEGIN
 40
1.5
 40
1.5
 40
1.5
 40
1.5
 40
4.5
 40
4.5
309
CELLMARGIN_END
 94
        6
 95
        1
302
GRIDFORMAT
  1
GRIDFORMAT_BEGIN
 90
        0
 91
        1
 62
     0
 92
       -2
340
0
 93
        0
 40
1.125
309
GRIDFORMAT_END
 95
        2
302
GRIDFORMAT
  1
GRIDFORMAT_BEGIN
 90
        0
 91
        1
 62
     0
 92
       -2
340
0
 93
        0
 40
1.125
309
GRIDFORMAT_END
 95
        4
302
GRIDFORMAT
  1
GRIDFORMAT_BEGIN
 90
        0
 91
        1
 62
     0
 92
       -2
340
0
 93
        0
 40
1.125
309
GRIDFORMAT_END
 95
        8
302
GRIDFORMAT
  1
GRIDFORMAT_BEGIN
 90
        0
 91
        1
 62
     0
 92
       -2
340
0
 93
        0
 40
1.125
309
GRIDFORMAT_END
 95
       16
302
GRIDFORMAT
  1
GRIDFORMAT_BEGIN
 90
        0
 91
        1
 62
     0
 92
       -2
340
0
 93
        0
 40
1.125
309
GRIDFORMAT_END
 95
       32
302
GRIDFORMAT
  1
GRIDFORMAT_BEGIN
 90
        0
 91
        1
 62
     0
 92
       -2
340
0
 93
        0
 40
1.125
309
GRIDFORMAT_END
309
TABLEFORMAT_END
  1
CELLSTYLE_BEGIN
 90
        2
 91
        1
300
_HEADER
309
CELLSTYLE_END
300
CELLSTYLE
  1
TABLEFORMAT_BEGIN
 90
        5
170
     1
 91
        0
 92
        0
 62
   257
 93
        1
300
CONTENTFORMAT
  1
CONTENTFORMAT_BEGIN
 90
        0
 91
        0
 92
      512
 93
        0
300

 40
0.0
140
1.0
 94
        2
 62
     0
340
7475
144
4.5
309
CONTENTFORMAT_END
171
     1
301
MARGIN
  1
CELLMARGIN_BEGIN
 40
1.5
 40
1.5
 40
1.5
 40
1.5
 40
4.5
 40
4.5
309
CELLMARGIN_END
 94
        6
 95
        1
302
GRIDFORMAT
  1
GRIDFORMAT_BEGIN
 90
        0
 91
        1
 62
     0
 92
       -2
340
0
 93
        0
 40
1.125
309
GRIDFORMAT_END
 95
        2
302
GRIDFORMAT
  1
GRIDFORMAT_BEGIN
 90
        0
 91
        1
 62
     0
 92
       -2
340
0
 93
        0
 40
1.125
309
GRIDFORMAT_END
 95
        4
302
GRIDFORMAT
  1
GRIDFORMAT_BEGIN
 90
        0
 91
        1
 62
     0
 92
       -2
340
0
 93
        0
 40
1.125
309
GRIDFORMAT_END
 95
        8
302
GRIDFORMAT
  1
GRIDFORMAT_BEGIN
 90
        0
 91
        1
 62
     0
 92
       -2
340
0
 93
        0
 40
1.125
309
GRIDFORMAT_END
 95
       16
302
GRIDFORMAT
  1
GRIDFORMAT_BEGIN
 90
        0
 91
        1
 62
     0
 92
       -2
340
0
 93
        0
 40
1.125
309
GRIDFORMAT_END
 95
       32
302
GRIDFORMAT
  1
GRIDFORMAT_BEGIN
 90
        0
 91
        1
 62
     0
 92
       -2
340
0
 93
        0
 40
1.125
309
GRIDFORMAT_END
309
TABLEFORMAT_END
  1
CELLSTYLE_BEGIN
 90
        3
 91
        2
300
_DATA
309
CELLSTYLE_END
  0
XRECORD
  5
A47C
102
{ACAD_REACTORS
330
A46F
102
}
330
A46F
100
AcDbXrecord
280
     1
102
ACAD_ROUNDTRIP_PRE2007_TABLESTYLE
 90
      512
 91
        0
  1

 92
      512
 93
        0
  2

 94
      512
 95
        0
  3

  0
ENDSEC
  0
EOF
