  0
SECTION
  2
HEADER
  9
$ACADVER
  1
AC1015
  9
$ACADMAINTVER
 70
    20
  9
$DWGCODEPAGE
  3
ANSI_932
  9
$INSBASE
 10
0.0
 20
0.0
 30
0.0
  9
$EXTMIN
 10
-0.6074626561239711
 20
-0.1922588951565558
 30
-0.0000000000000011
  9
$EXTMAX
 10
4455.607064835196
 20
3150.192274324331
 30
0.0000000000000141
  9
$LIMMIN
 10
0.0
 20
0.0
  9
$LIMMAX
 10
420.0
 20
297.0
  9
$ORTHOMODE
 70
     1
  9
$REGENMODE
 70
     1
  9
$FILLMODE
 70
     1
  9
$QTEXTMODE
 70
     0
  9
$MIRRTEXT
 70
     1
  9
$LTSCALE
 40
0.5
  9
$ATTMODE
 70
     1
  9
$TEXTSIZE
 40
2.799999999999999
  9
$TRACEWID
 40
1.0
  9
$TEXTSTYLE
  7
SANWA
  9
$CLAYER
  8
0
  9
$CELTYPE
  6
BYLAYER
  9
$CECOLOR
 62
   256
  9
$CELTSCALE
 40
15.0
  9
$DISPSILH
 70
     0
  9
$DIMSCALE
 40
15.0
  9
$DIMASZ
 40
1.5
  9
$DIMEXO
 40
1.0
  9
$DIMDLI
 40
5.0
  9
$DIMRND
 40
0.0
  9
$DIMDLE
 40
0.0
  9
$DIMEXE
 40
0.5
  9
$DIMTP
 40
0.0
  9
$DIMTM
 40
0.0
  9
$DIMTXT
 40
2.0
  9
$DIMCEN
 40
0.0
  9
$DIMTSZ
 40
0.0
  9
$DIMTOL
 70
     0
  9
$DIMLIM
 70
     0
  9
$DIMTIH
 70
     0
  9
$DIMTOH
 70
     0
  9
$DIMSE1
 70
     0
  9
$DIMSE2
 70
     0
  9
$DIMTAD
 70
     1
  9
$DIMZIN
 70
     8
  9
$DIMBLK
  1

  9
$DIMASO
 70
     1
  9
$DIMSHO
 70
     1
  9
$DIMPOST
  1

  9
$DIMAPOST
  1

  9
$DIMALT
 70
     0
  9
$DIMALTD
 70
     2
  9
$DIMALTF
 40
0.0394
  9
$DIMLFAC
 40
1.0
  9
$DIMTOFL
 70
     1
  9
$DIMTVP
 40
0.0
  9
$DIMTIX
 70
     1
  9
$DIMSOXD
 70
     0
  9
$DIMSAH
 70
     0
  9
$DIMBLK1
  1

  9
$DIMBLK2
  1

  9
$DIMSTYLE
  2
SANWA
  9
$DIMCLRD
 70
   256
  9
$DIMCLRE
 70
   256
  9
$DIMCLRT
 70
   256
  9
$DIMTFAC
 40
1.0
  9
$DIMGAP
 40
1.0
  9
$DIMJUST
 70
     0
  9
$DIMSD1
 70
     0
  9
$DIMSD2
 70
     0
  9
$DIMTOLJ
 70
     1
  9
$DIMTZIN
 70
     0
  9
$DIMALTZ
 70
     0
  9
$DIMALTTZ
 70
     0
  9
$DIMUPT
 70
     0
  9
$DIMDEC
 70
     4
  9
$DIMTDEC
 70
     4
  9
$DIMALTU
 70
     2
  9
$DIMALTTD
 70
     2
  9
$DIMTXSTY
  7
SANWA
  9
$DIMAUNIT
 70
     0
  9
$DIMADEC
 70
     0
  9
$DIMALTRND
 40
0.0
  9
$DIMAZIN
 70
     0
  9
$DIMDSEP
 70
    46
  9
$DIMATFIT
 70
     3
  9
$DIMFRAC
 70
     0
  9
$DIMLDRBLK
  1

  9
$DIMLUNIT
 70
     2
  9
$DIMLWD
 70
    -2
  9
$DIMLWE
 70
    -2
  9
$DIMTMOVE
 70
     0
  9
$LUNITS
 70
     2
  9
$LUPREC
 70
     4
  9
$SKETCHINC
 40
1.0
  9
$FILLETRAD
 40
10.0
  9
$AUNITS
 70
     0
  9
$AUPREC
 70
     0
  9
$MENU
  1
acad
  9
$ELEVATION
 40
0.0
  9
$PELEVATION
 40
0.0
  9
$THICKNESS
 40
0.0
  9
$LIMCHECK
 70
     0
  9
$CHAMFERA
 40
0.0
  9
$CHAMFERB
 40
0.0
  9
$CHAMFERC
 40
0.0
  9
$CHAMFERD
 40
0.0
  9
$SKPOLY
 70
     1
  9
$TDCREATE
 40
2451867.374500231
  9
$TDUCREATE
 40
2451866.999500232
  9
$TDUPDATE
 40
2455412.622969954
  9
$TDUUPDATE
 40
2455412.247969954
  9
$TDINDWG
 40
0.3689346991
  9
$TDUSRTIMER
 40
0.3689346991
  9
$USRTIMER
 70
     1
  9
$ANGBASE
 50
0.0
  9
$ANGDIR
 70
     0
  9
$PDMODE
 70
     0
  9
$PDSIZE
 40
0.0
  9
$PLINEWID
 40
0.0
  9
$SPLFRAME
 70
     0
  9
$SPLINETYPE
 70
     6
  9
$SPLINESEGS
 70
     8
  9
$HANDSEED
  5
A128
  9
$SURFTAB1
 70
     6
  9
$SURFTAB2
 70
     6
  9
$SURFTYPE
 70
     6
  9
$SURFU
 70
     6
  9
$SURFV
 70
     6
  9
$UCSBASE
  2

  9
$UCSNAME
  2

  9
$UCSORG
 10
0.0
 20
0.0
 30
0.0
  9
$UCSXDIR
 10
1.0
 20
0.0
 30
0.0
  9
$UCSYDIR
 10
0.0
 20
1.0
 30
0.0
  9
$UCSORTHOREF
  2

  9
$UCSORTHOVIEW
 70
     0
  9
$UCSORGTOP
 10
0.0
 20
0.0
 30
0.0
  9
$UCSORGBOTTOM
 10
0.0
 20
0.0
 30
0.0
  9
$UCSORGLEFT
 10
0.0
 20
0.0
 30
0.0
  9
$UCSORGRIGHT
 10
0.0
 20
0.0
 30
0.0
  9
$UCSORGFRONT
 10
0.0
 20
0.0
 30
0.0
  9
$UCSORGBACK
 10
0.0
 20
0.0
 30
0.0
  9
$PUCSBASE
  2

  9
$PUCSNAME
  2

  9
$PUCSORG
 10
0.0
 20
0.0
 30
0.0
  9
$PUCSXDIR
 10
1.0
 20
0.0
 30
0.0
  9
$PUCSYDIR
 10
0.0
 20
1.0
 30
0.0
  9
$PUCSORTHOREF
  2

  9
$PUCSORTHOVIEW
 70
     0
  9
$PUCSORGTOP
 10
0.0
 20
0.0
 30
0.0
  9
$PUCSORGBOTTOM
 10
0.0
 20
0.0
 30
0.0
  9
$PUCSORGLEFT
 10
0.0
 20
0.0
 30
0.0
  9
$PUCSORGRIGHT
 10
0.0
 20
0.0
 30
0.0
  9
$PUCSORGFRONT
 10
0.0
 20
0.0
 30
0.0
  9
$PUCSORGBACK
 10
0.0
 20
0.0
 30
0.0
  9
$USERI1
 70
     0
  9
$USERI2
 70
     0
  9
$USERI3
 70
     0
  9
$USERI4
 70
     0
  9
$USERI5
 70
     0
  9
$USERR1
 40
0.0
  9
$USERR2
 40
0.0
  9
$USERR3
 40
0.0
  9
$USERR4
 40
0.0
  9
$USERR5
 40
0.0
  9
$WORLDVIEW
 70
     1
  9
$SHADEDGE
 70
     3
  9
$SHADEDIF
 70
    70
  9
$TILEMODE
 70
     1
  9
$MAXACTVP
 70
    48
  9
$PINSBASE
 10
0.0
 20
0.0
 30
0.0
  9
$PLIMCHECK
 70
     0
  9
$PEXTMIN
 10
1.000000000000000E+20
 20
1.000000000000000E+20
 30
1.000000000000000E+20
  9
$PEXTMAX
 10
-1.000000000000000E+20
 20
-1.000000000000000E+20
 30
-1.000000000000000E+20
  9
$PLIMMIN
 10
-837.5837957743756
 20
-1986.444259789233
  9
$PLIMMAX
 10
9488.986724739666
 20
5315.237826378182
  9
$UNITMODE
 70
     0
  9
$VISRETAIN
 70
     1
  9
$PLINEGEN
 70
     0
  9
$PSLTSCALE
 70
     1
  9
$TREEDEPTH
 70
  3020
  9
$CMLSTYLE
  2
STANDARD
  9
$CMLJUST
 70
     0
  9
$CMLSCALE
 40
1.0
  9
$PROXYGRAPHICS
 70
     1
  9
$MEASUREMENT
 70
     1
  9
$CELWEIGHT
370
    -1
  9
$ENDCAPS
280
     0
  9
$JOINSTYLE
280
     0
  9
$LWDISPLAY
290
     0
  9
$INSUNITS
 70
     0
  9
$HYPERLINKBASE
  1

  9
$STYLESHEET
  1
sanwa3.ctb
  9
$XEDIT
290
     1
  9
$CEPSNTYPE
380
     0
  9
$PSTYLEMODE
290
     1
  9
$FINGERPRINTGUID
  2
{01413F05-A104-4BB0-828A-40A88C4A43C8}
  9
$VERSIONGUID
  2
{E2F248DD-6DF1-45E8-9B78-024ACD4C9E52}
  9
$EXTNAMES
290
     1
  9
$PSVPSCALE
 40
0.0
  9
$OLESTARTUP
290
     0
  0
ENDSEC
  0
SECTION
  2
CLASSES
  0
CLASS
  1
DICTIONARYVAR
  2
AcDbDictionaryVar
  3
ObjectDBX Classes
 90
        0
280
     0
281
     0
  0
CLASS
  1
ACDBDICTIONARYWDFLT
  2
AcDbDictionaryWithDefault
  3
ObjectDBX Classes
 90
        0
280
     0
281
     0
  0
CLASS
  1
ACDBPLACEHOLDER
  2
AcDbPlaceHolder
  3
ObjectDBX Classes
 90
        0
280
     0
281
     0
  0
CLASS
  1
LAYOUT
  2
AcDbLayout
  3
ObjectDBX Classes
 90
        0
280
     0
281
     0
  0
CLASS
  1
MATERIAL
  2
AcDbMaterial
  3
ObjectDBX Classes
 90
     1153
280
     0
281
     0
  0
CLASS
  1
VISUALSTYLE
  2
AcDbVisualStyle
  3
ObjectDBX Classes
 90
     4095
280
     0
281
     0
  0
CLASS
  1
TABLESTYLE
  2
AcDbTableStyle
  3
ObjectDBX Classes
 90
     4095
280
     0
281
     0
  0
CLASS
  1
SCALE
  2
AcDbScale
  3
ObjectDBX Classes
 90
     1153
280
     0
281
     0
  0
CLASS
  1
MLEADERSTYLE
  2
AcDbMLeaderStyle
  3
ACDB_MLEADERSTYLE_CLASS
 90
     4095
280
     0
281
     0
  0
CLASS
  1
CELLSTYLEMAP
  2
AcDbCellStyleMap
  3
ObjectDBX Classes
 90
     1152
280
     0
281
     0
  0
ENDSEC
  0
SECTION
  2
TABLES
  0
TABLE
  2
VPORT
  5
746D
330
0
100
AcDbSymbolTable
 70
     1
  0
VPORT
  5
9EEA
330
746D
100
AcDbSymbolTableRecord
100
AcDbViewportTableRecord
  2
*Active
 70
     0
 10
0.0
 20
0.0
 11
1.0
 21
1.0
 12
2227.499803476836
 22
1574.999993496898
 13
0.0
 23
0.0
 14
10.0
 24
10.0
 15
10.0
 25
10.0
 16
0.0
 26
0.0
 36
1.0
 17
0.0
 27
0.0
 37
0.0
 40
3905.098558643905
 41
1.353070175438596
 42
50.0
 43
0.0
 44
0.0
 50
0.0
 51
0.0
 71
     0
 72
   100
 73
     1
 74
     0
 75
     0
 76
     0
 77
     0
 78
     0
281
     0
 65
     1
110
0.0
120
0.0
130
0.0
111
1.0
121
0.0
131
0.0
112
0.0
122
1.0
132
0.0
 79
     0
146
0.0
  0
ENDTAB
  0
TABLE
  2
LTYPE
  5
746A
330
0
100
AcDbSymbolTable
 70
     5
  0
LTYPE
  5
7477
330
746A
100
AcDbSymbolTableRecord
100
AcDbLinetypeTableRecord
  2
BYBLOCK
 70
     0
  3

 72
    65
 73
     0
 40
0.0
  0
LTYPE
  5
7478
330
746A
100
AcDbSymbolTableRecord
100
AcDbLinetypeTableRecord
  2
BYLAYER
 70
     0
  3

 72
    65
 73
     0
 40
0.0
  0
LTYPE
  5
7479
330
746A
100
AcDbSymbolTableRecord
100
AcDbLinetypeTableRecord
  2
CONTINUOUS
 70
     0
  3
Solid line
 72
    65
 73
     0
 40
0.0
  0
LTYPE
  5
7D54
330
746A
100
AcDbSymbolTableRecord
100
AcDbLinetypeTableRecord
  2
CENTER2
 70
     0
  3
Center (.5x) ___ _ ___ _ ___ _ ___ _ ___ _ ___
 72
    65
 73
     4
 40
28.575
 49
19.05
 74
     0
 49
-3.174999999999999
 74
     0
 49
3.174999999999999
 74
     0
 49
-3.174999999999999
 74
     0
  0
LTYPE
  5
7D55
330
746A
100
AcDbSymbolTableRecord
100
AcDbLinetypeTableRecord
  2
DOT
 70
     0
  3
Dot . . . . . . . . . . . . . . . . . . . . . .
 72
    65
 73
     2
 40
6.349999999999999
 49
0.0
 74
     0
 49
-6.349999999999999
 74
     0
  0
LTYPE
  5
7D56
330
746A
100
AcDbSymbolTableRecord
100
AcDbLinetypeTableRecord
  2
HIDDEN2
 70
     0
  3
Hidden (.5x) _ _ _ _ _ _ _ _ _ _ _ _ _ _ _ _ _
 72
    65
 73
     2
 40
4.762499999999999
 49
3.174999999999999
 74
     0
 49
-1.587499999999999
 74
     0
  0
LTYPE
  5
7D57
330
746A
100
AcDbSymbolTableRecord
100
AcDbLinetypeTableRecord
  2
PHANTOM2
 70
     0
  3
Phantom (.5x) ___ _ _ ___ _ _ ___ _ _ ___ _ _
 72
    65
 73
     6
 40
31.75
 49
15.875
 74
     0
 49
-3.174999999999999
 74
     0
 49
3.174999999999999
 74
     0
 49
-3.174999999999999
 74
     0
 49
3.174999999999999
 74
     0
 49
-3.174999999999999
 74
     0
  0
ENDTAB
  0
TABLE
  2
LAYER
  5
7467
330
0
100
AcDbSymbolTable
 70
     7
  0
LAYER
  5
7474
102
{ACAD_XDICTIONARY
360
A101
102
}
330
7467
100
AcDbSymbolTableRecord
100
AcDbLayerTableRecord
  2
0
 70
     0
 62
     7
  6
CONTINUOUS
370
    -3
390
8B8A
  0
LAYER
  5
7485
330
7467
100
AcDbSymbolTableRecord
100
AcDbLayerTableRecord
  2
DEFPOINTS
 70
     0
 62
     7
  6
CONTINUOUS
290
     0
370
    -3
390
8B8A
  0
LAYER
  5
7486
102
{ACAD_XDICTIONARY
360
A103
102
}
330
7467
100
AcDbSymbolTableRecord
100
AcDbLayerTableRecord
  2
OBJECT
 70
     0
 62
     7
  6
CONTINUOUS
370
    -3
390
8B8A
  0
LAYER
  5
7950
102
{ACAD_XDICTIONARY
360
A105
102
}
330
7467
100
AcDbSymbolTableRecord
100
AcDbLayerTableRecord
  2
枠
 70
     0
 62
     3
  6
CONTINUOUS
370
    -3
390
8B8A
  0
LAYER
  5
7D58
102
{ACAD_XDICTIONARY
360
A107
102
}
330
7467
100
AcDbSymbolTableRecord
100
AcDbLayerTableRecord
  2
寸法引出
 70
     0
 62
     2
  6
CONTINUOUS
370
    -3
390
8B8A
  0
LAYER
  5
7D59
102
{ACAD_XDICTIONARY
360
A109
102
}
330
7467
100
AcDbSymbolTableRecord
100
AcDbLayerTableRecord
  2
鉄筋
 70
     0
 62
     4
  6
CONTINUOUS
370
    -3
390
8B8A
  0
LAYER
  5
7D5A
102
{ACAD_XDICTIONARY
360
A10B
102
}
330
7467
100
AcDbSymbolTableRecord
100
AcDbLayerTableRecord
  2
補助線
 70
     0
 62
     6
  6
CONTINUOUS
370
    -3
390
8B8A
  0
ENDTAB
  0
TABLE
  2
STYLE
  5
7468
330
0
100
AcDbSymbolTable
 70
     5
  0
STYLE
  5
7475
330
7468
100
AcDbSymbolTableRecord
100
AcDbTextStyleTableRecord
  2
STANDARD
 70
     0
 40
0.0
 41
1.0
 50
0.0
 71
     0
 42
3.5
  3
txt
  4

  0
STYLE
  5
7481
330
7468
100
AcDbSymbolTableRecord
100
AcDbTextStyleTableRecord
  2
ADESK1
 70
     0
 40
0.0
 41
1.0
 50
0.0
 71
     0
 42
5.0
  3
romans
  4
bigfont
  0
STYLE
  5
7731
330
7468
100
AcDbSymbolTableRecord
100
AcDbTextStyleTableRecord
  2
SANWA
 70
     0
 40
0.0
 41
1.0
 50
0.0
 71
     0
 42
2.799999999999999
  3
MS Mincho.ttf
  4

1001
ACAD
1000
MS Mincho
1071
    32785
  0
STYLE
  5
7D45
330
7468
100
AcDbSymbolTableRecord
100
AcDbTextStyleTableRecord
  2

 70
     1
 40
0.0
 41
1.0
 50
0.0
 71
     0
 42
3.5
  3
ltypeshp.shx
  4

  0
ENDTAB
  0
TABLE
  2
VIEW
  5
746B
330
0
100
AcDbSymbolTable
 70
     0
  0
ENDTAB
  0
TABLE
  2
UCS
  5
746C
330
0
100
AcDbSymbolTable
 70
     0
  0
ENDTAB
  0
TABLE
  2
APPID
  5
746E
330
0
100
AcDbSymbolTable
 70
     3
  0
APPID
  5
7476
330
746E
100
AcDbSymbolTableRecord
100
AcDbRegAppTableRecord
  2
ACAD
 70
     0
  0
APPID
  5
9F3D
330
746E
100
AcDbSymbolTableRecord
100
AcDbRegAppTableRecord
  2
ACAD_MLEADERVER
 70
     0
  0
APPID
  5
A115
330
746E
100
AcDbSymbolTableRecord
100
AcDbRegAppTableRecord
  2
ACAD_PSEXT
 70
     0
  0
ENDTAB
  0
TABLE
  2
DIMSTYLE
  5
746F
330
0
100
AcDbSymbolTable
 70
     5
100
AcDbDimStyleTable
 71
     1
340
796F
  0
DIMSTYLE
105
7484
330
746F
100
AcDbSymbolTableRecord
100
AcDbDimStyleTableRecord
  2
JIS
 70
     0
 41
2.5
 42
1.0
 43
7.0
 44
1.0
 73
     0
 74
     0
 77
     1
 78
     8
140
2.5
141
0.0
143
0.0394
147
0.0
172
     1
174
     1
176
     2
177
     2
178
     2
340
7731
  0
DIMSTYLE
105
796F
102
{ACAD_REACTORS
330
930C
330
930D
330
9314
330
9315
330
9321
330
9324
330
9331
330
9332
330
9333
330
9334
330
9335
330
9336
330
933A
330
9359
330
93A2
330
93A3
330
93A4
330
93AA
330
93B0
330
93BA
330
93BD
330
93BF
330
93C0
330
93C5
330
93C8
330
93C9
330
93CD
330
93D9
330
93DA
330
93F8
330
940C
330
9429
330
942B
330
9432
330
9448
330
945D
330
9475
330
9477
330
947D
330
947E
330
947F
330
9480
330
9481
330
9482
330
9484
330
9495
330
94A8
102
}
330
746F
100
AcDbSymbolTableRecord
100
AcDbDimStyleTableRecord
  2
SANWA
 70
     0
 41
2.5
 42
1.0
 43
7.0
 44
1.0
 73
     0
 74
     0
 77
     1
 78
     8
140
2.5
141
0.0
143
0.0394
147
0.0
172
     1
174
     1
176
     2
177
     2
178
     2
340
7731
  0
DIMSTYLE
105
7C9D
330
746F
100
AcDbSymbolTableRecord
100
AcDbDimStyleTableRecord
  2
SANWA$4
 70
     0
 41
2.5
 42
1.0
 43
5.0
 44
1.0
 73
     0
 74
     0
 77
     1
 78
     8
140
2.5
141
0.0
143
0.0394
147
1.0
172
     1
174
     1
176
     2
177
     2
178
     2
289
     2
340
7731
  0
DIMSTYLE
105
7CB5
330
746F
100
AcDbSymbolTableRecord
100
AcDbDimStyleTableRecord
  2
SANWA$3
 70
     0
 41
2.5
 42
1.0
 43
7.0
 44
1.0
 73
     0
 74
     0
 77
     1
 78
     8
140
2.5
141
0.0
143
0.0394
147
0.0
172
     1
174
     1
176
     2
177
     2
178
     2
289
     0
340
7731
  0
ENDTAB
  0
TABLE
  2
BLOCK_RECORD
  5
7466
330
0
100
AcDbSymbolTable
 70
   215
  0
BLOCK_RECORD
  5
747D
330
7466
100
AcDbSymbolTableRecord
100
AcDbBlockTableRecord
  2
*MODEL_SPACE
340
8B8D
  0
BLOCK_RECORD
  5
747A
330
7466
100
AcDbSymbolTableRecord
100
AcDbBlockTableRecord
  2
*PAPER_SPACE
340
8B8E
  0
BLOCK_RECORD
  5
7493
330
7466
100
AcDbSymbolTableRecord
100
AcDbBlockTableRecord
  2
TITLE_BLOCK
340
0
  0
BLOCK_RECORD
  5
95FA
330
7466
100
AcDbSymbolTableRecord
100
AcDbBlockTableRecord
  2
*D143
340
0
  0
BLOCK_RECORD
  5
9606
330
7466
100
AcDbSymbolTableRecord
100
AcDbBlockTableRecord
  2
*D144
340
0
  0
BLOCK_RECORD
  5
9611
330
7466
100
AcDbSymbolTableRecord
100
AcDbBlockTableRecord
  2
*D145
340
0
  0
BLOCK_RECORD
  5
961D
330
7466
100
AcDbSymbolTableRecord
100
AcDbBlockTableRecord
  2
*D146
340
0
  0
BLOCK_RECORD
  5
9628
330
7466
100
AcDbSymbolTableRecord
100
AcDbBlockTableRecord
  2
*D147
340
0
  0
BLOCK_RECORD
  5
9634
330
7466
100
AcDbSymbolTableRecord
100
AcDbBlockTableRecord
  2
*D148
340
0
  0
BLOCK_RECORD
  5
9640
330
7466
100
AcDbSymbolTableRecord
100
AcDbBlockTableRecord
  2
*D149
340
0
  0
BLOCK_RECORD
  5
964C
330
7466
100
AcDbSymbolTableRecord
100
AcDbBlockTableRecord
  2
*D150
340
0
  0
BLOCK_RECORD
  5
965A
330
7466
100
AcDbSymbolTableRecord
100
AcDbBlockTableRecord
  2
*D151
340
0
  0
BLOCK_RECORD
  5
9667
330
7466
100
AcDbSymbolTableRecord
100
AcDbBlockTableRecord
  2
*D152
340
0
  0
BLOCK_RECORD
  5
9674
330
7466
100
AcDbSymbolTableRecord
100
AcDbBlockTableRecord
  2
*D153
340
0
  0
BLOCK_RECORD
  5
9682
330
7466
100
AcDbSymbolTableRecord
100
AcDbBlockTableRecord
  2
*D154
340
0
  0
BLOCK_RECORD
  5
9690
330
7466
100
AcDbSymbolTableRecord
100
AcDbBlockTableRecord
  2
*D155
340
0
  0
BLOCK_RECORD
  5
969C
330
7466
100
AcDbSymbolTableRecord
100
AcDbBlockTableRecord
  2
*D156
340
0
  0
BLOCK_RECORD
  5
96A8
330
7466
100
AcDbSymbolTableRecord
100
AcDbBlockTableRecord
  2
*D157
340
0
  0
BLOCK_RECORD
  5
96B3
330
7466
100
AcDbSymbolTableRecord
100
AcDbBlockTableRecord
  2
*D158
340
0
  0
BLOCK_RECORD
  5
96BF
330
7466
100
AcDbSymbolTableRecord
100
AcDbBlockTableRecord
  2
*D159
340
0
  0
BLOCK_RECORD
  5
96CA
330
7466
100
AcDbSymbolTableRecord
100
AcDbBlockTableRecord
  2
*D160
340
0
  0
BLOCK_RECORD
  5
96D6
330
7466
100
AcDbSymbolTableRecord
100
AcDbBlockTableRecord
  2
*D161
340
0
  0
BLOCK_RECORD
  5
96E2
330
7466
100
AcDbSymbolTableRecord
100
AcDbBlockTableRecord
  2
*D162
340
0
  0
BLOCK_RECORD
  5
96EE
330
7466
100
AcDbSymbolTableRecord
100
AcDbBlockTableRecord
  2
*D163
340
0
  0
BLOCK_RECORD
  5
96FC
330
7466
100
AcDbSymbolTableRecord
100
AcDbBlockTableRecord
  2
*D164
340
0
  0
BLOCK_RECORD
  5
970A
330
7466
100
AcDbSymbolTableRecord
100
AcDbBlockTableRecord
  2
*D165
340
0
  0
BLOCK_RECORD
  5
9715
330
7466
100
AcDbSymbolTableRecord
100
AcDbBlockTableRecord
  2
*D166
340
0
  0
BLOCK_RECORD
  5
9721
330
7466
100
AcDbSymbolTableRecord
100
AcDbBlockTableRecord
  2
*D167
340
0
  0
BLOCK_RECORD
  5
972C
330
7466
100
AcDbSymbolTableRecord
100
AcDbBlockTableRecord
  2
*D168
340
0
  0
BLOCK_RECORD
  5
973A
330
7466
100
AcDbSymbolTableRecord
100
AcDbBlockTableRecord
  2
*D169
340
0
  0
BLOCK_RECORD
  5
9745
330
7466
100
AcDbSymbolTableRecord
100
AcDbBlockTableRecord
  2
*D170
340
0
  0
BLOCK_RECORD
  5
9751
330
7466
100
AcDbSymbolTableRecord
100
AcDbBlockTableRecord
  2
*D171
340
0
  0
BLOCK_RECORD
  5
975F
330
7466
100
AcDbSymbolTableRecord
100
AcDbBlockTableRecord
  2
*D172
340
0
  0
BLOCK_RECORD
  5
976A
330
7466
100
AcDbSymbolTableRecord
100
AcDbBlockTableRecord
  2
*D173
340
0
  0
BLOCK_RECORD
  5
9777
330
7466
100
AcDbSymbolTableRecord
100
AcDbBlockTableRecord
  2
*D174
340
0
  0
BLOCK_RECORD
  5
9783
330
7466
100
AcDbSymbolTableRecord
100
AcDbBlockTableRecord
  2
*D175
340
0
  0
BLOCK_RECORD
  5
978F
330
7466
100
AcDbSymbolTableRecord
100
AcDbBlockTableRecord
  2
*D176
340
0
  0
BLOCK_RECORD
  5
979D
330
7466
100
AcDbSymbolTableRecord
100
AcDbBlockTableRecord
  2
*D177
340
0
  0
BLOCK_RECORD
  5
97A9
330
7466
100
AcDbSymbolTableRecord
100
AcDbBlockTableRecord
  2
*D178
340
0
  0
BLOCK_RECORD
  5
97B6
330
7466
100
AcDbSymbolTableRecord
100
AcDbBlockTableRecord
  2
*D179
340
0
  0
BLOCK_RECORD
  5
97C2
330
7466
100
AcDbSymbolTableRecord
100
AcDbBlockTableRecord
  2
*D180
340
0
  0
BLOCK_RECORD
  5
97D0
330
7466
100
AcDbSymbolTableRecord
100
AcDbBlockTableRecord
  2
*D181
340
0
  0
BLOCK_RECORD
  5
97DE
330
7466
100
AcDbSymbolTableRecord
100
AcDbBlockTableRecord
  2
*D182
340
0
  0
BLOCK_RECORD
  5
97EC
330
7466
100
AcDbSymbolTableRecord
100
AcDbBlockTableRecord
  2
*D183
340
0
  0
BLOCK_RECORD
  5
97FA
330
7466
100
AcDbSymbolTableRecord
100
AcDbBlockTableRecord
  2
*D184
340
0
  0
BLOCK_RECORD
  5
9807
330
7466
100
AcDbSymbolTableRecord
100
AcDbBlockTableRecord
  2
*D185
340
0
  0
BLOCK_RECORD
  5
9814
330
7466
100
AcDbSymbolTableRecord
100
AcDbBlockTableRecord
  2
*D186
340
0
  0
BLOCK_RECORD
  5
9822
330
7466
100
AcDbSymbolTableRecord
100
AcDbBlockTableRecord
  2
*D187
340
0
  0
BLOCK_RECORD
  5
982D
330
7466
100
AcDbSymbolTableRecord
100
AcDbBlockTableRecord
  2
*D188
340
0
  0
BLOCK_RECORD
  5
9838
330
7466
100
AcDbSymbolTableRecord
100
AcDbBlockTableRecord
  2
*D189
340
0
  0
BLOCK_RECORD
  5
9843
330
7466
100
AcDbSymbolTableRecord
100
AcDbBlockTableRecord
  2
*D190
340
0
  0
BLOCK_RECORD
  5
984E
330
7466
100
AcDbSymbolTableRecord
100
AcDbBlockTableRecord
  2
*D191
340
0
  0
BLOCK_RECORD
  5
985A
330
7466
100
AcDbSymbolTableRecord
100
AcDbBlockTableRecord
  2
*D192
340
0
  0
BLOCK_RECORD
  5
9866
330
7466
100
AcDbSymbolTableRecord
100
AcDbBlockTableRecord
  2
*D193
340
0
  0
BLOCK_RECORD
  5
9872
330
7466
100
AcDbSymbolTableRecord
100
AcDbBlockTableRecord
  2
*D194
340
0
  0
BLOCK_RECORD
  5
987D
330
7466
100
AcDbSymbolTableRecord
100
AcDbBlockTableRecord
  2
*D195
340
0
  0
BLOCK_RECORD
  5
988B
330
7466
100
AcDbSymbolTableRecord
100
AcDbBlockTableRecord
  2
*D196
340
0
  0
BLOCK_RECORD
  5
9899
330
7466
100
AcDbSymbolTableRecord
100
AcDbBlockTableRecord
  2
*D197
340
0
  0
BLOCK_RECORD
  5
98A6
330
7466
100
AcDbSymbolTableRecord
100
AcDbBlockTableRecord
  2
*D198
340
0
  0
BLOCK_RECORD
  5
98B2
330
7466
100
AcDbSymbolTableRecord
100
AcDbBlockTableRecord
  2
*D199
340
0
  0
BLOCK_RECORD
  5
98BE
330
7466
100
AcDbSymbolTableRecord
100
AcDbBlockTableRecord
  2
*D200
340
0
  0
BLOCK_RECORD
  5
98CB
330
7466
100
AcDbSymbolTableRecord
100
AcDbBlockTableRecord
  2
*D201
340
0
  0
BLOCK_RECORD
  5
98D6
330
7466
100
AcDbSymbolTableRecord
100
AcDbBlockTableRecord
  2
*D202
340
0
  0
BLOCK_RECORD
  5
98E4
330
7466
100
AcDbSymbolTableRecord
100
AcDbBlockTableRecord
  2
*D203
340
0
  0
BLOCK_RECORD
  5
98F1
330
7466
100
AcDbSymbolTableRecord
100
AcDbBlockTableRecord
  2
*D204
340
0
  0
BLOCK_RECORD
  5
98FD
330
7466
100
AcDbSymbolTableRecord
100
AcDbBlockTableRecord
  2
*D205
340
0
  0
BLOCK_RECORD
  5
990A
330
7466
100
AcDbSymbolTableRecord
100
AcDbBlockTableRecord
  2
*D206
340
0
  0
BLOCK_RECORD
  5
9916
330
7466
100
AcDbSymbolTableRecord
100
AcDbBlockTableRecord
  2
*D207
340
0
  0
BLOCK_RECORD
  5
9924
330
7466
100
AcDbSymbolTableRecord
100
AcDbBlockTableRecord
  2
*D208
340
0
  0
BLOCK_RECORD
  5
992F
330
7466
100
AcDbSymbolTableRecord
100
AcDbBlockTableRecord
  2
*D209
340
0
  0
BLOCK_RECORD
  5
993D
330
7466
100
AcDbSymbolTableRecord
100
AcDbBlockTableRecord
  2
*D210
340
0
  0
BLOCK_RECORD
  5
994A
330
7466
100
AcDbSymbolTableRecord
100
AcDbBlockTableRecord
  2
*D211
340
0
  0
BLOCK_RECORD
  5
9957
330
7466
100
AcDbSymbolTableRecord
100
AcDbBlockTableRecord
  2
*D212
340
0
  0
BLOCK_RECORD
  5
9965
330
7466
100
AcDbSymbolTableRecord
100
AcDbBlockTableRecord
  2
*D213
340
0
  0
ENDTAB
  0
ENDSEC
  0
SECTION
  2
BLOCKS
  0
BLOCK
  5
7489
330
747D
100
AcDbEntity
  8
0
100
AcDbBlockBegin
  2
*MODEL_SPACE
 70
     0
 10
0.0
 20
0.0
 30
0.0
  3
*MODEL_SPACE
  1

  0
ENDBLK
  5
748A
330
747D
100
AcDbEntity
  8
0
100
AcDbBlockEnd
  0
BLOCK
  5
7487
330
747A
100
AcDbEntity
 67
     1
  8
0
100
AcDbBlockBegin
  2
*PAPER_SPACE
 70
     2
 10
0.0
 20
0.0
 30
0.0
  3
*PAPER_SPACE
  1

  0
ENDBLK
  5
7488
330
747A
100
AcDbEntity
 67
     1
  8
0
100
AcDbBlockEnd
  0
BLOCK
  5
7494
330
7493
100
AcDbEntity
  8
0
100
AcDbBlockBegin
  2
TITLE_BLOCK
 70
     2
 10
0.0
 20
0.0
 30
0.0
  3
TITLE_BLOCK
  1

  0
LINE
  5
7495
330
7493
100
AcDbEntity
  8
0
 62
     0
100
AcDbLine
 10
402.7943262411347
 20
16.00000000000008
 30
0.0
 11
410.0
 21
16.00000000000008
 31
0.0
  0
LINE
  5
7496
330
7493
100
AcDbEntity
  8
0
 62
     0
100
AcDbLine
 10
410.0
 20
10.0
 30
0.0
 11
410.0
 21
49.00000000000036
 31
0.0
  0
LINE
  5
7497
330
7493
100
AcDbEntity
  8
0
 62
     0
100
AcDbLine
 10
410.0
 20
49.00000000000036
 30
0.0
 11
410.0
 21
10.0
 31
0.0
  0
LINE
  5
7498
330
7493
100
AcDbEntity
  8
0
 62
     0
100
AcDbLine
 10
402.7943262411347
 20
22.00000000000012
 30
0.0
 11
402.7943262411347
 21
10.0
 31
0.0
  0
LINE
  5
7499
330
7493
100
AcDbEntity
  8
0
 62
     0
100
AcDbLine
 10
336.1418439716306
 20
49.00000000000036
 30
0.0
 11
336.1418439716306
 21
22.00000000000012
 31
0.0
  0
LINE
  5
749A
330
7493
100
AcDbEntity
  8
0
 62
     0
100
AcDbLine
 10
325.3333333333326
 20
37.00000000000024
 30
0.0
 11
325.3333333333326
 21
25.00000000000012
 31
0.0
  0
LINE
  5
749B
330
7493
100
AcDbEntity
  8
0
 62
     0
100
AcDbLine
 10
318.1276595744673
 20
49.00000000000036
 30
0.0
 11
318.1276595744673
 21
25.00000000000012
 31
0.0
  0
LINE
  5
749C
330
7493
100
AcDbEntity
  8
0
 62
     0
100
AcDbLine
 10
318.1276595744673
 20
25.00000000000012
 30
0.0
 11
348.7517730496447
 21
25.00000000000012
 31
0.0
  0
LINE
  5
749D
330
7493
100
AcDbEntity
  8
0
 62
     0
100
AcDbLine
 10
280.2978723404242
 20
28.00000000000016
 30
0.0
 11
348.7517730496447
 21
28.00000000000016
 31
0.0
  0
LINE
  5
749E
330
7493
100
AcDbEntity
  8
0
 62
     0
100
AcDbLine
 10
280.2978723404242
 20
31.0000000000002
 30
0.0
 11
348.7517730496447
 21
31.0000000000002
 31
0.0
  0
LINE
  5
749F
330
7493
100
AcDbEntity
  8
0
 62
     0
100
AcDbLine
 10
280.2978723404242
 20
34.00000000000024
 30
0.0
 11
348.7517730496447
 21
34.00000000000024
 31
0.0
  0
LINE
  5
74A0
330
7493
100
AcDbEntity
  8
0
 62
     0
100
AcDbLine
 10
280.2978723404242
 20
19.00000000000008
 30
0.0
 11
318.1276595744673
 21
19.00000000000012
 31
0.0
  0
LINE
  5
74A1
330
7493
100
AcDbEntity
  8
0
 62
     0
100
AcDbLine
 10
280.2978723404242
 20
22.00000000000008
 30
0.0
 11
318.1276595744673
 21
22.00000000000012
 31
0.0
  0
LINE
  5
74A2
330
7493
100
AcDbEntity
  8
0
 62
     0
100
AcDbLine
 10
280.2978723404242
 20
25.00000000000012
 30
0.0
 11
318.1276595744673
 21
25.00000000000012
 31
0.0
  0
TEXT
  5
74A3
330
7493
100
AcDbEntity
  8
0
 62
     0
100
AcDbText
 10
342.2447163844405
 20
10.55220101068186
 30
0.0
 40
1.791674070777747
  1
照査
  7
ADESK1
 72
     1
 11
344.1558353932701
 21
10.55220101068186
 31
0.0
100
AcDbText
  0
TEXT
  5
74A4
330
7493
100
AcDbEntity
  8
0
 62
     0
100
AcDbText
 10
332.2960689314087
 20
10.48329012996929
 30
0.0
 40
1.791674070777747
  1
設計
  7
ADESK1
 72
     1
 11
334.2071879402383
 21
10.48329012996929
 31
0.0
100
AcDbText
  0
TEXT
  5
74A5
330
7493
100
AcDbEntity
  8
0
 62
     0
100
AcDbText
 10
321.7174935280942
 20
10.48329012996929
 30
0.0
 40
1.791674070777747
  1
製図
  7
ADESK1
 72
     1
 11
323.5688900678979
 21
10.48329012996929
 31
0.0
100
AcDbText
  0
LINE
  5
74A6
330
7493
100
AcDbEntity
  8
0
 62
     0
100
AcDbLine
 10
280.2978723404242
 20
10.0
 30
0.0
 11
280.2978723404242
 21
13.00000000000004
 31
0.0
  0
LINE
  5
74A7
330
7493
100
AcDbEntity
  8
0
 62
     0
100
AcDbLine
 10
280.2978723404242
 20
16.00000000000008
 30
0.0
 11
318.1276595744673
 21
16.00000000000008
 31
0.0
  0
LINE
  5
74A8
330
7493
100
AcDbEntity
  8
0
 62
     0
100
AcDbLine
 10
339.4042553191484
 20
22.00000000000008
 30
0.0
 11
339.4042553191484
 21
10.0
 31
0.0
  0
LINE
  5
74A9
330
7493
100
AcDbEntity
  8
0
 62
     0
100
AcDbLine
 10
328.7659574468078
 20
22.00000000000008
 30
0.0
 11
328.7659574468078
 21
10.0
 31
0.0
  0
LINE
  5
74AA
330
7493
100
AcDbEntity
  8
0
 62
     0
100
AcDbLine
 10
348.7517730496447
 20
49.00000000000036
 30
0.0
 11
348.7517730496447
 21
10.0
 31
0.0
  0
LINE
  5
74AB
330
7493
100
AcDbEntity
  8
0
 62
     0
100
AcDbLine
 10
280.2978723404242
 20
49.00000000000036
 30
0.0
 11
280.2978723404242
 21
10.0
 31
0.0
  0
LINE
  5
74AC
330
7493
100
AcDbEntity
  8
0
 62
     0
100
AcDbLine
 10
318.1276595744673
 20
25.00000000000012
 30
0.0
 11
318.1276595744673
 21
10.0
 31
0.0
  0
LINE
  5
74AD
330
7493
100
AcDbEntity
  8
0
 62
     0
100
AcDbLine
 10
312.7234042553184
 20
37.00000000000024
 30
0.0
 11
312.7234042553184
 21
10.0
 31
0.0
  0
LINE
  5
74AE
330
7493
100
AcDbEntity
  8
0
 62
     0
100
AcDbLine
 10
285.7021276595731
 20
37.00000000000024
 30
0.0
 11
285.7021276595731
 21
10.0
 31
0.0
  0
LINE
  5
74AF
330
7493
100
AcDbEntity
  8
0
 62
     0
100
AcDbLine
 10
303.7163120567366
 20
37.00000000000024
 30
0.0
 11
303.7163120567366
 21
10.0
 31
0.0
  0
LINE
  5
74B0
330
7493
100
AcDbEntity
  8
0
 62
     0
100
AcDbLine
 10
410.0
 20
49.00000000000036
 30
0.0
 11
280.2978723404242
 21
49.00000000000036
 31
0.0
  0
LINE
  5
74B1
330
7493
100
AcDbEntity
  8
0
 62
     0
100
AcDbLine
 10
280.2978723404242
 20
10.0
 30
0.0
 11
410.0
 21
10.0
 31
0.0
  0
LINE
  5
74B2
330
7493
100
AcDbEntity
  8
0
 62
     0
100
AcDbLine
 10
318.1276595744673
 20
22.00000000000012
 30
0.0
 11
410.0
 21
22.00000000000012
 31
0.0
  0
LINE
  5
74B3
330
7493
100
AcDbEntity
  8
0
 62
     0
100
AcDbLine
 10
280.2978723404242
 20
37.00000000000024
 30
0.0
 11
410.0
 21
37.00000000000024
 31
0.0
  0
LINE
  5
74B4
330
7493
100
AcDbEntity
  8
0
 62
     0
100
AcDbLine
 10
280.2978723404242
 20
13.00000000000004
 30
0.0
 11
410.0
 21
13.00000000000004
 31
0.0
  0
LINE
  5
74B5
330
7493
100
AcDbEntity
  8
0
 62
     0
100
AcDbLine
 10
280.2978723404242
 20
49.00000000000036
 30
0.0
 11
410.0
 21
49.00000000000036
 31
0.0
  0
TEXT
  5
74B6
330
7493
100
AcDbEntity
  8
0
100
AcDbText
 10
411.3708251683467
 20
33.08333333333334
 30
0.0
 40
3.0
  1
F
  7
ADESK1
 72
     1
 11
412.8708251683468
 21
33.08333333333334
 31
0.0
100
AcDbText
  0
TEXT
  5
74B7
330
7493
100
AcDbEntity
  8
0
100
AcDbText
 10
411.3708251683467
 20
79.25
 30
0.0
 40
3.0
  1
E
  7
ADESK1
 72
     1
 11
412.8708251683468
 21
79.25
 31
0.0
100
AcDbText
  0
TEXT
  5
74B8
330
7493
100
AcDbEntity
  8
0
100
AcDbText
 10
411.2993965969182
 20
125.4166666666666
 30
0.0
 40
3.0
  1
D
  7
ADESK1
 72
     1
 11
412.8708251683468
 21
125.4166666666666
 31
0.0
100
AcDbText
  0
TEXT
  5
74B9
330
7493
100
AcDbEntity
  8
0
100
AcDbText
 10
411.3708251683467
 20
171.5833333333333
 30
0.0
 40
3.0
  1
C
  7
ADESK1
 72
     1
 11
412.8708251683468
 21
171.5833333333333
 31
0.0
100
AcDbText
  0
TEXT
  5
74BA
330
7493
100
AcDbEntity
  8
0
100
AcDbText
 10
411.2993965969182
 20
217.75
 30
0.0
 40
3.0
  1
B
  7
ADESK1
 72
     1
 11
412.8708251683468
 21
217.75
 31
0.0
100
AcDbText
  0
TEXT
  5
74BB
330
7493
100
AcDbEntity
  8
0
100
AcDbText
 10
411.5851108826324
 20
263.9166666666666
 30
0.0
 40
3.0
  1
A
  7
ADESK1
 72
     1
 11
412.8708251683468
 21
263.9166666666666
 31
0.0
100
AcDbText
  0
TEXT
  5
74BC
330
7493
100
AcDbEntity
  8
0
100
AcDbText
 10
384.5089285714286
 20
6.019997240728748
 30
0.0
 40
3.0
  1
8
  7
ADESK1
 72
     1
 11
385.9375
 21
6.019997240728748
 31
0.0
100
AcDbText
  0
TEXT
  5
74BD
330
7493
100
AcDbEntity
  8
0
100
AcDbText
 10
336.3839285714286
 20
6.019997240728748
 30
0.0
 40
3.0
  1
7
  7
ADESK1
 72
     1
 11
337.8125
 21
6.019997240728748
 31
0.0
100
AcDbText
  0
TEXT
  5
74BE
330
7493
100
AcDbEntity
  8
0
100
AcDbText
 10
288.1875
 20
6.019997240728748
 30
0.0
 40
3.0
  1
6
  7
ADESK1
 72
     1
 11
289.6875
 21
6.019997240728748
 31
0.0
100
AcDbText
  0
TEXT
  5
74BF
330
7493
100
AcDbEntity
  8
0
100
AcDbText
 10
240.1339285714286
 20
6.019997240728748
 30
0.0
 40
3.0
  1
5
  7
ADESK1
 72
     1
 11
241.5625
 21
6.019997240728748
 31
0.0
100
AcDbText
  0
TEXT
  5
74C0
330
7493
100
AcDbEntity
  8
0
100
AcDbText
 10
191.9375
 20
6.019997240728748
 30
0.0
 40
3.0
  1
4
  7
ADESK1
 72
     1
 11
193.4375
 21
6.019997240728748
 31
0.0
100
AcDbText
  0
TEXT
  5
74C1
330
7493
100
AcDbEntity
  8
0
100
AcDbText
 10
143.8839285714285
 20
6.019997240728748
 30
0.0
 40
3.0
  1
3
  7
ADESK1
 72
     1
 11
145.3125
 21
6.019997240728748
 31
0.0
100
AcDbText
  0
TEXT
  5
74C2
330
7493
100
AcDbEntity
  8
0
100
AcDbText
 10
95.75892857142857
 20
6.019997240728748
 30
0.0
 40
3.0
  1
2
  7
ADESK1
 72
     1
 11
97.1875
 21
6.019997240728748
 31
0.0
100
AcDbText
  0
TEXT
  5
74C3
330
7493
100
AcDbEntity
  8
0
100
AcDbText
 10
47.84821428571429
 20
6.019997240728748
 30
0.0
 40
3.0
  1
1
  7
ADESK1
 72
     1
 11
49.0625
 21
6.019997240728748
 31
0.0
100
AcDbText
  0
TEXT
  5
74C4
330
7493
100
AcDbEntity
  8
0
100
AcDbText
 10
21.1071613595339
 20
33.08333333333334
 30
0.0
 40
3.0
  1
F
  7
ADESK1
 72
     1
 11
22.6071613595339
 21
33.08333333333334
 31
0.0
100
AcDbText
  0
TEXT
  5
74C5
330
7493
100
AcDbEntity
  8
0
100
AcDbText
 10
21.1071613595339
 20
79.25
 30
0.0
 40
3.0
  1
E
  7
ADESK1
 72
     1
 11
22.6071613595339
 21
79.25
 31
0.0
100
AcDbText
  0
TEXT
  5
74C6
330
7493
100
AcDbEntity
  8
0
100
AcDbText
 10
21.03573278810533
 20
125.4166666666666
 30
0.0
 40
3.0
  1
D
  7
ADESK1
 72
     1
 11
22.6071613595339
 21
125.4166666666666
 31
0.0
100
AcDbText
  0
TEXT
  5
74C7
330
7493
100
AcDbEntity
  8
0
100
AcDbText
 10
21.1071613595339
 20
171.5833333333333
 30
0.0
 40
3.0
  1
C
  7
ADESK1
 72
     1
 11
22.6071613595339
 21
171.5833333333333
 31
0.0
100
AcDbText
  0
TEXT
  5
74C8
330
7493
100
AcDbEntity
  8
0
100
AcDbText
 10
21.03573278810533
 20
217.75
 30
0.0
 40
3.0
  1
B
  7
ADESK1
 72
     1
 11
22.6071613595339
 21
217.75
 31
0.0
100
AcDbText
  0
TEXT
  5
74C9
330
7493
100
AcDbEntity
  8
0
100
AcDbText
 10
384.5089285714286
 20
288.0
 30
0.0
 40
3.0
  1
8
  7
ADESK1
 72
     1
 11
385.9375
 21
288.0
 31
0.0
100
AcDbText
  0
TEXT
  5
74CA
330
7493
100
AcDbEntity
  8
0
100
AcDbText
 10
336.3839285714286
 20
288.0
 30
0.0
 40
3.0
  1
7
  7
ADESK1
 72
     1
 11
337.8125
 21
288.0
 31
0.0
100
AcDbText
  0
TEXT
  5
74CB
330
7493
100
AcDbEntity
  8
0
100
AcDbText
 10
288.1875
 20
288.0
 30
0.0
 40
3.0
  1
6
  7
ADESK1
 72
     1
 11
289.6875
 21
288.0
 31
0.0
100
AcDbText
  0
TEXT
  5
74CC
330
7493
100
AcDbEntity
  8
0
100
AcDbText
 10
240.1339285714286
 20
288.0
 30
0.0
 40
3.0
  1
5
  7
ADESK1
 72
     1
 11
241.5625
 21
288.0
 31
0.0
100
AcDbText
  0
TEXT
  5
74CD
330
7493
100
AcDbEntity
  8
0
100
AcDbText
 10
191.9375
 20
288.0
 30
0.0
 40
3.0
  1
4
  7
ADESK1
 72
     1
 11
193.4375
 21
288.0
 31
0.0
100
AcDbText
  0
TEXT
  5
74CE
330
7493
100
AcDbEntity
  8
0
100
AcDbText
 10
143.8839285714285
 20
288.0
 30
0.0
 40
3.0
  1
3
  7
ADESK1
 72
     1
 11
145.3125
 21
288.0
 31
0.0
100
AcDbText
  0
TEXT
  5
74CF
330
7493
100
AcDbEntity
  8
0
100
AcDbText
 10
95.75892857142857
 20
288.0
 30
0.0
 40
3.0
  1
2
  7
ADESK1
 72
     1
 11
97.1875
 21
288.0
 31
0.0
100
AcDbText
  0
TEXT
  5
74D0
330
7493
100
AcDbEntity
  8
0
100
AcDbText
 10
21.32144707381961
 20
263.9166666666666
 30
0.0
 40
3.0
  1
A
  7
ADESK1
 72
     1
 11
22.6071613595339
 21
263.9166666666666
 31
0.0
100
AcDbText
  0
TEXT
  5
74D1
330
7493
100
AcDbEntity
  8
0
100
AcDbText
 10
47.84821428571429
 20
288.0
 30
0.0
 40
3.0
  1
1
  7
ADESK1
 72
     1
 11
49.0625
 21
288.0
 31
0.0
100
AcDbText
  0
LINE
  5
74D2
330
7493
100
AcDbEntity
  8
0
100
AcDbLine
 10
73.125
 20
287.0
 30
0.0
 11
73.125
 21
292.0
 31
0.0
  0
LINE
  5
74D3
330
7493
100
AcDbEntity
  8
0
100
AcDbLine
 10
121.25
 20
287.0
 30
0.0
 11
121.25
 21
292.0
 31
0.0
  0
LINE
  5
74D4
330
7493
100
AcDbEntity
  8
0
100
AcDbLine
 10
169.375
 20
287.0
 30
0.0
 11
169.375
 21
292.0
 31
0.0
  0
LINE
  5
74D5
330
7493
100
AcDbEntity
  8
0
100
AcDbLine
 10
217.5
 20
287.0
 30
0.0
 11
217.5
 21
292.0
 31
0.0
  0
LINE
  5
74D6
330
7493
100
AcDbEntity
  8
0
100
AcDbLine
 10
265.625
 20
287.0
 30
0.0
 11
265.625
 21
292.0
 31
0.0
  0
LINE
  5
74D7
330
7493
100
AcDbEntity
  8
0
100
AcDbLine
 10
313.75
 20
287.0
 30
0.0
 11
313.75
 21
292.0
 31
0.0
  0
LINE
  5
74D8
330
7493
100
AcDbEntity
  8
0
100
AcDbLine
 10
361.875
 20
287.0
 30
0.0
 11
361.875
 21
292.0
 31
0.0
  0
LINE
  5
74D9
330
7493
100
AcDbEntity
  8
0
100
AcDbLine
 10
361.875
 20
10.0
 30
0.0
 11
361.875
 21
5.0
 31
0.0
  0
LINE
  5
74DA
330
7493
100
AcDbEntity
  8
0
100
AcDbLine
 10
313.75
 20
10.0
 30
0.0
 11
313.75
 21
5.0
 31
0.0
  0
LINE
  5
74DB
330
7493
100
AcDbEntity
  8
0
100
AcDbLine
 10
265.625
 20
10.0
 30
0.0
 11
265.625
 21
5.0
 31
0.0
  0
LINE
  5
74DC
330
7493
100
AcDbEntity
  8
0
100
AcDbLine
 10
217.5
 20
10.0
 30
0.0
 11
217.5
 21
5.0
 31
0.0
  0
LINE
  5
74DD
330
7493
100
AcDbEntity
  8
0
100
AcDbLine
 10
169.375
 20
10.0
 30
0.0
 11
169.375
 21
5.0
 31
0.0
  0
LINE
  5
74DE
330
7493
100
AcDbEntity
  8
0
100
AcDbLine
 10
121.25
 20
10.0
 30
0.0
 11
121.25
 21
5.0
 31
0.0
  0
LINE
  5
74DF
330
7493
100
AcDbEntity
  8
0
100
AcDbLine
 10
73.125
 20
10.0
 30
0.0
 11
73.125
 21
5.0
 31
0.0
  0
LINE
  5
74E0
330
7493
100
AcDbEntity
  8
0
100
AcDbLine
 10
410.0
 20
240.8333333333334
 30
0.0
 11
415.0
 21
240.8333333333334
 31
0.0
  0
LINE
  5
74E1
330
7493
100
AcDbEntity
  8
0
100
AcDbLine
 10
410.0
 20
194.6666666666667
 30
0.0
 11
415.0
 21
194.6666666666667
 31
0.0
  0
LINE
  5
74E2
330
7493
100
AcDbEntity
  8
0
100
AcDbLine
 10
410.0
 20
148.5
 30
0.0
 11
415.0
 21
148.5
 31
0.0
  0
LINE
  5
74E3
330
7493
100
AcDbEntity
  8
0
100
AcDbLine
 10
410.0
 20
102.3333333333333
 30
0.0
 11
415.0
 21
102.3333333333333
 31
0.0
  0
LINE
  5
74E4
330
7493
100
AcDbEntity
  8
0
100
AcDbLine
 10
410.0
 20
56.16666666666668
 30
0.0
 11
415.0
 21
56.16666666666668
 31
0.0
  0
LINE
  5
74E5
330
7493
100
AcDbEntity
  8
0
100
AcDbLine
 10
25.0
 20
56.16666666666667
 30
0.0
 11
20.0
 21
56.16666666666667
 31
0.0
  0
LINE
  5
74E6
330
7493
100
AcDbEntity
  8
0
100
AcDbLine
 10
25.0
 20
102.3333333333333
 30
0.0
 11
20.0
 21
102.3333333333333
 31
0.0
  0
LINE
  5
74E7
330
7493
100
AcDbEntity
  8
0
100
AcDbLine
 10
25.0
 20
148.5
 30
0.0
 11
20.0
 21
148.5
 31
0.0
  0
LINE
  5
74E8
330
7493
100
AcDbEntity
  8
0
100
AcDbLine
 10
25.0
 20
194.6666666666666
 30
0.0
 11
20.0
 21
194.6666666666666
 31
0.0
  0
LINE
  5
74E9
330
7493
100
AcDbEntity
  8
0
100
AcDbLine
 10
25.0
 20
240.8333333333333
 30
0.0
 11
20.0
 21
240.8333333333333
 31
0.0
  0
TEXT
  5
74EA
330
7493
100
AcDbEntity
  8
0
100
AcDbText
 10
1.0
 20
1.0
 30
0.0
 40
3.0
  1
この図枠はサンプルです。社内の規格やプロッタの出力範囲に合わせて適当に変更してご利用ください。
  7
ADESK1
100
AcDbText
  0
LINE
  5
74EB
330
7493
100
AcDbEntity
  8
0
100
AcDbLine
 10
25.0
 20
148.5
 30
0.0
 11
0.0
 21
148.5
 31
0.0
  0
LINE
  5
74EC
330
7493
100
AcDbEntity
  8
0
100
AcDbLine
 10
410.0
 20
148.5
 30
0.0
 11
420.0
 21
148.5
 31
0.0
  0
LINE
  5
74ED
330
7493
100
AcDbEntity
  8
0
100
AcDbLine
 10
217.5
 20
287.0
 30
0.0
 11
217.5
 21
297.0
 31
0.0
  0
LINE
  5
74EE
330
7493
100
AcDbEntity
  8
0
100
AcDbLine
 10
217.5
 20
10.0
 30
0.0
 11
217.5
 21
0.0
 31
0.0
  0
LINE
  5
74EF
330
7493
100
AcDbEntity
  8
OBJECT
100
AcDbLine
 10
130.0
 20
40.0
 30
0.0
 11
130.0
 21
10.0
 31
0.0
  0
LINE
  5
74F0
330
7493
100
AcDbEntity
  8
OBJECT
100
AcDbLine
 10
120.0
 20
10.0
 30
0.0
 11
120.0
 21
40.0
 31
0.0
  0
LINE
  5
74F1
330
7493
100
AcDbEntity
  8
OBJECT
100
AcDbLine
 10
44.5
 20
37.0
 30
0.0
 11
45.49999999999999
 21
37.0
 31
0.0
  0
LINE
  5
74F2
330
7493
100
AcDbEntity
  8
OBJECT
100
AcDbLine
 10
44.5
 20
31.0
 30
0.0
 11
45.49999999999999
 21
31.0
 31
0.0
  0
LINE
  5
74F3
330
7493
100
AcDbEntity
  8
OBJECT
100
AcDbLine
 10
39.5
 20
37.0
 30
0.0
 11
40.49999999999999
 21
37.0
 31
0.0
  0
LINE
  5
74F4
330
7493
100
AcDbEntity
  8
OBJECT
100
AcDbLine
 10
39.5
 20
31.0
 30
0.0
 11
40.49999999999999
 21
31.0
 31
0.0
  0
LINE
  5
74F5
330
7493
100
AcDbEntity
  8
OBJECT
100
AcDbLine
 10
44.5
 20
25.0
 30
0.0
 11
45.49999999999999
 21
25.0
 31
0.0
  0
LINE
  5
74F6
330
7493
100
AcDbEntity
  8
OBJECT
100
AcDbLine
 10
39.5
 20
25.0
 30
0.0
 11
40.49999999999999
 21
25.0
 31
0.0
  0
LINE
  5
74F7
330
7493
100
AcDbEntity
  8
OBJECT
100
AcDbLine
 10
44.5
 20
19.0
 30
0.0
 11
45.49999999999999
 21
19.0
 31
0.0
  0
LINE
  5
74F8
330
7493
100
AcDbEntity
  8
OBJECT
100
AcDbLine
 10
39.5
 20
19.0
 30
0.0
 11
40.49999999999999
 21
19.0
 31
0.0
  0
LINE
  5
74F9
330
7493
100
AcDbEntity
  8
OBJECT
100
AcDbLine
 10
28.0
 20
29.53589800000001
 30
0.0
 11
30.0
 21
33.0
 31
0.0
  0
LINE
  5
74FA
330
7493
100
AcDbEntity
  8
OBJECT
100
AcDbLine
 10
28.0
 20
29.53589800000001
 30
0.0
 11
32.0
 21
29.53589800000001
 31
0.0
  0
LINE
  5
74FB
330
7493
100
AcDbEntity
  8
OBJECT
100
AcDbLine
 10
32.0
 20
29.53589800000001
 30
0.0
 11
30.0
 21
33.0
 31
0.0
  0
LINE
  5
74FC
330
7493
100
AcDbEntity
  8
OBJECT
100
AcDbLine
 10
28.0
 20
35.535898
 30
0.0
 11
32.0
 21
35.535898
 31
0.0
  0
LINE
  5
74FD
330
7493
100
AcDbEntity
  8
OBJECT
100
AcDbLine
 10
32.0
 20
35.535898
 30
0.0
 11
30.0
 21
39.0
 31
0.0
  0
LINE
  5
74FE
330
7493
100
AcDbEntity
  8
OBJECT
100
AcDbLine
 10
28.0
 20
35.535898
 30
0.0
 11
30.0
 21
39.0
 31
0.0
  0
LINE
  5
74FF
330
7493
100
AcDbEntity
  8
OBJECT
100
AcDbLine
 10
28.0
 20
23.535898
 30
0.0
 11
30.0
 21
27.0
 31
0.0
  0
LINE
  5
7500
330
7493
100
AcDbEntity
  8
OBJECT
100
AcDbLine
 10
28.0
 20
23.535898
 30
0.0
 11
32.0
 21
23.535898
 31
0.0
  0
LINE
  5
7501
330
7493
100
AcDbEntity
  8
OBJECT
100
AcDbLine
 10
32.0
 20
23.535898
 30
0.0
 11
30.0
 21
27.0
 31
0.0
  0
LINE
  5
7502
330
7493
100
AcDbEntity
  8
OBJECT
100
AcDbLine
 10
28.0
 20
17.535898
 30
0.0
 11
30.0
 21
21.0
 31
0.0
  0
LINE
  5
7503
330
7493
100
AcDbEntity
  8
OBJECT
100
AcDbLine
 10
28.0
 20
17.535898
 30
0.0
 11
32.0
 21
17.535898
 31
0.0
  0
LINE
  5
7504
330
7493
100
AcDbEntity
  8
OBJECT
100
AcDbLine
 10
32.0
 20
17.535898
 30
0.0
 11
30.0
 21
21.0
 31
0.0
  0
LINE
  5
7505
330
7493
100
AcDbEntity
  8
OBJECT
100
AcDbLine
 10
44.5
 20
13.0
 30
0.0
 11
45.49999999999999
 21
13.0
 31
0.0
  0
LINE
  5
7506
330
7493
100
AcDbEntity
  8
OBJECT
100
AcDbLine
 10
39.5
 20
13.0
 30
0.0
 11
40.49999999999999
 21
13.0
 31
0.0
  0
LINE
  5
7507
330
7493
100
AcDbEntity
  8
OBJECT
100
AcDbLine
 10
28.0
 20
11.535898
 30
0.0
 11
32.0
 21
11.535898
 31
0.0
  0
LINE
  5
7508
330
7493
100
AcDbEntity
  8
OBJECT
100
AcDbLine
 10
80.0
 20
10.0
 30
0.0
 11
80.0
 21
40.0
 31
0.0
  0
LINE
  5
7509
330
7493
100
AcDbEntity
  8
OBJECT
100
AcDbLine
 10
50.0
 20
10.0
 30
0.0
 11
50.0
 21
40.0
 31
0.0
  0
LINE
  5
750A
330
7493
100
AcDbEntity
  8
OBJECT
100
AcDbLine
 10
35.0
 20
10.0
 30
0.0
 11
35.0
 21
40.0
 31
0.0
  0
LINE
  5
750B
330
7493
100
AcDbEntity
  8
OBJECT
100
AcDbLine
 10
32.0
 20
11.535898
 30
0.0
 11
30.0
 21
15.0
 31
0.0
  0
LINE
  5
750C
330
7493
100
AcDbEntity
  8
OBJECT
100
AcDbLine
 10
28.0
 20
11.535898
 30
0.0
 11
30.0
 21
15.0
 31
0.0
  0
LINE
  5
750D
330
7493
100
AcDbEntity
  8
OBJECT
100
AcDbLine
 10
130.0
 20
40.0
 30
0.0
 11
25.0
 21
40.0
 31
0.0
  0
LINE
  5
750E
330
7493
100
AcDbEntity
  8
OBJECT
100
AcDbLine
 10
130.0
 20
34.0
 30
0.0
 11
25.0
 21
34.0
 31
0.0
  0
LINE
  5
750F
330
7493
100
AcDbEntity
  8
OBJECT
100
AcDbLine
 10
130.0
 20
28.0
 30
0.0
 11
25.0
 21
28.0
 31
0.0
  0
LINE
  5
7510
330
7493
100
AcDbEntity
  8
OBJECT
100
AcDbLine
 10
130.0
 20
22.0
 30
0.0
 11
25.0
 21
22.0
 31
0.0
  0
LINE
  5
7511
330
7493
100
AcDbEntity
  8
OBJECT
100
AcDbLine
 10
130.0
 20
16.0
 30
0.0
 11
25.0
 21
16.0
 31
0.0
  0
ATTDEF
  5
7512
330
7493
100
AcDbEntity
  8
0
 62
     0
100
AcDbText
 10
19.0
 20
118.0
 30
0.0
 40
3.0
  1

 50
90.0
  7
ADESK1
100
AcDbAttributeDefinition
  3

  2
FNAME
 70
     8
  0
ATTDEF
  5
7513
330
7493
100
AcDbEntity
  8
0
 62
     0
100
AcDbText
 10
19.0
 20
70.0
 30
0.0
 40
3.0
  1

 50
90.0
  7
ADESK1
100
AcDbAttributeDefinition
  3

  2
REVDATE
 70
     8
  0
ATTDEF
  5
7514
330
7493
100
AcDbEntity
  8
0
 62
     0
100
AcDbText
 10
19.0
 20
10.0
 30
0.0
 40
3.0
  1

 50
90.0
  7
ADESK1
100
AcDbAttributeDefinition
  3

  2
USER
 70
     8
  0
LINE
  5
7515
330
7493
100
AcDbEntity
  8
0
100
AcDbLine
 10
410.0
 20
297.0
 30
0.0
 11
420.0
 21
297.0
 31
0.0
  0
LINE
  5
7516
330
7493
100
AcDbEntity
  8
0
100
AcDbLine
 10
420.0
 20
10.0
 30
0.0
 11
420.0
 21
0.0
 31
0.0
  0
LINE
  5
7517
330
7493
100
AcDbEntity
  8
0
100
AcDbLine
 10
25.0
 20
0.0
 30
0.0
 11
0.0
 21
0.0
 31
0.0
  0
LINE
  5
7518
330
7493
100
AcDbEntity
  8
0
100
AcDbLine
 10
0.0
 20
287.0
 30
0.0
 11
0.0
 21
297.0
 31
0.0
  0
LINE
  5
7519
330
7493
100
AcDbEntity
  8
0
100
AcDbLine
 10
25.0
 20
287.0
 30
0.0
 11
410.0
 21
287.0
 31
0.0
  0
LINE
  5
751A
330
7493
100
AcDbEntity
  8
0
100
AcDbLine
 10
410.0
 20
287.0
 30
0.0
 11
410.0
 21
10.0
 31
0.0
  0
LINE
  5
751B
330
7493
100
AcDbEntity
  8
0
100
AcDbLine
 10
410.0
 20
10.0
 30
0.0
 11
25.0
 21
10.0
 31
0.0
  0
LINE
  5
751C
330
7493
100
AcDbEntity
  8
0
100
AcDbLine
 10
25.0
 20
10.0
 30
0.0
 11
25.0
 21
287.0
 31
0.0
  0
LINE
  5
751D
330
7493
100
AcDbEntity
  8
0
100
AcDbLine
 10
420.0
 20
0.0
 30
0.0
 11
410.0
 21
0.0
 31
0.0
  0
LINE
  5
751E
330
7493
100
AcDbEntity
  8
0
100
AcDbLine
 10
420.0
 20
297.0
 30
0.0
 11
420.0
 21
287.0
 31
0.0
  0
LINE
  5
751F
330
7493
100
AcDbEntity
  8
0
100
AcDbLine
 10
0.0
 20
297.0
 30
0.0
 11
25.0
 21
297.0
 31
0.0
  0
LINE
  5
7520
330
7493
100
AcDbEntity
  8
0
100
AcDbLine
 10
0.0
 20
0.0
 30
0.0
 11
0.0
 21
10.0
 31
0.0
  0
ENDBLK
  5
7521
330
7493
100
AcDbEntity
  8
0
100
AcDbBlockEnd
  0
BLOCK
  5
9604
330
95FA
100
AcDbEntity
  8
0
 48
15.0
100
AcDbBlockBegin
  2
*D143
 70
     1
 10
0.0
 20
0.0
 30
0.0
  3
*D143
  1

  0
LINE
  5
9F45
330
95FA
100
AcDbEntity
  8
寸法引出
 48
15.0
370
    -2
100
AcDbLine
 10
2828.905619440014
 20
689.921515638522
 30
0.0
 11
2917.960659665584
 21
689.921515638522
 31
0.0
  0
LINE
  5
9F46
330
95FA
100
AcDbEntity
  8
寸法引出
 48
15.0
370
    -2
100
AcDbLine
 10
2828.905619440014
 20
1689.921515638522
 30
0.0
 11
2917.960659665584
 21
1689.921515638522
 31
0.0
  0
LINE
  5
9F47
330
95FA
100
AcDbEntity
  8
寸法引出
 48
15.0
370
    -2
100
AcDbLine
 10
2910.460659665583
 20
712.4215156385219
 30
0.0
 11
2910.460659665584
 21
1667.421515638522
 31
0.0
  0
SOLID
  5
9F48
330
95FA
100
AcDbEntity
  8
寸法引出
 48
15.0
100
AcDbTrace
 10
2906.710659665584
 20
712.4215156385219
 30
0.0
 11
2914.210659665584
 21
712.4215156385219
 31
0.0
 12
2910.460659665583
 22
689.921515638522
 32
0.0
 13
2910.460659665583
 23
689.921515638522
 33
0.0
  0
SOLID
  5
9F49
330
95FA
100
AcDbEntity
  8
寸法引出
 48
15.0
100
AcDbTrace
 10
2906.710659665584
 20
1667.421515638522
 30
0.0
 11
2914.210659665584
 21
1667.421515638522
 31
0.0
 12
2910.460659665584
 22
1689.921515638522
 32
0.0
 13
2910.460659665584
 23
1689.921515638522
 33
0.0
  0
MTEXT
  5
9F4A
330
95FA
100
AcDbEntity
  8
寸法引出
 48
15.0
100
AcDbMText
 10
2880.460659665584
 20
1189.921515638522
 30
0.0
 40
30.0
 41
0.0
 71
     5
 72
     1
  1
\A1;1000
  7
SANWA
 11
0.0000000000000001
 21
1.0
 31
0.0
 73
     1
 44
1.0
1001
ACAD
1000
MTEXTBEGIN
1070
    73
1070
     1
1070
    44
1040
1.0
1070
    74
1070
     0
1000
MTEXTEND
  0
POINT
  5
9F4B
330
95FA
100
AcDbEntity
  8
DEFPOINTS
 62
     0
 48
15.0
100
AcDbPoint
 10
2813.905619440015
 20
689.9215156385221
 30
0.0
  0
POINT
  5
9F4C
330
95FA
100
AcDbEntity
  8
DEFPOINTS
 62
     0
 48
15.0
100
AcDbPoint
 10
2813.905619440015
 20
1689.921515638522
 30
0.0
  0
POINT
  5
9F4D
330
95FA
100
AcDbEntity
  8
DEFPOINTS
 62
     0
 48
15.0
100
AcDbPoint
 10
2910.460659665584
 20
1689.921515638522
 30
0.0
  0
ENDBLK
  5
9605
330
95FA
100
AcDbEntity
  8
0
 48
15.0
100
AcDbBlockEnd
  0
BLOCK
  5
960F
330
9606
100
AcDbEntity
  8
0
 48
15.0
100
AcDbBlockBegin
  2
*D144
 70
     1
 10
0.0
 20
0.0
 30
0.0
  3
*D144
  1

  0
LINE
  5
9F4E
330
9606
100
AcDbEntity
  8
寸法引出
 48
15.0
370
    -2
100
AcDbLine
 10
2590.905619440015
 20
1539.921515638522
 30
0.0
 11
2502.521287916569
 21
1539.921515638522
 31
0.0
  0
LINE
  5
9F4F
330
9606
100
AcDbEntity
  8
寸法引出
 48
15.0
370
    -2
100
AcDbLine
 10
2510.021287916568
 20
862.421515638522
 30
0.0
 11
2510.021287916569
 21
1517.421515638522
 31
0.0
  0
SOLID
  5
9F50
330
9606
100
AcDbEntity
  8
寸法引出
 48
15.0
100
AcDbTrace
 10
2506.271287916568
 20
862.421515638522
 30
0.0
 11
2513.771287916568
 21
862.421515638522
 31
0.0
 12
2510.021287916568
 22
839.9215156385221
 32
0.0
 13
2510.021287916568
 23
839.9215156385221
 33
0.0
  0
SOLID
  5
9F51
330
9606
100
AcDbEntity
  8
寸法引出
 48
15.0
100
AcDbTrace
 10
2506.271287916569
 20
1517.421515638522
 30
0.0
 11
2513.771287916569
 21
1517.421515638522
 31
0.0
 12
2510.021287916569
 22
1539.921515638522
 32
0.0
 13
2510.021287916569
 23
1539.921515638522
 33
0.0
  0
MTEXT
  5
9F52
330
9606
100
AcDbEntity
  8
寸法引出
 48
15.0
100
AcDbMText
 10
2480.021287916568
 20
1189.921515638522
 30
0.0
 40
30.0
 41
0.0
 71
     5
 72
     1
  1
\A1;700
  7
SANWA
 11
0.0000000000000001
 21
1.0
 31
0.0
 73
     1
 44
1.0
1001
ACAD
1000
MTEXTBEGIN
1070
    73
1070
     1
1070
    44
1040
1.0
1070
    74
1070
     0
1000
MTEXTEND
  0
POINT
  5
9F53
330
9606
100
AcDbEntity
  8
DEFPOINTS
 62
     0
 48
15.0
100
AcDbPoint
 10
2605.905619440015
 20
839.9215156385221
 30
0.0
  0
POINT
  5
9F54
330
9606
100
AcDbEntity
  8
DEFPOINTS
 62
     0
 48
15.0
100
AcDbPoint
 10
2605.905619440015
 20
1539.921515638522
 30
0.0
  0
POINT
  5
9F55
330
9606
100
AcDbEntity
  8
DEFPOINTS
 62
     0
 48
15.0
100
AcDbPoint
 10
2510.021287916569
 20
1539.921515638522
 30
0.0
  0
ENDBLK
  5
9610
330
9606
100
AcDbEntity
  8
0
 48
15.0
100
AcDbBlockEnd
  0
BLOCK
  5
961B
330
9611
100
AcDbEntity
  8
0
 48
15.0
100
AcDbBlockBegin
  2
*D145
 70
     1
 10
0.0
 20
0.0
 30
0.0
  3
*D145
  1

  0
LINE
  5
9F56
330
9611
100
AcDbEntity
  8
寸法引出
 48
15.0
370
    -2
100
AcDbLine
 10
1640.338355942214
 20
1689.921515638522
 30
0.0
 11
1735.076978542431
 21
1689.921515638522
 31
0.0
  0
LINE
  5
9F57
330
9611
100
AcDbEntity
  8
寸法引出
 48
15.0
370
    -2
100
AcDbLine
 10
1640.338355942214
 20
689.9215156385221
 30
0.0
 11
1735.076978542431
 21
689.9215156385221
 31
0.0
  0
LINE
  5
9F58
330
9611
100
AcDbEntity
  8
寸法引出
 48
15.0
370
    -2
100
AcDbLine
 10
1727.576978542431
 20
1667.421515638522
 30
0.0
 11
1727.576978542431
 21
712.4215156385221
 31
0.0
  0
SOLID
  5
9F59
330
9611
100
AcDbEntity
  8
寸法引出
 48
15.0
100
AcDbTrace
 10
1723.826978542431
 20
1667.421515638522
 30
0.0
 11
1731.326978542431
 21
1667.421515638522
 31
0.0
 12
1727.576978542431
 22
1689.921515638522
 32
0.0
 13
1727.576978542431
 23
1689.921515638522
 33
0.0
  0
SOLID
  5
9F5A
330
9611
100
AcDbEntity
  8
寸法引出
 48
15.0
100
AcDbTrace
 10
1723.826978542431
 20
712.4215156385221
 30
0.0
 11
1731.326978542431
 21
712.4215156385221
 31
0.0
 12
1727.576978542431
 22
689.9215156385221
 32
0.0
 13
1727.576978542431
 23
689.9215156385221
 33
0.0
  0
MTEXT
  5
9F5B
330
9611
100
AcDbEntity
  8
寸法引出
 48
15.0
100
AcDbMText
 10
1697.576978542431
 20
1189.921515638522
 30
0.0
 40
30.0
 41
0.0
 71
     5
 72
     1
  1
\A1;1000
  7
SANWA
 11
0.0000000000000001
 21
1.0
 31
0.0
 73
     1
 44
1.0
1001
ACAD
1000
MTEXTBEGIN
1070
    73
1070
     1
1070
    44
1040
1.0
1070
    74
1070
     0
1000
MTEXTEND
  0
POINT
  5
9F5C
330
9611
100
AcDbEntity
  8
DEFPOINTS
 62
     0
 48
15.0
100
AcDbPoint
 10
1625.338355942214
 20
1689.921515638522
 30
0.0
  0
POINT
  5
9F5D
330
9611
100
AcDbEntity
  8
DEFPOINTS
 62
     0
 48
15.0
100
AcDbPoint
 10
1625.338355942214
 20
689.9215156385221
 30
0.0
  0
POINT
  5
9F5E
330
9611
100
AcDbEntity
  8
DEFPOINTS
 62
     0
 48
15.0
100
AcDbPoint
 10
1727.576978542431
 20
689.9215156385221
 30
0.0
  0
ENDBLK
  5
961C
330
9611
100
AcDbEntity
  8
0
 48
15.0
100
AcDbBlockEnd
  0
BLOCK
  5
9626
330
961D
100
AcDbEntity
  8
0
 48
15.0
100
AcDbBlockBegin
  2
*D146
 70
     1
 10
0.0
 20
0.0
 30
0.0
  3
*D146
  1

  0
LINE
  5
9F5F
330
961D
100
AcDbEntity
  8
寸法引出
 48
15.0
370
    -2
100
AcDbLine
 10
1260.338355942214
 20
1569.921515638522
 30
0.0
 11
1176.324237354873
 21
1569.921515638522
 31
0.0
  0
LINE
  5
9F60
330
961D
100
AcDbEntity
  8
寸法引出
 48
15.0
370
    -2
100
AcDbLine
 10
1183.824237354872
 20
832.4215156385221
 30
0.0
 11
1183.824237354873
 21
1547.421515638522
 31
0.0
  0
SOLID
  5
9F61
330
961D
100
AcDbEntity
  8
寸法引出
 48
15.0
100
AcDbTrace
 10
1180.074237354872
 20
832.4215156385221
 30
0.0
 11
1187.574237354873
 21
832.4215156385221
 31
0.0
 12
1183.824237354872
 22
809.9215156385222
 32
0.0
 13
1183.824237354872
 23
809.9215156385222
 33
0.0
  0
SOLID
  5
9F62
330
961D
100
AcDbEntity
  8
寸法引出
 48
15.0
100
AcDbTrace
 10
1180.074237354872
 20
1547.421515638522
 30
0.0
 11
1187.574237354873
 21
1547.421515638522
 31
0.0
 12
1183.824237354873
 22
1569.921515638522
 32
0.0
 13
1183.824237354873
 23
1569.921515638522
 33
0.0
  0
MTEXT
  5
9F63
330
961D
100
AcDbEntity
  8
寸法引出
 48
15.0
100
AcDbMText
 10
1153.824237354872
 20
1189.921515638522
 30
0.0
 40
30.0
 41
0.0
 71
     5
 72
     1
  1
\A1;760
  7
SANWA
 11
0.0000000000000001
 21
1.0
 31
0.0
 73
     1
 44
1.0
1001
ACAD
1000
MTEXTBEGIN
1070
    73
1070
     1
1070
    44
1040
1.0
1070
    74
1070
     0
1000
MTEXTEND
  0
POINT
  5
9F64
330
961D
100
AcDbEntity
  8
DEFPOINTS
 62
     0
 48
15.0
100
AcDbPoint
 10
1275.338355942214
 20
809.9215156385222
 30
0.0
  0
POINT
  5
9F65
330
961D
100
AcDbEntity
  8
DEFPOINTS
 62
     0
 48
15.0
100
AcDbPoint
 10
1275.338355942214
 20
1569.921515638522
 30
0.0
  0
POINT
  5
9F66
330
961D
100
AcDbEntity
  8
DEFPOINTS
 62
     0
 48
15.0
100
AcDbPoint
 10
1183.824237354873
 20
1569.921515638522
 30
0.0
  0
ENDBLK
  5
9627
330
961D
100
AcDbEntity
  8
0
 48
15.0
100
AcDbBlockEnd
  0
BLOCK
  5
9632
330
9628
100
AcDbEntity
  8
0
 48
15.0
100
AcDbBlockBegin
  2
*D147
 70
     1
 10
0.0
 20
0.0
 30
0.0
  3
*D147
  1

  0
LINE
  5
9F67
330
9628
100
AcDbEntity
  8
寸法引出
 48
15.0
370
    -2
100
AcDbLine
 10
1275.338355942214
 20
674.9215156385221
 30
0.0
 11
1275.338355942214
 21
573.7375765631273
 31
0.0
  0
LINE
  5
9F68
330
9628
100
AcDbEntity
  8
寸法引出
 48
15.0
370
    -2
100
AcDbLine
 10
1625.338355942214
 20
674.9215156385221
 30
0.0
 11
1625.338355942214
 21
573.7375765631273
 31
0.0
  0
LINE
  5
9F69
330
9628
100
AcDbEntity
  8
寸法引出
 48
15.0
370
    -2
100
AcDbLine
 10
1297.838355942214
 20
581.2375765631272
 30
0.0
 11
1602.838355942214
 21
581.2375765631272
 31
0.0
  0
SOLID
  5
9F6A
330
9628
100
AcDbEntity
  8
寸法引出
 48
15.0
100
AcDbTrace
 10
1297.838355942214
 20
584.9875765631272
 30
0.0
 11
1297.838355942214
 21
577.4875765631272
 31
0.0
 12
1275.338355942214
 22
581.2375765631272
 32
0.0
 13
1275.338355942214
 23
581.2375765631272
 33
0.0
  0
SOLID
  5
9F6B
330
9628
100
AcDbEntity
  8
寸法引出
 48
15.0
100
AcDbTrace
 10
1602.838355942214
 20
584.9875765631272
 30
0.0
 11
1602.838355942214
 21
577.4875765631272
 31
0.0
 12
1625.338355942214
 22
581.2375765631272
 32
0.0
 13
1625.338355942214
 23
581.2375765631272
 33
0.0
  0
MTEXT
  5
9F6C
330
9628
100
AcDbEntity
  8
寸法引出
 48
15.0
100
AcDbMText
 10
1450.338355942214
 20
611.2375765631273
 30
0.0
 40
30.0
 41
0.0
 71
     5
 72
     1
  1
\A1;350
  7
SANWA
 73
     1
 44
1.0
1001
ACAD
1000
MTEXTBEGIN
1070
    73
1070
     1
1070
    44
1040
1.0
1070
    74
1070
     0
1000
MTEXTEND
  0
POINT
  5
9F6D
330
9628
100
AcDbEntity
  8
DEFPOINTS
 62
     0
 48
15.0
100
AcDbPoint
 10
1275.338355942214
 20
689.9215156385221
 30
0.0
  0
POINT
  5
9F6E
330
9628
100
AcDbEntity
  8
DEFPOINTS
 62
     0
 48
15.0
100
AcDbPoint
 10
1625.338355942214
 20
689.9215156385221
 30
0.0
  0
POINT
  5
9F6F
330
9628
100
AcDbEntity
  8
DEFPOINTS
 62
     0
 48
15.0
100
AcDbPoint
 10
1625.338355942214
 20
581.2375765631272
 30
0.0
  0
ENDBLK
  5
9633
330
9628
100
AcDbEntity
  8
0
 48
15.0
100
AcDbBlockEnd
  0
BLOCK
  5
963E
330
9634
100
AcDbEntity
  8
0
 48
15.0
100
AcDbBlockBegin
  2
*D148
 70
     1
 10
0.0
 20
0.0
 30
0.0
  3
*D148
  1

  0
LINE
  5
9F70
330
9634
100
AcDbEntity
  8
寸法引出
 48
15.0
370
    -2
100
AcDbLine
 10
1260.338355942214
 20
689.9215156385221
 30
0.0
 11
1176.324237354873
 21
689.9215156385221
 31
0.0
  0
LINE
  5
9F71
330
9634
100
AcDbEntity
  8
寸法引出
 48
15.0
370
    -2
100
AcDbLine
 10
1260.338355942214
 20
809.9215156385222
 30
0.0
 11
1176.324237354873
 21
809.9215156385222
 31
0.0
  0
LINE
  5
9F72
330
9634
100
AcDbEntity
  8
寸法引出
 48
15.0
370
    -2
100
AcDbLine
 10
1183.824237354873
 20
712.4215156385221
 30
0.0
 11
1183.824237354873
 21
787.4215156385221
 31
0.0
  0
SOLID
  5
9F73
330
9634
100
AcDbEntity
  8
寸法引出
 48
15.0
100
AcDbTrace
 10
1180.074237354872
 20
712.4215156385221
 30
0.0
 11
1187.574237354873
 21
712.4215156385221
 31
0.0
 12
1183.824237354873
 22
689.9215156385221
 32
0.0
 13
1183.824237354873
 23
689.9215156385221
 33
0.0
  0
SOLID
  5
9F74
330
9634
100
AcDbEntity
  8
寸法引出
 48
15.0
100
AcDbTrace
 10
1180.074237354872
 20
787.4215156385221
 30
0.0
 11
1187.574237354873
 21
787.4215156385221
 31
0.0
 12
1183.824237354873
 22
809.9215156385222
 32
0.0
 13
1183.824237354873
 23
809.9215156385222
 33
0.0
  0
MTEXT
  5
9F75
330
9634
100
AcDbEntity
  8
寸法引出
 48
15.0
100
AcDbMText
 10
1153.824237354872
 20
749.9215156385222
 30
0.0
 40
30.0
 41
0.0
 71
     5
 72
     1
  1
\A1;120
  7
SANWA
 11
0.0000000000000001
 21
1.0
 31
0.0
 73
     1
 44
1.0
1001
ACAD
1000
MTEXTBEGIN
1070
    73
1070
     1
1070
    44
1040
1.0
1070
    74
1070
     0
1000
MTEXTEND
  0
POINT
  5
9F76
330
9634
100
AcDbEntity
  8
DEFPOINTS
 62
     0
 48
15.0
100
AcDbPoint
 10
1275.338355942214
 20
689.9215156385221
 30
0.0
  0
POINT
  5
9F77
330
9634
100
AcDbEntity
  8
DEFPOINTS
 62
     0
 48
15.0
100
AcDbPoint
 10
1275.338355942214
 20
809.9215156385222
 30
0.0
  0
POINT
  5
9F78
330
9634
100
AcDbEntity
  8
DEFPOINTS
 62
     0
 48
15.0
100
AcDbPoint
 10
1183.824237354873
 20
809.9215156385222
 30
0.0
  0
ENDBLK
  5
963F
330
9634
100
AcDbEntity
  8
0
 48
15.0
100
AcDbBlockEnd
  0
BLOCK
  5
964A
330
9640
100
AcDbEntity
  8
0
 48
15.0
100
AcDbBlockBegin
  2
*D149
 70
     1
 10
0.0
 20
0.0
 30
0.0
  3
*D149
  1

  0
LINE
  5
9F79
330
9640
100
AcDbEntity
  8
寸法引出
 48
15.0
370
    -2
100
AcDbLine
 10
2605.905619440015
 20
674.9215156385221
 30
0.0
 11
2605.905619440015
 21
573.7375765631273
 31
0.0
  0
LINE
  5
9F7A
330
9640
100
AcDbEntity
  8
寸法引出
 48
15.0
370
    -2
100
AcDbLine
 10
2813.905619440014
 20
674.9215156385221
 30
0.0
 11
2813.905619440014
 21
573.7375765631273
 31
0.0
  0
LINE
  5
9F7B
330
9640
100
AcDbEntity
  8
寸法引出
 48
15.0
370
    -2
100
AcDbLine
 10
2628.405619440015
 20
581.2375765631272
 30
0.0
 11
2791.405619440014
 21
581.2375765631272
 31
0.0
  0
SOLID
  5
9F7C
330
9640
100
AcDbEntity
  8
寸法引出
 48
15.0
100
AcDbTrace
 10
2628.405619440015
 20
584.9875765631272
 30
0.0
 11
2628.405619440015
 21
577.4875765631272
 31
0.0
 12
2605.905619440015
 22
581.2375765631272
 32
0.0
 13
2605.905619440015
 23
581.2375765631272
 33
0.0
  0
SOLID
  5
9F7D
330
9640
100
AcDbEntity
  8
寸法引出
 48
15.0
100
AcDbTrace
 10
2791.405619440014
 20
584.9875765631272
 30
0.0
 11
2791.405619440014
 21
577.4875765631272
 31
0.0
 12
2813.905619440014
 22
581.2375765631272
 32
0.0
 13
2813.905619440014
 23
581.2375765631272
 33
0.0
  0
MTEXT
  5
9F7E
330
9640
100
AcDbEntity
  8
寸法引出
 48
15.0
100
AcDbMText
 10
2709.905619440015
 20
611.2375765631273
 30
0.0
 40
30.0
 41
0.0
 71
     5
 72
     1
  1
\A1;208
  7
SANWA
 73
     1
 44
1.0
1001
ACAD
1000
MTEXTBEGIN
1070
    73
1070
     1
1070
    44
1040
1.0
1070
    74
1070
     0
1000
MTEXTEND
  0
POINT
  5
9F7F
330
9640
100
AcDbEntity
  8
DEFPOINTS
 62
     0
 48
15.0
100
AcDbPoint
 10
2605.905619440015
 20
689.9215156385221
 30
0.0
  0
POINT
  5
9F80
330
9640
100
AcDbEntity
  8
DEFPOINTS
 62
     0
 48
15.0
100
AcDbPoint
 10
2813.905619440014
 20
689.9215156385221
 30
0.0
  0
POINT
  5
9F81
330
9640
100
AcDbEntity
  8
DEFPOINTS
 62
     0
 48
15.0
100
AcDbPoint
 10
2813.905619440014
 20
581.2375765631272
 30
0.0
  0
ENDBLK
  5
964B
330
9640
100
AcDbEntity
  8
0
 48
15.0
100
AcDbBlockEnd
  0
BLOCK
  5
9658
330
964C
100
AcDbEntity
  8
0
 48
15.0
100
AcDbBlockBegin
  2
*D150
 70
     1
 10
0.0
 20
0.0
 30
0.0
  3
*D150
  1

  0
LINE
  5
9F82
330
964C
100
AcDbEntity
  8
寸法引出
 48
15.0
370
    -2
100
AcDbLine
 10
2778.905619440015
 20
358.8473388973785
 30
0.0
 11
2778.905619440015
 21
388.6113225518989
 31
0.0
  0
LINE
  5
9F83
330
964C
100
AcDbEntity
  8
寸法引出
 48
15.0
370
    -2
100
AcDbLine
 10
2813.905619440015
 20
348.8473388973785
 30
0.0
 11
2813.905619440015
 21
388.6113225518989
 31
0.0
  0
LINE
  5
9F84
330
964C
100
AcDbEntity
  8
寸法引出
 48
15.0
370
    -2
100
AcDbLine
 10
2756.405619440015
 20
381.1113225518989
 30
0.0
 11
2733.905619440015
 21
381.1113225518989
 31
0.0
  0
LINE
  5
9F85
330
964C
100
AcDbEntity
  8
寸法引出
 48
15.0
370
    -2
100
AcDbLine
 10
2836.405619440015
 20
381.1113225518989
 30
0.0
 11
2858.905619440015
 21
381.1113225518989
 31
0.0
  0
LINE
  5
9F86
330
964C
100
AcDbEntity
  8
寸法引出
 48
15.0
370
    -2
100
AcDbLine
 10
2778.905619440015
 20
381.1113225518989
 30
0.0
 11
2813.905619440015
 21
381.1113225518989
 31
0.0
  0
SOLID
  5
9F87
330
964C
100
AcDbEntity
  8
寸法引出
 48
15.0
100
AcDbTrace
 10
2756.405619440015
 20
384.8613225518989
 30
0.0
 11
2756.405619440015
 21
377.3613225518989
 31
0.0
 12
2778.905619440015
 22
381.1113225518989
 32
0.0
 13
2778.905619440015
 23
381.1113225518989
 33
0.0
  0
SOLID
  5
9F88
330
964C
100
AcDbEntity
  8
寸法引出
 48
15.0
100
AcDbTrace
 10
2836.405619440015
 20
384.8613225518989
 30
0.0
 11
2836.405619440015
 21
377.3613225518989
 31
0.0
 12
2813.905619440015
 22
381.1113225518989
 32
0.0
 13
2813.905619440015
 23
381.1113225518989
 33
0.0
  0
MTEXT
  5
9F89
330
964C
100
AcDbEntity
  8
寸法引出
 48
15.0
100
AcDbMText
 10
2796.405619440015
 20
411.1113225518988
 30
0.0
 40
30.0
 41
0.0
 71
     5
 72
     1
  1
\A1;35
  7
SANWA
 73
     1
 44
1.0
1001
ACAD
1000
MTEXTBEGIN
1070
    73
1070
     1
1070
    44
1040
1.0
1070
    74
1070
     0
1000
MTEXTEND
  0
POINT
  5
9F8A
330
964C
100
AcDbEntity
  8
DEFPOINTS
 62
     0
 48
15.0
100
AcDbPoint
 10
2778.905619440015
 20
343.8473388973784
 30
0.0
  0
POINT
  5
9F8B
330
964C
100
AcDbEntity
  8
DEFPOINTS
 62
     0
 48
15.0
100
AcDbPoint
 10
2813.905619440015
 20
333.8473388973785
 30
0.0
  0
POINT
  5
9F8C
330
964C
100
AcDbEntity
  8
DEFPOINTS
 62
     0
 48
15.0
100
AcDbPoint
 10
2813.905619440015
 20
381.1113225518989
 30
0.0
  0
ENDBLK
  5
9659
330
964C
100
AcDbEntity
  8
0
 48
15.0
100
AcDbBlockEnd
  0
BLOCK
  5
9665
330
965A
100
AcDbEntity
  8
0
 48
15.0
100
AcDbBlockBegin
  2
*D151
 70
     1
 10
0.0
 20
0.0
 30
0.0
  3
*D151
  1

  0
LINE
  5
9F8D
330
965A
100
AcDbEntity
  8
寸法引出
 48
15.0
370
    -2
100
AcDbLine
 10
2813.905619440015
 20
314.3473388973784
 30
0.0
 11
2813.905619440015
 21
231.3302078604825
 31
0.0
  0
LINE
  5
9F8E
330
965A
100
AcDbEntity
  8
寸法引出
 48
15.0
370
    -2
100
AcDbLine
 10
2721.405619440015
 20
238.8302078604825
 30
0.0
 11
2698.905619440015
 21
238.8302078604825
 31
0.0
  0
LINE
  5
9F8F
330
965A
100
AcDbEntity
  8
寸法引出
 48
15.0
370
    -2
100
AcDbLine
 10
2836.405619440015
 20
238.8302078604825
 30
0.0
 11
2858.905619440015
 21
238.8302078604825
 31
0.0
  0
LINE
  5
9F90
330
965A
100
AcDbEntity
  8
寸法引出
 48
15.0
370
    -2
100
AcDbLine
 10
2743.905619440015
 20
238.8302078604825
 30
0.0
 11
2813.905619440015
 21
238.8302078604825
 31
0.0
  0
SOLID
  5
9F91
330
965A
100
AcDbEntity
  8
寸法引出
 48
15.0
100
AcDbTrace
 10
2721.405619440015
 20
242.5802078604824
 30
0.0
 11
2721.405619440015
 21
235.0802078604825
 31
0.0
 12
2743.905619440015
 22
238.8302078604825
 32
0.0
 13
2743.905619440015
 23
238.8302078604825
 33
0.0
  0
SOLID
  5
9F92
330
965A
100
AcDbEntity
  8
寸法引出
 48
15.0
100
AcDbTrace
 10
2836.405619440015
 20
242.5802078604824
 30
0.0
 11
2836.405619440015
 21
235.0802078604825
 31
0.0
 12
2813.905619440015
 22
238.8302078604825
 32
0.0
 13
2813.905619440015
 23
238.8302078604825
 33
0.0
  0
MTEXT
  5
9F93
330
965A
100
AcDbEntity
  8
寸法引出
 48
15.0
100
AcDbMText
 10
2778.905619440015
 20
268.8302078604825
 30
0.0
 40
30.0
 41
0.0
 71
     5
 72
     1
  1
\A1;70
  7
SANWA
 73
     1
 44
1.0
1001
ACAD
1000
MTEXTBEGIN
1070
    73
1070
     1
1070
    44
1040
1.0
1070
    74
1070
     0
1000
MTEXTEND
  0
POINT
  5
9F94
330
965A
100
AcDbEntity
  8
DEFPOINTS
 62
     0
 48
15.0
100
AcDbPoint
 10
2743.905619440015
 20
329.3473388973784
 30
0.0
  0
POINT
  5
9F95
330
965A
100
AcDbEntity
  8
DEFPOINTS
 62
     0
 48
15.0
100
AcDbPoint
 10
2813.905619440015
 20
329.3473388973784
 30
0.0
  0
POINT
  5
9F96
330
965A
100
AcDbEntity
  8
DEFPOINTS
 62
     0
 48
15.0
100
AcDbPoint
 10
2813.905619440015
 20
238.8302078604825
 30
0.0
  0
ENDBLK
  5
9666
330
965A
100
AcDbEntity
  8
0
 48
15.0
100
AcDbBlockEnd
  0
BLOCK
  5
9672
330
9667
100
AcDbEntity
  8
0
 48
15.0
100
AcDbBlockBegin
  2
*D152
 70
     1
 10
0.0
 20
0.0
 30
0.0
  3
*D152
  1

  0
LINE
  5
9F97
330
9667
100
AcDbEntity
  8
寸法引出
 48
15.0
370
    -2
100
AcDbLine
 10
2743.905619440015
 20
314.3473388973784
 30
0.0
 11
2743.905619440015
 21
231.3302078604825
 31
0.0
  0
LINE
  5
9F98
330
9667
100
AcDbEntity
  8
寸法引出
 48
15.0
370
    -2
100
AcDbLine
 10
2653.405619440015
 20
238.8302078604825
 30
0.0
 11
2630.905619440015
 21
238.8302078604825
 31
0.0
  0
LINE
  5
9F99
330
9667
100
AcDbEntity
  8
寸法引出
 48
15.0
370
    -2
100
AcDbLine
 10
2766.405619440015
 20
238.8302078604825
 30
0.0
 11
2788.905619440015
 21
238.8302078604825
 31
0.0
  0
LINE
  5
9F9A
330
9667
100
AcDbEntity
  8
寸法引出
 48
15.0
370
    -2
100
AcDbLine
 10
2675.905619440015
 20
238.8302078604825
 30
0.0
 11
2743.905619440015
 21
238.8302078604825
 31
0.0
  0
SOLID
  5
9F9B
330
9667
100
AcDbEntity
  8
寸法引出
 48
15.0
100
AcDbTrace
 10
2653.405619440015
 20
242.5802078604824
 30
0.0
 11
2653.405619440015
 21
235.0802078604825
 31
0.0
 12
2675.905619440015
 22
238.8302078604825
 32
0.0
 13
2675.905619440015
 23
238.8302078604825
 33
0.0
  0
SOLID
  5
9F9C
330
9667
100
AcDbEntity
  8
寸法引出
 48
15.0
100
AcDbTrace
 10
2766.405619440015
 20
242.5802078604824
 30
0.0
 11
2766.405619440015
 21
235.0802078604825
 31
0.0
 12
2743.905619440015
 22
238.8302078604825
 32
0.0
 13
2743.905619440015
 23
238.8302078604825
 33
0.0
  0
MTEXT
  5
9F9D
330
9667
100
AcDbEntity
  8
寸法引出
 48
15.0
100
AcDbMText
 10
2709.905619440015
 20
268.8302078604825
 30
0.0
 40
30.0
 41
0.0
 71
     5
 72
     1
  1
\A1;68
  7
SANWA
 73
     1
 44
1.0
1001
ACAD
1000
MTEXTBEGIN
1070
    73
1070
     1
1070
    44
1040
1.0
1070
    74
1070
     0
1000
MTEXTEND
  0
POINT
  5
9F9E
330
9667
100
AcDbEntity
  8
DEFPOINTS
 62
     0
 48
15.0
100
AcDbPoint
 10
2675.905619440015
 20
329.3473388973784
 30
0.0
  0
POINT
  5
9F9F
330
9667
100
AcDbEntity
  8
DEFPOINTS
 62
     0
 48
15.0
100
AcDbPoint
 10
2743.905619440015
 20
329.3473388973784
 30
0.0
  0
POINT
  5
9FA0
330
9667
100
AcDbEntity
  8
DEFPOINTS
 62
     0
 48
15.0
100
AcDbPoint
 10
2743.905619440015
 20
238.8302078604825
 30
0.0
  0
ENDBLK
  5
9673
330
9667
100
AcDbEntity
  8
0
 48
15.0
100
AcDbBlockEnd
  0
BLOCK
  5
9680
330
9674
100
AcDbEntity
  8
0
 48
15.0
100
AcDbBlockBegin
  2
*D153
 70
     1
 10
0.0
 20
0.0
 30
0.0
  3
*D153
  1

  0
LINE
  5
9FA1
330
9674
100
AcDbEntity
  8
寸法引出
 48
15.0
370
    -2
100
AcDbLine
 10
2605.905619440015
 20
314.3473388973784
 30
0.0
 11
2605.905619440015
 21
231.3302078604825
 31
0.0
  0
LINE
  5
9FA2
330
9674
100
AcDbEntity
  8
寸法引出
 48
15.0
370
    -2
100
AcDbLine
 10
2675.905619440015
 20
314.3473388973784
 30
0.0
 11
2675.905619440015
 21
231.3302078604825
 31
0.0
  0
LINE
  5
9FA3
330
9674
100
AcDbEntity
  8
寸法引出
 48
15.0
370
    -2
100
AcDbLine
 10
2583.405619440015
 20
238.8302078604825
 30
0.0
 11
2560.905619440015
 21
238.8302078604825
 31
0.0
  0
LINE
  5
9FA4
330
9674
100
AcDbEntity
  8
寸法引出
 48
15.0
370
    -2
100
AcDbLine
 10
2698.405619440015
 20
238.8302078604825
 30
0.0
 11
2720.905619440015
 21
238.8302078604825
 31
0.0
  0
LINE
  5
9FA5
330
9674
100
AcDbEntity
  8
寸法引出
 48
15.0
370
    -2
100
AcDbLine
 10
2605.905619440015
 20
238.8302078604825
 30
0.0
 11
2675.905619440015
 21
238.8302078604825
 31
0.0
  0
SOLID
  5
9FA6
330
9674
100
AcDbEntity
  8
寸法引出
 48
15.0
100
AcDbTrace
 10
2583.405619440015
 20
242.5802078604824
 30
0.0
 11
2583.405619440015
 21
235.0802078604825
 31
0.0
 12
2605.905619440015
 22
238.8302078604825
 32
0.0
 13
2605.905619440015
 23
238.8302078604825
 33
0.0
  0
SOLID
  5
9FA7
330
9674
100
AcDbEntity
  8
寸法引出
 48
15.0
100
AcDbTrace
 10
2698.405619440015
 20
242.5802078604824
 30
0.0
 11
2698.405619440015
 21
235.0802078604825
 31
0.0
 12
2675.905619440015
 22
238.8302078604825
 32
0.0
 13
2675.905619440015
 23
238.8302078604825
 33
0.0
  0
MTEXT
  5
9FA8
330
9674
100
AcDbEntity
  8
寸法引出
 48
15.0
100
AcDbMText
 10
2640.905619440015
 20
268.8302078604825
 30
0.0
 40
30.0
 41
0.0
 71
     5
 72
     1
  1
\A1;70
  7
SANWA
 73
     1
 44
1.0
1001
ACAD
1000
MTEXTBEGIN
1070
    73
1070
     1
1070
    44
1040
1.0
1070
    74
1070
     0
1000
MTEXTEND
  0
POINT
  5
9FA9
330
9674
100
AcDbEntity
  8
DEFPOINTS
 62
     0
 48
15.0
100
AcDbPoint
 10
2605.905619440015
 20
329.3473388973784
 30
0.0
  0
POINT
  5
9FAA
330
9674
100
AcDbEntity
  8
DEFPOINTS
 62
     0
 48
15.0
100
AcDbPoint
 10
2675.905619440015
 20
329.3473388973784
 30
0.0
  0
POINT
  5
9FAB
330
9674
100
AcDbEntity
  8
DEFPOINTS
 62
     0
 48
15.0
100
AcDbPoint
 10
2675.905619440015
 20
238.8302078604825
 30
0.0
  0
ENDBLK
  5
9681
330
9674
100
AcDbEntity
  8
0
 48
15.0
100
AcDbBlockEnd
  0
BLOCK
  5
968E
330
9682
100
AcDbEntity
  8
0
 48
15.0
100
AcDbBlockBegin
  2
*D154
 70
     1
 10
0.0
 20
0.0
 30
0.0
  3
*D154
  1

  0
LINE
  5
9FAC
330
9682
100
AcDbEntity
  8
寸法引出
 48
15.0
370
    -2
100
AcDbLine
 10
2605.905619440015
 20
348.8473388973785
 30
0.0
 11
2605.905619440015
 21
388.6113225518989
 31
0.0
  0
LINE
  5
9FAD
330
9682
100
AcDbEntity
  8
寸法引出
 48
15.0
370
    -2
100
AcDbLine
 10
2640.905619440015
 20
358.8473388973785
 30
0.0
 11
2640.905619440015
 21
388.6113225518989
 31
0.0
  0
LINE
  5
9FAE
330
9682
100
AcDbEntity
  8
寸法引出
 48
15.0
370
    -2
100
AcDbLine
 10
2583.405619440015
 20
381.1113225518989
 30
0.0
 11
2560.905619440015
 21
381.1113225518989
 31
0.0
  0
LINE
  5
9FAF
330
9682
100
AcDbEntity
  8
寸法引出
 48
15.0
370
    -2
100
AcDbLine
 10
2663.405619440015
 20
381.1113225518989
 30
0.0
 11
2685.905619440015
 21
381.1113225518989
 31
0.0
  0
LINE
  5
9FB0
330
9682
100
AcDbEntity
  8
寸法引出
 48
15.0
370
    -2
100
AcDbLine
 10
2605.905619440015
 20
381.1113225518989
 30
0.0
 11
2640.905619440015
 21
381.1113225518989
 31
0.0
  0
SOLID
  5
9FB1
330
9682
100
AcDbEntity
  8
寸法引出
 48
15.0
100
AcDbTrace
 10
2583.405619440015
 20
384.8613225518989
 30
0.0
 11
2583.405619440015
 21
377.3613225518989
 31
0.0
 12
2605.905619440015
 22
381.1113225518989
 32
0.0
 13
2605.905619440015
 23
381.1113225518989
 33
0.0
  0
SOLID
  5
9FB2
330
9682
100
AcDbEntity
  8
寸法引出
 48
15.0
100
AcDbTrace
 10
2663.405619440015
 20
384.8613225518989
 30
0.0
 11
2663.405619440015
 21
377.3613225518989
 31
0.0
 12
2640.905619440015
 22
381.1113225518989
 32
0.0
 13
2640.905619440015
 23
381.1113225518989
 33
0.0
  0
MTEXT
  5
9FB3
330
9682
100
AcDbEntity
  8
寸法引出
 48
15.0
100
AcDbMText
 10
2623.405619440015
 20
411.1113225518988
 30
0.0
 40
30.0
 41
0.0
 71
     5
 72
     1
  1
\A1;35
  7
SANWA
 73
     1
 44
1.0
1001
ACAD
1000
MTEXTBEGIN
1070
    73
1070
     1
1070
    44
1040
1.0
1070
    74
1070
     0
1000
MTEXTEND
  0
POINT
  5
9FB4
330
9682
100
AcDbEntity
  8
DEFPOINTS
 62
     0
 48
15.0
100
AcDbPoint
 10
2605.905619440015
 20
333.8473388973785
 30
0.0
  0
POINT
  5
9FB5
330
9682
100
AcDbEntity
  8
DEFPOINTS
 62
     0
 48
15.0
100
AcDbPoint
 10
2640.905619440015
 20
343.8473388973784
 30
0.0
  0
POINT
  5
9FB6
330
9682
100
AcDbEntity
  8
DEFPOINTS
 62
     0
 48
15.0
100
AcDbPoint
 10
2640.905619440015
 20
381.1113225518989
 30
0.0
  0
ENDBLK
  5
968F
330
9682
100
AcDbEntity
  8
0
 48
15.0
100
AcDbBlockEnd
  0
BLOCK
  5
969A
330
9690
100
AcDbEntity
  8
0
 48
15.0
100
AcDbBlockBegin
  2
*D155
 70
     1
 10
0.0
 20
0.0
 30
0.0
  3
*D155
  1

  0
LINE
  5
9FB7
330
9690
100
AcDbEntity
  8
寸法引出
 48
15.0
370
    -2
100
AcDbLine
 10
2671.405619440015
 20
414.3473388973784
 30
0.0
 11
2671.405619440015
 21
474.7288389012769
 31
0.0
  0
LINE
  5
9FB8
330
9690
100
AcDbEntity
  8
寸法引出
 48
15.0
370
    -2
100
AcDbLine
 10
2748.405619440015
 20
414.3473388973784
 30
0.0
 11
2748.405619440015
 21
474.7288389012769
 31
0.0
  0
LINE
  5
9FB9
330
9690
100
AcDbEntity
  8
寸法引出
 48
15.0
370
    -2
100
AcDbLine
 10
2693.905619440015
 20
467.2288389012769
 30
0.0
 11
2725.905619440015
 21
467.2288389012769
 31
0.0
  0
SOLID
  5
9FBA
330
9690
100
AcDbEntity
  8
寸法引出
 48
15.0
100
AcDbTrace
 10
2693.905619440015
 20
470.978838901277
 30
0.0
 11
2693.905619440015
 21
463.4788389012769
 31
0.0
 12
2671.405619440015
 22
467.2288389012769
 32
0.0
 13
2671.405619440015
 23
467.2288389012769
 33
0.0
  0
SOLID
  5
9FBB
330
9690
100
AcDbEntity
  8
寸法引出
 48
15.0
100
AcDbTrace
 10
2725.905619440015
 20
470.978838901277
 30
0.0
 11
2725.905619440015
 21
463.4788389012769
 31
0.0
 12
2748.405619440015
 22
467.2288389012769
 32
0.0
 13
2748.405619440015
 23
467.2288389012769
 33
0.0
  0
MTEXT
  5
9FBC
330
9690
100
AcDbEntity
  8
寸法引出
 48
15.0
100
AcDbMText
 10
2709.905619440015
 20
497.2288389012769
 30
0.0
 40
30.0
 41
0.0
 71
     5
 72
     1
  1
\A1;77
  7
SANWA
 73
     1
 44
1.0
1001
ACAD
1000
MTEXTBEGIN
1070
    73
1070
     1
1070
    44
1040
1.0
1070
    74
1070
     0
1000
MTEXTEND
  0
POINT
  5
9FBD
330
9690
100
AcDbEntity
  8
DEFPOINTS
 62
     0
 48
15.0
100
AcDbPoint
 10
2671.405619440015
 20
399.3473388973784
 30
0.0
  0
POINT
  5
9FBE
330
9690
100
AcDbEntity
  8
DEFPOINTS
 62
     0
 48
15.0
100
AcDbPoint
 10
2748.405619440015
 20
399.3473388973784
 30
0.0
  0
POINT
  5
9FBF
330
9690
100
AcDbEntity
  8
DEFPOINTS
 62
     0
 48
15.0
100
AcDbPoint
 10
2748.405619440015
 20
467.2288389012769
 30
0.0
  0
ENDBLK
  5
969B
330
9690
100
AcDbEntity
  8
0
 48
15.0
100
AcDbBlockEnd
  0
BLOCK
  5
96A6
330
969C
100
AcDbEntity
  8
0
 48
15.0
100
AcDbBlockBegin
  2
*D156
 70
     1
 10
0.0
 20
0.0
 30
0.0
  3
*D156
  1

  0
LINE
  5
9FC0
330
969C
100
AcDbEntity
  8
寸法引出
 48
15.0
370
    -2
100
AcDbLine
 10
2590.905619440015
 20
689.9215156385221
 30
0.0
 11
2502.521287916569
 21
689.9215156385221
 31
0.0
  0
LINE
  5
9FC1
330
969C
100
AcDbEntity
  8
寸法引出
 48
15.0
370
    -2
100
AcDbLine
 10
2590.905619440015
 20
839.9215156385221
 30
0.0
 11
2502.521287916569
 21
839.9215156385221
 31
0.0
  0
LINE
  5
9FC2
330
969C
100
AcDbEntity
  8
寸法引出
 48
15.0
370
    -2
100
AcDbLine
 10
2510.021287916569
 20
712.4215156385221
 30
0.0
 11
2510.021287916569
 21
817.4215156385221
 31
0.0
  0
SOLID
  5
9FC3
330
969C
100
AcDbEntity
  8
寸法引出
 48
15.0
100
AcDbTrace
 10
2506.271287916569
 20
712.4215156385221
 30
0.0
 11
2513.771287916569
 21
712.4215156385221
 31
0.0
 12
2510.021287916569
 22
689.9215156385221
 32
0.0
 13
2510.021287916569
 23
689.9215156385221
 33
0.0
  0
SOLID
  5
9FC4
330
969C
100
AcDbEntity
  8
寸法引出
 48
15.0
100
AcDbTrace
 10
2506.271287916569
 20
817.4215156385221
 30
0.0
 11
2513.771287916569
 21
817.4215156385221
 31
0.0
 12
2510.021287916569
 22
839.9215156385221
 32
0.0
 13
2510.021287916569
 23
839.9215156385221
 33
0.0
  0
MTEXT
  5
9FC5
330
969C
100
AcDbEntity
  8
寸法引出
 48
15.0
100
AcDbMText
 10
2480.021287916569
 20
764.9215156385225
 30
0.0
 40
30.0
 41
0.0
 71
     5
 72
     1
  1
\A1;150
  7
SANWA
 11
0.0000000000000001
 21
1.0
 31
0.0
 73
     1
 44
1.0
1001
ACAD
1000
MTEXTBEGIN
1070
    73
1070
     1
1070
    44
1040
1.0
1070
    74
1070
     0
1000
MTEXTEND
  0
POINT
  5
9FC6
330
969C
100
AcDbEntity
  8
DEFPOINTS
 62
     0
 48
15.0
100
AcDbPoint
 10
2605.905619440015
 20
689.9215156385221
 30
0.0
  0
POINT
  5
9FC7
330
969C
100
AcDbEntity
  8
DEFPOINTS
 62
     0
 48
15.0
100
AcDbPoint
 10
2605.905619440015
 20
839.9215156385221
 30
0.0
  0
POINT
  5
9FC8
330
969C
100
AcDbEntity
  8
DEFPOINTS
 62
     0
 48
15.0
100
AcDbPoint
 10
2510.021287916569
 20
839.9215156385221
 30
0.0
  0
ENDBLK
  5
96A7
330
969C
100
AcDbEntity
  8
0
 48
15.0
100
AcDbBlockEnd
  0
BLOCK
  5
96B1
330
96A8
100
AcDbEntity
  8
0
 48
15.0
100
AcDbBlockBegin
  2
*D157
 70
     1
 10
0.0
 20
0.0
 30
0.0
  3
*D157
  1

  0
LINE
  5
9FC9
330
96A8
100
AcDbEntity
  8
寸法引出
 48
15.0
370
    -2
100
AcDbLine
 10
3073.279085127323
 20
2169.622610370839
 30
0.0
 11
3073.279085127323
 21
2090.141599868362
 31
0.0
  0
LINE
  5
9FCA
330
96A8
100
AcDbEntity
  8
寸法引出
 48
15.0
370
    -2
100
AcDbLine
 10
2335.779085127323
 20
2097.641599868362
 30
0.0
 11
3050.779085127323
 21
2097.641599868362
 31
0.0
  0
SOLID
  5
9FCB
330
96A8
100
AcDbEntity
  8
寸法引出
 48
15.0
100
AcDbTrace
 10
2335.779085127323
 20
2101.391599868362
 30
0.0
 11
2335.779085127323
 21
2093.891599868362
 31
0.0
 12
2313.279085127323
 22
2097.641599868362
 32
0.0
 13
2313.279085127323
 23
2097.641599868362
 33
0.0
  0
SOLID
  5
9FCC
330
96A8
100
AcDbEntity
  8
寸法引出
 48
15.0
100
AcDbTrace
 10
3050.779085127323
 20
2101.391599868362
 30
0.0
 11
3050.779085127323
 21
2093.891599868362
 31
0.0
 12
3073.279085127323
 22
2097.641599868362
 32
0.0
 13
3073.279085127323
 23
2097.641599868362
 33
0.0
  0
MTEXT
  5
9FCD
330
96A8
100
AcDbEntity
  8
寸法引出
 48
15.0
100
AcDbMText
 10
2693.279085127323
 20
2127.641599868362
 30
0.0
 40
30.0
 41
0.0
 71
     5
 72
     1
  1
\A1;760
  7
SANWA
 73
     1
 44
1.0
1001
ACAD
1000
MTEXTBEGIN
1070
    73
1070
     1
1070
    44
1040
1.0
1070
    74
1070
     0
1000
MTEXTEND
  0
POINT
  5
9FCE
330
96A8
100
AcDbEntity
  8
DEFPOINTS
 62
     0
 48
15.0
100
AcDbPoint
 10
2313.279085127323
 20
2184.622610370839
 30
0.0
  0
POINT
  5
9FCF
330
96A8
100
AcDbEntity
  8
DEFPOINTS
 62
     0
 48
15.0
100
AcDbPoint
 10
3073.279085127323
 20
2184.622610370839
 30
0.0
  0
POINT
  5
9FD0
330
96A8
100
AcDbEntity
  8
DEFPOINTS
 62
     0
 48
15.0
100
AcDbPoint
 10
3073.279085127323
 20
2097.641599868362
 30
0.0
  0
ENDBLK
  5
96B2
330
96A8
100
AcDbEntity
  8
0
 48
15.0
100
AcDbBlockEnd
  0
BLOCK
  5
96BD
330
96B3
100
AcDbEntity
  8
0
 48
15.0
100
AcDbBlockBegin
  2
*D158
 70
     1
 10
0.0
 20
0.0
 30
0.0
  3
*D158
  1

  0
LINE
  5
9FD1
330
96B3
100
AcDbEntity
  8
寸法引出
 48
15.0
370
    -2
100
AcDbLine
 10
2193.279085127323
 20
2349.622610370839
 30
0.0
 11
2193.279085127323
 21
2483.633253255152
 31
0.0
  0
LINE
  5
9FD2
330
96B3
100
AcDbEntity
  8
寸法引出
 48
15.0
370
    -2
100
AcDbLine
 10
3193.279085127323
 20
2349.622610370839
 30
0.0
 11
3193.279085127323
 21
2483.633253255152
 31
0.0
  0
LINE
  5
9FD3
330
96B3
100
AcDbEntity
  8
寸法引出
 48
15.0
370
    -2
100
AcDbLine
 10
2215.779085127323
 20
2476.133253255152
 30
0.0
 11
3170.779085127323
 21
2476.133253255152
 31
0.0
  0
SOLID
  5
9FD4
330
96B3
100
AcDbEntity
  8
寸法引出
 48
15.0
100
AcDbTrace
 10
2215.779085127323
 20
2479.883253255152
 30
0.0
 11
2215.779085127323
 21
2472.383253255152
 31
0.0
 12
2193.279085127323
 22
2476.133253255152
 32
0.0
 13
2193.279085127323
 23
2476.133253255152
 33
0.0
  0
SOLID
  5
9FD5
330
96B3
100
AcDbEntity
  8
寸法引出
 48
15.0
100
AcDbTrace
 10
3170.779085127323
 20
2479.883253255152
 30
0.0
 11
3170.779085127323
 21
2472.383253255152
 31
0.0
 12
3193.279085127323
 22
2476.133253255152
 32
0.0
 13
3193.279085127323
 23
2476.133253255152
 33
0.0
  0
MTEXT
  5
9FD6
330
96B3
100
AcDbEntity
  8
寸法引出
 48
15.0
100
AcDbMText
 10
2693.279085127323
 20
2506.133253255152
 30
0.0
 40
30.0
 41
0.0
 71
     5
 72
     1
  1
\A1;1000
  7
SANWA
 73
     1
 44
1.0
1001
ACAD
1000
MTEXTBEGIN
1070
    73
1070
     1
1070
    44
1040
1.0
1070
    74
1070
     0
1000
MTEXTEND
  0
POINT
  5
9FD7
330
96B3
100
AcDbEntity
  8
DEFPOINTS
 62
     0
 48
15.0
100
AcDbPoint
 10
2193.279085127323
 20
2334.622610370839
 30
0.0
  0
POINT
  5
9FD8
330
96B3
100
AcDbEntity
  8
DEFPOINTS
 62
     0
 48
15.0
100
AcDbPoint
 10
3193.279085127323
 20
2334.622610370839
 30
0.0
  0
POINT
  5
9FD9
330
96B3
100
AcDbEntity
  8
DEFPOINTS
 62
     0
 48
15.0
100
AcDbPoint
 10
3193.279085127323
 20
2476.133253255152
 30
0.0
  0
ENDBLK
  5
96BE
330
96B3
100
AcDbEntity
  8
0
 48
15.0
100
AcDbBlockEnd
  0
BLOCK
  5
96C8
330
96BF
100
AcDbEntity
  8
0
 48
15.0
100
AcDbBlockBegin
  2
*D159
 70
     1
 10
0.0
 20
0.0
 30
0.0
  3
*D159
  1

  0
LINE
  5
9FDA
330
96BF
100
AcDbEntity
  8
寸法引出
 48
15.0
370
    -2
100
AcDbLine
 10
3043.279085127323
 20
2349.622610370839
 30
0.0
 11
3043.279085127323
 21
2418.840613689072
 31
0.0
  0
LINE
  5
9FDB
330
96BF
100
AcDbEntity
  8
寸法引出
 48
15.0
370
    -2
100
AcDbLine
 10
2365.779085127323
 20
2411.340613689072
 30
0.0
 11
3020.779085127323
 21
2411.340613689072
 31
0.0
  0
SOLID
  5
9FDC
330
96BF
100
AcDbEntity
  8
寸法引出
 48
15.0
100
AcDbTrace
 10
2365.779085127323
 20
2415.090613689072
 30
0.0
 11
2365.779085127323
 21
2407.590613689072
 31
0.0
 12
2343.279085127323
 22
2411.340613689072
 32
0.0
 13
2343.279085127323
 23
2411.340613689072
 33
0.0
  0
SOLID
  5
9FDD
330
96BF
100
AcDbEntity
  8
寸法引出
 48
15.0
100
AcDbTrace
 10
3020.779085127323
 20
2415.090613689072
 30
0.0
 11
3020.779085127323
 21
2407.590613689072
 31
0.0
 12
3043.279085127323
 22
2411.340613689072
 32
0.0
 13
3043.279085127323
 23
2411.340613689072
 33
0.0
  0
MTEXT
  5
9FDE
330
96BF
100
AcDbEntity
  8
寸法引出
 48
15.0
100
AcDbMText
 10
2693.279085127323
 20
2441.340613689072
 30
0.0
 40
30.0
 41
0.0
 71
     5
 72
     1
  1
\A1;700
  7
SANWA
 73
     1
 44
1.0
1001
ACAD
1000
MTEXTBEGIN
1070
    73
1070
     1
1070
    44
1040
1.0
1070
    74
1070
     0
1000
MTEXTEND
  0
POINT
  5
9FDF
330
96BF
100
AcDbEntity
  8
DEFPOINTS
 62
     0
 48
15.0
100
AcDbPoint
 10
2343.279085127323
 20
2334.622610370839
 30
0.0
  0
POINT
  5
9FE0
330
96BF
100
AcDbEntity
  8
DEFPOINTS
 62
     0
 48
15.0
100
AcDbPoint
 10
3043.279085127323
 20
2334.622610370839
 30
0.0
  0
POINT
  5
9FE1
330
96BF
100
AcDbEntity
  8
DEFPOINTS
 62
     0
 48
15.0
100
AcDbPoint
 10
3043.279085127323
 20
2411.340613689072
 30
0.0
  0
ENDBLK
  5
96C9
330
96BF
100
AcDbEntity
  8
0
 48
15.0
100
AcDbBlockEnd
  0
BLOCK
  5
96D4
330
96CA
100
AcDbEntity
  8
0
 48
15.0
100
AcDbBlockBegin
  2
*D160
 70
     1
 10
0.0
 20
0.0
 30
0.0
  3
*D160
  1

  0
LINE
  5
9FE2
330
96CA
100
AcDbEntity
  8
寸法引出
 48
15.0
370
    -2
100
AcDbLine
 10
1275.338355942214
 20
2299.622610370839
 30
0.0
 11
1275.338355942214
 21
2418.840613689072
 31
0.0
  0
LINE
  5
9FE3
330
96CA
100
AcDbEntity
  8
寸法引出
 48
15.0
370
    -2
100
AcDbLine
 10
1417.838355942214
 20
2349.622610370839
 30
0.0
 11
1417.838355942214
 21
2418.840613689072
 31
0.0
  0
LINE
  5
9FE4
330
96CA
100
AcDbEntity
  8
寸法引出
 48
15.0
370
    -2
100
AcDbLine
 10
1297.838355942214
 20
2411.340613689072
 30
0.0
 11
1395.338355942215
 21
2411.340613689072
 31
0.0
  0
SOLID
  5
9FE5
330
96CA
100
AcDbEntity
  8
寸法引出
 48
15.0
100
AcDbTrace
 10
1297.838355942214
 20
2415.090613689072
 30
0.0
 11
1297.838355942214
 21
2407.590613689072
 31
0.0
 12
1275.338355942214
 22
2411.340613689072
 32
0.0
 13
1275.338355942214
 23
2411.340613689072
 33
0.0
  0
SOLID
  5
9FE6
330
96CA
100
AcDbEntity
  8
寸法引出
 48
15.0
100
AcDbTrace
 10
1395.338355942215
 20
2415.090613689072
 30
0.0
 11
1395.338355942215
 21
2407.590613689072
 31
0.0
 12
1417.838355942214
 22
2411.340613689072
 32
0.0
 13
1417.838355942214
 23
2411.340613689072
 33
0.0
  0
MTEXT
  5
9FE7
330
96CA
100
AcDbEntity
  8
寸法引出
 48
15.0
100
AcDbMText
 10
1346.588355942214
 20
2441.340613689072
 30
0.0
 40
30.0
 41
0.0
 71
     5
 72
     1
  1
\A1;142.5
  7
SANWA
 73
     1
 44
1.0
1001
ACAD
1000
MTEXTBEGIN
1070
    73
1070
     1
1070
    44
1040
1.0
1070
    74
1070
     0
1000
MTEXTEND
  0
POINT
  5
9FE8
330
96CA
100
AcDbEntity
  8
DEFPOINTS
 62
     0
 48
15.0
100
AcDbPoint
 10
1275.338355942214
 20
2284.622610370839
 30
0.0
  0
POINT
  5
9FE9
330
96CA
100
AcDbEntity
  8
DEFPOINTS
 62
     0
 48
15.0
100
AcDbPoint
 10
1417.838355942214
 20
2334.622610370839
 30
0.0
  0
POINT
  5
9FEA
330
96CA
100
AcDbEntity
  8
DEFPOINTS
 62
     0
 48
15.0
100
AcDbPoint
 10
1417.838355942214
 20
2411.340613689072
 30
0.0
  0
ENDBLK
  5
96D5
330
96CA
100
AcDbEntity
  8
0
 48
15.0
100
AcDbBlockEnd
  0
BLOCK
  5
96E0
330
96D6
100
AcDbEntity
  8
0
 48
15.0
100
AcDbBlockBegin
  2
*D161
 70
     1
 10
0.0
 20
0.0
 30
0.0
  3
*D161
  1

  0
LINE
  5
9FEB
330
96D6
100
AcDbEntity
  8
寸法引出
 48
15.0
370
    -2
100
AcDbLine
 10
1275.338355942214
 20
2299.622610370839
 30
0.0
 11
1275.338355942214
 21
2483.633253255152
 31
0.0
  0
LINE
  5
9FEC
330
96D6
100
AcDbEntity
  8
寸法引出
 48
15.0
370
    -2
100
AcDbLine
 10
1625.338355942214
 20
2299.622610370839
 30
0.0
 11
1625.338355942214
 21
2483.633253255152
 31
0.0
  0
LINE
  5
9FED
330
96D6
100
AcDbEntity
  8
寸法引出
 48
15.0
370
    -2
100
AcDbLine
 10
1297.838355942214
 20
2476.133253255152
 30
0.0
 11
1602.838355942214
 21
2476.133253255152
 31
0.0
  0
SOLID
  5
9FEE
330
96D6
100
AcDbEntity
  8
寸法引出
 48
15.0
100
AcDbTrace
 10
1297.838355942214
 20
2479.883253255152
 30
0.0
 11
1297.838355942214
 21
2472.383253255152
 31
0.0
 12
1275.338355942214
 22
2476.133253255152
 32
0.0
 13
1275.338355942214
 23
2476.133253255152
 33
0.0
  0
SOLID
  5
9FEF
330
96D6
100
AcDbEntity
  8
寸法引出
 48
15.0
100
AcDbTrace
 10
1602.838355942214
 20
2479.883253255152
 30
0.0
 11
1602.838355942214
 21
2472.383253255152
 31
0.0
 12
1625.338355942214
 22
2476.133253255152
 32
0.0
 13
1625.338355942214
 23
2476.133253255152
 33
0.0
  0
MTEXT
  5
9FF0
330
96D6
100
AcDbEntity
  8
寸法引出
 48
15.0
100
AcDbMText
 10
1450.338355942214
 20
2506.133253255152
 30
0.0
 40
30.0
 41
0.0
 71
     5
 72
     1
  1
\A1;350
  7
SANWA
 73
     1
 44
1.0
1001
ACAD
1000
MTEXTBEGIN
1070
    73
1070
     1
1070
    44
1040
1.0
1070
    74
1070
     0
1000
MTEXTEND
  0
POINT
  5
9FF1
330
96D6
100
AcDbEntity
  8
DEFPOINTS
 62
     0
 48
15.0
100
AcDbPoint
 10
1275.338355942214
 20
2284.622610370839
 30
0.0
  0
POINT
  5
9FF2
330
96D6
100
AcDbEntity
  8
DEFPOINTS
 62
     0
 48
15.0
100
AcDbPoint
 10
1625.338355942214
 20
2284.622610370839
 30
0.0
  0
POINT
  5
9FF3
330
96D6
100
AcDbEntity
  8
DEFPOINTS
 62
     0
 48
15.0
100
AcDbPoint
 10
1625.338355942214
 20
2476.133253255152
 30
0.0
  0
ENDBLK
  5
96E1
330
96D6
100
AcDbEntity
  8
0
 48
15.0
100
AcDbBlockEnd
  0
BLOCK
  5
96EC
330
96E2
100
AcDbEntity
  8
0
 48
15.0
100
AcDbBlockBegin
  2
*D162
 70
     1
 10
0.0
 20
0.0
 30
0.0
  3
*D162
  1

  0
LINE
  5
9FF4
330
96E2
100
AcDbEntity
  8
寸法引出
 48
15.0
370
    -2
100
AcDbLine
 10
1450.338355942214
 20
1754.921515638522
 30
0.0
 11
1450.338355942214
 21
1772.789806199075
 31
0.0
  0
LINE
  5
9FF5
330
96E2
100
AcDbEntity
  8
寸法引出
 48
15.0
370
    -2
100
AcDbLine
 10
1600.338355942215
 20
1704.921515638522
 30
0.0
 11
1600.338355942215
 21
1772.789806199075
 31
0.0
  0
LINE
  5
9FF6
330
96E2
100
AcDbEntity
  8
寸法引出
 48
15.0
370
    -2
100
AcDbLine
 10
1472.838355942214
 20
1765.289806199075
 30
0.0
 11
1577.838355942214
 21
1765.289806199075
 31
0.0
  0
SOLID
  5
9FF7
330
96E2
100
AcDbEntity
  8
寸法引出
 48
15.0
100
AcDbTrace
 10
1472.838355942214
 20
1769.039806199075
 30
0.0
 11
1472.838355942214
 21
1761.539806199075
 31
0.0
 12
1450.338355942214
 22
1765.289806199075
 32
0.0
 13
1450.338355942214
 23
1765.289806199075
 33
0.0
  0
SOLID
  5
9FF8
330
96E2
100
AcDbEntity
  8
寸法引出
 48
15.0
100
AcDbTrace
 10
1577.838355942214
 20
1769.039806199075
 30
0.0
 11
1577.838355942214
 21
1761.539806199075
 31
0.0
 12
1600.338355942215
 22
1765.289806199075
 32
0.0
 13
1600.338355942215
 23
1765.289806199075
 33
0.0
  0
MTEXT
  5
9FF9
330
96E2
100
AcDbEntity
  8
寸法引出
 48
15.0
100
AcDbMText
 10
1525.338355942214
 20
1795.289806199075
 30
0.0
 40
30.0
 41
0.0
 71
     5
 72
     1
  1
\A1;150
  7
SANWA
 73
     1
 44
1.0
1001
ACAD
1000
MTEXTBEGIN
1070
    73
1070
     1
1070
    44
1040
1.0
1070
    74
1070
     0
1000
MTEXTEND
  0
POINT
  5
9FFA
330
96E2
100
AcDbEntity
  8
DEFPOINTS
 62
     0
 48
15.0
100
AcDbPoint
 10
1450.338355942214
 20
1739.921515638522
 30
0.0
  0
POINT
  5
9FFB
330
96E2
100
AcDbEntity
  8
DEFPOINTS
 62
     0
 48
15.0
100
AcDbPoint
 10
1600.338355942215
 20
1689.921515638522
 30
0.0
  0
POINT
  5
9FFC
330
96E2
100
AcDbEntity
  8
DEFPOINTS
 62
     0
 48
15.0
100
AcDbPoint
 10
1600.338355942215
 20
1765.289806199075
 30
0.0
  0
ENDBLK
  5
96ED
330
96E2
100
AcDbEntity
  8
0
 48
15.0
100
AcDbBlockEnd
  0
BLOCK
  5
96FA
330
96EE
100
AcDbEntity
  8
0
 48
15.0
100
AcDbBlockBegin
  2
*D163
 70
     1
 10
0.0
 20
0.0
 30
0.0
  3
*D163
  1

  0
LINE
  5
9FFD
330
96EE
100
AcDbEntity
  8
寸法引出
 48
15.0
370
    -2
100
AcDbLine
 10
1417.838355942214
 20
1704.921515638522
 30
0.0
 11
1417.838355942214
 21
1839.250610962148
 31
0.0
  0
LINE
  5
9FFE
330
96EE
100
AcDbEntity
  8
寸法引出
 48
15.0
370
    -2
100
AcDbLine
 10
1482.838355942214
 20
1704.921515638522
 30
0.0
 11
1482.838355942214
 21
1839.250610962148
 31
0.0
  0
LINE
  5
9FFF
330
96EE
100
AcDbEntity
  8
寸法引出
 48
15.0
370
    -2
100
AcDbLine
 10
1395.338355942215
 20
1831.750610962148
 30
0.0
 11
1372.838355942214
 21
1831.750610962148
 31
0.0
  0
LINE
  5
A000
330
96EE
100
AcDbEntity
  8
寸法引出
 48
15.0
370
    -2
100
AcDbLine
 10
1505.338355942214
 20
1831.750610962148
 30
0.0
 11
1527.838355942214
 21
1831.750610962148
 31
0.0
  0
LINE
  5
A001
330
96EE
100
AcDbEntity
  8
寸法引出
 48
15.0
370
    -2
100
AcDbLine
 10
1417.838355942214
 20
1831.750610962148
 30
0.0
 11
1482.838355942214
 21
1831.750610962148
 31
0.0
  0
SOLID
  5
A002
330
96EE
100
AcDbEntity
  8
寸法引出
 48
15.0
100
AcDbTrace
 10
1395.338355942215
 20
1835.500610962148
 30
0.0
 11
1395.338355942215
 21
1828.000610962148
 31
0.0
 12
1417.838355942214
 22
1831.750610962148
 32
0.0
 13
1417.838355942214
 23
1831.750610962148
 33
0.0
  0
SOLID
  5
A003
330
96EE
100
AcDbEntity
  8
寸法引出
 48
15.0
100
AcDbTrace
 10
1505.338355942214
 20
1835.500610962148
 30
0.0
 11
1505.338355942214
 21
1828.000610962148
 31
0.0
 12
1482.838355942214
 22
1831.750610962148
 32
0.0
 13
1482.838355942214
 23
1831.750610962148
 33
0.0
  0
MTEXT
  5
A004
330
96EE
100
AcDbEntity
  8
寸法引出
 48
15.0
100
AcDbMText
 10
1450.338355942214
 20
1861.750610962148
 30
0.0
 40
30.0
 41
0.0
 71
     5
 72
     1
  1
\A1;65
  7
SANWA
 73
     1
 44
1.0
1001
ACAD
1000
MTEXTBEGIN
1070
    73
1070
     1
1070
    44
1040
1.0
1070
    74
1070
     0
1000
MTEXTEND
  0
POINT
  5
A005
330
96EE
100
AcDbEntity
  8
DEFPOINTS
 62
     0
 48
15.0
100
AcDbPoint
 10
1417.838355942214
 20
1689.921515638522
 30
0.0
  0
POINT
  5
A006
330
96EE
100
AcDbEntity
  8
DEFPOINTS
 62
     0
 48
15.0
100
AcDbPoint
 10
1482.838355942214
 20
1689.921515638522
 30
0.0
  0
POINT
  5
A007
330
96EE
100
AcDbEntity
  8
DEFPOINTS
 62
     0
 48
15.0
100
AcDbPoint
 10
1482.838355942214
 20
1831.750610962148
 30
0.0
  0
ENDBLK
  5
96FB
330
96EE
100
AcDbEntity
  8
0
 48
15.0
100
AcDbBlockEnd
  0
BLOCK
  5
9708
330
96FC
100
AcDbEntity
  8
0
 48
15.0
100
AcDbBlockBegin
  2
*D164
 70
     1
 10
0.0
 20
0.0
 30
0.0
  3
*D164
  1

  0
LINE
  5
A008
330
96FC
100
AcDbEntity
  8
寸法引出
 48
15.0
370
    -2
100
AcDbLine
 10
1412.838355942214
 20
2178.622610370839
 30
0.0
 11
1412.838355942214
 21
2090.141599868362
 31
0.0
  0
LINE
  5
A009
330
96FC
100
AcDbEntity
  8
寸法引出
 48
15.0
370
    -2
100
AcDbLine
 10
1487.838355942214
 20
2178.622610370839
 30
0.0
 11
1487.838355942214
 21
2090.141599868362
 31
0.0
  0
LINE
  5
A00A
330
96FC
100
AcDbEntity
  8
寸法引出
 48
15.0
370
    -2
100
AcDbLine
 10
1390.338355942214
 20
2097.641599868362
 30
0.0
 11
1367.838355942214
 21
2097.641599868362
 31
0.0
  0
LINE
  5
A00B
330
96FC
100
AcDbEntity
  8
寸法引出
 48
15.0
370
    -2
100
AcDbLine
 10
1510.338355942214
 20
2097.641599868362
 30
0.0
 11
1532.838355942215
 21
2097.641599868362
 31
0.0
  0
LINE
  5
A00C
330
96FC
100
AcDbEntity
  8
寸法引出
 48
15.0
370
    -2
100
AcDbLine
 10
1412.838355942214
 20
2097.641599868362
 30
0.0
 11
1487.838355942214
 21
2097.641599868362
 31
0.0
  0
SOLID
  5
A00D
330
96FC
100
AcDbEntity
  8
寸法引出
 48
15.0
100
AcDbTrace
 10
1390.338355942214
 20
2101.391599868362
 30
0.0
 11
1390.338355942214
 21
2093.891599868362
 31
0.0
 12
1412.838355942214
 22
2097.641599868362
 32
0.0
 13
1412.838355942214
 23
2097.641599868362
 33
0.0
  0
SOLID
  5
A00E
330
96FC
100
AcDbEntity
  8
寸法引出
 48
15.0
100
AcDbTrace
 10
1510.338355942214
 20
2101.391599868362
 30
0.0
 11
1510.338355942214
 21
2093.891599868362
 31
0.0
 12
1487.838355942214
 22
2097.641599868362
 32
0.0
 13
1487.838355942214
 23
2097.641599868362
 33
0.0
  0
MTEXT
  5
A00F
330
96FC
100
AcDbEntity
  8
寸法引出
 48
15.0
100
AcDbMText
 10
1450.338355942214
 20
2127.641599868362
 30
0.0
 40
30.0
 41
0.0
 71
     5
 72
     1
  1
\A1;75
  7
SANWA
 73
     1
 44
1.0
1001
ACAD
1000
MTEXTBEGIN
1070
    73
1070
     1
1070
    44
1040
1.0
1070
    74
1070
     0
1000
MTEXTEND
  0
POINT
  5
A010
330
96FC
100
AcDbEntity
  8
DEFPOINTS
 62
     0
 48
15.0
100
AcDbPoint
 10
1412.838355942214
 20
2193.622610370839
 30
0.0
  0
POINT
  5
A011
330
96FC
100
AcDbEntity
  8
DEFPOINTS
 62
     0
 48
15.0
100
AcDbPoint
 10
1487.838355942214
 20
2193.622610370839
 30
0.0
  0
POINT
  5
A012
330
96FC
100
AcDbEntity
  8
DEFPOINTS
 62
     0
 48
15.0
100
AcDbPoint
 10
1487.838355942214
 20
2097.641599868362
 30
0.0
  0
ENDBLK
  5
9709
330
96FC
100
AcDbEntity
  8
0
 48
15.0
100
AcDbBlockEnd
  0
BLOCK
  5
9713
330
970A
100
AcDbEntity
  8
0
 48
15.0
100
AcDbBlockBegin
  2
*D165
 70
     1
 10
0.0
 20
0.0
 30
0.0
  3
*D165
  1

  0
LINE
  5
A013
330
970A
100
AcDbEntity
  8
寸法引出
 48
15.0
370
    -2
100
AcDbLine
 10
1625.338355942214
 20
2169.622610370839
 30
0.0
 11
1625.338355942214
 21
2022.782916378135
 31
0.0
  0
LINE
  5
A014
330
970A
100
AcDbEntity
  8
寸法引出
 48
15.0
370
    -2
100
AcDbLine
 10
1520.838355942214
 20
2030.282916378135
 30
0.0
 11
1602.838355942214
 21
2030.282916378135
 31
0.0
  0
SOLID
  5
A015
330
970A
100
AcDbEntity
  8
寸法引出
 48
15.0
100
AcDbTrace
 10
1520.838355942214
 20
2034.032916378135
 30
0.0
 11
1520.838355942214
 21
2026.532916378135
 31
0.0
 12
1498.338355942214
 22
2030.282916378135
 32
0.0
 13
1498.338355942214
 23
2030.282916378135
 33
0.0
  0
SOLID
  5
A016
330
970A
100
AcDbEntity
  8
寸法引出
 48
15.0
100
AcDbTrace
 10
1602.838355942214
 20
2034.032916378135
 30
0.0
 11
1602.838355942214
 21
2026.532916378135
 31
0.0
 12
1625.338355942214
 22
2030.282916378135
 32
0.0
 13
1625.338355942214
 23
2030.282916378135
 33
0.0
  0
MTEXT
  5
A017
330
970A
100
AcDbEntity
  8
寸法引出
 48
15.0
100
AcDbMText
 10
1561.838355942214
 20
2060.282916378135
 30
0.0
 40
30.0
 41
0.0
 71
     5
 72
     1
  1
\A1;127
  7
SANWA
 73
     1
 44
1.0
1001
ACAD
1000
MTEXTBEGIN
1070
    73
1070
     1
1070
    44
1040
1.0
1070
    74
1070
     0
1000
MTEXTEND
  0
POINT
  5
A018
330
970A
100
AcDbEntity
  8
DEFPOINTS
 62
     0
 48
15.0
100
AcDbPoint
 10
1498.338355942214
 20
2184.622610370839
 30
0.0
  0
POINT
  5
A019
330
970A
100
AcDbEntity
  8
DEFPOINTS
 62
     0
 48
15.0
100
AcDbPoint
 10
1625.338355942214
 20
2184.622610370839
 30
0.0
  0
POINT
  5
A01A
330
970A
100
AcDbEntity
  8
DEFPOINTS
 62
     0
 48
15.0
100
AcDbPoint
 10
1625.338355942214
 20
2030.282916378135
 30
0.0
  0
ENDBLK
  5
9714
330
970A
100
AcDbEntity
  8
0
 48
15.0
100
AcDbBlockEnd
  0
BLOCK
  5
971F
330
9715
100
AcDbEntity
  8
0
 48
15.0
100
AcDbBlockBegin
  2
*D166
 70
     1
 10
0.0
 20
0.0
 30
0.0
  3
*D166
  1

  0
LINE
  5
A01B
330
9715
100
AcDbEntity
  8
寸法引出
 48
15.0
370
    -2
100
AcDbLine
 10
1275.338355942214
 20
1704.921515638522
 30
0.0
 11
1275.338355942214
 21
1839.250610962148
 31
0.0
  0
LINE
  5
A01C
330
9715
100
AcDbEntity
  8
寸法引出
 48
15.0
370
    -2
100
AcDbLine
 10
1417.838355942214
 20
1704.921515638522
 30
0.0
 11
1417.838355942214
 21
1839.250610962148
 31
0.0
  0
LINE
  5
A01D
330
9715
100
AcDbEntity
  8
寸法引出
 48
15.0
370
    -2
100
AcDbLine
 10
1297.838355942214
 20
1831.750610962148
 30
0.0
 11
1395.338355942215
 21
1831.750610962148
 31
0.0
  0
SOLID
  5
A01E
330
9715
100
AcDbEntity
  8
寸法引出
 48
15.0
100
AcDbTrace
 10
1297.838355942214
 20
1835.500610962148
 30
0.0
 11
1297.838355942214
 21
1828.000610962148
 31
0.0
 12
1275.338355942214
 22
1831.750610962148
 32
0.0
 13
1275.338355942214
 23
1831.750610962148
 33
0.0
  0
SOLID
  5
A01F
330
9715
100
AcDbEntity
  8
寸法引出
 48
15.0
100
AcDbTrace
 10
1395.338355942215
 20
1835.500610962148
 30
0.0
 11
1395.338355942215
 21
1828.000610962148
 31
0.0
 12
1417.838355942214
 22
1831.750610962148
 32
0.0
 13
1417.838355942214
 23
1831.750610962148
 33
0.0
  0
MTEXT
  5
A020
330
9715
100
AcDbEntity
  8
寸法引出
 48
15.0
100
AcDbMText
 10
1346.588355942214
 20
1861.750610962148
 30
0.0
 40
30.0
 41
0.0
 71
     5
 72
     1
  1
\A1;142.5
  7
SANWA
 73
     1
 44
1.0
1001
ACAD
1000
MTEXTBEGIN
1070
    73
1070
     1
1070
    44
1040
1.0
1070
    74
1070
     0
1000
MTEXTEND
  0
POINT
  5
A021
330
9715
100
AcDbEntity
  8
DEFPOINTS
 62
     0
 48
15.0
100
AcDbPoint
 10
1275.338355942214
 20
1689.921515638522
 30
0.0
  0
POINT
  5
A022
330
9715
100
AcDbEntity
  8
DEFPOINTS
 62
     0
 48
15.0
100
AcDbPoint
 10
1417.838355942214
 20
1689.921515638522
 30
0.0
  0
POINT
  5
A023
330
9715
100
AcDbEntity
  8
DEFPOINTS
 62
     0
 48
15.0
100
AcDbPoint
 10
1417.838355942214
 20
1831.750610962148
 30
0.0
  0
ENDBLK
  5
9720
330
9715
100
AcDbEntity
  8
0
 48
15.0
100
AcDbBlockEnd
  0
BLOCK
  5
972A
330
9721
100
AcDbEntity
  8
0
 48
15.0
100
AcDbBlockBegin
  2
*D167
 70
     1
 10
0.0
 20
0.0
 30
0.0
  3
*D167
  1

  0
LINE
  5
A024
330
9721
100
AcDbEntity
  8
寸法引出
 48
15.0
370
    -2
100
AcDbLine
 10
1450.338355942214
 20
1754.921515638522
 30
0.0
 11
1450.338355942214
 21
1772.789806199075
 31
0.0
  0
LINE
  5
A025
330
9721
100
AcDbEntity
  8
寸法引出
 48
15.0
370
    -2
100
AcDbLine
 10
1322.838355942214
 20
1765.289806199075
 30
0.0
 11
1427.838355942214
 21
1765.289806199075
 31
0.0
  0
SOLID
  5
A026
330
9721
100
AcDbEntity
  8
寸法引出
 48
15.0
100
AcDbTrace
 10
1322.838355942214
 20
1769.039806199075
 30
0.0
 11
1322.838355942214
 21
1761.539806199075
 31
0.0
 12
1300.338355942214
 22
1765.289806199075
 32
0.0
 13
1300.338355942214
 23
1765.289806199075
 33
0.0
  0
SOLID
  5
A027
330
9721
100
AcDbEntity
  8
寸法引出
 48
15.0
100
AcDbTrace
 10
1427.838355942214
 20
1769.039806199075
 30
0.0
 11
1427.838355942214
 21
1761.539806199075
 31
0.0
 12
1450.338355942214
 22
1765.289806199075
 32
0.0
 13
1450.338355942214
 23
1765.289806199075
 33
0.0
  0
MTEXT
  5
A028
330
9721
100
AcDbEntity
  8
寸法引出
 48
15.0
100
AcDbMText
 10
1375.338355942214
 20
1795.289806199075
 30
0.0
 40
30.0
 41
0.0
 71
     5
 72
     1
  1
\A1;150
  7
SANWA
 73
     1
 44
1.0
1001
ACAD
1000
MTEXTBEGIN
1070
    73
1070
     1
1070
    44
1040
1.0
1070
    74
1070
     0
1000
MTEXTEND
  0
POINT
  5
A029
330
9721
100
AcDbEntity
  8
DEFPOINTS
 62
     0
 48
15.0
100
AcDbPoint
 10
1300.338355942214
 20
1689.921515638522
 30
0.0
  0
POINT
  5
A02A
330
9721
100
AcDbEntity
  8
DEFPOINTS
 62
     0
 48
15.0
100
AcDbPoint
 10
1450.338355942214
 20
1739.921515638522
 30
0.0
  0
POINT
  5
A02B
330
9721
100
AcDbEntity
  8
DEFPOINTS
 62
     0
 48
15.0
100
AcDbPoint
 10
1450.338355942214
 20
1765.289806199075
 30
0.0
  0
ENDBLK
  5
972B
330
9721
100
AcDbEntity
  8
0
 48
15.0
100
AcDbBlockEnd
  0
BLOCK
  5
9738
330
972C
100
AcDbEntity
  8
0
 48
15.0
100
AcDbBlockBegin
  2
*D168
 70
     1
 10
0.0
 20
0.0
 30
0.0
  3
*D168
  1

  0
LINE
  5
A02C
330
972C
100
AcDbEntity
  8
寸法引出
 48
15.0
370
    -2
100
AcDbLine
 10
1275.338355942214
 20
1704.921515638522
 30
0.0
 11
1275.338355942214
 21
1772.789806199075
 31
0.0
  0
LINE
  5
A02D
330
972C
100
AcDbEntity
  8
寸法引出
 48
15.0
370
    -2
100
AcDbLine
 10
1300.338355942214
 20
1704.921515638522
 30
0.0
 11
1300.338355942214
 21
1772.789806199075
 31
0.0
  0
LINE
  5
A02E
330
972C
100
AcDbEntity
  8
寸法引出
 48
15.0
370
    -2
100
AcDbLine
 10
1252.838355942214
 20
1765.289806199075
 30
0.0
 11
1230.338355942214
 21
1765.289806199075
 31
0.0
  0
LINE
  5
A02F
330
972C
100
AcDbEntity
  8
寸法引出
 48
15.0
370
    -2
100
AcDbLine
 10
1322.838355942214
 20
1765.289806199075
 30
0.0
 11
1345.338355942214
 21
1765.289806199075
 31
0.0
  0
LINE
  5
A030
330
972C
100
AcDbEntity
  8
寸法引出
 48
15.0
370
    -2
100
AcDbLine
 10
1275.338355942214
 20
1765.289806199075
 30
0.0
 11
1300.338355942214
 21
1765.289806199075
 31
0.0
  0
SOLID
  5
A031
330
972C
100
AcDbEntity
  8
寸法引出
 48
15.0
100
AcDbTrace
 10
1252.838355942214
 20
1769.039806199075
 30
0.0
 11
1252.838355942214
 21
1761.539806199075
 31
0.0
 12
1275.338355942214
 22
1765.289806199075
 32
0.0
 13
1275.338355942214
 23
1765.289806199075
 33
0.0
  0
SOLID
  5
A032
330
972C
100
AcDbEntity
  8
寸法引出
 48
15.0
100
AcDbTrace
 10
1322.838355942214
 20
1769.039806199075
 30
0.0
 11
1322.838355942214
 21
1761.539806199075
 31
0.0
 12
1300.338355942214
 22
1765.289806199075
 32
0.0
 13
1300.338355942214
 23
1765.289806199075
 33
0.0
  0
MTEXT
  5
A033
330
972C
100
AcDbEntity
  8
寸法引出
 48
15.0
100
AcDbMText
 10
1287.838355942214
 20
1795.289806199075
 30
0.0
 40
30.0
 41
0.0
 71
     5
 72
     1
  1
\A1;25
  7
SANWA
 73
     1
 44
1.0
1001
ACAD
1000
MTEXTBEGIN
1070
    73
1070
     1
1070
    44
1040
1.0
1070
    74
1070
     0
1000
MTEXTEND
  0
POINT
  5
A034
330
972C
100
AcDbEntity
  8
DEFPOINTS
 62
     0
 48
15.0
100
AcDbPoint
 10
1275.338355942214
 20
1689.921515638522
 30
0.0
  0
POINT
  5
A035
330
972C
100
AcDbEntity
  8
DEFPOINTS
 62
     0
 48
15.0
100
AcDbPoint
 10
1300.338355942214
 20
1689.921515638522
 30
0.0
  0
POINT
  5
A036
330
972C
100
AcDbEntity
  8
DEFPOINTS
 62
     0
 48
15.0
100
AcDbPoint
 10
1300.338355942214
 20
1765.289806199075
 30
0.0
  0
ENDBLK
  5
9739
330
972C
100
AcDbEntity
  8
0
 48
15.0
100
AcDbBlockEnd
  0
BLOCK
  5
9743
330
973A
100
AcDbEntity
  8
0
 48
15.0
100
AcDbBlockBegin
  2
*D169
 70
     1
 10
0.0
 20
0.0
 30
0.0
  3
*D169
  1

  0
LINE
  5
A037
330
973A
100
AcDbEntity
  8
寸法引出
 48
15.0
370
    -2
100
AcDbLine
 10
1260.338355942214
 20
1689.921515638522
 30
0.0
 11
1176.324237354873
 21
1689.921515638522
 31
0.0
  0
LINE
  5
A038
330
973A
100
AcDbEntity
  8
寸法引出
 48
15.0
370
    -2
100
AcDbLine
 10
1183.824237354873
 20
1592.421515638522
 30
0.0
 11
1183.824237354873
 21
1667.421515638522
 31
0.0
  0
SOLID
  5
A039
330
973A
100
AcDbEntity
  8
寸法引出
 48
15.0
100
AcDbTrace
 10
1180.074237354872
 20
1592.421515638522
 30
0.0
 11
1187.574237354873
 21
1592.421515638522
 31
0.0
 12
1183.824237354873
 22
1569.921515638522
 32
0.0
 13
1183.824237354873
 23
1569.921515638522
 33
0.0
  0
SOLID
  5
A03A
330
973A
100
AcDbEntity
  8
寸法引出
 48
15.0
100
AcDbTrace
 10
1180.074237354872
 20
1667.421515638522
 30
0.0
 11
1187.574237354873
 21
1667.421515638522
 31
0.0
 12
1183.824237354873
 22
1689.921515638522
 32
0.0
 13
1183.824237354873
 23
1689.921515638522
 33
0.0
  0
MTEXT
  5
A03B
330
973A
100
AcDbEntity
  8
寸法引出
 48
15.0
100
AcDbMText
 10
1153.824237354872
 20
1629.921515638522
 30
0.0
 40
30.0
 41
0.0
 71
     5
 72
     1
  1
\A1;120
  7
SANWA
 11
0.0000000000000001
 21
1.0
 31
0.0
 73
     1
 44
1.0
1001
ACAD
1000
MTEXTBEGIN
1070
    73
1070
     1
1070
    44
1040
1.0
1070
    74
1070
     0
1000
MTEXTEND
  0
POINT
  5
A03C
330
973A
100
AcDbEntity
  8
DEFPOINTS
 62
     0
 48
15.0
100
AcDbPoint
 10
1275.338355942214
 20
1569.921515638522
 30
0.0
  0
POINT
  5
A03D
330
973A
100
AcDbEntity
  8
DEFPOINTS
 62
     0
 48
15.0
100
AcDbPoint
 10
1275.338355942214
 20
1689.921515638522
 30
0.0
  0
POINT
  5
A03E
330
973A
100
AcDbEntity
  8
DEFPOINTS
 62
     0
 48
15.0
100
AcDbPoint
 10
1183.824237354873
 20
1689.921515638522
 30
0.0
  0
ENDBLK
  5
9744
330
973A
100
AcDbEntity
  8
0
 48
15.0
100
AcDbBlockEnd
  0
BLOCK
  5
974F
330
9745
100
AcDbEntity
  8
0
 48
15.0
100
AcDbBlockBegin
  2
*D170
 70
     1
 10
0.0
 20
0.0
 30
0.0
  3
*D170
  1

  0
LINE
  5
A03F
330
9745
100
AcDbEntity
  8
寸法引出
 48
15.0
370
    -2
100
AcDbLine
 10
1275.338355942214
 20
2169.622610370839
 30
0.0
 11
1275.338355942214
 21
2022.782916378135
 31
0.0
  0
LINE
  5
A040
330
9745
100
AcDbEntity
  8
寸法引出
 48
15.0
370
    -2
100
AcDbLine
 10
1402.338355942214
 20
2169.622610370839
 30
0.0
 11
1402.338355942214
 21
2022.782916378135
 31
0.0
  0
LINE
  5
A041
330
9745
100
AcDbEntity
  8
寸法引出
 48
15.0
370
    -2
100
AcDbLine
 10
1297.838355942214
 20
2030.282916378135
 30
0.0
 11
1379.838355942214
 21
2030.282916378135
 31
0.0
  0
SOLID
  5
A042
330
9745
100
AcDbEntity
  8
寸法引出
 48
15.0
100
AcDbTrace
 10
1297.838355942214
 20
2034.032916378135
 30
0.0
 11
1297.838355942214
 21
2026.532916378135
 31
0.0
 12
1275.338355942214
 22
2030.282916378135
 32
0.0
 13
1275.338355942214
 23
2030.282916378135
 33
0.0
  0
SOLID
  5
A043
330
9745
100
AcDbEntity
  8
寸法引出
 48
15.0
100
AcDbTrace
 10
1379.838355942214
 20
2034.032916378135
 30
0.0
 11
1379.838355942214
 21
2026.532916378135
 31
0.0
 12
1402.338355942214
 22
2030.282916378135
 32
0.0
 13
1402.338355942214
 23
2030.282916378135
 33
0.0
  0
MTEXT
  5
A044
330
9745
100
AcDbEntity
  8
寸法引出
 48
15.0
100
AcDbMText
 10
1338.838355942214
 20
2060.282916378135
 30
0.0
 40
30.0
 41
0.0
 71
     5
 72
     1
  1
\A1;127
  7
SANWA
 73
     1
 44
1.0
1001
ACAD
1000
MTEXTBEGIN
1070
    73
1070
     1
1070
    44
1040
1.0
1070
    74
1070
     0
1000
MTEXTEND
  0
POINT
  5
A045
330
9745
100
AcDbEntity
  8
DEFPOINTS
 62
     0
 48
15.0
100
AcDbPoint
 10
1275.338355942214
 20
2184.622610370839
 30
0.0
  0
POINT
  5
A046
330
9745
100
AcDbEntity
  8
DEFPOINTS
 62
     0
 48
15.0
100
AcDbPoint
 10
1402.338355942214
 20
2184.622610370839
 30
0.0
  0
POINT
  5
A047
330
9745
100
AcDbEntity
  8
DEFPOINTS
 62
     0
 48
15.0
100
AcDbPoint
 10
1402.338355942214
 20
2030.282916378135
 30
0.0
  0
ENDBLK
  5
9750
330
9745
100
AcDbEntity
  8
0
 48
15.0
100
AcDbBlockEnd
  0
BLOCK
  5
975D
330
9751
100
AcDbEntity
  8
0
 48
15.0
100
AcDbBlockBegin
  2
*D171
 70
     1
 10
0.0
 20
0.0
 30
0.0
  3
*D171
  1

  0
LINE
  5
A048
330
9751
100
AcDbEntity
  8
寸法引出
 48
15.0
370
    -2
100
AcDbLine
 10
1275.338355942214
 20
2169.622610370839
 30
0.0
 11
1275.338355942214
 21
2090.141599868362
 31
0.0
  0
LINE
  5
A049
330
9751
100
AcDbEntity
  8
寸法引出
 48
15.0
370
    -2
100
AcDbLine
 10
1300.338355942214
 20
2169.622610370839
 30
0.0
 11
1300.338355942214
 21
2090.141599868362
 31
0.0
  0
LINE
  5
A04A
330
9751
100
AcDbEntity
  8
寸法引出
 48
15.0
370
    -2
100
AcDbLine
 10
1252.838355942214
 20
2097.641599868362
 30
0.0
 11
1230.338355942214
 21
2097.641599868362
 31
0.0
  0
LINE
  5
A04B
330
9751
100
AcDbEntity
  8
寸法引出
 48
15.0
370
    -2
100
AcDbLine
 10
1322.838355942214
 20
2097.641599868362
 30
0.0
 11
1345.338355942214
 21
2097.641599868362
 31
0.0
  0
LINE
  5
A04C
330
9751
100
AcDbEntity
  8
寸法引出
 48
15.0
370
    -2
100
AcDbLine
 10
1275.338355942214
 20
2097.641599868362
 30
0.0
 11
1300.338355942214
 21
2097.641599868362
 31
0.0
  0
SOLID
  5
A04D
330
9751
100
AcDbEntity
  8
寸法引出
 48
15.0
100
AcDbTrace
 10
1252.838355942214
 20
2101.391599868362
 30
0.0
 11
1252.838355942214
 21
2093.891599868362
 31
0.0
 12
1275.338355942214
 22
2097.641599868362
 32
0.0
 13
1275.338355942214
 23
2097.641599868362
 33
0.0
  0
SOLID
  5
A04E
330
9751
100
AcDbEntity
  8
寸法引出
 48
15.0
100
AcDbTrace
 10
1322.838355942214
 20
2101.391599868362
 30
0.0
 11
1322.838355942214
 21
2093.891599868362
 31
0.0
 12
1300.338355942214
 22
2097.641599868362
 32
0.0
 13
1300.338355942214
 23
2097.641599868362
 33
0.0
  0
MTEXT
  5
A04F
330
9751
100
AcDbEntity
  8
寸法引出
 48
15.0
100
AcDbMText
 10
1287.838355942214
 20
2127.641599868362
 30
0.0
 40
30.0
 41
0.0
 71
     5
 72
     1
  1
\A1;25
  7
SANWA
 73
     1
 44
1.0
1001
ACAD
1000
MTEXTBEGIN
1070
    73
1070
     1
1070
    44
1040
1.0
1070
    74
1070
     0
1000
MTEXTEND
  0
POINT
  5
A050
330
9751
100
AcDbEntity
  8
DEFPOINTS
 62
     0
 48
15.0
100
AcDbPoint
 10
1275.338355942214
 20
2184.622610370839
 30
0.0
  0
POINT
  5
A051
330
9751
100
AcDbEntity
  8
DEFPOINTS
 62
     0
 48
15.0
100
AcDbPoint
 10
1300.338355942214
 20
2184.622610370839
 30
0.0
  0
POINT
  5
A052
330
9751
100
AcDbEntity
  8
DEFPOINTS
 62
     0
 48
15.0
100
AcDbPoint
 10
1300.338355942214
 20
2097.641599868362
 30
0.0
  0
ENDBLK
  5
975E
330
9751
100
AcDbEntity
  8
0
 48
15.0
100
AcDbBlockEnd
  0
BLOCK
  5
9768
330
975F
100
AcDbEntity
  8
0
 48
15.0
100
AcDbBlockBegin
  2
*D172
 70
     1
 10
0.0
 20
0.0
 30
0.0
  3
*D172
  1

  0
LINE
  5
A053
330
975F
100
AcDbEntity
  8
寸法引出
 48
15.0
370
    -2
100
AcDbLine
 10
1498.338355942214
 20
2169.622610370839
 30
0.0
 11
1498.338355942214
 21
2022.782916378135
 31
0.0
  0
LINE
  5
A054
330
975F
100
AcDbEntity
  8
寸法引出
 48
15.0
370
    -2
100
AcDbLine
 10
1424.838355942214
 20
2030.282916378135
 30
0.0
 11
1475.838355942214
 21
2030.282916378135
 31
0.0
  0
SOLID
  5
A055
330
975F
100
AcDbEntity
  8
寸法引出
 48
15.0
100
AcDbTrace
 10
1424.838355942214
 20
2034.032916378135
 30
0.0
 11
1424.838355942214
 21
2026.532916378135
 31
0.0
 12
1402.338355942214
 22
2030.282916378135
 32
0.0
 13
1402.338355942214
 23
2030.282916378135
 33
0.0
  0
SOLID
  5
A056
330
975F
100
AcDbEntity
  8
寸法引出
 48
15.0
100
AcDbTrace
 10
1475.838355942214
 20
2034.032916378135
 30
0.0
 11
1475.838355942214
 21
2026.532916378135
 31
0.0
 12
1498.338355942214
 22
2030.282916378135
 32
0.0
 13
1498.338355942214
 23
2030.282916378135
 33
0.0
  0
MTEXT
  5
A057
330
975F
100
AcDbEntity
  8
寸法引出
 48
15.0
100
AcDbMText
 10
1450.338355942214
 20
2060.282916378135
 30
0.0
 40
30.0
 41
0.0
 71
     5
 72
     1
  1
\A1;96
  7
SANWA
 73
     1
 44
1.0
1001
ACAD
1000
MTEXTBEGIN
1070
    73
1070
     1
1070
    44
1040
1.0
1070
    74
1070
     0
1000
MTEXTEND
  0
POINT
  5
A058
330
975F
100
AcDbEntity
  8
DEFPOINTS
 62
     0
 48
15.0
100
AcDbPoint
 10
1402.338355942214
 20
2184.622610370839
 30
0.0
  0
POINT
  5
A059
330
975F
100
AcDbEntity
  8
DEFPOINTS
 62
     0
 48
15.0
100
AcDbPoint
 10
1498.338355942214
 20
2184.622610370839
 30
0.0
  0
POINT
  5
A05A
330
975F
100
AcDbEntity
  8
DEFPOINTS
 62
     0
 48
15.0
100
AcDbPoint
 10
1498.338355942214
 20
2030.282916378135
 30
0.0
  0
ENDBLK
  5
9769
330
975F
100
AcDbEntity
  8
0
 48
15.0
100
AcDbBlockEnd
  0
BLOCK
  5
9775
330
976A
100
AcDbEntity
  8
0
 48
15.0
100
AcDbBlockBegin
  2
*D173
 70
     1
 10
0.0
 20
0.0
 30
0.0
  3
*D173
  1

  0
LINE
  5
A05B
330
976A
100
AcDbEntity
  8
寸法引出
 48
15.0
370
    -2
100
AcDbLine
 10
1625.338355942214
 20
1704.921515638522
 30
0.0
 11
1625.338355942214
 21
1772.789806199075
 31
0.0
  0
LINE
  5
A05C
330
976A
100
AcDbEntity
  8
寸法引出
 48
15.0
370
    -2
100
AcDbLine
 10
1577.838355942214
 20
1765.289806199075
 30
0.0
 11
1555.338355942214
 21
1765.289806199075
 31
0.0
  0
LINE
  5
A05D
330
976A
100
AcDbEntity
  8
寸法引出
 48
15.0
370
    -2
100
AcDbLine
 10
1647.838355942214
 20
1765.289806199075
 30
0.0
 11
1670.338355942214
 21
1765.289806199075
 31
0.0
  0
LINE
  5
A05E
330
976A
100
AcDbEntity
  8
寸法引出
 48
15.0
370
    -2
100
AcDbLine
 10
1600.338355942215
 20
1765.289806199075
 30
0.0
 11
1625.338355942214
 21
1765.289806199075
 31
0.0
  0
SOLID
  5
A05F
330
976A
100
AcDbEntity
  8
寸法引出
 48
15.0
100
AcDbTrace
 10
1577.838355942214
 20
1769.039806199075
 30
0.0
 11
1577.838355942214
 21
1761.539806199075
 31
0.0
 12
1600.338355942215
 22
1765.289806199075
 32
0.0
 13
1600.338355942215
 23
1765.289806199075
 33
0.0
  0
SOLID
  5
A060
330
976A
100
AcDbEntity
  8
寸法引出
 48
15.0
100
AcDbTrace
 10
1647.838355942214
 20
1769.039806199075
 30
0.0
 11
1647.838355942214
 21
1761.539806199075
 31
0.0
 12
1625.338355942214
 22
1765.289806199075
 32
0.0
 13
1625.338355942214
 23
1765.289806199075
 33
0.0
  0
MTEXT
  5
A061
330
976A
100
AcDbEntity
  8
寸法引出
 48
15.0
100
AcDbMText
 10
1612.838355942215
 20
1795.289806199075
 30
0.0
 40
30.0
 41
0.0
 71
     5
 72
     1
  1
\A1;25
  7
SANWA
 73
     1
 44
1.0
1001
ACAD
1000
MTEXTBEGIN
1070
    73
1070
     1
1070
    44
1040
1.0
1070
    74
1070
     0
1000
MTEXTEND
  0
POINT
  5
A062
330
976A
100
AcDbEntity
  8
DEFPOINTS
 62
     0
 48
15.0
100
AcDbPoint
 10
1600.338355942215
 20
1689.921515638522
 30
0.0
  0
POINT
  5
A063
330
976A
100
AcDbEntity
  8
DEFPOINTS
 62
     0
 48
15.0
100
AcDbPoint
 10
1625.338355942214
 20
1689.921515638522
 30
0.0
  0
POINT
  5
A064
330
976A
100
AcDbEntity
  8
DEFPOINTS
 62
     0
 48
15.0
100
AcDbPoint
 10
1625.338355942214
 20
1765.289806199075
 30
0.0
  0
ENDBLK
  5
9776
330
976A
100
AcDbEntity
  8
0
 48
15.0
100
AcDbBlockEnd
  0
BLOCK
  5
9781
330
9777
100
AcDbEntity
  8
0
 48
15.0
100
AcDbBlockBegin
  2
*D174
 70
     1
 10
0.0
 20
0.0
 30
0.0
  3
*D174
  1

  0
LINE
  5
A065
330
9777
100
AcDbEntity
  8
寸法引出
 48
15.0
370
    -2
100
AcDbLine
 10
1640.338355942214
 20
2284.622610370839
 30
0.0
 11
1792.287063351853
 21
2284.622610370839
 31
0.0
  0
LINE
  5
A066
330
9777
100
AcDbEntity
  8
寸法引出
 48
15.0
370
    -2
100
AcDbLine
 10
1640.338355942214
 20
2184.622610370839
 30
0.0
 11
1792.287063351853
 21
2184.622610370839
 31
0.0
  0
LINE
  5
A067
330
9777
100
AcDbEntity
  8
寸法引出
 48
15.0
370
    -2
100
AcDbLine
 10
1784.787063351853
 20
2262.122610370839
 30
0.0
 11
1784.787063351853
 21
2207.122610370839
 31
0.0
  0
SOLID
  5
A068
330
9777
100
AcDbEntity
  8
寸法引出
 48
15.0
100
AcDbTrace
 10
1781.037063351853
 20
2262.122610370839
 30
0.0
 11
1788.537063351853
 21
2262.122610370839
 31
0.0
 12
1784.787063351853
 22
2284.622610370839
 32
0.0
 13
1784.787063351853
 23
2284.622610370839
 33
0.0
  0
SOLID
  5
A069
330
9777
100
AcDbEntity
  8
寸法引出
 48
15.0
100
AcDbTrace
 10
1781.037063351853
 20
2207.122610370839
 30
0.0
 11
1788.537063351853
 21
2207.122610370839
 31
0.0
 12
1784.787063351853
 22
2184.622610370839
 32
0.0
 13
1784.787063351853
 23
2184.622610370839
 33
0.0
  0
MTEXT
  5
A06A
330
9777
100
AcDbEntity
  8
寸法引出
 48
15.0
100
AcDbMText
 10
1754.787063351853
 20
2234.622610370839
 30
0.0
 40
30.0
 41
0.0
 71
     5
 72
     1
  1
\A1;100
  7
SANWA
 11
0.0000000000000001
 21
1.0
 31
0.0
 73
     1
 44
1.0
1001
ACAD
1000
MTEXTBEGIN
1070
    73
1070
     1
1070
    44
1040
1.0
1070
    74
1070
     0
1000
MTEXTEND
  0
POINT
  5
A06B
330
9777
100
AcDbEntity
  8
DEFPOINTS
 62
     0
 48
15.0
100
AcDbPoint
 10
1625.338355942214
 20
2284.622610370839
 30
0.0
  0
POINT
  5
A06C
330
9777
100
AcDbEntity
  8
DEFPOINTS
 62
     0
 48
15.0
100
AcDbPoint
 10
1625.338355942214
 20
2184.622610370839
 30
0.0
  0
POINT
  5
A06D
330
9777
100
AcDbEntity
  8
DEFPOINTS
 62
     0
 48
15.0
100
AcDbPoint
 10
1784.787063351853
 20
2184.622610370839
 30
0.0
  0
ENDBLK
  5
9782
330
9777
100
AcDbEntity
  8
0
 48
15.0
100
AcDbBlockEnd
  0
BLOCK
  5
978D
330
9783
100
AcDbEntity
  8
0
 48
15.0
100
AcDbBlockBegin
  2
*D175
 70
     1
 10
0.0
 20
0.0
 30
0.0
  3
*D175
  1

  0
LINE
  5
A06E
330
9783
100
AcDbEntity
  8
寸法引出
 48
15.0
370
    -2
100
AcDbLine
 10
1640.338355942214
 20
2184.622610370839
 30
0.0
 11
1718.527579538782
 21
2184.622610370839
 31
0.0
  0
LINE
  5
A06F
330
9783
100
AcDbEntity
  8
寸法引出
 48
15.0
370
    -2
100
AcDbLine
 10
1640.338355942214
 20
2264.622610370839
 30
0.0
 11
1718.527579538782
 21
2264.622610370839
 31
0.0
  0
LINE
  5
A070
330
9783
100
AcDbEntity
  8
寸法引出
 48
15.0
370
    -2
100
AcDbLine
 10
1711.027579538782
 20
2207.122610370839
 30
0.0
 11
1711.027579538782
 21
2242.122610370839
 31
0.0
  0
SOLID
  5
A071
330
9783
100
AcDbEntity
  8
寸法引出
 48
15.0
100
AcDbTrace
 10
1707.277579538782
 20
2207.122610370839
 30
0.0
 11
1714.777579538782
 21
2207.122610370839
 31
0.0
 12
1711.027579538782
 22
2184.622610370839
 32
0.0
 13
1711.027579538782
 23
2184.622610370839
 33
0.0
  0
SOLID
  5
A072
330
9783
100
AcDbEntity
  8
寸法引出
 48
15.0
100
AcDbTrace
 10
1707.277579538782
 20
2242.122610370839
 30
0.0
 11
1714.777579538782
 21
2242.122610370839
 31
0.0
 12
1711.027579538782
 22
2264.622610370839
 32
0.0
 13
1711.027579538782
 23
2264.622610370839
 33
0.0
  0
MTEXT
  5
A073
330
9783
100
AcDbEntity
  8
寸法引出
 48
15.0
100
AcDbMText
 10
1681.027579538782
 20
2224.62261037084
 30
0.0
 40
30.0
 41
0.0
 71
     5
 72
     1
  1
\A1;80
  7
SANWA
 11
0.0000000000000001
 21
1.0
 31
0.0
 73
     1
 44
1.0
1001
ACAD
1000
MTEXTBEGIN
1070
    73
1070
     1
1070
    44
1040
1.0
1070
    74
1070
     0
1000
MTEXTEND
  0
POINT
  5
A074
330
9783
100
AcDbEntity
  8
DEFPOINTS
 62
     0
 48
15.0
100
AcDbPoint
 10
1625.338355942214
 20
2184.622610370839
 30
0.0
  0
POINT
  5
A075
330
9783
100
AcDbEntity
  8
DEFPOINTS
 62
     0
 48
15.0
100
AcDbPoint
 10
1625.338355942214
 20
2264.622610370839
 30
0.0
  0
POINT
  5
A076
330
9783
100
AcDbEntity
  8
DEFPOINTS
 62
     0
 48
15.0
100
AcDbPoint
 10
1711.027579538782
 20
2264.622610370839
 30
0.0
  0
ENDBLK
  5
978E
330
9783
100
AcDbEntity
  8
0
 48
15.0
100
AcDbBlockEnd
  0
BLOCK
  5
979B
330
978F
100
AcDbEntity
  8
0
 48
15.0
100
AcDbBlockBegin
  2
*D176
 70
     1
 10
0.0
 20
0.0
 30
0.0
  3
*D176
  1

  0
LINE
  5
A077
330
978F
100
AcDbEntity
  8
寸法引出
 48
15.0
370
    -2
100
AcDbLine
 10
1625.338355942214
 20
2169.622610370839
 30
0.0
 11
1625.338355942214
 21
2090.141599868362
 31
0.0
  0
LINE
  5
A078
330
978F
100
AcDbEntity
  8
寸法引出
 48
15.0
370
    -2
100
AcDbLine
 10
1600.338355942215
 20
2169.622610370839
 30
0.0
 11
1600.338355942215
 21
2090.141599868362
 31
0.0
  0
LINE
  5
A079
330
978F
100
AcDbEntity
  8
寸法引出
 48
15.0
370
    -2
100
AcDbLine
 10
1647.838355942214
 20
2097.641599868362
 30
0.0
 11
1670.338355942214
 21
2097.641599868362
 31
0.0
  0
LINE
  5
A07A
330
978F
100
AcDbEntity
  8
寸法引出
 48
15.0
370
    -2
100
AcDbLine
 10
1577.838355942214
 20
2097.641599868362
 30
0.0
 11
1555.338355942214
 21
2097.641599868362
 31
0.0
  0
LINE
  5
A07B
330
978F
100
AcDbEntity
  8
寸法引出
 48
15.0
370
    -2
100
AcDbLine
 10
1625.338355942214
 20
2097.641599868362
 30
0.0
 11
1600.338355942215
 21
2097.641599868362
 31
0.0
  0
SOLID
  5
A07C
330
978F
100
AcDbEntity
  8
寸法引出
 48
15.0
100
AcDbTrace
 10
1647.838355942214
 20
2101.391599868362
 30
0.0
 11
1647.838355942214
 21
2093.891599868362
 31
0.0
 12
1625.338355942214
 22
2097.641599868362
 32
0.0
 13
1625.338355942214
 23
2097.641599868362
 33
0.0
  0
SOLID
  5
A07D
330
978F
100
AcDbEntity
  8
寸法引出
 48
15.0
100
AcDbTrace
 10
1577.838355942214
 20
2101.391599868362
 30
0.0
 11
1577.838355942214
 21
2093.891599868362
 31
0.0
 12
1600.338355942215
 22
2097.641599868362
 32
0.0
 13
1600.338355942215
 23
2097.641599868362
 33
0.0
  0
MTEXT
  5
A07E
330
978F
100
AcDbEntity
  8
寸法引出
 48
15.0
100
AcDbMText
 10
1612.838355942215
 20
2127.641599868362
 30
0.0
 40
30.0
 41
0.0
 71
     5
 72
     1
  1
\A1;25
  7
SANWA
 73
     1
 44
1.0
1001
ACAD
1000
MTEXTBEGIN
1070
    73
1070
     1
1070
    44
1040
1.0
1070
    74
1070
     0
1000
MTEXTEND
  0
POINT
  5
A07F
330
978F
100
AcDbEntity
  8
DEFPOINTS
 62
     0
 48
15.0
100
AcDbPoint
 10
1625.338355942214
 20
2184.622610370839
 30
0.0
  0
POINT
  5
A080
330
978F
100
AcDbEntity
  8
DEFPOINTS
 62
     0
 48
15.0
100
AcDbPoint
 10
1600.338355942215
 20
2184.622610370839
 30
0.0
  0
POINT
  5
A081
330
978F
100
AcDbEntity
  8
DEFPOINTS
 62
     0
 48
15.0
100
AcDbPoint
 10
1600.338355942215
 20
2097.641599868362
 30
0.0
  0
ENDBLK
  5
979C
330
978F
100
AcDbEntity
  8
0
 48
15.0
100
AcDbBlockEnd
  0
BLOCK
  5
97A7
330
979D
100
AcDbEntity
  8
0
 48
15.0
100
AcDbBlockBegin
  2
*D177
 70
     1
 10
0.0
 20
0.0
 30
0.0
  3
*D177
  1

  0
LINE
  5
A082
330
979D
100
AcDbEntity
  8
寸法引出
 48
15.0
370
    -2
100
AcDbLine
 10
2193.279085127323
 20
2169.622610370839
 30
0.0
 11
2193.279085127323
 21
2090.141599868362
 31
0.0
  0
LINE
  5
A083
330
979D
100
AcDbEntity
  8
寸法引出
 48
15.0
370
    -2
100
AcDbLine
 10
2313.279085127323
 20
2169.622610370839
 30
0.0
 11
2313.279085127323
 21
2090.141599868362
 31
0.0
  0
LINE
  5
A084
330
979D
100
AcDbEntity
  8
寸法引出
 48
15.0
370
    -2
100
AcDbLine
 10
2215.779085127323
 20
2097.641599868362
 30
0.0
 11
2290.779085127323
 21
2097.641599868362
 31
0.0
  0
SOLID
  5
A085
330
979D
100
AcDbEntity
  8
寸法引出
 48
15.0
100
AcDbTrace
 10
2215.779085127323
 20
2101.391599868362
 30
0.0
 11
2215.779085127323
 21
2093.891599868362
 31
0.0
 12
2193.279085127323
 22
2097.641599868362
 32
0.0
 13
2193.279085127323
 23
2097.641599868362
 33
0.0
  0
SOLID
  5
A086
330
979D
100
AcDbEntity
  8
寸法引出
 48
15.0
100
AcDbTrace
 10
2290.779085127323
 20
2101.391599868362
 30
0.0
 11
2290.779085127323
 21
2093.891599868362
 31
0.0
 12
2313.279085127323
 22
2097.641599868362
 32
0.0
 13
2313.279085127323
 23
2097.641599868362
 33
0.0
  0
MTEXT
  5
A087
330
979D
100
AcDbEntity
  8
寸法引出
 48
15.0
100
AcDbMText
 10
2253.279085127323
 20
2127.641599868362
 30
0.0
 40
30.0
 41
0.0
 71
     5
 72
     1
  1
\A1;120
  7
SANWA
 73
     1
 44
1.0
1001
ACAD
1000
MTEXTBEGIN
1070
    73
1070
     1
1070
    44
1040
1.0
1070
    74
1070
     0
1000
MTEXTEND
  0
POINT
  5
A088
330
979D
100
AcDbEntity
  8
DEFPOINTS
 62
     0
 48
15.0
100
AcDbPoint
 10
2193.279085127323
 20
2184.622610370839
 30
0.0
  0
POINT
  5
A089
330
979D
100
AcDbEntity
  8
DEFPOINTS
 62
     0
 48
15.0
100
AcDbPoint
 10
2313.279085127323
 20
2184.622610370839
 30
0.0
  0
POINT
  5
A08A
330
979D
100
AcDbEntity
  8
DEFPOINTS
 62
     0
 48
15.0
100
AcDbPoint
 10
2313.279085127323
 20
2097.641599868362
 30
0.0
  0
ENDBLK
  5
97A8
330
979D
100
AcDbEntity
  8
0
 48
15.0
100
AcDbBlockEnd
  0
BLOCK
  5
97B4
330
97A9
100
AcDbEntity
  8
0
 48
15.0
100
AcDbBlockBegin
  2
*D178
 70
     1
 10
0.0
 20
0.0
 30
0.0
  3
*D178
  1

  0
LINE
  5
A08B
330
97A9
100
AcDbEntity
  8
寸法引出
 48
15.0
370
    -2
100
AcDbLine
 10
1482.838355942215
 20
2349.622610370839
 30
0.0
 11
1482.838355942215
 21
2418.840613689072
 31
0.0
  0
LINE
  5
A08C
330
97A9
100
AcDbEntity
  8
寸法引出
 48
15.0
370
    -2
100
AcDbLine
 10
1395.338355942215
 20
2411.340613689072
 30
0.0
 11
1372.838355942214
 21
2411.340613689072
 31
0.0
  0
LINE
  5
A08D
330
97A9
100
AcDbEntity
  8
寸法引出
 48
15.0
370
    -2
100
AcDbLine
 10
1505.338355942215
 20
2411.340613689072
 30
0.0
 11
1527.838355942215
 21
2411.340613689072
 31
0.0
  0
LINE
  5
A08E
330
97A9
100
AcDbEntity
  8
寸法引出
 48
15.0
370
    -2
100
AcDbLine
 10
1417.838355942214
 20
2411.340613689072
 30
0.0
 11
1482.838355942215
 21
2411.340613689072
 31
0.0
  0
SOLID
  5
A08F
330
97A9
100
AcDbEntity
  8
寸法引出
 48
15.0
100
AcDbTrace
 10
1395.338355942215
 20
2415.090613689072
 30
0.0
 11
1395.338355942215
 21
2407.590613689072
 31
0.0
 12
1417.838355942214
 22
2411.340613689072
 32
0.0
 13
1417.838355942214
 23
2411.340613689072
 33
0.0
  0
SOLID
  5
A090
330
97A9
100
AcDbEntity
  8
寸法引出
 48
15.0
100
AcDbTrace
 10
1505.338355942215
 20
2415.090613689072
 30
0.0
 11
1505.338355942215
 21
2407.590613689072
 31
0.0
 12
1482.838355942215
 22
2411.340613689072
 32
0.0
 13
1482.838355942215
 23
2411.340613689072
 33
0.0
  0
MTEXT
  5
A091
330
97A9
100
AcDbEntity
  8
寸法引出
 48
15.0
100
AcDbMText
 10
1450.338355942214
 20
2441.340613689072
 30
0.0
 40
30.0
 41
0.0
 71
     5
 72
     1
  1
\A1;65
  7
SANWA
 73
     1
 44
1.0
1001
ACAD
1000
MTEXTBEGIN
1070
    73
1070
     1
1070
    44
1040
1.0
1070
    74
1070
     0
1000
MTEXTEND
  0
POINT
  5
A092
330
97A9
100
AcDbEntity
  8
DEFPOINTS
 62
     0
 48
15.0
100
AcDbPoint
 10
1417.838355942214
 20
2334.622610370839
 30
0.0
  0
POINT
  5
A093
330
97A9
100
AcDbEntity
  8
DEFPOINTS
 62
     0
 48
15.0
100
AcDbPoint
 10
1482.838355942215
 20
2334.622610370839
 30
0.0
  0
POINT
  5
A094
330
97A9
100
AcDbEntity
  8
DEFPOINTS
 62
     0
 48
15.0
100
AcDbPoint
 10
1482.838355942215
 20
2411.340613689072
 30
0.0
  0
ENDBLK
  5
97B5
330
97A9
100
AcDbEntity
  8
0
 48
15.0
100
AcDbBlockEnd
  0
BLOCK
  5
97C0
330
97B6
100
AcDbEntity
  8
0
 48
15.0
100
AcDbBlockBegin
  2
*D179
 70
     1
 10
0.0
 20
0.0
 30
0.0
  3
*D179
  1

  0
LINE
  5
A095
330
97B6
100
AcDbEntity
  8
寸法引出
 48
15.0
370
    -2
100
AcDbLine
 10
2193.279085127323
 20
2349.622610370839
 30
0.0
 11
2193.279085127323
 21
2418.840613689072
 31
0.0
  0
LINE
  5
A096
330
97B6
100
AcDbEntity
  8
寸法引出
 48
15.0
370
    -2
100
AcDbLine
 10
2343.279085127323
 20
2349.622610370839
 30
0.0
 11
2343.279085127323
 21
2418.840613689072
 31
0.0
  0
LINE
  5
A097
330
97B6
100
AcDbEntity
  8
寸法引出
 48
15.0
370
    -2
100
AcDbLine
 10
2215.779085127323
 20
2411.340613689072
 30
0.0
 11
2320.779085127323
 21
2411.340613689072
 31
0.0
  0
SOLID
  5
A098
330
97B6
100
AcDbEntity
  8
寸法引出
 48
15.0
100
AcDbTrace
 10
2215.779085127323
 20
2415.090613689072
 30
0.0
 11
2215.779085127323
 21
2407.590613689072
 31
0.0
 12
2193.279085127323
 22
2411.340613689072
 32
0.0
 13
2193.279085127323
 23
2411.340613689072
 33
0.0
  0
SOLID
  5
A099
330
97B6
100
AcDbEntity
  8
寸法引出
 48
15.0
100
AcDbTrace
 10
2320.779085127323
 20
2415.090613689072
 30
0.0
 11
2320.779085127323
 21
2407.590613689072
 31
0.0
 12
2343.279085127323
 22
2411.340613689072
 32
0.0
 13
2343.279085127323
 23
2411.340613689072
 33
0.0
  0
MTEXT
  5
A09A
330
97B6
100
AcDbEntity
  8
寸法引出
 48
15.0
100
AcDbMText
 10
2268.279085127323
 20
2441.340613689072
 30
0.0
 40
30.0
 41
0.0
 71
     5
 72
     1
  1
\A1;150
  7
SANWA
 73
     1
 44
1.0
1001
ACAD
1000
MTEXTBEGIN
1070
    73
1070
     1
1070
    44
1040
1.0
1070
    74
1070
     0
1000
MTEXTEND
  0
POINT
  5
A09B
330
97B6
100
AcDbEntity
  8
DEFPOINTS
 62
     0
 48
15.0
100
AcDbPoint
 10
2193.279085127323
 20
2334.622610370839
 30
0.0
  0
POINT
  5
A09C
330
97B6
100
AcDbEntity
  8
DEFPOINTS
 62
     0
 48
15.0
100
AcDbPoint
 10
2343.279085127323
 20
2334.622610370839
 30
0.0
  0
POINT
  5
A09D
330
97B6
100
AcDbEntity
  8
DEFPOINTS
 62
     0
 48
15.0
100
AcDbPoint
 10
2343.279085127323
 20
2411.340613689072
 30
0.0
  0
ENDBLK
  5
97C1
330
97B6
100
AcDbEntity
  8
0
 48
15.0
100
AcDbBlockEnd
  0
BLOCK
  5
97CE
330
97C2
100
AcDbEntity
  8
0
 48
15.0
100
AcDbBlockBegin
  2
*D180
 70
     1
 10
0.0
 20
0.0
 30
0.0
  3
*D180
  1

  0
LINE
  5
A09E
330
97C2
100
AcDbEntity
  8
寸法引出
 48
15.0
370
    -2
100
AcDbLine
 10
3208.279085127323
 20
2264.622610370839
 30
0.0
 11
3290.299274888471
 21
2264.622610370839
 31
0.0
  0
LINE
  5
A09F
330
97C2
100
AcDbEntity
  8
寸法引出
 48
15.0
370
    -2
100
AcDbLine
 10
3208.279085127323
 20
2334.622610370839
 30
0.0
 11
3290.299274888471
 21
2334.622610370839
 31
0.0
  0
LINE
  5
A0A0
330
97C2
100
AcDbEntity
  8
寸法引出
 48
15.0
370
    -2
100
AcDbLine
 10
3282.799274888471
 20
2242.122610370839
 30
0.0
 11
3282.799274888471
 21
2219.622610370839
 31
0.0
  0
LINE
  5
A0A1
330
97C2
100
AcDbEntity
  8
寸法引出
 48
15.0
370
    -2
100
AcDbLine
 10
3282.799274888471
 20
2357.122610370839
 30
0.0
 11
3282.799274888471
 21
2379.622610370839
 31
0.0
  0
LINE
  5
A0A2
330
97C2
100
AcDbEntity
  8
寸法引出
 48
15.0
370
    -2
100
AcDbLine
 10
3282.799274888471
 20
2264.622610370839
 30
0.0
 11
3282.799274888471
 21
2334.622610370839
 31
0.0
  0
SOLID
  5
A0A3
330
97C2
100
AcDbEntity
  8
寸法引出
 48
15.0
100
AcDbTrace
 10
3279.049274888471
 20
2242.122610370839
 30
0.0
 11
3286.549274888471
 21
2242.122610370839
 31
0.0
 12
3282.799274888471
 22
2264.622610370839
 32
0.0
 13
3282.799274888471
 23
2264.622610370839
 33
0.0
  0
SOLID
  5
A0A4
330
97C2
100
AcDbEntity
  8
寸法引出
 48
15.0
100
AcDbTrace
 10
3279.049274888471
 20
2357.122610370839
 30
0.0
 11
3286.549274888471
 21
2357.122610370839
 31
0.0
 12
3282.799274888471
 22
2334.622610370839
 32
0.0
 13
3282.799274888471
 23
2334.622610370839
 33
0.0
  0
MTEXT
  5
A0A5
330
97C2
100
AcDbEntity
  8
寸法引出
 48
15.0
100
AcDbMText
 10
3252.799274888471
 20
2299.62261037084
 30
0.0
 40
30.0
 41
0.0
 71
     5
 72
     1
  1
\A1;70
  7
SANWA
 11
0.0000000000000001
 21
1.0
 31
0.0
 73
     1
 44
1.0
1001
ACAD
1000
MTEXTBEGIN
1070
    73
1070
     1
1070
    44
1040
1.0
1070
    74
1070
     0
1000
MTEXTEND
  0
POINT
  5
A0A6
330
97C2
100
AcDbEntity
  8
DEFPOINTS
 62
     0
 48
15.0
100
AcDbPoint
 10
3193.279085127323
 20
2264.622610370839
 30
0.0
  0
POINT
  5
A0A7
330
97C2
100
AcDbEntity
  8
DEFPOINTS
 62
     0
 48
15.0
100
AcDbPoint
 10
3193.279085127323
 20
2334.622610370839
 30
0.0
  0
POINT
  5
A0A8
330
97C2
100
AcDbEntity
  8
DEFPOINTS
 62
     0
 48
15.0
100
AcDbPoint
 10
3282.799274888471
 20
2334.622610370839
 30
0.0
  0
ENDBLK
  5
97CF
330
97C2
100
AcDbEntity
  8
0
 48
15.0
100
AcDbBlockEnd
  0
BLOCK
  5
97DC
330
97D0
100
AcDbEntity
  8
0
 48
15.0
100
AcDbBlockBegin
  2
*D181
 70
     1
 10
0.0
 20
0.0
 30
0.0
  3
*D181
  1

  0
LINE
  5
A0A9
330
97D0
100
AcDbEntity
  8
寸法引出
 48
15.0
370
    -2
100
AcDbLine
 10
3208.279085127323
 20
2256.622610370839
 30
0.0
 11
3290.299274888471
 21
2256.622610370839
 31
0.0
  0
LINE
  5
A0AA
330
97D0
100
AcDbEntity
  8
寸法引出
 48
15.0
370
    -2
100
AcDbLine
 10
3208.279085127323
 20
2184.622610370839
 30
0.0
 11
3290.299274888471
 21
2184.622610370839
 31
0.0
  0
LINE
  5
A0AB
330
97D0
100
AcDbEntity
  8
寸法引出
 48
15.0
370
    -2
100
AcDbLine
 10
3282.799274888471
 20
2279.122610370839
 30
0.0
 11
3282.799274888471
 21
2301.622610370839
 31
0.0
  0
LINE
  5
A0AC
330
97D0
100
AcDbEntity
  8
寸法引出
 48
15.0
370
    -2
100
AcDbLine
 10
3282.799274888471
 20
2162.122610370839
 30
0.0
 11
3282.799274888471
 21
2139.622610370839
 31
0.0
  0
LINE
  5
A0AD
330
97D0
100
AcDbEntity
  8
寸法引出
 48
15.0
370
    -2
100
AcDbLine
 10
3282.799274888471
 20
2256.622610370839
 30
0.0
 11
3282.799274888471
 21
2184.622610370839
 31
0.0
  0
SOLID
  5
A0AE
330
97D0
100
AcDbEntity
  8
寸法引出
 48
15.0
100
AcDbTrace
 10
3279.049274888471
 20
2279.122610370839
 30
0.0
 11
3286.549274888471
 21
2279.122610370839
 31
0.0
 12
3282.799274888471
 22
2256.622610370839
 32
0.0
 13
3282.799274888471
 23
2256.622610370839
 33
0.0
  0
SOLID
  5
A0AF
330
97D0
100
AcDbEntity
  8
寸法引出
 48
15.0
100
AcDbTrace
 10
3279.049274888471
 20
2162.122610370839
 30
0.0
 11
3286.549274888471
 21
2162.122610370839
 31
0.0
 12
3282.799274888471
 22
2184.622610370839
 32
0.0
 13
3282.799274888471
 23
2184.622610370839
 33
0.0
  0
MTEXT
  5
A0B0
330
97D0
100
AcDbEntity
  8
寸法引出
 48
15.0
100
AcDbMText
 10
3252.799274888471
 20
2220.62261037084
 30
0.0
 40
30.0
 41
0.0
 71
     5
 72
     1
  1
\A1;72
  7
SANWA
 11
0.0000000000000001
 21
1.0
 31
0.0
 73
     1
 44
1.0
1001
ACAD
1000
MTEXTBEGIN
1070
    73
1070
     1
1070
    44
1040
1.0
1070
    74
1070
     0
1000
MTEXTEND
  0
POINT
  5
A0B1
330
97D0
100
AcDbEntity
  8
DEFPOINTS
 62
     0
 48
15.0
100
AcDbPoint
 10
3193.279085127322
 20
2256.622610370839
 30
0.0
  0
POINT
  5
A0B2
330
97D0
100
AcDbEntity
  8
DEFPOINTS
 62
     0
 48
15.0
100
AcDbPoint
 10
3193.279085127323
 20
2184.622610370839
 30
0.0
  0
POINT
  5
A0B3
330
97D0
100
AcDbEntity
  8
DEFPOINTS
 62
     0
 48
15.0
100
AcDbPoint
 10
3282.799274888471
 20
2184.622610370839
 30
0.0
  0
ENDBLK
  5
97DD
330
97D0
100
AcDbEntity
  8
0
 48
15.0
100
AcDbBlockEnd
  0
BLOCK
  5
97EA
330
97DE
100
AcDbEntity
  8
0
 48
15.0
100
AcDbBlockBegin
  2
*D182
 70
     1
 10
0.0
 20
0.0
 30
0.0
  3
*D182
  1

  0
LINE
  5
A0B4
330
97DE
100
AcDbEntity
  8
寸法引出
 48
15.0
370
    -2
100
AcDbLine
 10
2778.905619440015
 20
1704.921515638522
 30
0.0
 11
2778.905619440015
 21
1772.789806199075
 31
0.0
  0
LINE
  5
A0B5
330
97DE
100
AcDbEntity
  8
寸法引出
 48
15.0
370
    -2
100
AcDbLine
 10
2813.905619440015
 20
1704.921515638522
 30
0.0
 11
2813.905619440015
 21
1772.789806199075
 31
0.0
  0
LINE
  5
A0B6
330
97DE
100
AcDbEntity
  8
寸法引出
 48
15.0
370
    -2
100
AcDbLine
 10
2756.405619440015
 20
1765.289806199075
 30
0.0
 11
2733.905619440015
 21
1765.289806199075
 31
0.0
  0
LINE
  5
A0B7
330
97DE
100
AcDbEntity
  8
寸法引出
 48
15.0
370
    -2
100
AcDbLine
 10
2836.405619440015
 20
1765.289806199075
 30
0.0
 11
2858.905619440015
 21
1765.289806199075
 31
0.0
  0
LINE
  5
A0B8
330
97DE
100
AcDbEntity
  8
寸法引出
 48
15.0
370
    -2
100
AcDbLine
 10
2778.905619440015
 20
1765.289806199075
 30
0.0
 11
2813.905619440015
 21
1765.289806199075
 31
0.0
  0
SOLID
  5
A0B9
330
97DE
100
AcDbEntity
  8
寸法引出
 48
15.0
100
AcDbTrace
 10
2756.405619440015
 20
1769.039806199075
 30
0.0
 11
2756.405619440015
 21
1761.539806199075
 31
0.0
 12
2778.905619440015
 22
1765.289806199075
 32
0.0
 13
2778.905619440015
 23
1765.289806199075
 33
0.0
  0
SOLID
  5
A0BA
330
97DE
100
AcDbEntity
  8
寸法引出
 48
15.0
100
AcDbTrace
 10
2836.405619440015
 20
1769.039806199075
 30
0.0
 11
2836.405619440015
 21
1761.539806199075
 31
0.0
 12
2813.905619440015
 22
1765.289806199075
 32
0.0
 13
2813.905619440015
 23
1765.289806199075
 33
0.0
  0
MTEXT
  5
A0BB
330
97DE
100
AcDbEntity
  8
寸法引出
 48
15.0
100
AcDbMText
 10
2796.405619440015
 20
1795.289806199075
 30
0.0
 40
30.0
 41
0.0
 71
     5
 72
     1
  1
\A1;35
  7
SANWA
 73
     1
 44
1.0
1001
ACAD
1000
MTEXTBEGIN
1070
    73
1070
     1
1070
    44
1040
1.0
1070
    74
1070
     0
1000
MTEXTEND
  0
POINT
  5
A0BC
330
97DE
100
AcDbEntity
  8
DEFPOINTS
 62
     0
 48
15.0
100
AcDbPoint
 10
2778.905619440015
 20
1689.921515638522
 30
0.0
  0
POINT
  5
A0BD
330
97DE
100
AcDbEntity
  8
DEFPOINTS
 62
     0
 48
15.0
100
AcDbPoint
 10
2813.905619440015
 20
1689.921515638522
 30
0.0
  0
POINT
  5
A0BE
330
97DE
100
AcDbEntity
  8
DEFPOINTS
 62
     0
 48
15.0
100
AcDbPoint
 10
2813.905619440015
 20
1765.289806199075
 30
0.0
  0
ENDBLK
  5
97EB
330
97DE
100
AcDbEntity
  8
0
 48
15.0
100
AcDbBlockEnd
  0
BLOCK
  5
97F8
330
97EC
100
AcDbEntity
  8
0
 48
15.0
100
AcDbBlockBegin
  2
*D183
 70
     1
 10
0.0
 20
0.0
 30
0.0
  3
*D183
  1

  0
LINE
  5
A0BF
330
97EC
100
AcDbEntity
  8
寸法引出
 48
15.0
370
    -2
100
AcDbLine
 10
2605.905619440015
 20
1704.921515638522
 30
0.0
 11
2605.905619440015
 21
1772.789806199075
 31
0.0
  0
LINE
  5
A0C0
330
97EC
100
AcDbEntity
  8
寸法引出
 48
15.0
370
    -2
100
AcDbLine
 10
2640.905619440015
 20
1704.921515638522
 30
0.0
 11
2640.905619440015
 21
1772.789806199075
 31
0.0
  0
LINE
  5
A0C1
330
97EC
100
AcDbEntity
  8
寸法引出
 48
15.0
370
    -2
100
AcDbLine
 10
2583.405619440015
 20
1765.289806199075
 30
0.0
 11
2560.905619440015
 21
1765.289806199075
 31
0.0
  0
LINE
  5
A0C2
330
97EC
100
AcDbEntity
  8
寸法引出
 48
15.0
370
    -2
100
AcDbLine
 10
2663.405619440015
 20
1765.289806199075
 30
0.0
 11
2685.905619440015
 21
1765.289806199075
 31
0.0
  0
LINE
  5
A0C3
330
97EC
100
AcDbEntity
  8
寸法引出
 48
15.0
370
    -2
100
AcDbLine
 10
2605.905619440015
 20
1765.289806199075
 30
0.0
 11
2640.905619440015
 21
1765.289806199075
 31
0.0
  0
SOLID
  5
A0C4
330
97EC
100
AcDbEntity
  8
寸法引出
 48
15.0
100
AcDbTrace
 10
2583.405619440015
 20
1769.039806199075
 30
0.0
 11
2583.405619440015
 21
1761.539806199075
 31
0.0
 12
2605.905619440015
 22
1765.289806199075
 32
0.0
 13
2605.905619440015
 23
1765.289806199075
 33
0.0
  0
SOLID
  5
A0C5
330
97EC
100
AcDbEntity
  8
寸法引出
 48
15.0
100
AcDbTrace
 10
2663.405619440015
 20
1769.039806199075
 30
0.0
 11
2663.405619440015
 21
1761.539806199075
 31
0.0
 12
2640.905619440015
 22
1765.289806199075
 32
0.0
 13
2640.905619440015
 23
1765.289806199075
 33
0.0
  0
MTEXT
  5
A0C6
330
97EC
100
AcDbEntity
  8
寸法引出
 48
15.0
100
AcDbMText
 10
2623.405619440015
 20
1795.289806199075
 30
0.0
 40
30.0
 41
0.0
 71
     5
 72
     1
  1
\A1;35
  7
SANWA
 73
     1
 44
1.0
1001
ACAD
1000
MTEXTBEGIN
1070
    73
1070
     1
1070
    44
1040
1.0
1070
    74
1070
     0
1000
MTEXTEND
  0
POINT
  5
A0C7
330
97EC
100
AcDbEntity
  8
DEFPOINTS
 62
     0
 48
15.0
100
AcDbPoint
 10
2605.905619440015
 20
1689.921515638522
 30
0.0
  0
POINT
  5
A0C8
330
97EC
100
AcDbEntity
  8
DEFPOINTS
 62
     0
 48
15.0
100
AcDbPoint
 10
2640.905619440015
 20
1689.921515638522
 30
0.0
  0
POINT
  5
A0C9
330
97EC
100
AcDbEntity
  8
DEFPOINTS
 62
     0
 48
15.0
100
AcDbPoint
 10
2640.905619440015
 20
1765.289806199075
 30
0.0
  0
ENDBLK
  5
97F9
330
97EC
100
AcDbEntity
  8
0
 48
15.0
100
AcDbBlockEnd
  0
BLOCK
  5
9805
330
97FA
100
AcDbEntity
  8
0
 48
15.0
100
AcDbBlockBegin
  2
*D184
 70
     1
 10
0.0
 20
0.0
 30
0.0
  3
*D184
  1

  0
LINE
  5
A0CA
330
97FA
100
AcDbEntity
  8
寸法引出
 48
15.0
370
    -2
100
AcDbLine
 10
2813.905619440015
 20
1704.921515638522
 30
0.0
 11
2813.905619440015
 21
1839.250610962148
 31
0.0
  0
LINE
  5
A0CB
330
97FA
100
AcDbEntity
  8
寸法引出
 48
15.0
370
    -2
100
AcDbLine
 10
2721.405619440015
 20
1831.750610962148
 30
0.0
 11
2698.905619440015
 21
1831.750610962148
 31
0.0
  0
LINE
  5
A0CC
330
97FA
100
AcDbEntity
  8
寸法引出
 48
15.0
370
    -2
100
AcDbLine
 10
2836.405619440015
 20
1831.750610962148
 30
0.0
 11
2858.905619440015
 21
1831.750610962148
 31
0.0
  0
LINE
  5
A0CD
330
97FA
100
AcDbEntity
  8
寸法引出
 48
15.0
370
    -2
100
AcDbLine
 10
2743.905619440015
 20
1831.750610962148
 30
0.0
 11
2813.905619440015
 21
1831.750610962148
 31
0.0
  0
SOLID
  5
A0CE
330
97FA
100
AcDbEntity
  8
寸法引出
 48
15.0
100
AcDbTrace
 10
2721.405619440015
 20
1835.500610962148
 30
0.0
 11
2721.405619440015
 21
1828.000610962148
 31
0.0
 12
2743.905619440015
 22
1831.750610962148
 32
0.0
 13
2743.905619440015
 23
1831.750610962148
 33
0.0
  0
SOLID
  5
A0CF
330
97FA
100
AcDbEntity
  8
寸法引出
 48
15.0
100
AcDbTrace
 10
2836.405619440015
 20
1835.500610962148
 30
0.0
 11
2836.405619440015
 21
1828.000610962148
 31
0.0
 12
2813.905619440015
 22
1831.750610962148
 32
0.0
 13
2813.905619440015
 23
1831.750610962148
 33
0.0
  0
MTEXT
  5
A0D0
330
97FA
100
AcDbEntity
  8
寸法引出
 48
15.0
100
AcDbMText
 10
2778.905619440015
 20
1861.750610962148
 30
0.0
 40
30.0
 41
0.0
 71
     5
 72
     1
  1
\A1;70
  7
SANWA
 73
     1
 44
1.0
1001
ACAD
1000
MTEXTBEGIN
1070
    73
1070
     1
1070
    44
1040
1.0
1070
    74
1070
     0
1000
MTEXTEND
  0
POINT
  5
A0D1
330
97FA
100
AcDbEntity
  8
DEFPOINTS
 62
     0
 48
15.0
100
AcDbPoint
 10
2743.905619440015
 20
1689.921515638522
 30
0.0
  0
POINT
  5
A0D2
330
97FA
100
AcDbEntity
  8
DEFPOINTS
 62
     0
 48
15.0
100
AcDbPoint
 10
2813.905619440015
 20
1689.921515638522
 30
0.0
  0
POINT
  5
A0D3
330
97FA
100
AcDbEntity
  8
DEFPOINTS
 62
     0
 48
15.0
100
AcDbPoint
 10
2813.905619440015
 20
1831.750610962148
 30
0.0
  0
ENDBLK
  5
9806
330
97FA
100
AcDbEntity
  8
0
 48
15.0
100
AcDbBlockEnd
  0
BLOCK
  5
9812
330
9807
100
AcDbEntity
  8
0
 48
15.0
100
AcDbBlockBegin
  2
*D185
 70
     1
 10
0.0
 20
0.0
 30
0.0
  3
*D185
  1

  0
LINE
  5
A0D4
330
9807
100
AcDbEntity
  8
寸法引出
 48
15.0
370
    -2
100
AcDbLine
 10
2743.905619440015
 20
1704.921515638522
 30
0.0
 11
2743.905619440015
 21
1839.250610962148
 31
0.0
  0
LINE
  5
A0D5
330
9807
100
AcDbEntity
  8
寸法引出
 48
15.0
370
    -2
100
AcDbLine
 10
2653.405619440015
 20
1831.750610962148
 30
0.0
 11
2630.905619440015
 21
1831.750610962148
 31
0.0
  0
LINE
  5
A0D6
330
9807
100
AcDbEntity
  8
寸法引出
 48
15.0
370
    -2
100
AcDbLine
 10
2766.405619440015
 20
1831.750610962148
 30
0.0
 11
2788.905619440015
 21
1831.750610962148
 31
0.0
  0
LINE
  5
A0D7
330
9807
100
AcDbEntity
  8
寸法引出
 48
15.0
370
    -2
100
AcDbLine
 10
2675.905619440015
 20
1831.750610962148
 30
0.0
 11
2743.905619440015
 21
1831.750610962148
 31
0.0
  0
SOLID
  5
A0D8
330
9807
100
AcDbEntity
  8
寸法引出
 48
15.0
100
AcDbTrace
 10
2653.405619440015
 20
1835.500610962148
 30
0.0
 11
2653.405619440015
 21
1828.000610962148
 31
0.0
 12
2675.905619440015
 22
1831.750610962148
 32
0.0
 13
2675.905619440015
 23
1831.750610962148
 33
0.0
  0
SOLID
  5
A0D9
330
9807
100
AcDbEntity
  8
寸法引出
 48
15.0
100
AcDbTrace
 10
2766.405619440015
 20
1835.500610962148
 30
0.0
 11
2766.405619440015
 21
1828.000610962148
 31
0.0
 12
2743.905619440015
 22
1831.750610962148
 32
0.0
 13
2743.905619440015
 23
1831.750610962148
 33
0.0
  0
MTEXT
  5
A0DA
330
9807
100
AcDbEntity
  8
寸法引出
 48
15.0
100
AcDbMText
 10
2709.905619440015
 20
1861.750610962148
 30
0.0
 40
30.0
 41
0.0
 71
     5
 72
     1
  1
\A1;68
  7
SANWA
 73
     1
 44
1.0
1001
ACAD
1000
MTEXTBEGIN
1070
    73
1070
     1
1070
    44
1040
1.0
1070
    74
1070
     0
1000
MTEXTEND
  0
POINT
  5
A0DB
330
9807
100
AcDbEntity
  8
DEFPOINTS
 62
     0
 48
15.0
100
AcDbPoint
 10
2675.905619440015
 20
1689.921515638522
 30
0.0
  0
POINT
  5
A0DC
330
9807
100
AcDbEntity
  8
DEFPOINTS
 62
     0
 48
15.0
100
AcDbPoint
 10
2743.905619440015
 20
1689.921515638522
 30
0.0
  0
POINT
  5
A0DD
330
9807
100
AcDbEntity
  8
DEFPOINTS
 62
     0
 48
15.0
100
AcDbPoint
 10
2743.905619440015
 20
1831.750610962148
 30
0.0
  0
ENDBLK
  5
9813
330
9807
100
AcDbEntity
  8
0
 48
15.0
100
AcDbBlockEnd
  0
BLOCK
  5
9820
330
9814
100
AcDbEntity
  8
0
 48
15.0
100
AcDbBlockBegin
  2
*D186
 70
     1
 10
0.0
 20
0.0
 30
0.0
  3
*D186
  1

  0
LINE
  5
A0DE
330
9814
100
AcDbEntity
  8
寸法引出
 48
15.0
370
    -2
100
AcDbLine
 10
2605.905619440015
 20
1704.921515638522
 30
0.0
 11
2605.905619440015
 21
1839.250610962148
 31
0.0
  0
LINE
  5
A0DF
330
9814
100
AcDbEntity
  8
寸法引出
 48
15.0
370
    -2
100
AcDbLine
 10
2675.905619440015
 20
1704.921515638522
 30
0.0
 11
2675.905619440015
 21
1839.250610962148
 31
0.0
  0
LINE
  5
A0E0
330
9814
100
AcDbEntity
  8
寸法引出
 48
15.0
370
    -2
100
AcDbLine
 10
2583.405619440015
 20
1831.750610962148
 30
0.0
 11
2560.905619440015
 21
1831.750610962148
 31
0.0
  0
LINE
  5
A0E1
330
9814
100
AcDbEntity
  8
寸法引出
 48
15.0
370
    -2
100
AcDbLine
 10
2698.405619440015
 20
1831.750610962148
 30
0.0
 11
2720.905619440015
 21
1831.750610962148
 31
0.0
  0
LINE
  5
A0E2
330
9814
100
AcDbEntity
  8
寸法引出
 48
15.0
370
    -2
100
AcDbLine
 10
2605.905619440015
 20
1831.750610962148
 30
0.0
 11
2675.905619440015
 21
1831.750610962148
 31
0.0
  0
SOLID
  5
A0E3
330
9814
100
AcDbEntity
  8
寸法引出
 48
15.0
100
AcDbTrace
 10
2583.405619440015
 20
1835.500610962148
 30
0.0
 11
2583.405619440015
 21
1828.000610962148
 31
0.0
 12
2605.905619440015
 22
1831.750610962148
 32
0.0
 13
2605.905619440015
 23
1831.750610962148
 33
0.0
  0
SOLID
  5
A0E4
330
9814
100
AcDbEntity
  8
寸法引出
 48
15.0
100
AcDbTrace
 10
2698.405619440015
 20
1835.500610962148
 30
0.0
 11
2698.405619440015
 21
1828.000610962148
 31
0.0
 12
2675.905619440015
 22
1831.750610962148
 32
0.0
 13
2675.905619440015
 23
1831.750610962148
 33
0.0
  0
MTEXT
  5
A0E5
330
9814
100
AcDbEntity
  8
寸法引出
 48
15.0
100
AcDbMText
 10
2640.905619440015
 20
1861.750610962148
 30
0.0
 40
30.0
 41
0.0
 71
     5
 72
     1
  1
\A1;70
  7
SANWA
 73
     1
 44
1.0
1001
ACAD
1000
MTEXTBEGIN
1070
    73
1070
     1
1070
    44
1040
1.0
1070
    74
1070
     0
1000
MTEXTEND
  0
POINT
  5
A0E6
330
9814
100
AcDbEntity
  8
DEFPOINTS
 62
     0
 48
15.0
100
AcDbPoint
 10
2605.905619440015
 20
1689.921515638522
 30
0.0
  0
POINT
  5
A0E7
330
9814
100
AcDbEntity
  8
DEFPOINTS
 62
     0
 48
15.0
100
AcDbPoint
 10
2675.905619440015
 20
1689.921515638522
 30
0.0
  0
POINT
  5
A0E8
330
9814
100
AcDbEntity
  8
DEFPOINTS
 62
     0
 48
15.0
100
AcDbPoint
 10
2675.905619440015
 20
1831.750610962148
 30
0.0
  0
ENDBLK
  5
9821
330
9814
100
AcDbEntity
  8
0
 48
15.0
100
AcDbBlockEnd
  0
BLOCK
  5
982B
330
9822
100
AcDbEntity
  8
0
 48
15.0
100
AcDbBlockBegin
  2
*D187
 70
     1
 10
0.0
 20
0.0
 30
0.0
  3
*D187
  1

  0
LINE
  5
A0E9
330
9822
100
AcDbEntity
  8
寸法引出
 48
15.0
370
    -2
100
AcDbLine
 10
2590.905619440015
 20
1689.921515638522
 30
0.0
 11
2502.521287916569
 21
1689.921515638522
 31
0.0
  0
LINE
  5
A0EA
330
9822
100
AcDbEntity
  8
寸法引出
 48
15.0
370
    -2
100
AcDbLine
 10
2510.021287916569
 20
1562.421515638522
 30
0.0
 11
2510.021287916569
 21
1667.421515638522
 31
0.0
  0
SOLID
  5
A0EB
330
9822
100
AcDbEntity
  8
寸法引出
 48
15.0
100
AcDbTrace
 10
2506.271287916569
 20
1562.421515638522
 30
0.0
 11
2513.771287916569
 21
1562.421515638522
 31
0.0
 12
2510.021287916569
 22
1539.921515638522
 32
0.0
 13
2510.021287916569
 23
1539.921515638522
 33
0.0
  0
SOLID
  5
A0EC
330
9822
100
AcDbEntity
  8
寸法引出
 48
15.0
100
AcDbTrace
 10
2506.271287916569
 20
1667.421515638522
 30
0.0
 11
2513.771287916569
 21
1667.421515638522
 31
0.0
 12
2510.021287916569
 22
1689.921515638522
 32
0.0
 13
2510.021287916569
 23
1689.921515638522
 33
0.0
  0
MTEXT
  5
A0ED
330
9822
100
AcDbEntity
  8
寸法引出
 48
15.0
100
AcDbMText
 10
2480.021287916568
 20
1614.921515638522
 30
0.0
 40
30.0
 41
0.0
 71
     5
 72
     1
  1
\A1;150
  7
SANWA
 11
0.0000000000000001
 21
1.0
 31
0.0
 73
     1
 44
1.0
1001
ACAD
1000
MTEXTBEGIN
1070
    73
1070
     1
1070
    44
1040
1.0
1070
    74
1070
     0
1000
MTEXTEND
  0
POINT
  5
A0EE
330
9822
100
AcDbEntity
  8
DEFPOINTS
 62
     0
 48
15.0
100
AcDbPoint
 10
2605.905619440015
 20
1539.921515638522
 30
0.0
  0
POINT
  5
A0EF
330
9822
100
AcDbEntity
  8
DEFPOINTS
 62
     0
 48
15.0
100
AcDbPoint
 10
2605.905619440015
 20
1689.921515638522
 30
0.0
  0
POINT
  5
A0F0
330
9822
100
AcDbEntity
  8
DEFPOINTS
 62
     0
 48
15.0
100
AcDbPoint
 10
2510.021287916569
 20
1689.921515638522
 30
0.0
  0
ENDBLK
  5
982C
330
9822
100
AcDbEntity
  8
0
 48
15.0
100
AcDbBlockEnd
  0
BLOCK
  5
9836
330
982D
100
AcDbEntity
  8
0
 48
15.0
100
AcDbBlockBegin
  2
*D188
 70
     1
 10
0.0
 20
0.0
 30
0.0
  3
*D188
  1

  0
LINE
  5
A0F1
330
982D
100
AcDbEntity
  8
寸法引出
 48
15.0
370
    -2
100
AcDbLine
 10
3193.279085127323
 20
2169.622610370839
 30
0.0
 11
3193.279085127323
 21
2090.141599868362
 31
0.0
  0
LINE
  5
A0F2
330
982D
100
AcDbEntity
  8
寸法引出
 48
15.0
370
    -2
100
AcDbLine
 10
3095.779085127323
 20
2097.641599868362
 30
0.0
 11
3170.779085127323
 21
2097.641599868362
 31
0.0
  0
SOLID
  5
A0F3
330
982D
100
AcDbEntity
  8
寸法引出
 48
15.0
100
AcDbTrace
 10
3095.779085127323
 20
2101.391599868362
 30
0.0
 11
3095.779085127323
 21
2093.891599868362
 31
0.0
 12
3073.279085127323
 22
2097.641599868362
 32
0.0
 13
3073.279085127323
 23
2097.641599868362
 33
0.0
  0
SOLID
  5
A0F4
330
982D
100
AcDbEntity
  8
寸法引出
 48
15.0
100
AcDbTrace
 10
3170.779085127323
 20
2101.391599868362
 30
0.0
 11
3170.779085127323
 21
2093.891599868362
 31
0.0
 12
3193.279085127323
 22
2097.641599868362
 32
0.0
 13
3193.279085127323
 23
2097.641599868362
 33
0.0
  0
MTEXT
  5
A0F5
330
982D
100
AcDbEntity
  8
寸法引出
 48
15.0
100
AcDbMText
 10
3133.279085127323
 20
2127.641599868362
 30
0.0
 40
30.0
 41
0.0
 71
     5
 72
     1
  1
\A1;120
  7
SANWA
 73
     1
 44
1.0
1001
ACAD
1000
MTEXTBEGIN
1070
    73
1070
     1
1070
    44
1040
1.0
1070
    74
1070
     0
1000
MTEXTEND
  0
POINT
  5
A0F6
330
982D
100
AcDbEntity
  8
DEFPOINTS
 62
     0
 48
15.0
100
AcDbPoint
 10
3073.279085127323
 20
2184.622610370839
 30
0.0
  0
POINT
  5
A0F7
330
982D
100
AcDbEntity
  8
DEFPOINTS
 62
     0
 48
15.0
100
AcDbPoint
 10
3193.279085127323
 20
2184.622610370839
 30
0.0
  0
POINT
  5
A0F8
330
982D
100
AcDbEntity
  8
DEFPOINTS
 62
     0
 48
15.0
100
AcDbPoint
 10
3193.279085127323
 20
2097.641599868362
 30
0.0
  0
ENDBLK
  5
9837
330
982D
100
AcDbEntity
  8
0
 48
15.0
100
AcDbBlockEnd
  0
BLOCK
  5
9841
330
9838
100
AcDbEntity
  8
0
 48
15.0
100
AcDbBlockBegin
  2
*D189
 70
     1
 10
0.0
 20
0.0
 30
0.0
  3
*D189
  1

  0
LINE
  5
A0F9
330
9838
100
AcDbEntity
  8
寸法引出
 48
15.0
370
    -2
100
AcDbLine
 10
3193.279085127323
 20
2349.622610370839
 30
0.0
 11
3193.279085127323
 21
2418.840613689072
 31
0.0
  0
LINE
  5
A0FA
330
9838
100
AcDbEntity
  8
寸法引出
 48
15.0
370
    -2
100
AcDbLine
 10
3065.779085127323
 20
2411.340613689072
 30
0.0
 11
3170.779085127323
 21
2411.340613689072
 31
0.0
  0
SOLID
  5
A0FB
330
9838
100
AcDbEntity
  8
寸法引出
 48
15.0
100
AcDbTrace
 10
3065.779085127323
 20
2415.090613689072
 30
0.0
 11
3065.779085127323
 21
2407.590613689072
 31
0.0
 12
3043.279085127323
 22
2411.340613689072
 32
0.0
 13
3043.279085127323
 23
2411.340613689072
 33
0.0
  0
SOLID
  5
A0FC
330
9838
100
AcDbEntity
  8
寸法引出
 48
15.0
100
AcDbTrace
 10
3170.779085127323
 20
2415.090613689072
 30
0.0
 11
3170.779085127323
 21
2407.590613689072
 31
0.0
 12
3193.279085127323
 22
2411.340613689072
 32
0.0
 13
3193.279085127323
 23
2411.340613689072
 33
0.0
  0
MTEXT
  5
A0FD
330
9838
100
AcDbEntity
  8
寸法引出
 48
15.0
100
AcDbMText
 10
3118.279085127323
 20
2441.340613689072
 30
0.0
 40
30.0
 41
0.0
 71
     5
 72
     1
  1
\A1;150
  7
SANWA
 73
     1
 44
1.0
1001
ACAD
1000
MTEXTBEGIN
1070
    73
1070
     1
1070
    44
1040
1.0
1070
    74
1070
     0
1000
MTEXTEND
  0
POINT
  5
A0FE
330
9838
100
AcDbEntity
  8
DEFPOINTS
 62
     0
 48
15.0
100
AcDbPoint
 10
3043.279085127323
 20
2334.622610370839
 30
0.0
  0
POINT
  5
A0FF
330
9838
100
AcDbEntity
  8
DEFPOINTS
 62
     0
 48
15.0
100
AcDbPoint
 10
3193.279085127323
 20
2334.622610370839
 30
0.0
  0
POINT
  5
A100
330
9838
100
AcDbEntity
  8
DEFPOINTS
 62
     0
 48
15.0
100
AcDbPoint
 10
3193.279085127323
 20
2411.340613689072
 30
0.0
  0
ENDBLK
  5
9842
330
9838
100
AcDbEntity
  8
0
 48
15.0
100
AcDbBlockEnd
  0
BLOCK
  5
984C
330
9843
100
AcDbEntity
  8
0
 48
15.0
100
AcDbBlockBegin
  2
*D190
 70
     1
 10
0.0
 20
0.0
 30
0.0
  3
*D190
  1

  0
LINE
  5
9B2E
330
9843
100
AcDbEntity
  8
寸法引出
 48
15.0
370
    -2
100
AcDbLine
 10
8631.402872544459
 20
2169.622603416647
 30
0.0
 11
8631.402872544459
 21
2023.390764054521
 31
0.0
  0
LINE
  5
9B2F
330
9843
100
AcDbEntity
  8
寸法引出
 48
15.0
370
    -2
100
AcDbLine
 10
7773.902872544458
 20
2030.89076405452
 30
0.0
 11
8608.90287254446
 21
2030.89076405452
 31
0.0
  0
SOLID
  5
9B30
330
9843
100
AcDbEntity
  8
寸法引出
 48
15.0
100
AcDbTrace
 10
7773.902872544458
 20
2034.64076405452
 30
0.0
 11
7773.902872544458
 21
2027.14076405452
 31
0.0
 12
7751.402872544457
 22
2030.89076405452
 32
0.0
 13
7751.402872544457
 23
2030.89076405452
 33
0.0
  0
SOLID
  5
9B31
330
9843
100
AcDbEntity
  8
寸法引出
 48
15.0
100
AcDbTrace
 10
8608.90287254446
 20
2034.64076405452
 30
0.0
 11
8608.90287254446
 21
2027.14076405452
 31
0.0
 12
8631.402872544459
 22
2030.89076405452
 32
0.0
 13
8631.402872544459
 23
2030.89076405452
 33
0.0
  0
MTEXT
  5
9B32
330
9843
100
AcDbEntity
  8
寸法引出
 48
15.0
100
AcDbMText
 10
8191.402872544459
 20
2062.776478340234
 30
0.0
 40
30.0
 41
0.0
 71
     5
 72
     1
  1
\A1;2@440=880
  7
SANWA
 73
     1
 44
1.0
1001
ACAD
1000
MTEXTBEGIN
1070
    73
1070
     1
1070
    44
1040
1.0
1070
    74
1070
     0
1000
MTEXTEND
  0
POINT
  5
9B33
330
9843
100
AcDbEntity
  8
DEFPOINTS
 62
     0
 48
15.0
100
AcDbPoint
 10
7751.402872544457
 20
2184.622603416647
 30
0.0
  0
POINT
  5
9B34
330
9843
100
AcDbEntity
  8
DEFPOINTS
 62
     0
 48
15.0
100
AcDbPoint
 10
8631.402872544459
 20
2184.622603416647
 30
0.0
  0
POINT
  5
9B35
330
9843
100
AcDbEntity
  8
DEFPOINTS
 62
     0
 48
15.0
100
AcDbPoint
 10
8631.402872544459
 20
2030.89076405452
 30
0.0
  0
ENDBLK
  5
984D
330
9843
100
AcDbEntity
  8
0
 48
15.0
100
AcDbBlockEnd
  0
BLOCK
  5
9858
330
984E
100
AcDbEntity
  8
0
 48
15.0
100
AcDbBlockBegin
  2
*D191
 70
     1
 10
0.0
 20
0.0
 30
0.0
  3
*D191
  1

  0
LINE
  5
9B36
330
984E
100
AcDbEntity
  8
寸法引出
 48
15.0
370
    -2
100
AcDbLine
 10
7706.402872544455
 20
2169.622603416647
 30
0.0
 11
7706.402872544455
 21
2085.404850100869
 31
0.0
  0
LINE
  5
9B37
330
984E
100
AcDbEntity
  8
寸法引出
 48
15.0
370
    -2
100
AcDbLine
 10
8676.402872544459
 20
2169.622603416647
 30
0.0
 11
8676.402872544459
 21
2085.404850100869
 31
0.0
  0
LINE
  5
9B38
330
984E
100
AcDbEntity
  8
寸法引出
 48
15.0
370
    -2
100
AcDbLine
 10
7728.902872544456
 20
2092.90485010087
 30
0.0
 11
8653.90287254446
 21
2092.90485010087
 31
0.0
  0
SOLID
  5
9B39
330
984E
100
AcDbEntity
  8
寸法引出
 48
15.0
100
AcDbTrace
 10
7728.902872544456
 20
2096.654850100869
 30
0.0
 11
7728.902872544456
 21
2089.154850100869
 31
0.0
 12
7706.402872544455
 22
2092.90485010087
 32
0.0
 13
7706.402872544455
 23
2092.90485010087
 33
0.0
  0
SOLID
  5
9B3A
330
984E
100
AcDbEntity
  8
寸法引出
 48
15.0
100
AcDbTrace
 10
8653.90287254446
 20
2096.654850100869
 30
0.0
 11
8653.90287254446
 21
2089.154850100869
 31
0.0
 12
8676.402872544459
 22
2092.90485010087
 32
0.0
 13
8676.402872544459
 23
2092.90485010087
 33
0.0
  0
MTEXT
  5
9B3B
330
984E
100
AcDbEntity
  8
寸法引出
 48
15.0
100
AcDbMText
 10
8191.402872544456
 20
2122.904850100869
 30
0.0
 40
30.0
 41
0.0
 71
     5
 72
     1
  1
\A1;970
  7
SANWA
 73
     1
 44
1.0
1001
ACAD
1000
MTEXTBEGIN
1070
    73
1070
     1
1070
    44
1040
1.0
1070
    74
1070
     0
1000
MTEXTEND
  0
POINT
  5
9B3C
330
984E
100
AcDbEntity
  8
DEFPOINTS
 62
     0
 48
15.0
100
AcDbPoint
 10
7706.402872544455
 20
2184.622603416647
 30
0.0
  0
POINT
  5
9B3D
330
984E
100
AcDbEntity
  8
DEFPOINTS
 62
     0
 48
15.0
100
AcDbPoint
 10
8676.402872544459
 20
2184.622603416647
 30
0.0
  0
POINT
  5
9B3E
330
984E
100
AcDbEntity
  8
DEFPOINTS
 62
     0
 48
15.0
100
AcDbPoint
 10
8676.402872544459
 20
2092.90485010087
 30
0.0
  0
ENDBLK
  5
9859
330
984E
100
AcDbEntity
  8
0
 48
15.0
100
AcDbBlockEnd
  0
BLOCK
  5
9864
330
985A
100
AcDbEntity
  8
0
 48
15.0
100
AcDbBlockBegin
  2
*D192
 70
     1
 10
0.0
 20
0.0
 30
0.0
  3
*D192
  1

  0
LINE
  5
9E71
330
985A
100
AcDbEntity
  8
寸法引出
 48
15.0
370
    -2
100
AcDbLine
 10
7691.402872544458
 20
2349.622603416647
 30
0.0
 11
7691.402872544458
 21
2477.517513745843
 31
0.0
  0
LINE
  5
9E72
330
985A
100
AcDbEntity
  8
寸法引出
 48
15.0
370
    -2
100
AcDbLine
 10
8691.402872544459
 20
2349.622603416647
 30
0.0
 11
8691.402872544459
 21
2477.517513745843
 31
0.0
  0
LINE
  5
9E73
330
985A
100
AcDbEntity
  8
寸法引出
 48
15.0
370
    -2
100
AcDbLine
 10
7713.902872544458
 20
2470.017513745843
 30
0.0
 11
8668.902872544459
 21
2470.017513745843
 31
0.0
  0
SOLID
  5
9E74
330
985A
100
AcDbEntity
  8
寸法引出
 48
15.0
100
AcDbTrace
 10
7713.902872544458
 20
2473.767513745843
 30
0.0
 11
7713.902872544458
 21
2466.267513745843
 31
0.0
 12
7691.402872544458
 22
2470.017513745843
 32
0.0
 13
7691.402872544458
 23
2470.017513745843
 33
0.0
  0
SOLID
  5
9E75
330
985A
100
AcDbEntity
  8
寸法引出
 48
15.0
100
AcDbTrace
 10
8668.902872544459
 20
2473.767513745843
 30
0.0
 11
8668.902872544459
 21
2466.267513745843
 31
0.0
 12
8691.402872544459
 22
2470.017513745843
 32
0.0
 13
8691.402872544459
 23
2470.017513745843
 33
0.0
  0
MTEXT
  5
9E76
330
985A
100
AcDbEntity
  8
寸法引出
 48
15.0
100
AcDbMText
 10
8191.402872544459
 20
2500.017513745843
 30
0.0
 40
30.0
 41
0.0
 71
     5
 72
     1
  1
\A1;1000
  7
SANWA
 73
     1
 44
1.0
1001
ACAD
1000
MTEXTBEGIN
1070
    73
1070
     1
1070
    44
1040
1.0
1070
    74
1070
     0
1000
MTEXTEND
  0
POINT
  5
9E77
330
985A
100
AcDbEntity
  8
DEFPOINTS
 62
     0
 48
15.0
100
AcDbPoint
 10
7691.402872544458
 20
2334.622603416647
 30
0.0
  0
POINT
  5
9E78
330
985A
100
AcDbEntity
  8
DEFPOINTS
 62
     0
 48
15.0
100
AcDbPoint
 10
8691.402872544459
 20
2334.622603416647
 30
0.0
  0
POINT
  5
9E79
330
985A
100
AcDbEntity
  8
DEFPOINTS
 62
     0
 48
15.0
100
AcDbPoint
 10
8691.402872544459
 20
2470.017513745843
 30
0.0
  0
ENDBLK
  5
9865
330
985A
100
AcDbEntity
  8
0
 48
15.0
100
AcDbBlockEnd
  0
BLOCK
  5
9870
330
9866
100
AcDbEntity
  8
0
 48
15.0
100
AcDbBlockBegin
  2
*D193
 70
     1
 10
0.0
 20
0.0
 30
0.0
  3
*D193
  1

  0
LINE
  5
9E68
330
9866
100
AcDbEntity
  8
寸法引出
 48
15.0
370
    -2
100
AcDbLine
 10
7741.402872544457
 20
2349.622603416647
 30
0.0
 11
7741.402872544457
 21
2417.179497477286
 31
0.0
  0
LINE
  5
9E69
330
9866
100
AcDbEntity
  8
寸法引出
 48
15.0
370
    -2
100
AcDbLine
 10
8641.402872544459
 20
2349.622603416647
 30
0.0
 11
8641.402872544459
 21
2417.179497477286
 31
0.0
  0
LINE
  5
9E6A
330
9866
100
AcDbEntity
  8
寸法引出
 48
15.0
370
    -2
100
AcDbLine
 10
7763.902872544456
 20
2409.679497477286
 30
0.0
 11
8618.902872544458
 21
2409.679497477286
 31
0.0
  0
SOLID
  5
9E6B
330
9866
100
AcDbEntity
  8
寸法引出
 48
15.0
100
AcDbTrace
 10
7763.902872544456
 20
2413.429497477286
 30
0.0
 11
7763.902872544456
 21
2405.929497477286
 31
0.0
 12
7741.402872544457
 22
2409.679497477286
 32
0.0
 13
7741.402872544457
 23
2409.679497477286
 33
0.0
  0
SOLID
  5
9E6C
330
9866
100
AcDbEntity
  8
寸法引出
 48
15.0
100
AcDbTrace
 10
8618.902872544458
 20
2413.429497477286
 30
0.0
 11
8618.902872544458
 21
2405.929497477286
 31
0.0
 12
8641.402872544459
 22
2409.679497477286
 32
0.0
 13
8641.402872544459
 23
2409.679497477286
 33
0.0
  0
MTEXT
  5
9E6D
330
9866
100
AcDbEntity
  8
寸法引出
 48
15.0
100
AcDbMText
 10
8191.402872544456
 20
2439.679497477286
 30
0.0
 40
30.0
 41
0.0
 71
     5
 72
     1
  1
\A1;900
  7
SANWA
 73
     1
 44
1.0
1001
ACAD
1000
MTEXTBEGIN
1070
    73
1070
     1
1070
    44
1040
1.0
1070
    74
1070
     0
1000
MTEXTEND
  0
POINT
  5
9E6E
330
9866
100
AcDbEntity
  8
DEFPOINTS
 62
     0
 48
15.0
100
AcDbPoint
 10
7741.402872544457
 20
2334.622603416647
 30
0.0
  0
POINT
  5
9E6F
330
9866
100
AcDbEntity
  8
DEFPOINTS
 62
     0
 48
15.0
100
AcDbPoint
 10
8641.402872544459
 20
2334.622603416647
 30
0.0
  0
POINT
  5
9E70
330
9866
100
AcDbEntity
  8
DEFPOINTS
 62
     0
 48
15.0
100
AcDbPoint
 10
8641.402872544459
 20
2409.679497477286
 30
0.0
  0
ENDBLK
  5
9871
330
9866
100
AcDbEntity
  8
0
 48
15.0
100
AcDbBlockEnd
  0
BLOCK
  5
987B
330
9872
100
AcDbEntity
  8
0
 48
15.0
100
AcDbBlockBegin
  2
*D194
 70
     1
 10
0.0
 20
0.0
 30
0.0
  3
*D194
  1

  0
LINE
  5
9B51
330
9872
100
AcDbEntity
  8
寸法引出
 48
15.0
370
    -2
100
AcDbLine
 10
7256.271450446263
 20
1629.92150868433
 30
0.0
 11
7539.263458560803
 21
1629.92150868433
 31
0.0
  0
LINE
  5
9B52
330
9872
100
AcDbEntity
  8
寸法引出
 48
15.0
370
    -2
100
AcDbLine
 10
7531.763458560803
 20
772.4215086843299
 30
0.0
 11
7531.763458560803
 21
1607.42150868433
 31
0.0
  0
SOLID
  5
9B53
330
9872
100
AcDbEntity
  8
寸法引出
 48
15.0
100
AcDbTrace
 10
7528.013458560803
 20
772.4215086843299
 30
0.0
 11
7535.513458560803
 21
772.4215086843299
 31
0.0
 12
7531.763458560803
 22
749.92150868433
 32
0.0
 13
7531.763458560803
 23
749.92150868433
 33
0.0
  0
SOLID
  5
9B54
330
9872
100
AcDbEntity
  8
寸法引出
 48
15.0
100
AcDbTrace
 10
7528.013458560803
 20
1607.42150868433
 30
0.0
 11
7535.513458560803
 21
1607.42150868433
 31
0.0
 12
7531.763458560803
 22
1629.92150868433
 32
0.0
 13
7531.763458560803
 23
1629.92150868433
 33
0.0
  0
MTEXT
  5
9B55
330
9872
100
AcDbEntity
  8
寸法引出
 48
15.0
100
AcDbMText
 10
7501.763458560803
 20
1189.921508684331
 30
0.0
 40
30.0
 41
0.0
 71
     5
 72
     1
  1
\A1;880
  7
SANWA
 11
0.0000000000000001
 21
1.0
 31
0.0
 73
     1
 44
1.0
1001
ACAD
1000
MTEXTBEGIN
1070
    73
1070
     1
1070
    44
1040
1.0
1070
    74
1070
     0
1000
MTEXTEND
  0
POINT
  5
9B56
330
9872
100
AcDbEntity
  8
DEFPOINTS
 62
     0
 48
15.0
100
AcDbPoint
 10
7241.271450446264
 20
749.92150868433
 30
0.0
  0
POINT
  5
9B57
330
9872
100
AcDbEntity
  8
DEFPOINTS
 62
     0
 48
15.0
100
AcDbPoint
 10
7241.271450446264
 20
1629.92150868433
 30
0.0
  0
POINT
  5
9B58
330
9872
100
AcDbEntity
  8
DEFPOINTS
 62
     0
 48
15.0
100
AcDbPoint
 10
7531.763458560803
 20
1629.92150868433
 30
0.0
  0
ENDBLK
  5
987C
330
9872
100
AcDbEntity
  8
0
 48
15.0
100
AcDbBlockEnd
  0
BLOCK
  5
9889
330
987D
100
AcDbEntity
  8
0
 48
15.0
100
AcDbBlockBegin
  2
*D195
 70
     1
 10
0.0
 20
0.0
 30
0.0
  3
*D195
  1

  0
LINE
  5
9B59
330
987D
100
AcDbEntity
  8
寸法引出
 48
15.0
370
    -2
100
AcDbLine
 10
7256.271450446263
 20
689.9215086843301
 30
0.0
 11
7539.263458560803
 21
689.9215086843299
 31
0.0
  0
LINE
  5
9B5A
330
987D
100
AcDbEntity
  8
寸法引出
 48
15.0
370
    -2
100
AcDbLine
 10
7256.271450446263
 20
749.92150868433
 30
0.0
 11
7539.263458560803
 21
749.92150868433
 31
0.0
  0
LINE
  5
9B5B
330
987D
100
AcDbEntity
  8
寸法引出
 48
15.0
370
    -2
100
AcDbLine
 10
7531.763458560803
 20
667.4215086843299
 30
0.0
 11
7531.763458560803
 21
644.92150868433
 31
0.0
  0
LINE
  5
9B5C
330
987D
100
AcDbEntity
  8
寸法引出
 48
15.0
370
    -2
100
AcDbLine
 10
7531.763458560803
 20
772.4215086843299
 30
0.0
 11
7531.763458560803
 21
794.92150868433
 31
0.0
  0
LINE
  5
9B5D
330
987D
100
AcDbEntity
  8
寸法引出
 48
15.0
370
    -2
100
AcDbLine
 10
7531.763458560803
 20
689.9215086843299
 30
0.0
 11
7531.763458560803
 21
749.92150868433
 31
0.0
  0
SOLID
  5
9B5E
330
987D
100
AcDbEntity
  8
寸法引出
 48
15.0
100
AcDbTrace
 10
7528.013458560803
 20
667.4215086843299
 30
0.0
 11
7535.513458560803
 21
667.4215086843299
 31
0.0
 12
7531.763458560803
 22
689.9215086843299
 32
0.0
 13
7531.763458560803
 23
689.9215086843299
 33
0.0
  0
SOLID
  5
9B5F
330
987D
100
AcDbEntity
  8
寸法引出
 48
15.0
100
AcDbTrace
 10
7528.013458560803
 20
772.4215086843299
 30
0.0
 11
7535.513458560803
 21
772.4215086843299
 31
0.0
 12
7531.763458560803
 22
749.92150868433
 32
0.0
 13
7531.763458560803
 23
749.92150868433
 33
0.0
  0
MTEXT
  5
9B60
330
987D
100
AcDbEntity
  8
寸法引出
 48
15.0
100
AcDbMText
 10
7501.763458560803
 20
719.9215086843312
 30
0.0
 40
30.0
 41
0.0
 71
     5
 72
     1
  1
\A1;60
  7
SANWA
 11
0.0000000000000001
 21
1.0
 31
0.0
 73
     1
 44
1.0
1001
ACAD
1000
MTEXTBEGIN
1070
    73
1070
     1
1070
    44
1040
1.0
1070
    74
1070
     0
1000
MTEXTEND
  0
POINT
  5
9B61
330
987D
100
AcDbEntity
  8
DEFPOINTS
 62
     0
 48
15.0
100
AcDbPoint
 10
7241.271450446264
 20
689.9215086843301
 30
0.0
  0
POINT
  5
9B62
330
987D
100
AcDbEntity
  8
DEFPOINTS
 62
     0
 48
15.0
100
AcDbPoint
 10
7241.271450446264
 20
749.92150868433
 30
0.0
  0
POINT
  5
9B63
330
987D
100
AcDbEntity
  8
DEFPOINTS
 62
     0
 48
15.0
100
AcDbPoint
 10
7531.763458560803
 20
749.92150868433
 30
0.0
  0
ENDBLK
  5
988A
330
987D
100
AcDbEntity
  8
0
 48
15.0
100
AcDbBlockEnd
  0
BLOCK
  5
9897
330
988B
100
AcDbEntity
  8
0
 48
15.0
100
AcDbBlockBegin
  2
*D196
 70
     1
 10
0.0
 20
0.0
 30
0.0
  3
*D196
  1

  0
LINE
  5
9B64
330
988B
100
AcDbEntity
  8
寸法引出
 48
15.0
370
    -2
100
AcDbLine
 10
6891.271450446264
 20
674.92150868433
 30
0.0
 11
6891.271450446264
 21
448.612139071627
 31
0.0
  0
LINE
  5
9B65
330
988B
100
AcDbEntity
  8
寸法引出
 48
15.0
370
    -2
100
AcDbLine
 10
6911.271450446263
 20
674.92150868433
 30
0.0
 11
6911.271450446263
 21
448.612139071627
 31
0.0
  0
LINE
  5
9B66
330
988B
100
AcDbEntity
  8
寸法引出
 48
15.0
370
    -2
100
AcDbLine
 10
6868.771450446264
 20
456.112139071627
 30
0.0
 11
6846.271450446264
 21
456.112139071627
 31
0.0
  0
LINE
  5
9B67
330
988B
100
AcDbEntity
  8
寸法引出
 48
15.0
370
    -2
100
AcDbLine
 10
6933.771450446262
 20
456.112139071627
 30
0.0
 11
6956.271450446263
 21
456.112139071627
 31
0.0
  0
LINE
  5
9B68
330
988B
100
AcDbEntity
  8
寸法引出
 48
15.0
370
    -2
100
AcDbLine
 10
6891.271450446264
 20
456.112139071627
 30
0.0
 11
6911.271450446263
 21
456.112139071627
 31
0.0
  0
SOLID
  5
9B69
330
988B
100
AcDbEntity
  8
寸法引出
 48
15.0
100
AcDbTrace
 10
6868.771450446264
 20
459.8621390716271
 30
0.0
 11
6868.771450446264
 21
452.3621390716271
 31
0.0
 12
6891.271450446264
 22
456.112139071627
 32
0.0
 13
6891.271450446264
 23
456.112139071627
 33
0.0
  0
SOLID
  5
9B6A
330
988B
100
AcDbEntity
  8
寸法引出
 48
15.0
100
AcDbTrace
 10
6933.771450446262
 20
459.8621390716271
 30
0.0
 11
6933.771450446262
 21
452.3621390716271
 31
0.0
 12
6911.271450446263
 22
456.112139071627
 32
0.0
 13
6911.271450446263
 23
456.112139071627
 33
0.0
  0
MTEXT
  5
9B6B
330
988B
100
AcDbEntity
  8
寸法引出
 48
15.0
100
AcDbMText
 10
6901.271450446263
 20
486.112139071627
 30
0.0
 40
30.0
 41
0.0
 71
     5
 72
     1
  1
\A1;20
  7
SANWA
 73
     1
 44
1.0
1001
ACAD
1000
MTEXTBEGIN
1070
    73
1070
     1
1070
    44
1040
1.0
1070
    74
1070
     0
1000
MTEXTEND
  0
POINT
  5
9B6C
330
988B
100
AcDbEntity
  8
DEFPOINTS
 62
     0
 48
15.0
100
AcDbPoint
 10
6891.271450446264
 20
689.9215086843301
 30
0.0
  0
POINT
  5
9B6D
330
988B
100
AcDbEntity
  8
DEFPOINTS
 62
     0
 48
15.0
100
AcDbPoint
 10
6911.271450446263
 20
689.9215086843301
 30
0.0
  0
POINT
  5
9B6E
330
988B
100
AcDbEntity
  8
DEFPOINTS
 62
     0
 48
15.0
100
AcDbPoint
 10
6911.271450446263
 20
456.112139071627
 30
0.0
  0
ENDBLK
  5
9898
330
988B
100
AcDbEntity
  8
0
 48
15.0
100
AcDbBlockEnd
  0
BLOCK
  5
98A4
330
9899
100
AcDbEntity
  8
0
 48
15.0
100
AcDbBlockBegin
  2
*D197
 70
     1
 10
0.0
 20
0.0
 30
0.0
  3
*D197
  1

  0
LINE
  5
9B6F
330
9899
100
AcDbEntity
  8
寸法引出
 48
15.0
370
    -2
100
AcDbLine
 10
7241.271450446264
 20
674.92150868433
 30
0.0
 11
7241.271450446264
 21
448.612139071627
 31
0.0
  0
LINE
  5
9B70
330
9899
100
AcDbEntity
  8
寸法引出
 48
15.0
370
    -2
100
AcDbLine
 10
7198.771450446263
 20
456.112139071627
 30
0.0
 11
7176.271450446264
 21
456.112139071627
 31
0.0
  0
LINE
  5
9B71
330
9899
100
AcDbEntity
  8
寸法引出
 48
15.0
370
    -2
100
AcDbLine
 10
7263.771450446263
 20
456.112139071627
 30
0.0
 11
7286.271450446264
 21
456.112139071627
 31
0.0
  0
LINE
  5
9B72
330
9899
100
AcDbEntity
  8
寸法引出
 48
15.0
370
    -2
100
AcDbLine
 10
7221.271450446263
 20
456.112139071627
 30
0.0
 11
7241.271450446264
 21
456.112139071627
 31
0.0
  0
SOLID
  5
9B73
330
9899
100
AcDbEntity
  8
寸法引出
 48
15.0
100
AcDbTrace
 10
7198.771450446263
 20
459.8621390716271
 30
0.0
 11
7198.771450446263
 21
452.3621390716271
 31
0.0
 12
7221.271450446263
 22
456.112139071627
 32
0.0
 13
7221.271450446263
 23
456.112139071627
 33
0.0
  0
SOLID
  5
9B74
330
9899
100
AcDbEntity
  8
寸法引出
 48
15.0
100
AcDbTrace
 10
7263.771450446263
 20
459.8621390716271
 30
0.0
 11
7263.771450446263
 21
452.3621390716271
 31
0.0
 12
7241.271450446264
 22
456.112139071627
 32
0.0
 13
7241.271450446264
 23
456.112139071627
 33
0.0
  0
MTEXT
  5
9B75
330
9899
100
AcDbEntity
  8
寸法引出
 48
15.0
100
AcDbMText
 10
7231.271450446263
 20
486.112139071627
 30
0.0
 40
30.0
 41
0.0
 71
     5
 72
     1
  1
\A1;20
  7
SANWA
 73
     1
 44
1.0
1001
ACAD
1000
MTEXTBEGIN
1070
    73
1070
     1
1070
    44
1040
1.0
1070
    74
1070
     0
1000
MTEXTEND
  0
POINT
  5
9B76
330
9899
100
AcDbEntity
  8
DEFPOINTS
 62
     0
 48
15.0
100
AcDbPoint
 10
7221.271450446263
 20
689.9215086843301
 30
0.0
  0
POINT
  5
9B77
330
9899
100
AcDbEntity
  8
DEFPOINTS
 62
     0
 48
15.0
100
AcDbPoint
 10
7241.271450446264
 20
689.9215086843301
 30
0.0
  0
POINT
  5
9B78
330
9899
100
AcDbEntity
  8
DEFPOINTS
 62
     0
 48
15.0
100
AcDbPoint
 10
7241.271450446264
 20
456.112139071627
 30
0.0
  0
ENDBLK
  5
98A5
330
9899
100
AcDbEntity
  8
0
 48
15.0
100
AcDbBlockEnd
  0
BLOCK
  5
98B0
330
98A6
100
AcDbEntity
  8
0
 48
15.0
100
AcDbBlockBegin
  2
*D198
 70
     1
 10
0.0
 20
0.0
 30
0.0
  3
*D198
  1

  0
LINE
  5
9B79
330
98A6
100
AcDbEntity
  8
寸法引出
 48
15.0
370
    -2
100
AcDbLine
 10
6911.271450446263
 20
674.92150868433
 30
0.0
 11
6911.271450446263
 21
448.612139071627
 31
0.0
  0
LINE
  5
9B7A
330
98A6
100
AcDbEntity
  8
寸法引出
 48
15.0
370
    -2
100
AcDbLine
 10
7221.271450446263
 20
674.92150868433
 30
0.0
 11
7221.271450446263
 21
448.612139071627
 31
0.0
  0
LINE
  5
9B7B
330
98A6
100
AcDbEntity
  8
寸法引出
 48
15.0
370
    -2
100
AcDbLine
 10
6933.771450446262
 20
456.112139071627
 30
0.0
 11
7198.771450446263
 21
456.112139071627
 31
0.0
  0
SOLID
  5
9B7C
330
98A6
100
AcDbEntity
  8
寸法引出
 48
15.0
100
AcDbTrace
 10
6933.771450446262
 20
459.8621390716271
 30
0.0
 11
6933.771450446262
 21
452.3621390716271
 31
0.0
 12
6911.271450446263
 22
456.112139071627
 32
0.0
 13
6911.271450446263
 23
456.112139071627
 33
0.0
  0
SOLID
  5
9B7D
330
98A6
100
AcDbEntity
  8
寸法引出
 48
15.0
100
AcDbTrace
 10
7198.771450446263
 20
459.8621390716271
 30
0.0
 11
7198.771450446263
 21
452.3621390716271
 31
0.0
 12
7221.271450446263
 22
456.112139071627
 32
0.0
 13
7221.271450446263
 23
456.112139071627
 33
0.0
  0
MTEXT
  5
9B7E
330
98A6
100
AcDbEntity
  8
寸法引出
 48
15.0
100
AcDbMText
 10
7066.271450446262
 20
486.112139071627
 30
0.0
 40
30.0
 41
0.0
 71
     5
 72
     1
  1
\A1;310
  7
SANWA
 73
     1
 44
1.0
1001
ACAD
1000
MTEXTBEGIN
1070
    73
1070
     1
1070
    44
1040
1.0
1070
    74
1070
     0
1000
MTEXTEND
  0
POINT
  5
9B7F
330
98A6
100
AcDbEntity
  8
DEFPOINTS
 62
     0
 48
15.0
100
AcDbPoint
 10
6911.271450446263
 20
689.9215086843301
 30
0.0
  0
POINT
  5
9B80
330
98A6
100
AcDbEntity
  8
DEFPOINTS
 62
     0
 48
15.0
100
AcDbPoint
 10
7221.271450446263
 20
689.9215086843301
 30
0.0
  0
POINT
  5
9B81
330
98A6
100
AcDbEntity
  8
DEFPOINTS
 62
     0
 48
15.0
100
AcDbPoint
 10
7221.271450446263
 20
456.112139071627
 30
0.0
  0
ENDBLK
  5
98B1
330
98A6
100
AcDbEntity
  8
0
 48
15.0
100
AcDbBlockEnd
  0
BLOCK
  5
98BC
330
98B2
100
AcDbEntity
  8
0
 48
15.0
100
AcDbBlockBegin
  2
*D199
 70
     1
 10
0.0
 20
0.0
 30
0.0
  3
*D199
  1

  0
LINE
  5
9E97
330
98B2
100
AcDbEntity
  8
寸法引出
 48
15.0
370
    -2
100
AcDbLine
 10
6891.271450446264
 20
2299.622603416647
 30
0.0
 11
6891.271450446264
 21
2435.296864927165
 31
0.0
  0
LINE
  5
9E98
330
98B2
100
AcDbEntity
  8
寸法引出
 48
15.0
370
    -2
100
AcDbLine
 10
7241.271450446264
 20
2299.622603416647
 30
0.0
 11
7241.271450446264
 21
2435.296864927165
 31
0.0
  0
LINE
  5
9E99
330
98B2
100
AcDbEntity
  8
寸法引出
 48
15.0
370
    -2
100
AcDbLine
 10
6913.771450446263
 20
2427.796864927164
 30
0.0
 11
7218.771450446263
 21
2427.796864927164
 31
0.0
  0
SOLID
  5
9E9A
330
98B2
100
AcDbEntity
  8
寸法引出
 48
15.0
100
AcDbTrace
 10
6913.771450446263
 20
2431.546864927164
 30
0.0
 11
6913.771450446263
 21
2424.046864927165
 31
0.0
 12
6891.271450446264
 22
2427.796864927164
 32
0.0
 13
6891.271450446264
 23
2427.796864927164
 33
0.0
  0
SOLID
  5
9E9B
330
98B2
100
AcDbEntity
  8
寸法引出
 48
15.0
100
AcDbTrace
 10
7218.771450446263
 20
2431.546864927164
 30
0.0
 11
7218.771450446263
 21
2424.046864927165
 31
0.0
 12
7241.271450446264
 22
2427.796864927164
 32
0.0
 13
7241.271450446264
 23
2427.796864927164
 33
0.0
  0
MTEXT
  5
9E9C
330
98B2
100
AcDbEntity
  8
寸法引出
 48
15.0
100
AcDbMText
 10
7066.271450446264
 20
2457.796864927165
 30
0.0
 40
30.0
 41
0.0
 71
     5
 72
     1
  1
\A1;350
  7
SANWA
 73
     1
 44
1.0
1001
ACAD
1000
MTEXTBEGIN
1070
    73
1070
     1
1070
    44
1040
1.0
1070
    74
1070
     0
1000
MTEXTEND
  0
POINT
  5
9E9D
330
98B2
100
AcDbEntity
  8
DEFPOINTS
 62
     0
 48
15.0
100
AcDbPoint
 10
6891.271450446264
 20
2284.622603416647
 30
0.0
  0
POINT
  5
9E9E
330
98B2
100
AcDbEntity
  8
DEFPOINTS
 62
     0
 48
15.0
100
AcDbPoint
 10
7241.271450446264
 20
2284.622603416647
 30
0.0
  0
POINT
  5
9E9F
330
98B2
100
AcDbEntity
  8
DEFPOINTS
 62
     0
 48
15.0
100
AcDbPoint
 10
7241.271450446264
 20
2427.796864927164
 30
0.0
  0
ENDBLK
  5
98BD
330
98B2
100
AcDbEntity
  8
0
 48
15.0
100
AcDbBlockEnd
  0
BLOCK
  5
98C9
330
98BE
100
AcDbEntity
  8
0
 48
15.0
100
AcDbBlockBegin
  2
*D200
 70
     1
 10
0.0
 20
0.0
 30
0.0
  3
*D200
  1

  0
LINE
  5
9E8D
330
98BE
100
AcDbEntity
  8
寸法引出
 48
15.0
370
    -2
100
AcDbLine
 10
7241.271450446264
 20
2299.622603416647
 30
0.0
 11
7241.271450446264
 21
2373.761222194715
 31
0.0
  0
LINE
  5
9E8E
330
98BE
100
AcDbEntity
  8
寸法引出
 48
15.0
370
    -2
100
AcDbLine
 10
7158.771450446263
 20
2366.261222194715
 30
0.0
 11
7136.271450446263
 21
2366.261222194715
 31
0.0
  0
LINE
  5
9E8F
330
98BE
100
AcDbEntity
  8
寸法引出
 48
15.0
370
    -2
100
AcDbLine
 10
7263.771450446263
 20
2366.261222194715
 30
0.0
 11
7286.271450446264
 21
2366.261222194715
 31
0.0
  0
LINE
  5
9E90
330
98BE
100
AcDbEntity
  8
寸法引出
 48
15.0
370
    -2
100
AcDbLine
 10
7181.271450446264
 20
2366.261222194715
 30
0.0
 11
7241.271450446264
 21
2366.261222194715
 31
0.0
  0
SOLID
  5
9E91
330
98BE
100
AcDbEntity
  8
寸法引出
 48
15.0
100
AcDbTrace
 10
7158.771450446263
 20
2370.011222194715
 30
0.0
 11
7158.771450446263
 21
2362.511222194715
 31
0.0
 12
7181.271450446264
 22
2366.261222194715
 32
0.0
 13
7181.271450446264
 23
2366.261222194715
 33
0.0
  0
SOLID
  5
9E92
330
98BE
100
AcDbEntity
  8
寸法引出
 48
15.0
100
AcDbTrace
 10
7263.771450446263
 20
2370.011222194715
 30
0.0
 11
7263.771450446263
 21
2362.511222194715
 31
0.0
 12
7241.271450446264
 22
2366.261222194715
 32
0.0
 13
7241.271450446264
 23
2366.261222194715
 33
0.0
  0
MTEXT
  5
9E93
330
98BE
100
AcDbEntity
  8
寸法引出
 48
15.0
100
AcDbMText
 10
7211.271450446265
 20
2396.261222194715
 30
0.0
 40
30.0
 41
0.0
 71
     5
 72
     1
  1
\A1;60
  7
SANWA
 73
     1
 44
1.0
1001
ACAD
1000
MTEXTBEGIN
1070
    73
1070
     1
1070
    44
1040
1.0
1070
    74
1070
     0
1000
MTEXTEND
  0
POINT
  5
9E94
330
98BE
100
AcDbEntity
  8
DEFPOINTS
 62
     0
 48
15.0
100
AcDbPoint
 10
7181.271450446264
 20
2264.622603416647
 30
0.0
  0
POINT
  5
9E95
330
98BE
100
AcDbEntity
  8
DEFPOINTS
 62
     0
 48
15.0
100
AcDbPoint
 10
7241.271450446264
 20
2284.622603416647
 30
0.0
  0
POINT
  5
9E96
330
98BE
100
AcDbEntity
  8
DEFPOINTS
 62
     0
 48
15.0
100
AcDbPoint
 10
7241.271450446264
 20
2366.261222194715
 30
0.0
  0
ENDBLK
  5
98CA
330
98BE
100
AcDbEntity
  8
0
 48
15.0
100
AcDbBlockEnd
  0
BLOCK
  5
98D4
330
98CB
100
AcDbEntity
  8
0
 48
15.0
100
AcDbBlockBegin
  2
*D201
 70
     1
 10
0.0
 20
0.0
 30
0.0
  3
*D201
  1

  0
LINE
  5
9E85
330
98CB
100
AcDbEntity
  8
寸法引出
 48
15.0
370
    -2
100
AcDbLine
 10
7181.271450446264
 20
2279.622603416647
 30
0.0
 11
7181.271450446264
 21
2373.761222194715
 31
0.0
  0
LINE
  5
9E86
330
98CB
100
AcDbEntity
  8
寸法引出
 48
15.0
370
    -2
100
AcDbLine
 10
6973.771450446263
 20
2366.261222194715
 30
0.0
 11
7158.771450446263
 21
2366.261222194715
 31
0.0
  0
SOLID
  5
9E87
330
98CB
100
AcDbEntity
  8
寸法引出
 48
15.0
100
AcDbTrace
 10
6973.771450446263
 20
2370.011222194715
 30
0.0
 11
6973.771450446263
 21
2362.511222194715
 31
0.0
 12
6951.271450446263
 22
2366.261222194715
 32
0.0
 13
6951.271450446263
 23
2366.261222194715
 33
0.0
  0
SOLID
  5
9E88
330
98CB
100
AcDbEntity
  8
寸法引出
 48
15.0
100
AcDbTrace
 10
7158.771450446263
 20
2370.011222194715
 30
0.0
 11
7158.771450446263
 21
2362.511222194715
 31
0.0
 12
7181.271450446264
 22
2366.261222194715
 32
0.0
 13
7181.271450446264
 23
2366.261222194715
 33
0.0
  0
MTEXT
  5
9E89
330
98CB
100
AcDbEntity
  8
寸法引出
 48
15.0
100
AcDbMText
 10
7066.271450446262
 20
2396.261222194715
 30
0.0
 40
30.0
 41
0.0
 71
     5
 72
     1
  1
\A1;230
  7
SANWA
 73
     1
 44
1.0
1001
ACAD
1000
MTEXTBEGIN
1070
    73
1070
     1
1070
    44
1040
1.0
1070
    74
1070
     0
1000
MTEXTEND
  0
POINT
  5
9E8A
330
98CB
100
AcDbEntity
  8
DEFPOINTS
 62
     0
 48
15.0
100
AcDbPoint
 10
6951.271450446263
 20
2264.622603416647
 30
0.0
  0
POINT
  5
9E8B
330
98CB
100
AcDbEntity
  8
DEFPOINTS
 62
     0
 48
15.0
100
AcDbPoint
 10
7181.271450446264
 20
2264.622603416647
 30
0.0
  0
POINT
  5
9E8C
330
98CB
100
AcDbEntity
  8
DEFPOINTS
 62
     0
 48
15.0
100
AcDbPoint
 10
7181.271450446264
 20
2366.261222194715
 30
0.0
  0
ENDBLK
  5
98D5
330
98CB
100
AcDbEntity
  8
0
 48
15.0
100
AcDbBlockEnd
  0
BLOCK
  5
98E2
330
98D6
100
AcDbEntity
  8
0
 48
15.0
100
AcDbBlockBegin
  2
*D202
 70
     1
 10
0.0
 20
0.0
 30
0.0
  3
*D202
  1

  0
LINE
  5
9E7A
330
98D6
100
AcDbEntity
  8
寸法引出
 48
15.0
370
    -2
100
AcDbLine
 10
6891.271450446264
 20
2299.622603416647
 30
0.0
 11
6891.271450446264
 21
2373.761222194715
 31
0.0
  0
LINE
  5
9E7B
330
98D6
100
AcDbEntity
  8
寸法引出
 48
15.0
370
    -2
100
AcDbLine
 10
6951.271450446263
 20
2279.622603416647
 30
0.0
 11
6951.271450446263
 21
2373.761222194715
 31
0.0
  0
LINE
  5
9E7C
330
98D6
100
AcDbEntity
  8
寸法引出
 48
15.0
370
    -2
100
AcDbLine
 10
6868.771450446264
 20
2366.261222194715
 30
0.0
 11
6846.271450446264
 21
2366.261222194715
 31
0.0
  0
LINE
  5
9E7D
330
98D6
100
AcDbEntity
  8
寸法引出
 48
15.0
370
    -2
100
AcDbLine
 10
6973.771450446263
 20
2366.261222194715
 30
0.0
 11
6996.271450446262
 21
2366.261222194715
 31
0.0
  0
LINE
  5
9E7E
330
98D6
100
AcDbEntity
  8
寸法引出
 48
15.0
370
    -2
100
AcDbLine
 10
6891.271450446264
 20
2366.261222194715
 30
0.0
 11
6951.271450446263
 21
2366.261222194715
 31
0.0
  0
SOLID
  5
9E7F
330
98D6
100
AcDbEntity
  8
寸法引出
 48
15.0
100
AcDbTrace
 10
6868.771450446264
 20
2370.011222194715
 30
0.0
 11
6868.771450446264
 21
2362.511222194715
 31
0.0
 12
6891.271450446264
 22
2366.261222194715
 32
0.0
 13
6891.271450446264
 23
2366.261222194715
 33
0.0
  0
SOLID
  5
9E80
330
98D6
100
AcDbEntity
  8
寸法引出
 48
15.0
100
AcDbTrace
 10
6973.771450446263
 20
2370.011222194715
 30
0.0
 11
6973.771450446263
 21
2362.511222194715
 31
0.0
 12
6951.271450446263
 22
2366.261222194715
 32
0.0
 13
6951.271450446263
 23
2366.261222194715
 33
0.0
  0
MTEXT
  5
9E81
330
98D6
100
AcDbEntity
  8
寸法引出
 48
15.0
100
AcDbMText
 10
6921.271450446264
 20
2396.261222194715
 30
0.0
 40
30.0
 41
0.0
 71
     5
 72
     1
  1
\A1;60
  7
SANWA
 73
     1
 44
1.0
1001
ACAD
1000
MTEXTBEGIN
1070
    73
1070
     1
1070
    44
1040
1.0
1070
    74
1070
     0
1000
MTEXTEND
  0
POINT
  5
9E82
330
98D6
100
AcDbEntity
  8
DEFPOINTS
 62
     0
 48
15.0
100
AcDbPoint
 10
6891.271450446264
 20
2284.622603416647
 30
0.0
  0
POINT
  5
9E83
330
98D6
100
AcDbEntity
  8
DEFPOINTS
 62
     0
 48
15.0
100
AcDbPoint
 10
6951.271450446263
 20
2264.622603416647
 30
0.0
  0
POINT
  5
9E84
330
98D6
100
AcDbEntity
  8
DEFPOINTS
 62
     0
 48
15.0
100
AcDbPoint
 10
6951.271450446263
 20
2366.261222194715
 30
0.0
  0
ENDBLK
  5
98E3
330
98D6
100
AcDbEntity
  8
0
 48
15.0
100
AcDbBlockEnd
  0
BLOCK
  5
98EF
330
98E4
100
AcDbEntity
  8
0
 48
15.0
100
AcDbBlockBegin
  2
*D203
 70
     1
 10
0.0
 20
0.0
 30
0.0
  3
*D203
  1

  0
LINE
  5
9BA8
330
98E4
100
AcDbEntity
  8
寸法引出
 48
15.0
370
    -2
100
AcDbLine
 10
7256.271450446263
 20
1689.92150868433
 30
0.0
 11
7539.263458560803
 21
1689.92150868433
 31
0.0
  0
LINE
  5
9BA9
330
98E4
100
AcDbEntity
  8
寸法引出
 48
15.0
370
    -2
100
AcDbLine
 10
7531.763458560803
 20
1607.42150868433
 30
0.0
 11
7531.763458560803
 21
1584.92150868433
 31
0.0
  0
LINE
  5
9BAA
330
98E4
100
AcDbEntity
  8
寸法引出
 48
15.0
370
    -2
100
AcDbLine
 10
7531.763458560803
 20
1712.42150868433
 30
0.0
 11
7531.763458560803
 21
1734.92150868433
 31
0.0
  0
LINE
  5
9BAB
330
98E4
100
AcDbEntity
  8
寸法引出
 48
15.0
370
    -2
100
AcDbLine
 10
7531.763458560803
 20
1629.92150868433
 30
0.0
 11
7531.763458560803
 21
1689.92150868433
 31
0.0
  0
SOLID
  5
9BAC
330
98E4
100
AcDbEntity
  8
寸法引出
 48
15.0
100
AcDbTrace
 10
7528.013458560803
 20
1607.42150868433
 30
0.0
 11
7535.513458560803
 21
1607.42150868433
 31
0.0
 12
7531.763458560803
 22
1629.92150868433
 32
0.0
 13
7531.763458560803
 23
1629.92150868433
 33
0.0
  0
SOLID
  5
9BAD
330
98E4
100
AcDbEntity
  8
寸法引出
 48
15.0
100
AcDbTrace
 10
7528.013458560803
 20
1712.42150868433
 30
0.0
 11
7535.513458560803
 21
1712.42150868433
 31
0.0
 12
7531.763458560803
 22
1689.92150868433
 32
0.0
 13
7531.763458560803
 23
1689.92150868433
 33
0.0
  0
MTEXT
  5
9BAE
330
98E4
100
AcDbEntity
  8
寸法引出
 48
15.0
100
AcDbMText
 10
7501.763458560803
 20
1659.921508684331
 30
0.0
 40
30.0
 41
0.0
 71
     5
 72
     1
  1
\A1;60
  7
SANWA
 11
0.0000000000000001
 21
1.0
 31
0.0
 73
     1
 44
1.0
1001
ACAD
1000
MTEXTBEGIN
1070
    73
1070
     1
1070
    44
1040
1.0
1070
    74
1070
     0
1000
MTEXTEND
  0
POINT
  5
9BAF
330
98E4
100
AcDbEntity
  8
DEFPOINTS
 62
     0
 48
15.0
100
AcDbPoint
 10
7241.271450446264
 20
1629.92150868433
 30
0.0
  0
POINT
  5
9BB0
330
98E4
100
AcDbEntity
  8
DEFPOINTS
 62
     0
 48
15.0
100
AcDbPoint
 10
7241.271450446264
 20
1689.92150868433
 30
0.0
  0
POINT
  5
9BB1
330
98E4
100
AcDbEntity
  8
DEFPOINTS
 62
     0
 48
15.0
100
AcDbPoint
 10
7531.763458560803
 20
1689.92150868433
 30
0.0
  0
ENDBLK
  5
98F0
330
98E4
100
AcDbEntity
  8
0
 48
15.0
100
AcDbBlockEnd
  0
BLOCK
  5
98FB
330
98F1
100
AcDbEntity
  8
0
 48
15.0
100
AcDbBlockBegin
  2
*D204
 70
     1
 10
0.0
 20
0.0
 30
0.0
  3
*D204
  1

  0
LINE
  5
9BB2
330
98F1
100
AcDbEntity
  8
寸法引出
 48
15.0
370
    -2
100
AcDbLine
 10
6891.271450446264
 20
1704.92150868433
 30
0.0
 11
6891.271450446264
 21
1835.725906670041
 31
0.0
  0
LINE
  5
9BB3
330
98F1
100
AcDbEntity
  8
寸法引出
 48
15.0
370
    -2
100
AcDbLine
 10
7241.271450446264
 20
1704.92150868433
 30
0.0
 11
7241.271450446264
 21
1835.725906670041
 31
0.0
  0
LINE
  5
9BB4
330
98F1
100
AcDbEntity
  8
寸法引出
 48
15.0
370
    -2
100
AcDbLine
 10
6913.771450446263
 20
1828.225906670041
 30
0.0
 11
7218.771450446263
 21
1828.225906670041
 31
0.0
  0
SOLID
  5
9BB5
330
98F1
100
AcDbEntity
  8
寸法引出
 48
15.0
100
AcDbTrace
 10
6913.771450446263
 20
1831.975906670041
 30
0.0
 11
6913.771450446263
 21
1824.475906670041
 31
0.0
 12
6891.271450446264
 22
1828.225906670041
 32
0.0
 13
6891.271450446264
 23
1828.225906670041
 33
0.0
  0
SOLID
  5
9BB6
330
98F1
100
AcDbEntity
  8
寸法引出
 48
15.0
100
AcDbTrace
 10
7218.771450446263
 20
1831.975906670041
 30
0.0
 11
7218.771450446263
 21
1824.475906670041
 31
0.0
 12
7241.271450446264
 22
1828.225906670041
 32
0.0
 13
7241.271450446264
 23
1828.225906670041
 33
0.0
  0
MTEXT
  5
9BB7
330
98F1
100
AcDbEntity
  8
寸法引出
 48
15.0
100
AcDbMText
 10
7066.271450446264
 20
1858.225906670041
 30
0.0
 40
30.0
 41
0.0
 71
     5
 72
     1
  1
\A1;350
  7
SANWA
 73
     1
 44
1.0
1001
ACAD
1000
MTEXTBEGIN
1070
    73
1070
     1
1070
    44
1040
1.0
1070
    74
1070
     0
1000
MTEXTEND
  0
POINT
  5
9BB8
330
98F1
100
AcDbEntity
  8
DEFPOINTS
 62
     0
 48
15.0
100
AcDbPoint
 10
6891.271450446264
 20
1689.92150868433
 30
0.0
  0
POINT
  5
9BB9
330
98F1
100
AcDbEntity
  8
DEFPOINTS
 62
     0
 48
15.0
100
AcDbPoint
 10
7241.271450446264
 20
1689.92150868433
 30
0.0
  0
POINT
  5
9BBA
330
98F1
100
AcDbEntity
  8
DEFPOINTS
 62
     0
 48
15.0
100
AcDbPoint
 10
7241.271450446264
 20
1828.225906670041
 30
0.0
  0
ENDBLK
  5
98FC
330
98F1
100
AcDbEntity
  8
0
 48
15.0
100
AcDbBlockEnd
  0
BLOCK
  5
9908
330
98FD
100
AcDbEntity
  8
0
 48
15.0
100
AcDbBlockBegin
  2
*D205
 70
     1
 10
0.0
 20
0.0
 30
0.0
  3
*D205
  1

  0
LINE
  5
9BBB
330
98FD
100
AcDbEntity
  8
寸法引出
 48
15.0
370
    -2
100
AcDbLine
 10
7241.271450446264
 20
1704.92150868433
 30
0.0
 11
7241.271450446264
 21
1773.901115874993
 31
0.0
  0
LINE
  5
9BBC
330
98FD
100
AcDbEntity
  8
寸法引出
 48
15.0
370
    -2
100
AcDbLine
 10
7158.771450446263
 20
1766.401115874992
 30
0.0
 11
7136.271450446263
 21
1766.401115874992
 31
0.0
  0
LINE
  5
9BBD
330
98FD
100
AcDbEntity
  8
寸法引出
 48
15.0
370
    -2
100
AcDbLine
 10
7263.771450446263
 20
1766.401115874992
 30
0.0
 11
7286.271450446264
 21
1766.401115874992
 31
0.0
  0
LINE
  5
9BBE
330
98FD
100
AcDbEntity
  8
寸法引出
 48
15.0
370
    -2
100
AcDbLine
 10
7181.271450446264
 20
1766.401115874992
 30
0.0
 11
7241.271450446264
 21
1766.401115874992
 31
0.0
  0
SOLID
  5
9BBF
330
98FD
100
AcDbEntity
  8
寸法引出
 48
15.0
100
AcDbTrace
 10
7158.771450446263
 20
1770.151115874992
 30
0.0
 11
7158.771450446263
 21
1762.651115874993
 31
0.0
 12
7181.271450446264
 22
1766.401115874992
 32
0.0
 13
7181.271450446264
 23
1766.401115874992
 33
0.0
  0
SOLID
  5
9BC0
330
98FD
100
AcDbEntity
  8
寸法引出
 48
15.0
100
AcDbTrace
 10
7263.771450446263
 20
1770.151115874992
 30
0.0
 11
7263.771450446263
 21
1762.651115874993
 31
0.0
 12
7241.271450446264
 22
1766.401115874992
 32
0.0
 13
7241.271450446264
 23
1766.401115874992
 33
0.0
  0
MTEXT
  5
9BC1
330
98FD
100
AcDbEntity
  8
寸法引出
 48
15.0
100
AcDbMText
 10
7211.271450446265
 20
1796.401115874992
 30
0.0
 40
30.0
 41
0.0
 71
     5
 72
     1
  1
\A1;60
  7
SANWA
 73
     1
 44
1.0
1001
ACAD
1000
MTEXTBEGIN
1070
    73
1070
     1
1070
    44
1040
1.0
1070
    74
1070
     0
1000
MTEXTEND
  0
POINT
  5
9BC2
330
98FD
100
AcDbEntity
  8
DEFPOINTS
 62
     0
 48
15.0
100
AcDbPoint
 10
7181.271450446264
 20
1689.92150868433
 30
0.0
  0
POINT
  5
9BC3
330
98FD
100
AcDbEntity
  8
DEFPOINTS
 62
     0
 48
15.0
100
AcDbPoint
 10
7241.271450446264
 20
1689.92150868433
 30
0.0
  0
POINT
  5
9BC4
330
98FD
100
AcDbEntity
  8
DEFPOINTS
 62
     0
 48
15.0
100
AcDbPoint
 10
7241.271450446264
 20
1766.401115874992
 30
0.0
  0
ENDBLK
  5
9909
330
98FD
100
AcDbEntity
  8
0
 48
15.0
100
AcDbBlockEnd
  0
BLOCK
  5
9914
330
990A
100
AcDbEntity
  8
0
 48
15.0
100
AcDbBlockBegin
  2
*D206
 70
     1
 10
0.0
 20
0.0
 30
0.0
  3
*D206
  1

  0
LINE
  5
9BC5
330
990A
100
AcDbEntity
  8
寸法引出
 48
15.0
370
    -2
100
AcDbLine
 10
6951.271450446263
 20
1704.92150868433
 30
0.0
 11
6951.271450446263
 21
1773.901115874993
 31
0.0
  0
LINE
  5
9BC6
330
990A
100
AcDbEntity
  8
寸法引出
 48
15.0
370
    -2
100
AcDbLine
 10
7181.271450446264
 20
1704.92150868433
 30
0.0
 11
7181.271450446264
 21
1773.901115874993
 31
0.0
  0
LINE
  5
9BC7
330
990A
100
AcDbEntity
  8
寸法引出
 48
15.0
370
    -2
100
AcDbLine
 10
6973.771450446263
 20
1766.401115874992
 30
0.0
 11
7158.771450446263
 21
1766.401115874992
 31
0.0
  0
SOLID
  5
9BC8
330
990A
100
AcDbEntity
  8
寸法引出
 48
15.0
100
AcDbTrace
 10
6973.771450446263
 20
1770.151115874992
 30
0.0
 11
6973.771450446263
 21
1762.651115874993
 31
0.0
 12
6951.271450446263
 22
1766.401115874992
 32
0.0
 13
6951.271450446263
 23
1766.401115874992
 33
0.0
  0
SOLID
  5
9BC9
330
990A
100
AcDbEntity
  8
寸法引出
 48
15.0
100
AcDbTrace
 10
7158.771450446263
 20
1770.151115874992
 30
0.0
 11
7158.771450446263
 21
1762.651115874993
 31
0.0
 12
7181.271450446264
 22
1766.401115874992
 32
0.0
 13
7181.271450446264
 23
1766.401115874992
 33
0.0
  0
MTEXT
  5
9BCA
330
990A
100
AcDbEntity
  8
寸法引出
 48
15.0
100
AcDbMText
 10
7066.271450446262
 20
1796.401115874992
 30
0.0
 40
30.0
 41
0.0
 71
     5
 72
     1
  1
\A1;230
  7
SANWA
 73
     1
 44
1.0
1001
ACAD
1000
MTEXTBEGIN
1070
    73
1070
     1
1070
    44
1040
1.0
1070
    74
1070
     0
1000
MTEXTEND
  0
POINT
  5
9BCB
330
990A
100
AcDbEntity
  8
DEFPOINTS
 62
     0
 48
15.0
100
AcDbPoint
 10
6951.271450446263
 20
1689.92150868433
 30
0.0
  0
POINT
  5
9BCC
330
990A
100
AcDbEntity
  8
DEFPOINTS
 62
     0
 48
15.0
100
AcDbPoint
 10
7181.271450446264
 20
1689.92150868433
 30
0.0
  0
POINT
  5
9BCD
330
990A
100
AcDbEntity
  8
DEFPOINTS
 62
     0
 48
15.0
100
AcDbPoint
 10
7181.271450446264
 20
1766.401115874992
 30
0.0
  0
ENDBLK
  5
9915
330
990A
100
AcDbEntity
  8
0
 48
15.0
100
AcDbBlockEnd
  0
BLOCK
  5
9922
330
9916
100
AcDbEntity
  8
0
 48
15.0
100
AcDbBlockBegin
  2
*D207
 70
     1
 10
0.0
 20
0.0
 30
0.0
  3
*D207
  1

  0
LINE
  5
9BCE
330
9916
100
AcDbEntity
  8
寸法引出
 48
15.0
370
    -2
100
AcDbLine
 10
6891.271450446264
 20
1704.92150868433
 30
0.0
 11
6891.271450446264
 21
1773.901115874993
 31
0.0
  0
LINE
  5
9BCF
330
9916
100
AcDbEntity
  8
寸法引出
 48
15.0
370
    -2
100
AcDbLine
 10
6951.271450446263
 20
1704.92150868433
 30
0.0
 11
6951.271450446263
 21
1773.901115874993
 31
0.0
  0
LINE
  5
9BD0
330
9916
100
AcDbEntity
  8
寸法引出
 48
15.0
370
    -2
100
AcDbLine
 10
6868.771450446264
 20
1766.401115874992
 30
0.0
 11
6846.271450446264
 21
1766.401115874992
 31
0.0
  0
LINE
  5
9BD1
330
9916
100
AcDbEntity
  8
寸法引出
 48
15.0
370
    -2
100
AcDbLine
 10
6973.771450446263
 20
1766.401115874992
 30
0.0
 11
6996.271450446262
 21
1766.401115874992
 31
0.0
  0
LINE
  5
9BD2
330
9916
100
AcDbEntity
  8
寸法引出
 48
15.0
370
    -2
100
AcDbLine
 10
6891.271450446264
 20
1766.401115874992
 30
0.0
 11
6951.271450446263
 21
1766.401115874992
 31
0.0
  0
SOLID
  5
9BD3
330
9916
100
AcDbEntity
  8
寸法引出
 48
15.0
100
AcDbTrace
 10
6868.771450446264
 20
1770.151115874992
 30
0.0
 11
6868.771450446264
 21
1762.651115874993
 31
0.0
 12
6891.271450446264
 22
1766.401115874992
 32
0.0
 13
6891.271450446264
 23
1766.401115874992
 33
0.0
  0
SOLID
  5
9BD4
330
9916
100
AcDbEntity
  8
寸法引出
 48
15.0
100
AcDbTrace
 10
6973.771450446263
 20
1770.151115874992
 30
0.0
 11
6973.771450446263
 21
1762.651115874993
 31
0.0
 12
6951.271450446263
 22
1766.401115874992
 32
0.0
 13
6951.271450446263
 23
1766.401115874992
 33
0.0
  0
MTEXT
  5
9BD5
330
9916
100
AcDbEntity
  8
寸法引出
 48
15.0
100
AcDbMText
 10
6921.271450446264
 20
1796.401115874992
 30
0.0
 40
30.0
 41
0.0
 71
     5
 72
     1
  1
\A1;60
  7
SANWA
 73
     1
 44
1.0
1001
ACAD
1000
MTEXTBEGIN
1070
    73
1070
     1
1070
    44
1040
1.0
1070
    74
1070
     0
1000
MTEXTEND
  0
POINT
  5
9BD6
330
9916
100
AcDbEntity
  8
DEFPOINTS
 62
     0
 48
15.0
100
AcDbPoint
 10
6891.271450446264
 20
1689.92150868433
 30
0.0
  0
POINT
  5
9BD7
330
9916
100
AcDbEntity
  8
DEFPOINTS
 62
     0
 48
15.0
100
AcDbPoint
 10
6951.271450446263
 20
1689.92150868433
 30
0.0
  0
POINT
  5
9BD8
330
9916
100
AcDbEntity
  8
DEFPOINTS
 62
     0
 48
15.0
100
AcDbPoint
 10
6951.271450446263
 20
1766.401115874992
 30
0.0
  0
ENDBLK
  5
9923
330
9916
100
AcDbEntity
  8
0
 48
15.0
100
AcDbBlockEnd
  0
BLOCK
  5
992D
330
9924
100
AcDbEntity
  8
0
 48
15.0
100
AcDbBlockBegin
  2
*D208
 70
     1
 10
0.0
 20
0.0
 30
0.0
  3
*D208
  1

  0
LINE
  5
9BD9
330
9924
100
AcDbEntity
  8
寸法引出
 48
15.0
370
    -2
100
AcDbLine
 10
7221.271450446264
 20
2169.622603416647
 30
0.0
 11
7221.271450446264
 21
2085.404850100869
 31
0.0
  0
LINE
  5
9BDA
330
9924
100
AcDbEntity
  8
寸法引出
 48
15.0
370
    -2
100
AcDbLine
 10
6933.771450446264
 20
2092.90485010087
 30
0.0
 11
7198.771450446264
 21
2092.90485010087
 31
0.0
  0
SOLID
  5
9BDB
330
9924
100
AcDbEntity
  8
寸法引出
 48
15.0
100
AcDbTrace
 10
6933.771450446264
 20
2096.654850100869
 30
0.0
 11
6933.771450446264
 21
2089.154850100869
 31
0.0
 12
6911.271450446264
 22
2092.90485010087
 32
0.0
 13
6911.271450446264
 23
2092.90485010087
 33
0.0
  0
SOLID
  5
9BDC
330
9924
100
AcDbEntity
  8
寸法引出
 48
15.0
100
AcDbTrace
 10
7198.771450446264
 20
2096.654850100869
 30
0.0
 11
7198.771450446264
 21
2089.154850100869
 31
0.0
 12
7221.271450446264
 22
2092.90485010087
 32
0.0
 13
7221.271450446264
 23
2092.90485010087
 33
0.0
  0
MTEXT
  5
9BDD
330
9924
100
AcDbEntity
  8
寸法引出
 48
15.0
100
AcDbMText
 10
7066.271450446264
 20
2122.904850100869
 30
0.0
 40
30.0
 41
0.0
 71
     5
 72
     1
  1
\A1;310
  7
SANWA
 73
     1
 44
1.0
1001
ACAD
1000
MTEXTBEGIN
1070
    73
1070
     1
1070
    44
1040
1.0
1070
    74
1070
     0
1000
MTEXTEND
  0
POINT
  5
9BDE
330
9924
100
AcDbEntity
  8
DEFPOINTS
 62
     0
 48
15.0
100
AcDbPoint
 10
6911.271450446264
 20
2184.622603416647
 30
0.0
  0
POINT
  5
9BDF
330
9924
100
AcDbEntity
  8
DEFPOINTS
 62
     0
 48
15.0
100
AcDbPoint
 10
7221.271450446264
 20
2184.622603416647
 30
0.0
  0
POINT
  5
9BE0
330
9924
100
AcDbEntity
  8
DEFPOINTS
 62
     0
 48
15.0
100
AcDbPoint
 10
7221.271450446264
 20
2092.90485010087
 30
0.0
  0
ENDBLK
  5
992E
330
9924
100
AcDbEntity
  8
0
 48
15.0
100
AcDbBlockEnd
  0
BLOCK
  5
993B
330
992F
100
AcDbEntity
  8
0
 48
15.0
100
AcDbBlockBegin
  2
*D209
 70
     1
 10
0.0
 20
0.0
 30
0.0
  3
*D209
  1

  0
LINE
  5
9BE1
330
992F
100
AcDbEntity
  8
寸法引出
 48
15.0
370
    -2
100
AcDbLine
 10
6891.271450446264
 20
2169.622603416647
 30
0.0
 11
6891.271450446264
 21
2085.404850100869
 31
0.0
  0
LINE
  5
9BE2
330
992F
100
AcDbEntity
  8
寸法引出
 48
15.0
370
    -2
100
AcDbLine
 10
6911.271450446264
 20
2169.622603416647
 30
0.0
 11
6911.271450446264
 21
2085.404850100869
 31
0.0
  0
LINE
  5
9BE3
330
992F
100
AcDbEntity
  8
寸法引出
 48
15.0
370
    -2
100
AcDbLine
 10
6868.771450446264
 20
2092.90485010087
 30
0.0
 11
6846.271450446264
 21
2092.90485010087
 31
0.0
  0
LINE
  5
9BE4
330
992F
100
AcDbEntity
  8
寸法引出
 48
15.0
370
    -2
100
AcDbLine
 10
6933.771450446264
 20
2092.90485010087
 30
0.0
 11
6956.271450446263
 21
2092.90485010087
 31
0.0
  0
LINE
  5
9BE5
330
992F
100
AcDbEntity
  8
寸法引出
 48
15.0
370
    -2
100
AcDbLine
 10
6891.271450446264
 20
2092.90485010087
 30
0.0
 11
6911.271450446264
 21
2092.90485010087
 31
0.0
  0
SOLID
  5
9BE6
330
992F
100
AcDbEntity
  8
寸法引出
 48
15.0
100
AcDbTrace
 10
6868.771450446264
 20
2096.654850100869
 30
0.0
 11
6868.771450446264
 21
2089.154850100869
 31
0.0
 12
6891.271450446264
 22
2092.90485010087
 32
0.0
 13
6891.271450446264
 23
2092.90485010087
 33
0.0
  0
SOLID
  5
9BE7
330
992F
100
AcDbEntity
  8
寸法引出
 48
15.0
100
AcDbTrace
 10
6933.771450446264
 20
2096.654850100869
 30
0.0
 11
6933.771450446264
 21
2089.154850100869
 31
0.0
 12
6911.271450446264
 22
2092.90485010087
 32
0.0
 13
6911.271450446264
 23
2092.90485010087
 33
0.0
  0
MTEXT
  5
9BE8
330
992F
100
AcDbEntity
  8
寸法引出
 48
15.0
100
AcDbMText
 10
6901.271450446263
 20
2122.904850100869
 30
0.0
 40
30.0
 41
0.0
 71
     5
 72
     1
  1
\A1;20
  7
SANWA
 73
     1
 44
1.0
1001
ACAD
1000
MTEXTBEGIN
1070
    73
1070
     1
1070
    44
1040
1.0
1070
    74
1070
     0
1000
MTEXTEND
  0
POINT
  5
9BE9
330
992F
100
AcDbEntity
  8
DEFPOINTS
 62
     0
 48
15.0
100
AcDbPoint
 10
6891.271450446264
 20
2184.622603416647
 30
0.0
  0
POINT
  5
9BEA
330
992F
100
AcDbEntity
  8
DEFPOINTS
 62
     0
 48
15.0
100
AcDbPoint
 10
6911.271450446264
 20
2184.622603416647
 30
0.0
  0
POINT
  5
9BEB
330
992F
100
AcDbEntity
  8
DEFPOINTS
 62
     0
 48
15.0
100
AcDbPoint
 10
6911.271450446264
 20
2092.90485010087
 30
0.0
  0
ENDBLK
  5
993C
330
992F
100
AcDbEntity
  8
0
 48
15.0
100
AcDbBlockEnd
  0
BLOCK
  5
9948
330
993D
100
AcDbEntity
  8
0
 48
15.0
100
AcDbBlockBegin
  2
*D210
 70
     1
 10
0.0
 20
0.0
 30
0.0
  3
*D210
  1

  0
LINE
  5
9BEC
330
993D
100
AcDbEntity
  8
寸法引出
 48
15.0
370
    -2
100
AcDbLine
 10
7241.271450446264
 20
2169.622603416647
 30
0.0
 11
7241.271450446264
 21
2085.404850100869
 31
0.0
  0
LINE
  5
9BED
330
993D
100
AcDbEntity
  8
寸法引出
 48
15.0
370
    -2
100
AcDbLine
 10
7198.771450446264
 20
2092.90485010087
 30
0.0
 11
7176.271450446264
 21
2092.90485010087
 31
0.0
  0
LINE
  5
9BEE
330
993D
100
AcDbEntity
  8
寸法引出
 48
15.0
370
    -2
100
AcDbLine
 10
7263.771450446263
 20
2092.90485010087
 30
0.0
 11
7286.271450446264
 21
2092.90485010087
 31
0.0
  0
LINE
  5
9BEF
330
993D
100
AcDbEntity
  8
寸法引出
 48
15.0
370
    -2
100
AcDbLine
 10
7221.271450446264
 20
2092.90485010087
 30
0.0
 11
7241.271450446264
 21
2092.90485010087
 31
0.0
  0
SOLID
  5
9BF0
330
993D
100
AcDbEntity
  8
寸法引出
 48
15.0
100
AcDbTrace
 10
7198.771450446264
 20
2096.654850100869
 30
0.0
 11
7198.771450446264
 21
2089.154850100869
 31
0.0
 12
7221.271450446264
 22
2092.90485010087
 32
0.0
 13
7221.271450446264
 23
2092.90485010087
 33
0.0
  0
SOLID
  5
9BF1
330
993D
100
AcDbEntity
  8
寸法引出
 48
15.0
100
AcDbTrace
 10
7263.771450446263
 20
2096.654850100869
 30
0.0
 11
7263.771450446263
 21
2089.154850100869
 31
0.0
 12
7241.271450446264
 22
2092.90485010087
 32
0.0
 13
7241.271450446264
 23
2092.90485010087
 33
0.0
  0
MTEXT
  5
9BF2
330
993D
100
AcDbEntity
  8
寸法引出
 48
15.0
100
AcDbMText
 10
7231.271450446263
 20
2122.904850100869
 30
0.0
 40
30.0
 41
0.0
 71
     5
 72
     1
  1
\A1;20
  7
SANWA
 73
     1
 44
1.0
1001
ACAD
1000
MTEXTBEGIN
1070
    73
1070
     1
1070
    44
1040
1.0
1070
    74
1070
     0
1000
MTEXTEND
  0
POINT
  5
9BF3
330
993D
100
AcDbEntity
  8
DEFPOINTS
 62
     0
 48
15.0
100
AcDbPoint
 10
7221.271450446264
 20
2184.622603416647
 30
0.0
  0
POINT
  5
9BF4
330
993D
100
AcDbEntity
  8
DEFPOINTS
 62
     0
 48
15.0
100
AcDbPoint
 10
7241.271450446264
 20
2184.622603416647
 30
0.0
  0
POINT
  5
9BF5
330
993D
100
AcDbEntity
  8
DEFPOINTS
 62
     0
 48
15.0
100
AcDbPoint
 10
7241.271450446264
 20
2092.90485010087
 30
0.0
  0
ENDBLK
  5
9949
330
993D
100
AcDbEntity
  8
0
 48
15.0
100
AcDbBlockEnd
  0
BLOCK
  5
9955
330
994A
100
AcDbEntity
  8
0
 48
15.0
100
AcDbBlockBegin
  2
*D211
 70
     1
 10
0.0
 20
0.0
 30
0.0
  3
*D211
  1

  0
LINE
  5
9BF6
330
994A
100
AcDbEntity
  8
寸法引出
 48
15.0
370
    -2
100
AcDbLine
 10
7256.271450446263
 20
2246.622603416647
 30
0.0
 11
7335.416303333812
 21
2246.622603416647
 31
0.0
  0
LINE
  5
9BF7
330
994A
100
AcDbEntity
  8
寸法引出
 48
15.0
370
    -2
100
AcDbLine
 10
7327.916303333812
 20
2186.122603416647
 30
0.0
 11
7327.916303333812
 21
2163.622603416647
 31
0.0
  0
LINE
  5
9BF8
330
994A
100
AcDbEntity
  8
寸法引出
 48
15.0
370
    -2
100
AcDbLine
 10
7327.916303333812
 20
2269.122603416647
 30
0.0
 11
7327.916303333812
 21
2291.622603416647
 31
0.0
  0
LINE
  5
9BF9
330
994A
100
AcDbEntity
  8
寸法引出
 48
15.0
370
    -2
100
AcDbLine
 10
7327.916303333812
 20
2208.622603416647
 30
0.0
 11
7327.916303333812
 21
2246.622603416647
 31
0.0
  0
SOLID
  5
9BFA
330
994A
100
AcDbEntity
  8
寸法引出
 48
15.0
100
AcDbTrace
 10
7324.166303333811
 20
2186.122603416647
 30
0.0
 11
7331.666303333811
 21
2186.122603416647
 31
0.0
 12
7327.916303333812
 22
2208.622603416647
 32
0.0
 13
7327.916303333812
 23
2208.622603416647
 33
0.0
  0
SOLID
  5
9BFB
330
994A
100
AcDbEntity
  8
寸法引出
 48
15.0
100
AcDbTrace
 10
7324.166303333811
 20
2269.122603416647
 30
0.0
 11
7331.666303333811
 21
2269.122603416647
 31
0.0
 12
7327.916303333812
 22
2246.622603416647
 32
0.0
 13
7327.916303333812
 23
2246.622603416647
 33
0.0
  0
MTEXT
  5
9BFC
330
994A
100
AcDbEntity
  8
寸法引出
 48
15.0
100
AcDbMText
 10
7297.916303333811
 20
2227.622603416648
 30
0.0
 40
30.0
 41
0.0
 71
     5
 72
     1
  1
\A1;38
  7
SANWA
 11
0.0000000000000001
 21
1.0
 31
0.0
 73
     1
 44
1.0
1001
ACAD
1000
MTEXTBEGIN
1070
    73
1070
     1
1070
    44
1040
1.0
1070
    74
1070
     0
1000
MTEXTEND
  0
POINT
  5
9BFD
330
994A
100
AcDbEntity
  8
DEFPOINTS
 62
     0
 48
15.0
100
AcDbPoint
 10
7241.271450446264
 20
2208.622603416647
 30
0.0
  0
POINT
  5
9BFE
330
994A
100
AcDbEntity
  8
DEFPOINTS
 62
     0
 48
15.0
100
AcDbPoint
 10
7241.271450446264
 20
2246.622603416647
 30
0.0
  0
POINT
  5
9BFF
330
994A
100
AcDbEntity
  8
DEFPOINTS
 62
     0
 48
15.0
100
AcDbPoint
 10
7327.916303333812
 20
2246.622603416647
 30
0.0
  0
ENDBLK
  5
9956
330
994A
100
AcDbEntity
  8
0
 48
15.0
100
AcDbBlockEnd
  0
BLOCK
  5
9963
330
9957
100
AcDbEntity
  8
0
 48
15.0
100
AcDbBlockBegin
  2
*D212
 70
     1
 10
0.0
 20
0.0
 30
0.0
  3
*D212
  1

  0
LINE
  5
9C00
330
9957
100
AcDbEntity
  8
寸法引出
 48
15.0
370
    -2
100
AcDbLine
 10
7691.402872544458
 20
2169.622603416647
 30
0.0
 11
7691.402872544458
 21
2023.390764054521
 31
0.0
  0
LINE
  5
9C01
330
9957
100
AcDbEntity
  8
寸法引出
 48
15.0
370
    -2
100
AcDbLine
 10
7751.402872544457
 20
2169.622603416647
 30
0.0
 11
7751.402872544457
 21
2023.390764054521
 31
0.0
  0
LINE
  5
9C02
330
9957
100
AcDbEntity
  8
寸法引出
 48
15.0
370
    -2
100
AcDbLine
 10
7668.902872544457
 20
2030.89076405452
 30
0.0
 11
7646.402872544458
 21
2030.89076405452
 31
0.0
  0
LINE
  5
9C03
330
9957
100
AcDbEntity
  8
寸法引出
 48
15.0
370
    -2
100
AcDbLine
 10
7773.902872544458
 20
2030.89076405452
 30
0.0
 11
7796.402872544458
 21
2030.89076405452
 31
0.0
  0
LINE
  5
9C04
330
9957
100
AcDbEntity
  8
寸法引出
 48
15.0
370
    -2
100
AcDbLine
 10
7691.402872544458
 20
2030.89076405452
 30
0.0
 11
7751.402872544457
 21
2030.89076405452
 31
0.0
  0
SOLID
  5
9C05
330
9957
100
AcDbEntity
  8
寸法引出
 48
15.0
100
AcDbTrace
 10
7668.902872544457
 20
2034.64076405452
 30
0.0
 11
7668.902872544457
 21
2027.14076405452
 31
0.0
 12
7691.402872544458
 22
2030.89076405452
 32
0.0
 13
7691.402872544458
 23
2030.89076405452
 33
0.0
  0
SOLID
  5
9C06
330
9957
100
AcDbEntity
  8
寸法引出
 48
15.0
100
AcDbTrace
 10
7773.902872544458
 20
2034.64076405452
 30
0.0
 11
7773.902872544458
 21
2027.14076405452
 31
0.0
 12
7751.402872544457
 22
2030.89076405452
 32
0.0
 13
7751.402872544457
 23
2030.89076405452
 33
0.0
  0
MTEXT
  5
9C07
330
9957
100
AcDbEntity
  8
寸法引出
 48
15.0
100
AcDbMText
 10
7721.402872544458
 20
2060.890764054521
 30
0.0
 40
30.0
 41
0.0
 71
     5
 72
     1
  1
\A1;60
  7
SANWA
 73
     1
 44
1.0
1001
ACAD
1000
MTEXTBEGIN
1070
    73
1070
     1
1070
    44
1040
1.0
1070
    74
1070
     0
1000
MTEXTEND
  0
POINT
  5
9C08
330
9957
100
AcDbEntity
  8
DEFPOINTS
 62
     0
 48
15.0
100
AcDbPoint
 10
7691.402872544458
 20
2184.622603416647
 30
0.0
  0
POINT
  5
9C09
330
9957
100
AcDbEntity
  8
DEFPOINTS
 62
     0
 48
15.0
100
AcDbPoint
 10
7751.402872544457
 20
2184.622603416647
 30
0.0
  0
POINT
  5
9C0A
330
9957
100
AcDbEntity
  8
DEFPOINTS
 62
     0
 48
15.0
100
AcDbPoint
 10
7751.402872544457
 20
2030.89076405452
 30
0.0
  0
ENDBLK
  5
9964
330
9957
100
AcDbEntity
  8
0
 48
15.0
100
AcDbBlockEnd
  0
BLOCK
  5
9970
330
9965
100
AcDbEntity
  8
0
 48
15.0
100
AcDbBlockBegin
  2
*D213
 70
     1
 10
0.0
 20
0.0
 30
0.0
  3
*D213
  1

  0
LINE
  5
9C0B
330
9965
100
AcDbEntity
  8
寸法引出
 48
15.0
370
    -2
100
AcDbLine
 10
8691.402872544459
 20
2169.622603416647
 30
0.0
 11
8691.402872544459
 21
2023.390764054521
 31
0.0
  0
LINE
  5
9C0C
330
9965
100
AcDbEntity
  8
寸法引出
 48
15.0
370
    -2
100
AcDbLine
 10
8608.90287254446
 20
2030.89076405452
 30
0.0
 11
8586.402872544459
 21
2030.89076405452
 31
0.0
  0
LINE
  5
9C0D
330
9965
100
AcDbEntity
  8
寸法引出
 48
15.0
370
    -2
100
AcDbLine
 10
8713.902872544458
 20
2030.89076405452
 30
0.0
 11
8736.402872544458
 21
2030.89076405452
 31
0.0
  0
LINE
  5
9C0E
330
9965
100
AcDbEntity
  8
寸法引出
 48
15.0
370
    -2
100
AcDbLine
 10
8631.402872544459
 20
2030.89076405452
 30
0.0
 11
8691.402872544459
 21
2030.89076405452
 31
0.0
  0
SOLID
  5
9C0F
330
9965
100
AcDbEntity
  8
寸法引出
 48
15.0
100
AcDbTrace
 10
8608.90287254446
 20
2034.64076405452
 30
0.0
 11
8608.90287254446
 21
2027.14076405452
 31
0.0
 12
8631.402872544459
 22
2030.89076405452
 32
0.0
 13
8631.402872544459
 23
2030.89076405452
 33
0.0
  0
SOLID
  5
9C10
330
9965
100
AcDbEntity
  8
寸法引出
 48
15.0
100
AcDbTrace
 10
8713.902872544458
 20
2034.64076405452
 30
0.0
 11
8713.902872544458
 21
2027.14076405452
 31
0.0
 12
8691.402872544459
 22
2030.89076405452
 32
0.0
 13
8691.402872544459
 23
2030.89076405452
 33
0.0
  0
MTEXT
  5
9C11
330
9965
100
AcDbEntity
  8
寸法引出
 48
15.0
100
AcDbMText
 10
8661.402872544458
 20
2060.890764054521
 30
0.0
 40
30.0
 41
0.0
 71
     5
 72
     1
  1
\A1;60
  7
SANWA
 73
     1
 44
1.0
1001
ACAD
1000
MTEXTBEGIN
1070
    73
1070
     1
1070
    44
1040
1.0
1070
    74
1070
     0
1000
MTEXTEND
  0
POINT
  5
9C12
330
9965
100
AcDbEntity
  8
DEFPOINTS
 62
     0
 48
15.0
100
AcDbPoint
 10
8631.402872544459
 20
2184.622603416647
 30
0.0
  0
POINT
  5
9C13
330
9965
100
AcDbEntity
  8
DEFPOINTS
 62
     0
 48
15.0
100
AcDbPoint
 10
8691.402872544459
 20
2184.622603416647
 30
0.0
  0
POINT
  5
9C14
330
9965
100
AcDbEntity
  8
DEFPOINTS
 62
     0
 48
15.0
100
AcDbPoint
 10
8691.402872544459
 20
2030.89076405452
 30
0.0
  0
ENDBLK
  5
9971
330
9965
100
AcDbEntity
  8
0
 48
15.0
100
AcDbBlockEnd
  0
ENDSEC
  0
SECTION
  2
ENTITIES
  0
TEXT
  5
928D
330
747D
100
AcDbEntity
  8
0
100
AcDbText
 10
3766.408313412463
 20
206.7188724106802
 30
0.0
 40
24.0
  1
三和コンクリート工業株式会社
  7
SANWA
100
AcDbText
  0
LINE
  5
928E
330
747D
100
AcDbEntity
  8
0
 62
     0
100
AcDbLine
 10
3598.531914893611
 20
498.0000000000041
 30
0.0
 11
4305.0
 21
498.0000000000041
 31
0.0
  0
LINE
  5
928F
330
747D
100
AcDbEntity
  8
0
 62
     0
100
AcDbLine
 10
3598.531914893611
 20
402.0000000000027
 30
0.0
 11
4305.0
 21
402.0000000000027
 31
0.0
  0
TEXT
  5
9290
330
747D
100
AcDbEntity
  8
0
100
AcDbText
 10
3817.777386018239
 20
534.0000000000047
 30
0.0
 40
24.0
  1
マルチスリット側溝
  7
SANWA
 72
     4
 11
3975.765957446811
 21
546.0000000000047
 31
0.0
100
AcDbText
  0
TEXT
  5
9291
330
747D
100
AcDbEntity
  8
0
100
AcDbText
 10
3905.548814589668
 20
341.5885714285735
 30
0.0
 40
24.0
  1
２５０用
  7
SANWA
 72
     4
 11
3975.765957446811
 21
354.000000000002
 31
0.0
100
AcDbText
  0
LINE
  5
9292
330
747D
100
AcDbEntity
  8
0
 62
     0
100
AcDbLine
 10
3202.531914893602
 20
594.000000000002
 30
0.0
 11
4305.0
 21
594.000000000002
 31
0.0
  0
LINE
  5
9293
330
747D
100
AcDbEntity
  8
0
100
AcDbLine
 10
3202.531914893602
 20
306.0000000000014
 30
0.0
 11
4305.0
 21
306.0000000000014
 31
0.0
  0
LINE
  5
9294
330
747D
100
AcDbEntity
  8
枠
100
AcDbLine
 10
375.0
 20
150.0
 30
0.0
 11
4305.0
 21
150.0000000000034
 31
0.0
  0
LINE
  5
9295
330
747D
100
AcDbEntity
  8
枠
100
AcDbLine
 10
375.0
 20
3000.0
 30
0.0
 11
4305.0
 21
3000.0
 31
0.0
  0
LINE
  5
9296
330
747D
100
AcDbEntity
  8
枠
100
AcDbLine
 10
375.0
 20
150.0
 30
0.0
 11
375.0
 21
3000.0
 31
0.0
  0
LINE
  5
92A3
330
747D
100
AcDbEntity
  8
0
100
AcDbLine
 10
0.0
 20
0.0
 30
0.0
 11
0.0
 21
150.0
 31
0.0
  0
LINE
  5
92A4
330
747D
100
AcDbEntity
  8
0
100
AcDbLine
 10
375.0
 20
0.0
 30
0.0
 11
0.0
 21
0.0
 31
0.0
  0
LINE
  5
930A
330
747D
100
AcDbEntity
  8
0
100
AcDbLine
 10
0.0
 20
3150.0
 30
0.0
 11
375.0
 21
3150.0
 31
0.0
  0
LINE
  5
930B
330
747D
100
AcDbEntity
  8
0
100
AcDbLine
 10
0.0
 20
3000.0
 30
0.0
 11
0.0
 21
3150.0
 31
0.0
  0
DIMENSION
  5
930C
330
747D
100
AcDbEntity
  8
寸法引出
 48
15.0
100
AcDbDimension
  2
*D143
 10
2910.460659665584
 20
1689.921515638522
 30
0.0
 11
2880.460659665584
 21
1189.921515638522
 31
0.0
 70
    32
 71
     5
 42
1000.0
  3
SANWA
100
AcDbAlignedDimension
 13
2813.905619440015
 23
689.9215156385221
 33
0.0
 14
2813.905619440015
 24
1689.921515638522
 34
0.0
 50
90.0
100
AcDbRotatedDimension
1001
ACAD
1000
DSTYLE
1002
{
1070
   140
1040
2.0
1070
    40
1040
15.0
1070
   147
1040
1.0
1070
    44
1040
0.5
1070
    43
1040
5.0
1070
   178
1070
   256
1070
   177
1070
   256
1070
   176
1070
   256
1070
    41
1040
1.5
1002
}
  0
DIMENSION
  5
930D
330
747D
100
AcDbEntity
  8
寸法引出
 48
15.0
100
AcDbDimension
  2
*D144
 10
2510.021287916569
 20
1539.921515638522
 30
0.0
 11
2480.021287916568
 21
1189.921515638522
 31
0.0
 70
    32
 71
     5
 42
700.0
  3
SANWA
100
AcDbAlignedDimension
 13
2605.905619440015
 23
839.9215156385221
 33
0.0
 14
2605.905619440015
 24
1539.921515638522
 34
0.0
 50
90.0
100
AcDbRotatedDimension
1001
ACAD
1000
DSTYLE
1002
{
1070
    40
1040
15.0
1070
    41
1040
1.5
1070
    43
1040
5.0
1070
    44
1040
0.5
1070
    75
1070
     1
1070
   140
1040
2.0
1070
   147
1040
1.0
1070
   176
1070
   256
1070
   177
1070
   256
1070
   178
1070
   256
1070
   279
1070
     1
1002
}
  0
LINE
  5
930E
330
747D
100
AcDbEntity
  8
0
 48
15.0
100
AcDbLine
 10
2813.905619440015
 20
1689.921515638522
 30
0.0
 11
2813.905619440015
 21
689.9215156385221
 31
0.0
  0
LINE
  5
930F
330
747D
100
AcDbEntity
  8
0
 48
15.0
100
AcDbLine
 10
2605.905619440015
 20
1689.921515638522
 30
0.0
 11
2605.905619440015
 21
689.9215156385221
 31
0.0
  0
LINE
  5
9310
330
747D
100
AcDbEntity
  8
0
 48
15.0
100
AcDbLine
 10
2671.405619440015
 20
1689.921515638522
 30
0.0
 11
2671.405619440015
 21
689.9215156385221
 31
0.0
  0
LINE
  5
9311
330
747D
100
AcDbEntity
  8
0
 48
15.0
100
AcDbLine
 10
2675.905619440015
 20
1689.921515638522
 30
0.0
 11
2675.905619440015
 21
689.9215156385221
 31
0.0
  0
LINE
  5
9312
330
747D
100
AcDbEntity
  8
0
 48
15.0
100
AcDbLine
 10
2748.405619440015
 20
1689.921515638522
 30
0.0
 11
2748.405619440015
 21
689.9215156385221
 31
0.0
  0
LINE
  5
9313
330
747D
100
AcDbEntity
  8
0
 48
15.0
100
AcDbLine
 10
2743.905619440015
 20
1689.921515638522
 30
0.0
 11
2743.905619440015
 21
689.9215156385221
 31
0.0
  0
DIMENSION
  5
9314
330
747D
100
AcDbEntity
  8
寸法引出
 48
15.0
100
AcDbDimension
  2
*D145
 10
1727.576978542431
 20
689.9215156385221
 30
0.0
 11
1697.576978542431
 21
1189.921515638522
 31
0.0
 70
    32
 71
     5
 42
1000.0
  3
SANWA
100
AcDbAlignedDimension
 13
1625.338355942214
 23
1689.921515638522
 33
0.0
 14
1625.338355942214
 24
689.9215156385221
 34
0.0
 50
90.0
100
AcDbRotatedDimension
1001
ACAD
1000
DSTYLE
1002
{
1070
   140
1040
2.0
1070
    40
1040
15.0
1070
   147
1040
1.0
1070
    44
1040
0.5
1070
    43
1040
5.0
1070
   178
1070
   256
1070
   177
1070
   256
1070
   176
1070
   256
1070
    41
1040
1.5
1002
}
  0
DIMENSION
  5
9315
330
747D
100
AcDbEntity
  8
寸法引出
 48
15.0
100
AcDbDimension
  2
*D146
 10
1183.824237354873
 20
1569.921515638522
 30
0.0
 11
1153.824237354872
 21
1189.921515638522
 31
0.0
 70
    32
 71
     5
 42
760.0
  3
SANWA
100
AcDbAlignedDimension
 13
1275.338355942214
 23
809.9215156385222
 33
0.0
 14
1275.338355942214
 24
1569.921515638522
 34
0.0
 50
90.0
100
AcDbRotatedDimension
1001
ACAD
1000
DSTYLE
1002
{
1070
    40
1040
15.0
1070
    41
1040
1.5
1070
    43
1040
5.0
1070
    44
1040
0.5
1070
    75
1070
     1
1070
   140
1040
2.0
1070
   147
1040
1.0
1070
   176
1070
   256
1070
   177
1070
   256
1070
   178
1070
   256
1070
   279
1070
     1
1002
}
  0
LINE
  5
9316
330
747D
100
AcDbEntity
  8
0
 48
15.0
100
AcDbLine
 10
1330.338355942214
 20
1689.921515638522
 30
0.0
 11
1330.338355942214
 21
689.9215156385221
 31
0.0
  0
LINE
  5
9317
330
747D
100
AcDbEntity
  8
0
 48
15.0
100
AcDbLine
 10
1570.338355942215
 20
1689.921515638522
 30
0.0
 11
1570.338355942215
 21
689.9215156385221
 31
0.0
  0
LINE
  5
9318
330
747D
100
AcDbEntity
  8
0
 48
15.0
100
AcDbLine
 10
1575.338355942214
 20
1689.921515638522
 30
0.0
 11
1575.338355942214
 21
689.9215156385221
 31
0.0
  0
LINE
  5
9319
330
747D
100
AcDbEntity
  8
0
 48
15.0
100
AcDbLine
 10
1325.338355942214
 20
1689.921515638522
 30
0.0
 11
1325.338355942214
 21
689.9215156385221
 31
0.0
  0
LINE
  5
931A
330
747D
100
AcDbEntity
  8
0
 48
15.0
100
AcDbLine
 10
1487.338355942214
 20
1689.921515638522
 30
0.0
 11
1487.338355942214
 21
689.9215156385221
 31
0.0
  0
LINE
  5
931B
330
747D
100
AcDbEntity
  8
0
 48
15.0
100
AcDbLine
 10
1413.338355942214
 20
1689.921515638522
 30
0.0
 11
1413.338355942214
 21
689.9215156385221
 31
0.0
  0
LINE
  5
931C
330
747D
100
AcDbEntity
  8
0
 48
15.0
100
AcDbLine
 10
1482.838355942214
 20
1689.921515638522
 30
0.0
 11
1482.838355942214
 21
689.9215156385221
 31
0.0
  0
LINE
  5
931D
330
747D
100
AcDbEntity
  8
0
 48
15.0
100
AcDbLine
 10
1417.838355942214
 20
1689.921515638522
 30
0.0
 11
1417.838355942214
 21
689.9215156385221
 31
0.0
  0
LINE
  5
931E
330
747D
100
AcDbEntity
  8
0
  6
CENTER2
 48
15.0
100
AcDbLine
 10
1450.338355942214
 20
1739.921515638522
 30
0.0
 11
1450.338355942214
 21
639.9215156385221
 31
0.0
  0
LINE
  5
931F
330
747D
100
AcDbEntity
  8
0
 48
15.0
100
AcDbLine
 10
1625.338355942214
 20
1689.921515638522
 30
0.0
 11
1625.338355942214
 21
689.9215156385221
 31
0.0
  0
LINE
  5
9320
330
747D
100
AcDbEntity
  8
0
 48
15.0
100
AcDbLine
 10
1275.338355942214
 20
1689.921515638522
 30
0.0
 11
1275.338355942214
 21
689.9215156385221
 31
0.0
  0
DIMENSION
  5
9321
330
747D
100
AcDbEntity
  8
寸法引出
 48
15.0
100
AcDbDimension
  2
*D147
 10
1625.338355942214
 20
581.2375765631272
 30
0.0
 11
1450.338355942214
 21
611.2375765631273
 31
0.0
 70
    32
 71
     5
 42
350.0
  3
SANWA
100
AcDbAlignedDimension
 13
1275.338355942214
 23
689.9215156385221
 33
0.0
 14
1625.338355942214
 24
689.9215156385221
 34
0.0
100
AcDbRotatedDimension
1001
ACAD
1000
DSTYLE
1002
{
1070
   140
1040
2.0
1070
    40
1040
15.0
1070
   147
1040
1.0
1070
    44
1040
0.5
1070
    43
1040
5.0
1070
   178
1070
   256
1070
   177
1070
   256
1070
   176
1070
   256
1070
    41
1040
1.5
1002
}
  0
LINE
  5
9322
330
747D
100
AcDbEntity
  8
0
 48
15.0
100
AcDbLine
 10
1275.338355942214
 20
689.9215156385221
 30
0.0
 11
1625.338355942214
 21
689.9215156385221
 31
0.0
  0
CIRCLE
  5
9323
330
747D
100
AcDbEntity
  8
0
 48
15.0
100
AcDbCircle
 10
1300.338355942214
 20
809.9215156385222
 30
0.0
 40
10.0
  0
DIMENSION
  5
9324
330
747D
100
AcDbEntity
  8
寸法引出
 48
15.0
100
AcDbDimension
  2
*D148
 10
1183.824237354873
 20
809.9215156385222
 30
0.0
 11
1153.824237354872
 21
749.9215156385222
 31
0.0
 70
    32
 71
     5
 42
120.0
  3
SANWA
100
AcDbAlignedDimension
 13
1275.338355942214
 23
689.9215156385221
 33
0.0
 14
1275.338355942214
 24
809.9215156385222
 34
0.0
 50
90.0
100
AcDbRotatedDimension
1001
ACAD
1000
DSTYLE
1002
{
1070
   140
1040
2.0
1070
    40
1040
15.0
1070
   147
1040
1.0
1070
    44
1040
0.5
1070
    43
1040
5.0
1070
   178
1070
   256
1070
   177
1070
   256
1070
   176
1070
   256
1070
    41
1040
1.5
1002
}
  0
CIRCLE
  5
9325
330
747D
100
AcDbEntity
  8
0
 48
15.0
100
AcDbCircle
 10
1382.838355942215
 20
839.9215156385221
 30
0.0
 40
11.0
  0
CIRCLE
  5
9326
330
747D
100
AcDbEntity
  8
0
 48
15.0
100
AcDbCircle
 10
1517.838355942214
 20
839.9215156385221
 30
0.0
 40
11.0
  0
CIRCLE
  5
9327
330
747D
100
AcDbEntity
  8
0
 48
15.0
100
AcDbCircle
 10
1600.338355942215
 20
809.9215156385222
 30
0.0
 40
10.0
  0
HATCH
  5
9328
330
747D
100
AcDbEntity
  8
0
100
AcDbHatch
 10
0.0
 20
0.0
 30
0.0
210
0.0
220
0.0
230
1.0
  2
SOLID
 70
     1
 71
     1
 91
        2
 92
        7
 72
     1
 73
     1
 93
        2
 10
3317.309602684288
 20
211.1503007525369
 42
1.0
 10
3221.339349997194
 20
211.1503007525369
 42
1.0
 97
        1
330
932A
 92
       22
 72
     1
 73
     1
 93
        2
 10
3314.909602684288
 20
211.1503007525369
 42
1.0
 10
3223.739349997194
 20
211.1503007525369
 42
1.0
 97
        1
330
9329
 75
     0
 76
     1
 47
0.0602706122334892
 98
        2
 10
3292.314762207054
 20
252.3995518533136
 10
3292.314762207054
 20
252.3995518533136
  0
CIRCLE
  5
9329
102
{ACAD_REACTORS
330
9328
102
}
330
747D
100
AcDbEntity
  8
0
100
AcDbCircle
 10
3269.324476340742
 20
211.1503007525369
 30
0.0
 40
45.58512634354756
  0
CIRCLE
  5
932A
102
{ACAD_REACTORS
330
9328
102
}
330
747D
100
AcDbEntity
  8
0
100
AcDbCircle
 10
3269.324476340742
 20
211.1503007525369
 30
0.0
 40
47.98512634354756
  0
LINE
  5
932B
330
747D
100
AcDbEntity
  8
0
 62
     0
100
AcDbLine
 10
3202.531914893602
 20
270.0000000000034
 30
0.0
 11
3598.531914893611
 21
270.0000000000034
 31
0.0
  0
LINE
  5
932C
330
747D
100
AcDbEntity
  8
0
 62
     0
100
AcDbLine
 10
3202.531914893602
 20
342.0000000000027
 30
0.0
 11
3598.531914893611
 21
342.0000000000027
 31
0.0
  0
LINE
  5
932D
330
747D
100
AcDbEntity
  8
0
 62
     0
100
AcDbLine
 10
3202.531914893602
 20
546.0000000000047
 30
0.0
 11
3598.531914893611
 21
546.0000000000047
 31
0.0
  0
LINE
  5
932E
330
747D
100
AcDbEntity
  8
0
 62
     0
100
AcDbLine
 10
3202.531914893602
 20
546.0000000000047
 30
0.0
 11
3598.531914893611
 21
546.0000000000047
 31
0.0
  0
LINE
  5
932F
330
747D
100
AcDbEntity
  8
0
 62
     0
100
AcDbLine
 10
3202.531914893602
 20
474.000000000002
 30
0.0
 11
3598.531914893611
 21
474.000000000002
 31
0.0
  0
LINE
  5
9330
330
747D
100
AcDbEntity
  8
0
 62
     0
100
AcDbLine
 10
3202.531914893602
 20
426.0000000000047
 30
0.0
 11
3598.531914893611
 21
426.0000000000047
 31
0.0
  0
DIMENSION
  5
9331
330
747D
100
AcDbEntity
  8
寸法引出
 48
15.0
100
AcDbDimension
  2
*D149
 10
2813.905619440014
 20
581.2375765631272
 30
0.0
 11
2709.905619440015
 21
611.2375765631273
 31
0.0
 70
    32
 71
     5
 42
207.9999999999996
  3
SANWA
100
AcDbAlignedDimension
 13
2605.905619440015
 23
689.9215156385221
 33
0.0
 14
2813.905619440014
 24
689.9215156385221
 34
0.0
100
AcDbRotatedDimension
1001
ACAD
1000
DSTYLE
1002
{
1070
   140
1040
2.0
1070
    40
1040
15.0
1070
   147
1040
1.0
1070
    44
1040
0.5
1070
    43
1040
5.0
1070
   178
1070
   256
1070
   177
1070
   256
1070
   176
1070
   256
1070
    41
1040
1.5
1002
}
  0
DIMENSION
  5
9332
330
747D
100
AcDbEntity
  8
寸法引出
 48
15.0
100
AcDbDimension
  2
*D150
 10
2813.905619440015
 20
381.1113225518989
 30
0.0
 11
2796.405619440015
 21
411.1113225518988
 31
0.0
 70
    32
 71
     5
 42
35.0
  3
SANWA
100
AcDbAlignedDimension
 13
2778.905619440015
 23
343.8473388973784
 33
0.0
 14
2813.905619440015
 24
333.8473388973785
 34
0.0
100
AcDbRotatedDimension
1001
ACAD
1000
DSTYLE
1002
{
1070
   140
1040
2.0
1070
    40
1040
15.0
1070
   147
1040
1.0
1070
    44
1040
0.5
1070
    43
1040
5.0
1070
   178
1070
   256
1070
   177
1070
   256
1070
   176
1070
   256
1070
    41
1040
1.5
1002
}
  0
DIMENSION
  5
9333
330
747D
100
AcDbEntity
  8
寸法引出
 48
15.0
100
AcDbDimension
  2
*D151
 10
2813.905619440015
 20
238.8302078604825
 30
0.0
 11
2778.905619440015
 21
268.8302078604825
 31
0.0
 70
    32
 71
     5
 42
70.0
  3
SANWA
100
AcDbAlignedDimension
 13
2743.905619440015
 23
329.3473388973784
 33
0.0
 14
2813.905619440015
 24
329.3473388973784
 34
0.0
100
AcDbRotatedDimension
1001
ACAD
1000
DSTYLE
1002
{
1070
    40
1040
15.0
1070
    41
1040
1.5
1070
    43
1040
5.0
1070
    44
1040
0.5
1070
    75
1070
     1
1070
   140
1040
2.0
1070
   147
1040
1.0
1070
   176
1070
   256
1070
   177
1070
   256
1070
   178
1070
   256
1070
   279
1070
     1
1002
}
  0
DIMENSION
  5
9334
330
747D
100
AcDbEntity
  8
寸法引出
 48
15.0
100
AcDbDimension
  2
*D152
 10
2743.905619440015
 20
238.8302078604825
 30
0.0
 11
2709.905619440015
 21
268.8302078604825
 31
0.0
 70
    32
 71
     5
 42
68.0
  3
SANWA
100
AcDbAlignedDimension
 13
2675.905619440015
 23
329.3473388973784
 33
0.0
 14
2743.905619440015
 24
329.3473388973784
 34
0.0
100
AcDbRotatedDimension
1001
ACAD
1000
DSTYLE
1002
{
1070
    40
1040
15.0
1070
    41
1040
1.5
1070
    43
1040
5.0
1070
    44
1040
0.5
1070
    75
1070
     1
1070
   140
1040
2.0
1070
   147
1040
1.0
1070
   176
1070
   256
1070
   177
1070
   256
1070
   178
1070
   256
1070
   279
1070
     1
1002
}
  0
DIMENSION
  5
9335
330
747D
100
AcDbEntity
  8
寸法引出
 48
15.0
100
AcDbDimension
  2
*D153
 10
2675.905619440015
 20
238.8302078604825
 30
0.0
 11
2640.905619440015
 21
268.8302078604825
 31
0.0
 70
    32
 71
     5
 42
70.0
  3
SANWA
100
AcDbAlignedDimension
 13
2605.905619440015
 23
329.3473388973784
 33
0.0
 14
2675.905619440015
 24
329.3473388973784
 34
0.0
100
AcDbRotatedDimension
1001
ACAD
1000
DSTYLE
1002
{
1070
   140
1040
2.0
1070
    40
1040
15.0
1070
   147
1040
1.0
1070
    44
1040
0.5
1070
    43
1040
5.0
1070
   178
1070
   256
1070
   177
1070
   256
1070
   176
1070
   256
1070
    41
1040
1.5
1002
}
  0
DIMENSION
  5
9336
330
747D
100
AcDbEntity
  8
寸法引出
 48
15.0
100
AcDbDimension
  2
*D154
 10
2640.905619440015
 20
381.1113225518989
 30
0.0
 11
2623.405619440015
 21
411.1113225518988
 31
0.0
 70
    32
 71
     5
 42
35.0
  3
SANWA
100
AcDbAlignedDimension
 13
2605.905619440015
 23
333.8473388973785
 33
0.0
 14
2640.905619440015
 24
343.8473388973784
 34
0.0
100
AcDbRotatedDimension
1001
ACAD
1000
DSTYLE
1002
{
1070
   140
1040
2.0
1070
    40
1040
15.0
1070
   147
1040
1.0
1070
    44
1040
0.5
1070
    43
1040
5.0
1070
   178
1070
   256
1070
   177
1070
   256
1070
   176
1070
   256
1070
    41
1040
1.5
1002
}
  0
LINE
  5
9337
330
747D
100
AcDbEntity
  8
0
 48
15.0
100
AcDbLine
 10
2605.905619440015
 20
333.8473388973785
 30
0.0
 11
2671.405619440015
 21
333.8473388973785
 31
0.0
  0
LINE
  5
9338
330
747D
100
AcDbEntity
  8
0
 48
15.0
100
AcDbLine
 10
2675.905619440015
 20
329.3473388973784
 30
0.0
 11
2605.905619440015
 21
329.3473388973784
 31
0.0
  0
LINE
  5
9339
330
747D
100
AcDbEntity
  8
0
 48
15.0
100
AcDbLine
 10
2605.905619440015
 20
329.3473388973784
 30
0.0
 11
2605.905619440015
 21
333.8473388973785
 31
0.0
  0
DIMENSION
  5
933A
330
747D
100
AcDbEntity
  8
寸法引出
 48
15.0
100
AcDbDimension
  2
*D155
 10
2748.405619440015
 20
467.2288389012769
 30
0.0
 11
2709.905619440015
 21
497.2288389012769
 31
0.0
 70
    32
 71
     5
 42
77.0
  3
SANWA
100
AcDbAlignedDimension
 13
2671.405619440015
 23
399.3473388973784
 33
0.0
 14
2748.405619440015
 24
399.3473388973784
 34
0.0
100
AcDbRotatedDimension
1001
ACAD
1000
DSTYLE
1002
{
1070
   140
1040
2.0
1070
    40
1040
15.0
1070
   147
1040
1.0
1070
    44
1040
0.5
1070
    43
1040
5.0
1070
   178
1070
   256
1070
   177
1070
   256
1070
   176
1070
   256
1070
    41
1040
1.5
1002
}
  0
LINE
  5
933B
330
747D
100
AcDbEntity
  8
0
 48
15.0
100
AcDbLine
 10
2784.405619440015
 20
333.8473388973785
 30
0.0
 11
2784.405619440016
 21
329.3473388973784
 31
0.0
  0
LINE
  5
933C
330
747D
100
AcDbEntity
  8
0
 48
15.0
100
AcDbLine
 10
2773.405619440015
 20
333.8473388973785
 30
0.0
 11
2773.405619440015
 21
329.3473388973784
 31
0.0
  0
LINE
  5
933D
330
747D
100
AcDbEntity
  8
0
 48
15.0
100
AcDbLine
 10
2646.405619440015
 20
333.8473388973785
 30
0.0
 11
2646.405619440015
 21
329.3473388973784
 31
0.0
  0
LINE
  5
933E
330
747D
100
AcDbEntity
  8
0
 48
15.0
100
AcDbLine
 10
2635.405619440015
 20
333.8473388973785
 30
0.0
 11
2635.405619440015
 21
329.3473388973784
 31
0.0
  0
LINE
  5
933F
330
747D
100
AcDbEntity
  8
0
  6
CENTER2
100
AcDbLine
 10
2778.905619440015
 20
343.8473388973784
 30
0.0
 11
2778.905619440015
 21
319.3473388973785
 31
0.0
  0
LINE
  5
9340
330
747D
100
AcDbEntity
  8
0
  6
CENTER2
100
AcDbLine
 10
2640.905619440015
 20
343.8473388973784
 30
0.0
 11
2640.905619440015
 21
319.3473388973785
 31
0.0
  0
LINE
  5
9341
330
747D
100
AcDbEntity
  8
0
 48
15.0
100
AcDbLine
 10
2677.405619440014
 20
399.3473388973784
 30
0.0
 11
2742.405619440014
 21
361.3473388973785
 31
0.0
  0
LINE
  5
9342
330
747D
100
AcDbEntity
  8
0
 48
15.0
100
AcDbLine
 10
2677.405619440014
 20
361.3473388973785
 30
0.0
 11
2742.405619440014
 21
399.3473388973782
 31
0.0
  0
LINE
  5
9343
330
747D
100
AcDbEntity
  8
0
 48
15.0
100
AcDbLine
 10
2742.405619440015
 20
399.3473388973784
 30
0.0
 11
2742.405619440015
 21
361.3473388973782
 31
0.0
  0
LINE
  5
9344
330
747D
100
AcDbEntity
  8
0
 48
15.0
100
AcDbLine
 10
2677.405619440015
 20
399.3473388973784
 30
0.0
 11
2677.405619440015
 21
361.3473388973782
 31
0.0
  0
LINE
  5
9345
330
747D
100
AcDbEntity
  8
0
 48
15.0
100
AcDbLine
 10
2675.905619440015
 20
361.3473388973782
 30
0.0
 11
2743.905619440015
 21
361.3473388973785
 31
0.0
  0
LINE
  5
9346
330
747D
100
AcDbEntity
  8
0
 48
15.0
100
AcDbLine
 10
2677.405619440014
 20
399.3473388973784
 30
0.0
 11
2742.405619440014
 21
399.3473388973782
 31
0.0
  0
LINE
  5
9347
330
747D
100
AcDbEntity
  8
0
 48
15.0
100
AcDbLine
 10
2813.905619440015
 20
333.8473388973785
 30
0.0
 11
2813.905619440015
 21
329.3473388973784
 31
0.0
  0
LINE
  5
9348
330
747D
100
AcDbEntity
  8
0
 48
15.0
100
AcDbLine
 10
2813.905619440015
 20
329.3473388973784
 30
0.0
 11
2743.905619440015
 21
329.3473388973784
 31
0.0
  0
LINE
  5
9349
330
747D
100
AcDbEntity
  8
0
 48
15.0
100
AcDbLine
 10
2748.405619440015
 20
333.8473388973785
 30
0.0
 11
2813.905619440015
 21
333.8473388973785
 31
0.0
  0
LINE
  5
934A
330
747D
100
AcDbEntity
  8
0
 48
15.0
100
AcDbLine
 10
2748.405619440015
 20
399.3473388973784
 30
0.0
 11
2748.405619440015
 21
333.8473388973785
 31
0.0
  0
LINE
  5
934B
330
747D
100
AcDbEntity
  8
0
 48
15.0
100
AcDbLine
 10
2743.905619440015
 20
399.3473388973784
 30
0.0
 11
2748.405619440015
 21
399.3473388973784
 31
0.0
  0
LINE
  5
934C
330
747D
100
AcDbEntity
  8
0
 48
15.0
100
AcDbLine
 10
2743.905619440015
 20
399.3473388973784
 30
0.0
 11
2743.905619440015
 21
329.3473388973784
 31
0.0
  0
LINE
  5
934D
330
747D
100
AcDbEntity
  8
0
 48
15.0
100
AcDbLine
 10
2675.905619440015
 20
399.3473388973784
 30
0.0
 11
2675.905619440015
 21
329.3473388973784
 31
0.0
  0
LINE
  5
934E
330
747D
100
AcDbEntity
  8
0
 48
15.0
100
AcDbLine
 10
2671.405619440015
 20
399.3473388973784
 30
0.0
 11
2671.405619440015
 21
333.8473388973785
 31
0.0
  0
LINE
  5
934F
330
747D
100
AcDbEntity
  8
0
 48
15.0
100
AcDbLine
 10
2675.905619440015
 20
399.3473388973784
 30
0.0
 11
2671.405619440015
 21
399.3473388973784
 31
0.0
  0
LINE
  5
9350
330
747D
100
AcDbEntity
  8
0
 62
     0
100
AcDbLine
 10
3202.531914893602
 20
378.0000000000007
 30
0.0
 11
3202.531914893602
 21
150.0000000000034
 31
0.0
  0
LINE
  5
9351
330
747D
100
AcDbEntity
  8
0
100
AcDbLine
 10
3202.531914893602
 20
378.0000000000007
 30
0.0
 11
3202.531914893602
 21
299.9351497097677
 31
0.0
  0
LINE
  5
9352
330
747D
100
AcDbEntity
  8
0
100
AcDbLine
 10
3202.531914893602
 20
342.0000000000027
 30
0.0
 11
3202.531914893602
 21
306.0000000000014
 31
0.0
  0
LINE
  5
9353
330
747D
100
AcDbEntity
  8
0
 62
     0
100
AcDbLine
 10
3202.531914893602
 20
522.0000000000027
 30
0.0
 11
3202.531914893602
 21
378.0000000000007
 31
0.0
  0
LINE
  5
9354
330
747D
100
AcDbEntity
  8
0
100
AcDbLine
 10
3202.531914893602
 20
594.000000000002
 30
0.0
 11
3202.531914893602
 21
522.0000000000027
 31
0.0
  0
LINE
  5
9355
330
747D
100
AcDbEntity
  8
0
100
AcDbLine
 10
3202.531914893602
 20
342.0000000000027
 30
0.0
 11
3202.531914893602
 21
378.0000000000007
 31
0.0
  0
LINE
  5
9356
330
747D
100
AcDbEntity
  8
0
100
AcDbLine
 10
3202.531914893602
 20
402.0000000000027
 30
0.0
 11
3202.531914893602
 21
436.0565675879001
 31
0.0
  0
LINE
  5
9357
330
747D
100
AcDbEntity
  8
0
100
AcDbLine
 10
3202.531914893602
 20
436.0565675879001
 30
0.0
 11
3202.531914893602
 21
529.2701469420888
 31
0.0
  0
LINE
  5
9358
330
747D
100
AcDbEntity
  8
0
 48
15.0
100
AcDbLine
 10
2605.905619440015
 20
689.9215156385221
 30
0.0
 11
2813.905619440014
 21
689.9215156385221
 31
0.0
  0
DIMENSION
  5
9359
330
747D
100
AcDbEntity
  8
寸法引出
 48
15.0
100
AcDbDimension
  2
*D156
 10
2510.021287916569
 20
839.9215156385221
 30
0.0
 11
2480.021287916569
 21
764.9215156385225
 31
0.0
 70
    32
 71
     5
 42
150.0
  3
SANWA
100
AcDbAlignedDimension
 13
2605.905619440015
 23
689.9215156385221
 33
0.0
 14
2605.905619440015
 24
839.9215156385221
 34
0.0
 50
90.0
100
AcDbRotatedDimension
1001
ACAD
1000
DSTYLE
1002
{
1070
   140
1040
2.0
1070
    40
1040
15.0
1070
   147
1040
1.0
1070
    44
1040
0.5
1070
    43
1040
5.0
1070
   178
1070
   256
1070
   177
1070
   256
1070
   176
1070
   256
1070
    41
1040
1.5
1002
}
  0
CIRCLE
  5
935A
330
747D
100
AcDbEntity
  8
0
 48
15.0
100
AcDbCircle
 10
2778.905619440015
 20
839.9215156385221
 30
0.0
 40
11.0
  0
CIRCLE
  5
935B
330
747D
100
AcDbEntity
  8
0
 48
15.0
100
AcDbCircle
 10
2640.905619440015
 20
839.9215156385221
 30
0.0
 40
11.0
  0
ARC
  5
935C
102
{ACAD_REACTORS
330
939C
102
}
330
747D
100
AcDbEntity
  8
0
100
AcDbCircle
 10
3680.136214331806
 20
223.2088158087993
 30
0.0
 40
41.46378893304791
100
AcDbArc
 50
141.6476737862062
 51
263.3523262138003
  0
ARC
  5
935D
102
{ACAD_REACTORS
330
939C
102
}
330
747D
100
AcDbEntity
  8
0
100
AcDbCircle
 10
3680.136214331806
 20
223.2088158087993
 30
0.0
 40
43.86378893304791
100
AcDbArc
 50
138.136495447086
 51
266.8635045529183
  0
TEXT
  5
935E
330
747D
100
AcDbEntity
  8
0
 48
2.0
100
AcDbText
 10
3609.743097260976
 20
560.3768966870496
 30
0.0
 40
16.79999999999999
  1
品
  7
SANWA
100
AcDbText
  0
LINE
  5
935F
330
747D
100
AcDbEntity
  8
0
100
AcDbLine
 10
3598.531914893611
 20
150.0000000000034
 30
0.0
 11
3598.531914893611
 21
594.000000000002
 31
0.0
  0
LINE
  5
9360
330
747D
100
AcDbEntity
  8
0
100
AcDbLine
 10
3334.531914893605
 20
150.0000000000034
 30
0.0
 11
3334.531914893605
 21
342.0000000000027
 31
0.0
  0
TEXT
  5
9361
330
747D
100
AcDbEntity
  8
0
 48
2.0
100
AcDbText
 10
3234.749396044363
 20
313.251379008484
 30
0.0
 40
24.0
  1
製図
  7
SANWA
100
AcDbText
  0
TEXT
  5
9362
330
747D
100
AcDbEntity
  8
0
 48
2.0
100
AcDbText
 10
3388.972302949392
 20
313.251379008484
 30
0.0
 40
24.0
  1
2005.11.11
  7
SANWA
100
AcDbText
  0
TEXT
  5
9363
330
747D
100
AcDbEntity
  8
0
 48
2.0
100
AcDbText
 10
3369.075985825585
 20
277.1357177512948
 30
0.0
 40
24.0
  1
設計
  7
SANWA
100
AcDbText
  0
TEXT
  5
9364
102
{ACAD_REACTORS
330
9366
102
}
330
747D
100
AcDbEntity
  8
0
 48
2.0
100
AcDbText
 10
3423.685385233716
 20
46.9478827426451
 30
0.0
 40
24.0
  1
嶋
  7
SANWA
100
AcDbText
  0
TEXT
  5
9365
102
{ACAD_REACTORS
330
9366
102
}
330
747D
100
AcDbEntity
  8
0
 48
2.0
100
AcDbText
 10
3424.249755796505
 20
80.91869382887693
 30
0.0
 40
24.0
  1
大
  7
SANWA
100
AcDbText
  0
HATCH
  5
9366
330
747D
100
AcDbEntity
  8
0
100
AcDbHatch
 10
0.0
 20
0.0
 30
0.0
210
0.0
220
0.0
230
1.0
  2
SOLID
 70
     1
 71
     1
 91
        4
 92
        7
 72
     1
 73
     1
 93
        2
 10
3488.79317631283
 20
72.91679629800341
 42
1.0
 10
3392.822923625735
 20
72.91679629800341
 42
1.0
 97
        1
330
9367
 92
       22
 72
     1
 73
     1
 93
        2
 10
3486.39317631283
 20
72.91679629800341
 42
1.0
 10
3395.222923625735
 20
72.91679629800341
 42
1.0
 97
        1
330
9368
 92
      136
 93
        4
 72
     1
 10
3416.638327225076
 20
71.11297954316265
 11
3466.969755796505
 21
71.11297954316265
 72
     1
 10
3466.969755796505
 20
71.11297954316265
 11
3466.969755796505
 21
116.7815509717341
 72
     1
 10
3466.969755796505
 20
116.7815509717341
 11
3416.638327225076
 21
116.7815509717341
 72
     1
 10
3416.638327225076
 20
116.7815509717341
 11
3416.638327225076
 21
71.11297954316265
 97
        1
330
9365
 92
      136
 93
        4
 72
     1
 10
3415.696813805145
 20
35.3935970283594
 11
3466.78252809086
 21
35.3935970283594
 72
     1
 10
3466.78252809086
 20
35.3935970283594
 11
3466.78252809086
 21
83.32502559978797
 72
     1
 10
3466.78252809086
 20
83.32502559978797
 11
3415.696813805145
 21
83.32502559978797
 72
     1
 10
3415.696813805145
 20
83.32502559978797
 11
3415.696813805145
 21
35.3935970283594
 97
        1
330
9364
 75
     0
 76
     1
 47
0.0602706122334892
 98
        2
 10
3463.798335835589
 20
114.1660473987801
 10
3463.798335835589
 20
114.1660473987801
  0
CIRCLE
  5
9367
102
{ACAD_REACTORS
330
9366
102
}
330
747D
100
AcDbEntity
  8
0
100
AcDbCircle
 10
3440.808049969283
 20
72.91679629800341
 30
0.0
 40
47.98512634354756
  0
CIRCLE
  5
9368
102
{ACAD_REACTORS
330
9366
102
}
330
747D
100
AcDbEntity
  8
0
100
AcDbCircle
 10
3440.808049969283
 20
72.91679629800341
 30
0.0
 40
45.58512634354756
  0
TEXT
  5
9369
330
747D
100
AcDbEntity
  8
0
 48
2.0
100
AcDbText
 10
3231.216179933126
 20
275.7717951156462
 30
0.0
 40
24.0
  1
検図
  7
SANWA
100
AcDbText
  0
HATCH
  5
936A
330
747D
100
AcDbEntity
  8
0
100
AcDbHatch
 10
0.0
 20
0.0
 30
0.0
210
0.0
220
0.0
230
1.0
  2
SOLID
 70
     1
 71
     1
 91
        4
 92
        7
 72
     1
 73
     1
 93
        2
 10
3367.397445347329
 20
72.91679629800341
 42
1.0
 10
3271.427192660234
 20
72.91679629800341
 42
1.0
 97
        1
330
936E
 92
       22
 72
     1
 73
     1
 93
        2
 10
3364.997445347329
 20
72.91679629800341
 42
1.0
 10
3273.827192660235
 20
72.91679629800341
 42
1.0
 97
        1
330
936D
 92
      136
 93
        4
 72
     1
 10
3294.934024831004
 20
68.28126186921323
 11
3345.882596259575
 21
68.28126186921323
 72
     1
 10
3345.882596259575
 20
68.28126186921323
 11
3345.882596259575
 21
115.8012618692132
 72
     1
 10
3345.882596259575
 20
115.8012618692132
 11
3294.934024831004
 21
115.8012618692132
 72
     1
 10
3294.934024831004
 20
115.8012618692132
 11
3294.934024831004
 21
68.28126186921323
 97
        1
330
936B
 92
       24
 93
        4
 72
     1
 10
3295.123939982515
 20
32.6241521874162
 11
3344.563939982515
 21
32.6241521874162
 72
     1
 10
3344.563939982515
 20
32.6241521874162
 11
3344.563939982515
 21
75.61843790170191
 72
     1
 10
3344.563939982515
 20
75.61843790170191
 11
3295.123939982515
 21
75.61843790170191
 72
     1
 10
3295.123939982515
 20
75.61843790170191
 11
3295.123939982515
 21
32.6241521874162
 97
        1
330
936C
 75
     0
 76
     1
 47
0.0602706122334892
 98
        2
 10
3342.402604870095
 20
114.1660473987801
 10
3342.402604870095
 20
114.1660473987801
  0
TEXT
  5
936B
102
{ACAD_REACTORS
330
936A
102
}
330
747D
100
AcDbEntity
  8
0
 48
2.0
100
AcDbText
 10
3302.854024831004
 20
79.62983329778467
 30
0.0
 40
24.0
  1
蒔
  7
SANWA
100
AcDbText
  0
TEXT
  5
936C
102
{ACAD_REACTORS
330
936A
102
}
330
747D
100
AcDbEntity
  8
0
 48
2.0
100
AcDbText
 10
3302.289654268229
 20
43.08129504455905
 30
0.0
 40
24.0
  1
田
  7
SANWA
100
AcDbText
  0
CIRCLE
  5
936D
102
{ACAD_REACTORS
330
936A
102
}
330
747D
100
AcDbEntity
  8
0
100
AcDbCircle
 10
3319.412319003781
 20
72.91679629800341
 30
0.0
 40
45.58512634354756
  0
CIRCLE
  5
936E
102
{ACAD_REACTORS
330
936A
102
}
330
747D
100
AcDbEntity
  8
0
100
AcDbCircle
 10
3319.412319003781
 20
72.91679629800341
 30
0.0
 40
47.98512634354756
  0
TEXT
  5
936F
330
747D
100
AcDbEntity
  8
0
 48
2.0
100
AcDbText
 10
3252.766182167963
 20
214.3213430120375
 30
0.0
 40
24.0
  1
河
  7
SANWA
100
AcDbText
  0
TEXT
  5
9370
330
747D
100
AcDbEntity
  8
0
 48
2.0
100
AcDbText
 10
3252.201811605175
 20
180.3505319258056
 30
0.0
 40
24.0
  1
口
  7
SANWA
100
AcDbText
  0
TEXT
  5
9371
330
747D
100
AcDbEntity
  8
0
 48
2.0
100
AcDbText
 10
3498.749396044368
 20
277.2513790084827
 30
0.0
 40
24.0
  1
製図
  7
SANWA
100
AcDbText
  0
HATCH
  5
9372
330
747D
100
AcDbEntity
  8
0
100
AcDbHatch
 10
0.0
 20
0.0
 30
0.0
210
0.0
220
0.0
230
1.0
  2
SOLID
 70
     1
 71
     1
 91
        4
 92
        7
 72
     1
 73
     1
 93
        2
 10
3580.740429817956
 20
209.8082344452557
 42
1.0
 10
3484.770177130862
 20
209.8082344452557
 42
1.0
 97
        1
330
9375
 92
       22
 72
     1
 73
     1
 93
        2
 10
3578.340429817956
 20
209.8082344452557
 42
1.0
 10
3487.170177130862
 20
209.8082344452557
 42
1.0
 97
        1
330
9374
 92
      136
 93
        4
 72
     1
 10
3508.208437873046
 20
205.844417690415
 11
3559.29415215876
 21
205.844417690415
 72
     1
 10
3559.29415215876
 20
205.844417690415
 11
3559.29415215876
 21
253.7758462618435
 72
     1
 10
3559.29415215876
 20
253.7758462618435
 11
3508.208437873046
 21
253.7758462618435
 72
     1
 10
3508.208437873046
 20
253.7758462618435
 11
3508.208437873046
 21
205.844417690415
 97
        1
330
9373
 92
      136
 93
        4
 72
     1
 10
3508.124067310272
 20
173.450749461326
 11
3558.249781595986
 21
173.450749461326
 72
     1
 10
3558.249781595986
 20
173.450749461326
 11
3558.249781595986
 21
218.5021780327546
 72
     1
 10
3558.249781595986
 20
218.5021780327546
 11
3508.124067310272
 21
218.5021780327546
 72
     1
 10
3508.124067310272
 20
218.5021780327546
 11
3508.124067310272
 21
173.450749461326
 97
        1
330
9376
 75
     0
 76
     1
 47
0.0602706122334892
 98
        2
 10
3555.745589340715
 20
251.0574855460325
 10
3555.745589340715
 20
251.0574855460325
  0
TEXT
  5
9373
102
{ACAD_REACTORS
330
9372
102
}
330
747D
100
AcDbEntity
  8
0
 48
2.0
100
AcDbText
 10
3516.197009301617
 20
217.8101319761292
 30
0.0
 40
24.0
  1
中
  7
SANWA
100
AcDbText
  0
CIRCLE
  5
9374
102
{ACAD_REACTORS
330
9372
102
}
330
747D
100
AcDbEntity
  8
0
100
AcDbCircle
 10
3532.755303474409
 20
209.8082344452557
 30
0.0
 40
45.58512634354756
  0
CIRCLE
  5
9375
102
{ACAD_REACTORS
330
9372
102
}
330
747D
100
AcDbEntity
  8
0
100
AcDbCircle
 10
3532.755303474409
 20
209.8082344452557
 30
0.0
 40
47.98512634354756
  0
TEXT
  5
9376
102
{ACAD_REACTORS
330
9372
102
}
330
747D
100
AcDbEntity
  8
0
 48
2.0
100
AcDbText
 10
3515.632638738843
 20
183.8393208898974
 30
0.0
 40
24.0
  1
川
  7
SANWA
100
AcDbText
  0
LINE
  5
9377
330
747D
100
AcDbEntity
  8
0
100
AcDbLine
 10
3466.531914893608
 20
150.0000000000034
 30
0.0
 11
3466.531914893608
 21
306.0000000000014
 31
0.0
  0
TEXT
  5
9378
330
747D
100
AcDbEntity
  8
0
 48
2.0
100
AcDbText
 10
3392.339284911463
 20
558.641191642597
 30
0.0
 40
24.0
  1
番号
  7
SANWA
100
AcDbText
  0
TEXT
  5
9379
330
747D
100
AcDbEntity
  8
0
 48
2.0
100
AcDbText
 10
3326.458873159423
 20
434.3839146702168
 30
0.0
 40
24.0
  1
縮    尺
  7
SANWA
100
AcDbText
  0
TEXT
  5
937A
330
747D
100
AcDbEntity
  8
0
 48
2.0
100
AcDbText
 10
3344.025132958805
 20
378.5853012973496
 30
0.0
 40
24.0
  1
1 : 15
  7
SANWA
100
AcDbText
  0
TEXT
  5
937B
330
747D
100
AcDbEntity
  8
0
 48
2.0
100
AcDbText
 10
3325.407362835249
 20
557.2772861648263
 30
0.0
 40
24.0
  1
図面
  7
SANWA
100
AcDbText
  0
LINE
  5
937C
330
747D
100
AcDbEntity
  8
0
100
AcDbLine
 10
3598.531914893611
 20
594.000000000002
 30
0.0
 11
3621.277272305448
 21
594.000000000002
 31
0.0
  0
TEXT
  5
937D
330
747D
100
AcDbEntity
  8
0
 48
2.0
100
AcDbText
 10
3608.833038597699
 20
520.9962632445933
 30
0.0
 40
16.79999999999999
  1
名
  7
SANWA
100
AcDbText
  0
TEXT
  5
937E
330
747D
100
AcDbEntity
  8
0
 48
2.0
100
AcDbText
 10
3608.76342530841
 20
466.4348193000683
 30
0.0
 40
16.79999999999999
  1
呼
  7
SANWA
100
AcDbText
  0
TEXT
  5
937F
330
747D
100
AcDbEntity
  8
0
 48
2.0
100
AcDbText
 10
3608.525134886844
 20
443.4326160008049
 30
0.0
 40
16.79999999999999
  1
び
  7
SANWA
100
AcDbText
  0
TEXT
  5
9380
330
747D
100
AcDbEntity
  8
0
 48
2.0
100
AcDbText
 10
3608.865365864922
 20
419.9263485547305
 30
0.0
 40
16.79999999999999
  1
名
  7
SANWA
100
AcDbText
  0
TEXT
  5
9381
330
747D
100
AcDbEntity
  8
0
 48
2.0
100
AcDbText
 10
3609.288067929338
 20
360.6846153128743
 30
0.0
 40
16.79999999999999
  1
規
  7
SANWA
100
AcDbText
  0
TEXT
  5
9382
330
747D
100
AcDbEntity
  8
0
 48
2.0
100
AcDbText
 10
3609.288067929338
 20
324.9410917409398
 30
0.0
 40
16.79999999999999
  1
格
  7
SANWA
100
AcDbText
  0
LINE
  5
9383
330
747D
100
AcDbEntity
  8
0
100
AcDbLine
 10
3646.531914893607
 20
306.0000000000014
 30
0.0
 11
3646.531914893607
 21
594.000000000002
 31
0.0
  0
ARC
  5
9384
102
{ACAD_REACTORS
330
939C
102
}
330
747D
100
AcDbEntity
  8
0
100
AcDbCircle
 10
3680.136214331806
 20
223.2088158087993
 30
0.0
 40
35.46378893304791
100
AcDbArc
 50
142.7788203119015
 51
262.2211796881019
  0
ARC
  5
9385
102
{ACAD_REACTORS
330
939C
102
}
330
747D
100
AcDbEntity
  8
0
100
AcDbCircle
 10
3680.136214331806
 20
223.2088158087993
 30
0.0
 40
33.06378893304791
100
AcDbArc
 50
139.162587411126
 51
265.8374125888738
  0
ARC
  5
9386
102
{ACAD_REACTORS
330
939C
102
}
330
747D
100
AcDbEntity
  8
0
100
AcDbCircle
 10
3680.136214331806
 20
223.2088158087993
 30
0.0
 40
33.06378893304791
100
AcDbArc
 50
49.16258741113152
 51
130.8374125888685
  0
ARC
  5
9387
102
{ACAD_REACTORS
330
939C
102
}
330
747D
100
AcDbEntity
  8
0
100
AcDbCircle
 10
3680.136214331806
 20
223.2088158087993
 30
0.0
 40
35.46378893304791
100
AcDbArc
 50
52.77882031190353
 51
127.2211796880964
  0
ARC
  5
9388
102
{ACAD_REACTORS
330
939C
102
}
330
747D
100
AcDbEntity
  8
0
100
AcDbCircle
 10
3680.136214331806
 20
223.2088158087993
 30
0.0
 40
41.46378893304791
100
AcDbArc
 50
51.64767378620982
 51
128.3523262138003
  0
ARC
  5
9389
102
{ACAD_REACTORS
330
939C
102
}
330
747D
100
AcDbEntity
  8
0
100
AcDbCircle
 10
3680.136214331806
 20
223.2088158087993
 30
0.0
 40
43.86378893304791
100
AcDbArc
 50
48.13649544708246
 51
131.8635045529175
  0
LINE
  5
938A
102
{ACAD_REACTORS
330
939C
102
}
330
747D
100
AcDbEntity
  8
0
100
AcDbLine
 10
3658.515314664828
 20
248.2238280254648
 30
0.0
 11
3650.816888003552
 21
255.922254686742
 31
0.0
  0
LINE
  5
938B
102
{ACAD_REACTORS
330
939C
102
}
330
747D
100
AcDbEntity
  8
0
100
AcDbLine
 10
3655.121202115134
 20
244.82971547577
 30
0.0
 11
3647.422775453855
 21
252.5281421370471
 31
0.0
  0
LINE
  5
938C
102
{ACAD_REACTORS
330
939C
102
}
330
747D
100
AcDbEntity
  8
0
100
AcDbLine
 10
3705.151226548463
 20
244.82971547577
 30
0.0
 11
3712.803191332766
 21
252.4816802600629
 31
0.0
  0
LINE
  5
938D
102
{ACAD_REACTORS
330
939C
102
}
330
747D
100
AcDbEntity
  8
0
100
AcDbLine
 10
3701.75711399877
 20
248.2238280254648
 30
0.0
 11
3709.409078783056
 21
255.8757928097577
 31
0.0
  0
LINE
  5
938E
102
{ACAD_REACTORS
330
939C
102
}
330
747D
100
AcDbEntity
  8
0
100
AcDbLine
 10
3677.736214331808
 20
179.4107338923163
 30
0.0
 11
3677.736214331808
 21
190.232246269062
 31
0.0
  0
LINE
  5
938F
102
{ACAD_REACTORS
330
939C
102
}
330
747D
100
AcDbEntity
  8
0
100
AcDbLine
 10
3682.536214331804
 20
179.4107338923163
 30
0.0
 11
3682.536214331804
 21
190.232246269062
 31
0.0
  0
ARC
  5
9390
102
{ACAD_REACTORS
330
939C
102
}
330
747D
100
AcDbEntity
  8
0
100
AcDbCircle
 10
3680.136214331806
 20
223.2088158087993
 30
0.0
 40
33.06378893304791
100
AcDbArc
 50
274.1625874111262
 51
40.83741258887394
  0
ARC
  5
9391
102
{ACAD_REACTORS
330
939C
102
}
330
747D
100
AcDbEntity
  8
0
100
AcDbCircle
 10
3680.136214331806
 20
223.2088158087993
 30
0.0
 40
35.46378893304791
100
AcDbArc
 50
277.7788203119047
 51
37.22117968809847
  0
ARC
  5
9392
102
{ACAD_REACTORS
330
939C
102
}
330
747D
100
AcDbEntity
  8
0
100
AcDbCircle
 10
3680.136214331806
 20
223.2088158087993
 30
0.0
 40
43.86378893304791
100
AcDbArc
 50
273.1364954470817
 51
41.86350455291399
  0
ARC
  5
9393
102
{ACAD_REACTORS
330
939C
102
}
330
747D
100
AcDbEntity
  8
0
100
AcDbCircle
 10
3680.136214331806
 20
223.2088158087993
 30
0.0
 40
41.46378893304791
100
AcDbArc
 50
276.6476737861997
 51
38.35232621379384
  0
LINE
  5
9394
102
{ACAD_REACTORS
330
939C
102
}
330
747D
100
AcDbEntity
  8
0
100
AcDbLine
 10
3651.896173287809
 20
244.6606317534054
 30
0.0
 11
3647.619895541135
 21
248.9369095000848
 31
0.0
  0
LINE
  5
9395
102
{ACAD_REACTORS
330
939C
102
}
330
747D
100
AcDbEntity
  8
0
100
AcDbLine
 10
3658.684398387199
 20
251.4488568527952
 30
0.0
 11
3654.408120640525
 21
255.7251345994746
 31
0.0
  0
LINE
  5
9396
102
{ACAD_REACTORS
330
939C
102
}
330
747D
100
AcDbEntity
  8
0
100
AcDbLine
 10
3701.588030276413
 20
251.4488568527952
 30
0.0
 11
3705.864308023087
 21
255.725134599478
 31
0.0
  0
LINE
  5
9397
102
{ACAD_REACTORS
330
939C
102
}
330
747D
100
AcDbEntity
  8
0
100
AcDbLine
 10
3708.376255375803
 20
244.6606317534054
 30
0.0
 11
3712.652533122477
 21
248.9369095000848
 31
0.0
  0
LINE
  5
9398
102
{ACAD_REACTORS
330
939C
102
}
330
747D
100
AcDbEntity
  8
0
100
AcDbLine
 10
3684.936214331801
 20
182.0237967765786
 30
0.0
 11
3684.936214331801
 21
188.0713667624081
 31
0.0
  0
LINE
  5
9399
102
{ACAD_REACTORS
330
939C
102
}
330
747D
100
AcDbEntity
  8
0
100
AcDbLine
 10
3675.33621433181
 20
182.0237967765786
 30
0.0
 11
3675.33621433181
 21
188.0713667624081
 31
0.0
  0
TEXT
  5
939A
330
747D
100
AcDbEntity
  8
0
100
AcDbText
 10
3666.709002834926
 20
230.6320916026391
 30
0.0
 40
18.0
  1
三
  7
SANWA
100
AcDbText
  0
TEXT
  5
939B
330
747D
100
AcDbEntity
  8
0
100
AcDbText
 10
3666.709002834926
 20
206.7188724106802
 30
0.0
 40
18.0
  1
和
  7
SANWA
100
AcDbText
  0
HATCH
  5
939C
330
747D
100
AcDbEntity
  8
0
100
AcDbHatch
 10
0.0
 20
0.0
 30
0.0
210
0.0
220
0.0
230
1.0
  2
SOLID
 70
     1
 71
     1
 91
        3
 92
        7
 72
     1
 73
     1
 93
        4
 10
3650.863349880541
 20
255.8757928097534
 42
0.0
 10
3658.515314664828
 20
248.2238280254648
 42
-0.3722683533228861
 10
3701.75711399877
 20
248.2238280254648
 42
0.0
 10
3709.409078783056
 20
255.8757928097577
 42
0.3824979940289509
 97
        4
330
938A
330
9386
330
938D
330
9389
 92
        7
 72
     1
 73
     1
 93
        4
 10
3712.803191332766
 20
252.4816802600629
 42
0.0
 10
3705.151226548463
 20
244.82971547577
 42
-0.6168583269098864
 10
3682.536214331804
 20
190.232246269062
 42
0.0
 10
3682.536214331804
 20
179.4107338923163
 42
0.6292889159380262
 97
        4
330
938C
330
9390
330
938F
330
9392
 92
        7
 72
     1
 73
     1
 93
        4
 10
3677.736214331808
 20
179.4107338923163
 42
0.0
 10
3677.736214331808
 20
190.232246269062
 42
-0.6168583269100154
 10
3655.121202115134
 20
244.82971547577
 42
0.0
 10
3647.469237330846
 20
252.481680260057
 42
0.6292889159379329
 97
        4
330
935D
330
938E
330
9385
330
938B
 75
     0
 76
     1
 47
0.0143554168026844
 98
        4
 10
3699.34849678398
 20
260.8853257705127
 10
3708.313957346869
 20
246.9318614530635
 10
3708.313957346869
 20
246.9318614530635
 10
3652.969453356043
 20
246.4150661606036
  0
TEXT
  5
939D
330
747D
100
AcDbEntity
  8
0
100
AcDbText
 10
3668.565957446811
 20
437.3142857142891
 30
0.0
 40
24.0
  1
Ｈ型（ｱﾝｸﾞﾙ　H=50、ｸﾞﾚｰﾁﾝｸﾞ　細目）
  7
SANWA
 72
     4
 11
3975.765957446811
 21
450.0000000000034
 31
0.0
100
AcDbText
  0
LINE
  5
939E
330
747D
100
AcDbEntity
  8
0
 48
15.0
100
AcDbLine
 10
2193.279085127323
 20
2284.622610370839
 30
0.0
 11
3193.279085127323
 21
2284.622610370839
 31
0.0
  0
LINE
  5
939F
330
747D
100
AcDbEntity
  8
0
100
AcDbLine
 10
1608.043228252795
 20
2770.909600598303
 30
0.0
 11
3026.956710549305
 21
2770.909600598303
 31
0.0
  0
LINE
  5
93A0
330
747D
100
AcDbEntity
  8
0
100
AcDbLine
 10
1608.043228252795
 20
2758.909600598304
 30
0.0
 11
3026.956710549305
 21
2758.909600598304
 31
0.0
  0
TEXT
  5
93A1
330
747D
100
AcDbEntity
  8
0
100
AcDbText
 10
1621.440635305495
 20
2793.678591020564
 30
0.0
 40
42.0
  1
マルチスリット側溝蓋 Ｈ型 ２５０用
  7
SANWA
 72
     4
 11
2143.680635305496
 21
2814.678591020564
 31
0.0
100
AcDbText
  0
DIMENSION
  5
93A2
330
747D
100
AcDbEntity
  8
寸法引出
 48
15.0
100
AcDbDimension
  2
*D157
 10
3073.279085127323
 20
2097.641599868362
 30
0.0
 11
2693.279085127323
 21
2127.641599868362
 31
0.0
 70
    32
 71
     5
 42
760.0
  3
SANWA
100
AcDbAlignedDimension
 13
2313.279085127323
 23
2184.622610370839
 33
0.0
 14
3073.279085127323
 24
2184.622610370839
 34
0.0
100
AcDbRotatedDimension
1001
ACAD
1000
DSTYLE
1002
{
1070
    40
1040
15.0
1070
    41
1040
1.5
1070
    43
1040
5.0
1070
    44
1040
0.5
1070
    75
1070
     1
1070
   140
1040
2.0
1070
   147
1040
1.0
1070
   176
1070
   256
1070
   177
1070
   256
1070
   178
1070
   256
1070
   279
1070
     1
1002
}
  0
DIMENSION
  5
93A3
330
747D
100
AcDbEntity
  8
寸法引出
 48
15.0
100
AcDbDimension
  2
*D158
 10
3193.279085127323
 20
2476.133253255152
 30
0.0
 11
2693.279085127323
 21
2506.133253255152
 31
0.0
 70
    32
 71
     5
 42
1000.0
  3
SANWA
100
AcDbAlignedDimension
 13
2193.279085127323
 23
2334.622610370839
 33
0.0
 14
3193.279085127323
 24
2334.622610370839
 34
0.0
100
AcDbRotatedDimension
1001
ACAD
1000
DSTYLE
1002
{
1070
   140
1040
2.0
1070
    40
1040
15.0
1070
   147
1040
1.0
1070
    44
1040
0.5
1070
    43
1040
5.0
1070
   178
1070
   256
1070
   177
1070
   256
1070
   176
1070
   256
1070
    41
1040
1.5
1002
}
  0
DIMENSION
  5
93A4
330
747D
100
AcDbEntity
  8
寸法引出
 48
15.0
100
AcDbDimension
  2
*D159
 10
3043.279085127323
 20
2411.340613689072
 30
0.0
 11
2693.279085127323
 21
2441.340613689072
 31
0.0
 70
    32
 71
     5
 42
700.0
  3
SANWA
100
AcDbAlignedDimension
 13
2343.279085127323
 23
2334.622610370839
 33
0.0
 14
3043.279085127323
 24
2334.622610370839
 34
0.0
100
AcDbRotatedDimension
1001
ACAD
1000
DSTYLE
1002
{
1070
    40
1040
15.0
1070
    41
1040
1.5
1070
    43
1040
5.0
1070
    44
1040
0.5
1070
    75
1070
     1
1070
   140
1040
2.0
1070
   147
1040
1.0
1070
   176
1070
   256
1070
   177
1070
   256
1070
   178
1070
   256
1070
   279
1070
     1
1002
}
  0
LINE
  5
93A5
330
747D
100
AcDbEntity
  8
0
  6
HIDDEN2
 48
15.0
100
AcDbLine
 10
2193.279085127323
 20
2269.122610370839
 30
0.0
 11
3193.279085127323
 21
2269.122610370839
 31
0.0
  0
LINE
  5
93A6
330
747D
100
AcDbEntity
  8
0
  6
HIDDEN2
 48
15.0
100
AcDbLine
 10
2193.279085127323
 20
2264.622610370839
 30
0.0
 11
3193.279085127323
 21
2264.622610370839
 31
0.0
  0
LINE
  5
93A7
330
747D
100
AcDbEntity
  8
0
  6
HIDDEN2
 48
15.0
100
AcDbLine
 10
2193.279085127322
 20
2256.622610370839
 30
0.0
 11
3193.279085127322
 21
2256.622610370839
 31
0.0
  0
LINE
  5
93A8
330
747D
100
AcDbEntity
  8
0
 48
15.0
100
AcDbLine
 10
2193.279085127323
 20
2184.622610370839
 30
0.0
 11
3193.279085127323
 21
2184.622610370839
 31
0.0
  0
LINE
  5
93A9
330
747D
100
AcDbEntity
  8
0
 48
15.0
100
AcDbLine
 10
2193.279085127323
 20
2334.622610370839
 30
0.0
 11
3193.279085127323
 21
2334.622610370839
 31
0.0
  0
DIMENSION
  5
93AA
330
747D
100
AcDbEntity
  8
寸法引出
 48
15.0
100
AcDbDimension
  2
*D160
 10
1417.838355942214
 20
2411.340613689072
 30
0.0
 11
1346.588355942214
 21
2441.340613689072
 31
0.0
 70
    32
 71
     5
 42
142.5
  3
SANWA
100
AcDbAlignedDimension
 13
1275.338355942214
 23
2284.622610370839
 33
0.0
 14
1417.838355942214
 24
2334.622610370839
 34
0.0
100
AcDbRotatedDimension
1001
ACAD
1000
DSTYLE
1002
{
1070
   140
1040
2.0
1070
    40
1040
15.0
1070
   147
1040
1.0
1070
    44
1040
0.5
1070
    43
1040
5.0
1070
   178
1070
   256
1070
   177
1070
   256
1070
   176
1070
   256
1070
    41
1040
1.5
1002
}
  0
LINE
  5
93AB
330
747D
100
AcDbEntity
  8
0
 48
15.0
100
AcDbLine
 10
2193.279085127323
 20
2184.622610370839
 30
0.0
 11
2193.279085127323
 21
2334.622610370839
 31
0.0
  0
LINE
  5
93AC
330
747D
100
AcDbEntity
  8
0
 48
15.0
100
AcDbLine
 10
1482.838355942215
 20
2334.622610370839
 30
0.0
 11
1417.838355942214
 21
2296.622610370839
 31
0.0
  0
LINE
  5
93AD
330
747D
100
AcDbEntity
  8
0
 48
15.0
100
AcDbLine
 10
1417.838355942214
 20
2334.622610370839
 30
0.0
 11
1482.838355942215
 21
2296.622610370839
 31
0.0
  0
LINE
  5
93AE
330
747D
100
AcDbEntity
  8
寸法引出
  6
ByBlock
 48
15.0
100
AcDbLine
 10
1570.338355942215
 20
2279.622610370839
 30
0.0
 11
1570.338355942215
 21
2418.840613689072
 31
0.0
  0
LINE
  5
93AF
330
747D
100
AcDbEntity
  8
寸法引出
  6
ByBlock
 48
15.0
100
AcDbLine
 10
1575.338355942214
 20
2299.622610370839
 30
0.0
 11
1575.338355942214
 21
2418.840613689072
 31
0.0
  0
DIMENSION
  5
93B0
330
747D
100
AcDbEntity
  8
寸法引出
 48
15.0
100
AcDbDimension
  2
*D161
 10
1625.338355942214
 20
2476.133253255152
 30
0.0
 11
1450.338355942214
 21
2506.133253255152
 31
0.0
 70
    32
 71
     5
 42
350.0
  3
SANWA
100
AcDbAlignedDimension
 13
1275.338355942214
 23
2284.622610370839
 33
0.0
 14
1625.338355942214
 24
2284.622610370839
 34
0.0
100
AcDbRotatedDimension
1001
ACAD
1000
DSTYLE
1002
{
1070
   140
1040
2.0
1070
    40
1040
15.0
1070
   147
1040
1.0
1070
    44
1040
0.5
1070
    43
1040
5.0
1070
   178
1070
   256
1070
   177
1070
   256
1070
   176
1070
   256
1070
    41
1040
1.5
1002
}
  0
LINE
  5
93B1
330
747D
100
AcDbEntity
  8
寸法引出
  6
ByBlock
 48
15.0
100
AcDbLine
 10
1625.338355942214
 20
2299.622610370839
 30
0.0
 11
1625.338355942214
 21
2418.840613689072
 31
0.0
  0
LINE
  5
93B2
330
747D
100
AcDbEntity
  8
寸法引出
  6
ByBlock
 48
15.0
100
AcDbLine
 10
1275.338355942214
 20
2299.622610370839
 30
0.0
 11
1275.338355942214
 21
2418.840613689072
 31
0.0
  0
MTEXT
  5
93B3
330
747D
100
AcDbEntity
  8
寸法引出
  6
ByBlock
 48
15.0
100
AcDbMText
 10
1681.027579538782
 20
2312.911008695444
 30
0.0
 40
30.0
 41
0.0
 71
     5
 72
     1
  1
\A1;20
  7
SANWA
 11
0.0000000000000001
 21
1.0
 31
0.0
 73
     1
 44
1.0
1001
ACAD
1000
MTEXTBEGIN
1070
    73
1070
     1
1070
    44
1040
1.0
1070
    74
1070
     0
1000
MTEXTEND
  0
SOLID
  5
93B4
330
747D
100
AcDbEntity
  8
寸法引出
  6
ByBlock
 48
15.0
100
AcDbTrace
 10
1707.277579538782
 20
2307.122610370839
 30
0.0
 11
1714.777579538782
 21
2307.122610370839
 31
0.0
 12
1711.027579538782
 22
2284.622610370839
 32
0.0
 13
1711.027579538782
 23
2284.622610370839
 33
0.0
  0
LINE
  5
93B5
330
747D
100
AcDbEntity
  8
0
 48
15.0
100
AcDbLine
 10
1487.338355942214
 20
2269.122610370839
 30
0.0
 11
1487.338355942214
 21
2334.622610370839
 31
0.0
  0
LINE
  5
93B6
330
747D
100
AcDbEntity
  8
0
 48
15.0
100
AcDbLine
 10
1413.338355942214
 20
2269.122610370839
 30
0.0
 11
1413.338355942214
 21
2334.622610370839
 31
0.0
  0
LINE
  5
93B7
330
747D
100
AcDbEntity
  8
0
 48
15.0
100
AcDbLine
 10
1482.838355942215
 20
2264.622610370839
 30
0.0
 11
1482.838355942215
 21
2334.622610370839
 31
0.0
  0
LINE
  5
93B8
330
747D
100
AcDbEntity
  8
0
 48
15.0
100
AcDbLine
 10
1417.838355942214
 20
2264.622610370839
 30
0.0
 11
1417.838355942214
 21
2334.622610370839
 31
0.0
  0
LEADER
  5
93B9
330
747D
100
AcDbEntity
  8
寸法引出
 48
15.0
100
AcDbLeader
  3
SANWA
 76
     2
 10
1463.574652020061
 20
1341.568402557631
 30
0.0
 10
2345.414527495826
 20
1341.568402557631
 30
0.0
1001
ACAD
1000
DSTYLE
1002
{
1070
   140
1040
2.0
1070
    40
1040
15.0
1070
   147
1040
1.0
1070
    44
1040
0.5
1070
    43
1040
5.0
1070
   178
1070
   256
1070
   177
1070
   256
1070
   176
1070
   256
1070
    41
1040
1.5
1002
}
  0
DIMENSION
  5
93BA
330
747D
100
AcDbEntity
  8
寸法引出
 48
15.0
100
AcDbDimension
  2
*D162
 10
1600.338355942215
 20
1765.289806199075
 30
0.0
 11
1525.338355942214
 21
1795.289806199075
 31
0.0
 70
    32
 71
     5
 42
150.0
  3
SANWA
100
AcDbAlignedDimension
 13
1450.338355942214
 23
1739.921515638522
 33
0.0
 14
1600.338355942215
 24
1689.921515638522
 34
0.0
100
AcDbRotatedDimension
1001
ACAD
1000
DSTYLE
1002
{
1070
   140
1040
2.0
1070
    40
1040
15.0
1070
   147
1040
1.0
1070
    44
1040
0.5
1070
    43
1040
5.0
1070
   178
1070
   256
1070
   177
1070
   256
1070
   176
1070
   256
1070
    41
1040
1.5
1002
}
  0
MTEXT
  5
93BB
330
747D
100
AcDbEntity
  8
寸法引出
  6
ByBlock
 48
15.0
100
AcDbMText
 10
1537.189484486592
 20
1861.750610962148
 30
0.0
 40
30.0
 41
0.0
 71
     5
 72
     1
  1
\A1;87.5
  7
SANWA
 73
     1
 44
1.0
1001
ACAD
1000
MTEXTBEGIN
1070
    73
1070
     1
1070
    44
1040
1.0
1070
    74
1070
     0
1000
MTEXTEND
  0
LINE
  5
93BC
330
747D
100
AcDbEntity
  8
寸法引出
  6
ByBlock
 48
15.0
100
AcDbLine
 10
1482.838355942214
 20
1831.750610962148
 30
0.0
 11
1570.338355942215
 21
1831.750610962148
 31
0.0
  0
DIMENSION
  5
93BD
330
747D
100
AcDbEntity
  8
寸法引出
 48
15.0
100
AcDbDimension
  2
*D163
 10
1482.838355942214
 20
1831.750610962148
 30
0.0
 11
1450.338355942214
 21
1861.750610962148
 31
0.0
 70
    32
 71
     5
 42
65.0
  3
SANWA
100
AcDbAlignedDimension
 13
1417.838355942214
 23
1689.921515638522
 33
0.0
 14
1482.838355942214
 24
1689.921515638522
 34
0.0
100
AcDbRotatedDimension
1001
ACAD
1000
DSTYLE
1002
{
1070
   140
1040
2.0
1070
    40
1040
15.0
1070
   147
1040
1.0
1070
    44
1040
0.5
1070
    43
1040
5.0
1070
   178
1070
   256
1070
   177
1070
   256
1070
   176
1070
   256
1070
    41
1040
1.5
1002
}
  0
LINE
  5
93BE
330
747D
100
AcDbEntity
  8
0
 48
15.0
100
AcDbLine
 10
1275.338355942214
 20
1689.921515638522
 30
0.0
 11
1625.338355942214
 21
1689.921515638522
 31
0.0
  0
DIMENSION
  5
93BF
330
747D
100
AcDbEntity
  8
寸法引出
 48
15.0
100
AcDbDimension
  2
*D164
 10
1487.838355942214
 20
2097.641599868362
 30
0.0
 11
1450.338355942214
 21
2127.641599868362
 31
0.0
 70
    32
 71
     5
 42
75.0
  3
SANWA
100
AcDbAlignedDimension
 13
1412.838355942214
 23
2193.622610370839
 33
0.0
 14
1487.838355942214
 24
2193.622610370839
 34
0.0
100
AcDbRotatedDimension
1001
ACAD
1000
DSTYLE
1002
{
1070
   140
1040
2.0
1070
    40
1040
15.0
1070
   147
1040
1.0
1070
    44
1040
0.5
1070
    43
1040
5.0
1070
   178
1070
   256
1070
   177
1070
   256
1070
   176
1070
   256
1070
    41
1040
1.5
1002
}
  0
DIMENSION
  5
93C0
330
747D
100
AcDbEntity
  8
寸法引出
 48
15.0
100
AcDbDimension
  2
*D165
 10
1625.338355942214
 20
2030.282916378135
 30
0.0
 11
1561.838355942214
 21
2060.282916378135
 31
0.0
 70
    32
 71
     5
 42
127.0
  3
SANWA
100
AcDbAlignedDimension
 13
1498.338355942214
 23
2184.622610370839
 33
0.0
 14
1625.338355942214
 24
2184.622610370839
 34
0.0
100
AcDbRotatedDimension
1001
ACAD
1000
DSTYLE
1002
{
1070
    40
1040
15.0
1070
    41
1040
1.5
1070
    43
1040
5.0
1070
    44
1040
0.5
1070
    75
1070
     1
1070
   140
1040
2.0
1070
   147
1040
1.0
1070
   176
1070
   256
1070
   177
1070
   256
1070
   178
1070
   256
1070
   279
1070
     1
1002
}
  0
LINE
  5
93C1
330
747D
100
AcDbEntity
  8
0
 48
15.0
100
AcDbLine
 10
1498.338355942214
 20
2184.622610370839
 30
0.0
 11
1625.338355942214
 21
2184.622610370839
 31
0.0
  0
LINE
  5
93C2
330
747D
100
AcDbEntity
  8
0
 48
15.0
100
AcDbLine
 10
1497.838355942215
 20
2276.122610370839
 30
0.0
 11
1537.838355942215
 21
2276.122610370839
 31
0.0
  0
LINE
  5
93C3
330
747D
100
AcDbEntity
  8
0
 48
15.0
100
AcDbLine
 10
1487.338355942214
 20
2269.122610370839
 30
0.0
 11
1552.838355942214
 21
2269.122610370839
 31
0.0
  0
LINE
  5
93C4
330
747D
100
AcDbEntity
  8
0
 48
15.0
100
AcDbLine
 10
1330.338355942214
 20
2264.622610370839
 30
0.0
 11
1570.338355942215
 21
2264.622610370839
 31
0.0
  0
DIMENSION
  5
93C5
330
747D
100
AcDbEntity
  8
寸法引出
 48
15.0
100
AcDbDimension
  2
*D166
 10
1417.838355942214
 20
1831.750610962148
 30
0.0
 11
1346.588355942214
 21
1861.750610962148
 31
0.0
 70
    32
 71
     5
 42
142.5
  3
SANWA
100
AcDbAlignedDimension
 13
1275.338355942214
 23
1689.921515638522
 33
0.0
 14
1417.838355942214
 24
1689.921515638522
 34
0.0
100
AcDbRotatedDimension
1001
ACAD
1000
DSTYLE
1002
{
1070
   140
1040
2.0
1070
    40
1040
15.0
1070
   147
1040
1.0
1070
    44
1040
0.5
1070
    43
1040
5.0
1070
   178
1070
   256
1070
   177
1070
   256
1070
   176
1070
   256
1070
    41
1040
1.5
1002
}
  0
LINE
  5
93C6
330
747D
100
AcDbEntity
  8
寸法引出
  6
ByBlock
 48
15.0
100
AcDbLine
 10
1482.838355942214
 20
1704.921515638522
 30
0.0
 11
1482.838355942214
 21
1839.250610962148
 31
0.0
  0
LINE
  5
93C7
330
747D
100
AcDbEntity
  8
寸法引出
  6
ByBlock
 48
15.0
100
AcDbLine
 10
1417.838355942214
 20
1704.921515638522
 30
0.0
 11
1417.838355942214
 21
1839.250610962148
 31
0.0
  0
DIMENSION
  5
93C8
330
747D
100
AcDbEntity
  8
寸法引出
 48
15.0
100
AcDbDimension
  2
*D167
 10
1450.338355942214
 20
1765.289806199075
 30
0.0
 11
1375.338355942214
 21
1795.289806199075
 31
0.0
 70
    32
 71
     5
 42
150.0
  3
SANWA
100
AcDbAlignedDimension
 13
1300.338355942214
 23
1689.921515638522
 33
0.0
 14
1450.338355942214
 24
1739.921515638522
 34
0.0
100
AcDbRotatedDimension
1001
ACAD
1000
DSTYLE
1002
{
1070
    40
1040
15.0
1070
    41
1040
1.5
1070
    43
1040
5.0
1070
    44
1040
0.5
1070
    75
1070
     1
1070
   140
1040
2.0
1070
   147
1040
1.0
1070
   176
1070
   256
1070
   177
1070
   256
1070
   178
1070
   256
1070
   279
1070
     1
1002
}
  0
DIMENSION
  5
93C9
330
747D
100
AcDbEntity
  8
寸法引出
 48
15.0
100
AcDbDimension
  2
*D168
 10
1300.338355942214
 20
1765.289806199075
 30
0.0
 11
1287.838355942214
 21
1795.289806199075
 31
0.0
 70
    32
 71
     5
 42
25.0
  3
SANWA
100
AcDbAlignedDimension
 13
1275.338355942214
 23
1689.921515638522
 33
0.0
 14
1300.338355942214
 24
1689.921515638522
 34
0.0
100
AcDbRotatedDimension
1001
ACAD
1000
DSTYLE
1002
{
1070
   140
1040
2.0
1070
    40
1040
15.0
1070
   147
1040
1.0
1070
    44
1040
0.5
1070
    43
1040
5.0
1070
   178
1070
   256
1070
   177
1070
   256
1070
   176
1070
   256
1070
    41
1040
1.5
1002
}
  0
MTEXT
  5
93CA
330
747D
100
AcDbEntity
  8
寸法引出
  6
ByBlock
 48
15.0
100
AcDbMText
 10
961.6715242864275
 20
1478.343273430495
 30
0.0
 40
30.0
 41
0.0
 71
     5
 72
     1
  1
ﾛｯｸﾋﾟﾝ用ｲﾝｻｰﾄ
  7
SANWA
 73
     1
 44
1.0
1001
ACAD
1000
MTEXTBEGIN
1070
    73
1070
     1
1070
    44
1040
1.0
1070
    74
1070
     0
1000
MTEXTEND
  0
LEADER
  5
93CB
330
747D
100
AcDbEntity
  8
寸法引出
 48
15.0
100
AcDbLeader
  3
SANWA
 76
     3
 10
1300.338355942214
 20
1569.921515638522
 30
0.0
 10
1131.926028061936
 20
1454.067205727982
 30
0.0
 10
811.4712691974164
 20
1454.067205727982
 30
0.0
1001
ACAD
1000
DSTYLE
1002
{
1070
   140
1040
2.0
1070
    40
1040
15.0
1070
   147
1040
1.0
1070
    44
1040
0.5
1070
    43
1040
5.0
1070
   178
1070
   256
1070
   177
1070
   256
1070
   176
1070
   256
1070
    41
1040
1.5
1002
}
  0
CIRCLE
  5
93CC
330
747D
100
AcDbEntity
  8
0
 48
15.0
100
AcDbCircle
 10
1300.338355942214
 20
1569.921515638522
 30
0.0
 40
10.0
  0
DIMENSION
  5
93CD
330
747D
100
AcDbEntity
  8
寸法引出
 48
15.0
100
AcDbDimension
  2
*D169
 10
1183.824237354873
 20
1689.921515638522
 30
0.0
 11
1153.824237354872
 21
1629.921515638522
 31
0.0
 70
    32
 71
     5
 42
120.0
  3
SANWA
100
AcDbAlignedDimension
 13
1275.338355942214
 23
1569.921515638522
 33
0.0
 14
1275.338355942214
 24
1689.921515638522
 34
0.0
 50
90.0
100
AcDbRotatedDimension
1001
ACAD
1000
DSTYLE
1002
{
1070
    40
1040
15.0
1070
    41
1040
1.5
1070
    43
1040
5.0
1070
    44
1040
0.5
1070
    75
1070
     1
1070
   140
1040
2.0
1070
   147
1040
1.0
1070
   176
1070
   256
1070
   177
1070
   256
1070
   178
1070
   256
1070
   279
1070
     1
1002
}
  0
POINT
  5
93CE
330
747D
100
AcDbEntity
  8
DEFPOINTS
  6
ByBlock
 62
     0
 48
15.0
100
AcDbPoint
 10
1275.338355942214
 20
1689.921515638522
 30
0.0
  0
POINT
  5
93CF
330
747D
100
AcDbEntity
  8
DEFPOINTS
  6
ByBlock
 62
     0
 48
15.0
100
AcDbPoint
 10
1482.838355942214
 20
1689.921515638522
 30
0.0
  0
POINT
  5
93D0
330
747D
100
AcDbEntity
  8
DEFPOINTS
  6
ByBlock
 62
     0
 48
15.0
100
AcDbPoint
 10
1417.838355942214
 20
1689.921515638522
 30
0.0
  0
POINT
  5
93D1
330
747D
100
AcDbEntity
  8
DEFPOINTS
  6
ByBlock
 62
     0
 48
15.0
100
AcDbPoint
 10
1330.338355942214
 20
1689.921515638522
 30
0.0
  0
POINT
  5
93D2
330
747D
100
AcDbEntity
  8
DEFPOINTS
  6
ByBlock
 62
     0
 48
15.0
100
AcDbPoint
 10
1330.338355942214
 20
1689.921515638522
 30
0.0
  0
POINT
  5
93D3
330
747D
100
AcDbEntity
  8
DEFPOINTS
  6
ByBlock
 62
     0
 48
15.0
100
AcDbPoint
 10
1325.338355942214
 20
1689.921515638522
 30
0.0
  0
POINT
  5
93D4
330
747D
100
AcDbEntity
  8
DEFPOINTS
  6
ByBlock
 62
     0
 48
15.0
100
AcDbPoint
 10
1325.338355942214
 20
1689.921515638522
 30
0.0
  0
CIRCLE
  5
93D5
330
747D
100
AcDbEntity
  8
0
 48
15.0
100
AcDbCircle
 10
1382.838355942215
 20
1539.921515638522
 30
0.0
 40
11.0
  0
MTEXT
  5
93D6
330
747D
100
AcDbEntity
  8
寸法引出
  6
ByBlock
 48
15.0
100
AcDbMText
 10
1141.733647793842
 20
2268.898678073351
 30
0.0
 40
30.0
 41
0.0
 71
     5
 72
     1
  1
M12ｲﾝｻｰﾄ
  7
SANWA
 73
     1
 44
1.0
1001
ACAD
1000
MTEXTBEGIN
1070
    73
1070
     1
1070
    44
1040
1.0
1070
    74
1070
     0
1000
MTEXTEND
  0
LEADER
  5
93D7
330
747D
100
AcDbEntity
  8
寸法引出
 48
15.0
100
AcDbLeader
  3
SANWA
 76
     2
 10
1372.838355942215
 20
2244.622610370839
 30
0.0
 10
1049.162440437141
 20
2244.622610370839
 30
0.0
1001
ACAD
1000
DSTYLE
1002
{
1070
   140
1040
2.0
1070
    40
1040
15.0
1070
   147
1040
1.0
1070
    44
1040
0.5
1070
    43
1040
5.0
1070
   178
1070
   256
1070
   177
1070
   256
1070
   176
1070
   256
1070
    41
1040
1.5
1002
}
  0
SOLID
  5
93D8
330
747D
100
AcDbEntity
  8
寸法引出
  6
ByBlock
 48
15.0
100
AcDbTrace
 10
1460.338355942214
 20
1835.500610962148
 30
0.0
 11
1460.338355942214
 21
1828.000610962148
 31
0.0
 12
1482.838355942214
 22
1831.750610962148
 32
0.0
 13
1482.838355942214
 23
1831.750610962148
 33
0.0
  0
DIMENSION
  5
93D9
330
747D
100
AcDbEntity
  8
寸法引出
 48
15.0
100
AcDbDimension
  2
*D170
 10
1402.338355942214
 20
2030.282916378135
 30
0.0
 11
1338.838355942214
 21
2060.282916378135
 31
0.0
 70
    32
 71
     5
 42
127.0
  3
SANWA
100
AcDbAlignedDimension
 13
1275.338355942214
 23
2184.622610370839
 33
0.0
 14
1402.338355942214
 24
2184.622610370839
 34
0.0
100
AcDbRotatedDimension
1001
ACAD
1000
DSTYLE
1002
{
1070
   140
1040
2.0
1070
    40
1040
15.0
1070
   147
1040
1.0
1070
    44
1040
0.5
1070
    43
1040
5.0
1070
   178
1070
   256
1070
   177
1070
   256
1070
   176
1070
   256
1070
    41
1040
1.5
1002
}
  0
DIMENSION
  5
93DA
330
747D
100
AcDbEntity
  8
寸法引出
 48
15.0
100
AcDbDimension
  2
*D171
 10
1300.338355942214
 20
2097.641599868362
 30
0.0
 11
1287.838355942214
 21
2127.641599868362
 31
0.0
 70
    32
 71
     5
 42
25.0
  3
SANWA
100
AcDbAlignedDimension
 13
1275.338355942214
 23
2184.622610370839
 33
0.0
 14
1300.338355942214
 24
2184.622610370839
 34
0.0
100
AcDbRotatedDimension
1001
ACAD
1000
DSTYLE
1002
{
1070
   140
1040
2.0
1070
    40
1040
15.0
1070
   147
1040
1.0
1070
    44
1040
0.5
1070
    43
1040
5.0
1070
   178
1070
   256
1070
   177
1070
   256
1070
   176
1070
   256
1070
    41
1040
1.5
1002
}
  0
LINE
  5
93DB
330
747D
100
AcDbEntity
  8
0
  6
HIDDEN2
 48
5.0
100
AcDbLine
 10
1290.338355942214
 20
2217.622610370839
 30
0.0
 11
1310.338355942214
 21
2217.622610370839
 31
0.0
  0
LINE
  5
93DC
330
747D
100
AcDbEntity
  8
0
 48
15.0
100
AcDbLine
 10
1325.338355942214
 20
2284.622610370839
 30
0.0
 11
1275.338355942214
 21
2284.622610370839
 31
0.0
  0
LINE
  5
93DD
330
747D
100
AcDbEntity
  8
0
 48
15.0
100
AcDbLine
 10
1275.338355942214
 20
2184.622610370839
 30
0.0
 11
1402.338355942214
 21
2184.622610370839
 31
0.0
  0
POINT
  5
93DE
330
747D
100
AcDbEntity
  8
DEFPOINTS
  6
ByBlock
 62
     0
 48
15.0
100
AcDbPoint
 10
1275.338355942214
 20
2284.622610370839
 30
0.0
  0
POINT
  5
93DF
330
747D
100
AcDbEntity
  8
DEFPOINTS
  6
ByBlock
 62
     0
 48
15.0
100
AcDbPoint
 10
1275.338355942214
 20
2246.622610370839
 30
0.0
  0
POINT
  5
93E0
330
747D
100
AcDbEntity
  8
DEFPOINTS
  6
ByBlock
 62
     0
 48
15.0
100
AcDbPoint
 10
1275.338355942214
 20
2208.622610370839
 30
0.0
  0
POINT
  5
93E1
330
747D
100
AcDbEntity
  8
DEFPOINTS
  6
ByBlock
 62
     0
 48
15.0
100
AcDbPoint
 10
1275.338355942214
 20
2184.622610370839
 30
0.0
  0
POINT
  5
93E2
330
747D
100
AcDbEntity
  8
DEFPOINTS
  6
ByBlock
 62
     0
 48
15.0
100
AcDbPoint
 10
1275.338355942214
 20
2284.622610370839
 30
0.0
  0
LINE
  5
93E3
330
747D
100
AcDbEntity
  8
0
  6
HIDDEN2
 48
5.0
100
AcDbLine
 10
1290.338355942214
 20
2217.622610370839
 30
0.0
 11
1290.338355942214
 21
2184.622610370839
 31
0.0
  0
LINE
  5
93E4
330
747D
100
AcDbEntity
  8
0
 48
15.0
100
AcDbLine
 10
1275.338355942214
 20
2284.622610370839
 30
0.0
 11
1275.338355942214
 21
2184.622610370839
 31
0.0
  0
LINE
  5
93E5
330
747D
100
AcDbEntity
  8
0
 48
15.0
100
AcDbLine
 10
1480.338355942214
 20
2256.622610370839
 30
0.0
 11
1482.838355942215
 21
2264.622610370839
 31
0.0
  0
LINE
  5
93E6
330
747D
100
AcDbEntity
  8
0
 48
15.0
100
AcDbLine
 10
1417.838355942214
 20
2264.622610370839
 30
0.0
 11
1420.338355942214
 21
2256.622610370839
 31
0.0
  0
LINE
  5
93E7
330
747D
100
AcDbEntity
  8
0
  6
HIDDEN2
 48
5.0
100
AcDbLine
 10
1392.838355942215
 20
2264.622610370839
 30
0.0
 11
1392.838355942215
 21
2224.622610370839
 31
0.0
  0
LINE
  5
93E8
330
747D
100
AcDbEntity
  8
0
  6
HIDDEN2
 48
5.0
100
AcDbLine
 10
1372.838355942215
 20
2264.622610370839
 30
0.0
 11
1372.838355942215
 21
2224.622610370839
 31
0.0
  0
LINE
  5
93E9
330
747D
100
AcDbEntity
  8
0
  6
HIDDEN2
 48
5.0
100
AcDbLine
 10
1372.838355942215
 20
2224.622610370839
 30
0.0
 11
1392.838355942215
 21
2224.622610370839
 31
0.0
  0
POINT
  5
93EA
330
747D
100
AcDbEntity
  8
DEFPOINTS
  6
ByBlock
 62
     0
 48
15.0
100
AcDbPoint
 10
1330.338355942214
 20
2264.622610370839
 30
0.0
  0
POINT
  5
93EB
330
747D
100
AcDbEntity
  8
DEFPOINTS
  6
ByBlock
 62
     0
 48
15.0
100
AcDbPoint
 10
1325.338355942214
 20
2284.622610370839
 30
0.0
  0
POINT
  5
93EC
330
747D
100
AcDbEntity
  8
DEFPOINTS
  6
ByBlock
 62
     0
 48
15.0
100
AcDbPoint
 10
1330.338355942214
 20
2264.622610370839
 30
0.0
  0
POINT
  5
93ED
330
747D
100
AcDbEntity
  8
寸法引出
  6
ByBlock
 62
     0
 48
15.0
100
AcDbPoint
 10
1462.646135641275
 20
2184.622610370839
 30
0.0
  0
POINT
  5
93EE
330
747D
100
AcDbEntity
  8
DEFPOINTS
  6
ByBlock
 62
     0
 48
15.0
100
AcDbPoint
 10
1498.338355942214
 20
2184.622610370839
 30
0.0
  0
POINT
  5
93EF
330
747D
100
AcDbEntity
  8
DEFPOINTS
  6
ByBlock
 62
     0
 48
15.0
100
AcDbPoint
 10
1496.521048249906
 20
2193.622610370839
 30
0.0
  0
MTEXT
  5
93F0
330
747D
100
AcDbEntity
  8
寸法引出
  6
ByBlock
 48
15.0
100
AcDbMText
 10
1432.646135641275
 20
2169.877272626637
 30
0.0
 40
30.0
 41
0.0
 71
     5
 72
     1
  1
\A1;9
  7
SANWA
 11
0.0000000000000001
 21
1.0
 31
0.0
 73
     1
 44
1.0
1001
ACAD
1000
MTEXTBEGIN
1070
    73
1070
     1
1070
    44
1040
1.0
1070
    74
1070
     0
1000
MTEXTEND
  0
SOLID
  5
93F1
330
747D
100
AcDbEntity
  8
寸法引出
  6
ByBlock
 48
15.0
100
AcDbTrace
 10
1458.896135641276
 20
2162.122610370839
 30
0.0
 11
1466.396135641275
 21
2162.122610370839
 31
0.0
 12
1462.646135641275
 22
2184.622610370839
 32
0.0
 13
1462.646135641275
 23
2184.622610370839
 33
0.0
  0
SOLID
  5
93F2
330
747D
100
AcDbEntity
  8
寸法引出
  6
ByBlock
 48
15.0
100
AcDbTrace
 10
1458.896135641276
 20
2216.122610370839
 30
0.0
 11
1466.396135641275
 21
2216.122610370839
 31
0.0
 12
1462.646135641275
 22
2193.622610370839
 32
0.0
 13
1462.646135641275
 23
2193.622610370839
 33
0.0
  0
LINE
  5
93F3
330
747D
100
AcDbEntity
  8
寸法引出
  6
ByBlock
 48
15.0
100
AcDbLine
 10
1462.646135641275
 20
2193.622610370839
 30
0.0
 11
1462.646135641275
 21
2184.622610370839
 31
0.0
  0
LINE
  5
93F4
330
747D
100
AcDbEntity
  8
寸法引出
  6
ByBlock
 48
15.0
100
AcDbLine
 10
1462.646135641275
 20
2162.122610370839
 30
0.0
 11
1462.646135641275
 21
2139.622610370839
 31
0.0
  0
LINE
  5
93F5
330
747D
100
AcDbEntity
  8
寸法引出
  6
ByBlock
 48
15.0
100
AcDbLine
 10
1462.646135641275
 20
2216.122610370839
 30
0.0
 11
1462.646135641275
 21
2238.622610370839
 31
0.0
  0
LINE
  5
93F6
330
747D
100
AcDbEntity
  8
寸法引出
  6
ByBlock
 48
15.0
100
AcDbLine
 10
1483.338355942214
 20
2184.622610370839
 30
0.0
 11
1455.146135641276
 21
2184.622610370839
 31
0.0
  0
LINE
  5
93F7
330
747D
100
AcDbEntity
  8
0
  6
ByBlock
 48
15.0
100
AcDbLine
 10
1481.521048249906
 20
2193.622610370839
 30
0.0
 11
1455.146135641276
 21
2193.622610370839
 31
0.0
  0
DIMENSION
  5
93F8
330
747D
100
AcDbEntity
  8
寸法引出
 48
15.0
100
AcDbDimension
  2
*D172
 10
1498.338355942214
 20
2030.282916378135
 30
0.0
 11
1450.338355942214
 21
2060.282916378135
 31
0.0
 70
    32
 71
     5
 42
96.0
  3
SANWA
100
AcDbAlignedDimension
 13
1402.338355942214
 23
2184.622610370839
 33
0.0
 14
1498.338355942214
 24
2184.622610370839
 34
0.0
100
AcDbRotatedDimension
1001
ACAD
1000
DSTYLE
1002
{
1070
    40
1040
15.0
1070
    41
1040
1.5
1070
    43
1040
5.0
1070
    44
1040
0.5
1070
    75
1070
     1
1070
   140
1040
2.0
1070
   147
1040
1.0
1070
   176
1070
   256
1070
   177
1070
   256
1070
   178
1070
   256
1070
   279
1070
     1
1002
}
  0
POINT
  5
93F9
330
747D
100
AcDbEntity
  8
DEFPOINTS
  6
ByBlock
 62
     0
 48
15.0
100
AcDbPoint
 10
1325.338355942214
 20
2284.622610370839
 30
0.0
  0
LINE
  5
93FA
330
747D
100
AcDbEntity
  8
0
  6
HIDDEN2
 48
5.0
100
AcDbLine
 10
1310.338355942214
 20
2217.622610370839
 30
0.0
 11
1310.338355942214
 21
2184.622610370839
 31
0.0
  0
LINE
  5
93FB
330
747D
100
AcDbEntity
  8
0
 48
15.0
100
AcDbLine
 10
1487.838355942214
 20
2256.622610370839
 30
0.0
 11
1498.338355942214
 21
2184.622610370839
 31
0.0
  0
LINE
  5
93FC
330
747D
100
AcDbEntity
  8
0
 48
15.0
100
AcDbLine
 10
1412.838355942214
 20
2256.622610370839
 30
0.0
 11
1402.338355942214
 21
2184.622610370839
 31
0.0
  0
LINE
  5
93FD
330
747D
100
AcDbEntity
  8
0
 48
15.0
100
AcDbLine
 10
1412.838355942214
 20
2256.622610370839
 30
0.0
 11
1487.838355942214
 21
2256.622610370839
 31
0.0
  0
LINE
  5
93FE
330
747D
100
AcDbEntity
  8
0
 48
15.0
100
AcDbLine
 10
1404.155663634522
 20
2193.622610370839
 30
0.0
 11
1496.521048249906
 21
2193.622610370839
 31
0.0
  0
LINE
  5
93FF
330
747D
100
AcDbEntity
  8
0
  6
CENTER2
100
AcDbLine
 10
1497.838355942215
 20
2269.122610370839
 30
0.0
 11
1497.838355942215
 21
2276.122610370839
 31
0.0
  0
LINE
  5
9400
330
747D
100
AcDbEntity
  8
0
  6
CENTER2
100
AcDbLine
 10
1389.838355942216
 20
2269.122610370838
 30
0.0
 11
1389.838355942215
 21
2276.122610370839
 31
0.0
  0
LINE
  5
9401
330
747D
100
AcDbEntity
  8
0
  6
CENTER2
100
AcDbLine
 10
1375.838355942215
 20
2269.122610370839
 30
0.0
 11
1375.838355942215
 21
2276.122610370839
 31
0.0
  0
LINE
  5
9402
330
747D
100
AcDbEntity
  8
0
  6
CENTER2
100
AcDbLine
 10
1402.838355942216
 20
2269.122610370839
 30
0.0
 11
1402.838355942215
 21
2276.122610370839
 31
0.0
  0
LINE
  5
9403
330
747D
100
AcDbEntity
  8
0
  6
CENTER2
100
AcDbLine
 10
1362.838355942215
 20
2269.122610370839
 30
0.0
 11
1362.838355942215
 21
2276.122610370839
 31
0.0
  0
LINE
  5
9404
330
747D
100
AcDbEntity
  8
0
 48
15.0
100
AcDbLine
 10
1362.838355942215
 20
2276.122610370839
 30
0.0
 11
1402.838355942215
 21
2276.122610370839
 31
0.0
  0
LINE
  5
9405
330
747D
100
AcDbEntity
  8
0
 48
15.0
100
AcDbLine
 10
1397.838355942214
 20
2264.622610370839
 30
0.0
 11
1397.838355942215
 21
2269.122610370839
 31
0.0
  0
LINE
  5
9406
330
747D
100
AcDbEntity
  8
0
 48
15.0
100
AcDbLine
 10
1367.838355942214
 20
2264.622610370839
 30
0.0
 11
1367.838355942214
 21
2269.122610370839
 31
0.0
  0
LINE
  5
9407
330
747D
100
AcDbEntity
  8
0
  6
CENTER2
100
AcDbLine
 10
1382.838355942215
 20
2254.622610370839
 30
0.0
 11
1382.838355942215
 21
2279.122610370839
 31
0.0
  0
LINE
  5
9408
330
747D
100
AcDbEntity
  8
0
 48
15.0
100
AcDbLine
 10
1417.838355942214
 20
2296.622610370839
 30
0.0
 11
1482.838355942215
 21
2296.622610370839
 31
0.0
  0
LINE
  5
9409
330
747D
100
AcDbEntity
  8
0
 48
15.0
100
AcDbLine
 10
1347.838355942215
 20
2264.622610370839
 30
0.0
 11
1347.838355942214
 21
2269.122610370839
 31
0.0
  0
LINE
  5
940A
330
747D
100
AcDbEntity
  8
0
 48
15.0
100
AcDbLine
 10
1347.838355942214
 20
2269.122610370839
 30
0.0
 11
1413.338355942214
 21
2269.122610370839
 31
0.0
  0
LINE
  5
940B
330
747D
100
AcDbEntity
  8
0
 48
15.0
100
AcDbLine
 10
1325.338355942214
 20
2284.622610370839
 30
0.0
 11
1330.338355942214
 21
2264.622610370839
 31
0.0
  0
DIMENSION
  5
940C
330
747D
100
AcDbEntity
  8
寸法引出
 48
15.0
100
AcDbDimension
  2
*D173
 10
1625.338355942214
 20
1765.289806199075
 30
0.0
 11
1612.838355942215
 21
1795.289806199075
 31
0.0
 70
    32
 71
     5
 42
25.0
  3
SANWA
100
AcDbAlignedDimension
 13
1600.338355942215
 23
1689.921515638522
 33
0.0
 14
1625.338355942214
 24
1689.921515638522
 34
0.0
100
AcDbRotatedDimension
1001
ACAD
1000
DSTYLE
1002
{
1070
    40
1040
15.0
1070
    41
1040
1.5
1070
    43
1040
5.0
1070
    44
1040
0.5
1070
    75
1070
     1
1070
   140
1040
2.0
1070
   147
1040
1.0
1070
   176
1070
   256
1070
   177
1070
   256
1070
   178
1070
   256
1070
   279
1070
     1
1002
}
  0
LINE
  5
940D
330
747D
100
AcDbEntity
  8
寸法引出
  6
ByBlock
 48
15.0
100
AcDbLine
 10
1625.338355942214
 20
1704.921515638522
 30
0.0
 11
1625.338355942214
 21
1839.250610962148
 31
0.0
  0
LINE
  5
940E
330
747D
100
AcDbEntity
  8
寸法引出
  6
ByBlock
 48
15.0
100
AcDbLine
 10
1575.338355942214
 20
1704.921515638522
 30
0.0
 11
1575.338355942214
 21
1839.250610962148
 31
0.0
  0
LINE
  5
940F
330
747D
100
AcDbEntity
  8
寸法引出
  6
ByBlock
 48
15.0
100
AcDbLine
 10
1570.338355942215
 20
1704.921515638522
 30
0.0
 11
1570.338355942215
 21
1839.250610962148
 31
0.0
  0
MTEXT
  5
9410
330
747D
100
AcDbEntity
  8
寸法引出
  6
ByBlock
 48
15.0
100
AcDbMText
 10
2061.207037087867
 20
1365.844470260143
 30
0.0
 40
30.0
 41
0.0
 71
     5
 72
     1
  1
ｸﾞﾚｰﾁﾝｸﾞ 65×38×998（細目）
  7
SANWA
 73
     1
 44
1.0
1001
ACAD
1000
MTEXTBEGIN
1070
    73
1070
     1
1070
    44
1040
1.0
1070
    74
1070
     0
1000
MTEXTEND
  0
POINT
  5
9411
330
747D
100
AcDbEntity
  8
DEFPOINTS
  6
ByBlock
 62
     0
 48
15.0
100
AcDbPoint
 10
1625.338355942214
 20
1689.921515638522
 30
0.0
  0
POINT
  5
9412
330
747D
100
AcDbEntity
  8
DEFPOINTS
  6
ByBlock
 62
     0
 48
15.0
100
AcDbPoint
 10
1575.338355942214
 20
1689.921515638522
 30
0.0
  0
POINT
  5
9413
330
747D
100
AcDbEntity
  8
DEFPOINTS
  6
ByBlock
 62
     0
 48
15.0
100
AcDbPoint
 10
1575.338355942214
 20
1689.921515638522
 30
0.0
  0
POINT
  5
9414
330
747D
100
AcDbEntity
  8
DEFPOINTS
  6
ByBlock
 62
     0
 48
15.0
100
AcDbPoint
 10
1570.338355942215
 20
1689.921515638522
 30
0.0
  0
POINT
  5
9415
330
747D
100
AcDbEntity
  8
DEFPOINTS
  6
ByBlock
 62
     0
 48
15.0
100
AcDbPoint
 10
1570.338355942215
 20
1689.921515638522
 30
0.0
  0
CIRCLE
  5
9416
330
747D
100
AcDbEntity
  8
0
 48
15.0
100
AcDbCircle
 10
1517.838355942214
 20
1539.921515638522
 30
0.0
 40
11.0
  0
CIRCLE
  5
9417
330
747D
100
AcDbEntity
  8
0
 48
15.0
100
AcDbCircle
 10
1600.338355942215
 20
1569.921515638522
 30
0.0
 40
10.0
  0
POINT
  5
9418
330
747D
100
AcDbEntity
  8
寸法引出
  6
ByBlock
 62
     0
 48
15.0
100
AcDbPoint
 10
1625.338355942214
 20
1831.750610962148
 30
0.0
  0
MTEXT
  5
9419
330
747D
100
AcDbEntity
  8
寸法引出
  6
ByBlock
 48
15.0
100
AcDbMText
 10
1652.018833517555
 20
1861.750610962148
 30
0.0
 40
30.0
 41
0.0
 71
     5
 72
     1
  1
\A1;50
  7
SANWA
 73
     1
 44
1.0
1001
ACAD
1000
MTEXTBEGIN
1070
    73
1070
     1
1070
    44
1040
1.0
1070
    74
1070
     0
1000
MTEXTEND
  0
SOLID
  5
941A
330
747D
100
AcDbEntity
  8
寸法引出
  6
ByBlock
 48
15.0
100
AcDbTrace
 10
1647.838355942214
 20
1835.500610962148
 30
0.0
 11
1647.838355942214
 21
1828.000610962148
 31
0.0
 12
1625.338355942214
 22
1831.750610962148
 32
0.0
 13
1625.338355942214
 23
1831.750610962148
 33
0.0
  0
SOLID
  5
941B
330
747D
100
AcDbEntity
  8
寸法引出
  6
ByBlock
 48
15.0
100
AcDbTrace
 10
1552.838355942214
 20
1835.500610962148
 30
0.0
 11
1552.838355942214
 21
1828.000610962148
 31
0.0
 12
1575.338355942214
 22
1831.750610962148
 32
0.0
 13
1575.338355942214
 23
1831.750610962148
 33
0.0
  0
LINE
  5
941C
330
747D
100
AcDbEntity
  8
寸法引出
  6
ByBlock
 48
15.0
100
AcDbLine
 10
1575.338355942214
 20
1831.750610962148
 30
0.0
 11
1625.338355942214
 21
1831.750610962148
 31
0.0
  0
LINE
  5
941D
330
747D
100
AcDbEntity
  8
寸法引出
  6
ByBlock
 48
15.0
100
AcDbLine
 10
1647.838355942214
 20
1831.750610962148
 30
0.0
 11
1670.338355942214
 21
1831.750610962148
 31
0.0
  0
LINE
  5
941E
330
747D
100
AcDbEntity
  8
寸法引出
  6
ByBlock
 48
15.0
100
AcDbLine
 10
1552.838355942214
 20
1831.750610962148
 30
0.0
 11
1530.338355942214
 21
1831.750610962148
 31
0.0
  0
POINT
  5
941F
330
747D
100
AcDbEntity
  8
寸法引出
  6
ByBlock
 62
     0
 48
15.0
100
AcDbPoint
 10
1575.338355942214
 20
1831.750610962148
 30
0.0
  0
MTEXT
  5
9420
330
747D
100
AcDbEntity
  8
寸法引出
  6
ByBlock
 48
15.0
100
AcDbMText
 10
1572.838355942214
 20
1893.522776135173
 30
0.0
 40
30.0
 41
0.0
 71
     5
 72
     1
  1
\A1;5
  7
SANWA
 73
     1
 44
1.0
1001
ACAD
1000
MTEXTBEGIN
1070
    73
1070
     1
1070
    44
1040
1.0
1070
    74
1070
     0
1000
MTEXTEND
  0
SOLID
  5
9421
330
747D
100
AcDbEntity
  8
寸法引出
  6
ByBlock
 48
15.0
100
AcDbTrace
 10
1597.838355942214
 20
1835.500610962148
 30
0.0
 11
1597.838355942214
 21
1828.000610962148
 31
0.0
 12
1575.338355942214
 22
1831.750610962148
 32
0.0
 13
1575.338355942214
 23
1831.750610962148
 33
0.0
  0
SOLID
  5
9422
330
747D
100
AcDbEntity
  8
寸法引出
  6
ByBlock
 48
15.0
100
AcDbTrace
 10
1547.838355942214
 20
1835.500610962148
 30
0.0
 11
1547.838355942214
 21
1828.000610962148
 31
0.0
 12
1570.338355942215
 22
1831.750610962148
 32
0.0
 13
1570.338355942215
 23
1831.750610962148
 33
0.0
  0
LINE
  5
9423
330
747D
100
AcDbEntity
  8
寸法引出
  6
ByBlock
 48
15.0
100
AcDbLine
 10
1570.338355942215
 20
1831.750610962148
 30
0.0
 11
1575.338355942214
 21
1831.750610962148
 31
0.0
  0
LINE
  5
9424
330
747D
100
AcDbEntity
  8
寸法引出
  6
ByBlock
 48
15.0
100
AcDbLine
 10
1597.838355942214
 20
1831.750610962148
 30
0.0
 11
1620.338355942214
 21
1831.750610962148
 31
0.0
  0
LINE
  5
9425
330
747D
100
AcDbEntity
  8
寸法引出
  6
ByBlock
 48
15.0
100
AcDbLine
 10
1547.838355942214
 20
1831.750610962148
 30
0.0
 11
1525.338355942214
 21
1831.750610962148
 31
0.0
  0
POINT
  5
9426
330
747D
100
AcDbEntity
  8
寸法引出
  6
ByBlock
 62
     0
 48
15.0
100
AcDbPoint
 10
1570.338355942215
 20
1831.750610962148
 30
0.0
  0
SOLID
  5
9427
330
747D
100
AcDbEntity
  8
寸法引出
  6
ByBlock
 48
15.0
100
AcDbTrace
 10
1592.838355942214
 20
1835.500610962148
 30
0.0
 11
1592.838355942214
 21
1828.000610962148
 31
0.0
 12
1570.338355942215
 22
1831.750610962148
 32
0.0
 13
1570.338355942215
 23
1831.750610962148
 33
0.0
  0
LINE
  5
9428
330
747D
100
AcDbEntity
  8
寸法引出
  6
ByBlock
 48
15.0
100
AcDbLine
 10
1592.838355942214
 20
1831.750610962148
 30
0.0
 11
1615.338355942214
 21
1831.750610962148
 31
0.0
  0
DIMENSION
  5
9429
330
747D
100
AcDbEntity
  8
寸法引出
 48
15.0
100
AcDbDimension
  2
*D174
 10
1784.787063351853
 20
2184.622610370839
 30
0.0
 11
1754.787063351853
 21
2234.622610370839
 31
0.0
 70
    32
 71
     5
 42
100.0
  3
SANWA
100
AcDbAlignedDimension
 13
1625.338355942214
 23
2284.622610370839
 33
0.0
 14
1625.338355942214
 24
2184.622610370839
 34
0.0
 50
90.0
100
AcDbRotatedDimension
1001
ACAD
1000
DSTYLE
1002
{
1070
   140
1040
2.0
1070
    40
1040
15.0
1070
   147
1040
1.0
1070
    44
1040
0.5
1070
    43
1040
5.0
1070
   178
1070
   256
1070
   177
1070
   256
1070
   176
1070
   256
1070
    41
1040
1.5
1002
}
  0
LINE
  5
942A
330
747D
100
AcDbEntity
  8
寸法引出
  6
ByBlock
 48
15.0
100
AcDbLine
 10
1640.338355942214
 20
2284.622610370839
 30
0.0
 11
1718.527579538782
 21
2284.622610370839
 31
0.0
  0
DIMENSION
  5
942B
330
747D
100
AcDbEntity
  8
寸法引出
 48
15.0
100
AcDbDimension
  2
*D175
 10
1711.027579538782
 20
2264.622610370839
 30
0.0
 11
1681.027579538782
 21
2224.62261037084
 31
0.0
 70
    32
 71
     5
 42
80.0
  3
SANWA
100
AcDbAlignedDimension
 13
1625.338355942214
 23
2184.622610370839
 33
0.0
 14
1625.338355942214
 24
2264.622610370839
 34
0.0
 50
90.0
100
AcDbRotatedDimension
1001
ACAD
1000
DSTYLE
1002
{
1070
   140
1040
2.0
1070
    40
1040
15.0
1070
   147
1040
1.0
1070
    44
1040
0.5
1070
    43
1040
5.0
1070
   178
1070
   256
1070
   177
1070
   256
1070
   176
1070
   256
1070
    41
1040
1.5
1002
}
  0
LINE
  5
942C
330
747D
100
AcDbEntity
  8
0
  6
HIDDEN2
 48
5.0
100
AcDbLine
 10
1527.838355942215
 20
2264.622610370839
 30
0.0
 11
1527.838355942215
 21
2224.622610370839
 31
0.0
  0
LINE
  5
942D
330
747D
100
AcDbEntity
  8
0
  6
HIDDEN2
 48
5.0
100
AcDbLine
 10
1507.838355942215
 20
2224.622610370839
 30
0.0
 11
1527.838355942215
 21
2224.622610370839
 31
0.0
  0
LINE
  5
942E
330
747D
100
AcDbEntity
  8
0
  6
HIDDEN2
 48
5.0
100
AcDbLine
 10
1507.838355942215
 20
2264.622610370839
 30
0.0
 11
1507.838355942215
 21
2224.622610370839
 31
0.0
  0
POINT
  5
942F
330
747D
100
AcDbEntity
  8
DEFPOINTS
  6
ByBlock
 62
     0
 48
15.0
100
AcDbPoint
 10
1570.338355942215
 20
2264.622610370839
 30
0.0
  0
POINT
  5
9430
330
747D
100
AcDbEntity
  8
DEFPOINTS
  6
ByBlock
 62
     0
 48
15.0
100
AcDbPoint
 10
1575.338355942214
 20
2284.622610370839
 30
0.0
  0
POINT
  5
9431
330
747D
100
AcDbEntity
  8
DEFPOINTS
  6
ByBlock
 62
     0
 48
15.0
100
AcDbPoint
 10
1570.338355942215
 20
2264.622610370839
 30
0.0
  0
DIMENSION
  5
9432
330
747D
100
AcDbEntity
  8
寸法引出
 48
15.0
100
AcDbDimension
  2
*D176
 10
1600.338355942215
 20
2097.641599868362
 30
0.0
 11
1612.838355942215
 21
2127.641599868362
 31
0.0
 70
    32
 71
     5
 42
25.0
  3
SANWA
100
AcDbAlignedDimension
 13
1625.338355942214
 23
2184.622610370839
 33
0.0
 14
1600.338355942215
 24
2184.622610370839
 34
0.0
100
AcDbRotatedDimension
1001
ACAD
1000
DSTYLE
1002
{
1070
   140
1040
2.0
1070
    40
1040
15.0
1070
   147
1040
1.0
1070
    44
1040
0.5
1070
    43
1040
5.0
1070
   178
1070
   256
1070
   177
1070
   256
1070
   176
1070
   256
1070
    41
1040
1.5
1002
}
  0
POINT
  5
9433
330
747D
100
AcDbEntity
  8
DEFPOINTS
  6
ByBlock
 62
     0
 48
15.0
100
AcDbPoint
 10
1625.338355942214
 20
2284.622610370839
 30
0.0
  0
POINT
  5
9434
330
747D
100
AcDbEntity
  8
DEFPOINTS
  6
ByBlock
 62
     0
 48
15.0
100
AcDbPoint
 10
1575.338355942214
 20
2284.622610370839
 30
0.0
  0
LINE
  5
9435
330
747D
100
AcDbEntity
  8
0
  6
HIDDEN2
 48
5.0
100
AcDbLine
 10
1590.338355942214
 20
2217.622610370839
 30
0.0
 11
1610.338355942214
 21
2217.622610370839
 31
0.0
  0
LINE
  5
9436
330
747D
100
AcDbEntity
  8
0
  6
HIDDEN2
 48
5.0
100
AcDbLine
 10
1590.338355942214
 20
2217.622610370839
 30
0.0
 11
1590.338355942214
 21
2184.622610370839
 31
0.0
  0
LINE
  5
9437
330
747D
100
AcDbEntity
  8
0
  6
HIDDEN2
 48
5.0
100
AcDbLine
 10
1610.338355942214
 20
2217.622610370839
 30
0.0
 11
1610.338355942214
 21
2184.622610370839
 31
0.0
  0
POINT
  5
9438
330
747D
100
AcDbEntity
  8
DEFPOINTS
  6
ByBlock
 62
     0
 48
15.0
100
AcDbPoint
 10
1625.338355942214
 20
2284.622610370839
 30
0.0
  0
POINT
  5
9439
330
747D
100
AcDbEntity
  8
DEFPOINTS
  6
ByBlock
 62
     0
 48
15.0
100
AcDbPoint
 10
1625.338355942214
 20
2264.622610370839
 30
0.0
  0
LINE
  5
943A
330
747D
100
AcDbEntity
  8
0
  6
CENTER2
100
AcDbLine
 10
1537.838355942216
 20
2269.122610370839
 30
0.0
 11
1537.838355942215
 21
2276.122610370839
 31
0.0
  0
LINE
  5
943B
330
747D
100
AcDbEntity
  8
0
  6
CENTER2
100
AcDbLine
 10
1510.838355942215
 20
2269.122610370839
 30
0.0
 11
1510.838355942215
 21
2276.122610370839
 31
0.0
  0
LINE
  5
943C
330
747D
100
AcDbEntity
  8
0
  6
CENTER2
100
AcDbLine
 10
1524.838355942216
 20
2269.122610370838
 30
0.0
 11
1524.838355942215
 21
2276.122610370839
 31
0.0
  0
LINE
  5
943D
330
747D
100
AcDbEntity
  8
0
  6
CENTER2
100
AcDbLine
 10
1517.838355942215
 20
2254.622610370839
 30
0.0
 11
1517.838355942215
 21
2279.122610370839
 31
0.0
  0
LINE
  5
943E
330
747D
100
AcDbEntity
  8
0
 48
15.0
100
AcDbLine
 10
1532.838355942215
 20
2264.62261037084
 30
0.0
 11
1532.838355942215
 21
2269.122610370839
 31
0.0
  0
LINE
  5
943F
330
747D
100
AcDbEntity
  8
0
 48
15.0
100
AcDbLine
 10
1502.838355942215
 20
2264.622610370839
 30
0.0
 11
1502.838355942215
 21
2269.122610370839
 31
0.0
  0
LINE
  5
9440
330
747D
100
AcDbEntity
  8
0
 48
15.0
100
AcDbLine
 10
1552.838355942214
 20
2264.622610370839
 30
0.0
 11
1552.838355942214
 21
2269.122610370839
 31
0.0
  0
LINE
  5
9441
330
747D
100
AcDbEntity
  8
0
 48
15.0
100
AcDbLine
 10
1575.338355942214
 20
2284.622610370839
 30
0.0
 11
1570.338355942215
 21
2264.622610370839
 31
0.0
  0
LINE
  5
9442
330
747D
100
AcDbEntity
  8
0
 48
15.0
100
AcDbLine
 10
1625.338355942214
 20
2284.622610370839
 30
0.0
 11
1625.338355942214
 21
2184.622610370839
 31
0.0
  0
LINE
  5
9443
330
747D
100
AcDbEntity
  8
0
 48
15.0
100
AcDbLine
 10
1575.338355942214
 20
2284.622610370839
 30
0.0
 11
1625.338355942214
 21
2284.622610370839
 31
0.0
  0
POINT
  5
9444
330
747D
100
AcDbEntity
  8
寸法引出
  6
ByBlock
 62
     0
 48
15.0
100
AcDbPoint
 10
1711.027579538782
 20
2284.622610370839
 30
0.0
  0
SOLID
  5
9445
330
747D
100
AcDbEntity
  8
寸法引出
  6
ByBlock
 48
15.0
100
AcDbTrace
 10
1707.277579538782
 20
2242.122610370839
 30
0.0
 11
1714.777579538782
 21
2242.122610370839
 31
0.0
 12
1711.027579538782
 22
2264.622610370839
 32
0.0
 13
1711.027579538782
 23
2264.622610370839
 33
0.0
  0
LINE
  5
9446
330
747D
100
AcDbEntity
  8
寸法引出
  6
ByBlock
 48
15.0
100
AcDbLine
 10
1711.027579538782
 20
2264.622610370839
 30
0.0
 11
1711.027579538782
 21
2284.622610370839
 31
0.0
  0
LINE
  5
9447
330
747D
100
AcDbEntity
  8
寸法引出
  6
ByBlock
 48
15.0
100
AcDbLine
 10
1711.027579538782
 20
2242.122610370839
 30
0.0
 11
1711.027579538782
 21
2219.622610370839
 31
0.0
  0
DIMENSION
  5
9448
330
747D
100
AcDbEntity
  8
寸法引出
 48
15.0
100
AcDbDimension
  2
*D177
 10
2313.279085127323
 20
2097.641599868362
 30
0.0
 11
2253.279085127323
 21
2127.641599868362
 31
0.0
 70
    32
 71
     5
 42
120.0
  3
SANWA
100
AcDbAlignedDimension
 13
2193.279085127323
 23
2184.622610370839
 33
0.0
 14
2313.279085127323
 24
2184.622610370839
 34
0.0
100
AcDbRotatedDimension
1001
ACAD
1000
DSTYLE
1002
{
1070
   140
1040
2.0
1070
    40
1040
15.0
1070
   147
1040
1.0
1070
    44
1040
0.5
1070
    43
1040
5.0
1070
   178
1070
   256
1070
   177
1070
   256
1070
   176
1070
   256
1070
    41
1040
1.5
1002
}
  0
LINE
  5
9449
330
747D
100
AcDbEntity
  8
0
  6
HIDDEN2
 48
10.0
100
AcDbLine
 10
2212.266891818504
 20
2256.622610370839
 30
0.0
 11
2238.362346248008
 21
2193.622610370839
 31
0.0
  0
LINE
  5
944A
330
747D
100
AcDbEntity
  8
0
  6
HIDDEN2
 48
5.0
100
AcDbLine
 10
2333.279085127323
 20
2264.622610370839
 30
0.0
 11
2333.279085127323
 21
2224.622610370839
 31
0.0
  0
LINE
  5
944B
330
747D
100
AcDbEntity
  8
0
  6
HIDDEN2
 48
5.0
100
AcDbLine
 10
2333.279085127323
 20
2224.622610370839
 30
0.0
 11
2353.279085127323
 21
2224.622610370839
 31
0.0
  0
LINE
  5
944C
330
747D
100
AcDbEntity
  8
0
  6
HIDDEN2
 48
5.0
100
AcDbLine
 10
2353.279085127323
 20
2264.622610370839
 30
0.0
 11
2353.279085127323
 21
2224.622610370839
 31
0.0
  0
LINE
  5
944D
330
747D
100
AcDbEntity
  8
0
 48
15.0
100
AcDbLine
 10
2323.279085127323
 20
2269.122610370839
 30
0.0
 11
2363.279085127324
 21
2269.122610370839
 31
0.0
  0
LINE
  5
944E
330
747D
100
AcDbEntity
  8
0
 48
15.0
100
AcDbLine
 10
2323.279085127323
 20
2276.122610370839
 30
0.0
 11
2363.279085127323
 21
2276.122610370839
 31
0.0
  0
LINE
  5
944F
330
747D
100
AcDbEntity
  8
0
 48
15.0
100
AcDbLine
 10
2358.279085127323
 20
2264.622610370839
 30
0.0
 11
2358.279085127323
 21
2269.122610370839
 31
0.0
  0
LINE
  5
9450
330
747D
100
AcDbEntity
  8
0
 48
15.0
100
AcDbLine
 10
2328.279085127323
 20
2264.622610370839
 30
0.0
 11
2328.279085127323
 21
2269.122610370839
 31
0.0
  0
LINE
  5
9451
330
747D
100
AcDbEntity
  8
0
  6
CENTER2
100
AcDbLine
 10
2323.279085127323
 20
2269.122610370839
 30
0.0
 11
2323.279085127323
 21
2276.122610370839
 31
0.0
  0
LINE
  5
9452
330
747D
100
AcDbEntity
  8
0
  6
CENTER2
100
AcDbLine
 10
2363.279085127324
 20
2269.122610370839
 30
0.0
 11
2363.279085127322
 21
2276.122610370839
 31
0.0
  0
LINE
  5
9453
330
747D
100
AcDbEntity
  8
0
  6
CENTER2
100
AcDbLine
 10
2336.279085127323
 20
2269.122610370839
 30
0.0
 11
2336.279085127323
 21
2276.122610370839
 31
0.0
  0
LINE
  5
9454
330
747D
100
AcDbEntity
  8
0
  6
CENTER2
100
AcDbLine
 10
2350.279085127324
 20
2269.122610370838
 30
0.0
 11
2350.279085127322
 21
2276.122610370839
 31
0.0
  0
LINE
  5
9455
330
747D
100
AcDbEntity
  8
0
  6
CENTER2
100
AcDbLine
 10
2343.279085127323
 20
2254.622610370839
 30
0.0
 11
2343.279085127323
 21
2279.122610370839
 31
0.0
  0
LINE
  5
9456
330
747D
100
AcDbEntity
  8
0
  6
HIDDEN2
 48
5.0
100
AcDbLine
 10
2303.279085127323
 20
2217.622610370839
 30
0.0
 11
2323.279085127323
 21
2217.622610370839
 31
0.0
  0
LINE
  5
9457
330
747D
100
AcDbEntity
  8
0
  6
HIDDEN2
 48
5.0
100
AcDbLine
 10
2323.279085127323
 20
2217.622610370839
 30
0.0
 11
2323.279085127323
 21
2184.622610370839
 31
0.0
  0
LINE
  5
9458
330
747D
100
AcDbEntity
  8
0
  6
HIDDEN2
 48
5.0
100
AcDbLine
 10
2303.279085127323
 20
2217.622610370839
 30
0.0
 11
2303.279085127323
 21
2184.622610370839
 31
0.0
  0
LINE
  5
9459
330
747D
100
AcDbEntity
  8
0
  6
HIDDEN2
 48
10.0
100
AcDbLine
 10
2294.291278436143
 20
2256.622610370839
 30
0.0
 11
2268.195824006637
 21
2193.622610370839
 31
0.0
  0
LINE
  5
945A
330
747D
100
AcDbEntity
  8
0
  6
HIDDEN2
 48
10.0
100
AcDbLine
 10
2238.362346248008
 20
2193.622610370839
 30
0.0
 11
2268.195824006637
 21
2193.622610370839
 31
0.0
  0
MTEXT
  5
945B
330
747D
100
AcDbEntity
  8
寸法引出
  6
ByBlock
 48
15.0
100
AcDbMText
 10
1538.719561808773
 20
2441.340613689072
 30
0.0
 40
30.0
 41
0.0
 71
     5
 72
     1
  1
\A1;87.5
  7
SANWA
 73
     1
 44
1.0
1001
ACAD
1000
MTEXTBEGIN
1070
    73
1070
     1
1070
    44
1040
1.0
1070
    74
1070
     0
1000
MTEXTEND
  0
LINE
  5
945C
330
747D
100
AcDbEntity
  8
寸法引出
  6
ByBlock
 48
15.0
100
AcDbLine
 10
1482.838355942215
 20
2411.340613689072
 30
0.0
 11
1570.338355942215
 21
2411.340613689072
 31
0.0
  0
DIMENSION
  5
945D
330
747D
100
AcDbEntity
  8
寸法引出
 48
15.0
100
AcDbDimension
  2
*D178
 10
1482.838355942215
 20
2411.340613689072
 30
0.0
 11
1450.338355942214
 21
2441.340613689072
 31
0.0
 70
    32
 71
     5
 42
65.00000000000046
  3
SANWA
100
AcDbAlignedDimension
 13
1417.838355942214
 23
2334.622610370839
 33
0.0
 14
1482.838355942215
 24
2334.622610370839
 34
0.0
100
AcDbRotatedDimension
1001
ACAD
1000
DSTYLE
1002
{
1070
    40
1040
15.0
1070
    41
1040
1.5
1070
    43
1040
5.0
1070
    44
1040
0.5
1070
    75
1070
     1
1070
   140
1040
2.0
1070
   147
1040
1.0
1070
   176
1070
   256
1070
   177
1070
   256
1070
   178
1070
   256
1070
   279
1070
     1
1002
}
  0
POINT
  5
945E
330
747D
100
AcDbEntity
  8
DEFPOINTS
  6
ByBlock
 62
     0
 48
15.0
100
AcDbPoint
 10
1482.838355942215
 20
2334.622610370839
 30
0.0
  0
SOLID
  5
945F
330
747D
100
AcDbEntity
  8
寸法引出
  6
ByBlock
 48
15.0
100
AcDbTrace
 10
1460.338355942215
 20
2415.090613689072
 30
0.0
 11
1460.338355942215
 21
2407.590613689072
 31
0.0
 12
1482.838355942215
 22
2411.340613689072
 32
0.0
 13
1482.838355942215
 23
2411.340613689072
 33
0.0
  0
POINT
  5
9460
330
747D
100
AcDbEntity
  8
DEFPOINTS
  6
ByBlock
 62
     0
 48
15.0
100
AcDbPoint
 10
1417.838355942214
 20
2334.622610370839
 30
0.0
  0
LINE
  5
9461
330
747D
100
AcDbEntity
  8
寸法引出
  6
ByBlock
 48
15.0
100
AcDbLine
 10
1417.838355942214
 20
2349.622610370839
 30
0.0
 11
1417.838355942214
 21
2418.840613689072
 31
0.0
  0
LINE
  5
9462
330
747D
100
AcDbEntity
  8
0
 48
15.0
100
AcDbLine
 10
1413.338355942214
 20
2334.622610370839
 30
0.0
 11
1487.338355942214
 21
2334.622610370839
 31
0.0
  0
POINT
  5
9463
330
747D
100
AcDbEntity
  8
寸法引出
  6
ByBlock
 62
     0
 48
15.0
100
AcDbPoint
 10
1570.338355942215
 20
2411.340613689072
 30
0.0
  0
SOLID
  5
9464
330
747D
100
AcDbEntity
  8
寸法引出
  6
ByBlock
 48
15.0
100
AcDbTrace
 10
1592.838355942214
 20
2415.090613689072
 30
0.0
 11
1592.838355942214
 21
2407.590613689072
 31
0.0
 12
1570.338355942215
 22
2411.340613689072
 32
0.0
 13
1570.338355942215
 23
2411.340613689072
 33
0.0
  0
LINE
  5
9465
330
747D
100
AcDbEntity
  8
寸法引出
  6
ByBlock
 48
15.0
100
AcDbLine
 10
1592.838355942214
 20
2411.340613689072
 30
0.0
 11
1615.338355942214
 21
2411.340613689072
 31
0.0
  0
POINT
  5
9466
330
747D
100
AcDbEntity
  8
寸法引出
  6
ByBlock
 62
     0
 48
15.0
100
AcDbPoint
 10
1575.338355942214
 20
2411.340613689072
 30
0.0
  0
MTEXT
  5
9467
330
747D
100
AcDbEntity
  8
寸法引出
  6
ByBlock
 48
15.0
100
AcDbMText
 10
1585.727756671776
 20
2389.076126106033
 30
0.0
 40
30.0
 41
0.0
 71
     5
 72
     1
  1
\A1;5
  7
SANWA
 73
     1
 44
1.0
1001
ACAD
1000
MTEXTBEGIN
1070
    73
1070
     1
1070
    44
1040
1.0
1070
    74
1070
     0
1000
MTEXTEND
  0
SOLID
  5
9468
330
747D
100
AcDbEntity
  8
寸法引出
  6
ByBlock
 48
15.0
100
AcDbTrace
 10
1597.838355942214
 20
2415.090613689072
 30
0.0
 11
1597.838355942214
 21
2407.590613689072
 31
0.0
 12
1575.338355942214
 22
2411.340613689072
 32
0.0
 13
1575.338355942214
 23
2411.340613689072
 33
0.0
  0
SOLID
  5
9469
330
747D
100
AcDbEntity
  8
寸法引出
  6
ByBlock
 48
15.0
100
AcDbTrace
 10
1547.838355942214
 20
2415.090613689072
 30
0.0
 11
1547.838355942214
 21
2407.590613689072
 31
0.0
 12
1570.338355942215
 22
2411.340613689072
 32
0.0
 13
1570.338355942215
 23
2411.340613689072
 33
0.0
  0
LINE
  5
946A
330
747D
100
AcDbEntity
  8
寸法引出
  6
ByBlock
 48
15.0
100
AcDbLine
 10
1570.338355942215
 20
2411.340613689072
 30
0.0
 11
1575.338355942214
 21
2411.340613689072
 31
0.0
  0
LINE
  5
946B
330
747D
100
AcDbEntity
  8
寸法引出
  6
ByBlock
 48
15.0
100
AcDbLine
 10
1597.838355942214
 20
2411.340613689072
 30
0.0
 11
1620.338355942214
 21
2411.340613689072
 31
0.0
  0
LINE
  5
946C
330
747D
100
AcDbEntity
  8
寸法引出
  6
ByBlock
 48
15.0
100
AcDbLine
 10
1547.838355942214
 20
2411.340613689072
 30
0.0
 11
1525.338355942214
 21
2411.340613689072
 31
0.0
  0
POINT
  5
946D
330
747D
100
AcDbEntity
  8
寸法引出
  6
ByBlock
 62
     0
 48
15.0
100
AcDbPoint
 10
1625.338355942214
 20
2411.340613689072
 30
0.0
  0
MTEXT
  5
946E
330
747D
100
AcDbEntity
  8
寸法引出
  6
ByBlock
 48
15.0
100
AcDbMText
 10
1650.639429826453
 20
2441.340613689072
 30
0.0
 40
30.0
 41
0.0
 71
     5
 72
     1
  1
\A1;50
  7
SANWA
 73
     1
 44
1.0
1001
ACAD
1000
MTEXTBEGIN
1070
    73
1070
     1
1070
    44
1040
1.0
1070
    74
1070
     0
1000
MTEXTEND
  0
SOLID
  5
946F
330
747D
100
AcDbEntity
  8
寸法引出
  6
ByBlock
 48
15.0
100
AcDbTrace
 10
1647.838355942214
 20
2415.090613689072
 30
0.0
 11
1647.838355942214
 21
2407.590613689072
 31
0.0
 12
1625.338355942214
 22
2411.340613689072
 32
0.0
 13
1625.338355942214
 23
2411.340613689072
 33
0.0
  0
SOLID
  5
9470
330
747D
100
AcDbEntity
  8
寸法引出
  6
ByBlock
 48
15.0
100
AcDbTrace
 10
1552.838355942214
 20
2415.090613689072
 30
0.0
 11
1552.838355942214
 21
2407.590613689072
 31
0.0
 12
1575.338355942214
 22
2411.340613689072
 32
0.0
 13
1575.338355942214
 23
2411.340613689072
 33
0.0
  0
LINE
  5
9471
330
747D
100
AcDbEntity
  8
寸法引出
  6
ByBlock
 48
15.0
100
AcDbLine
 10
1575.338355942214
 20
2411.340613689072
 30
0.0
 11
1625.338355942214
 21
2411.340613689072
 31
0.0
  0
LINE
  5
9472
330
747D
100
AcDbEntity
  8
寸法引出
  6
ByBlock
 48
15.0
100
AcDbLine
 10
1647.838355942214
 20
2411.340613689072
 30
0.0
 11
1670.338355942214
 21
2411.340613689072
 31
0.0
  0
LINE
  5
9473
330
747D
100
AcDbEntity
  8
寸法引出
  6
ByBlock
 48
15.0
100
AcDbLine
 10
1552.838355942214
 20
2411.340613689072
 30
0.0
 11
1530.338355942214
 21
2411.340613689072
 31
0.0
  0
LINE
  5
9474
330
747D
100
AcDbEntity
  8
寸法引出
  6
ByBlock
 48
15.0
100
AcDbLine
 10
1711.027579538782
 20
2307.122610370839
 30
0.0
 11
1711.027579538782
 21
2329.622610370839
 31
0.0
  0
DIMENSION
  5
9475
330
747D
100
AcDbEntity
  8
寸法引出
 48
15.0
100
AcDbDimension
  2
*D179
 10
2343.279085127323
 20
2411.340613689072
 30
0.0
 11
2268.279085127323
 21
2441.340613689072
 31
0.0
 70
    32
 71
     5
 42
150.0
  3
SANWA
100
AcDbAlignedDimension
 13
2193.279085127323
 23
2334.622610370839
 33
0.0
 14
2343.279085127323
 24
2334.622610370839
 34
0.0
100
AcDbRotatedDimension
1001
ACAD
1000
DSTYLE
1002
{
1070
   140
1040
2.0
1070
    40
1040
15.0
1070
   147
1040
1.0
1070
    44
1040
0.5
1070
    43
1040
5.0
1070
   178
1070
   256
1070
   177
1070
   256
1070
   176
1070
   256
1070
    41
1040
1.5
1002
}
  0
LINE
  5
9476
330
747D
100
AcDbEntity
  8
寸法引出
  6
ByBlock
 48
15.0
100
AcDbLine
 10
3282.799274888471
 20
2287.122610370839
 30
0.0
 11
3282.799274888471
 21
2309.622610370839
 31
0.0
  0
DIMENSION
  5
9477
330
747D
100
AcDbEntity
  8
寸法引出
 48
15.0
100
AcDbDimension
  2
*D180
 10
3282.799274888471
 20
2334.622610370839
 30
0.0
 11
3252.799274888471
 21
2299.62261037084
 31
0.0
 70
    32
 71
     5
 42
70.0
  3
SANWA
100
AcDbAlignedDimension
 13
3193.279085127323
 23
2264.622610370839
 33
0.0
 14
3193.279085127323
 24
2334.622610370839
 34
0.0
 50
90.0
100
AcDbRotatedDimension
1001
ACAD
1000
DSTYLE
1002
{
1070
   140
1040
2.0
1070
    40
1040
15.0
1070
   147
1040
1.0
1070
    44
1040
0.5
1070
    43
1040
5.0
1070
   178
1070
   256
1070
   177
1070
   256
1070
   176
1070
   256
1070
    41
1040
1.5
1002
}
  0
LINE
  5
9478
330
747D
100
AcDbEntity
  8
0
 48
15.0
100
AcDbLine
 10
3193.279085127323
 20
2184.622610370839
 30
0.0
 11
3193.279085127323
 21
2334.622610370839
 31
0.0
  0
MTEXT
  5
9479
330
747D
100
AcDbEntity
  8
寸法引出
  6
ByBlock
 48
15.0
100
AcDbMText
 10
3126.36316949747
 20
1401.696000346116
 30
0.0
 40
30.0
 41
0.0
 71
     5
 72
     1
  1
長穴φ22×30l
  7
SANWA
 73
     1
 44
1.0
1001
ACAD
1000
MTEXTBEGIN
1070
    73
1070
     1
1070
    44
1040
1.0
1070
    74
1070
     0
1000
MTEXTEND
  0
LEADER
  5
947A
330
747D
100
AcDbEntity
  8
寸法引出
 48
15.0
100
AcDbLeader
  3
SANWA
 76
     3
 10
2778.905619440015
 20
1539.921515638522
 30
0.0
 10
2956.550995664489
 20
1377.419932643604
 30
0.0
 10
3282.126534607727
 20
1377.419932643604
 30
0.0
1001
ACAD
1000
DSTYLE
1002
{
1070
   140
1040
2.0
1070
    40
1040
15.0
1070
   147
1040
1.0
1070
    44
1040
0.5
1070
    43
1040
5.0
1070
   178
1070
   256
1070
   177
1070
   256
1070
   176
1070
   256
1070
    41
1040
1.5
1002
}
  0
LINE
  5
947B
330
747D
100
AcDbEntity
  8
寸法引出
  6
ByBlock
 48
15.0
100
AcDbLine
 10
3208.279085127323
 20
2256.622610370839
 30
0.0
 11
3290.299274888471
 21
2256.622610370839
 31
0.0
  0
LINE
  5
947C
330
747D
100
AcDbEntity
  8
寸法引出
  6
ByBlock
 48
15.0
100
AcDbLine
 10
3208.279085127323
 20
2264.622610370839
 30
0.0
 11
3290.299274888471
 21
2264.622610370839
 31
0.0
  0
DIMENSION
  5
947D
330
747D
100
AcDbEntity
  8
寸法引出
 48
15.0
100
AcDbDimension
  2
*D181
 10
3282.799274888471
 20
2184.622610370839
 30
0.0
 11
3252.799274888471
 21
2220.62261037084
 31
0.0
 70
    32
 71
     5
 42
72.0
  3
SANWA
100
AcDbAlignedDimension
 13
3193.279085127322
 23
2256.622610370839
 33
0.0
 14
3193.279085127323
 24
2184.622610370839
 34
0.0
 50
90.0
100
AcDbRotatedDimension
1001
ACAD
1000
DSTYLE
1002
{
1070
   140
1040
2.0
1070
    40
1040
15.0
1070
   147
1040
1.0
1070
    44
1040
0.5
1070
    43
1040
5.0
1070
   178
1070
   256
1070
   177
1070
   256
1070
   176
1070
   256
1070
    41
1040
1.5
1002
}
  0
DIMENSION
  5
947E
330
747D
100
AcDbEntity
  8
寸法引出
 48
15.0
100
AcDbDimension
  2
*D182
 10
2813.905619440015
 20
1765.289806199075
 30
0.0
 11
2796.405619440015
 21
1795.289806199075
 31
0.0
 70
    32
 71
     5
 42
35.0
  3
SANWA
100
AcDbAlignedDimension
 13
2778.905619440015
 23
1689.921515638522
 33
0.0
 14
2813.905619440015
 24
1689.921515638522
 34
0.0
100
AcDbRotatedDimension
1001
ACAD
1000
DSTYLE
1002
{
1070
   140
1040
2.0
1070
    40
1040
15.0
1070
   147
1040
1.0
1070
    44
1040
0.5
1070
    43
1040
5.0
1070
   178
1070
   256
1070
   177
1070
   256
1070
   176
1070
   256
1070
    41
1040
1.5
1002
}
  0
DIMENSION
  5
947F
330
747D
100
AcDbEntity
  8
寸法引出
 48
15.0
100
AcDbDimension
  2
*D183
 10
2640.905619440015
 20
1765.289806199075
 30
0.0
 11
2623.405619440015
 21
1795.289806199075
 31
0.0
 70
    32
 71
     5
 42
35.0
  3
SANWA
100
AcDbAlignedDimension
 13
2605.905619440015
 23
1689.921515638522
 33
0.0
 14
2640.905619440015
 24
1689.921515638522
 34
0.0
100
AcDbRotatedDimension
1001
ACAD
1000
DSTYLE
1002
{
1070
   140
1040
2.0
1070
    40
1040
15.0
1070
   147
1040
1.0
1070
    44
1040
0.5
1070
    43
1040
5.0
1070
   178
1070
   256
1070
   177
1070
   256
1070
   176
1070
   256
1070
    41
1040
1.5
1002
}
  0
DIMENSION
  5
9480
330
747D
100
AcDbEntity
  8
寸法引出
 48
15.0
100
AcDbDimension
  2
*D184
 10
2813.905619440015
 20
1831.750610962148
 30
0.0
 11
2778.905619440015
 21
1861.750610962148
 31
0.0
 70
    32
 71
     5
 42
70.0
  3
SANWA
100
AcDbAlignedDimension
 13
2743.905619440015
 23
1689.921515638522
 33
0.0
 14
2813.905619440015
 24
1689.921515638522
 34
0.0
100
AcDbRotatedDimension
1001
ACAD
1000
DSTYLE
1002
{
1070
    40
1040
15.0
1070
    41
1040
1.5
1070
    43
1040
5.0
1070
    44
1040
0.5
1070
    75
1070
     1
1070
   140
1040
2.0
1070
   147
1040
1.0
1070
   176
1070
   256
1070
   177
1070
   256
1070
   178
1070
   256
1070
   279
1070
     1
1002
}
  0
DIMENSION
  5
9481
330
747D
100
AcDbEntity
  8
寸法引出
 48
15.0
100
AcDbDimension
  2
*D185
 10
2743.905619440015
 20
1831.750610962148
 30
0.0
 11
2709.905619440015
 21
1861.750610962148
 31
0.0
 70
    32
 71
     5
 42
68.0
  3
SANWA
100
AcDbAlignedDimension
 13
2675.905619440015
 23
1689.921515638522
 33
0.0
 14
2743.905619440015
 24
1689.921515638522
 34
0.0
100
AcDbRotatedDimension
1001
ACAD
1000
DSTYLE
1002
{
1070
    40
1040
15.0
1070
    41
1040
1.5
1070
    43
1040
5.0
1070
    44
1040
0.5
1070
    75
1070
     1
1070
   140
1040
2.0
1070
   147
1040
1.0
1070
   176
1070
   256
1070
   177
1070
   256
1070
   178
1070
   256
1070
   279
1070
     1
1002
}
  0
DIMENSION
  5
9482
330
747D
100
AcDbEntity
  8
寸法引出
 48
15.0
100
AcDbDimension
  2
*D186
 10
2675.905619440015
 20
1831.750610962148
 30
0.0
 11
2640.905619440015
 21
1861.750610962148
 31
0.0
 70
    32
 71
     5
 42
70.0
  3
SANWA
100
AcDbAlignedDimension
 13
2605.905619440015
 23
1689.921515638522
 33
0.0
 14
2675.905619440015
 24
1689.921515638522
 34
0.0
100
AcDbRotatedDimension
1001
ACAD
1000
DSTYLE
1002
{
1070
   140
1040
2.0
1070
    40
1040
15.0
1070
   147
1040
1.0
1070
    44
1040
0.5
1070
    43
1040
5.0
1070
   178
1070
   256
1070
   177
1070
   256
1070
   176
1070
   256
1070
    41
1040
1.5
1002
}
  0
LINE
  5
9483
330
747D
100
AcDbEntity
  8
0
 48
15.0
100
AcDbLine
 10
2605.905619440014
 20
1689.921515638522
 30
0.0
 11
2813.905619440015
 21
1689.921515638522
 31
0.0
  0
DIMENSION
  5
9484
330
747D
100
AcDbEntity
  8
寸法引出
 48
15.0
100
AcDbDimension
  2
*D187
 10
2510.021287916569
 20
1689.921515638522
 30
0.0
 11
2480.021287916568
 21
1614.921515638522
 31
0.0
 70
    32
 71
     5
 42
150.0
  3
SANWA
100
AcDbAlignedDimension
 13
2605.905619440015
 23
1539.921515638522
 33
0.0
 14
2605.905619440015
 24
1689.921515638522
 34
0.0
 50
90.0
100
AcDbRotatedDimension
1001
ACAD
1000
DSTYLE
1002
{
1070
    40
1040
15.0
1070
    41
1040
1.5
1070
    43
1040
5.0
1070
    44
1040
0.5
1070
    75
1070
     1
1070
   140
1040
2.0
1070
   147
1040
1.0
1070
   176
1070
   256
1070
   177
1070
   256
1070
   178
1070
   256
1070
   279
1070
     1
1002
}
  0
CIRCLE
  5
9485
330
747D
100
AcDbEntity
  8
0
 48
15.0
100
AcDbCircle
 10
2778.905619440015
 20
1539.921515638522
 30
0.0
 40
11.0
  0
CIRCLE
  5
9486
330
747D
100
AcDbEntity
  8
0
 48
15.0
100
AcDbCircle
 10
2640.905619440015
 20
1539.921515638522
 30
0.0
 40
11.0
  0
LINE
  5
9487
330
747D
100
AcDbEntity
  8
寸法引出
 48
15.0
100
AcDbLine
 10
2486.67856403207
 20
1930.665097788137
 30
0.0
 11
2969.681337916243
 21
1930.665097788137
 31
0.0
  0
MTEXT
  5
9488
330
747D
100
AcDbEntity
  8
寸法引出
  6
ByBlock
 48
15.0
100
AcDbMText
 10
2726.101020676237
 20
1967.186928730224
 30
0.0
 40
40.0
 41
0.0
 71
     5
 72
     1
  1
嵩上げ用アングル
  7
SANWA
 73
     1
 44
1.0
1001
ACAD
1000
MTEXTBEGIN
1070
    73
1070
     1
1070
    44
1040
1.0
1070
    74
1070
     0
1000
MTEXTEND
  0
LINE
  5
9489
330
747D
100
AcDbEntity
  8
0
  6
HIDDEN2
 48
10.0
100
AcDbLine
 10
2678.362346248007
 20
2193.622610370839
 30
0.0
 11
2708.195824006637
 21
2193.622610370839
 31
0.0
  0
LINE
  5
948A
330
747D
100
AcDbEntity
  8
0
  6
HIDDEN2
 48
10.0
100
AcDbLine
 10
2652.266891818504
 20
2256.622610370839
 30
0.0
 11
2678.362346248007
 21
2193.622610370839
 31
0.0
  0
LINE
  5
948B
330
747D
100
AcDbEntity
  8
0
  6
HIDDEN2
 48
10.0
100
AcDbLine
 10
2734.291278436143
 20
2256.622610370839
 30
0.0
 11
2708.195824006637
 21
2193.622610370839
 31
0.0
  0
LINE
  5
948C
330
747D
100
AcDbEntity
  8
0
 48
15.0
100
AcDbLine
 10
3023.279085127323
 20
2276.122610370839
 30
0.0
 11
3063.279085127323
 21
2276.122610370839
 31
0.0
  0
LINE
  5
948D
330
747D
100
AcDbEntity
  8
0
 48
15.0
100
AcDbLine
 10
3023.279085127323
 20
2269.122610370839
 30
0.0
 11
3063.279085127324
 21
2269.122610370839
 31
0.0
  0
LINE
  5
948E
330
747D
100
AcDbEntity
  8
0
 48
15.0
100
AcDbLine
 10
3028.279085127323
 20
2264.622610370839
 30
0.0
 11
3028.279085127323
 21
2269.122610370839
 31
0.0
  0
LINE
  5
948F
330
747D
100
AcDbEntity
  8
0
  6
CENTER2
100
AcDbLine
 10
3023.279085127323
 20
2269.122610370839
 30
0.0
 11
3023.279085127323
 21
2276.122610370839
 31
0.0
  0
LINE
  5
9490
330
747D
100
AcDbEntity
  8
0
  6
HIDDEN2
 48
5.0
100
AcDbLine
 10
3053.279085127323
 20
2264.622610370839
 30
0.0
 11
3053.279085127323
 21
2224.622610370839
 31
0.0
  0
LINE
  5
9491
330
747D
100
AcDbEntity
  8
0
  6
HIDDEN2
 48
5.0
100
AcDbLine
 10
3033.279085127323
 20
2264.622610370839
 30
0.0
 11
3033.279085127323
 21
2224.622610370839
 31
0.0
  0
LINE
  5
9492
330
747D
100
AcDbEntity
  8
0
  6
HIDDEN2
 48
5.0
100
AcDbLine
 10
3033.279085127323
 20
2224.622610370839
 30
0.0
 11
3053.279085127323
 21
2224.622610370839
 31
0.0
  0
POINT
  5
9493
330
747D
100
AcDbEntity
  8
DEFPOINTS
  6
ByBlock
 62
     0
 48
15.0
100
AcDbPoint
 10
3193.279085127322
 20
2256.622610370839
 30
0.0
  0
POINT
  5
9494
330
747D
100
AcDbEntity
  8
DEFPOINTS
  6
ByBlock
 62
     0
 48
15.0
100
AcDbPoint
 10
3193.279085127323
 20
2264.622610370839
 30
0.0
  0
DIMENSION
  5
9495
330
747D
100
AcDbEntity
  8
寸法引出
 48
15.0
100
AcDbDimension
  2
*D188
 10
3193.279085127323
 20
2097.641599868362
 30
0.0
 11
3133.279085127323
 21
2127.641599868362
 31
0.0
 70
    32
 71
     5
 42
120.0
  3
SANWA
100
AcDbAlignedDimension
 13
3073.279085127323
 23
2184.622610370839
 33
0.0
 14
3193.279085127323
 24
2184.622610370839
 34
0.0
100
AcDbRotatedDimension
1001
ACAD
1000
DSTYLE
1002
{
1070
    40
1040
15.0
1070
    41
1040
1.5
1070
    43
1040
5.0
1070
    44
1040
0.5
1070
    75
1070
     1
1070
   140
1040
2.0
1070
   147
1040
1.0
1070
   176
1070
   256
1070
   177
1070
   256
1070
   178
1070
   256
1070
   279
1070
     1
1002
}
  0
LINE
  5
9496
330
747D
100
AcDbEntity
  8
0
  6
CENTER2
100
AcDbLine
 10
3043.279085127323
 20
2254.622610370839
 30
0.0
 11
3043.279085127323
 21
2279.122610370839
 31
0.0
  0
LINE
  5
9497
330
747D
100
AcDbEntity
  8
0
 48
15.0
100
AcDbLine
 10
3058.279085127323
 20
2264.62261037084
 30
0.0
 11
3058.279085127323
 21
2269.122610370839
 31
0.0
  0
LINE
  5
9498
330
747D
100
AcDbEntity
  8
0
  6
CENTER2
100
AcDbLine
 10
3050.279085127324
 20
2269.122610370838
 30
0.0
 11
3050.279085127323
 21
2276.122610370839
 31
0.0
  0
LINE
  5
9499
330
747D
100
AcDbEntity
  8
0
  6
CENTER2
100
AcDbLine
 10
3036.279085127323
 20
2269.122610370839
 30
0.0
 11
3036.279085127323
 21
2276.122610370839
 31
0.0
  0
LINE
  5
949A
330
747D
100
AcDbEntity
  8
0
  6
CENTER2
100
AcDbLine
 10
3063.279085127324
 20
2269.122610370839
 30
0.0
 11
3063.279085127323
 21
2276.122610370839
 31
0.0
  0
LINE
  5
949B
330
747D
100
AcDbEntity
  8
0
  6
HIDDEN2
 48
5.0
100
AcDbLine
 10
3063.279085127323
 20
2217.622610370839
 30
0.0
 11
3083.279085127323
 21
2217.622610370839
 31
0.0
  0
LINE
  5
949C
330
747D
100
AcDbEntity
  8
0
  6
HIDDEN2
 48
5.0
100
AcDbLine
 10
3063.279085127323
 20
2217.622610370839
 30
0.0
 11
3063.279085127323
 21
2184.622610370839
 31
0.0
  0
LINE
  5
949D
330
747D
100
AcDbEntity
  8
0
  6
HIDDEN2
 48
5.0
100
AcDbLine
 10
3083.279085127323
 20
2217.622610370839
 30
0.0
 11
3083.279085127323
 21
2184.622610370839
 31
0.0
  0
LINE
  5
949E
330
747D
100
AcDbEntity
  8
0
  6
HIDDEN2
 48
10.0
100
AcDbLine
 10
3118.362346248008
 20
2193.622610370839
 30
0.0
 11
3148.195824006637
 21
2193.622610370839
 31
0.0
  0
LINE
  5
949F
330
747D
100
AcDbEntity
  8
0
  6
HIDDEN2
 48
10.0
100
AcDbLine
 10
3174.291278436144
 20
2256.622610370839
 30
0.0
 11
3148.195824006638
 21
2193.622610370839
 31
0.0
  0
LINE
  5
94A0
330
747D
100
AcDbEntity
  8
0
  6
HIDDEN2
 48
10.0
100
AcDbLine
 10
3092.266891818504
 20
2256.622610370839
 30
0.0
 11
3118.362346248007
 21
2193.622610370839
 31
0.0
  0
POINT
  5
94A1
330
747D
100
AcDbEntity
  8
寸法引出
  6
ByBlock
 62
     0
 48
15.0
100
AcDbPoint
 10
3282.799274888471
 20
2256.622610370839
 30
0.0
  0
MTEXT
  5
94A2
330
747D
100
AcDbEntity
  8
寸法引出
  6
ByBlock
 48
15.0
100
AcDbMText
 10
3311.087471163416
 20
2260.622610370839
 30
0.0
 40
30.0
 41
0.0
 71
     5
 72
     1
  1
\A1;8
  7
SANWA
 11
0.0000000000000001
 21
1.0
 31
0.0
 73
     1
 44
1.0
1001
ACAD
1000
MTEXTBEGIN
1070
    73
1070
     1
1070
    44
1040
1.0
1070
    74
1070
     0
1000
MTEXTEND
  0
SOLID
  5
94A3
330
747D
100
AcDbEntity
  8
寸法引出
  6
ByBlock
 48
15.0
100
AcDbTrace
 10
3279.049274888471
 20
2234.122610370839
 30
0.0
 11
3286.549274888471
 21
2234.122610370839
 31
0.0
 12
3282.799274888471
 22
2256.622610370839
 32
0.0
 13
3282.799274888471
 23
2256.622610370839
 33
0.0
  0
SOLID
  5
94A4
330
747D
100
AcDbEntity
  8
寸法引出
  6
ByBlock
 48
15.0
100
AcDbTrace
 10
3279.049274888471
 20
2287.122610370839
 30
0.0
 11
3286.549274888471
 21
2287.122610370839
 31
0.0
 12
3282.799274888471
 22
2264.622610370839
 32
0.0
 13
3282.799274888471
 23
2264.622610370839
 33
0.0
  0
LINE
  5
94A5
330
747D
100
AcDbEntity
  8
寸法引出
  6
ByBlock
 48
15.0
100
AcDbLine
 10
3282.799274888471
 20
2264.622610370839
 30
0.0
 11
3282.799274888471
 21
2256.622610370839
 31
0.0
  0
LINE
  5
94A6
330
747D
100
AcDbEntity
  8
寸法引出
  6
ByBlock
 48
15.0
100
AcDbLine
 10
3282.799274888471
 20
2234.122610370839
 30
0.0
 11
3282.799274888471
 21
2211.622610370839
 31
0.0
  0
TEXT
  5
94A7
330
747D
100
AcDbEntity
  8
0
100
AcDbText
 10
2850.361737911738
 20
2797.604305306278
 30
0.0
 40
36.0
  1
W=77㎏
  7
SANWA
 72
     4
 11
2929.356023626024
 21
2814.678591020564
 31
0.0
100
AcDbText
  0
DIMENSION
  5
94A8
330
747D
100
AcDbEntity
  8
寸法引出
 48
15.0
100
AcDbDimension
  2
*D189
 10
3193.279085127323
 20
2411.340613689072
 30
0.0
 11
3118.279085127323
 21
2441.340613689072
 31
0.0
 70
    32
 71
     5
 42
150.0
  3
SANWA
100
AcDbAlignedDimension
 13
3043.279085127323
 23
2334.622610370839
 33
0.0
 14
3193.279085127323
 24
2334.622610370839
 34
0.0
100
AcDbRotatedDimension
1001
ACAD
1000
DSTYLE
1002
{
1070
    40
1040
15.0
1070
    41
1040
1.5
1070
    43
1040
5.0
1070
    44
1040
0.5
1070
    75
1070
     1
1070
   140
1040
2.0
1070
   147
1040
1.0
1070
   176
1070
   256
1070
   177
1070
   256
1070
   178
1070
   256
1070
   279
1070
     1
1002
}
  0
LINE
  5
94CB
330
747D
100
AcDbEntity
  8
枠
100
AcDbLine
 10
4305.0
 20
150.0
 30
0.0
 11
4305.0
 21
3000.0
 31
0.0
  0
LINE
  5
94CD
330
747D
100
AcDbEntity
  8
0
100
AcDbLine
 10
4455.0
 20
150.0
 30
0.0
 11
4455.0
 21
0.0
 31
0.0
  0
LINE
  5
94CF
330
747D
100
AcDbEntity
  8
0
100
AcDbLine
 10
4455.0
 20
0.0
 30
0.0
 11
4305.0
 21
0.0
 31
0.0
  0
LINE
  5
94E5
330
747D
100
AcDbEntity
  8
0
100
AcDbLine
 10
4305.0
 20
3150.0
 30
0.0
 11
4455.0
 21
3150.0
 31
0.0
  0
LINE
  5
94E7
330
747D
100
AcDbEntity
  8
0
100
AcDbLine
 10
4455.0
 20
3150.0
 30
0.0
 11
4455.0
 21
3000.0
 31
0.0
  0
TEXT
  5
9D75
330
747D
100
AcDbEntity
  8
0
100
AcDbText
 10
1834.681270156542
 20
2696.407525780872
 30
0.0
 40
42.0
  1
（ｱﾝｸﾞﾙ　H=50、ｸﾞﾚｰﾁﾝｸﾞ　細目）
  7
SANWA
 72
     4
 11
2310.841270156542
 21
2718.607525780872
 31
0.0
100
AcDbText
  0
VIEWPORT
  5
7540
102
{ACAD_XDICTIONARY
360
A11E
102
}
330
747A
100
AcDbEntity
 67
     1
  8
0
100
AcDbViewport
 10
4325.701464482644
 20
1664.396783294475
 30
0.0
 40
14442.64420347797
 41
7386.915729196608
 68
     1
 69
     1
 12
4325.701464482644
 22
1664.396783294475
 13
0.0
 23
0.0
 14
10.0
 24
10.0
 15
10.0
 25
10.0
 16
0.0
 26
0.0
 36
1.0
 17
0.0
 27
0.0
 37
0.0
 42
50.0
 43
0.0
 44
0.0
 45
7386.915729196608
 50
0.0
 51
0.0
 72
   100
 90
    32800
  1

281
     0
 71
     1
 74
     0
110
0.0
120
0.0
130
0.0
111
1.0
121
0.0
131
0.0
112
0.0
122
1.0
132
0.0
 79
     0
146
0.0
  0
TEXT
  5
7737
330
747A
100
AcDbEntity
 67
     1
  8
0
 48
2.0
100
AcDbText
 10
331.871196811185
 20
20.60428158404022
 30
0.0
 40
2.0
  1

  7
SANWA
100
AcDbText
  0
ENDSEC
  0
SECTION
  2
OBJECTS
  0
DICTIONARY
  5
7471
330
0
100
AcDbDictionary
281
     1
  3
ACAD_COLOR
350
9F16
  3
ACAD_GROUP
350
7472
  3
ACAD_LAYOUT
350
8B8B
  3
ACAD_MATERIAL
350
9EEC
  3
ACAD_MLEADERSTYLE
350
9F3B
  3
ACAD_MLINESTYLE
350
7473
  3
ACAD_PLOTSETTINGS
350
8B8C
  3
ACAD_PLOTSTYLENAME
350
8B89
  3
ACAD_SCALELIST
350
9F19
  3
ACAD_TABLESTYLE
350
9F17
  3
ACAD_VISUALSTYLE
350
9F05
  3
ACDB_RECOMPOSE_DATA
350
A11C
  3
ACDBVARIABLEDICTIONARY
350
789B
  3
DWGPROPS
350
A11D
  0
DICTIONARY
  5
A101
330
7474
100
AcDbDictionary
280
     1
281
     1
  3
ADSK_XREC_LAYER_RECONCILED
360
A102
  0
DICTIONARY
  5
A103
330
7486
100
AcDbDictionary
280
     1
281
     1
  3
ADSK_XREC_LAYER_RECONCILED
360
A104
  0
DICTIONARY
  5
A105
330
7950
100
AcDbDictionary
280
     1
281
     1
  3
ADSK_XREC_LAYER_RECONCILED
360
A106
  0
DICTIONARY
  5
A107
330
7D58
100
AcDbDictionary
280
     1
281
     1
  3
ADSK_XREC_LAYER_RECONCILED
360
A108
  0
DICTIONARY
  5
A109
330
7D59
100
AcDbDictionary
280
     1
281
     1
  3
ADSK_XREC_LAYER_RECONCILED
360
A10A
  0
DICTIONARY
  5
A10B
330
7D5A
100
AcDbDictionary
280
     1
281
     1
  3
ADSK_XREC_LAYER_RECONCILED
360
A10C
  0
DICTIONARY
  5
A11E
330
7540
100
AcDbDictionary
280
     1
281
     1
  3
ACAD_XREC_ROUNDTRIP
360
A11F
  0
DICTIONARY
  5
9F16
102
{ACAD_REACTORS
330
7471
102
}
330
7471
100
AcDbDictionary
281
     1
  0
DICTIONARY
  5
7472
102
{ACAD_REACTORS
330
7471
102
}
330
0
100
AcDbDictionary
281
     1
  0
DICTIONARY
  5
8B8B
102
{ACAD_REACTORS
330
7471
102
}
330
7471
100
AcDbDictionary
281
     1
  3
Model
350
8B8D
  3
ﾚｲｱｳﾄ1
350
8B8E
  0
DICTIONARY
  5
9EEC
102
{ACAD_REACTORS
330
7471
102
}
330
7471
100
AcDbDictionary
281
     1
  3
ByBlock
350
9EF5
  3
ByLayer
350
9EED
  3
Global
350
9EFD
  0
DICTIONARY
  5
9F3B
102
{ACAD_REACTORS
330
7471
102
}
330
7471
100
AcDbDictionary
281
     1
  3
Standard
350
9F3C
  0
DICTIONARY
  5
7473
102
{ACAD_REACTORS
330
7471
102
}
330
0
100
AcDbDictionary
281
     1
  3
STANDARD
350
7480
  0
DICTIONARY
  5
8B8C
102
{ACAD_REACTORS
330
7471
102
}
330
7471
100
AcDbDictionary
281
     1
  0
ACDBDICTIONARYWDFLT
  5
8B89
102
{ACAD_REACTORS
330
7471
102
}
330
7471
100
AcDbDictionary
281
     1
  3
Normal
350
8B8A
100
AcDbDictionaryWithDefault
340
8B8A
  0
DICTIONARY
  5
9F19
102
{ACAD_REACTORS
330
7471
102
}
330
7471
100
AcDbDictionary
281
     1
  3
A0
350
9F1A
  3
A1
350
9F1B
  3
A2
350
9F1C
  3
A3
350
9F1D
  3
A4
350
9F1E
  3
A5
350
9F1F
  3
A6
350
9F20
  3
A7
350
9F21
  3
A8
350
9F22
  3
A9
350
9F23
  3
B0
350
9F24
  3
B1
350
9F25
  3
B2
350
9F26
  3
B3
350
9F27
  3
B4
350
9F28
  3
B5
350
9F29
  3
B6
350
9F2A
  3
B7
350
9F2B
  3
B8
350
9F2C
  3
B9
350
9F2D
  3
C0
350
9F2E
  3
C1
350
9F2F
  3
C2
350
9F30
  3
C3
350
9F31
  3
C4
350
9F32
  3
C5
350
9F33
  3
C6
350
9F34
  3
C7
350
9F35
  3
C8
350
9F36
  3
C9
350
9F37
  3
D0
350
9F38
  3
D1
350
9F39
  3
D2
350
9F3A
  0
DICTIONARY
  5
9F17
102
{ACAD_REACTORS
330
7471
102
}
330
7471
100
AcDbDictionary
281
     1
  3
Standard
350
9F18
  0
DICTIONARY
  5
9F05
102
{ACAD_REACTORS
330
7471
102
}
330
7471
100
AcDbDictionary
281
     1
  3
2dWireframe
350
9F0B
  3
3D Hidden
350
9F0D
  3
3dWireframe
350
9F0C
  3
Basic
350
9F0A
  3
Brighten
350
9F11
  3
ColorChange
350
9F15
  3
Conceptual
350
9F0E
  3
Dim
350
9F10
  3
Facepattern
350
9F14
  3
Flat
350
9F06
  3
FlatWithEdges
350
9F07
  3
Gouraud
350
9F08
  3
GouraudWithEdges
350
9F09
  3
Linepattern
350
9F13
  3
Realistic
350
9F0F
  3
Thicken
350
9F12
  0
XRECORD
  5
A11C
102
{ACAD_REACTORS
330
7471
102
}
330
7471
100
AcDbXrecord
280
     1
 90
        1
330
9F18
  0
DICTIONARY
  5
789B
102
{ACAD_REACTORS
330
7471
102
}
330
7471
100
AcDbDictionary
281
     1
  3
CANNOSCALE
350
A118
  3
CMLEADERSTYLE
350
A117
  3
CTABLESTYLE
350
A116
  3
DIMASSOC
350
8B95
  3
INDEXCTL
350
A119
  3
SORTENTS
350
789C
  0
XRECORD
  5
A11D
102
{ACAD_REACTORS
330
7471
102
}
330
7471
100
AcDbXrecord
280
     1
  1
DWGPROPS COOKIE
  2

  3

  4

  6

  7

  8
ooshima
  9

300
=
301
=
302
=
303
=
304
=
305
=
306
=
307
=
308
=
309
=
 40
0.3689343402777778
 41
2451867.374500231
 42
2455412.622969954
  1

 90
        0
  0
XRECORD
  5
A102
102
{ACAD_REACTORS
330
A101
102
}
330
A101
100
AcDbXrecord
280
     1
290
     1
  0
XRECORD
  5
A104
102
{ACAD_REACTORS
330
A103
102
}
330
A103
100
AcDbXrecord
280
     1
290
     1
  0
XRECORD
  5
A106
102
{ACAD_REACTORS
330
A105
102
}
330
A105
100
AcDbXrecord
280
     1
290
     1
  0
XRECORD
  5
A108
102
{ACAD_REACTORS
330
A107
102
}
330
A107
100
AcDbXrecord
280
     1
290
     1
  0
XRECORD
  5
A10A
102
{ACAD_REACTORS
330
A109
102
}
330
A109
100
AcDbXrecord
280
     1
290
     1
  0
XRECORD
  5
A10C
102
{ACAD_REACTORS
330
A10B
102
}
330
A10B
100
AcDbXrecord
280
     1
290
     1
  0
XRECORD
  5
A11F
102
{ACAD_REACTORS
330
A11E
102
}
330
A11E
100
AcDbXrecord
280
     1
102
SHADEPLOT
 70
     0
  0
LAYOUT
  5
8B8D
102
{ACAD_XDICTIONARY
360
A120
102
}
102
{ACAD_REACTORS
330
8B8B
102
}
330
8B8B
100
AcDbPlotSettings
  1

  2
DocuWorks Printer
  4
A4
  6

 40
5.408082962036132
 41
5.408079147338867
 42
5.4080810546875
 43
5.4080810546875
 44
210.0156707763672
 45
297.0106506347656
 46
4.599753379821777
 47
12.09724521636963
 48
375.0
 49
150.0
140
4305.0
141
3000.0
142
1.0
143
15.0
 70
 11940
 72
     1
 73
     1
 74
     4
  7
sanwa3.ctb
 75
     0
147
0.0666666666666667
148
-375.0
149
-150.0
100
AcDbLayout
  1
Model
 70
     1
 71
     0
 10
0.0
 20
0.0
 11
12.0
 21
9.0
 12
0.0
 22
0.0
 32
0.0
 14
0.0
 24
0.0
 34
0.0
 15
0.0
 25
0.0
 35
0.0
146
0.0
 13
0.0
 23
0.0
 33
0.0
 16
1.0
 26
0.0
 36
0.0
 17
0.0
 27
1.0
 37
0.0
 76
     0
330
747D
331
9EEA
1001
ACAD_PSEXT
1000
DocuWorks Printer
1000
DocuWorks Printer Driver
1000
DocuWorks Port
1000

1070
     0
  0
LAYOUT
  5
8B8E
102
{ACAD_XDICTIONARY
360
A122
102
}
102
{ACAD_REACTORS
330
8B8B
102
}
330
8B8B
100
AcDbPlotSettings
  1

  2
RICOH NX-510
  4
A4
  6

 40
5.873749732971191
 41
4.92125654220581
 42
7.588241577148437
 43
5.81024169921875
 44
209.9944915771484
 45
296.989501953125
 46
0.0
 47
0.0
 48
0.0
 49
0.0
140
0.0
141
0.0
142
1.0
143
34.77082675516229
 70
   688
 72
     1
 73
     1
 74
     1
  7
sanwa3.ctb
 75
     0
147
0.0287597418100372
148
635.5568882452208
149
1782.209125420911
100
AcDbLayout
  1
ﾚｲｱｳﾄ1
 70
     1
 71
     1
 10
-837.5837957743756
 20
-1986.444259789233
 11
9488.986724739666
 21
5315.237826378182
 12
0.0
 22
0.0
 32
0.0
 14
1.000000000000000E+20
 24
1.000000000000000E+20
 34
1.000000000000000E+20
 15
-1.000000000000000E+20
 25
-1.000000000000000E+20
 35
-1.000000000000000E+20
146
0.0
 13
0.0
 23
0.0
 33
0.0
 16
1.0
 26
0.0
 36
0.0
 17
0.0
 27
1.0
 37
0.0
 76
     0
330
747A
331
7540
  0
MATERIAL
  5
9EF5
102
{ACAD_XDICTIONARY
360
9EF6
102
}
102
{ACAD_REACTORS
330
9EEC
102
}
330
9EEC
100
AcDbMaterial
  1
ByBlock
 72
     0
 43
0.0208333333333333
 43
0.0
 43
0.0
 43
0.0
 43
0.0
 43
0.0208333333333333
 43
0.0
 43
0.0
 43
0.0
 43
0.0
 43
1.0
 43
0.0
 43
0.0
 43
0.0
 43
0.0
 43
1.0
 77
     0
 47
0.0208333333333333
 47
0.0
 47
0.0
 47
0.0
 47
0.0
 47
0.0208333333333333
 47
0.0
 47
0.0
 47
0.0
 47
0.0
 47
1.0
 47
0.0
 47
0.0
 47
0.0
 47
0.0
 47
1.0
171
     0
 49
0.0208333333333333
 49
0.0
 49
0.0
 49
0.0
 49
0.0
 49
0.0208333333333333
 49
0.0
 49
0.0
 49
0.0
 49
0.0
 49
1.0
 49
0.0
 49
0.0
 49
0.0
 49
0.0
 49
1.0
175
     0
142
0.0208333333333333
142
0.0
142
0.0
142
0.0
142
0.0
142
0.0208333333333333
142
0.0
142
0.0
142
0.0
142
0.0
142
1.0
142
0.0
142
0.0
142
0.0
142
0.0
142
1.0
179
     0
144
0.0208333333333333
144
0.0
144
0.0
144
0.0
144
0.0
144
0.0208333333333333
144
0.0
144
0.0
144
0.0
144
0.0
144
1.0
144
0.0
144
0.0
144
0.0
144
0.0
144
1.0
147
0.0208333333333333
147
0.0
147
0.0
147
0.0
147
0.0
147
0.0208333333333333
147
0.0
147
0.0
147
0.0
147
0.0
147
1.0
147
0.0
147
0.0
147
0.0
147
0.0
147
1.0
  0
MATERIAL
  5
9EED
102
{ACAD_XDICTIONARY
360
9EEE
102
}
102
{ACAD_REACTORS
330
9EEC
102
}
330
9EEC
100
AcDbMaterial
  1
ByLayer
 72
     0
 43
0.0208333333333333
 43
0.0
 43
0.0
 43
0.0
 43
0.0
 43
0.0208333333333333
 43
0.0
 43
0.0
 43
0.0
 43
0.0
 43
1.0
 43
0.0
 43
0.0
 43
0.0
 43
0.0
 43
1.0
 77
     0
 47
0.0208333333333333
 47
0.0
 47
0.0
 47
0.0
 47
0.0
 47
0.0208333333333333
 47
0.0
 47
0.0
 47
0.0
 47
0.0
 47
1.0
 47
0.0
 47
0.0
 47
0.0
 47
0.0
 47
1.0
171
     0
 49
0.0208333333333333
 49
0.0
 49
0.0
 49
0.0
 49
0.0
 49
0.0208333333333333
 49
0.0
 49
0.0
 49
0.0
 49
0.0
 49
1.0
 49
0.0
 49
0.0
 49
0.0
 49
0.0
 49
1.0
175
     0
142
0.0208333333333333
142
0.0
142
0.0
142
0.0
142
0.0
142
0.0208333333333333
142
0.0
142
0.0
142
0.0
142
0.0
142
1.0
142
0.0
142
0.0
142
0.0
142
0.0
142
1.0
179
     0
144
0.0208333333333333
144
0.0
144
0.0
144
0.0
144
0.0
144
0.0208333333333333
144
0.0
144
0.0
144
0.0
144
0.0
144
1.0
144
0.0
144
0.0
144
0.0
144
0.0
144
1.0
147
0.0208333333333333
147
0.0
147
0.0
147
0.0
147
0.0
147
0.0208333333333333
147
0.0
147
0.0
147
0.0
147
0.0
147
1.0
147
0.0
147
0.0
147
0.0
147
0.0
147
1.0
  0
MATERIAL
  5
9EFD
102
{ACAD_XDICTIONARY
360
9EFE
102
}
102
{ACAD_REACTORS
330
9EEC
102
}
330
9EEC
100
AcDbMaterial
  1
Global
 72
     0
 43
0.0208333333333333
 43
0.0
 43
0.0
 43
0.0
 43
0.0
 43
0.0208333333333333
 43
0.0
 43
0.0
 43
0.0
 43
0.0
 43
1.0
 43
0.0
 43
0.0
 43
0.0
 43
0.0
 43
1.0
 77
     0
 47
0.0208333333333333
 47
0.0
 47
0.0
 47
0.0
 47
0.0
 47
0.0208333333333333
 47
0.0
 47
0.0
 47
0.0
 47
0.0
 47
1.0
 47
0.0
 47
0.0
 47
0.0
 47
0.0
 47
1.0
171
     0
 49
0.0208333333333333
 49
0.0
 49
0.0
 49
0.0
 49
0.0
 49
0.0208333333333333
 49
0.0
 49
0.0
 49
0.0
 49
0.0
 49
1.0
 49
0.0
 49
0.0
 49
0.0
 49
0.0
 49
1.0
175
     0
142
0.0208333333333333
142
0.0
142
0.0
142
0.0
142
0.0
142
0.0208333333333333
142
0.0
142
0.0
142
0.0
142
0.0
142
1.0
142
0.0
142
0.0
142
0.0
142
0.0
142
1.0
179
     0
144
0.0208333333333333
144
0.0
144
0.0
144
0.0
144
0.0
144
0.0208333333333333
144
0.0
144
0.0
144
0.0
144
0.0
144
1.0
144
0.0
144
0.0
144
0.0
144
0.0
144
1.0
147
0.0208333333333333
147
0.0
147
0.0
147
0.0
147
0.0
147
0.0208333333333333
147
0.0
147
0.0
147
0.0
147
0.0
147
1.0
147
0.0
147
0.0
147
0.0
147
0.0
147
1.0
  0
MLEADERSTYLE
  5
9F3C
102
{ACAD_REACTORS
330
9F3B
102
}
330
9F3B
100
AcDbMLeaderStyle
170
     2
171
     1
172
     0
 90
        2
 40
0.0
 41
0.0
173
     1
 91
-1056964608
340
7477
 92
       -2
290
     1
 42
2.0
291
     1
 43
0.36
  3
Standard
 44
4.0
300

342
7475
174
     1
178
     6
175
     1
176
     0
 93
-1056964608
 45
4.0
292
     0
297
     0
 46
4.0
 94
-1056964608
 47
1.0
 49
1.0
140
1.0
293
     1
141
0.0
294
     1
177
     0
142
1.0
295
     0
296
     0
143
0.125
1001
ACAD_MLEADERVER
1070
     2
  0
MLINESTYLE
  5
7480
102
{ACAD_REACTORS
330
7473
102
}
330
0
100
AcDbMlineStyle
  2
STANDARD
 70
     0
  3

 62
     0
 51
90.0
 52
90.0
 71
     2
 49
0.5
 62
   256
  6
BYLAYER
 49
-0.5
 62
   256
  6
BYLAYER
  0
ACDBPLACEHOLDER
  5
8B8A
102
{ACAD_REACTORS
330
8B89
102
}
330
8B89
  0
SCALE
  5
9F1A
102
{ACAD_REACTORS
330
9F19
102
}
330
9F19
100
AcDbScale
 70
     0
300
1:1
140
1.0
141
1.0
290
     1
  0
SCALE
  5
9F1B
102
{ACAD_REACTORS
330
9F19
102
}
330
9F19
100
AcDbScale
 70
     0
300
1:2
140
1.0
141
2.0
290
     0
  0
SCALE
  5
9F1C
102
{ACAD_REACTORS
330
9F19
102
}
330
9F19
100
AcDbScale
 70
     0
300
1:4
140
1.0
141
4.0
290
     0
  0
SCALE
  5
9F1D
102
{ACAD_REACTORS
330
9F19
102
}
330
9F19
100
AcDbScale
 70
     0
300
1:5
140
1.0
141
5.0
290
     0
  0
SCALE
  5
9F1E
102
{ACAD_REACTORS
330
9F19
102
}
330
9F19
100
AcDbScale
 70
     0
300
1:8
140
1.0
141
8.0
290
     0
  0
SCALE
  5
9F1F
102
{ACAD_REACTORS
330
9F19
102
}
330
9F19
100
AcDbScale
 70
     0
300
1:10
140
1.0
141
10.0
290
     0
  0
SCALE
  5
9F20
102
{ACAD_REACTORS
330
9F19
102
}
330
9F19
100
AcDbScale
 70
     0
300
1:16
140
1.0
141
16.0
290
     0
  0
SCALE
  5
9F21
102
{ACAD_REACTORS
330
9F19
102
}
330
9F19
100
AcDbScale
 70
     0
300
1:20
140
1.0
141
20.0
290
     0
  0
SCALE
  5
9F22
102
{ACAD_REACTORS
330
9F19
102
}
330
9F19
100
AcDbScale
 70
     0
300
1:30
140
1.0
141
30.0
290
     0
  0
SCALE
  5
9F23
102
{ACAD_REACTORS
330
9F19
102
}
330
9F19
100
AcDbScale
 70
     0
300
1:40
140
1.0
141
40.0
290
     0
  0
SCALE
  5
9F24
102
{ACAD_REACTORS
330
9F19
102
}
330
9F19
100
AcDbScale
 70
     0
300
1:50
140
1.0
141
50.0
290
     0
  0
SCALE
  5
9F25
102
{ACAD_REACTORS
330
9F19
102
}
330
9F19
100
AcDbScale
 70
     0
300
1:100
140
1.0
141
100.0
290
     0
  0
SCALE
  5
9F26
102
{ACAD_REACTORS
330
9F19
102
}
330
9F19
100
AcDbScale
 70
     0
300
2:1
140
2.0
141
1.0
290
     0
  0
SCALE
  5
9F27
102
{ACAD_REACTORS
330
9F19
102
}
330
9F19
100
AcDbScale
 70
     0
300
4:1
140
4.0
141
1.0
290
     0
  0
SCALE
  5
9F28
102
{ACAD_REACTORS
330
9F19
102
}
330
9F19
100
AcDbScale
 70
     0
300
8:1
140
8.0
141
1.0
290
     0
  0
SCALE
  5
9F29
102
{ACAD_REACTORS
330
9F19
102
}
330
9F19
100
AcDbScale
 70
     0
300
10:1
140
10.0
141
1.0
290
     0
  0
SCALE
  5
9F2A
102
{ACAD_REACTORS
330
9F19
102
}
330
9F19
100
AcDbScale
 70
     0
300
100:1
140
100.0
141
1.0
290
     0
  0
SCALE
  5
9F2B
102
{ACAD_REACTORS
330
9F19
102
}
330
9F19
100
AcDbScale
 70
     0
300
1/128" = 1'-0"
140
0.0078125
141
12.0
290
     0
  0
SCALE
  5
9F2C
102
{ACAD_REACTORS
330
9F19
102
}
330
9F19
100
AcDbScale
 70
     0
300
1/64" = 1'-0"
140
0.015625
141
12.0
290
     0
  0
SCALE
  5
9F2D
102
{ACAD_REACTORS
330
9F19
102
}
330
9F19
100
AcDbScale
 70
     0
300
1/32" = 1'-0"
140
0.03125
141
12.0
290
     0
  0
SCALE
  5
9F2E
102
{ACAD_REACTORS
330
9F19
102
}
330
9F19
100
AcDbScale
 70
     0
300
1/16" = 1'-0"
140
0.0625
141
12.0
290
     0
  0
SCALE
  5
9F2F
102
{ACAD_REACTORS
330
9F19
102
}
330
9F19
100
AcDbScale
 70
     0
300
3/32" = 1'-0"
140
0.09375
141
12.0
290
     0
  0
SCALE
  5
9F30
102
{ACAD_REACTORS
330
9F19
102
}
330
9F19
100
AcDbScale
 70
     0
300
1/8" = 1'-0"
140
0.125
141
12.0
290
     0
  0
SCALE
  5
9F31
102
{ACAD_REACTORS
330
9F19
102
}
330
9F19
100
AcDbScale
 70
     0
300
3/16" = 1'-0"
140
0.1875
141
12.0
290
     0
  0
SCALE
  5
9F32
102
{ACAD_REACTORS
330
9F19
102
}
330
9F19
100
AcDbScale
 70
     0
300
1/4" = 1'-0"
140
0.25
141
12.0
290
     0
  0
SCALE
  5
9F33
102
{ACAD_REACTORS
330
9F19
102
}
330
9F19
100
AcDbScale
 70
     0
300
3/8" = 1'-0"
140
0.375
141
12.0
290
     0
  0
SCALE
  5
9F34
102
{ACAD_REACTORS
330
9F19
102
}
330
9F19
100
AcDbScale
 70
     0
300
1/2" = 1'-0"
140
0.5
141
12.0
290
     0
  0
SCALE
  5
9F35
102
{ACAD_REACTORS
330
9F19
102
}
330
9F19
100
AcDbScale
 70
     0
300
3/4" = 1'-0"
140
0.75
141
12.0
290
     0
  0
SCALE
  5
9F36
102
{ACAD_REACTORS
330
9F19
102
}
330
9F19
100
AcDbScale
 70
     0
300
1" = 1'-0"
140
1.0
141
12.0
290
     0
  0
SCALE
  5
9F37
102
{ACAD_REACTORS
330
9F19
102
}
330
9F19
100
AcDbScale
 70
     0
300
1-1/2" = 1'-0"
140
1.5
141
12.0
290
     0
  0
SCALE
  5
9F38
102
{ACAD_REACTORS
330
9F19
102
}
330
9F19
100
AcDbScale
 70
     0
300
3" = 1'-0"
140
3.0
141
12.0
290
     0
  0
SCALE
  5
9F39
102
{ACAD_REACTORS
330
9F19
102
}
330
9F19
100
AcDbScale
 70
     0
300
6" = 1'-0"
140
6.0
141
12.0
290
     0
  0
SCALE
  5
9F3A
102
{ACAD_REACTORS
330
9F19
102
}
330
9F19
100
AcDbScale
 70
     0
300
1'-0" = 1'-0"
140
12.0
141
12.0
290
     0
  0
TABLESTYLE
  5
9F18
102
{ACAD_XDICTIONARY
360
A11A
102
}
102
{ACAD_REACTORS
330
9F17
102
}
330
9F17
100
AcDbTableStyle
  3
Standard
 70
     0
 71
     0
 40
1.5
 41
1.5
280
     0
281
     0
  7
STANDARD
140
4.5
170
     2
 62
     0
 63
     7
283
     0
274
    -2
284
     1
 64
     0
275
    -2
285
     1
 65
     0
276
    -2
286
     1
 66
     0
277
    -2
287
     1
 67
     0
278
    -2
288
     1
 68
     0
279
    -2
289
     1
 69
     0
  7
STANDARD
140
6.0
170
     5
 62
     0
 63
     7
283
     0
274
    -2
284
     1
 64
     0
275
    -2
285
     1
 65
     0
276
    -2
286
     1
 66
     0
277
    -2
287
     1
 67
     0
278
    -2
288
     1
 68
     0
279
    -2
289
     1
 69
     0
  7
STANDARD
140
4.5
170
     5
 62
     0
 63
     7
283
     0
274
    -2
284
     1
 64
     0
275
    -2
285
     1
 65
     0
276
    -2
286
     1
 66
     0
277
    -2
287
     1
 67
     0
278
    -2
288
     1
 68
     0
279
    -2
289
     1
 69
     0
  0
VISUALSTYLE
  5
9F0B
102
{ACAD_REACTORS
330
9F05
102
}
330
9F05
100
AcDbVisualStyle
  2
2dWireframe
 70
     4
 71
     0
 72
     2
 73
     0
 90
        0
 40
-0.6
 41
-30.0
 62
     5
 63
     7
 74
     1
 91
        4
 64
     7
 65
   257
 75
     1
175
     1
 42
1.0
 92
        0
 66
   257
 43
1.0
 76
     1
 77
     6
 78
     2
 67
     7
 79
     5
170
     0
171
     0
290
     0
174
     0
 93
        1
 44
0.0
173
     0
291
     0
 45
0.0
1001
ACAD
1000
AcDbSavedByObjectVersion
1070
     0
  0
VISUALSTYLE
  5
9F0D
102
{ACAD_REACTORS
330
9F05
102
}
330
9F05
100
AcDbVisualStyle
  2
3D Hidden
 70
     6
 71
     1
 72
     2
 73
     2
 90
        0
 40
-0.6
 41
-30.0
 62
     5
 63
     7
 74
     2
 91
        2
 64
     7
 65
   257
 75
     2
175
     1
 42
40.0
 92
        0
 66
   257
 43
1.0
 76
     1
 77
     6
 78
     2
 67
     7
 79
     3
170
     0
171
     0
290
     0
174
     0
 93
        1
 44
0.0
173
     0
291
     0
 45
0.0
1001
ACAD
1000
AcDbSavedByObjectVersion
1070
     0
  0
VISUALSTYLE
  5
9F0C
102
{ACAD_REACTORS
330
9F05
102
}
330
9F05
100
AcDbVisualStyle
  2
3dWireframe
 70
     5
 71
     0
 72
     2
 73
     0
 90
        0
 40
-0.6
 41
-30.0
 62
     5
 63
     7
 74
     1
 91
        4
 64
     7
 65
   257
 75
     1
175
     1
 42
1.0
 92
        0
 66
   257
 43
1.0
 76
     1
 77
     6
 78
     2
 67
     7
 79
     5
170
     0
171
     0
290
     0
174
     0
 93
        1
 44
0.0
173
     0
291
     0
 45
0.0
1001
ACAD
1000
AcDbSavedByObjectVersion
1070
     0
  0
VISUALSTYLE
  5
9F0A
102
{ACAD_REACTORS
330
9F05
102
}
330
9F05
100
AcDbVisualStyle
  2
Basic
 70
     7
 71
     1
 72
     0
 73
     1
 90
        0
 40
-0.6
 41
-30.0
 62
     5
 63
     7
 74
     0
 91
        4
 64
     7
 65
   257
 75
     1
175
     1
 42
1.0
 92
        8
 66
     7
 43
1.0
 76
     1
 77
     6
 78
     2
 67
     7
 79
     5
170
     0
171
     0
290
     0
174
     0
 93
        1
 44
0.0
173
     0
291
     1
 45
0.0
1001
ACAD
1000
AcDbSavedByObjectVersion
1070
     0
  0
VISUALSTYLE
  5
9F11
102
{ACAD_REACTORS
330
9F05
102
}
330
9F05
100
AcDbVisualStyle
  2
Brighten
 70
    12
 71
     2
 72
     2
 73
     0
 90
        0
 40
-0.6
 41
-30.0
 62
     5
 63
     7
 74
     1
 91
        4
 64
     7
 65
   257
 75
     1
175
     1
 42
1.0
 92
        8
 66
     7
 43
1.0
 76
     1
 77
     6
 78
     2
 67
     7
 79
     5
170
     0
171
     0
290
     0
174
     0
 93
        1
 44
50.0
173
     0
291
     1
 45
0.0
1001
ACAD
1000
AcDbSavedByObjectVersion
1070
     0
  0
VISUALSTYLE
  5
9F15
102
{ACAD_REACTORS
330
9F05
102
}
330
9F05
100
AcDbVisualStyle
  2
ColorChange
 70
    16
 71
     2
 72
     2
 73
     3
 90
        0
 40
-0.6
 41
-30.0
 62
     5
 63
     8
 74
     1
 91
        4
 64
     7
 65
   257
 75
     1
175
     1
 42
1.0
 92
        8
 66
     8
 43
1.0
 76
     1
 77
     6
 78
     2
 67
     7
 79
     5
170
     0
171
     0
290
     0
174
     0
 93
        1
 44
0.0
173
     0
291
     1
 45
0.0
1001
ACAD
1000
AcDbSavedByObjectVersion
1070
     0
  0
VISUALSTYLE
  5
9F0E
102
{ACAD_REACTORS
330
9F05
102
}
330
9F05
100
AcDbVisualStyle
  2
Conceptual
 70
     9
 71
     3
 72
     2
 73
     0
 90
        0
 40
-0.6
 41
-30.0
 62
     5
 63
     7
 74
     2
 91
        2
 64
     7
 65
   257
 75
     1
175
     1
 42
40.0
 92
        8
 66
     7
 43
1.0
 76
     1
 77
     6
 78
     2
 67
     7
 79
     3
170
     0
171
     0
290
     0
174
     0
 93
        1
 44
0.0
173
     0
291
     0
 45
0.0
1001
ACAD
1000
AcDbSavedByObjectVersion
1070
     0
  0
VISUALSTYLE
  5
9F10
102
{ACAD_REACTORS
330
9F05
102
}
330
9F05
100
AcDbVisualStyle
  2
Dim
 70
    11
 71
     2
 72
     2
 73
     0
 90
        0
 40
-0.6
 41
-30.0
 62
     5
 63
     7
 74
     1
 91
        4
 64
     7
 65
   257
 75
     1
175
     1
 42
1.0
 92
        8
 66
     7
 43
1.0
 76
     1
 77
     6
 78
     2
 67
     7
 79
     5
170
     0
171
     0
290
     0
174
     0
 93
        1
 44
-50.0
173
     0
291
     1
 45
0.0
1001
ACAD
1000
AcDbSavedByObjectVersion
1070
     0
  0
VISUALSTYLE
  5
9F14
102
{ACAD_REACTORS
330
9F05
102
}
330
9F05
100
AcDbVisualStyle
  2
Facepattern
 70
    15
 71
     2
 72
     2
 73
     0
 90
        0
 40
-0.6
 41
-30.0
 62
     5
 63
     7
 74
     1
 91
        4
 64
     7
 65
   257
 75
     1
175
     1
 42
1.0
 92
        8
 66
     7
 43
1.0
 76
     1
 77
     6
 78
     2
 67
     7
 79
     5
170
     0
171
     0
290
     0
174
     0
 93
        1
 44
0.0
173
     0
291
     1
 45
0.0
1001
ACAD
1000
AcDbSavedByObjectVersion
1070
     0
  0
VISUALSTYLE
  5
9F06
102
{ACAD_REACTORS
330
9F05
102
}
330
9F05
100
AcDbVisualStyle
  2
Flat
 70
     0
 71
     2
 72
     1
 73
     1
 90
        2
 40
-0.6
 41
30.0
 62
     5
 63
     7
 74
     0
 91
        4
 64
     7
 65
   257
 75
     1
175
     1
 42
1.0
 92
        8
 66
     7
 43
1.0
 76
     1
 77
     6
 78
     2
 67
     7
 79
     5
170
     0
171
     0
290
     0
174
     0
 93
       13
 44
0.0
173
     0
291
     1
 45
0.0
1001
ACAD
1000
AcDbSavedByObjectVersion
1070
     0
  0
VISUALSTYLE
  5
9F07
102
{ACAD_REACTORS
330
9F05
102
}
330
9F05
100
AcDbVisualStyle
  2
FlatWithEdges
 70
     1
 71
     2
 72
     1
 73
     1
 90
        2
 40
-0.6
 41
30.0
 62
     5
 63
     7
 74
     1
 91
        4
 64
     7
 65
   257
 75
     1
175
     1
 42
1.0
 92
        0
 66
   257
 43
1.0
 76
     1
 77
     6
 78
     2
 67
     7
 79
     5
170
     0
171
     0
290
     0
174
     0
 93
       13
 44
0.0
173
     0
291
     1
 45
0.0
1001
ACAD
1000
AcDbSavedByObjectVersion
1070
     0
  0
VISUALSTYLE
  5
9F08
102
{ACAD_REACTORS
330
9F05
102
}
330
9F05
100
AcDbVisualStyle
  2
Gouraud
 70
     2
 71
     2
 72
     2
 73
     1
 90
        2
 40
-0.6
 41
30.0
 62
     5
 63
     7
 74
     0
 91
        4
 64
     7
 65
   257
 75
     1
175
     1
 42
1.0
 92
        0
 66
     7
 43
1.0
 76
     1
 77
     6
 78
     2
 67
     7
 79
     5
170
     0
171
     0
290
     0
174
     0
 93
       13
 44
0.0
173
     0
291
     1
 45
0.0
1001
ACAD
1000
AcDbSavedByObjectVersion
1070
     0
  0
VISUALSTYLE
  5
9F09
102
{ACAD_REACTORS
330
9F05
102
}
330
9F05
100
AcDbVisualStyle
  2
GouraudWithEdges
 70
     3
 71
     2
 72
     2
 73
     1
 90
        2
 40
-0.6
 41
30.0
 62
     5
 63
     7
 74
     1
 91
        4
 64
     7
 65
   257
 75
     1
175
     1
 42
1.0
 92
        0
 66
   257
 43
1.0
 76
     1
 77
     6
 78
     2
 67
     7
 79
     5
170
     0
171
     0
290
     0
174
     0
 93
       13
 44
0.0
173
     0
291
     1
 45
0.0
1001
ACAD
1000
AcDbSavedByObjectVersion
1070
     0
  0
VISUALSTYLE
  5
9F13
102
{ACAD_REACTORS
330
9F05
102
}
330
9F05
100
AcDbVisualStyle
  2
Linepattern
 70
    14
 71
     2
 72
     2
 73
     0
 90
        0
 40
-0.6
 41
-30.0
 62
     5
 63
     7
 74
     1
 91
        4
 64
     7
 65
   257
 75
     7
175
     7
 42
1.0
 92
        8
 66
     7
 43
1.0
 76
     1
 77
     6
 78
     2
 67
     7
 79
     5
170
     0
171
     0
290
     0
174
     0
 93
        1
 44
0.0
173
     0
291
     1
 45
0.0
1001
ACAD
1000
AcDbSavedByObjectVersion
1070
     0
  0
VISUALSTYLE
  5
9F0F
102
{ACAD_REACTORS
330
9F05
102
}
330
9F05
100
AcDbVisualStyle
  2
Realistic
 70
     8
 71
     2
 72
     2
 73
     0
 90
        0
 40
-0.6
 41
-30.0
 62
     5
 63
     7
 74
     1
 91
        0
 64
     7
 65
   257
 75
     1
175
     1
 42
1.0
 92
        8
 66
     8
 43
1.0
 76
     1
 77
     6
 78
     2
 67
     7
 79
     5
170
     0
171
     0
290
     0
174
     0
 93
       13
 44
0.0
173
     0
291
     0
 45
0.0
1001
ACAD
1000
AcDbSavedByObjectVersion
1070
     0
  0
VISUALSTYLE
  5
9F12
102
{ACAD_REACTORS
330
9F05
102
}
330
9F05
100
AcDbVisualStyle
  2
Thicken
 70
    13
 71
     2
 72
     2
 73
     0
 90
        0
 40
-0.6
 41
-30.0
 62
     5
 63
     7
 74
     1
 91
        4
 64
     7
 65
   257
 75
     1
175
     1
 42
1.0
 92
       12
 66
     7
 43
1.0
 76
     1
 77
     6
 78
     2
 67
     7
 79
     5
170
     0
171
     0
290
     0
174
     0
 93
        1
 44
0.0
173
     0
291
     1
 45
0.0
1001
ACAD
1000
AcDbSavedByObjectVersion
1070
     0
  0
DICTIONARYVAR
  5
A118
102
{ACAD_REACTORS
330
789B
102
}
330
789B
100
DictionaryVariables
280
     0
  1
1:1
  0
DICTIONARYVAR
  5
A117
102
{ACAD_REACTORS
330
789B
102
}
330
789B
100
DictionaryVariables
280
     0
  1
STANDARD
  0
DICTIONARYVAR
  5
A116
102
{ACAD_REACTORS
330
789B
102
}
330
789B
100
DictionaryVariables
280
     0
  1
STANDARD
  0
DICTIONARYVAR
  5
8B95
102
{ACAD_REACTORS
330
789B
102
}
330
789B
100
DictionaryVariables
280
     0
  1
1
  0
DICTIONARYVAR
  5
A119
102
{ACAD_REACTORS
330
789B
102
}
330
789B
100
DictionaryVariables
280
     0
  1
0
  0
DICTIONARYVAR
  5
789C
102
{ACAD_REACTORS
330
789B
102
}
330
789B
100
DictionaryVariables
280
     0
  1
96
  0
DICTIONARY
  5
A120
330
8B8D
100
AcDbDictionary
280
     1
281
     1
  3
ACAD_XREC_ROUNDTRIP
360
A121
  0
DICTIONARY
  5
A122
330
8B8E
100
AcDbDictionary
280
     1
281
     1
  3
ACAD_XREC_ROUNDTRIP
360
A123
  0
DICTIONARY
  5
9EF6
330
9EF5
100
AcDbDictionary
280
     1
281
     1
  3
ACAD_XREC_ROUNDTRIP
360
A125
  3
BUMPTILE
360
9EF8
  3
DIFFUSETILE
360
9EF7
  3
OPACITYTILE
360
9EFB
  3
REFLECTIONTILE
360
9EFA
  3
REFRACTIONTILE
360
9EFC
  3
SPECULARTILE
360
9EF9
  0
DICTIONARY
  5
9EEE
330
9EED
100
AcDbDictionary
280
     1
281
     1
  3
ACAD_XREC_ROUNDTRIP
360
A124
  3
BUMPTILE
360
9EF0
  3
DIFFUSETILE
360
9EEF
  3
OPACITYTILE
360
9EF3
  3
REFLECTIONTILE
360
9EF2
  3
REFRACTIONTILE
360
9EF4
  3
SPECULARTILE
360
9EF1
  0
DICTIONARY
  5
9EFE
330
9EFD
100
AcDbDictionary
280
     1
281
     1
  3
ACAD_XREC_ROUNDTRIP
360
A126
  3
BUMPTILE
360
9F00
  3
DIFFUSETILE
360
9EFF
  3
OPACITYTILE
360
9F03
  3
REFLECTIONTILE
360
9F02
  3
REFRACTIONTILE
360
9F04
  3
SPECULARTILE
360
9F01
  0
DICTIONARY
  5
A11A
330
9F18
100
AcDbDictionary
280
     1
281
     1
  3
ACAD_ROUNDTRIP_2008_TABLESTYLE_CELLSTYLEMAP
360
A11B
  3
ACAD_XREC_ROUNDTRIP
360
A127
  0
XRECORD
  5
A121
102
{ACAD_REACTORS
330
A120
102
}
330
A120
100
AcDbXrecord
280
     1
102
SHADEPLOT
 70
     0
102
SHADEPLOTRESLEVEL
 70
     2
102
SHADEPLOTCUSTOMDPI
 70
   300
  0
XRECORD
  5
A123
102
{ACAD_REACTORS
330
A122
102
}
330
A122
100
AcDbXrecord
280
     1
102
SHADEPLOT
 70
     0
102
SHADEPLOTRESLEVEL
 70
     2
102
SHADEPLOTCUSTOMDPI
 70
   300
  0
XRECORD
  5
A125
102
{ACAD_REACTORS
330
9EF6
102
}
330
9EF6
100
AcDbXrecord
280
     1
102
MATERIAL
148
0.0
149
0.0
149
0.0
 93
        0
 94
      127
282
     0
 72
     0
 77
     0
171
     0
175
     0
179
     0
273
     0
  0
XRECORD
  5
9EF8
102
{ACAD_REACTORS
330
9EF6
102
}
330
9EF6
100
AcDbXrecord
280
     1
270
     1
271
     1
  0
XRECORD
  5
9EF7
102
{ACAD_REACTORS
330
9EF6
102
}
330
9EF6
100
AcDbXrecord
280
     1
270
     1
271
     1
  0
XRECORD
  5
9EFB
102
{ACAD_REACTORS
330
9EF6
102
}
330
9EF6
100
AcDbXrecord
280
     1
270
     1
271
     1
  0
XRECORD
  5
9EFA
102
{ACAD_REACTORS
330
9EF6
102
}
330
9EF6
100
AcDbXrecord
280
     1
270
     1
271
     1
  0
XRECORD
  5
9EFC
102
{ACAD_REACTORS
330
9EF6
102
}
330
9EF6
100
AcDbXrecord
280
     1
270
     1
271
     1
  0
XRECORD
  5
9EF9
102
{ACAD_REACTORS
330
9EF6
102
}
330
9EF6
100
AcDbXrecord
280
     1
270
     1
271
     1
  0
XRECORD
  5
A124
102
{ACAD_REACTORS
330
9EEE
102
}
330
9EEE
100
AcDbXrecord
280
     1
102
MATERIAL
148
0.0
149
0.0
149
0.0
 93
        0
 94
      127
282
     0
 72
     0
 77
     0
171
     0
175
     0
179
     0
273
     0
  0
XRECORD
  5
9EF0
102
{ACAD_REACTORS
330
9EEE
102
}
330
9EEE
100
AcDbXrecord
280
     1
270
     1
271
     1
  0
XRECORD
  5
9EEF
102
{ACAD_REACTORS
330
9EEE
102
}
330
9EEE
100
AcDbXrecord
280
     1
270
     1
271
     1
  0
XRECORD
  5
9EF3
102
{ACAD_REACTORS
330
9EEE
102
}
330
9EEE
100
AcDbXrecord
280
     1
270
     1
271
     1
  0
XRECORD
  5
9EF2
102
{ACAD_REACTORS
330
9EEE
102
}
330
9EEE
100
AcDbXrecord
280
     1
270
     1
271
     1
  0
XRECORD
  5
9EF4
102
{ACAD_REACTORS
330
9EEE
102
}
330
9EEE
100
AcDbXrecord
280
     1
270
     1
271
     1
  0
XRECORD
  5
9EF1
102
{ACAD_REACTORS
330
9EEE
102
}
330
9EEE
100
AcDbXrecord
280
     1
270
     1
271
     1
  0
XRECORD
  5
A126
102
{ACAD_REACTORS
330
9EFE
102
}
330
9EFE
100
AcDbXrecord
280
     1
102
MATERIAL
148
0.0
149
0.0
149
0.0
 93
        0
 94
      127
282
     0
 72
     0
 77
     0
171
     0
175
     0
179
     0
273
     0
  0
XRECORD
  5
9F00
102
{ACAD_REACTORS
330
9EFE
102
}
330
9EFE
100
AcDbXrecord
280
     1
270
     1
271
     1
  0
XRECORD
  5
9EFF
102
{ACAD_REACTORS
330
9EFE
102
}
330
9EFE
100
AcDbXrecord
280
     1
270
     1
271
     1
  0
XRECORD
  5
9F03
102
{ACAD_REACTORS
330
9EFE
102
}
330
9EFE
100
AcDbXrecord
280
     1
270
     1
271
     1
  0
XRECORD
  5
9F02
102
{ACAD_REACTORS
330
9EFE
102
}
330
9EFE
100
AcDbXrecord
280
     1
270
     1
271
     1
  0
XRECORD
  5
9F04
102
{ACAD_REACTORS
330
9EFE
102
}
330
9EFE
100
AcDbXrecord
280
     1
270
     1
271
     1
  0
XRECORD
  5
9F01
102
{ACAD_REACTORS
330
9EFE
102
}
330
9EFE
100
AcDbXrecord
280
     1
270
     1
271
     1
  0
CELLSTYLEMAP
  5
A11B
102
{ACAD_REACTORS
330
A11A
102
}
330
A11A
100
AcDbCellStyleMap
 90
        3
300
CELLSTYLE
  1
TABLEFORMAT_BEGIN
 90
        5
170
     1
 91
        0
 92
    32768
 62
   257
 93
        1
300
CONTENTFORMAT
  1
CONTENTFORMAT_BEGIN
 90
        0
 91
        0
 92
      512
 93
        0
300

 40
0.0
140
1.0
 94
        5
 62
     0
340
7475
144
6.0
309
CONTENTFORMAT_END
171
     1
301
MARGIN
  1
CELLMARGIN_BEGIN
 40
1.5
 40
1.5
 40
1.5
 40
1.5
 40
4.5
 40
4.5
309
CELLMARGIN_END
 94
        6
 95
        1
302
GRIDFORMAT
  1
GRIDFORMAT_BEGIN
 90
        0
 91
        1
 62
     0
 92
       -2
340
0
 93
        0
 40
1.125
309
GRIDFORMAT_END
 95
        2
302
GRIDFORMAT
  1
GRIDFORMAT_BEGIN
 90
        0
 91
        1
 62
     0
 92
       -2
340
0
 93
        0
 40
1.125
309
GRIDFORMAT_END
 95
        4
302
GRIDFORMAT
  1
GRIDFORMAT_BEGIN
 90
        0
 91
        1
 62
     0
 92
       -2
340
0
 93
        0
 40
1.125
309
GRIDFORMAT_END
 95
        8
302
GRIDFORMAT
  1
GRIDFORMAT_BEGIN
 90
        0
 91
        1
 62
     0
 92
       -2
340
0
 93
        0
 40
1.125
309
GRIDFORMAT_END
 95
       16
302
GRIDFORMAT
  1
GRIDFORMAT_BEGIN
 90
        0
 91
        1
 62
     0
 92
       -2
340
0
 93
        0
 40
1.125
309
GRIDFORMAT_END
 95
       32
302
GRIDFORMAT
  1
GRIDFORMAT_BEGIN
 90
        0
 91
        1
 62
     0
 92
       -2
340
0
 93
        0
 40
1.125
309
GRIDFORMAT_END
309
TABLEFORMAT_END
  1
CELLSTYLE_BEGIN
 90
        1
 91
        1
300
_TITLE
309
CELLSTYLE_END
300
CELLSTYLE
  1
TABLEFORMAT_BEGIN
 90
        5
170
     1
 91
        0
 92
        0
 62
   257
 93
        1
300
CONTENTFORMAT
  1
CONTENTFORMAT_BEGIN
 90
        0
 91
        0
 92
      512
 93
        0
300

 40
0.0
140
1.0
 94
        5
 62
     0
340
7475
144
4.5
309
CONTENTFORMAT_END
171
     1
301
MARGIN
  1
CELLMARGIN_BEGIN
 40
1.5
 40
1.5
 40
1.5
 40
1.5
 40
4.5
 40
4.5
309
CELLMARGIN_END
 94
        6
 95
        1
302
GRIDFORMAT
  1
GRIDFORMAT_BEGIN
 90
        0
 91
        1
 62
     0
 92
       -2
340
0
 93
        0
 40
1.125
309
GRIDFORMAT_END
 95
        2
302
GRIDFORMAT
  1
GRIDFORMAT_BEGIN
 90
        0
 91
        1
 62
     0
 92
       -2
340
0
 93
        0
 40
1.125
309
GRIDFORMAT_END
 95
        4
302
GRIDFORMAT
  1
GRIDFORMAT_BEGIN
 90
        0
 91
        1
 62
     0
 92
       -2
340
0
 93
        0
 40
1.125
309
GRIDFORMAT_END
 95
        8
302
GRIDFORMAT
  1
GRIDFORMAT_BEGIN
 90
        0
 91
        1
 62
     0
 92
       -2
340
0
 93
        0
 40
1.125
309
GRIDFORMAT_END
 95
       16
302
GRIDFORMAT
  1
GRIDFORMAT_BEGIN
 90
        0
 91
        1
 62
     0
 92
       -2
340
0
 93
        0
 40
1.125
309
GRIDFORMAT_END
 95
       32
302
GRIDFORMAT
  1
GRIDFORMAT_BEGIN
 90
        0
 91
        1
 62
     0
 92
       -2
340
0
 93
        0
 40
1.125
309
GRIDFORMAT_END
309
TABLEFORMAT_END
  1
CELLSTYLE_BEGIN
 90
        2
 91
        1
300
_HEADER
309
CELLSTYLE_END
300
CELLSTYLE
  1
TABLEFORMAT_BEGIN
 90
        5
170
     1
 91
        0
 92
        0
 62
   257
 93
        1
300
CONTENTFORMAT
  1
CONTENTFORMAT_BEGIN
 90
        0
 91
        0
 92
      512
 93
        0
300

 40
0.0
140
1.0
 94
        2
 62
     0
340
7475
144
4.5
309
CONTENTFORMAT_END
171
     1
301
MARGIN
  1
CELLMARGIN_BEGIN
 40
1.5
 40
1.5
 40
1.5
 40
1.5
 40
4.5
 40
4.5
309
CELLMARGIN_END
 94
        6
 95
        1
302
GRIDFORMAT
  1
GRIDFORMAT_BEGIN
 90
        0
 91
        1
 62
     0
 92
       -2
340
0
 93
        0
 40
1.125
309
GRIDFORMAT_END
 95
        2
302
GRIDFORMAT
  1
GRIDFORMAT_BEGIN
 90
        0
 91
        1
 62
     0
 92
       -2
340
0
 93
        0
 40
1.125
309
GRIDFORMAT_END
 95
        4
302
GRIDFORMAT
  1
GRIDFORMAT_BEGIN
 90
        0
 91
        1
 62
     0
 92
       -2
340
0
 93
        0
 40
1.125
309
GRIDFORMAT_END
 95
        8
302
GRIDFORMAT
  1
GRIDFORMAT_BEGIN
 90
        0
 91
        1
 62
     0
 92
       -2
340
0
 93
        0
 40
1.125
309
GRIDFORMAT_END
 95
       16
302
GRIDFORMAT
  1
GRIDFORMAT_BEGIN
 90
        0
 91
        1
 62
     0
 92
       -2
340
0
 93
        0
 40
1.125
309
GRIDFORMAT_END
 95
       32
302
GRIDFORMAT
  1
GRIDFORMAT_BEGIN
 90
        0
 91
        1
 62
     0
 92
       -2
340
0
 93
        0
 40
1.125
309
GRIDFORMAT_END
309
TABLEFORMAT_END
  1
CELLSTYLE_BEGIN
 90
        3
 91
        2
300
_DATA
309
CELLSTYLE_END
  0
XRECORD
  5
A127
102
{ACAD_REACTORS
330
A11A
102
}
330
A11A
100
AcDbXrecord
280
     1
102
ACAD_ROUNDTRIP_PRE2007_TABLESTYLE
 90
      512
 91
        0
  1

 92
      512
 93
        0
  2

 94
      512
 95
        0
  3

  0
ENDSEC
  0
EOF
