  0
SECTION
  2
HEADER
  9
$ACADVER
  1
AC1015
  9
$ACADMAINTVER
 70
    20
  9
$DWGCODEPAGE
  3
ANSI_932
  9
$INSBASE
 10
0.0
 20
0.0
 30
0.0
  9
$EXTMIN
 10
-0.3026767645642394
 20
-0.2006518813759612
 30
-0.0000000000000011
  9
$EXTMAX
 10
4455.439232224645
 20
3150.159004830741
 30
0.0000000000000141
  9
$LIMMIN
 10
0.0
 20
0.0
  9
$LIMMAX
 10
420.0
 20
297.0
  9
$ORTHOMODE
 70
     1
  9
$REGENMODE
 70
     1
  9
$FILLMODE
 70
     1
  9
$QTEXTMODE
 70
     0
  9
$MIRRTEXT
 70
     1
  9
$LTSCALE
 40
0.5
  9
$ATTMODE
 70
     1
  9
$TEXTSIZE
 40
2.799999999999999
  9
$TRACEWID
 40
1.0
  9
$TEXTSTYLE
  7
SANWA
  9
$CLAYER
  8
0
  9
$CELTYPE
  6
BYLAYER
  9
$CECOLOR
 62
   256
  9
$CELTSCALE
 40
15.0
  9
$DISPSILH
 70
     0
  9
$DIMSCALE
 40
15.0
  9
$DIMASZ
 40
1.5
  9
$DIMEXO
 40
1.0
  9
$DIMDLI
 40
5.0
  9
$DIMRND
 40
0.0
  9
$DIMDLE
 40
0.0
  9
$DIMEXE
 40
0.5
  9
$DIMTP
 40
0.0
  9
$DIMTM
 40
0.0
  9
$DIMTXT
 40
2.0
  9
$DIMCEN
 40
0.0
  9
$DIMTSZ
 40
0.0
  9
$DIMTOL
 70
     0
  9
$DIMLIM
 70
     0
  9
$DIMTIH
 70
     0
  9
$DIMTOH
 70
     0
  9
$DIMSE1
 70
     0
  9
$DIMSE2
 70
     0
  9
$DIMTAD
 70
     1
  9
$DIMZIN
 70
     8
  9
$DIMBLK
  1

  9
$DIMASO
 70
     1
  9
$DIMSHO
 70
     1
  9
$DIMPOST
  1

  9
$DIMAPOST
  1

  9
$DIMALT
 70
     0
  9
$DIMALTD
 70
     2
  9
$DIMALTF
 40
0.0394
  9
$DIMLFAC
 40
1.0
  9
$DIMTOFL
 70
     1
  9
$DIMTVP
 40
0.0
  9
$DIMTIX
 70
     1
  9
$DIMSOXD
 70
     0
  9
$DIMSAH
 70
     0
  9
$DIMBLK1
  1

  9
$DIMBLK2
  1

  9
$DIMSTYLE
  2
SANWA
  9
$DIMCLRD
 70
   256
  9
$DIMCLRE
 70
   256
  9
$DIMCLRT
 70
   256
  9
$DIMTFAC
 40
1.0
  9
$DIMGAP
 40
1.0
  9
$DIMJUST
 70
     0
  9
$DIMSD1
 70
     0
  9
$DIMSD2
 70
     0
  9
$DIMTOLJ
 70
     1
  9
$DIMTZIN
 70
     0
  9
$DIMALTZ
 70
     0
  9
$DIMALTTZ
 70
     0
  9
$DIMUPT
 70
     0
  9
$DIMDEC
 70
     4
  9
$DIMTDEC
 70
     4
  9
$DIMALTU
 70
     2
  9
$DIMALTTD
 70
     2
  9
$DIMTXSTY
  7
SANWA
  9
$DIMAUNIT
 70
     0
  9
$DIMADEC
 70
     0
  9
$DIMALTRND
 40
0.0
  9
$DIMAZIN
 70
     0
  9
$DIMDSEP
 70
    46
  9
$DIMATFIT
 70
     3
  9
$DIMFRAC
 70
     0
  9
$DIMLDRBLK
  1

  9
$DIMLUNIT
 70
     2
  9
$DIMLWD
 70
    -2
  9
$DIMLWE
 70
    -2
  9
$DIMTMOVE
 70
     0
  9
$LUNITS
 70
     2
  9
$LUPREC
 70
     4
  9
$SKETCHINC
 40
1.0
  9
$FILLETRAD
 40
10.0
  9
$AUNITS
 70
     0
  9
$AUPREC
 70
     0
  9
$MENU
  1
acad
  9
$ELEVATION
 40
0.0
  9
$PELEVATION
 40
0.0
  9
$THICKNESS
 40
0.0
  9
$LIMCHECK
 70
     0
  9
$CHAMFERA
 40
0.0
  9
$CHAMFERB
 40
0.0
  9
$CHAMFERC
 40
0.0
  9
$CHAMFERD
 40
0.0
  9
$SKPOLY
 70
     1
  9
$TDCREATE
 40
2451633.596246065
  9
$TDUCREATE
 40
2451633.221246065
  9
$TDUPDATE
 40
2455412.416485822
  9
$TDUUPDATE
 40
2455412.041485822
  9
$TDINDWG
 40
0.4163287616
  9
$TDUSRTIMER
 40
0.4163287616
  9
$USRTIMER
 70
     1
  9
$ANGBASE
 50
0.0
  9
$ANGDIR
 70
     0
  9
$PDMODE
 70
     0
  9
$PDSIZE
 40
0.0
  9
$PLINEWID
 40
0.0
  9
$SPLFRAME
 70
     0
  9
$SPLINETYPE
 70
     6
  9
$SPLINESEGS
 70
     8
  9
$HANDSEED
  5
A249
  9
$SURFTAB1
 70
     6
  9
$SURFTAB2
 70
     6
  9
$SURFTYPE
 70
     6
  9
$SURFU
 70
     6
  9
$SURFV
 70
     6
  9
$UCSBASE
  2

  9
$UCSNAME
  2

  9
$UCSORG
 10
0.0
 20
0.0
 30
0.0
  9
$UCSXDIR
 10
1.0
 20
0.0
 30
0.0
  9
$UCSYDIR
 10
0.0
 20
1.0
 30
0.0
  9
$UCSORTHOREF
  2

  9
$UCSORTHOVIEW
 70
     0
  9
$UCSORGTOP
 10
0.0
 20
0.0
 30
0.0
  9
$UCSORGBOTTOM
 10
0.0
 20
0.0
 30
0.0
  9
$UCSORGLEFT
 10
0.0
 20
0.0
 30
0.0
  9
$UCSORGRIGHT
 10
0.0
 20
0.0
 30
0.0
  9
$UCSORGFRONT
 10
0.0
 20
0.0
 30
0.0
  9
$UCSORGBACK
 10
0.0
 20
0.0
 30
0.0
  9
$PUCSBASE
  2

  9
$PUCSNAME
  2

  9
$PUCSORG
 10
0.0
 20
0.0
 30
0.0
  9
$PUCSXDIR
 10
1.0
 20
0.0
 30
0.0
  9
$PUCSYDIR
 10
0.0
 20
1.0
 30
0.0
  9
$PUCSORTHOREF
  2

  9
$PUCSORTHOVIEW
 70
     0
  9
$PUCSORGTOP
 10
0.0
 20
0.0
 30
0.0
  9
$PUCSORGBOTTOM
 10
0.0
 20
0.0
 30
0.0
  9
$PUCSORGLEFT
 10
0.0
 20
0.0
 30
0.0
  9
$PUCSORGRIGHT
 10
0.0
 20
0.0
 30
0.0
  9
$PUCSORGFRONT
 10
0.0
 20
0.0
 30
0.0
  9
$PUCSORGBACK
 10
0.0
 20
0.0
 30
0.0
  9
$USERI1
 70
     0
  9
$USERI2
 70
     0
  9
$USERI3
 70
     0
  9
$USERI4
 70
     0
  9
$USERI5
 70
     0
  9
$USERR1
 40
0.0
  9
$USERR2
 40
0.0
  9
$USERR3
 40
0.0
  9
$USERR4
 40
0.0
  9
$USERR5
 40
0.0
  9
$WORLDVIEW
 70
     1
  9
$SHADEDGE
 70
     3
  9
$SHADEDIF
 70
    70
  9
$TILEMODE
 70
     1
  9
$MAXACTVP
 70
    48
  9
$PINSBASE
 10
0.0
 20
0.0
 30
0.0
  9
$PLIMCHECK
 70
     0
  9
$PEXTMIN
 10
1.000000000000000E+20
 20
1.000000000000000E+20
 30
1.000000000000000E+20
  9
$PEXTMAX
 10
-1.000000000000000E+20
 20
-1.000000000000000E+20
 30
-1.000000000000000E+20
  9
$PLIMMIN
 10
-201.7039368317877
 20
-4225.281305321274
  9
$PLIMMAX
 10
10089.84777374205
 20
3051.639780404483
  9
$UNITMODE
 70
     0
  9
$VISRETAIN
 70
     1
  9
$PLINEGEN
 70
     0
  9
$PSLTSCALE
 70
     1
  9
$TREEDEPTH
 70
  3020
  9
$CMLSTYLE
  2
STANDARD
  9
$CMLJUST
 70
     0
  9
$CMLSCALE
 40
1.0
  9
$PROXYGRAPHICS
 70
     1
  9
$MEASUREMENT
 70
     1
  9
$CELWEIGHT
370
    -1
  9
$ENDCAPS
280
     0
  9
$JOINSTYLE
280
     0
  9
$LWDISPLAY
290
     0
  9
$INSUNITS
 70
     0
  9
$HYPERLINKBASE
  1

  9
$STYLESHEET
  1
sanwa3.ctb
  9
$XEDIT
290
     1
  9
$CEPSNTYPE
380
     0
  9
$PSTYLEMODE
290
     1
  9
$FINGERPRINTGUID
  2
{6DAE8633-7DA1-4EF2-898A-1B99AE2B01B9}
  9
$VERSIONGUID
  2
{33FE7F6F-F1AD-4322-8088-4330895A129C}
  9
$EXTNAMES
290
     1
  9
$PSVPSCALE
 40
0.0
  9
$OLESTARTUP
290
     0
  0
ENDSEC
  0
SECTION
  2
CLASSES
  0
CLASS
  1
DICTIONARYVAR
  2
AcDbDictionaryVar
  3
ObjectDBX Classes
 90
        0
280
     0
281
     0
  0
CLASS
  1
ACDBDICTIONARYWDFLT
  2
AcDbDictionaryWithDefault
  3
ObjectDBX Classes
 90
        0
280
     0
281
     0
  0
CLASS
  1
ACDBPLACEHOLDER
  2
AcDbPlaceHolder
  3
ObjectDBX Classes
 90
        0
280
     0
281
     0
  0
CLASS
  1
LAYOUT
  2
AcDbLayout
  3
ObjectDBX Classes
 90
        0
280
     0
281
     0
  0
CLASS
  1
MATERIAL
  2
AcDbMaterial
  3
ObjectDBX Classes
 90
     1153
280
     0
281
     0
  0
CLASS
  1
VISUALSTYLE
  2
AcDbVisualStyle
  3
ObjectDBX Classes
 90
     4095
280
     0
281
     0
  0
CLASS
  1
TABLESTYLE
  2
AcDbTableStyle
  3
ObjectDBX Classes
 90
     4095
280
     0
281
     0
  0
CLASS
  1
SCALE
  2
AcDbScale
  3
ObjectDBX Classes
 90
     1153
280
     0
281
     0
  0
CLASS
  1
MLEADERSTYLE
  2
AcDbMLeaderStyle
  3
ACDB_MLEADERSTYLE_CLASS
 90
     4095
280
     0
281
     0
  0
CLASS
  1
CELLSTYLEMAP
  2
AcDbCellStyleMap
  3
ObjectDBX Classes
 90
     1152
280
     0
281
     0
  0
ENDSEC
  0
SECTION
  2
TABLES
  0
TABLE
  2
VPORT
  5
746D
330
0
100
AcDbSymbolTable
 70
     1
  0
VPORT
  5
9EAC
330
746D
100
AcDbSymbolTableRecord
100
AcDbViewportTableRecord
  2
*Active
 70
     0
 10
0.0
 20
0.0
 11
1.0
 21
1.0
 12
2227.568277634048
 22
1574.979183205902
 13
0.0
 23
0.0
 14
10.0
 24
10.0
 15
10.0
 25
10.0
 16
0.0
 26
0.0
 36
1.0
 17
0.0
 27
0.0
 37
0.0
 40
3606.869482087956
 41
1.353070175438596
 42
50.0
 43
0.0
 44
0.0
 50
0.0
 51
0.0
 71
     0
 72
   100
 73
     1
 74
     0
 75
     0
 76
     0
 77
     0
 78
     0
281
     0
 65
     1
110
0.0
120
0.0
130
0.0
111
1.0
121
0.0
131
0.0
112
0.0
122
1.0
132
0.0
 79
     0
146
0.0
  0
ENDTAB
  0
TABLE
  2
LTYPE
  5
746A
330
0
100
AcDbSymbolTable
 70
     5
  0
LTYPE
  5
7477
330
746A
100
AcDbSymbolTableRecord
100
AcDbLinetypeTableRecord
  2
BYBLOCK
 70
     0
  3

 72
    65
 73
     0
 40
0.0
  0
LTYPE
  5
7478
330
746A
100
AcDbSymbolTableRecord
100
AcDbLinetypeTableRecord
  2
BYLAYER
 70
     0
  3

 72
    65
 73
     0
 40
0.0
  0
LTYPE
  5
7479
330
746A
100
AcDbSymbolTableRecord
100
AcDbLinetypeTableRecord
  2
CONTINUOUS
 70
     0
  3
Solid line
 72
    65
 73
     0
 40
0.0
  0
LTYPE
  5
7D54
330
746A
100
AcDbSymbolTableRecord
100
AcDbLinetypeTableRecord
  2
CENTER2
 70
     0
  3
Center (.5x) ___ _ ___ _ ___ _ ___ _ ___ _ ___
 72
    65
 73
     4
 40
28.575
 49
19.05
 74
     0
 49
-3.174999999999999
 74
     0
 49
3.174999999999999
 74
     0
 49
-3.174999999999999
 74
     0
  0
LTYPE
  5
7D55
330
746A
100
AcDbSymbolTableRecord
100
AcDbLinetypeTableRecord
  2
DOT
 70
     0
  3
Dot . . . . . . . . . . . . . . . . . . . . . .
 72
    65
 73
     2
 40
6.349999999999999
 49
0.0
 74
     0
 49
-6.349999999999999
 74
     0
  0
LTYPE
  5
7D56
330
746A
100
AcDbSymbolTableRecord
100
AcDbLinetypeTableRecord
  2
HIDDEN2
 70
     0
  3
Hidden (.5x) _ _ _ _ _ _ _ _ _ _ _ _ _ _ _ _ _
 72
    65
 73
     2
 40
4.762499999999999
 49
3.174999999999999
 74
     0
 49
-1.587499999999999
 74
     0
  0
LTYPE
  5
7D57
330
746A
100
AcDbSymbolTableRecord
100
AcDbLinetypeTableRecord
  2
PHANTOM2
 70
     0
  3
Phantom (.5x) ___ _ _ ___ _ _ ___ _ _ ___ _ _
 72
    65
 73
     6
 40
31.75
 49
15.875
 74
     0
 49
-3.174999999999999
 74
     0
 49
3.174999999999999
 74
     0
 49
-3.174999999999999
 74
     0
 49
3.174999999999999
 74
     0
 49
-3.174999999999999
 74
     0
  0
ENDTAB
  0
TABLE
  2
LAYER
  5
7467
330
0
100
AcDbSymbolTable
 70
     7
  0
LAYER
  5
7474
102
{ACAD_XDICTIONARY
360
A20E
102
}
330
7467
100
AcDbSymbolTableRecord
100
AcDbLayerTableRecord
  2
0
 70
     0
 62
     7
  6
CONTINUOUS
370
    -3
390
8C67
  0
LAYER
  5
7485
330
7467
100
AcDbSymbolTableRecord
100
AcDbLayerTableRecord
  2
DEFPOINTS
 70
     0
 62
     7
  6
CONTINUOUS
290
     0
370
    -3
390
8C67
  0
LAYER
  5
7486
102
{ACAD_XDICTIONARY
360
A210
102
}
330
7467
100
AcDbSymbolTableRecord
100
AcDbLayerTableRecord
  2
OBJECT
 70
     0
 62
     7
  6
CONTINUOUS
370
    -3
390
8C67
  0
LAYER
  5
7950
102
{ACAD_XDICTIONARY
360
A212
102
}
330
7467
100
AcDbSymbolTableRecord
100
AcDbLayerTableRecord
  2
枠
 70
     0
 62
     3
  6
CONTINUOUS
370
    -3
390
8C67
  0
LAYER
  5
7D58
102
{ACAD_XDICTIONARY
360
A214
102
}
330
7467
100
AcDbSymbolTableRecord
100
AcDbLayerTableRecord
  2
寸法引出
 70
     0
 62
     2
  6
CONTINUOUS
370
    -3
390
8C67
  0
LAYER
  5
7D59
102
{ACAD_XDICTIONARY
360
A216
102
}
330
7467
100
AcDbSymbolTableRecord
100
AcDbLayerTableRecord
  2
鉄筋
 70
     0
 62
     4
  6
CONTINUOUS
370
    -3
390
8C67
  0
LAYER
  5
7D5A
102
{ACAD_XDICTIONARY
360
A218
102
}
330
7467
100
AcDbSymbolTableRecord
100
AcDbLayerTableRecord
  2
補助線
 70
     0
 62
     6
  6
CONTINUOUS
370
    -3
390
8C67
  0
ENDTAB
  0
TABLE
  2
STYLE
  5
7468
330
0
100
AcDbSymbolTable
 70
     5
  0
STYLE
  5
7475
330
7468
100
AcDbSymbolTableRecord
100
AcDbTextStyleTableRecord
  2
STANDARD
 70
     0
 40
0.0
 41
1.0
 50
0.0
 71
     0
 42
3.5
  3
txt
  4

  0
STYLE
  5
7481
330
7468
100
AcDbSymbolTableRecord
100
AcDbTextStyleTableRecord
  2
ADESK1
 70
     0
 40
0.0
 41
1.0
 50
0.0
 71
     0
 42
5.0
  3
romans
  4
bigfont
  0
STYLE
  5
7731
330
7468
100
AcDbSymbolTableRecord
100
AcDbTextStyleTableRecord
  2
SANWA
 70
     0
 40
0.0
 41
1.0
 50
0.0
 71
     0
 42
2.799999999999999
  3
MS Mincho.ttf
  4

1001
ACAD
1000
MS Mincho
1071
    32785
  0
STYLE
  5
7D45
330
7468
100
AcDbSymbolTableRecord
100
AcDbTextStyleTableRecord
  2

 70
     1
 40
0.0
 41
1.0
 50
0.0
 71
     0
 42
3.5
  3
ltypeshp.shx
  4

  0
ENDTAB
  0
TABLE
  2
VIEW
  5
746B
330
0
100
AcDbSymbolTable
 70
     0
  0
ENDTAB
  0
TABLE
  2
UCS
  5
746C
330
0
100
AcDbSymbolTable
 70
     0
  0
ENDTAB
  0
TABLE
  2
APPID
  5
746E
330
0
100
AcDbSymbolTable
 70
     3
  0
APPID
  5
7476
330
746E
100
AcDbSymbolTableRecord
100
AcDbRegAppTableRecord
  2
ACAD
 70
     0
  0
APPID
  5
9EFF
330
746E
100
AcDbSymbolTableRecord
100
AcDbRegAppTableRecord
  2
ACAD_MLEADERVER
 70
     0
  0
APPID
  5
A22E
330
746E
100
AcDbSymbolTableRecord
100
AcDbRegAppTableRecord
  2
ACAD_PSEXT
 70
     0
  0
ENDTAB
  0
TABLE
  2
DIMSTYLE
  5
746F
330
0
100
AcDbSymbolTable
 70
     5
100
AcDbDimStyleTable
 71
     1
340
796F
  0
DIMSTYLE
105
7484
330
746F
100
AcDbSymbolTableRecord
100
AcDbDimStyleTableRecord
  2
JIS
 70
     0
 41
2.5
 42
1.0
 43
7.0
 44
1.0
 73
     0
 74
     0
 77
     1
 78
     8
140
2.5
141
0.0
143
0.0394
147
0.0
172
     1
174
     1
176
     2
177
     2
178
     2
340
7731
  0
DIMSTYLE
105
796F
102
{ACAD_REACTORS
330
9471
330
9472
330
9477
330
9478
330
9479
330
947A
330
947C
330
94D8
330
94DB
330
94DD
330
94DE
330
94DF
330
94E0
330
94E3
330
94E5
330
94E6
330
94E8
330
94E9
330
94EC
330
94FC
330
94FD
330
9513
330
951F
330
952A
330
952B
330
9539
102
}
330
746F
100
AcDbSymbolTableRecord
100
AcDbDimStyleTableRecord
  2
SANWA
 70
     0
 41
2.5
 42
1.0
 43
7.0
 44
1.0
 73
     0
 74
     0
 77
     1
 78
     8
140
2.5
141
0.0
143
0.0394
147
0.0
172
     1
174
     1
176
     2
177
     2
178
     2
340
7731
  0
DIMSTYLE
105
7C9D
330
746F
100
AcDbSymbolTableRecord
100
AcDbDimStyleTableRecord
  2
SANWA$4
 70
     0
 41
2.5
 42
1.0
 43
5.0
 44
1.0
 73
     0
 74
     0
 77
     1
 78
     8
140
2.5
141
0.0
143
0.0394
147
1.0
172
     1
174
     1
176
     2
177
     2
178
     2
289
     2
340
7731
  0
DIMSTYLE
105
7CB5
330
746F
100
AcDbSymbolTableRecord
100
AcDbDimStyleTableRecord
  2
SANWA$3
 70
     0
 41
2.5
 42
1.0
 43
7.0
 44
1.0
 73
     0
 74
     0
 77
     1
 78
     8
140
2.5
141
0.0
143
0.0394
147
0.0
172
     1
174
     1
176
     2
177
     2
178
     2
289
     0
340
7731
  0
ENDTAB
  0
TABLE
  2
BLOCK_RECORD
  5
7466
330
0
100
AcDbSymbolTable
 70
   260
  0
BLOCK_RECORD
  5
747D
330
7466
100
AcDbSymbolTableRecord
100
AcDbBlockTableRecord
  2
*MODEL_SPACE
340
8C6A
  0
BLOCK_RECORD
  5
747A
330
7466
100
AcDbSymbolTableRecord
100
AcDbBlockTableRecord
  2
*PAPER_SPACE
340
8C6B
  0
BLOCK_RECORD
  5
7493
330
7466
100
AcDbSymbolTableRecord
100
AcDbBlockTableRecord
  2
TITLE_BLOCK
340
0
  0
BLOCK_RECORD
  5
979B
330
7466
100
AcDbSymbolTableRecord
100
AcDbBlockTableRecord
  2
*D173
340
0
  0
BLOCK_RECORD
  5
97A6
330
7466
100
AcDbSymbolTableRecord
100
AcDbBlockTableRecord
  2
*D174
340
0
  0
BLOCK_RECORD
  5
97B1
330
7466
100
AcDbSymbolTableRecord
100
AcDbBlockTableRecord
  2
*D175
340
0
  0
BLOCK_RECORD
  5
97BD
330
7466
100
AcDbSymbolTableRecord
100
AcDbBlockTableRecord
  2
*D176
340
0
  0
BLOCK_RECORD
  5
97C9
330
7466
100
AcDbSymbolTableRecord
100
AcDbBlockTableRecord
  2
*D177
340
0
  0
BLOCK_RECORD
  5
97D5
330
7466
100
AcDbSymbolTableRecord
100
AcDbBlockTableRecord
  2
*D178
340
0
  0
BLOCK_RECORD
  5
97E0
330
7466
100
AcDbSymbolTableRecord
100
AcDbBlockTableRecord
  2
*D179
340
0
  0
BLOCK_RECORD
  5
97EC
330
7466
100
AcDbSymbolTableRecord
100
AcDbBlockTableRecord
  2
*D180
340
0
  0
BLOCK_RECORD
  5
97F8
330
7466
100
AcDbSymbolTableRecord
100
AcDbBlockTableRecord
  2
*D181
340
0
  0
BLOCK_RECORD
  5
9804
330
7466
100
AcDbSymbolTableRecord
100
AcDbBlockTableRecord
  2
*D182
340
0
  0
BLOCK_RECORD
  5
9810
330
7466
100
AcDbSymbolTableRecord
100
AcDbBlockTableRecord
  2
*D183
340
0
  0
BLOCK_RECORD
  5
981B
330
7466
100
AcDbSymbolTableRecord
100
AcDbBlockTableRecord
  2
*D184
340
0
  0
BLOCK_RECORD
  5
9827
330
7466
100
AcDbSymbolTableRecord
100
AcDbBlockTableRecord
  2
*D185
340
0
  0
BLOCK_RECORD
  5
9833
330
7466
100
AcDbSymbolTableRecord
100
AcDbBlockTableRecord
  2
*D186
340
0
  0
BLOCK_RECORD
  5
983E
330
7466
100
AcDbSymbolTableRecord
100
AcDbBlockTableRecord
  2
*D187
340
0
  0
BLOCK_RECORD
  5
984A
330
7466
100
AcDbSymbolTableRecord
100
AcDbBlockTableRecord
  2
*D188
340
0
  0
BLOCK_RECORD
  5
9856
330
7466
100
AcDbSymbolTableRecord
100
AcDbBlockTableRecord
  2
*D189
340
0
  0
BLOCK_RECORD
  5
9864
330
7466
100
AcDbSymbolTableRecord
100
AcDbBlockTableRecord
  2
*D190
340
0
  0
BLOCK_RECORD
  5
9872
330
7466
100
AcDbSymbolTableRecord
100
AcDbBlockTableRecord
  2
*D191
340
0
  0
BLOCK_RECORD
  5
987E
330
7466
100
AcDbSymbolTableRecord
100
AcDbBlockTableRecord
  2
*D192
340
0
  0
BLOCK_RECORD
  5
988B
330
7466
100
AcDbSymbolTableRecord
100
AcDbBlockTableRecord
  2
*D193
340
0
  0
BLOCK_RECORD
  5
9897
330
7466
100
AcDbSymbolTableRecord
100
AcDbBlockTableRecord
  2
*D194
340
0
  0
BLOCK_RECORD
  5
98A3
330
7466
100
AcDbSymbolTableRecord
100
AcDbBlockTableRecord
  2
*D195
340
0
  0
BLOCK_RECORD
  5
98AE
330
7466
100
AcDbSymbolTableRecord
100
AcDbBlockTableRecord
  2
*D196
340
0
  0
BLOCK_RECORD
  5
98B9
330
7466
100
AcDbSymbolTableRecord
100
AcDbBlockTableRecord
  2
*D197
340
0
  0
BLOCK_RECORD
  5
98C4
330
7466
100
AcDbSymbolTableRecord
100
AcDbBlockTableRecord
  2
*D198
340
0
  0
BLOCK_RECORD
  5
98D0
330
7466
100
AcDbSymbolTableRecord
100
AcDbBlockTableRecord
  2
*D199
340
0
  0
BLOCK_RECORD
  5
98DB
330
7466
100
AcDbSymbolTableRecord
100
AcDbBlockTableRecord
  2
*D200
340
0
  0
BLOCK_RECORD
  5
98E7
330
7466
100
AcDbSymbolTableRecord
100
AcDbBlockTableRecord
  2
*D201
340
0
  0
BLOCK_RECORD
  5
98F2
330
7466
100
AcDbSymbolTableRecord
100
AcDbBlockTableRecord
  2
*D202
340
0
  0
BLOCK_RECORD
  5
98FF
330
7466
100
AcDbSymbolTableRecord
100
AcDbBlockTableRecord
  2
*D203
340
0
  0
BLOCK_RECORD
  5
990A
330
7466
100
AcDbSymbolTableRecord
100
AcDbBlockTableRecord
  2
*D204
340
0
  0
BLOCK_RECORD
  5
9917
330
7466
100
AcDbSymbolTableRecord
100
AcDbBlockTableRecord
  2
*D205
340
0
  0
BLOCK_RECORD
  5
9925
330
7466
100
AcDbSymbolTableRecord
100
AcDbBlockTableRecord
  2
*D206
340
0
  0
BLOCK_RECORD
  5
9932
330
7466
100
AcDbSymbolTableRecord
100
AcDbBlockTableRecord
  2
*D207
340
0
  0
BLOCK_RECORD
  5
993D
330
7466
100
AcDbSymbolTableRecord
100
AcDbBlockTableRecord
  2
*D208
340
0
  0
BLOCK_RECORD
  5
9948
330
7466
100
AcDbSymbolTableRecord
100
AcDbBlockTableRecord
  2
*D209
340
0
  0
BLOCK_RECORD
  5
9954
330
7466
100
AcDbSymbolTableRecord
100
AcDbBlockTableRecord
  2
*D210
340
0
  0
BLOCK_RECORD
  5
9960
330
7466
100
AcDbSymbolTableRecord
100
AcDbBlockTableRecord
  2
*D211
340
0
  0
BLOCK_RECORD
  5
996B
330
7466
100
AcDbSymbolTableRecord
100
AcDbBlockTableRecord
  2
*D212
340
0
  0
BLOCK_RECORD
  5
9977
330
7466
100
AcDbSymbolTableRecord
100
AcDbBlockTableRecord
  2
*D213
340
0
  0
BLOCK_RECORD
  5
9983
330
7466
100
AcDbSymbolTableRecord
100
AcDbBlockTableRecord
  2
*D214
340
0
  0
BLOCK_RECORD
  5
998E
330
7466
100
AcDbSymbolTableRecord
100
AcDbBlockTableRecord
  2
*D215
340
0
  0
BLOCK_RECORD
  5
999C
330
7466
100
AcDbSymbolTableRecord
100
AcDbBlockTableRecord
  2
*D216
340
0
  0
BLOCK_RECORD
  5
99A9
330
7466
100
AcDbSymbolTableRecord
100
AcDbBlockTableRecord
  2
*D217
340
0
  0
BLOCK_RECORD
  5
99B5
330
7466
100
AcDbSymbolTableRecord
100
AcDbBlockTableRecord
  2
*D218
340
0
  0
BLOCK_RECORD
  5
99C1
330
7466
100
AcDbSymbolTableRecord
100
AcDbBlockTableRecord
  2
*D219
340
0
  0
BLOCK_RECORD
  5
99CD
330
7466
100
AcDbSymbolTableRecord
100
AcDbBlockTableRecord
  2
*D220
340
0
  0
BLOCK_RECORD
  5
99DA
330
7466
100
AcDbSymbolTableRecord
100
AcDbBlockTableRecord
  2
*D221
340
0
  0
BLOCK_RECORD
  5
99E6
330
7466
100
AcDbSymbolTableRecord
100
AcDbBlockTableRecord
  2
*D222
340
0
  0
BLOCK_RECORD
  5
99F1
330
7466
100
AcDbSymbolTableRecord
100
AcDbBlockTableRecord
  2
*D223
340
0
  0
BLOCK_RECORD
  5
99FD
330
7466
100
AcDbSymbolTableRecord
100
AcDbBlockTableRecord
  2
*D224
340
0
  0
BLOCK_RECORD
  5
9A08
330
7466
100
AcDbSymbolTableRecord
100
AcDbBlockTableRecord
  2
*D225
340
0
  0
BLOCK_RECORD
  5
9A14
330
7466
100
AcDbSymbolTableRecord
100
AcDbBlockTableRecord
  2
*D226
340
0
  0
BLOCK_RECORD
  5
9A20
330
7466
100
AcDbSymbolTableRecord
100
AcDbBlockTableRecord
  2
*D227
340
0
  0
BLOCK_RECORD
  5
9A2D
330
7466
100
AcDbSymbolTableRecord
100
AcDbBlockTableRecord
  2
*D228
340
0
  0
BLOCK_RECORD
  5
9A39
330
7466
100
AcDbSymbolTableRecord
100
AcDbBlockTableRecord
  2
*D229
340
0
  0
BLOCK_RECORD
  5
9A45
330
7466
100
AcDbSymbolTableRecord
100
AcDbBlockTableRecord
  2
*D230
340
0
  0
BLOCK_RECORD
  5
9A53
330
7466
100
AcDbSymbolTableRecord
100
AcDbBlockTableRecord
  2
*D231
340
0
  0
BLOCK_RECORD
  5
9A5F
330
7466
100
AcDbSymbolTableRecord
100
AcDbBlockTableRecord
  2
*D232
340
0
  0
BLOCK_RECORD
  5
9A6B
330
7466
100
AcDbSymbolTableRecord
100
AcDbBlockTableRecord
  2
*D233
340
0
  0
BLOCK_RECORD
  5
9A76
330
7466
100
AcDbSymbolTableRecord
100
AcDbBlockTableRecord
  2
*D234
340
0
  0
BLOCK_RECORD
  5
9A81
330
7466
100
AcDbSymbolTableRecord
100
AcDbBlockTableRecord
  2
*D235
340
0
  0
BLOCK_RECORD
  5
9A8D
330
7466
100
AcDbSymbolTableRecord
100
AcDbBlockTableRecord
  2
*D236
340
0
  0
BLOCK_RECORD
  5
9A98
330
7466
100
AcDbSymbolTableRecord
100
AcDbBlockTableRecord
  2
*D237
340
0
  0
BLOCK_RECORD
  5
9AA5
330
7466
100
AcDbSymbolTableRecord
100
AcDbBlockTableRecord
  2
*D238
340
0
  0
BLOCK_RECORD
  5
9AB1
330
7466
100
AcDbSymbolTableRecord
100
AcDbBlockTableRecord
  2
*D239
340
0
  0
BLOCK_RECORD
  5
9ABD
330
7466
100
AcDbSymbolTableRecord
100
AcDbBlockTableRecord
  2
*D240
340
0
  0
BLOCK_RECORD
  5
9AC9
330
7466
100
AcDbSymbolTableRecord
100
AcDbBlockTableRecord
  2
*D241
340
0
  0
BLOCK_RECORD
  5
9AD5
330
7466
100
AcDbSymbolTableRecord
100
AcDbBlockTableRecord
  2
*D242
340
0
  0
BLOCK_RECORD
  5
9AE1
330
7466
100
AcDbSymbolTableRecord
100
AcDbBlockTableRecord
  2
*D243
340
0
  0
BLOCK_RECORD
  5
9AEC
330
7466
100
AcDbSymbolTableRecord
100
AcDbBlockTableRecord
  2
*D244
340
0
  0
BLOCK_RECORD
  5
9AF8
330
7466
100
AcDbSymbolTableRecord
100
AcDbBlockTableRecord
  2
*D245
340
0
  0
BLOCK_RECORD
  5
9B04
330
7466
100
AcDbSymbolTableRecord
100
AcDbBlockTableRecord
  2
*D246
340
0
  0
BLOCK_RECORD
  5
9B0F
330
7466
100
AcDbSymbolTableRecord
100
AcDbBlockTableRecord
  2
*D247
340
0
  0
BLOCK_RECORD
  5
9B1D
330
7466
100
AcDbSymbolTableRecord
100
AcDbBlockTableRecord
  2
*D248
340
0
  0
BLOCK_RECORD
  5
9B2A
330
7466
100
AcDbSymbolTableRecord
100
AcDbBlockTableRecord
  2
*D249
340
0
  0
BLOCK_RECORD
  5
9B35
330
7466
100
AcDbSymbolTableRecord
100
AcDbBlockTableRecord
  2
*D250
340
0
  0
BLOCK_RECORD
  5
9B41
330
7466
100
AcDbSymbolTableRecord
100
AcDbBlockTableRecord
  2
*D251
340
0
  0
BLOCK_RECORD
  5
9B4D
330
7466
100
AcDbSymbolTableRecord
100
AcDbBlockTableRecord
  2
*D252
340
0
  0
BLOCK_RECORD
  5
9B59
330
7466
100
AcDbSymbolTableRecord
100
AcDbBlockTableRecord
  2
*D253
340
0
  0
BLOCK_RECORD
  5
9B66
330
7466
100
AcDbSymbolTableRecord
100
AcDbBlockTableRecord
  2
*D254
340
0
  0
BLOCK_RECORD
  5
9B72
330
7466
100
AcDbSymbolTableRecord
100
AcDbBlockTableRecord
  2
*D255
340
0
  0
BLOCK_RECORD
  5
9B7E
330
7466
100
AcDbSymbolTableRecord
100
AcDbBlockTableRecord
  2
*D256
340
0
  0
BLOCK_RECORD
  5
9B8A
330
7466
100
AcDbSymbolTableRecord
100
AcDbBlockTableRecord
  2
*D257
340
0
  0
BLOCK_RECORD
  5
9B98
330
7466
100
AcDbSymbolTableRecord
100
AcDbBlockTableRecord
  2
*D258
340
0
  0
ENDTAB
  0
ENDSEC
  0
SECTION
  2
BLOCKS
  0
BLOCK
  5
7489
330
747D
100
AcDbEntity
  8
0
100
AcDbBlockBegin
  2
*MODEL_SPACE
 70
     0
 10
0.0
 20
0.0
 30
0.0
  3
*MODEL_SPACE
  1

  0
ENDBLK
  5
748A
330
747D
100
AcDbEntity
  8
0
100
AcDbBlockEnd
  0
BLOCK
  5
7487
330
747A
100
AcDbEntity
 67
     1
  8
0
100
AcDbBlockBegin
  2
*PAPER_SPACE
 70
     2
 10
0.0
 20
0.0
 30
0.0
  3
*PAPER_SPACE
  1

  0
ENDBLK
  5
7488
330
747A
100
AcDbEntity
 67
     1
  8
0
100
AcDbBlockEnd
  0
BLOCK
  5
7494
330
7493
100
AcDbEntity
  8
0
100
AcDbBlockBegin
  2
TITLE_BLOCK
 70
     2
 10
0.0
 20
0.0
 30
0.0
  3
TITLE_BLOCK
  1

  0
LINE
  5
7495
330
7493
100
AcDbEntity
  8
0
 62
     0
100
AcDbLine
 10
402.7943262411347
 20
16.00000000000008
 30
0.0
 11
410.0
 21
16.00000000000008
 31
0.0
  0
LINE
  5
7496
330
7493
100
AcDbEntity
  8
0
 62
     0
100
AcDbLine
 10
410.0
 20
10.0
 30
0.0
 11
410.0
 21
49.00000000000036
 31
0.0
  0
LINE
  5
7497
330
7493
100
AcDbEntity
  8
0
 62
     0
100
AcDbLine
 10
410.0
 20
49.00000000000036
 30
0.0
 11
410.0
 21
10.0
 31
0.0
  0
LINE
  5
7498
330
7493
100
AcDbEntity
  8
0
 62
     0
100
AcDbLine
 10
402.7943262411347
 20
22.00000000000012
 30
0.0
 11
402.7943262411347
 21
10.0
 31
0.0
  0
LINE
  5
7499
330
7493
100
AcDbEntity
  8
0
 62
     0
100
AcDbLine
 10
336.1418439716306
 20
49.00000000000036
 30
0.0
 11
336.1418439716306
 21
22.00000000000012
 31
0.0
  0
LINE
  5
749A
330
7493
100
AcDbEntity
  8
0
 62
     0
100
AcDbLine
 10
325.3333333333326
 20
37.00000000000024
 30
0.0
 11
325.3333333333326
 21
25.00000000000012
 31
0.0
  0
LINE
  5
749B
330
7493
100
AcDbEntity
  8
0
 62
     0
100
AcDbLine
 10
318.1276595744673
 20
49.00000000000036
 30
0.0
 11
318.1276595744673
 21
25.00000000000012
 31
0.0
  0
LINE
  5
749C
330
7493
100
AcDbEntity
  8
0
 62
     0
100
AcDbLine
 10
318.1276595744673
 20
25.00000000000012
 30
0.0
 11
348.7517730496447
 21
25.00000000000012
 31
0.0
  0
LINE
  5
749D
330
7493
100
AcDbEntity
  8
0
 62
     0
100
AcDbLine
 10
280.2978723404242
 20
28.00000000000016
 30
0.0
 11
348.7517730496447
 21
28.00000000000016
 31
0.0
  0
LINE
  5
749E
330
7493
100
AcDbEntity
  8
0
 62
     0
100
AcDbLine
 10
280.2978723404242
 20
31.0000000000002
 30
0.0
 11
348.7517730496447
 21
31.0000000000002
 31
0.0
  0
LINE
  5
749F
330
7493
100
AcDbEntity
  8
0
 62
     0
100
AcDbLine
 10
280.2978723404242
 20
34.00000000000024
 30
0.0
 11
348.7517730496447
 21
34.00000000000024
 31
0.0
  0
LINE
  5
74A0
330
7493
100
AcDbEntity
  8
0
 62
     0
100
AcDbLine
 10
280.2978723404242
 20
19.00000000000008
 30
0.0
 11
318.1276595744673
 21
19.00000000000012
 31
0.0
  0
LINE
  5
74A1
330
7493
100
AcDbEntity
  8
0
 62
     0
100
AcDbLine
 10
280.2978723404242
 20
22.00000000000008
 30
0.0
 11
318.1276595744673
 21
22.00000000000012
 31
0.0
  0
LINE
  5
74A2
330
7493
100
AcDbEntity
  8
0
 62
     0
100
AcDbLine
 10
280.2978723404242
 20
25.00000000000012
 30
0.0
 11
318.1276595744673
 21
25.00000000000012
 31
0.0
  0
TEXT
  5
74A3
330
7493
100
AcDbEntity
  8
0
 62
     0
100
AcDbText
 10
342.2447163844405
 20
10.55220101068186
 30
0.0
 40
1.791674070777747
  1
照査
  7
ADESK1
 72
     1
 11
344.1558353932701
 21
10.55220101068186
 31
0.0
100
AcDbText
  0
TEXT
  5
74A4
330
7493
100
AcDbEntity
  8
0
 62
     0
100
AcDbText
 10
332.2960689314087
 20
10.48329012996929
 30
0.0
 40
1.791674070777747
  1
設計
  7
ADESK1
 72
     1
 11
334.2071879402383
 21
10.48329012996929
 31
0.0
100
AcDbText
  0
TEXT
  5
74A5
330
7493
100
AcDbEntity
  8
0
 62
     0
100
AcDbText
 10
321.7174935280942
 20
10.48329012996929
 30
0.0
 40
1.791674070777747
  1
製図
  7
ADESK1
 72
     1
 11
323.5688900678979
 21
10.48329012996929
 31
0.0
100
AcDbText
  0
LINE
  5
74A6
330
7493
100
AcDbEntity
  8
0
 62
     0
100
AcDbLine
 10
280.2978723404242
 20
10.0
 30
0.0
 11
280.2978723404242
 21
13.00000000000004
 31
0.0
  0
LINE
  5
74A7
330
7493
100
AcDbEntity
  8
0
 62
     0
100
AcDbLine
 10
280.2978723404242
 20
16.00000000000008
 30
0.0
 11
318.1276595744673
 21
16.00000000000008
 31
0.0
  0
LINE
  5
74A8
330
7493
100
AcDbEntity
  8
0
 62
     0
100
AcDbLine
 10
339.4042553191484
 20
22.00000000000008
 30
0.0
 11
339.4042553191484
 21
10.0
 31
0.0
  0
LINE
  5
74A9
330
7493
100
AcDbEntity
  8
0
 62
     0
100
AcDbLine
 10
328.7659574468078
 20
22.00000000000008
 30
0.0
 11
328.7659574468078
 21
10.0
 31
0.0
  0
LINE
  5
74AA
330
7493
100
AcDbEntity
  8
0
 62
     0
100
AcDbLine
 10
348.7517730496447
 20
49.00000000000036
 30
0.0
 11
348.7517730496447
 21
10.0
 31
0.0
  0
LINE
  5
74AB
330
7493
100
AcDbEntity
  8
0
 62
     0
100
AcDbLine
 10
280.2978723404242
 20
49.00000000000036
 30
0.0
 11
280.2978723404242
 21
10.0
 31
0.0
  0
LINE
  5
74AC
330
7493
100
AcDbEntity
  8
0
 62
     0
100
AcDbLine
 10
318.1276595744673
 20
25.00000000000012
 30
0.0
 11
318.1276595744673
 21
10.0
 31
0.0
  0
LINE
  5
74AD
330
7493
100
AcDbEntity
  8
0
 62
     0
100
AcDbLine
 10
312.7234042553184
 20
37.00000000000024
 30
0.0
 11
312.7234042553184
 21
10.0
 31
0.0
  0
LINE
  5
74AE
330
7493
100
AcDbEntity
  8
0
 62
     0
100
AcDbLine
 10
285.7021276595731
 20
37.00000000000024
 30
0.0
 11
285.7021276595731
 21
10.0
 31
0.0
  0
LINE
  5
74AF
330
7493
100
AcDbEntity
  8
0
 62
     0
100
AcDbLine
 10
303.7163120567366
 20
37.00000000000024
 30
0.0
 11
303.7163120567366
 21
10.0
 31
0.0
  0
LINE
  5
74B0
330
7493
100
AcDbEntity
  8
0
 62
     0
100
AcDbLine
 10
410.0
 20
49.00000000000036
 30
0.0
 11
280.2978723404242
 21
49.00000000000036
 31
0.0
  0
LINE
  5
74B1
330
7493
100
AcDbEntity
  8
0
 62
     0
100
AcDbLine
 10
280.2978723404242
 20
10.0
 30
0.0
 11
410.0
 21
10.0
 31
0.0
  0
LINE
  5
74B2
330
7493
100
AcDbEntity
  8
0
 62
     0
100
AcDbLine
 10
318.1276595744673
 20
22.00000000000012
 30
0.0
 11
410.0
 21
22.00000000000012
 31
0.0
  0
LINE
  5
74B3
330
7493
100
AcDbEntity
  8
0
 62
     0
100
AcDbLine
 10
280.2978723404242
 20
37.00000000000024
 30
0.0
 11
410.0
 21
37.00000000000024
 31
0.0
  0
LINE
  5
74B4
330
7493
100
AcDbEntity
  8
0
 62
     0
100
AcDbLine
 10
280.2978723404242
 20
13.00000000000004
 30
0.0
 11
410.0
 21
13.00000000000004
 31
0.0
  0
LINE
  5
74B5
330
7493
100
AcDbEntity
  8
0
 62
     0
100
AcDbLine
 10
280.2978723404242
 20
49.00000000000036
 30
0.0
 11
410.0
 21
49.00000000000036
 31
0.0
  0
TEXT
  5
74B6
330
7493
100
AcDbEntity
  8
0
100
AcDbText
 10
411.3708251683467
 20
33.08333333333334
 30
0.0
 40
3.0
  1
F
  7
ADESK1
 72
     1
 11
412.8708251683468
 21
33.08333333333334
 31
0.0
100
AcDbText
  0
TEXT
  5
74B7
330
7493
100
AcDbEntity
  8
0
100
AcDbText
 10
411.3708251683467
 20
79.25
 30
0.0
 40
3.0
  1
E
  7
ADESK1
 72
     1
 11
412.8708251683468
 21
79.25
 31
0.0
100
AcDbText
  0
TEXT
  5
74B8
330
7493
100
AcDbEntity
  8
0
100
AcDbText
 10
411.2993965969182
 20
125.4166666666666
 30
0.0
 40
3.0
  1
D
  7
ADESK1
 72
     1
 11
412.8708251683468
 21
125.4166666666666
 31
0.0
100
AcDbText
  0
TEXT
  5
74B9
330
7493
100
AcDbEntity
  8
0
100
AcDbText
 10
411.3708251683467
 20
171.5833333333333
 30
0.0
 40
3.0
  1
C
  7
ADESK1
 72
     1
 11
412.8708251683468
 21
171.5833333333333
 31
0.0
100
AcDbText
  0
TEXT
  5
74BA
330
7493
100
AcDbEntity
  8
0
100
AcDbText
 10
411.2993965969182
 20
217.75
 30
0.0
 40
3.0
  1
B
  7
ADESK1
 72
     1
 11
412.8708251683468
 21
217.75
 31
0.0
100
AcDbText
  0
TEXT
  5
74BB
330
7493
100
AcDbEntity
  8
0
100
AcDbText
 10
411.5851108826324
 20
263.9166666666666
 30
0.0
 40
3.0
  1
A
  7
ADESK1
 72
     1
 11
412.8708251683468
 21
263.9166666666666
 31
0.0
100
AcDbText
  0
TEXT
  5
74BC
330
7493
100
AcDbEntity
  8
0
100
AcDbText
 10
384.5089285714286
 20
6.019997240728748
 30
0.0
 40
3.0
  1
8
  7
ADESK1
 72
     1
 11
385.9375
 21
6.019997240728748
 31
0.0
100
AcDbText
  0
TEXT
  5
74BD
330
7493
100
AcDbEntity
  8
0
100
AcDbText
 10
336.3839285714286
 20
6.019997240728748
 30
0.0
 40
3.0
  1
7
  7
ADESK1
 72
     1
 11
337.8125
 21
6.019997240728748
 31
0.0
100
AcDbText
  0
TEXT
  5
74BE
330
7493
100
AcDbEntity
  8
0
100
AcDbText
 10
288.1875
 20
6.019997240728748
 30
0.0
 40
3.0
  1
6
  7
ADESK1
 72
     1
 11
289.6875
 21
6.019997240728748
 31
0.0
100
AcDbText
  0
TEXT
  5
74BF
330
7493
100
AcDbEntity
  8
0
100
AcDbText
 10
240.1339285714286
 20
6.019997240728748
 30
0.0
 40
3.0
  1
5
  7
ADESK1
 72
     1
 11
241.5625
 21
6.019997240728748
 31
0.0
100
AcDbText
  0
TEXT
  5
74C0
330
7493
100
AcDbEntity
  8
0
100
AcDbText
 10
191.9375
 20
6.019997240728748
 30
0.0
 40
3.0
  1
4
  7
ADESK1
 72
     1
 11
193.4375
 21
6.019997240728748
 31
0.0
100
AcDbText
  0
TEXT
  5
74C1
330
7493
100
AcDbEntity
  8
0
100
AcDbText
 10
143.8839285714285
 20
6.019997240728748
 30
0.0
 40
3.0
  1
3
  7
ADESK1
 72
     1
 11
145.3125
 21
6.019997240728748
 31
0.0
100
AcDbText
  0
TEXT
  5
74C2
330
7493
100
AcDbEntity
  8
0
100
AcDbText
 10
95.75892857142857
 20
6.019997240728748
 30
0.0
 40
3.0
  1
2
  7
ADESK1
 72
     1
 11
97.1875
 21
6.019997240728748
 31
0.0
100
AcDbText
  0
TEXT
  5
74C3
330
7493
100
AcDbEntity
  8
0
100
AcDbText
 10
47.84821428571429
 20
6.019997240728748
 30
0.0
 40
3.0
  1
1
  7
ADESK1
 72
     1
 11
49.0625
 21
6.019997240728748
 31
0.0
100
AcDbText
  0
TEXT
  5
74C4
330
7493
100
AcDbEntity
  8
0
100
AcDbText
 10
21.1071613595339
 20
33.08333333333334
 30
0.0
 40
3.0
  1
F
  7
ADESK1
 72
     1
 11
22.6071613595339
 21
33.08333333333334
 31
0.0
100
AcDbText
  0
TEXT
  5
74C5
330
7493
100
AcDbEntity
  8
0
100
AcDbText
 10
21.1071613595339
 20
79.25
 30
0.0
 40
3.0
  1
E
  7
ADESK1
 72
     1
 11
22.6071613595339
 21
79.25
 31
0.0
100
AcDbText
  0
TEXT
  5
74C6
330
7493
100
AcDbEntity
  8
0
100
AcDbText
 10
21.03573278810533
 20
125.4166666666666
 30
0.0
 40
3.0
  1
D
  7
ADESK1
 72
     1
 11
22.6071613595339
 21
125.4166666666666
 31
0.0
100
AcDbText
  0
TEXT
  5
74C7
330
7493
100
AcDbEntity
  8
0
100
AcDbText
 10
21.1071613595339
 20
171.5833333333333
 30
0.0
 40
3.0
  1
C
  7
ADESK1
 72
     1
 11
22.6071613595339
 21
171.5833333333333
 31
0.0
100
AcDbText
  0
TEXT
  5
74C8
330
7493
100
AcDbEntity
  8
0
100
AcDbText
 10
21.03573278810533
 20
217.75
 30
0.0
 40
3.0
  1
B
  7
ADESK1
 72
     1
 11
22.6071613595339
 21
217.75
 31
0.0
100
AcDbText
  0
TEXT
  5
74C9
330
7493
100
AcDbEntity
  8
0
100
AcDbText
 10
384.5089285714286
 20
288.0
 30
0.0
 40
3.0
  1
8
  7
ADESK1
 72
     1
 11
385.9375
 21
288.0
 31
0.0
100
AcDbText
  0
TEXT
  5
74CA
330
7493
100
AcDbEntity
  8
0
100
AcDbText
 10
336.3839285714286
 20
288.0
 30
0.0
 40
3.0
  1
7
  7
ADESK1
 72
     1
 11
337.8125
 21
288.0
 31
0.0
100
AcDbText
  0
TEXT
  5
74CB
330
7493
100
AcDbEntity
  8
0
100
AcDbText
 10
288.1875
 20
288.0
 30
0.0
 40
3.0
  1
6
  7
ADESK1
 72
     1
 11
289.6875
 21
288.0
 31
0.0
100
AcDbText
  0
TEXT
  5
74CC
330
7493
100
AcDbEntity
  8
0
100
AcDbText
 10
240.1339285714286
 20
288.0
 30
0.0
 40
3.0
  1
5
  7
ADESK1
 72
     1
 11
241.5625
 21
288.0
 31
0.0
100
AcDbText
  0
TEXT
  5
74CD
330
7493
100
AcDbEntity
  8
0
100
AcDbText
 10
191.9375
 20
288.0
 30
0.0
 40
3.0
  1
4
  7
ADESK1
 72
     1
 11
193.4375
 21
288.0
 31
0.0
100
AcDbText
  0
TEXT
  5
74CE
330
7493
100
AcDbEntity
  8
0
100
AcDbText
 10
143.8839285714285
 20
288.0
 30
0.0
 40
3.0
  1
3
  7
ADESK1
 72
     1
 11
145.3125
 21
288.0
 31
0.0
100
AcDbText
  0
TEXT
  5
74CF
330
7493
100
AcDbEntity
  8
0
100
AcDbText
 10
95.75892857142857
 20
288.0
 30
0.0
 40
3.0
  1
2
  7
ADESK1
 72
     1
 11
97.1875
 21
288.0
 31
0.0
100
AcDbText
  0
TEXT
  5
74D0
330
7493
100
AcDbEntity
  8
0
100
AcDbText
 10
21.32144707381961
 20
263.9166666666666
 30
0.0
 40
3.0
  1
A
  7
ADESK1
 72
     1
 11
22.6071613595339
 21
263.9166666666666
 31
0.0
100
AcDbText
  0
TEXT
  5
74D1
330
7493
100
AcDbEntity
  8
0
100
AcDbText
 10
47.84821428571429
 20
288.0
 30
0.0
 40
3.0
  1
1
  7
ADESK1
 72
     1
 11
49.0625
 21
288.0
 31
0.0
100
AcDbText
  0
LINE
  5
74D2
330
7493
100
AcDbEntity
  8
0
100
AcDbLine
 10
73.125
 20
287.0
 30
0.0
 11
73.125
 21
292.0
 31
0.0
  0
LINE
  5
74D3
330
7493
100
AcDbEntity
  8
0
100
AcDbLine
 10
121.25
 20
287.0
 30
0.0
 11
121.25
 21
292.0
 31
0.0
  0
LINE
  5
74D4
330
7493
100
AcDbEntity
  8
0
100
AcDbLine
 10
169.375
 20
287.0
 30
0.0
 11
169.375
 21
292.0
 31
0.0
  0
LINE
  5
74D5
330
7493
100
AcDbEntity
  8
0
100
AcDbLine
 10
217.5
 20
287.0
 30
0.0
 11
217.5
 21
292.0
 31
0.0
  0
LINE
  5
74D6
330
7493
100
AcDbEntity
  8
0
100
AcDbLine
 10
265.625
 20
287.0
 30
0.0
 11
265.625
 21
292.0
 31
0.0
  0
LINE
  5
74D7
330
7493
100
AcDbEntity
  8
0
100
AcDbLine
 10
313.75
 20
287.0
 30
0.0
 11
313.75
 21
292.0
 31
0.0
  0
LINE
  5
74D8
330
7493
100
AcDbEntity
  8
0
100
AcDbLine
 10
361.875
 20
287.0
 30
0.0
 11
361.875
 21
292.0
 31
0.0
  0
LINE
  5
74D9
330
7493
100
AcDbEntity
  8
0
100
AcDbLine
 10
361.875
 20
10.0
 30
0.0
 11
361.875
 21
5.0
 31
0.0
  0
LINE
  5
74DA
330
7493
100
AcDbEntity
  8
0
100
AcDbLine
 10
313.75
 20
10.0
 30
0.0
 11
313.75
 21
5.0
 31
0.0
  0
LINE
  5
74DB
330
7493
100
AcDbEntity
  8
0
100
AcDbLine
 10
265.625
 20
10.0
 30
0.0
 11
265.625
 21
5.0
 31
0.0
  0
LINE
  5
74DC
330
7493
100
AcDbEntity
  8
0
100
AcDbLine
 10
217.5
 20
10.0
 30
0.0
 11
217.5
 21
5.0
 31
0.0
  0
LINE
  5
74DD
330
7493
100
AcDbEntity
  8
0
100
AcDbLine
 10
169.375
 20
10.0
 30
0.0
 11
169.375
 21
5.0
 31
0.0
  0
LINE
  5
74DE
330
7493
100
AcDbEntity
  8
0
100
AcDbLine
 10
121.25
 20
10.0
 30
0.0
 11
121.25
 21
5.0
 31
0.0
  0
LINE
  5
74DF
330
7493
100
AcDbEntity
  8
0
100
AcDbLine
 10
73.125
 20
10.0
 30
0.0
 11
73.125
 21
5.0
 31
0.0
  0
LINE
  5
74E0
330
7493
100
AcDbEntity
  8
0
100
AcDbLine
 10
410.0
 20
240.8333333333334
 30
0.0
 11
415.0
 21
240.8333333333334
 31
0.0
  0
LINE
  5
74E1
330
7493
100
AcDbEntity
  8
0
100
AcDbLine
 10
410.0
 20
194.6666666666667
 30
0.0
 11
415.0
 21
194.6666666666667
 31
0.0
  0
LINE
  5
74E2
330
7493
100
AcDbEntity
  8
0
100
AcDbLine
 10
410.0
 20
148.5
 30
0.0
 11
415.0
 21
148.5
 31
0.0
  0
LINE
  5
74E3
330
7493
100
AcDbEntity
  8
0
100
AcDbLine
 10
410.0
 20
102.3333333333333
 30
0.0
 11
415.0
 21
102.3333333333333
 31
0.0
  0
LINE
  5
74E4
330
7493
100
AcDbEntity
  8
0
100
AcDbLine
 10
410.0
 20
56.16666666666668
 30
0.0
 11
415.0
 21
56.16666666666668
 31
0.0
  0
LINE
  5
74E5
330
7493
100
AcDbEntity
  8
0
100
AcDbLine
 10
25.0
 20
56.16666666666667
 30
0.0
 11
20.0
 21
56.16666666666667
 31
0.0
  0
LINE
  5
74E6
330
7493
100
AcDbEntity
  8
0
100
AcDbLine
 10
25.0
 20
102.3333333333333
 30
0.0
 11
20.0
 21
102.3333333333333
 31
0.0
  0
LINE
  5
74E7
330
7493
100
AcDbEntity
  8
0
100
AcDbLine
 10
25.0
 20
148.5
 30
0.0
 11
20.0
 21
148.5
 31
0.0
  0
LINE
  5
74E8
330
7493
100
AcDbEntity
  8
0
100
AcDbLine
 10
25.0
 20
194.6666666666666
 30
0.0
 11
20.0
 21
194.6666666666666
 31
0.0
  0
LINE
  5
74E9
330
7493
100
AcDbEntity
  8
0
100
AcDbLine
 10
25.0
 20
240.8333333333333
 30
0.0
 11
20.0
 21
240.8333333333333
 31
0.0
  0
TEXT
  5
74EA
330
7493
100
AcDbEntity
  8
0
100
AcDbText
 10
1.0
 20
1.0
 30
0.0
 40
3.0
  1
この図枠はサンプルです。社内の規格やプロッタの出力範囲に合わせて適当に変更してご利用ください。
  7
ADESK1
100
AcDbText
  0
LINE
  5
74EB
330
7493
100
AcDbEntity
  8
0
100
AcDbLine
 10
25.0
 20
148.5
 30
0.0
 11
0.0
 21
148.5
 31
0.0
  0
LINE
  5
74EC
330
7493
100
AcDbEntity
  8
0
100
AcDbLine
 10
410.0
 20
148.5
 30
0.0
 11
420.0
 21
148.5
 31
0.0
  0
LINE
  5
74ED
330
7493
100
AcDbEntity
  8
0
100
AcDbLine
 10
217.5
 20
287.0
 30
0.0
 11
217.5
 21
297.0
 31
0.0
  0
LINE
  5
74EE
330
7493
100
AcDbEntity
  8
0
100
AcDbLine
 10
217.5
 20
10.0
 30
0.0
 11
217.5
 21
0.0
 31
0.0
  0
LINE
  5
74EF
330
7493
100
AcDbEntity
  8
OBJECT
100
AcDbLine
 10
130.0
 20
40.0
 30
0.0
 11
130.0
 21
10.0
 31
0.0
  0
LINE
  5
74F0
330
7493
100
AcDbEntity
  8
OBJECT
100
AcDbLine
 10
120.0
 20
10.0
 30
0.0
 11
120.0
 21
40.0
 31
0.0
  0
LINE
  5
74F1
330
7493
100
AcDbEntity
  8
OBJECT
100
AcDbLine
 10
44.5
 20
37.0
 30
0.0
 11
45.49999999999999
 21
37.0
 31
0.0
  0
LINE
  5
74F2
330
7493
100
AcDbEntity
  8
OBJECT
100
AcDbLine
 10
44.5
 20
31.0
 30
0.0
 11
45.49999999999999
 21
31.0
 31
0.0
  0
LINE
  5
74F3
330
7493
100
AcDbEntity
  8
OBJECT
100
AcDbLine
 10
39.5
 20
37.0
 30
0.0
 11
40.49999999999999
 21
37.0
 31
0.0
  0
LINE
  5
74F4
330
7493
100
AcDbEntity
  8
OBJECT
100
AcDbLine
 10
39.5
 20
31.0
 30
0.0
 11
40.49999999999999
 21
31.0
 31
0.0
  0
LINE
  5
74F5
330
7493
100
AcDbEntity
  8
OBJECT
100
AcDbLine
 10
44.5
 20
25.0
 30
0.0
 11
45.49999999999999
 21
25.0
 31
0.0
  0
LINE
  5
74F6
330
7493
100
AcDbEntity
  8
OBJECT
100
AcDbLine
 10
39.5
 20
25.0
 30
0.0
 11
40.49999999999999
 21
25.0
 31
0.0
  0
LINE
  5
74F7
330
7493
100
AcDbEntity
  8
OBJECT
100
AcDbLine
 10
44.5
 20
19.0
 30
0.0
 11
45.49999999999999
 21
19.0
 31
0.0
  0
LINE
  5
74F8
330
7493
100
AcDbEntity
  8
OBJECT
100
AcDbLine
 10
39.5
 20
19.0
 30
0.0
 11
40.49999999999999
 21
19.0
 31
0.0
  0
LINE
  5
74F9
330
7493
100
AcDbEntity
  8
OBJECT
100
AcDbLine
 10
28.0
 20
29.53589800000001
 30
0.0
 11
30.0
 21
33.0
 31
0.0
  0
LINE
  5
74FA
330
7493
100
AcDbEntity
  8
OBJECT
100
AcDbLine
 10
28.0
 20
29.53589800000001
 30
0.0
 11
32.0
 21
29.53589800000001
 31
0.0
  0
LINE
  5
74FB
330
7493
100
AcDbEntity
  8
OBJECT
100
AcDbLine
 10
32.0
 20
29.53589800000001
 30
0.0
 11
30.0
 21
33.0
 31
0.0
  0
LINE
  5
74FC
330
7493
100
AcDbEntity
  8
OBJECT
100
AcDbLine
 10
28.0
 20
35.535898
 30
0.0
 11
32.0
 21
35.535898
 31
0.0
  0
LINE
  5
74FD
330
7493
100
AcDbEntity
  8
OBJECT
100
AcDbLine
 10
32.0
 20
35.535898
 30
0.0
 11
30.0
 21
39.0
 31
0.0
  0
LINE
  5
74FE
330
7493
100
AcDbEntity
  8
OBJECT
100
AcDbLine
 10
28.0
 20
35.535898
 30
0.0
 11
30.0
 21
39.0
 31
0.0
  0
LINE
  5
74FF
330
7493
100
AcDbEntity
  8
OBJECT
100
AcDbLine
 10
28.0
 20
23.535898
 30
0.0
 11
30.0
 21
27.0
 31
0.0
  0
LINE
  5
7500
330
7493
100
AcDbEntity
  8
OBJECT
100
AcDbLine
 10
28.0
 20
23.535898
 30
0.0
 11
32.0
 21
23.535898
 31
0.0
  0
LINE
  5
7501
330
7493
100
AcDbEntity
  8
OBJECT
100
AcDbLine
 10
32.0
 20
23.535898
 30
0.0
 11
30.0
 21
27.0
 31
0.0
  0
LINE
  5
7502
330
7493
100
AcDbEntity
  8
OBJECT
100
AcDbLine
 10
28.0
 20
17.535898
 30
0.0
 11
30.0
 21
21.0
 31
0.0
  0
LINE
  5
7503
330
7493
100
AcDbEntity
  8
OBJECT
100
AcDbLine
 10
28.0
 20
17.535898
 30
0.0
 11
32.0
 21
17.535898
 31
0.0
  0
LINE
  5
7504
330
7493
100
AcDbEntity
  8
OBJECT
100
AcDbLine
 10
32.0
 20
17.535898
 30
0.0
 11
30.0
 21
21.0
 31
0.0
  0
LINE
  5
7505
330
7493
100
AcDbEntity
  8
OBJECT
100
AcDbLine
 10
44.5
 20
13.0
 30
0.0
 11
45.49999999999999
 21
13.0
 31
0.0
  0
LINE
  5
7506
330
7493
100
AcDbEntity
  8
OBJECT
100
AcDbLine
 10
39.5
 20
13.0
 30
0.0
 11
40.49999999999999
 21
13.0
 31
0.0
  0
LINE
  5
7507
330
7493
100
AcDbEntity
  8
OBJECT
100
AcDbLine
 10
28.0
 20
11.535898
 30
0.0
 11
32.0
 21
11.535898
 31
0.0
  0
LINE
  5
7508
330
7493
100
AcDbEntity
  8
OBJECT
100
AcDbLine
 10
80.0
 20
10.0
 30
0.0
 11
80.0
 21
40.0
 31
0.0
  0
LINE
  5
7509
330
7493
100
AcDbEntity
  8
OBJECT
100
AcDbLine
 10
50.0
 20
10.0
 30
0.0
 11
50.0
 21
40.0
 31
0.0
  0
LINE
  5
750A
330
7493
100
AcDbEntity
  8
OBJECT
100
AcDbLine
 10
35.0
 20
10.0
 30
0.0
 11
35.0
 21
40.0
 31
0.0
  0
LINE
  5
750B
330
7493
100
AcDbEntity
  8
OBJECT
100
AcDbLine
 10
32.0
 20
11.535898
 30
0.0
 11
30.0
 21
15.0
 31
0.0
  0
LINE
  5
750C
330
7493
100
AcDbEntity
  8
OBJECT
100
AcDbLine
 10
28.0
 20
11.535898
 30
0.0
 11
30.0
 21
15.0
 31
0.0
  0
LINE
  5
750D
330
7493
100
AcDbEntity
  8
OBJECT
100
AcDbLine
 10
130.0
 20
40.0
 30
0.0
 11
25.0
 21
40.0
 31
0.0
  0
LINE
  5
750E
330
7493
100
AcDbEntity
  8
OBJECT
100
AcDbLine
 10
130.0
 20
34.0
 30
0.0
 11
25.0
 21
34.0
 31
0.0
  0
LINE
  5
750F
330
7493
100
AcDbEntity
  8
OBJECT
100
AcDbLine
 10
130.0
 20
28.0
 30
0.0
 11
25.0
 21
28.0
 31
0.0
  0
LINE
  5
7510
330
7493
100
AcDbEntity
  8
OBJECT
100
AcDbLine
 10
130.0
 20
22.0
 30
0.0
 11
25.0
 21
22.0
 31
0.0
  0
LINE
  5
7511
330
7493
100
AcDbEntity
  8
OBJECT
100
AcDbLine
 10
130.0
 20
16.0
 30
0.0
 11
25.0
 21
16.0
 31
0.0
  0
ATTDEF
  5
7512
330
7493
100
AcDbEntity
  8
0
 62
     0
100
AcDbText
 10
19.0
 20
118.0
 30
0.0
 40
3.0
  1

 50
90.0
  7
ADESK1
100
AcDbAttributeDefinition
  3

  2
FNAME
 70
     8
  0
ATTDEF
  5
7513
330
7493
100
AcDbEntity
  8
0
 62
     0
100
AcDbText
 10
19.0
 20
70.0
 30
0.0
 40
3.0
  1

 50
90.0
  7
ADESK1
100
AcDbAttributeDefinition
  3

  2
REVDATE
 70
     8
  0
ATTDEF
  5
7514
330
7493
100
AcDbEntity
  8
0
 62
     0
100
AcDbText
 10
19.0
 20
10.0
 30
0.0
 40
3.0
  1

 50
90.0
  7
ADESK1
100
AcDbAttributeDefinition
  3

  2
USER
 70
     8
  0
LINE
  5
7515
330
7493
100
AcDbEntity
  8
0
100
AcDbLine
 10
410.0
 20
297.0
 30
0.0
 11
420.0
 21
297.0
 31
0.0
  0
LINE
  5
7516
330
7493
100
AcDbEntity
  8
0
100
AcDbLine
 10
420.0
 20
10.0
 30
0.0
 11
420.0
 21
0.0
 31
0.0
  0
LINE
  5
7517
330
7493
100
AcDbEntity
  8
0
100
AcDbLine
 10
25.0
 20
0.0
 30
0.0
 11
0.0
 21
0.0
 31
0.0
  0
LINE
  5
7518
330
7493
100
AcDbEntity
  8
0
100
AcDbLine
 10
0.0
 20
287.0
 30
0.0
 11
0.0
 21
297.0
 31
0.0
  0
LINE
  5
7519
330
7493
100
AcDbEntity
  8
0
100
AcDbLine
 10
25.0
 20
287.0
 30
0.0
 11
410.0
 21
287.0
 31
0.0
  0
LINE
  5
751A
330
7493
100
AcDbEntity
  8
0
100
AcDbLine
 10
410.0
 20
287.0
 30
0.0
 11
410.0
 21
10.0
 31
0.0
  0
LINE
  5
751B
330
7493
100
AcDbEntity
  8
0
100
AcDbLine
 10
410.0
 20
10.0
 30
0.0
 11
25.0
 21
10.0
 31
0.0
  0
LINE
  5
751C
330
7493
100
AcDbEntity
  8
0
100
AcDbLine
 10
25.0
 20
10.0
 30
0.0
 11
25.0
 21
287.0
 31
0.0
  0
LINE
  5
751D
330
7493
100
AcDbEntity
  8
0
100
AcDbLine
 10
420.0
 20
0.0
 30
0.0
 11
410.0
 21
0.0
 31
0.0
  0
LINE
  5
751E
330
7493
100
AcDbEntity
  8
0
100
AcDbLine
 10
420.0
 20
297.0
 30
0.0
 11
420.0
 21
287.0
 31
0.0
  0
LINE
  5
751F
330
7493
100
AcDbEntity
  8
0
100
AcDbLine
 10
0.0
 20
297.0
 30
0.0
 11
25.0
 21
297.0
 31
0.0
  0
LINE
  5
7520
330
7493
100
AcDbEntity
  8
0
100
AcDbLine
 10
0.0
 20
0.0
 30
0.0
 11
0.0
 21
10.0
 31
0.0
  0
ENDBLK
  5
7521
330
7493
100
AcDbEntity
  8
0
100
AcDbBlockEnd
  0
BLOCK
  5
97A4
330
979B
100
AcDbEntity
  8
0
 48
15.0
100
AcDbBlockBegin
  2
*D173
 70
     1
 10
0.0
 20
0.0
 30
0.0
  3
*D173
  1

  0
LINE
  5
A0C4
330
979B
100
AcDbEntity
  8
寸法引出
 48
15.0
370
    -2
100
AcDbLine
 10
3535.6319440691
 20
5469.022858903176
 30
0.0
 11
3535.6319440691
 21
5381.571191305989
 31
0.0
  0
LINE
  5
A0C5
330
979B
100
AcDbEntity
  8
寸法引出
 48
15.0
370
    -2
100
AcDbLine
 10
3438.1319440691
 20
5389.07119130599
 30
0.0
 11
3513.1319440691
 21
5389.07119130599
 31
0.0
  0
SOLID
  5
A0C6
330
979B
100
AcDbEntity
  8
寸法引出
 48
15.0
100
AcDbTrace
 10
3438.1319440691
 20
5392.82119130599
 30
0.0
 11
3438.1319440691
 21
5385.321191305989
 31
0.0
 12
3415.6319440691
 22
5389.07119130599
 32
0.0
 13
3415.6319440691
 23
5389.07119130599
 33
0.0
  0
SOLID
  5
A0C7
330
979B
100
AcDbEntity
  8
寸法引出
 48
15.0
100
AcDbTrace
 10
3513.1319440691
 20
5392.82119130599
 30
0.0
 11
3513.1319440691
 21
5385.321191305989
 31
0.0
 12
3535.6319440691
 22
5389.07119130599
 32
0.0
 13
3535.6319440691
 23
5389.07119130599
 33
0.0
  0
MTEXT
  5
A0C8
330
979B
100
AcDbEntity
  8
寸法引出
 48
15.0
100
AcDbMText
 10
3475.6319440691
 20
5419.071191305989
 30
0.0
 40
30.0
 41
0.0
 71
     5
 72
     1
  1
\A1;120
  7
SANWA
 73
     1
 44
1.0
1001
ACAD
1000
MTEXTBEGIN
1070
    73
1070
     1
1070
    44
1040
1.0
1070
    74
1070
     0
1000
MTEXTEND
  0
POINT
  5
A0C9
330
979B
100
AcDbEntity
  8
DEFPOINTS
 62
     0
 48
15.0
100
AcDbPoint
 10
3415.6319440691
 20
5484.022858903177
 30
0.0
  0
POINT
  5
A0CA
330
979B
100
AcDbEntity
  8
DEFPOINTS
 62
     0
 48
15.0
100
AcDbPoint
 10
3535.6319440691
 20
5484.022858903177
 30
0.0
  0
POINT
  5
A0CB
330
979B
100
AcDbEntity
  8
DEFPOINTS
 62
     0
 48
15.0
100
AcDbPoint
 10
3535.6319440691
 20
5389.07119130599
 30
0.0
  0
ENDBLK
  5
97A5
330
979B
100
AcDbEntity
  8
0
 48
15.0
100
AcDbBlockEnd
  0
BLOCK
  5
97AF
330
97A6
100
AcDbEntity
  8
0
 48
15.0
100
AcDbBlockBegin
  2
*D174
 70
     1
 10
0.0
 20
0.0
 30
0.0
  3
*D174
  1

  0
LINE
  5
A0CC
330
97A6
100
AcDbEntity
  8
寸法引出
 48
15.0
370
    -2
100
AcDbLine
 10
3415.6319440691
 20
5469.022858903176
 30
0.0
 11
3415.6319440691
 21
5381.571191305989
 31
0.0
  0
LINE
  5
A0CD
330
97A6
100
AcDbEntity
  8
寸法引出
 48
15.0
370
    -2
100
AcDbLine
 10
2678.1319440691
 20
5389.07119130599
 30
0.0
 11
3393.1319440691
 21
5389.07119130599
 31
0.0
  0
SOLID
  5
A0CE
330
97A6
100
AcDbEntity
  8
寸法引出
 48
15.0
100
AcDbTrace
 10
2678.1319440691
 20
5392.82119130599
 30
0.0
 11
2678.1319440691
 21
5385.321191305989
 31
0.0
 12
2655.6319440691
 22
5389.07119130599
 32
0.0
 13
2655.6319440691
 23
5389.07119130599
 33
0.0
  0
SOLID
  5
A0CF
330
97A6
100
AcDbEntity
  8
寸法引出
 48
15.0
100
AcDbTrace
 10
3393.1319440691
 20
5392.82119130599
 30
0.0
 11
3393.1319440691
 21
5385.321191305989
 31
0.0
 12
3415.6319440691
 22
5389.07119130599
 32
0.0
 13
3415.6319440691
 23
5389.07119130599
 33
0.0
  0
MTEXT
  5
A0D0
330
97A6
100
AcDbEntity
  8
寸法引出
 48
15.0
100
AcDbMText
 10
3035.6319440691
 20
5419.071191305989
 30
0.0
 40
30.0
 41
0.0
 71
     5
 72
     1
  1
\A1;760
  7
SANWA
 73
     1
 44
1.0
1001
ACAD
1000
MTEXTBEGIN
1070
    73
1070
     1
1070
    44
1040
1.0
1070
    74
1070
     0
1000
MTEXTEND
  0
POINT
  5
A0D1
330
97A6
100
AcDbEntity
  8
DEFPOINTS
 62
     0
 48
15.0
100
AcDbPoint
 10
2655.6319440691
 20
5484.022858903177
 30
0.0
  0
POINT
  5
A0D2
330
97A6
100
AcDbEntity
  8
DEFPOINTS
 62
     0
 48
15.0
100
AcDbPoint
 10
3415.6319440691
 20
5484.022858903177
 30
0.0
  0
POINT
  5
A0D3
330
97A6
100
AcDbEntity
  8
DEFPOINTS
 62
     0
 48
15.0
100
AcDbPoint
 10
3415.6319440691
 20
5389.07119130599
 30
0.0
  0
ENDBLK
  5
97B0
330
97A6
100
AcDbEntity
  8
0
 48
15.0
100
AcDbBlockEnd
  0
BLOCK
  5
97BB
330
97B1
100
AcDbEntity
  8
0
 48
15.0
100
AcDbBlockBegin
  2
*D175
 70
     1
 10
0.0
 20
0.0
 30
0.0
  3
*D175
  1

  0
LINE
  5
A0D4
330
97B1
100
AcDbEntity
  8
寸法引出
 48
15.0
370
    -2
100
AcDbLine
 10
3550.631944069099
 20
5604.022858903177
 30
0.0
 11
3642.528837182113
 21
5604.022858903177
 31
0.0
  0
LINE
  5
A0D5
330
97B1
100
AcDbEntity
  8
寸法引出
 48
15.0
370
    -2
100
AcDbLine
 10
3550.631944069099
 20
5484.022858903177
 30
0.0
 11
3642.528837182113
 21
5484.022858903177
 31
0.0
  0
LINE
  5
A0D6
330
97B1
100
AcDbEntity
  8
寸法引出
 48
15.0
370
    -2
100
AcDbLine
 10
3635.028837182114
 20
5581.522858903177
 30
0.0
 11
3635.028837182114
 21
5506.522858903177
 31
0.0
  0
SOLID
  5
A0D7
330
97B1
100
AcDbEntity
  8
寸法引出
 48
15.0
100
AcDbTrace
 10
3631.278837182114
 20
5581.522858903177
 30
0.0
 11
3638.778837182114
 21
5581.522858903177
 31
0.0
 12
3635.028837182114
 22
5604.022858903177
 32
0.0
 13
3635.028837182114
 23
5604.022858903177
 33
0.0
  0
SOLID
  5
A0D8
330
97B1
100
AcDbEntity
  8
寸法引出
 48
15.0
100
AcDbTrace
 10
3631.278837182114
 20
5506.522858903177
 30
0.0
 11
3638.778837182114
 21
5506.522858903177
 31
0.0
 12
3635.028837182114
 22
5484.022858903177
 32
0.0
 13
3635.028837182114
 23
5484.022858903177
 33
0.0
  0
MTEXT
  5
A0D9
330
97B1
100
AcDbEntity
  8
寸法引出
 48
15.0
100
AcDbMText
 10
3605.028837182113
 20
5544.022858903177
 30
0.0
 40
30.0
 41
0.0
 71
     5
 72
     1
  1
\A1;120
  7
SANWA
 11
0.0000000000000001
 21
1.0
 31
0.0
 73
     1
 44
1.0
1001
ACAD
1000
MTEXTBEGIN
1070
    73
1070
     1
1070
    44
1040
1.0
1070
    74
1070
     0
1000
MTEXTEND
  0
POINT
  5
A0DA
330
97B1
100
AcDbEntity
  8
DEFPOINTS
 62
     0
 48
15.0
100
AcDbPoint
 10
3535.6319440691
 20
5604.022858903177
 30
0.0
  0
POINT
  5
A0DB
330
97B1
100
AcDbEntity
  8
DEFPOINTS
 62
     0
 48
15.0
100
AcDbPoint
 10
3535.6319440691
 20
5484.022858903177
 30
0.0
  0
POINT
  5
A0DC
330
97B1
100
AcDbEntity
  8
DEFPOINTS
 62
     0
 48
15.0
100
AcDbPoint
 10
3635.028837182114
 20
5484.022858903177
 30
0.0
  0
ENDBLK
  5
97BC
330
97B1
100
AcDbEntity
  8
0
 48
15.0
100
AcDbBlockEnd
  0
BLOCK
  5
97C7
330
97BD
100
AcDbEntity
  8
0
 48
15.0
100
AcDbBlockBegin
  2
*D176
 70
     1
 10
0.0
 20
0.0
 30
0.0
  3
*D176
  1

  0
LINE
  5
A0DD
330
97BD
100
AcDbEntity
  8
寸法引出
 48
15.0
370
    -2
100
AcDbLine
 10
7323.001473147359
 20
5619.022858903177
 30
0.0
 11
7323.001473147359
 21
5683.114088005278
 31
0.0
  0
LINE
  5
A0DE
330
97BD
100
AcDbEntity
  8
寸法引出
 48
15.0
370
    -2
100
AcDbLine
 10
8253.001473147358
 20
5619.022858903177
 30
0.0
 11
8253.001473147358
 21
5683.114088005278
 31
0.0
  0
LINE
  5
A0DF
330
97BD
100
AcDbEntity
  8
寸法引出
 48
15.0
370
    -2
100
AcDbLine
 10
7345.50147314736
 20
5675.614088005279
 30
0.0
 11
8230.501473147359
 21
5675.614088005279
 31
0.0
  0
SOLID
  5
A0E0
330
97BD
100
AcDbEntity
  8
寸法引出
 48
15.0
100
AcDbTrace
 10
7345.50147314736
 20
5679.364088005279
 30
0.0
 11
7345.50147314736
 21
5671.864088005278
 31
0.0
 12
7323.001473147359
 22
5675.614088005279
 32
0.0
 13
7323.001473147359
 23
5675.614088005279
 33
0.0
  0
SOLID
  5
A0E1
330
97BD
100
AcDbEntity
  8
寸法引出
 48
15.0
100
AcDbTrace
 10
8230.501473147359
 20
5679.364088005279
 30
0.0
 11
8230.501473147359
 21
5671.864088005278
 31
0.0
 12
8253.001473147358
 22
5675.614088005279
 32
0.0
 13
8253.001473147358
 23
5675.614088005279
 33
0.0
  0
MTEXT
  5
A0E2
330
97BD
100
AcDbEntity
  8
寸法引出
 48
15.0
100
AcDbMText
 10
7788.001473147358
 20
5705.614088005278
 30
0.0
 40
30.0
 41
0.0
 71
     5
 72
     1
  1
\A1;930
  7
SANWA
 73
     1
 44
1.0
1001
ACAD
1000
MTEXTBEGIN
1070
    73
1070
     1
1070
    44
1040
1.0
1070
    74
1070
     0
1000
MTEXTEND
  0
POINT
  5
A0E3
330
97BD
100
AcDbEntity
  8
DEFPOINTS
 62
     0
 48
15.0
100
AcDbPoint
 10
7323.001473147359
 20
5604.022858903177
 30
0.0
  0
POINT
  5
A0E4
330
97BD
100
AcDbEntity
  8
DEFPOINTS
 62
     0
 48
15.0
100
AcDbPoint
 10
8253.001473147358
 20
5604.022858903177
 30
0.0
  0
POINT
  5
A0E5
330
97BD
100
AcDbEntity
  8
DEFPOINTS
 62
     0
 48
15.0
100
AcDbPoint
 10
8253.001473147358
 20
5675.614088005279
 30
0.0
  0
ENDBLK
  5
97C8
330
97BD
100
AcDbEntity
  8
0
 48
15.0
100
AcDbBlockEnd
  0
BLOCK
  5
97D3
330
97C9
100
AcDbEntity
  8
0
 48
15.0
100
AcDbBlockBegin
  2
*D177
 70
     1
 10
0.0
 20
0.0
 30
0.0
  3
*D177
  1

  0
LINE
  5
A0E6
330
97C9
100
AcDbEntity
  8
寸法引出
 48
15.0
370
    -2
100
AcDbLine
 10
7288.001473147359
 20
5619.022858903177
 30
0.0
 11
7288.001473147359
 21
5730.203514564159
 31
0.0
  0
LINE
  5
A0E7
330
97C9
100
AcDbEntity
  8
寸法引出
 48
15.0
370
    -2
100
AcDbLine
 10
8288.001473147359
 20
5619.022858903177
 30
0.0
 11
8288.001473147359
 21
5730.203514564159
 31
0.0
  0
LINE
  5
A0E8
330
97C9
100
AcDbEntity
  8
寸法引出
 48
15.0
370
    -2
100
AcDbLine
 10
7310.501473147358
 20
5722.703514564159
 30
0.0
 11
8265.501473147358
 21
5722.703514564159
 31
0.0
  0
SOLID
  5
A0E9
330
97C9
100
AcDbEntity
  8
寸法引出
 48
15.0
100
AcDbTrace
 10
7310.501473147358
 20
5726.453514564159
 30
0.0
 11
7310.501473147358
 21
5718.953514564159
 31
0.0
 12
7288.001473147359
 22
5722.703514564159
 32
0.0
 13
7288.001473147359
 23
5722.703514564159
 33
0.0
  0
SOLID
  5
A0EA
330
97C9
100
AcDbEntity
  8
寸法引出
 48
15.0
100
AcDbTrace
 10
8265.501473147358
 20
5726.453514564159
 30
0.0
 11
8265.501473147358
 21
5718.953514564159
 31
0.0
 12
8288.001473147359
 22
5722.703514564159
 32
0.0
 13
8288.001473147359
 23
5722.703514564159
 33
0.0
  0
MTEXT
  5
A0EB
330
97C9
100
AcDbEntity
  8
寸法引出
 48
15.0
100
AcDbMText
 10
7788.001473147358
 20
5752.70351456416
 30
0.0
 40
30.0
 41
0.0
 71
     5
 72
     1
  1
\A1;1000
  7
SANWA
 73
     1
 44
1.0
1001
ACAD
1000
MTEXTBEGIN
1070
    73
1070
     1
1070
    44
1040
1.0
1070
    74
1070
     0
1000
MTEXTEND
  0
POINT
  5
A0EC
330
97C9
100
AcDbEntity
  8
DEFPOINTS
 62
     0
 48
15.0
100
AcDbPoint
 10
7288.001473147359
 20
5604.022858903177
 30
0.0
  0
POINT
  5
A0ED
330
97C9
100
AcDbEntity
  8
DEFPOINTS
 62
     0
 48
15.0
100
AcDbPoint
 10
8288.001473147359
 20
5604.022858903177
 30
0.0
  0
POINT
  5
A0EE
330
97C9
100
AcDbEntity
  8
DEFPOINTS
 62
     0
 48
15.0
100
AcDbPoint
 10
8288.001473147359
 20
5722.703514564159
 30
0.0
  0
ENDBLK
  5
97D4
330
97C9
100
AcDbEntity
  8
0
 48
15.0
100
AcDbBlockEnd
  0
BLOCK
  5
97DE
330
97D5
100
AcDbEntity
  8
0
 48
15.0
100
AcDbBlockBegin
  2
*D178
 70
     1
 10
0.0
 20
0.0
 30
0.0
  3
*D178
  1

  0
LINE
  5
A0EF
330
97D5
100
AcDbEntity
  8
寸法引出
 48
15.0
370
    -2
100
AcDbLine
 10
7641.001473147358
 20
5469.022858903176
 30
0.0
 11
7641.001473147358
 21
5386.024538019133
 31
0.0
  0
LINE
  5
A0F0
330
97D5
100
AcDbEntity
  8
寸法引出
 48
15.0
370
    -2
100
AcDbLine
 10
7370.50147314736
 20
5393.524538019132
 30
0.0
 11
7618.501473147358
 21
5393.524538019132
 31
0.0
  0
SOLID
  5
A0F1
330
97D5
100
AcDbEntity
  8
寸法引出
 48
15.0
100
AcDbTrace
 10
7370.50147314736
 20
5397.274538019132
 30
0.0
 11
7370.50147314736
 21
5389.774538019133
 31
0.0
 12
7348.001473147359
 22
5393.524538019132
 32
0.0
 13
7348.001473147359
 23
5393.524538019132
 33
0.0
  0
SOLID
  5
A0F2
330
97D5
100
AcDbEntity
  8
寸法引出
 48
15.0
100
AcDbTrace
 10
7618.501473147358
 20
5397.274538019132
 30
0.0
 11
7618.501473147358
 21
5389.774538019133
 31
0.0
 12
7641.001473147358
 22
5393.524538019132
 32
0.0
 13
7641.001473147358
 23
5393.524538019132
 33
0.0
  0
MTEXT
  5
A0F3
330
97D5
100
AcDbEntity
  8
寸法引出
 48
15.0
100
AcDbMText
 10
7494.501473147359
 20
5423.524538019133
 30
0.0
 40
30.0
 41
0.0
 71
     5
 72
     1
  1
\A1;293
  7
SANWA
 73
     1
 44
1.0
1001
ACAD
1000
MTEXTBEGIN
1070
    73
1070
     1
1070
    44
1040
1.0
1070
    74
1070
     0
1000
MTEXTEND
  0
POINT
  5
A0F4
330
97D5
100
AcDbEntity
  8
DEFPOINTS
 62
     0
 48
15.0
100
AcDbPoint
 10
7348.001473147359
 20
5484.022858903177
 30
0.0
  0
POINT
  5
A0F5
330
97D5
100
AcDbEntity
  8
DEFPOINTS
 62
     0
 48
15.0
100
AcDbPoint
 10
7641.001473147358
 20
5484.022858903177
 30
0.0
  0
POINT
  5
A0F6
330
97D5
100
AcDbEntity
  8
DEFPOINTS
 62
     0
 48
15.0
100
AcDbPoint
 10
7641.001473147358
 20
5393.524538019132
 30
0.0
  0
ENDBLK
  5
97DF
330
97D5
100
AcDbEntity
  8
0
 48
15.0
100
AcDbBlockEnd
  0
BLOCK
  5
97EA
330
97E0
100
AcDbEntity
  8
0
 48
15.0
100
AcDbBlockBegin
  2
*D179
 70
     1
 10
0.0
 20
0.0
 30
0.0
  3
*D179
  1

  0
LINE
  5
A0F7
330
97E0
100
AcDbEntity
  8
寸法引出
 48
15.0
370
    -2
100
AcDbLine
 10
6610.652119178102
 20
5619.022858903177
 30
0.0
 11
6610.652119178102
 21
5706.63667135233
 31
0.0
  0
LINE
  5
A0F8
330
97E0
100
AcDbEntity
  8
寸法引出
 48
15.0
370
    -2
100
AcDbLine
 10
6738.652119178103
 20
5619.022858903177
 30
0.0
 11
6738.652119178103
 21
5706.63667135233
 31
0.0
  0
LINE
  5
A0F9
330
97E0
100
AcDbEntity
  8
寸法引出
 48
15.0
370
    -2
100
AcDbLine
 10
6633.152119178102
 20
5699.136671352331
 30
0.0
 11
6716.152119178102
 21
5699.136671352331
 31
0.0
  0
SOLID
  5
A0FA
330
97E0
100
AcDbEntity
  8
寸法引出
 48
15.0
100
AcDbTrace
 10
6633.152119178102
 20
5702.886671352331
 30
0.0
 11
6633.152119178102
 21
5695.386671352331
 31
0.0
 12
6610.652119178102
 22
5699.136671352331
 32
0.0
 13
6610.652119178102
 23
5699.136671352331
 33
0.0
  0
SOLID
  5
A0FB
330
97E0
100
AcDbEntity
  8
寸法引出
 48
15.0
100
AcDbTrace
 10
6716.152119178102
 20
5702.886671352331
 30
0.0
 11
6716.152119178102
 21
5695.386671352331
 31
0.0
 12
6738.652119178103
 22
5699.136671352331
 32
0.0
 13
6738.652119178103
 23
5699.136671352331
 33
0.0
  0
MTEXT
  5
A0FC
330
97E0
100
AcDbEntity
  8
寸法引出
 48
15.0
100
AcDbMText
 10
6674.652119178102
 20
5729.13667135233
 30
0.0
 40
30.0
 41
0.0
 71
     5
 72
     1
  1
\A1;128
  7
SANWA
 73
     1
 44
1.0
1001
ACAD
1000
MTEXTBEGIN
1070
    73
1070
     1
1070
    44
1040
1.0
1070
    74
1070
     0
1000
MTEXTEND
  0
POINT
  5
A0FD
330
97E0
100
AcDbEntity
  8
DEFPOINTS
 62
     0
 48
15.0
100
AcDbPoint
 10
6610.652119178102
 20
5604.022858903177
 30
0.0
  0
POINT
  5
A0FE
330
97E0
100
AcDbEntity
  8
DEFPOINTS
 62
     0
 48
15.0
100
AcDbPoint
 10
6738.652119178103
 20
5604.022858903177
 30
0.0
  0
POINT
  5
A0FF
330
97E0
100
AcDbEntity
  8
DEFPOINTS
 62
     0
 48
15.0
100
AcDbPoint
 10
6738.652119178103
 20
5699.136671352331
 30
0.0
  0
ENDBLK
  5
97EB
330
97E0
100
AcDbEntity
  8
0
 48
15.0
100
AcDbBlockEnd
  0
BLOCK
  5
97F6
330
97EC
100
AcDbEntity
  8
0
 48
15.0
100
AcDbBlockBegin
  2
*D180
 70
     1
 10
0.0
 20
0.0
 30
0.0
  3
*D180
  1

  0
LINE
  5
A100
330
97EC
100
AcDbEntity
  8
寸法引出
 48
15.0
370
    -2
100
AcDbLine
 10
6292.652119178102
 20
5619.022858903177
 30
0.0
 11
6292.652119178102
 21
5706.63667135233
 31
0.0
  0
LINE
  5
A101
330
97EC
100
AcDbEntity
  8
寸法引出
 48
15.0
370
    -2
100
AcDbLine
 10
6610.652119178102
 20
5619.022858903177
 30
0.0
 11
6610.652119178102
 21
5706.63667135233
 31
0.0
  0
LINE
  5
A102
330
97EC
100
AcDbEntity
  8
寸法引出
 48
15.0
370
    -2
100
AcDbLine
 10
6315.152119178102
 20
5699.136671352331
 30
0.0
 11
6588.152119178102
 21
5699.136671352331
 31
0.0
  0
SOLID
  5
A103
330
97EC
100
AcDbEntity
  8
寸法引出
 48
15.0
100
AcDbTrace
 10
6315.152119178102
 20
5702.886671352331
 30
0.0
 11
6315.152119178102
 21
5695.386671352331
 31
0.0
 12
6292.652119178102
 22
5699.136671352331
 32
0.0
 13
6292.652119178102
 23
5699.136671352331
 33
0.0
  0
SOLID
  5
A104
330
97EC
100
AcDbEntity
  8
寸法引出
 48
15.0
100
AcDbTrace
 10
6588.152119178102
 20
5702.886671352331
 30
0.0
 11
6588.152119178102
 21
5695.386671352331
 31
0.0
 12
6610.652119178102
 22
5699.136671352331
 32
0.0
 13
6610.652119178102
 23
5699.136671352331
 33
0.0
  0
MTEXT
  5
A105
330
97EC
100
AcDbEntity
  8
寸法引出
 48
15.0
100
AcDbMText
 10
6451.652119178103
 20
5729.13667135233
 30
0.0
 40
30.0
 41
0.0
 71
     5
 72
     1
  1
\A1;318
  7
SANWA
 73
     1
 44
1.0
1001
ACAD
1000
MTEXTBEGIN
1070
    73
1070
     1
1070
    44
1040
1.0
1070
    74
1070
     0
1000
MTEXTEND
  0
POINT
  5
A106
330
97EC
100
AcDbEntity
  8
DEFPOINTS
 62
     0
 48
15.0
100
AcDbPoint
 10
6292.652119178102
 20
5604.022858903177
 30
0.0
  0
POINT
  5
A107
330
97EC
100
AcDbEntity
  8
DEFPOINTS
 62
     0
 48
15.0
100
AcDbPoint
 10
6610.652119178102
 20
5604.022858903177
 30
0.0
  0
POINT
  5
A108
330
97EC
100
AcDbEntity
  8
DEFPOINTS
 62
     0
 48
15.0
100
AcDbPoint
 10
6610.652119178102
 20
5699.136671352331
 30
0.0
  0
ENDBLK
  5
97F7
330
97EC
100
AcDbEntity
  8
0
 48
15.0
100
AcDbBlockEnd
  0
BLOCK
  5
9802
330
97F8
100
AcDbEntity
  8
0
 48
15.0
100
AcDbBlockBegin
  2
*D181
 70
     1
 10
0.0
 20
0.0
 30
0.0
  3
*D181
  1

  0
LINE
  5
A109
330
97F8
100
AcDbEntity
  8
寸法引出
 48
15.0
370
    -2
100
AcDbLine
 10
6164.652119178102
 20
5619.022858903177
 30
0.0
 11
6164.652119178102
 21
5706.63667135233
 31
0.0
  0
LINE
  5
A10A
330
97F8
100
AcDbEntity
  8
寸法引出
 48
15.0
370
    -2
100
AcDbLine
 10
6292.652119178102
 20
5619.022858903177
 30
0.0
 11
6292.652119178102
 21
5706.63667135233
 31
0.0
  0
LINE
  5
A10B
330
97F8
100
AcDbEntity
  8
寸法引出
 48
15.0
370
    -2
100
AcDbLine
 10
6187.152119178102
 20
5699.136671352331
 30
0.0
 11
6270.152119178102
 21
5699.136671352331
 31
0.0
  0
SOLID
  5
A10C
330
97F8
100
AcDbEntity
  8
寸法引出
 48
15.0
100
AcDbTrace
 10
6187.152119178102
 20
5702.886671352331
 30
0.0
 11
6187.152119178102
 21
5695.386671352331
 31
0.0
 12
6164.652119178102
 22
5699.136671352331
 32
0.0
 13
6164.652119178102
 23
5699.136671352331
 33
0.0
  0
SOLID
  5
A10D
330
97F8
100
AcDbEntity
  8
寸法引出
 48
15.0
100
AcDbTrace
 10
6270.152119178102
 20
5702.886671352331
 30
0.0
 11
6270.152119178102
 21
5695.386671352331
 31
0.0
 12
6292.652119178102
 22
5699.136671352331
 32
0.0
 13
6292.652119178102
 23
5699.136671352331
 33
0.0
  0
MTEXT
  5
A10E
330
97F8
100
AcDbEntity
  8
寸法引出
 48
15.0
100
AcDbMText
 10
6228.652119178102
 20
5729.13667135233
 30
0.0
 40
30.0
 41
0.0
 71
     5
 72
     1
  1
\A1;128
  7
SANWA
 73
     1
 44
1.0
1001
ACAD
1000
MTEXTBEGIN
1070
    73
1070
     1
1070
    44
1040
1.0
1070
    74
1070
     0
1000
MTEXTEND
  0
POINT
  5
A10F
330
97F8
100
AcDbEntity
  8
DEFPOINTS
 62
     0
 48
15.0
100
AcDbPoint
 10
6164.652119178102
 20
5604.022858903177
 30
0.0
  0
POINT
  5
A110
330
97F8
100
AcDbEntity
  8
DEFPOINTS
 62
     0
 48
15.0
100
AcDbPoint
 10
6292.652119178102
 20
5604.022858903177
 30
0.0
  0
POINT
  5
A111
330
97F8
100
AcDbEntity
  8
DEFPOINTS
 62
     0
 48
15.0
100
AcDbPoint
 10
6292.652119178102
 20
5699.136671352331
 30
0.0
  0
ENDBLK
  5
9803
330
97F8
100
AcDbEntity
  8
0
 48
15.0
100
AcDbBlockEnd
  0
BLOCK
  5
980E
330
9804
100
AcDbEntity
  8
0
 48
15.0
100
AcDbBlockBegin
  2
*D182
 70
     1
 10
0.0
 20
0.0
 30
0.0
  3
*D182
  1

  0
LINE
  5
A112
330
9804
100
AcDbEntity
  8
寸法引出
 48
15.0
370
    -2
100
AcDbLine
 10
6081.652119178102
 20
5619.022858903177
 30
0.0
 11
6081.652119178102
 21
5763.451886982694
 31
0.0
  0
LINE
  5
A113
330
9804
100
AcDbEntity
  8
寸法引出
 48
15.0
370
    -2
100
AcDbLine
 10
6821.652119178103
 20
5619.022858903177
 30
0.0
 11
6821.652119178103
 21
5763.451886982694
 31
0.0
  0
LINE
  5
A114
330
9804
100
AcDbEntity
  8
寸法引出
 48
15.0
370
    -2
100
AcDbLine
 10
6104.152119178102
 20
5755.951886982694
 30
0.0
 11
6799.152119178102
 21
5755.951886982694
 31
0.0
  0
SOLID
  5
A115
330
9804
100
AcDbEntity
  8
寸法引出
 48
15.0
100
AcDbTrace
 10
6104.152119178102
 20
5759.701886982695
 30
0.0
 11
6104.152119178102
 21
5752.201886982694
 31
0.0
 12
6081.652119178102
 22
5755.951886982694
 32
0.0
 13
6081.652119178102
 23
5755.951886982694
 33
0.0
  0
SOLID
  5
A116
330
9804
100
AcDbEntity
  8
寸法引出
 48
15.0
100
AcDbTrace
 10
6799.152119178102
 20
5759.701886982695
 30
0.0
 11
6799.152119178102
 21
5752.201886982694
 31
0.0
 12
6821.652119178103
 22
5755.951886982694
 32
0.0
 13
6821.652119178103
 23
5755.951886982694
 33
0.0
  0
MTEXT
  5
A117
330
9804
100
AcDbEntity
  8
寸法引出
 48
15.0
100
AcDbMText
 10
6451.652119178103
 20
5785.951886982694
 30
0.0
 40
30.0
 41
0.0
 71
     5
 72
     1
  1
\A1;740
  7
SANWA
 73
     1
 44
1.0
1001
ACAD
1000
MTEXTBEGIN
1070
    73
1070
     1
1070
    44
1040
1.0
1070
    74
1070
     0
1000
MTEXTEND
  0
POINT
  5
A118
330
9804
100
AcDbEntity
  8
DEFPOINTS
 62
     0
 48
15.0
100
AcDbPoint
 10
6081.652119178102
 20
5604.022858903177
 30
0.0
  0
POINT
  5
A119
330
9804
100
AcDbEntity
  8
DEFPOINTS
 62
     0
 48
15.0
100
AcDbPoint
 10
6821.652119178103
 20
5604.022858903177
 30
0.0
  0
POINT
  5
A11A
330
9804
100
AcDbEntity
  8
DEFPOINTS
 62
     0
 48
15.0
100
AcDbPoint
 10
6821.652119178103
 20
5755.951886982694
 30
0.0
  0
ENDBLK
  5
980F
330
9804
100
AcDbEntity
  8
0
 48
15.0
100
AcDbBlockEnd
  0
BLOCK
  5
9819
330
9810
100
AcDbEntity
  8
0
 48
15.0
100
AcDbBlockBegin
  2
*D183
 70
     1
 10
0.0
 20
0.0
 30
0.0
  3
*D183
  1

  0
LINE
  5
A11B
330
9810
100
AcDbEntity
  8
寸法引出
 48
15.0
370
    -2
100
AcDbLine
 10
6821.652119178103
 20
5619.022858903177
 30
0.0
 11
6821.652119178103
 21
5706.63667135233
 31
0.0
  0
LINE
  5
A11C
330
9810
100
AcDbEntity
  8
寸法引出
 48
15.0
370
    -2
100
AcDbLine
 10
6761.152119178102
 20
5699.136671352331
 30
0.0
 11
6799.152119178102
 21
5699.136671352331
 31
0.0
  0
SOLID
  5
A11D
330
9810
100
AcDbEntity
  8
寸法引出
 48
15.0
100
AcDbTrace
 10
6761.152119178102
 20
5702.886671352331
 30
0.0
 11
6761.152119178102
 21
5695.386671352331
 31
0.0
 12
6738.652119178103
 22
5699.136671352331
 32
0.0
 13
6738.652119178103
 23
5699.136671352331
 33
0.0
  0
SOLID
  5
A11E
330
9810
100
AcDbEntity
  8
寸法引出
 48
15.0
100
AcDbTrace
 10
6799.152119178102
 20
5702.886671352331
 30
0.0
 11
6799.152119178102
 21
5695.386671352331
 31
0.0
 12
6821.652119178103
 22
5699.136671352331
 32
0.0
 13
6821.652119178103
 23
5699.136671352331
 33
0.0
  0
MTEXT
  5
A11F
330
9810
100
AcDbEntity
  8
寸法引出
 48
15.0
100
AcDbMText
 10
6780.152119178102
 20
5729.13667135233
 30
0.0
 40
30.0
 41
0.0
 71
     5
 72
     1
  1
\A1;83
  7
SANWA
 73
     1
 44
1.0
1001
ACAD
1000
MTEXTBEGIN
1070
    73
1070
     1
1070
    44
1040
1.0
1070
    74
1070
     0
1000
MTEXTEND
  0
POINT
  5
A120
330
9810
100
AcDbEntity
  8
DEFPOINTS
 62
     0
 48
15.0
100
AcDbPoint
 10
6738.652119178103
 20
5604.022858903177
 30
0.0
  0
POINT
  5
A121
330
9810
100
AcDbEntity
  8
DEFPOINTS
 62
     0
 48
15.0
100
AcDbPoint
 10
6821.652119178103
 20
5604.022858903177
 30
0.0
  0
POINT
  5
A122
330
9810
100
AcDbEntity
  8
DEFPOINTS
 62
     0
 48
15.0
100
AcDbPoint
 10
6821.652119178103
 20
5699.136671352331
 30
0.0
  0
ENDBLK
  5
981A
330
9810
100
AcDbEntity
  8
0
 48
15.0
100
AcDbBlockEnd
  0
BLOCK
  5
9825
330
981B
100
AcDbEntity
  8
0
 48
15.0
100
AcDbBlockBegin
  2
*D184
 70
     1
 10
0.0
 20
0.0
 30
0.0
  3
*D184
  1

  0
LINE
  5
A123
330
981B
100
AcDbEntity
  8
寸法引出
 48
15.0
370
    -2
100
AcDbLine
 10
6081.652119178102
 20
5619.022858903177
 30
0.0
 11
6081.652119178102
 21
5706.63667135233
 31
0.0
  0
LINE
  5
A124
330
981B
100
AcDbEntity
  8
寸法引出
 48
15.0
370
    -2
100
AcDbLine
 10
6164.652119178102
 20
5619.022858903177
 30
0.0
 11
6164.652119178102
 21
5706.63667135233
 31
0.0
  0
LINE
  5
A125
330
981B
100
AcDbEntity
  8
寸法引出
 48
15.0
370
    -2
100
AcDbLine
 10
6104.152119178102
 20
5699.136671352331
 30
0.0
 11
6142.152119178103
 21
5699.136671352331
 31
0.0
  0
SOLID
  5
A126
330
981B
100
AcDbEntity
  8
寸法引出
 48
15.0
100
AcDbTrace
 10
6104.152119178102
 20
5702.886671352331
 30
0.0
 11
6104.152119178102
 21
5695.386671352331
 31
0.0
 12
6081.652119178102
 22
5699.136671352331
 32
0.0
 13
6081.652119178102
 23
5699.136671352331
 33
0.0
  0
SOLID
  5
A127
330
981B
100
AcDbEntity
  8
寸法引出
 48
15.0
100
AcDbTrace
 10
6142.152119178103
 20
5702.886671352331
 30
0.0
 11
6142.152119178103
 21
5695.386671352331
 31
0.0
 12
6164.652119178102
 22
5699.136671352331
 32
0.0
 13
6164.652119178102
 23
5699.136671352331
 33
0.0
  0
MTEXT
  5
A128
330
981B
100
AcDbEntity
  8
寸法引出
 48
15.0
100
AcDbMText
 10
6123.152119178102
 20
5729.13667135233
 30
0.0
 40
30.0
 41
0.0
 71
     5
 72
     1
  1
\A1;83
  7
SANWA
 73
     1
 44
1.0
1001
ACAD
1000
MTEXTBEGIN
1070
    73
1070
     1
1070
    44
1040
1.0
1070
    74
1070
     0
1000
MTEXTEND
  0
POINT
  5
A129
330
981B
100
AcDbEntity
  8
DEFPOINTS
 62
     0
 48
15.0
100
AcDbPoint
 10
6081.652119178102
 20
5604.022858903177
 30
0.0
  0
POINT
  5
A12A
330
981B
100
AcDbEntity
  8
DEFPOINTS
 62
     0
 48
15.0
100
AcDbPoint
 10
6164.652119178102
 20
5604.022858903177
 30
0.0
  0
POINT
  5
A12B
330
981B
100
AcDbEntity
  8
DEFPOINTS
 62
     0
 48
15.0
100
AcDbPoint
 10
6164.652119178102
 20
5699.136671352331
 30
0.0
  0
ENDBLK
  5
9826
330
981B
100
AcDbEntity
  8
0
 48
15.0
100
AcDbBlockEnd
  0
BLOCK
  5
9831
330
9827
100
AcDbEntity
  8
0
 48
15.0
100
AcDbBlockBegin
  2
*D185
 70
     1
 10
0.0
 20
0.0
 30
0.0
  3
*D185
  1

  0
LINE
  5
A12C
330
9827
100
AcDbEntity
  8
寸法引出
 48
15.0
370
    -2
100
AcDbLine
 10
6836.652119178102
 20
3902.195356183028
 30
0.0
 11
7143.092284971384
 21
3902.195356183028
 31
0.0
  0
LINE
  5
A12D
330
9827
100
AcDbEntity
  8
寸法引出
 48
15.0
370
    -2
100
AcDbLine
 10
6836.652119178102
 20
4902.195356183028
 30
0.0
 11
7143.092284971384
 21
4902.195356183028
 31
0.0
  0
LINE
  5
A12E
330
9827
100
AcDbEntity
  8
寸法引出
 48
15.0
370
    -2
100
AcDbLine
 10
7135.592284971385
 20
3924.695356183028
 30
0.0
 11
7135.592284971385
 21
4879.695356183027
 31
0.0
  0
SOLID
  5
A12F
330
9827
100
AcDbEntity
  8
寸法引出
 48
15.0
100
AcDbTrace
 10
7131.842284971384
 20
3924.695356183028
 30
0.0
 11
7139.342284971384
 21
3924.695356183028
 31
0.0
 12
7135.592284971385
 22
3902.195356183028
 32
0.0
 13
7135.592284971385
 23
3902.195356183028
 33
0.0
  0
SOLID
  5
A130
330
9827
100
AcDbEntity
  8
寸法引出
 48
15.0
100
AcDbTrace
 10
7131.842284971384
 20
4879.695356183027
 30
0.0
 11
7139.342284971384
 21
4879.695356183027
 31
0.0
 12
7135.592284971385
 22
4902.195356183028
 32
0.0
 13
7135.592284971385
 23
4902.195356183028
 33
0.0
  0
MTEXT
  5
A131
330
9827
100
AcDbEntity
  8
寸法引出
 48
15.0
100
AcDbMText
 10
7105.592284971383
 20
4402.195356183029
 30
0.0
 40
30.0
 41
0.0
 71
     5
 72
     1
  1
\A1;1000
  7
SANWA
 11
0.0000000000000001
 21
1.0
 31
0.0
 73
     1
 44
1.0
1001
ACAD
1000
MTEXTBEGIN
1070
    73
1070
     1
1070
    44
1040
1.0
1070
    74
1070
     0
1000
MTEXTEND
  0
POINT
  5
A132
330
9827
100
AcDbEntity
  8
DEFPOINTS
 62
     0
 48
15.0
100
AcDbPoint
 10
6821.652119178103
 20
3902.195356183028
 30
0.0
  0
POINT
  5
A133
330
9827
100
AcDbEntity
  8
DEFPOINTS
 62
     0
 48
15.0
100
AcDbPoint
 10
6821.652119178103
 20
4902.195356183028
 30
0.0
  0
POINT
  5
A134
330
9827
100
AcDbEntity
  8
DEFPOINTS
 62
     0
 48
15.0
100
AcDbPoint
 10
7135.592284971385
 20
4902.195356183028
 30
0.0
  0
ENDBLK
  5
9832
330
9827
100
AcDbEntity
  8
0
 48
15.0
100
AcDbBlockEnd
  0
BLOCK
  5
983C
330
9833
100
AcDbEntity
  8
0
 48
15.0
100
AcDbBlockBegin
  2
*D186
 70
     1
 10
0.0
 20
0.0
 30
0.0
  3
*D186
  1

  0
LINE
  5
A135
330
9833
100
AcDbEntity
  8
寸法引出
 48
15.0
370
    -2
100
AcDbLine
 10
6836.652119178102
 20
4842.195356183028
 30
0.0
 11
7078.87689414224
 21
4842.195356183028
 31
0.0
  0
LINE
  5
A136
330
9833
100
AcDbEntity
  8
寸法引出
 48
15.0
370
    -2
100
AcDbLine
 10
7071.37689414224
 20
4571.695356183028
 30
0.0
 11
7071.37689414224
 21
4819.695356183028
 31
0.0
  0
SOLID
  5
A137
330
9833
100
AcDbEntity
  8
寸法引出
 48
15.0
100
AcDbTrace
 10
7067.62689414224
 20
4571.695356183028
 30
0.0
 11
7075.126894142241
 21
4571.695356183028
 31
0.0
 12
7071.37689414224
 22
4549.195356183028
 32
0.0
 13
7071.37689414224
 23
4549.195356183028
 33
0.0
  0
SOLID
  5
A138
330
9833
100
AcDbEntity
  8
寸法引出
 48
15.0
100
AcDbTrace
 10
7067.62689414224
 20
4819.695356183028
 30
0.0
 11
7075.126894142241
 21
4819.695356183028
 31
0.0
 12
7071.37689414224
 22
4842.195356183028
 32
0.0
 13
7071.37689414224
 23
4842.195356183028
 33
0.0
  0
MTEXT
  5
A139
330
9833
100
AcDbEntity
  8
寸法引出
 48
15.0
100
AcDbMText
 10
7041.376894142238
 20
4695.695356183029
 30
0.0
 40
30.0
 41
0.0
 71
     5
 72
     1
  1
\A1;293
  7
SANWA
 11
0.0000000000000001
 21
1.0
 31
0.0
 73
     1
 44
1.0
1001
ACAD
1000
MTEXTBEGIN
1070
    73
1070
     1
1070
    44
1040
1.0
1070
    74
1070
     0
1000
MTEXTEND
  0
POINT
  5
A13A
330
9833
100
AcDbEntity
  8
DEFPOINTS
 62
     0
 48
15.0
100
AcDbPoint
 10
6821.652119178103
 20
4549.195356183028
 30
0.0
  0
POINT
  5
A13B
330
9833
100
AcDbEntity
  8
DEFPOINTS
 62
     0
 48
15.0
100
AcDbPoint
 10
6821.652119178103
 20
4842.195356183028
 30
0.0
  0
POINT
  5
A13C
330
9833
100
AcDbEntity
  8
DEFPOINTS
 62
     0
 48
15.0
100
AcDbPoint
 10
7071.37689414224
 20
4842.195356183028
 30
0.0
  0
ENDBLK
  5
983D
330
9833
100
AcDbEntity
  8
0
 48
15.0
100
AcDbBlockEnd
  0
BLOCK
  5
9848
330
983E
100
AcDbEntity
  8
0
 48
15.0
100
AcDbBlockBegin
  2
*D187
 70
     1
 10
0.0
 20
0.0
 30
0.0
  3
*D187
  1

  0
LINE
  5
A13D
330
983E
100
AcDbEntity
  8
寸法引出
 48
15.0
370
    -2
100
AcDbLine
 10
6066.652119178102
 20
3936.695356183028
 30
0.0
 11
5972.538795879149
 21
3936.695356183028
 31
0.0
  0
LINE
  5
A13E
330
983E
100
AcDbEntity
  8
寸法引出
 48
15.0
370
    -2
100
AcDbLine
 10
6066.652119178102
 20
4867.695356183028
 30
0.0
 11
5972.538795879149
 21
4867.695356183028
 31
0.0
  0
LINE
  5
A13F
330
983E
100
AcDbEntity
  8
寸法引出
 48
15.0
370
    -2
100
AcDbLine
 10
5980.038795879149
 20
3959.195356183028
 30
0.0
 11
5980.038795879149
 21
4845.195356183028
 31
0.0
  0
SOLID
  5
A140
330
983E
100
AcDbEntity
  8
寸法引出
 48
15.0
100
AcDbTrace
 10
5976.288795879149
 20
3959.195356183028
 30
0.0
 11
5983.788795879149
 21
3959.195356183028
 31
0.0
 12
5980.038795879149
 22
3936.695356183028
 32
0.0
 13
5980.038795879149
 23
3936.695356183028
 33
0.0
  0
SOLID
  5
A141
330
983E
100
AcDbEntity
  8
寸法引出
 48
15.0
100
AcDbTrace
 10
5976.288795879149
 20
4845.195356183028
 30
0.0
 11
5983.788795879149
 21
4845.195356183028
 31
0.0
 12
5980.038795879149
 22
4867.695356183028
 32
0.0
 13
5980.038795879149
 23
4867.695356183028
 33
0.0
  0
MTEXT
  5
A142
330
983E
100
AcDbEntity
  8
寸法引出
 48
15.0
100
AcDbMText
 10
5950.038795879148
 20
4402.195356183028
 30
0.0
 40
30.0
 41
0.0
 71
     5
 72
     1
  1
\A1;930
  7
SANWA
 11
0.0000000000000001
 21
1.0
 31
0.0
 73
     1
 44
1.0
1001
ACAD
1000
MTEXTBEGIN
1070
    73
1070
     1
1070
    44
1040
1.0
1070
    74
1070
     0
1000
MTEXTEND
  0
POINT
  5
A143
330
983E
100
AcDbEntity
  8
DEFPOINTS
 62
     0
 48
15.0
100
AcDbPoint
 10
6081.652119178102
 20
3936.695356183028
 30
0.0
  0
POINT
  5
A144
330
983E
100
AcDbEntity
  8
DEFPOINTS
 62
     0
 48
15.0
100
AcDbPoint
 10
6081.652119178102
 20
4867.695356183028
 30
0.0
  0
POINT
  5
A145
330
983E
100
AcDbEntity
  8
DEFPOINTS
 62
     0
 48
15.0
100
AcDbPoint
 10
5980.038795879149
 20
4867.695356183028
 30
0.0
  0
ENDBLK
  5
9849
330
983E
100
AcDbEntity
  8
0
 48
15.0
100
AcDbBlockEnd
  0
BLOCK
  5
9854
330
984A
100
AcDbEntity
  8
0
 48
15.0
100
AcDbBlockBegin
  2
*D188
 70
     1
 10
0.0
 20
0.0
 30
0.0
  3
*D188
  1

  0
LINE
  5
A146
330
984A
100
AcDbEntity
  8
寸法引出
 48
15.0
370
    -2
100
AcDbLine
 10
6101.652119178102
 20
3887.195356183028
 30
0.0
 11
6101.652119178102
 21
3782.635714755337
 31
0.0
  0
LINE
  5
A147
330
984A
100
AcDbEntity
  8
寸法引出
 48
15.0
370
    -2
100
AcDbLine
 10
6801.652119178104
 20
3887.195356183028
 30
0.0
 11
6801.652119178104
 21
3782.635714755337
 31
0.0
  0
LINE
  5
A148
330
984A
100
AcDbEntity
  8
寸法引出
 48
15.0
370
    -2
100
AcDbLine
 10
6124.152119178102
 20
3790.135714755336
 30
0.0
 11
6779.152119178103
 21
3790.135714755336
 31
0.0
  0
SOLID
  5
A149
330
984A
100
AcDbEntity
  8
寸法引出
 48
15.0
100
AcDbTrace
 10
6124.152119178102
 20
3793.885714755337
 30
0.0
 11
6124.152119178102
 21
3786.385714755336
 31
0.0
 12
6101.652119178102
 22
3790.135714755336
 32
0.0
 13
6101.652119178102
 23
3790.135714755336
 33
0.0
  0
SOLID
  5
A14A
330
984A
100
AcDbEntity
  8
寸法引出
 48
15.0
100
AcDbTrace
 10
6779.152119178103
 20
3793.885714755337
 30
0.0
 11
6779.152119178103
 21
3786.385714755336
 31
0.0
 12
6801.652119178104
 22
3790.135714755336
 32
0.0
 13
6801.652119178104
 23
3790.135714755336
 33
0.0
  0
MTEXT
  5
A14B
330
984A
100
AcDbEntity
  8
寸法引出
 48
15.0
100
AcDbMText
 10
6451.652119178103
 20
3820.135714755337
 30
0.0
 40
30.0
 41
0.0
 71
     5
 72
     1
  1
\A1;700
  7
SANWA
 73
     1
 44
1.0
1001
ACAD
1000
MTEXTBEGIN
1070
    73
1070
     1
1070
    44
1040
1.0
1070
    74
1070
     0
1000
MTEXTEND
  0
POINT
  5
A14C
330
984A
100
AcDbEntity
  8
DEFPOINTS
 62
     0
 48
15.0
100
AcDbPoint
 10
6101.652119178102
 20
3902.195356183028
 30
0.0
  0
POINT
  5
A14D
330
984A
100
AcDbEntity
  8
DEFPOINTS
 62
     0
 48
15.0
100
AcDbPoint
 10
6801.652119178104
 20
3902.195356183028
 30
0.0
  0
POINT
  5
A14E
330
984A
100
AcDbEntity
  8
DEFPOINTS
 62
     0
 48
15.0
100
AcDbPoint
 10
6801.652119178104
 20
3790.135714755336
 30
0.0
  0
ENDBLK
  5
9855
330
984A
100
AcDbEntity
  8
0
 48
15.0
100
AcDbBlockEnd
  0
BLOCK
  5
9862
330
9856
100
AcDbEntity
  8
0
 48
15.0
100
AcDbBlockBegin
  2
*D189
 70
     1
 10
0.0
 20
0.0
 30
0.0
  3
*D189
  1

  0
LINE
  5
A14F
330
9856
100
AcDbEntity
  8
寸法引出
 48
15.0
370
    -2
100
AcDbLine
 10
6081.652119178102
 20
3887.195356183028
 30
0.0
 11
6081.652119178102
 21
3782.635714755337
 31
0.0
  0
LINE
  5
A150
330
9856
100
AcDbEntity
  8
寸法引出
 48
15.0
370
    -2
100
AcDbLine
 10
6101.652119178102
 20
3887.195356183028
 30
0.0
 11
6101.652119178102
 21
3782.635714755337
 31
0.0
  0
LINE
  5
A151
330
9856
100
AcDbEntity
  8
寸法引出
 48
15.0
370
    -2
100
AcDbLine
 10
6059.152119178102
 20
3790.135714755336
 30
0.0
 11
6036.652119178103
 21
3790.135714755336
 31
0.0
  0
LINE
  5
A152
330
9856
100
AcDbEntity
  8
寸法引出
 48
15.0
370
    -2
100
AcDbLine
 10
6124.152119178102
 20
3790.135714755336
 30
0.0
 11
6146.652119178102
 21
3790.135714755336
 31
0.0
  0
LINE
  5
A153
330
9856
100
AcDbEntity
  8
寸法引出
 48
15.0
370
    -2
100
AcDbLine
 10
6081.652119178102
 20
3790.135714755336
 30
0.0
 11
6101.652119178102
 21
3790.135714755336
 31
0.0
  0
SOLID
  5
A154
330
9856
100
AcDbEntity
  8
寸法引出
 48
15.0
100
AcDbTrace
 10
6059.152119178102
 20
3793.885714755337
 30
0.0
 11
6059.152119178102
 21
3786.385714755336
 31
0.0
 12
6081.652119178102
 22
3790.135714755336
 32
0.0
 13
6081.652119178102
 23
3790.135714755336
 33
0.0
  0
SOLID
  5
A155
330
9856
100
AcDbEntity
  8
寸法引出
 48
15.0
100
AcDbTrace
 10
6124.152119178102
 20
3793.885714755337
 30
0.0
 11
6124.152119178102
 21
3786.385714755336
 31
0.0
 12
6101.652119178102
 22
3790.135714755336
 32
0.0
 13
6101.652119178102
 23
3790.135714755336
 33
0.0
  0
MTEXT
  5
A156
330
9856
100
AcDbEntity
  8
寸法引出
 48
15.0
100
AcDbMText
 10
6091.652119178102
 20
3820.135714755337
 30
0.0
 40
30.0
 41
0.0
 71
     5
 72
     1
  1
\A1;20
  7
SANWA
 73
     1
 44
1.0
1001
ACAD
1000
MTEXTBEGIN
1070
    73
1070
     1
1070
    44
1040
1.0
1070
    74
1070
     0
1000
MTEXTEND
  0
POINT
  5
A157
330
9856
100
AcDbEntity
  8
DEFPOINTS
 62
     0
 48
15.0
100
AcDbPoint
 10
6081.652119178102
 20
3902.195356183028
 30
0.0
  0
POINT
  5
A158
330
9856
100
AcDbEntity
  8
DEFPOINTS
 62
     0
 48
15.0
100
AcDbPoint
 10
6101.652119178102
 20
3902.195356183028
 30
0.0
  0
POINT
  5
A159
330
9856
100
AcDbEntity
  8
DEFPOINTS
 62
     0
 48
15.0
100
AcDbPoint
 10
6101.652119178102
 20
3790.135714755336
 30
0.0
  0
ENDBLK
  5
9863
330
9856
100
AcDbEntity
  8
0
 48
15.0
100
AcDbBlockEnd
  0
BLOCK
  5
9870
330
9864
100
AcDbEntity
  8
0
 48
15.0
100
AcDbBlockBegin
  2
*D190
 70
     1
 10
0.0
 20
0.0
 30
0.0
  3
*D190
  1

  0
LINE
  5
A15A
330
9864
100
AcDbEntity
  8
寸法引出
 48
15.0
370
    -2
100
AcDbLine
 10
6836.652119178102
 20
3902.195356183028
 30
0.0
 11
7078.87689414224
 21
3902.195356183028
 31
0.0
  0
LINE
  5
A15B
330
9864
100
AcDbEntity
  8
寸法引出
 48
15.0
370
    -2
100
AcDbLine
 10
6836.652119178102
 20
3962.195356183028
 30
0.0
 11
7078.87689414224
 21
3962.195356183028
 31
0.0
  0
LINE
  5
A15C
330
9864
100
AcDbEntity
  8
寸法引出
 48
15.0
370
    -2
100
AcDbLine
 10
7071.37689414224
 20
3879.695356183028
 30
0.0
 11
7071.37689414224
 21
3857.195356183028
 31
0.0
  0
LINE
  5
A15D
330
9864
100
AcDbEntity
  8
寸法引出
 48
15.0
370
    -2
100
AcDbLine
 10
7071.37689414224
 20
3984.695356183028
 30
0.0
 11
7071.37689414224
 21
4007.195356183028
 31
0.0
  0
LINE
  5
A15E
330
9864
100
AcDbEntity
  8
寸法引出
 48
15.0
370
    -2
100
AcDbLine
 10
7071.37689414224
 20
3902.195356183028
 30
0.0
 11
7071.37689414224
 21
3962.195356183028
 31
0.0
  0
SOLID
  5
A15F
330
9864
100
AcDbEntity
  8
寸法引出
 48
15.0
100
AcDbTrace
 10
7067.62689414224
 20
3879.695356183028
 30
0.0
 11
7075.126894142241
 21
3879.695356183028
 31
0.0
 12
7071.37689414224
 22
3902.195356183028
 32
0.0
 13
7071.37689414224
 23
3902.195356183028
 33
0.0
  0
SOLID
  5
A160
330
9864
100
AcDbEntity
  8
寸法引出
 48
15.0
100
AcDbTrace
 10
7067.62689414224
 20
3984.695356183028
 30
0.0
 11
7075.126894142241
 21
3984.695356183028
 31
0.0
 12
7071.37689414224
 22
3962.195356183028
 32
0.0
 13
7071.37689414224
 23
3962.195356183028
 33
0.0
  0
MTEXT
  5
A161
330
9864
100
AcDbEntity
  8
寸法引出
 48
15.0
100
AcDbMText
 10
7041.376894142238
 20
3932.195356183029
 30
0.0
 40
30.0
 41
0.0
 71
     5
 72
     1
  1
\A1;60
  7
SANWA
 11
0.0000000000000001
 21
1.0
 31
0.0
 73
     1
 44
1.0
1001
ACAD
1000
MTEXTBEGIN
1070
    73
1070
     1
1070
    44
1040
1.0
1070
    74
1070
     0
1000
MTEXTEND
  0
POINT
  5
A162
330
9864
100
AcDbEntity
  8
DEFPOINTS
 62
     0
 48
15.0
100
AcDbPoint
 10
6821.652119178103
 20
3902.195356183028
 30
0.0
  0
POINT
  5
A163
330
9864
100
AcDbEntity
  8
DEFPOINTS
 62
     0
 48
15.0
100
AcDbPoint
 10
6821.652119178103
 20
3962.195356183028
 30
0.0
  0
POINT
  5
A164
330
9864
100
AcDbEntity
  8
DEFPOINTS
 62
     0
 48
15.0
100
AcDbPoint
 10
7071.37689414224
 20
3962.195356183028
 30
0.0
  0
ENDBLK
  5
9871
330
9864
100
AcDbEntity
  8
0
 48
15.0
100
AcDbBlockEnd
  0
BLOCK
  5
987C
330
9872
100
AcDbEntity
  8
0
 48
15.0
100
AcDbBlockBegin
  2
*D191
 70
     1
 10
0.0
 20
0.0
 30
0.0
  3
*D191
  1

  0
LINE
  5
A165
330
9872
100
AcDbEntity
  8
寸法引出
 48
15.0
370
    -2
100
AcDbLine
 10
6836.652119178102
 20
3962.195356183028
 30
0.0
 11
7078.87689414224
 21
3962.195356183028
 31
0.0
  0
LINE
  5
A166
330
9872
100
AcDbEntity
  8
寸法引出
 48
15.0
370
    -2
100
AcDbLine
 10
6836.652119178102
 20
4255.195356183028
 30
0.0
 11
7078.87689414224
 21
4255.195356183028
 31
0.0
  0
LINE
  5
A167
330
9872
100
AcDbEntity
  8
寸法引出
 48
15.0
370
    -2
100
AcDbLine
 10
7071.37689414224
 20
3984.695356183028
 30
0.0
 11
7071.37689414224
 21
4232.695356183028
 31
0.0
  0
SOLID
  5
A168
330
9872
100
AcDbEntity
  8
寸法引出
 48
15.0
100
AcDbTrace
 10
7067.62689414224
 20
3984.695356183028
 30
0.0
 11
7075.126894142241
 21
3984.695356183028
 31
0.0
 12
7071.37689414224
 22
3962.195356183028
 32
0.0
 13
7071.37689414224
 23
3962.195356183028
 33
0.0
  0
SOLID
  5
A169
330
9872
100
AcDbEntity
  8
寸法引出
 48
15.0
100
AcDbTrace
 10
7067.62689414224
 20
4232.695356183028
 30
0.0
 11
7075.126894142241
 21
4232.695356183028
 31
0.0
 12
7071.37689414224
 22
4255.195356183028
 32
0.0
 13
7071.37689414224
 23
4255.195356183028
 33
0.0
  0
MTEXT
  5
A16A
330
9872
100
AcDbEntity
  8
寸法引出
 48
15.0
100
AcDbMText
 10
7041.376894142238
 20
4108.695356183029
 30
0.0
 40
30.0
 41
0.0
 71
     5
 72
     1
  1
\A1;293
  7
SANWA
 11
0.0000000000000001
 21
1.0
 31
0.0
 73
     1
 44
1.0
1001
ACAD
1000
MTEXTBEGIN
1070
    73
1070
     1
1070
    44
1040
1.0
1070
    74
1070
     0
1000
MTEXTEND
  0
POINT
  5
A16B
330
9872
100
AcDbEntity
  8
DEFPOINTS
 62
     0
 48
15.0
100
AcDbPoint
 10
6821.652119178103
 20
3962.195356183028
 30
0.0
  0
POINT
  5
A16C
330
9872
100
AcDbEntity
  8
DEFPOINTS
 62
     0
 48
15.0
100
AcDbPoint
 10
6821.652119178103
 20
4255.195356183028
 30
0.0
  0
POINT
  5
A16D
330
9872
100
AcDbEntity
  8
DEFPOINTS
 62
     0
 48
15.0
100
AcDbPoint
 10
7071.37689414224
 20
4255.195356183028
 30
0.0
  0
ENDBLK
  5
987D
330
9872
100
AcDbEntity
  8
0
 48
15.0
100
AcDbBlockEnd
  0
BLOCK
  5
9889
330
987E
100
AcDbEntity
  8
0
 48
15.0
100
AcDbBlockBegin
  2
*D192
 70
     1
 10
0.0
 20
0.0
 30
0.0
  3
*D192
  1

  0
LINE
  5
A16E
330
987E
100
AcDbEntity
  8
寸法引出
 48
15.0
370
    -2
100
AcDbLine
 10
6821.652119178103
 20
3887.195356183028
 30
0.0
 11
6821.652119178103
 21
3782.635714755337
 31
0.0
  0
LINE
  5
A16F
330
987E
100
AcDbEntity
  8
寸法引出
 48
15.0
370
    -2
100
AcDbLine
 10
6779.152119178103
 20
3790.135714755336
 30
0.0
 11
6756.652119178103
 21
3790.135714755336
 31
0.0
  0
LINE
  5
A170
330
987E
100
AcDbEntity
  8
寸法引出
 48
15.0
370
    -2
100
AcDbLine
 10
6844.152119178102
 20
3790.135714755336
 30
0.0
 11
6866.652119178103
 21
3790.135714755336
 31
0.0
  0
LINE
  5
A171
330
987E
100
AcDbEntity
  8
寸法引出
 48
15.0
370
    -2
100
AcDbLine
 10
6801.652119178104
 20
3790.135714755336
 30
0.0
 11
6821.652119178103
 21
3790.135714755336
 31
0.0
  0
SOLID
  5
A172
330
987E
100
AcDbEntity
  8
寸法引出
 48
15.0
100
AcDbTrace
 10
6779.152119178103
 20
3793.885714755337
 30
0.0
 11
6779.152119178103
 21
3786.385714755336
 31
0.0
 12
6801.652119178104
 22
3790.135714755336
 32
0.0
 13
6801.652119178104
 23
3790.135714755336
 33
0.0
  0
SOLID
  5
A173
330
987E
100
AcDbEntity
  8
寸法引出
 48
15.0
100
AcDbTrace
 10
6844.152119178102
 20
3793.885714755337
 30
0.0
 11
6844.152119178102
 21
3786.385714755336
 31
0.0
 12
6821.652119178103
 22
3790.135714755336
 32
0.0
 13
6821.652119178103
 23
3790.135714755336
 33
0.0
  0
MTEXT
  5
A174
330
987E
100
AcDbEntity
  8
寸法引出
 48
15.0
100
AcDbMText
 10
6811.652119178103
 20
3820.135714755337
 30
0.0
 40
30.0
 41
0.0
 71
     5
 72
     1
  1
\A1;20
  7
SANWA
 73
     1
 44
1.0
1001
ACAD
1000
MTEXTBEGIN
1070
    73
1070
     1
1070
    44
1040
1.0
1070
    74
1070
     0
1000
MTEXTEND
  0
POINT
  5
A175
330
987E
100
AcDbEntity
  8
DEFPOINTS
 62
     0
 48
15.0
100
AcDbPoint
 10
6801.652119178104
 20
3902.195356183028
 30
0.0
  0
POINT
  5
A176
330
987E
100
AcDbEntity
  8
DEFPOINTS
 62
     0
 48
15.0
100
AcDbPoint
 10
6821.652119178103
 20
3902.195356183028
 30
0.0
  0
POINT
  5
A177
330
987E
100
AcDbEntity
  8
DEFPOINTS
 62
     0
 48
15.0
100
AcDbPoint
 10
6821.652119178103
 20
3790.135714755336
 30
0.0
  0
ENDBLK
  5
988A
330
987E
100
AcDbEntity
  8
0
 48
15.0
100
AcDbBlockEnd
  0
BLOCK
  5
9895
330
988B
100
AcDbEntity
  8
0
 48
15.0
100
AcDbBlockBegin
  2
*D193
 70
     1
 10
0.0
 20
0.0
 30
0.0
  3
*D193
  1

  0
LINE
  5
A178
330
988B
100
AcDbEntity
  8
寸法引出
 48
15.0
370
    -2
100
AcDbLine
 10
6836.652119178102
 20
4255.195356183028
 30
0.0
 11
7078.87689414224
 21
4255.195356183028
 31
0.0
  0
LINE
  5
A179
330
988B
100
AcDbEntity
  8
寸法引出
 48
15.0
370
    -2
100
AcDbLine
 10
6836.652119178102
 20
4549.195356183028
 30
0.0
 11
7078.87689414224
 21
4549.195356183028
 31
0.0
  0
LINE
  5
A17A
330
988B
100
AcDbEntity
  8
寸法引出
 48
15.0
370
    -2
100
AcDbLine
 10
7071.37689414224
 20
4277.695356183027
 30
0.0
 11
7071.37689414224
 21
4526.695356183028
 31
0.0
  0
SOLID
  5
A17B
330
988B
100
AcDbEntity
  8
寸法引出
 48
15.0
100
AcDbTrace
 10
7067.62689414224
 20
4277.695356183027
 30
0.0
 11
7075.126894142241
 21
4277.695356183027
 31
0.0
 12
7071.37689414224
 22
4255.195356183028
 32
0.0
 13
7071.37689414224
 23
4255.195356183028
 33
0.0
  0
SOLID
  5
A17C
330
988B
100
AcDbEntity
  8
寸法引出
 48
15.0
100
AcDbTrace
 10
7067.62689414224
 20
4526.695356183028
 30
0.0
 11
7075.126894142241
 21
4526.695356183028
 31
0.0
 12
7071.37689414224
 22
4549.195356183028
 32
0.0
 13
7071.37689414224
 23
4549.195356183028
 33
0.0
  0
MTEXT
  5
A17D
330
988B
100
AcDbEntity
  8
寸法引出
 48
15.0
100
AcDbMText
 10
7041.376894142238
 20
4402.195356183029
 30
0.0
 40
30.0
 41
0.0
 71
     5
 72
     1
  1
\A1;294
  7
SANWA
 11
0.0000000000000001
 21
1.0
 31
0.0
 73
     1
 44
1.0
1001
ACAD
1000
MTEXTBEGIN
1070
    73
1070
     1
1070
    44
1040
1.0
1070
    74
1070
     0
1000
MTEXTEND
  0
POINT
  5
A17E
330
988B
100
AcDbEntity
  8
DEFPOINTS
 62
     0
 48
15.0
100
AcDbPoint
 10
6821.652119178103
 20
4255.195356183028
 30
0.0
  0
POINT
  5
A17F
330
988B
100
AcDbEntity
  8
DEFPOINTS
 62
     0
 48
15.0
100
AcDbPoint
 10
6821.652119178103
 20
4549.195356183028
 30
0.0
  0
POINT
  5
A180
330
988B
100
AcDbEntity
  8
DEFPOINTS
 62
     0
 48
15.0
100
AcDbPoint
 10
7071.37689414224
 20
4549.195356183028
 30
0.0
  0
ENDBLK
  5
9896
330
988B
100
AcDbEntity
  8
0
 48
15.0
100
AcDbBlockEnd
  0
BLOCK
  5
98A1
330
9897
100
AcDbEntity
  8
0
 48
15.0
100
AcDbBlockBegin
  2
*D194
 70
     1
 10
0.0
 20
0.0
 30
0.0
  3
*D194
  1

  0
LINE
  5
A181
330
9897
100
AcDbEntity
  8
寸法引出
 48
15.0
370
    -2
100
AcDbLine
 10
6081.652119178102
 20
4917.195356183028
 30
0.0
 11
6081.652119178102
 21
5094.237735013058
 31
0.0
  0
LINE
  5
A182
330
9897
100
AcDbEntity
  8
寸法引出
 48
15.0
370
    -2
100
AcDbLine
 10
6821.652119178103
 20
4917.195356183028
 30
0.0
 11
6821.652119178103
 21
5094.237735013058
 31
0.0
  0
LINE
  5
A183
330
9897
100
AcDbEntity
  8
寸法引出
 48
15.0
370
    -2
100
AcDbLine
 10
6104.152119178102
 20
5086.737735013058
 30
0.0
 11
6799.152119178102
 21
5086.737735013058
 31
0.0
  0
SOLID
  5
A184
330
9897
100
AcDbEntity
  8
寸法引出
 48
15.0
100
AcDbTrace
 10
6104.152119178102
 20
5090.487735013058
 30
0.0
 11
6104.152119178102
 21
5082.987735013058
 31
0.0
 12
6081.652119178102
 22
5086.737735013058
 32
0.0
 13
6081.652119178102
 23
5086.737735013058
 33
0.0
  0
SOLID
  5
A185
330
9897
100
AcDbEntity
  8
寸法引出
 48
15.0
100
AcDbTrace
 10
6799.152119178102
 20
5090.487735013058
 30
0.0
 11
6799.152119178102
 21
5082.987735013058
 31
0.0
 12
6821.652119178103
 22
5086.737735013058
 32
0.0
 13
6821.652119178103
 23
5086.737735013058
 33
0.0
  0
MTEXT
  5
A186
330
9897
100
AcDbEntity
  8
寸法引出
 48
15.0
100
AcDbMText
 10
6451.652119178103
 20
5116.737735013058
 30
0.0
 40
30.0
 41
0.0
 71
     5
 72
     1
  1
\A1;740
  7
SANWA
 73
     1
 44
1.0
1001
ACAD
1000
MTEXTBEGIN
1070
    73
1070
     1
1070
    44
1040
1.0
1070
    74
1070
     0
1000
MTEXTEND
  0
POINT
  5
A187
330
9897
100
AcDbEntity
  8
DEFPOINTS
 62
     0
 48
15.0
100
AcDbPoint
 10
6081.652119178102
 20
4902.195356183028
 30
0.0
  0
POINT
  5
A188
330
9897
100
AcDbEntity
  8
DEFPOINTS
 62
     0
 48
15.0
100
AcDbPoint
 10
6821.652119178103
 20
4902.195356183028
 30
0.0
  0
POINT
  5
A189
330
9897
100
AcDbEntity
  8
DEFPOINTS
 62
     0
 48
15.0
100
AcDbPoint
 10
6821.652119178103
 20
5086.737735013058
 30
0.0
  0
ENDBLK
  5
98A2
330
9897
100
AcDbEntity
  8
0
 48
15.0
100
AcDbBlockEnd
  0
BLOCK
  5
98AC
330
98A3
100
AcDbEntity
  8
0
 48
15.0
100
AcDbBlockBegin
  2
*D195
 70
     1
 10
0.0
 20
0.0
 30
0.0
  3
*D195
  1

  0
LINE
  5
A18A
330
98A3
100
AcDbEntity
  8
寸法引出
 48
15.0
370
    -2
100
AcDbLine
 10
6738.652119178103
 20
4917.195356183028
 30
0.0
 11
6738.652119178103
 21
5021.230866716128
 31
0.0
  0
LINE
  5
A18B
330
98A3
100
AcDbEntity
  8
寸法引出
 48
15.0
370
    -2
100
AcDbLine
 10
6576.652119178103
 20
5013.730866716127
 30
0.0
 11
6716.152119178102
 21
5013.730866716127
 31
0.0
  0
SOLID
  5
A18C
330
98A3
100
AcDbEntity
  8
寸法引出
 48
15.0
100
AcDbTrace
 10
6576.652119178103
 20
5017.480866716128
 30
0.0
 11
6576.652119178103
 21
5009.980866716127
 31
0.0
 12
6554.152119178102
 22
5013.730866716127
 32
0.0
 13
6554.152119178102
 23
5013.730866716127
 33
0.0
  0
SOLID
  5
A18D
330
98A3
100
AcDbEntity
  8
寸法引出
 48
15.0
100
AcDbTrace
 10
6716.152119178102
 20
5017.480866716128
 30
0.0
 11
6716.152119178102
 21
5009.980866716127
 31
0.0
 12
6738.652119178103
 22
5013.730866716127
 32
0.0
 13
6738.652119178103
 23
5013.730866716127
 33
0.0
  0
MTEXT
  5
A18E
330
98A3
100
AcDbEntity
  8
寸法引出
 48
15.0
100
AcDbMText
 10
6646.402119178103
 20
5043.730866716128
 30
0.0
 40
30.0
 41
0.0
 71
     5
 72
     1
  1
\A1;184.5
  7
SANWA
 73
     1
 44
1.0
1001
ACAD
1000
MTEXTBEGIN
1070
    73
1070
     1
1070
    44
1040
1.0
1070
    74
1070
     0
1000
MTEXTEND
  0
POINT
  5
A18F
330
98A3
100
AcDbEntity
  8
DEFPOINTS
 62
     0
 48
15.0
100
AcDbPoint
 10
6554.152119178102
 20
4902.195356183028
 30
0.0
  0
POINT
  5
A190
330
98A3
100
AcDbEntity
  8
DEFPOINTS
 62
     0
 48
15.0
100
AcDbPoint
 10
6738.652119178103
 20
4902.195356183028
 30
0.0
  0
POINT
  5
A191
330
98A3
100
AcDbEntity
  8
DEFPOINTS
 62
     0
 48
15.0
100
AcDbPoint
 10
6738.652119178103
 20
5013.730866716127
 30
0.0
  0
ENDBLK
  5
98AD
330
98A3
100
AcDbEntity
  8
0
 48
15.0
100
AcDbBlockEnd
  0
BLOCK
  5
98B7
330
98AE
100
AcDbEntity
  8
0
 48
15.0
100
AcDbBlockBegin
  2
*D196
 70
     1
 10
0.0
 20
0.0
 30
0.0
  3
*D196
  1

  0
LINE
  5
A192
330
98AE
100
AcDbEntity
  8
寸法引出
 48
15.0
370
    -2
100
AcDbLine
 10
6821.652119178103
 20
5469.022858903176
 30
0.0
 11
6821.652119178103
 21
5375.531599000947
 31
0.0
  0
LINE
  5
A193
330
98AE
100
AcDbEntity
  8
寸法引出
 48
15.0
370
    -2
100
AcDbLine
 10
6576.652119178103
 20
5383.031599000947
 30
0.0
 11
6799.152119178102
 21
5383.031599000947
 31
0.0
  0
SOLID
  5
A194
330
98AE
100
AcDbEntity
  8
寸法引出
 48
15.0
100
AcDbTrace
 10
6576.652119178103
 20
5386.781599000947
 30
0.0
 11
6576.652119178103
 21
5379.281599000947
 31
0.0
 12
6554.152119178102
 22
5383.031599000947
 32
0.0
 13
6554.152119178102
 23
5383.031599000947
 33
0.0
  0
SOLID
  5
A195
330
98AE
100
AcDbEntity
  8
寸法引出
 48
15.0
100
AcDbTrace
 10
6799.152119178102
 20
5386.781599000947
 30
0.0
 11
6799.152119178102
 21
5379.281599000947
 31
0.0
 12
6821.652119178103
 22
5383.031599000947
 32
0.0
 13
6821.652119178103
 23
5383.031599000947
 33
0.0
  0
MTEXT
  5
A196
330
98AE
100
AcDbEntity
  8
寸法引出
 48
15.0
100
AcDbMText
 10
6687.902119178102
 20
5413.031599000947
 30
0.0
 40
30.0
 41
0.0
 71
     5
 72
     1
  1
\A1;267.5
  7
SANWA
 73
     1
 44
1.0
1001
ACAD
1000
MTEXTBEGIN
1070
    73
1070
     1
1070
    44
1040
1.0
1070
    74
1070
     0
1000
MTEXTEND
  0
POINT
  5
A197
330
98AE
100
AcDbEntity
  8
DEFPOINTS
 62
     0
 48
15.0
100
AcDbPoint
 10
6554.152119178102
 20
5484.022858903177
 30
0.0
  0
POINT
  5
A198
330
98AE
100
AcDbEntity
  8
DEFPOINTS
 62
     0
 48
15.0
100
AcDbPoint
 10
6821.652119178103
 20
5484.022858903177
 30
0.0
  0
POINT
  5
A199
330
98AE
100
AcDbEntity
  8
DEFPOINTS
 62
     0
 48
15.0
100
AcDbPoint
 10
6821.652119178103
 20
5383.031599000947
 30
0.0
  0
ENDBLK
  5
98B8
330
98AE
100
AcDbEntity
  8
0
 48
15.0
100
AcDbBlockEnd
  0
BLOCK
  5
98C2
330
98B9
100
AcDbEntity
  8
0
 48
15.0
100
AcDbBlockBegin
  2
*D197
 70
     1
 10
0.0
 20
0.0
 30
0.0
  3
*D197
  1

  0
LINE
  5
A19A
330
98B9
100
AcDbEntity
  8
寸法引出
 48
15.0
370
    -2
100
AcDbLine
 10
6349.152119178103
 20
4917.195356183028
 30
0.0
 11
6349.152119178103
 21
5021.230866716128
 31
0.0
  0
LINE
  5
A19B
330
98B9
100
AcDbEntity
  8
寸法引出
 48
15.0
370
    -2
100
AcDbLine
 10
6187.152119178102
 20
5013.730866716127
 30
0.0
 11
6326.652119178103
 21
5013.730866716127
 31
0.0
  0
SOLID
  5
A19C
330
98B9
100
AcDbEntity
  8
寸法引出
 48
15.0
100
AcDbTrace
 10
6187.152119178102
 20
5017.480866716128
 30
0.0
 11
6187.152119178102
 21
5009.980866716127
 31
0.0
 12
6164.652119178102
 22
5013.730866716127
 32
0.0
 13
6164.652119178102
 23
5013.730866716127
 33
0.0
  0
SOLID
  5
A19D
330
98B9
100
AcDbEntity
  8
寸法引出
 48
15.0
100
AcDbTrace
 10
6326.652119178103
 20
5017.480866716128
 30
0.0
 11
6326.652119178103
 21
5009.980866716127
 31
0.0
 12
6349.152119178103
 22
5013.730866716127
 32
0.0
 13
6349.152119178103
 23
5013.730866716127
 33
0.0
  0
MTEXT
  5
A19E
330
98B9
100
AcDbEntity
  8
寸法引出
 48
15.0
100
AcDbMText
 10
6256.902119178104
 20
5043.730866716128
 30
0.0
 40
30.0
 41
0.0
 71
     5
 72
     1
  1
\A1;184.5
  7
SANWA
 73
     1
 44
1.0
1001
ACAD
1000
MTEXTBEGIN
1070
    73
1070
     1
1070
    44
1040
1.0
1070
    74
1070
     0
1000
MTEXTEND
  0
POINT
  5
A19F
330
98B9
100
AcDbEntity
  8
DEFPOINTS
 62
     0
 48
15.0
100
AcDbPoint
 10
6164.652119178102
 20
4902.195356183028
 30
0.0
  0
POINT
  5
A1A0
330
98B9
100
AcDbEntity
  8
DEFPOINTS
 62
     0
 48
15.0
100
AcDbPoint
 10
6349.152119178103
 20
4902.195356183028
 30
0.0
  0
POINT
  5
A1A1
330
98B9
100
AcDbEntity
  8
DEFPOINTS
 62
     0
 48
15.0
100
AcDbPoint
 10
6349.152119178103
 20
5013.730866716127
 30
0.0
  0
ENDBLK
  5
98C3
330
98B9
100
AcDbEntity
  8
0
 48
15.0
100
AcDbBlockEnd
  0
BLOCK
  5
98CE
330
98C4
100
AcDbEntity
  8
0
 48
15.0
100
AcDbBlockBegin
  2
*D198
 70
     1
 10
0.0
 20
0.0
 30
0.0
  3
*D198
  1

  0
LINE
  5
A1A2
330
98C4
100
AcDbEntity
  8
寸法引出
 48
15.0
370
    -2
100
AcDbLine
 10
6081.652119178102
 20
4917.195356183028
 30
0.0
 11
6081.652119178102
 21
5021.230866716128
 31
0.0
  0
LINE
  5
A1A3
330
98C4
100
AcDbEntity
  8
寸法引出
 48
15.0
370
    -2
100
AcDbLine
 10
6164.652119178102
 20
4917.195356183028
 30
0.0
 11
6164.652119178102
 21
5021.230866716128
 31
0.0
  0
LINE
  5
A1A4
330
98C4
100
AcDbEntity
  8
寸法引出
 48
15.0
370
    -2
100
AcDbLine
 10
6104.152119178102
 20
5013.730866716127
 30
0.0
 11
6142.152119178103
 21
5013.730866716127
 31
0.0
  0
SOLID
  5
A1A5
330
98C4
100
AcDbEntity
  8
寸法引出
 48
15.0
100
AcDbTrace
 10
6104.152119178102
 20
5017.480866716128
 30
0.0
 11
6104.152119178102
 21
5009.980866716127
 31
0.0
 12
6081.652119178102
 22
5013.730866716127
 32
0.0
 13
6081.652119178102
 23
5013.730866716127
 33
0.0
  0
SOLID
  5
A1A6
330
98C4
100
AcDbEntity
  8
寸法引出
 48
15.0
100
AcDbTrace
 10
6142.152119178103
 20
5017.480866716128
 30
0.0
 11
6142.152119178103
 21
5009.980866716127
 31
0.0
 12
6164.652119178102
 22
5013.730866716127
 32
0.0
 13
6164.652119178102
 23
5013.730866716127
 33
0.0
  0
MTEXT
  5
A1A7
330
98C4
100
AcDbEntity
  8
寸法引出
 48
15.0
100
AcDbMText
 10
6123.152119178102
 20
5043.730866716128
 30
0.0
 40
30.0
 41
0.0
 71
     5
 72
     1
  1
\A1;83
  7
SANWA
 73
     1
 44
1.0
1001
ACAD
1000
MTEXTBEGIN
1070
    73
1070
     1
1070
    44
1040
1.0
1070
    74
1070
     0
1000
MTEXTEND
  0
POINT
  5
A1A8
330
98C4
100
AcDbEntity
  8
DEFPOINTS
 62
     0
 48
15.0
100
AcDbPoint
 10
6081.652119178102
 20
4902.195356183028
 30
0.0
  0
POINT
  5
A1A9
330
98C4
100
AcDbEntity
  8
DEFPOINTS
 62
     0
 48
15.0
100
AcDbPoint
 10
6164.652119178102
 20
4902.195356183028
 30
0.0
  0
POINT
  5
A1AA
330
98C4
100
AcDbEntity
  8
DEFPOINTS
 62
     0
 48
15.0
100
AcDbPoint
 10
6164.652119178102
 20
5013.730866716127
 30
0.0
  0
ENDBLK
  5
98CF
330
98C4
100
AcDbEntity
  8
0
 48
15.0
100
AcDbBlockEnd
  0
BLOCK
  5
98D9
330
98D0
100
AcDbEntity
  8
0
 48
15.0
100
AcDbBlockBegin
  2
*D199
 70
     1
 10
0.0
 20
0.0
 30
0.0
  3
*D199
  1

  0
LINE
  5
A1AB
330
98D0
100
AcDbEntity
  8
寸法引出
 48
15.0
370
    -2
100
AcDbLine
 10
6554.152119178102
 20
4917.195356183028
 30
0.0
 11
6554.152119178102
 21
5021.230866716128
 31
0.0
  0
LINE
  5
A1AC
330
98D0
100
AcDbEntity
  8
寸法引出
 48
15.0
370
    -2
100
AcDbLine
 10
6371.652119178103
 20
5013.730866716127
 30
0.0
 11
6531.652119178102
 21
5013.730866716127
 31
0.0
  0
SOLID
  5
A1AD
330
98D0
100
AcDbEntity
  8
寸法引出
 48
15.0
100
AcDbTrace
 10
6371.652119178103
 20
5017.480866716128
 30
0.0
 11
6371.652119178103
 21
5009.980866716127
 31
0.0
 12
6349.152119178103
 22
5013.730866716127
 32
0.0
 13
6349.152119178103
 23
5013.730866716127
 33
0.0
  0
SOLID
  5
A1AE
330
98D0
100
AcDbEntity
  8
寸法引出
 48
15.0
100
AcDbTrace
 10
6531.652119178102
 20
5017.480866716128
 30
0.0
 11
6531.652119178102
 21
5009.980866716127
 31
0.0
 12
6554.152119178102
 22
5013.730866716127
 32
0.0
 13
6554.152119178102
 23
5013.730866716127
 33
0.0
  0
MTEXT
  5
A1AF
330
98D0
100
AcDbEntity
  8
寸法引出
 48
15.0
100
AcDbMText
 10
6451.652119178103
 20
5043.730866716128
 30
0.0
 40
30.0
 41
0.0
 71
     5
 72
     1
  1
\A1;205
  7
SANWA
 73
     1
 44
1.0
1001
ACAD
1000
MTEXTBEGIN
1070
    73
1070
     1
1070
    44
1040
1.0
1070
    74
1070
     0
1000
MTEXTEND
  0
POINT
  5
A1B0
330
98D0
100
AcDbEntity
  8
DEFPOINTS
 62
     0
 48
15.0
100
AcDbPoint
 10
6349.152119178103
 20
4902.195356183028
 30
0.0
  0
POINT
  5
A1B1
330
98D0
100
AcDbEntity
  8
DEFPOINTS
 62
     0
 48
15.0
100
AcDbPoint
 10
6554.152119178102
 20
4902.195356183028
 30
0.0
  0
POINT
  5
A1B2
330
98D0
100
AcDbEntity
  8
DEFPOINTS
 62
     0
 48
15.0
100
AcDbPoint
 10
6554.152119178102
 20
5013.730866716127
 30
0.0
  0
ENDBLK
  5
98DA
330
98D0
100
AcDbEntity
  8
0
 48
15.0
100
AcDbBlockEnd
  0
BLOCK
  5
98E5
330
98DB
100
AcDbEntity
  8
0
 48
15.0
100
AcDbBlockBegin
  2
*D200
 70
     1
 10
0.0
 20
0.0
 30
0.0
  3
*D200
  1

  0
LINE
  5
A1B3
330
98DB
100
AcDbEntity
  8
寸法引出
 48
15.0
370
    -2
100
AcDbLine
 10
6081.652119178102
 20
5469.022858903176
 30
0.0
 11
6081.652119178102
 21
5375.531599000947
 31
0.0
  0
LINE
  5
A1B4
330
98DB
100
AcDbEntity
  8
寸法引出
 48
15.0
370
    -2
100
AcDbLine
 10
6349.152119178103
 20
5469.022858903176
 30
0.0
 11
6349.152119178103
 21
5375.531599000947
 31
0.0
  0
LINE
  5
A1B5
330
98DB
100
AcDbEntity
  8
寸法引出
 48
15.0
370
    -2
100
AcDbLine
 10
6104.152119178102
 20
5383.031599000947
 30
0.0
 11
6326.652119178103
 21
5383.031599000947
 31
0.0
  0
SOLID
  5
A1B6
330
98DB
100
AcDbEntity
  8
寸法引出
 48
15.0
100
AcDbTrace
 10
6104.152119178102
 20
5386.781599000947
 30
0.0
 11
6104.152119178102
 21
5379.281599000947
 31
0.0
 12
6081.652119178102
 22
5383.031599000947
 32
0.0
 13
6081.652119178102
 23
5383.031599000947
 33
0.0
  0
SOLID
  5
A1B7
330
98DB
100
AcDbEntity
  8
寸法引出
 48
15.0
100
AcDbTrace
 10
6326.652119178103
 20
5386.781599000947
 30
0.0
 11
6326.652119178103
 21
5379.281599000947
 31
0.0
 12
6349.152119178103
 22
5383.031599000947
 32
0.0
 13
6349.152119178103
 23
5383.031599000947
 33
0.0
  0
MTEXT
  5
A1B8
330
98DB
100
AcDbEntity
  8
寸法引出
 48
15.0
100
AcDbMText
 10
6215.402119178102
 20
5413.031599000947
 30
0.0
 40
30.0
 41
0.0
 71
     5
 72
     1
  1
\A1;267.5
  7
SANWA
 73
     1
 44
1.0
1001
ACAD
1000
MTEXTBEGIN
1070
    73
1070
     1
1070
    44
1040
1.0
1070
    74
1070
     0
1000
MTEXTEND
  0
POINT
  5
A1B9
330
98DB
100
AcDbEntity
  8
DEFPOINTS
 62
     0
 48
15.0
100
AcDbPoint
 10
6081.652119178102
 20
5484.022858903177
 30
0.0
  0
POINT
  5
A1BA
330
98DB
100
AcDbEntity
  8
DEFPOINTS
 62
     0
 48
15.0
100
AcDbPoint
 10
6349.152119178103
 20
5484.022858903177
 30
0.0
  0
POINT
  5
A1BB
330
98DB
100
AcDbEntity
  8
DEFPOINTS
 62
     0
 48
15.0
100
AcDbPoint
 10
6349.152119178103
 20
5383.031599000947
 30
0.0
  0
ENDBLK
  5
98E6
330
98DB
100
AcDbEntity
  8
0
 48
15.0
100
AcDbBlockEnd
  0
BLOCK
  5
98F0
330
98E7
100
AcDbEntity
  8
0
 48
15.0
100
AcDbBlockBegin
  2
*D201
 70
     1
 10
0.0
 20
0.0
 30
0.0
  3
*D201
  1

  0
LINE
  5
A1BC
330
98E7
100
AcDbEntity
  8
寸法引出
 48
15.0
370
    -2
100
AcDbLine
 10
6554.152119178102
 20
5469.022858903176
 30
0.0
 11
6554.152119178102
 21
5375.531599000947
 31
0.0
  0
LINE
  5
A1BD
330
98E7
100
AcDbEntity
  8
寸法引出
 48
15.0
370
    -2
100
AcDbLine
 10
6371.652119178102
 20
5383.031599000947
 30
0.0
 11
6531.652119178102
 21
5383.031599000947
 31
0.0
  0
SOLID
  5
A1BE
330
98E7
100
AcDbEntity
  8
寸法引出
 48
15.0
100
AcDbTrace
 10
6371.652119178102
 20
5386.781599000947
 30
0.0
 11
6371.652119178102
 21
5379.281599000947
 31
0.0
 12
6349.152119178103
 22
5383.031599000947
 32
0.0
 13
6349.152119178103
 23
5383.031599000947
 33
0.0
  0
SOLID
  5
A1BF
330
98E7
100
AcDbEntity
  8
寸法引出
 48
15.0
100
AcDbTrace
 10
6531.652119178102
 20
5386.781599000947
 30
0.0
 11
6531.652119178102
 21
5379.281599000947
 31
0.0
 12
6554.152119178102
 22
5383.031599000947
 32
0.0
 13
6554.152119178102
 23
5383.031599000947
 33
0.0
  0
MTEXT
  5
A1C0
330
98E7
100
AcDbEntity
  8
寸法引出
 48
15.0
100
AcDbMText
 10
6451.652119178103
 20
5413.031599000947
 30
0.0
 40
30.0
 41
0.0
 71
     5
 72
     1
  1
\A1;205
  7
SANWA
 73
     1
 44
1.0
1001
ACAD
1000
MTEXTBEGIN
1070
    73
1070
     1
1070
    44
1040
1.0
1070
    74
1070
     0
1000
MTEXTEND
  0
POINT
  5
A1C1
330
98E7
100
AcDbEntity
  8
DEFPOINTS
 62
     0
 48
15.0
100
AcDbPoint
 10
6349.152119178103
 20
5484.022858903177
 30
0.0
  0
POINT
  5
A1C2
330
98E7
100
AcDbEntity
  8
DEFPOINTS
 62
     0
 48
15.0
100
AcDbPoint
 10
6554.152119178102
 20
5484.022858903177
 30
0.0
  0
POINT
  5
A1C3
330
98E7
100
AcDbEntity
  8
DEFPOINTS
 62
     0
 48
15.0
100
AcDbPoint
 10
6554.152119178102
 20
5383.031599000947
 30
0.0
  0
ENDBLK
  5
98F1
330
98E7
100
AcDbEntity
  8
0
 48
15.0
100
AcDbBlockEnd
  0
BLOCK
  5
98FD
330
98F2
100
AcDbEntity
  8
0
 48
15.0
100
AcDbBlockBegin
  2
*D202
 70
     1
 10
0.0
 20
0.0
 30
0.0
  3
*D202
  1

  0
LINE
  5
A1C4
330
98F2
100
AcDbEntity
  8
寸法引出
 48
15.0
370
    -2
100
AcDbLine
 10
6836.652119178102
 20
4902.195356183028
 30
0.0
 11
7078.87689414224
 21
4902.195356183028
 31
0.0
  0
LINE
  5
A1C5
330
98F2
100
AcDbEntity
  8
寸法引出
 48
15.0
370
    -2
100
AcDbLine
 10
7071.37689414224
 20
4819.695356183028
 30
0.0
 11
7071.37689414224
 21
4797.195356183027
 31
0.0
  0
LINE
  5
A1C6
330
98F2
100
AcDbEntity
  8
寸法引出
 48
15.0
370
    -2
100
AcDbLine
 10
7071.37689414224
 20
4924.695356183028
 30
0.0
 11
7071.37689414224
 21
4947.195356183027
 31
0.0
  0
LINE
  5
A1C7
330
98F2
100
AcDbEntity
  8
寸法引出
 48
15.0
370
    -2
100
AcDbLine
 10
7071.37689414224
 20
4842.195356183028
 30
0.0
 11
7071.37689414224
 21
4902.195356183028
 31
0.0
  0
SOLID
  5
A1C8
330
98F2
100
AcDbEntity
  8
寸法引出
 48
15.0
100
AcDbTrace
 10
7067.62689414224
 20
4819.695356183028
 30
0.0
 11
7075.126894142241
 21
4819.695356183028
 31
0.0
 12
7071.37689414224
 22
4842.195356183028
 32
0.0
 13
7071.37689414224
 23
4842.195356183028
 33
0.0
  0
SOLID
  5
A1C9
330
98F2
100
AcDbEntity
  8
寸法引出
 48
15.0
100
AcDbTrace
 10
7067.62689414224
 20
4924.695356183028
 30
0.0
 11
7075.126894142241
 21
4924.695356183028
 31
0.0
 12
7071.37689414224
 22
4902.195356183028
 32
0.0
 13
7071.37689414224
 23
4902.195356183028
 33
0.0
  0
MTEXT
  5
A1CA
330
98F2
100
AcDbEntity
  8
寸法引出
 48
15.0
100
AcDbMText
 10
7041.376894142238
 20
4872.19535618303
 30
0.0
 40
30.0
 41
0.0
 71
     5
 72
     1
  1
\A1;60
  7
SANWA
 11
0.0000000000000001
 21
1.0
 31
0.0
 73
     1
 44
1.0
1001
ACAD
1000
MTEXTBEGIN
1070
    73
1070
     1
1070
    44
1040
1.0
1070
    74
1070
     0
1000
MTEXTEND
  0
POINT
  5
A1CB
330
98F2
100
AcDbEntity
  8
DEFPOINTS
 62
     0
 48
15.0
100
AcDbPoint
 10
6821.652119178103
 20
4842.195356183028
 30
0.0
  0
POINT
  5
A1CC
330
98F2
100
AcDbEntity
  8
DEFPOINTS
 62
     0
 48
15.0
100
AcDbPoint
 10
6821.652119178103
 20
4902.195356183028
 30
0.0
  0
POINT
  5
A1CD
330
98F2
100
AcDbEntity
  8
DEFPOINTS
 62
     0
 48
15.0
100
AcDbPoint
 10
7071.37689414224
 20
4902.195356183028
 30
0.0
  0
ENDBLK
  5
98FE
330
98F2
100
AcDbEntity
  8
0
 48
15.0
100
AcDbBlockEnd
  0
BLOCK
  5
9908
330
98FF
100
AcDbEntity
  8
0
 48
15.0
100
AcDbBlockBegin
  2
*D203
 70
     1
 10
0.0
 20
0.0
 30
0.0
  3
*D203
  1

  0
LINE
  5
A1CE
330
98FF
100
AcDbEntity
  8
寸法引出
 48
15.0
370
    -2
100
AcDbLine
 10
6821.652119178103
 20
4917.195356183028
 30
0.0
 11
6821.652119178103
 21
5021.230866716128
 31
0.0
  0
LINE
  5
A1CF
330
98FF
100
AcDbEntity
  8
寸法引出
 48
15.0
370
    -2
100
AcDbLine
 10
6761.152119178102
 20
5013.730866716127
 30
0.0
 11
6799.152119178102
 21
5013.730866716127
 31
0.0
  0
SOLID
  5
A1D0
330
98FF
100
AcDbEntity
  8
寸法引出
 48
15.0
100
AcDbTrace
 10
6761.152119178102
 20
5017.480866716128
 30
0.0
 11
6761.152119178102
 21
5009.980866716127
 31
0.0
 12
6738.652119178103
 22
5013.730866716127
 32
0.0
 13
6738.652119178103
 23
5013.730866716127
 33
0.0
  0
SOLID
  5
A1D1
330
98FF
100
AcDbEntity
  8
寸法引出
 48
15.0
100
AcDbTrace
 10
6799.152119178102
 20
5017.480866716128
 30
0.0
 11
6799.152119178102
 21
5009.980866716127
 31
0.0
 12
6821.652119178103
 22
5013.730866716127
 32
0.0
 13
6821.652119178103
 23
5013.730866716127
 33
0.0
  0
MTEXT
  5
A1D2
330
98FF
100
AcDbEntity
  8
寸法引出
 48
15.0
100
AcDbMText
 10
6780.152119178102
 20
5043.730866716128
 30
0.0
 40
30.0
 41
0.0
 71
     5
 72
     1
  1
\A1;83
  7
SANWA
 73
     1
 44
1.0
1001
ACAD
1000
MTEXTBEGIN
1070
    73
1070
     1
1070
    44
1040
1.0
1070
    74
1070
     0
1000
MTEXTEND
  0
POINT
  5
A1D3
330
98FF
100
AcDbEntity
  8
DEFPOINTS
 62
     0
 48
15.0
100
AcDbPoint
 10
6738.652119178103
 20
4902.195356183028
 30
0.0
  0
POINT
  5
A1D4
330
98FF
100
AcDbEntity
  8
DEFPOINTS
 62
     0
 48
15.0
100
AcDbPoint
 10
6821.652119178103
 20
4902.195356183028
 30
0.0
  0
POINT
  5
A1D5
330
98FF
100
AcDbEntity
  8
DEFPOINTS
 62
     0
 48
15.0
100
AcDbPoint
 10
6821.652119178103
 20
5013.730866716127
 30
0.0
  0
ENDBLK
  5
9909
330
98FF
100
AcDbEntity
  8
0
 48
15.0
100
AcDbBlockEnd
  0
BLOCK
  5
9915
330
990A
100
AcDbEntity
  8
0
 48
15.0
100
AcDbBlockBegin
  2
*D204
 70
     1
 10
0.0
 20
0.0
 30
0.0
  3
*D204
  1

  0
LINE
  5
A1D6
330
990A
100
AcDbEntity
  8
寸法引出
 48
15.0
370
    -2
100
AcDbLine
 10
6836.652119178102
 20
5563.722858903178
 30
0.0
 11
6942.960252587903
 21
5563.722858903178
 31
0.0
  0
LINE
  5
A1D7
330
990A
100
AcDbEntity
  8
寸法引出
 48
15.0
370
    -2
100
AcDbLine
 10
6935.460252587903
 20
5490.222858903178
 30
0.0
 11
6935.460252587903
 21
5467.722858903178
 31
0.0
  0
LINE
  5
A1D8
330
990A
100
AcDbEntity
  8
寸法引出
 48
15.0
370
    -2
100
AcDbLine
 10
6935.460252587903
 20
5586.222858903177
 30
0.0
 11
6935.460252587903
 21
5608.722858903178
 31
0.0
  0
LINE
  5
A1D9
330
990A
100
AcDbEntity
  8
寸法引出
 48
15.0
370
    -2
100
AcDbLine
 10
6935.460252587903
 20
5512.722858903178
 30
0.0
 11
6935.460252587903
 21
5563.722858903178
 31
0.0
  0
SOLID
  5
A1DA
330
990A
100
AcDbEntity
  8
寸法引出
 48
15.0
100
AcDbTrace
 10
6931.710252587904
 20
5490.222858903178
 30
0.0
 11
6939.210252587904
 21
5490.222858903178
 31
0.0
 12
6935.460252587903
 22
5512.722858903178
 32
0.0
 13
6935.460252587903
 23
5512.722858903178
 33
0.0
  0
SOLID
  5
A1DB
330
990A
100
AcDbEntity
  8
寸法引出
 48
15.0
100
AcDbTrace
 10
6931.710252587904
 20
5586.222858903177
 30
0.0
 11
6939.210252587904
 21
5586.222858903177
 31
0.0
 12
6935.460252587903
 22
5563.722858903178
 32
0.0
 13
6935.460252587903
 23
5563.722858903178
 33
0.0
  0
MTEXT
  5
A1DC
330
990A
100
AcDbEntity
  8
寸法引出
 48
15.0
100
AcDbMText
 10
6905.460252587904
 20
5538.222858903179
 30
0.0
 40
30.0
 41
0.0
 71
     5
 72
     1
  1
\A1;51
  7
SANWA
 11
0.0000000000000001
 21
1.0
 31
0.0
 73
     1
 44
1.0
1001
ACAD
1000
MTEXTBEGIN
1070
    73
1070
     1
1070
    44
1040
1.0
1070
    74
1070
     0
1000
MTEXTEND
  0
POINT
  5
A1DD
330
990A
100
AcDbEntity
  8
DEFPOINTS
 62
     0
 48
15.0
100
AcDbPoint
 10
6821.652119178103
 20
5512.722858903178
 30
0.0
  0
POINT
  5
A1DE
330
990A
100
AcDbEntity
  8
DEFPOINTS
 62
     0
 48
15.0
100
AcDbPoint
 10
6821.652119178103
 20
5563.722858903178
 30
0.0
  0
POINT
  5
A1DF
330
990A
100
AcDbEntity
  8
DEFPOINTS
 62
     0
 48
15.0
100
AcDbPoint
 10
6935.460252587903
 20
5563.722858903178
 30
0.0
  0
ENDBLK
  5
9916
330
990A
100
AcDbEntity
  8
0
 48
15.0
100
AcDbBlockEnd
  0
BLOCK
  5
9923
330
9917
100
AcDbEntity
  8
0
 48
15.0
100
AcDbBlockBegin
  2
*D205
 70
     1
 10
0.0
 20
0.0
 30
0.0
  3
*D205
  1

  0
LINE
  5
A1E0
330
9917
100
AcDbEntity
  8
寸法引出
 48
15.0
370
    -2
100
AcDbLine
 10
7288.001473147359
 20
5469.022858903176
 30
0.0
 11
7288.001473147359
 21
5386.024538019133
 31
0.0
  0
LINE
  5
A1E1
330
9917
100
AcDbEntity
  8
寸法引出
 48
15.0
370
    -2
100
AcDbLine
 10
7348.001473147359
 20
5469.022858903176
 30
0.0
 11
7348.001473147359
 21
5386.024538019133
 31
0.0
  0
LINE
  5
A1E2
330
9917
100
AcDbEntity
  8
寸法引出
 48
15.0
370
    -2
100
AcDbLine
 10
7265.501473147359
 20
5393.524538019132
 30
0.0
 11
7243.001473147359
 21
5393.524538019132
 31
0.0
  0
LINE
  5
A1E3
330
9917
100
AcDbEntity
  8
寸法引出
 48
15.0
370
    -2
100
AcDbLine
 10
7370.50147314736
 20
5393.524538019132
 30
0.0
 11
7393.001473147359
 21
5393.524538019132
 31
0.0
  0
LINE
  5
A1E4
330
9917
100
AcDbEntity
  8
寸法引出
 48
15.0
370
    -2
100
AcDbLine
 10
7288.001473147359
 20
5393.524538019132
 30
0.0
 11
7348.001473147359
 21
5393.524538019132
 31
0.0
  0
SOLID
  5
A1E5
330
9917
100
AcDbEntity
  8
寸法引出
 48
15.0
100
AcDbTrace
 10
7265.501473147359
 20
5397.274538019132
 30
0.0
 11
7265.501473147359
 21
5389.774538019133
 31
0.0
 12
7288.001473147359
 22
5393.524538019132
 32
0.0
 13
7288.001473147359
 23
5393.524538019132
 33
0.0
  0
SOLID
  5
A1E6
330
9917
100
AcDbEntity
  8
寸法引出
 48
15.0
100
AcDbTrace
 10
7370.50147314736
 20
5397.274538019132
 30
0.0
 11
7370.50147314736
 21
5389.774538019133
 31
0.0
 12
7348.001473147359
 22
5393.524538019132
 32
0.0
 13
7348.001473147359
 23
5393.524538019132
 33
0.0
  0
MTEXT
  5
A1E7
330
9917
100
AcDbEntity
  8
寸法引出
 48
15.0
100
AcDbMText
 10
7318.001473147359
 20
5423.524538019133
 30
0.0
 40
30.0
 41
0.0
 71
     5
 72
     1
  1
\A1;60
  7
SANWA
 73
     1
 44
1.0
1001
ACAD
1000
MTEXTBEGIN
1070
    73
1070
     1
1070
    44
1040
1.0
1070
    74
1070
     0
1000
MTEXTEND
  0
POINT
  5
A1E8
330
9917
100
AcDbEntity
  8
DEFPOINTS
 62
     0
 48
15.0
100
AcDbPoint
 10
7288.001473147359
 20
5484.022858903177
 30
0.0
  0
POINT
  5
A1E9
330
9917
100
AcDbEntity
  8
DEFPOINTS
 62
     0
 48
15.0
100
AcDbPoint
 10
7348.001473147359
 20
5484.022858903177
 30
0.0
  0
POINT
  5
A1EA
330
9917
100
AcDbEntity
  8
DEFPOINTS
 62
     0
 48
15.0
100
AcDbPoint
 10
7348.001473147359
 20
5393.524538019132
 30
0.0
  0
ENDBLK
  5
9924
330
9917
100
AcDbEntity
  8
0
 48
15.0
100
AcDbBlockEnd
  0
BLOCK
  5
9930
330
9925
100
AcDbEntity
  8
0
 48
15.0
100
AcDbBlockBegin
  2
*D206
 70
     1
 10
0.0
 20
0.0
 30
0.0
  3
*D206
  1

  0
LINE
  5
A1EB
330
9925
100
AcDbEntity
  8
寸法引出
 48
15.0
370
    -2
100
AcDbLine
 10
8288.001473147359
 20
5469.022858903176
 30
0.0
 11
8288.001473147359
 21
5386.024538019133
 31
0.0
  0
LINE
  5
A1EC
330
9925
100
AcDbEntity
  8
寸法引出
 48
15.0
370
    -2
100
AcDbLine
 10
8205.501473147359
 20
5393.524538019132
 30
0.0
 11
8183.001473147358
 21
5393.524538019132
 31
0.0
  0
LINE
  5
A1ED
330
9925
100
AcDbEntity
  8
寸法引出
 48
15.0
370
    -2
100
AcDbLine
 10
8310.501473147359
 20
5393.524538019132
 30
0.0
 11
8333.001473147358
 21
5393.524538019132
 31
0.0
  0
LINE
  5
A1EE
330
9925
100
AcDbEntity
  8
寸法引出
 48
15.0
370
    -2
100
AcDbLine
 10
8228.001473147358
 20
5393.524538019132
 30
0.0
 11
8288.001473147359
 21
5393.524538019132
 31
0.0
  0
SOLID
  5
A1EF
330
9925
100
AcDbEntity
  8
寸法引出
 48
15.0
100
AcDbTrace
 10
8205.501473147359
 20
5397.274538019132
 30
0.0
 11
8205.501473147359
 21
5389.774538019133
 31
0.0
 12
8228.001473147358
 22
5393.524538019132
 32
0.0
 13
8228.001473147358
 23
5393.524538019132
 33
0.0
  0
SOLID
  5
A1F0
330
9925
100
AcDbEntity
  8
寸法引出
 48
15.0
100
AcDbTrace
 10
8310.501473147359
 20
5397.274538019132
 30
0.0
 11
8310.501473147359
 21
5389.774538019133
 31
0.0
 12
8288.001473147359
 22
5393.524538019132
 32
0.0
 13
8288.001473147359
 23
5393.524538019132
 33
0.0
  0
MTEXT
  5
A1F1
330
9925
100
AcDbEntity
  8
寸法引出
 48
15.0
100
AcDbMText
 10
8258.001473147357
 20
5423.524538019133
 30
0.0
 40
30.0
 41
0.0
 71
     5
 72
     1
  1
\A1;60
  7
SANWA
 73
     1
 44
1.0
1001
ACAD
1000
MTEXTBEGIN
1070
    73
1070
     1
1070
    44
1040
1.0
1070
    74
1070
     0
1000
MTEXTEND
  0
POINT
  5
A1F2
330
9925
100
AcDbEntity
  8
DEFPOINTS
 62
     0
 48
15.0
100
AcDbPoint
 10
8228.001473147358
 20
5484.022858903177
 30
0.0
  0
POINT
  5
A1F3
330
9925
100
AcDbEntity
  8
DEFPOINTS
 62
     0
 48
15.0
100
AcDbPoint
 10
8288.001473147359
 20
5484.022858903177
 30
0.0
  0
POINT
  5
A1F4
330
9925
100
AcDbEntity
  8
DEFPOINTS
 62
     0
 48
15.0
100
AcDbPoint
 10
8288.001473147359
 20
5393.524538019132
 30
0.0
  0
ENDBLK
  5
9931
330
9925
100
AcDbEntity
  8
0
 48
15.0
100
AcDbBlockEnd
  0
BLOCK
  5
993B
330
9932
100
AcDbEntity
  8
0
 48
15.0
100
AcDbBlockBegin
  2
*D207
 70
     1
 10
0.0
 20
0.0
 30
0.0
  3
*D207
  1

  0
LINE
  5
A1F5
330
9932
100
AcDbEntity
  8
寸法引出
 48
15.0
370
    -2
100
AcDbLine
 10
7935.001473147359
 20
5469.022858903176
 30
0.0
 11
7935.001473147359
 21
5386.024538019133
 31
0.0
  0
LINE
  5
A1F6
330
9932
100
AcDbEntity
  8
寸法引出
 48
15.0
370
    -2
100
AcDbLine
 10
7663.501473147359
 20
5393.524538019132
 30
0.0
 11
7912.501473147358
 21
5393.524538019132
 31
0.0
  0
SOLID
  5
A1F7
330
9932
100
AcDbEntity
  8
寸法引出
 48
15.0
100
AcDbTrace
 10
7663.501473147359
 20
5397.274538019132
 30
0.0
 11
7663.501473147359
 21
5389.774538019133
 31
0.0
 12
7641.001473147358
 22
5393.524538019132
 32
0.0
 13
7641.001473147358
 23
5393.524538019132
 33
0.0
  0
SOLID
  5
A1F8
330
9932
100
AcDbEntity
  8
寸法引出
 48
15.0
100
AcDbTrace
 10
7912.501473147358
 20
5397.274538019132
 30
0.0
 11
7912.501473147358
 21
5389.774538019133
 31
0.0
 12
7935.001473147359
 22
5393.524538019132
 32
0.0
 13
7935.001473147359
 23
5393.524538019132
 33
0.0
  0
MTEXT
  5
A1F9
330
9932
100
AcDbEntity
  8
寸法引出
 48
15.0
100
AcDbMText
 10
7788.001473147358
 20
5423.524538019133
 30
0.0
 40
30.0
 41
0.0
 71
     5
 72
     1
  1
\A1;294
  7
SANWA
 73
     1
 44
1.0
1001
ACAD
1000
MTEXTBEGIN
1070
    73
1070
     1
1070
    44
1040
1.0
1070
    74
1070
     0
1000
MTEXTEND
  0
POINT
  5
A1FA
330
9932
100
AcDbEntity
  8
DEFPOINTS
 62
     0
 48
15.0
100
AcDbPoint
 10
7641.001473147358
 20
5484.022858903177
 30
0.0
  0
POINT
  5
A1FB
330
9932
100
AcDbEntity
  8
DEFPOINTS
 62
     0
 48
15.0
100
AcDbPoint
 10
7935.001473147359
 20
5484.022858903177
 30
0.0
  0
POINT
  5
A1FC
330
9932
100
AcDbEntity
  8
DEFPOINTS
 62
     0
 48
15.0
100
AcDbPoint
 10
7935.001473147359
 20
5393.524538019132
 30
0.0
  0
ENDBLK
  5
993C
330
9932
100
AcDbEntity
  8
0
 48
15.0
100
AcDbBlockEnd
  0
BLOCK
  5
9946
330
993D
100
AcDbEntity
  8
0
 48
15.0
100
AcDbBlockBegin
  2
*D208
 70
     1
 10
0.0
 20
0.0
 30
0.0
  3
*D208
  1

  0
LINE
  5
A1FD
330
993D
100
AcDbEntity
  8
寸法引出
 48
15.0
370
    -2
100
AcDbLine
 10
8228.001473147358
 20
5469.022858903176
 30
0.0
 11
8228.001473147358
 21
5386.024538019133
 31
0.0
  0
LINE
  5
A1FE
330
993D
100
AcDbEntity
  8
寸法引出
 48
15.0
370
    -2
100
AcDbLine
 10
7957.501473147359
 20
5393.524538019132
 30
0.0
 11
8205.501473147359
 21
5393.524538019132
 31
0.0
  0
SOLID
  5
A1FF
330
993D
100
AcDbEntity
  8
寸法引出
 48
15.0
100
AcDbTrace
 10
7957.501473147359
 20
5397.274538019132
 30
0.0
 11
7957.501473147359
 21
5389.774538019133
 31
0.0
 12
7935.001473147359
 22
5393.524538019132
 32
0.0
 13
7935.001473147359
 23
5393.524538019132
 33
0.0
  0
SOLID
  5
A200
330
993D
100
AcDbEntity
  8
寸法引出
 48
15.0
100
AcDbTrace
 10
8205.501473147359
 20
5397.274538019132
 30
0.0
 11
8205.501473147359
 21
5389.774538019133
 31
0.0
 12
8228.001473147358
 22
5393.524538019132
 32
0.0
 13
8228.001473147358
 23
5393.524538019132
 33
0.0
  0
MTEXT
  5
A201
330
993D
100
AcDbEntity
  8
寸法引出
 48
15.0
100
AcDbMText
 10
8081.501473147358
 20
5423.524538019133
 30
0.0
 40
30.0
 41
0.0
 71
     5
 72
     1
  1
\A1;293
  7
SANWA
 73
     1
 44
1.0
1001
ACAD
1000
MTEXTBEGIN
1070
    73
1070
     1
1070
    44
1040
1.0
1070
    74
1070
     0
1000
MTEXTEND
  0
POINT
  5
A202
330
993D
100
AcDbEntity
  8
DEFPOINTS
 62
     0
 48
15.0
100
AcDbPoint
 10
7935.001473147359
 20
5484.022858903177
 30
0.0
  0
POINT
  5
A203
330
993D
100
AcDbEntity
  8
DEFPOINTS
 62
     0
 48
15.0
100
AcDbPoint
 10
8228.001473147358
 20
5484.022858903177
 30
0.0
  0
POINT
  5
A204
330
993D
100
AcDbEntity
  8
DEFPOINTS
 62
     0
 48
15.0
100
AcDbPoint
 10
8228.001473147358
 20
5393.524538019132
 30
0.0
  0
ENDBLK
  5
9947
330
993D
100
AcDbEntity
  8
0
 48
15.0
100
AcDbBlockEnd
  0
BLOCK
  5
9952
330
9948
100
AcDbEntity
  8
0
 48
15.0
100
AcDbBlockBegin
  2
*D209
 70
     1
 10
0.0
 20
0.0
 30
0.0
  3
*D209
  1

  0
LINE
  5
A205
330
9948
100
AcDbEntity
  8
寸法引出
 48
15.0
370
    -2
100
AcDbLine
 10
8303.001473147359
 20
5604.022858903177
 30
0.0
 11
8394.898366260374
 21
5604.022858903177
 31
0.0
  0
LINE
  5
A206
330
9948
100
AcDbEntity
  8
寸法引出
 48
15.0
370
    -2
100
AcDbLine
 10
8303.001473147359
 20
5484.022858903177
 30
0.0
 11
8394.898366260374
 21
5484.022858903177
 31
0.0
  0
LINE
  5
A207
330
9948
100
AcDbEntity
  8
寸法引出
 48
15.0
370
    -2
100
AcDbLine
 10
8387.398366260374
 20
5581.522858903177
 30
0.0
 11
8387.398366260374
 21
5506.522858903177
 31
0.0
  0
SOLID
  5
A208
330
9948
100
AcDbEntity
  8
寸法引出
 48
15.0
100
AcDbTrace
 10
8383.648366260374
 20
5581.522858903177
 30
0.0
 11
8391.148366260372
 21
5581.522858903177
 31
0.0
 12
8387.398366260374
 22
5604.022858903177
 32
0.0
 13
8387.398366260374
 23
5604.022858903177
 33
0.0
  0
SOLID
  5
A209
330
9948
100
AcDbEntity
  8
寸法引出
 48
15.0
100
AcDbTrace
 10
8383.648366260374
 20
5506.522858903177
 30
0.0
 11
8391.148366260372
 21
5506.522858903177
 31
0.0
 12
8387.398366260374
 22
5484.022858903177
 32
0.0
 13
8387.398366260374
 23
5484.022858903177
 33
0.0
  0
MTEXT
  5
A20A
330
9948
100
AcDbEntity
  8
寸法引出
 48
15.0
100
AcDbMText
 10
8357.398366260371
 20
5544.022858903177
 30
0.0
 40
30.0
 41
0.0
 71
     5
 72
     1
  1
\A1;120
  7
SANWA
 11
0.0000000000000001
 21
1.0
 31
0.0
 73
     1
 44
1.0
1001
ACAD
1000
MTEXTBEGIN
1070
    73
1070
     1
1070
    44
1040
1.0
1070
    74
1070
     0
1000
MTEXTEND
  0
POINT
  5
A20B
330
9948
100
AcDbEntity
  8
DEFPOINTS
 62
     0
 48
15.0
100
AcDbPoint
 10
8288.001473147359
 20
5604.022858903177
 30
0.0
  0
POINT
  5
A20C
330
9948
100
AcDbEntity
  8
DEFPOINTS
 62
     0
 48
15.0
100
AcDbPoint
 10
8288.001473147359
 20
5484.022858903177
 30
0.0
  0
POINT
  5
A20D
330
9948
100
AcDbEntity
  8
DEFPOINTS
 62
     0
 48
15.0
100
AcDbPoint
 10
8387.398366260374
 20
5484.022858903177
 30
0.0
  0
ENDBLK
  5
9953
330
9948
100
AcDbEntity
  8
0
 48
15.0
100
AcDbBlockEnd
  0
BLOCK
  5
995E
330
9954
100
AcDbEntity
  8
0
 48
15.0
100
AcDbBlockBegin
  2
*D210
 70
     1
 10
0.0
 20
0.0
 30
0.0
  3
*D210
  1

  0
LINE
  5
9F07
330
9954
100
AcDbEntity
  8
寸法引出
 48
15.0
370
    -2
100
AcDbLine
 10
2084.282590099842
 20
1555.776461578135
 30
0.0
 11
2227.306304376738
 21
1555.776461578135
 31
0.0
  0
LINE
  5
9F08
330
9954
100
AcDbEntity
  8
寸法引出
 48
15.0
370
    -2
100
AcDbLine
 10
2084.282590099842
 20
555.7764615781352
 30
0.0
 11
2227.306304376738
 21
555.7764615781352
 31
0.0
  0
LINE
  5
9F09
330
9954
100
AcDbEntity
  8
寸法引出
 48
15.0
370
    -2
100
AcDbLine
 10
2219.806304376739
 20
1533.276461578135
 30
0.0
 11
2219.806304376738
 21
578.2764615781352
 31
0.0
  0
SOLID
  5
9F0A
330
9954
100
AcDbEntity
  8
寸法引出
 48
15.0
100
AcDbTrace
 10
2216.056304376738
 20
1533.276461578135
 30
0.0
 11
2223.556304376739
 21
1533.276461578135
 31
0.0
 12
2219.806304376739
 22
1555.776461578135
 32
0.0
 13
2219.806304376739
 23
1555.776461578135
 33
0.0
  0
SOLID
  5
9F0B
330
9954
100
AcDbEntity
  8
寸法引出
 48
15.0
100
AcDbTrace
 10
2216.056304376738
 20
578.2764615781352
 30
0.0
 11
2223.556304376738
 21
578.2764615781352
 31
0.0
 12
2219.806304376738
 22
555.7764615781352
 32
0.0
 13
2219.806304376738
 23
555.7764615781352
 33
0.0
  0
MTEXT
  5
9F0C
330
9954
100
AcDbEntity
  8
寸法引出
 48
15.0
100
AcDbMText
 10
2189.806304376738
 20
1055.776461578135
 30
0.0
 40
30.0
 41
0.0
 71
     5
 72
     1
  1
\A1;1000
  7
SANWA
 11
0.0000000000000001
 21
1.0
 31
0.0
 73
     1
 44
1.0
1001
ACAD
1000
MTEXTBEGIN
1070
    73
1070
     1
1070
    44
1040
1.0
1070
    74
1070
     0
1000
MTEXTEND
  0
POINT
  5
9F0D
330
9954
100
AcDbEntity
  8
DEFPOINTS
 62
     0
 48
15.0
100
AcDbPoint
 10
2069.282590099843
 20
1555.776461578135
 30
0.0
  0
POINT
  5
9F0E
330
9954
100
AcDbEntity
  8
DEFPOINTS
 62
     0
 48
15.0
100
AcDbPoint
 10
2069.282590099843
 20
555.7764615781352
 30
0.0
  0
POINT
  5
9F0F
330
9954
100
AcDbEntity
  8
DEFPOINTS
 62
     0
 48
15.0
100
AcDbPoint
 10
2219.806304376738
 20
555.7764615781352
 30
0.0
  0
ENDBLK
  5
995F
330
9954
100
AcDbEntity
  8
0
 48
15.0
100
AcDbBlockEnd
  0
BLOCK
  5
9969
330
9960
100
AcDbEntity
  8
0
 48
15.0
100
AcDbBlockBegin
  2
*D211
 70
     1
 10
0.0
 20
0.0
 30
0.0
  3
*D211
  1

  0
LINE
  5
9F10
330
9960
100
AcDbEntity
  8
寸法引出
 48
15.0
370
    -2
100
AcDbLine
 10
1314.282590099842
 20
675.7764615781352
 30
0.0
 11
1157.673392900417
 21
675.7764615781353
 31
0.0
  0
LINE
  5
9F11
330
9960
100
AcDbEntity
  8
寸法引出
 48
15.0
370
    -2
100
AcDbLine
 10
1165.173392900417
 20
1413.276461578135
 30
0.0
 11
1165.173392900417
 21
698.2764615781353
 31
0.0
  0
SOLID
  5
9F12
330
9960
100
AcDbEntity
  8
寸法引出
 48
15.0
100
AcDbTrace
 10
1161.423392900417
 20
1413.276461578135
 30
0.0
 11
1168.923392900417
 21
1413.276461578135
 31
0.0
 12
1165.173392900417
 22
1435.776461578135
 32
0.0
 13
1165.173392900417
 23
1435.776461578135
 33
0.0
  0
SOLID
  5
9F13
330
9960
100
AcDbEntity
  8
寸法引出
 48
15.0
100
AcDbTrace
 10
1161.423392900417
 20
698.2764615781353
 30
0.0
 11
1168.923392900417
 21
698.2764615781353
 31
0.0
 12
1165.173392900417
 22
675.7764615781353
 32
0.0
 13
1165.173392900417
 23
675.7764615781353
 33
0.0
  0
MTEXT
  5
9F14
330
9960
100
AcDbEntity
  8
寸法引出
 48
15.0
100
AcDbMText
 10
1135.173392900416
 20
1055.776461578135
 30
0.0
 40
30.0
 41
0.0
 71
     5
 72
     1
  1
\A1;760
  7
SANWA
 11
0.0000000000000001
 21
1.0
 31
0.0
 73
     1
 44
1.0
1001
ACAD
1000
MTEXTBEGIN
1070
    73
1070
     1
1070
    44
1040
1.0
1070
    74
1070
     0
1000
MTEXTEND
  0
POINT
  5
9F15
330
9960
100
AcDbEntity
  8
DEFPOINTS
 62
     0
 48
15.0
100
AcDbPoint
 10
1329.282590099842
 20
1435.776461578135
 30
0.0
  0
POINT
  5
9F16
330
9960
100
AcDbEntity
  8
DEFPOINTS
 62
     0
 48
15.0
100
AcDbPoint
 10
1329.282590099842
 20
675.7764615781352
 30
0.0
  0
POINT
  5
9F17
330
9960
100
AcDbEntity
  8
DEFPOINTS
 62
     0
 48
15.0
100
AcDbPoint
 10
1165.173392900417
 20
675.7764615781353
 30
0.0
  0
ENDBLK
  5
996A
330
9960
100
AcDbEntity
  8
0
 48
15.0
100
AcDbBlockEnd
  0
BLOCK
  5
9975
330
996B
100
AcDbEntity
  8
0
 48
15.0
100
AcDbBlockBegin
  2
*D212
 70
     1
 10
0.0
 20
0.0
 30
0.0
  3
*D212
  1

  0
LINE
  5
9F18
330
996B
100
AcDbEntity
  8
寸法引出
 48
15.0
370
    -2
100
AcDbLine
 10
1329.282590099842
 20
540.7764615781352
 30
0.0
 11
1329.282590099842
 21
372.8743657191062
 31
0.0
  0
LINE
  5
9F19
330
996B
100
AcDbEntity
  8
寸法引出
 48
15.0
370
    -2
100
AcDbLine
 10
2069.282590099843
 20
540.7764615781352
 30
0.0
 11
2069.282590099843
 21
372.8743657191062
 31
0.0
  0
LINE
  5
9F1A
330
996B
100
AcDbEntity
  8
寸法引出
 48
15.0
370
    -2
100
AcDbLine
 10
1351.782590099842
 20
380.3743657191062
 30
0.0
 11
2046.782590099843
 21
380.3743657191062
 31
0.0
  0
SOLID
  5
9F1B
330
996B
100
AcDbEntity
  8
寸法引出
 48
15.0
100
AcDbTrace
 10
1351.782590099842
 20
384.1243657191062
 30
0.0
 11
1351.782590099842
 21
376.6243657191062
 31
0.0
 12
1329.282590099842
 22
380.3743657191062
 32
0.0
 13
1329.282590099842
 23
380.3743657191062
 33
0.0
  0
SOLID
  5
9F1C
330
996B
100
AcDbEntity
  8
寸法引出
 48
15.0
100
AcDbTrace
 10
2046.782590099843
 20
384.1243657191062
 30
0.0
 11
2046.782590099843
 21
376.6243657191062
 31
0.0
 12
2069.282590099843
 22
380.3743657191062
 32
0.0
 13
2069.282590099843
 23
380.3743657191062
 33
0.0
  0
MTEXT
  5
9F1D
330
996B
100
AcDbEntity
  8
寸法引出
 48
15.0
100
AcDbMText
 10
1699.282590099842
 20
410.3743657191062
 30
0.0
 40
30.0
 41
0.0
 71
     5
 72
     1
  1
\A1;740
  7
SANWA
 73
     1
 44
1.0
1001
ACAD
1000
MTEXTBEGIN
1070
    73
1070
     1
1070
    44
1040
1.0
1070
    74
1070
     0
1000
MTEXTEND
  0
POINT
  5
9F1E
330
996B
100
AcDbEntity
  8
DEFPOINTS
 62
     0
 48
15.0
100
AcDbPoint
 10
1329.282590099842
 20
555.7764615781352
 30
0.0
  0
POINT
  5
9F1F
330
996B
100
AcDbEntity
  8
DEFPOINTS
 62
     0
 48
15.0
100
AcDbPoint
 10
2069.282590099843
 20
555.7764615781352
 30
0.0
  0
POINT
  5
9F20
330
996B
100
AcDbEntity
  8
DEFPOINTS
 62
     0
 48
15.0
100
AcDbPoint
 10
2069.282590099843
 20
380.3743657191062
 30
0.0
  0
ENDBLK
  5
9976
330
996B
100
AcDbEntity
  8
0
 48
15.0
100
AcDbBlockEnd
  0
BLOCK
  5
9981
330
9977
100
AcDbEntity
  8
0
 48
15.0
100
AcDbBlockBegin
  2
*D213
 70
     1
 10
0.0
 20
0.0
 30
0.0
  3
*D213
  1

  0
LINE
  5
9F21
330
9977
100
AcDbEntity
  8
寸法引出
 48
15.0
370
    -2
100
AcDbLine
 10
1364.282590099842
 20
540.7764615781352
 30
0.0
 11
1364.282590099842
 21
437.7962764912791
 31
0.0
  0
LINE
  5
9F22
330
9977
100
AcDbEntity
  8
寸法引出
 48
15.0
370
    -2
100
AcDbLine
 10
2034.282590099842
 20
540.7764615781352
 30
0.0
 11
2034.282590099842
 21
437.7962764912791
 31
0.0
  0
LINE
  5
9F23
330
9977
100
AcDbEntity
  8
寸法引出
 48
15.0
370
    -2
100
AcDbLine
 10
1386.782590099842
 20
445.296276491279
 30
0.0
 11
2011.782590099842
 21
445.296276491279
 31
0.0
  0
SOLID
  5
9F24
330
9977
100
AcDbEntity
  8
寸法引出
 48
15.0
100
AcDbTrace
 10
1386.782590099842
 20
449.046276491279
 30
0.0
 11
1386.782590099842
 21
441.546276491279
 31
0.0
 12
1364.282590099842
 22
445.296276491279
 32
0.0
 13
1364.282590099842
 23
445.296276491279
 33
0.0
  0
SOLID
  5
9F25
330
9977
100
AcDbEntity
  8
寸法引出
 48
15.0
100
AcDbTrace
 10
2011.782590099842
 20
449.046276491279
 30
0.0
 11
2011.782590099842
 21
441.546276491279
 31
0.0
 12
2034.282590099842
 22
445.296276491279
 32
0.0
 13
2034.282590099842
 23
445.296276491279
 33
0.0
  0
MTEXT
  5
9F26
330
9977
100
AcDbEntity
  8
寸法引出
 48
15.0
100
AcDbMText
 10
1699.282590099842
 20
475.2962764912791
 30
0.0
 40
30.0
 41
0.0
 71
     5
 72
     1
  1
\A1;670
  7
SANWA
 73
     1
 44
1.0
1001
ACAD
1000
MTEXTBEGIN
1070
    73
1070
     1
1070
    44
1040
1.0
1070
    74
1070
     0
1000
MTEXTEND
  0
POINT
  5
9F27
330
9977
100
AcDbEntity
  8
DEFPOINTS
 62
     0
 48
15.0
100
AcDbPoint
 10
1364.282590099842
 20
555.7764615781352
 30
0.0
  0
POINT
  5
9F28
330
9977
100
AcDbEntity
  8
DEFPOINTS
 62
     0
 48
15.0
100
AcDbPoint
 10
2034.282590099842
 20
555.7764615781352
 30
0.0
  0
POINT
  5
9F29
330
9977
100
AcDbEntity
  8
DEFPOINTS
 62
     0
 48
15.0
100
AcDbPoint
 10
2034.282590099842
 20
445.296276491279
 30
0.0
  0
ENDBLK
  5
9982
330
9977
100
AcDbEntity
  8
0
 48
15.0
100
AcDbBlockEnd
  0
BLOCK
  5
998C
330
9983
100
AcDbEntity
  8
0
 48
15.0
100
AcDbBlockBegin
  2
*D214
 70
     1
 10
0.0
 20
0.0
 30
0.0
  3
*D214
  1

  0
LINE
  5
9F2A
330
9983
100
AcDbEntity
  8
寸法引出
 48
15.0
370
    -2
100
AcDbLine
 10
1314.282590099842
 20
555.7764615781352
 30
0.0
 11
1157.673392900417
 21
555.7764615781353
 31
0.0
  0
LINE
  5
9F2B
330
9983
100
AcDbEntity
  8
寸法引出
 48
15.0
370
    -2
100
AcDbLine
 10
1165.173392900417
 20
653.2764615781353
 30
0.0
 11
1165.173392900417
 21
578.2764615781353
 31
0.0
  0
SOLID
  5
9F2C
330
9983
100
AcDbEntity
  8
寸法引出
 48
15.0
100
AcDbTrace
 10
1161.423392900417
 20
653.2764615781353
 30
0.0
 11
1168.923392900417
 21
653.2764615781353
 31
0.0
 12
1165.173392900417
 22
675.7764615781353
 32
0.0
 13
1165.173392900417
 23
675.7764615781353
 33
0.0
  0
SOLID
  5
9F2D
330
9983
100
AcDbEntity
  8
寸法引出
 48
15.0
100
AcDbTrace
 10
1161.423392900417
 20
578.2764615781353
 30
0.0
 11
1168.923392900417
 21
578.2764615781353
 31
0.0
 12
1165.173392900417
 22
555.7764615781353
 32
0.0
 13
1165.173392900417
 23
555.7764615781353
 33
0.0
  0
MTEXT
  5
9F2E
330
9983
100
AcDbEntity
  8
寸法引出
 48
15.0
100
AcDbMText
 10
1135.173392900416
 20
615.7764615781355
 30
0.0
 40
30.0
 41
0.0
 71
     5
 72
     1
  1
\A1;120
  7
SANWA
 11
0.0000000000000001
 21
1.0
 31
0.0
 73
     1
 44
1.0
1001
ACAD
1000
MTEXTBEGIN
1070
    73
1070
     1
1070
    44
1040
1.0
1070
    74
1070
     0
1000
MTEXTEND
  0
POINT
  5
9F2F
330
9983
100
AcDbEntity
  8
DEFPOINTS
 62
     0
 48
15.0
100
AcDbPoint
 10
1329.282590099842
 20
675.7764615781352
 30
0.0
  0
POINT
  5
9F30
330
9983
100
AcDbEntity
  8
DEFPOINTS
 62
     0
 48
15.0
100
AcDbPoint
 10
1329.282590099842
 20
555.7764615781352
 30
0.0
  0
POINT
  5
9F31
330
9983
100
AcDbEntity
  8
DEFPOINTS
 62
     0
 48
15.0
100
AcDbPoint
 10
1165.173392900417
 20
555.7764615781353
 30
0.0
  0
ENDBLK
  5
998D
330
9983
100
AcDbEntity
  8
0
 48
15.0
100
AcDbBlockEnd
  0
BLOCK
  5
999A
330
998E
100
AcDbEntity
  8
0
 48
15.0
100
AcDbBlockBegin
  2
*D215
 70
     1
 10
0.0
 20
0.0
 30
0.0
  3
*D215
  1

  0
LINE
  5
9F32
330
998E
100
AcDbEntity
  8
寸法引出
 48
15.0
370
    -2
100
AcDbLine
 10
1329.282590099842
 20
540.7764615781352
 30
0.0
 11
1329.282590099842
 21
437.7962764912791
 31
0.0
  0
LINE
  5
9F33
330
998E
100
AcDbEntity
  8
寸法引出
 48
15.0
370
    -2
100
AcDbLine
 10
1364.282590099842
 20
540.7764615781352
 30
0.0
 11
1364.282590099842
 21
437.7962764912791
 31
0.0
  0
LINE
  5
9F34
330
998E
100
AcDbEntity
  8
寸法引出
 48
15.0
370
    -2
100
AcDbLine
 10
1306.782590099842
 20
445.296276491279
 30
0.0
 11
1284.282590099842
 21
445.296276491279
 31
0.0
  0
LINE
  5
9F35
330
998E
100
AcDbEntity
  8
寸法引出
 48
15.0
370
    -2
100
AcDbLine
 10
1386.782590099842
 20
445.296276491279
 30
0.0
 11
1409.282590099842
 21
445.296276491279
 31
0.0
  0
LINE
  5
9F36
330
998E
100
AcDbEntity
  8
寸法引出
 48
15.0
370
    -2
100
AcDbLine
 10
1329.282590099842
 20
445.296276491279
 30
0.0
 11
1364.282590099842
 21
445.296276491279
 31
0.0
  0
SOLID
  5
9F37
330
998E
100
AcDbEntity
  8
寸法引出
 48
15.0
100
AcDbTrace
 10
1306.782590099842
 20
449.046276491279
 30
0.0
 11
1306.782590099842
 21
441.546276491279
 31
0.0
 12
1329.282590099842
 22
445.296276491279
 32
0.0
 13
1329.282590099842
 23
445.296276491279
 33
0.0
  0
SOLID
  5
9F38
330
998E
100
AcDbEntity
  8
寸法引出
 48
15.0
100
AcDbTrace
 10
1386.782590099842
 20
449.046276491279
 30
0.0
 11
1386.782590099842
 21
441.546276491279
 31
0.0
 12
1364.282590099842
 22
445.296276491279
 32
0.0
 13
1364.282590099842
 23
445.296276491279
 33
0.0
  0
MTEXT
  5
9F39
330
998E
100
AcDbEntity
  8
寸法引出
 48
15.0
100
AcDbMText
 10
1346.782590099842
 20
475.2962764912791
 30
0.0
 40
30.0
 41
0.0
 71
     5
 72
     1
  1
\A1;35
  7
SANWA
 73
     1
 44
1.0
1001
ACAD
1000
MTEXTBEGIN
1070
    73
1070
     1
1070
    44
1040
1.0
1070
    74
1070
     0
1000
MTEXTEND
  0
POINT
  5
9F3A
330
998E
100
AcDbEntity
  8
DEFPOINTS
 62
     0
 48
15.0
100
AcDbPoint
 10
1329.282590099842
 20
555.7764615781352
 30
0.0
  0
POINT
  5
9F3B
330
998E
100
AcDbEntity
  8
DEFPOINTS
 62
     0
 48
15.0
100
AcDbPoint
 10
1364.282590099842
 20
555.7764615781352
 30
0.0
  0
POINT
  5
9F3C
330
998E
100
AcDbEntity
  8
DEFPOINTS
 62
     0
 48
15.0
100
AcDbPoint
 10
1364.282590099842
 20
445.296276491279
 30
0.0
  0
ENDBLK
  5
999B
330
998E
100
AcDbEntity
  8
0
 48
15.0
100
AcDbBlockEnd
  0
BLOCK
  5
99A7
330
999C
100
AcDbEntity
  8
0
 48
15.0
100
AcDbBlockBegin
  2
*D216
 70
     1
 10
0.0
 20
0.0
 30
0.0
  3
*D216
  1

  0
LINE
  5
9F3D
330
999C
100
AcDbEntity
  8
寸法引出
 48
15.0
370
    -2
100
AcDbLine
 10
2069.282590099843
 20
540.7764615781352
 30
0.0
 11
2069.282590099843
 21
437.7962764912791
 31
0.0
  0
LINE
  5
9F3E
330
999C
100
AcDbEntity
  8
寸法引出
 48
15.0
370
    -2
100
AcDbLine
 10
2011.782590099842
 20
445.296276491279
 30
0.0
 11
1989.282590099842
 21
445.296276491279
 31
0.0
  0
LINE
  5
9F3F
330
999C
100
AcDbEntity
  8
寸法引出
 48
15.0
370
    -2
100
AcDbLine
 10
2091.782590099843
 20
445.296276491279
 30
0.0
 11
2114.282590099842
 21
445.296276491279
 31
0.0
  0
LINE
  5
9F40
330
999C
100
AcDbEntity
  8
寸法引出
 48
15.0
370
    -2
100
AcDbLine
 10
2034.282590099842
 20
445.296276491279
 30
0.0
 11
2069.282590099843
 21
445.296276491279
 31
0.0
  0
SOLID
  5
9F41
330
999C
100
AcDbEntity
  8
寸法引出
 48
15.0
100
AcDbTrace
 10
2011.782590099842
 20
449.046276491279
 30
0.0
 11
2011.782590099842
 21
441.546276491279
 31
0.0
 12
2034.282590099842
 22
445.296276491279
 32
0.0
 13
2034.282590099842
 23
445.296276491279
 33
0.0
  0
SOLID
  5
9F42
330
999C
100
AcDbEntity
  8
寸法引出
 48
15.0
100
AcDbTrace
 10
2091.782590099843
 20
449.046276491279
 30
0.0
 11
2091.782590099843
 21
441.546276491279
 31
0.0
 12
2069.282590099843
 22
445.296276491279
 32
0.0
 13
2069.282590099843
 23
445.296276491279
 33
0.0
  0
MTEXT
  5
9F43
330
999C
100
AcDbEntity
  8
寸法引出
 48
15.0
100
AcDbMText
 10
2051.782590099842
 20
475.2962764912791
 30
0.0
 40
30.0
 41
0.0
 71
     5
 72
     1
  1
\A1;35
  7
SANWA
 73
     1
 44
1.0
1001
ACAD
1000
MTEXTBEGIN
1070
    73
1070
     1
1070
    44
1040
1.0
1070
    74
1070
     0
1000
MTEXTEND
  0
POINT
  5
9F44
330
999C
100
AcDbEntity
  8
DEFPOINTS
 62
     0
 48
15.0
100
AcDbPoint
 10
2034.282590099842
 20
555.7764615781352
 30
0.0
  0
POINT
  5
9F45
330
999C
100
AcDbEntity
  8
DEFPOINTS
 62
     0
 48
15.0
100
AcDbPoint
 10
2069.282590099843
 20
555.7764615781352
 30
0.0
  0
POINT
  5
9F46
330
999C
100
AcDbEntity
  8
DEFPOINTS
 62
     0
 48
15.0
100
AcDbPoint
 10
2069.282590099843
 20
445.296276491279
 30
0.0
  0
ENDBLK
  5
99A8
330
999C
100
AcDbEntity
  8
0
 48
15.0
100
AcDbBlockEnd
  0
BLOCK
  5
99B3
330
99A9
100
AcDbEntity
  8
0
 48
15.0
100
AcDbBlockBegin
  2
*D217
 70
     1
 10
0.0
 20
0.0
 30
0.0
  3
*D217
  1

  0
LINE
  5
9F47
330
99A9
100
AcDbEntity
  8
寸法引出
 48
15.0
370
    -2
100
AcDbLine
 10
2535.6319440691
 20
2122.603964298285
 30
0.0
 11
2535.6319440691
 21
2035.152296701097
 31
0.0
  0
LINE
  5
9F48
330
99A9
100
AcDbEntity
  8
寸法引出
 48
15.0
370
    -2
100
AcDbLine
 10
2655.6319440691
 20
2122.603964298285
 30
0.0
 11
2655.6319440691
 21
2035.152296701097
 31
0.0
  0
LINE
  5
9F49
330
99A9
100
AcDbEntity
  8
寸法引出
 48
15.0
370
    -2
100
AcDbLine
 10
2558.1319440691
 20
2042.652296701097
 30
0.0
 11
2633.1319440691
 21
2042.652296701097
 31
0.0
  0
SOLID
  5
9F4A
330
99A9
100
AcDbEntity
  8
寸法引出
 48
15.0
100
AcDbTrace
 10
2558.1319440691
 20
2046.402296701097
 30
0.0
 11
2558.1319440691
 21
2038.902296701097
 31
0.0
 12
2535.6319440691
 22
2042.652296701097
 32
0.0
 13
2535.6319440691
 23
2042.652296701097
 33
0.0
  0
SOLID
  5
9F4B
330
99A9
100
AcDbEntity
  8
寸法引出
 48
15.0
100
AcDbTrace
 10
2633.1319440691
 20
2046.402296701097
 30
0.0
 11
2633.1319440691
 21
2038.902296701097
 31
0.0
 12
2655.6319440691
 22
2042.652296701097
 32
0.0
 13
2655.6319440691
 23
2042.652296701097
 33
0.0
  0
MTEXT
  5
9F4C
330
99A9
100
AcDbEntity
  8
寸法引出
 48
15.0
100
AcDbMText
 10
2595.6319440691
 20
2072.652296701097
 30
0.0
 40
30.0
 41
0.0
 71
     5
 72
     1
  1
\A1;120
  7
SANWA
 73
     1
 44
1.0
1001
ACAD
1000
MTEXTBEGIN
1070
    73
1070
     1
1070
    44
1040
1.0
1070
    74
1070
     0
1000
MTEXTEND
  0
POINT
  5
9F4D
330
99A9
100
AcDbEntity
  8
DEFPOINTS
 62
     0
 48
15.0
100
AcDbPoint
 10
2535.6319440691
 20
2137.603964298285
 30
0.0
  0
POINT
  5
9F4E
330
99A9
100
AcDbEntity
  8
DEFPOINTS
 62
     0
 48
15.0
100
AcDbPoint
 10
2655.6319440691
 20
2137.603964298285
 30
0.0
  0
POINT
  5
9F4F
330
99A9
100
AcDbEntity
  8
DEFPOINTS
 62
     0
 48
15.0
100
AcDbPoint
 10
2655.6319440691
 20
2042.652296701097
 30
0.0
  0
ENDBLK
  5
99B4
330
99A9
100
AcDbEntity
  8
0
 48
15.0
100
AcDbBlockEnd
  0
BLOCK
  5
99BF
330
99B5
100
AcDbEntity
  8
0
 48
15.0
100
AcDbBlockBegin
  2
*D218
 70
     1
 10
0.0
 20
0.0
 30
0.0
  3
*D218
  1

  0
LINE
  5
9F50
330
99B5
100
AcDbEntity
  8
寸法引出
 48
15.0
370
    -2
100
AcDbLine
 10
2535.6319440691
 20
2272.603964298285
 30
0.0
 11
2535.6319440691
 21
2360.407365663085
 31
0.0
  0
LINE
  5
9F51
330
99B5
100
AcDbEntity
  8
寸法引出
 48
15.0
370
    -2
100
AcDbLine
 10
3535.6319440691
 20
2272.603964298285
 30
0.0
 11
3535.6319440691
 21
2360.407365663085
 31
0.0
  0
LINE
  5
9F52
330
99B5
100
AcDbEntity
  8
寸法引出
 48
15.0
370
    -2
100
AcDbLine
 10
2558.1319440691
 20
2352.907365663085
 30
0.0
 11
3513.1319440691
 21
2352.907365663085
 31
0.0
  0
SOLID
  5
9F53
330
99B5
100
AcDbEntity
  8
寸法引出
 48
15.0
100
AcDbTrace
 10
2558.1319440691
 20
2356.657365663084
 30
0.0
 11
2558.1319440691
 21
2349.157365663085
 31
0.0
 12
2535.6319440691
 22
2352.907365663085
 32
0.0
 13
2535.6319440691
 23
2352.907365663085
 33
0.0
  0
SOLID
  5
9F54
330
99B5
100
AcDbEntity
  8
寸法引出
 48
15.0
100
AcDbTrace
 10
3513.1319440691
 20
2356.657365663084
 30
0.0
 11
3513.1319440691
 21
2349.157365663085
 31
0.0
 12
3535.6319440691
 22
2352.907365663085
 32
0.0
 13
3535.6319440691
 23
2352.907365663085
 33
0.0
  0
MTEXT
  5
9F55
330
99B5
100
AcDbEntity
  8
寸法引出
 48
15.0
100
AcDbMText
 10
3035.6319440691
 20
2382.907365663085
 30
0.0
 40
30.0
 41
0.0
 71
     5
 72
     1
  1
\A1;1000
  7
SANWA
 73
     1
 44
1.0
1001
ACAD
1000
MTEXTBEGIN
1070
    73
1070
     1
1070
    44
1040
1.0
1070
    74
1070
     0
1000
MTEXTEND
  0
POINT
  5
9F56
330
99B5
100
AcDbEntity
  8
DEFPOINTS
 62
     0
 48
15.0
100
AcDbPoint
 10
2535.6319440691
 20
2257.603964298285
 30
0.0
  0
POINT
  5
9F57
330
99B5
100
AcDbEntity
  8
DEFPOINTS
 62
     0
 48
15.0
100
AcDbPoint
 10
3535.6319440691
 20
2257.603964298285
 30
0.0
  0
POINT
  5
9F58
330
99B5
100
AcDbEntity
  8
DEFPOINTS
 62
     0
 48
15.0
100
AcDbPoint
 10
3535.6319440691
 20
2352.907365663085
 30
0.0
  0
ENDBLK
  5
99C0
330
99B5
100
AcDbEntity
  8
0
 48
15.0
100
AcDbBlockEnd
  0
BLOCK
  5
99CB
330
99C1
100
AcDbEntity
  8
0
 48
15.0
100
AcDbBlockBegin
  2
*D219
 70
     1
 10
0.0
 20
0.0
 30
0.0
  3
*D219
  1

  0
LINE
  5
9F59
330
99C1
100
AcDbEntity
  8
寸法引出
 48
15.0
370
    -2
100
AcDbLine
 10
1329.282590099842
 20
2272.603964298285
 30
0.0
 11
1329.282590099842
 21
2347.511950650373
 31
0.0
  0
LINE
  5
9F5A
330
99C1
100
AcDbEntity
  8
寸法引出
 48
15.0
370
    -2
100
AcDbLine
 10
1666.782590099842
 20
2272.603964298285
 30
0.0
 11
1666.782590099842
 21
2347.511950650373
 31
0.0
  0
LINE
  5
9F5B
330
99C1
100
AcDbEntity
  8
寸法引出
 48
15.0
370
    -2
100
AcDbLine
 10
1351.782590099842
 20
2340.011950650374
 30
0.0
 11
1644.282590099842
 21
2340.011950650374
 31
0.0
  0
SOLID
  5
9F5C
330
99C1
100
AcDbEntity
  8
寸法引出
 48
15.0
100
AcDbTrace
 10
1351.782590099842
 20
2343.761950650373
 30
0.0
 11
1351.782590099842
 21
2336.261950650373
 31
0.0
 12
1329.282590099842
 22
2340.011950650374
 32
0.0
 13
1329.282590099842
 23
2340.011950650374
 33
0.0
  0
SOLID
  5
9F5D
330
99C1
100
AcDbEntity
  8
寸法引出
 48
15.0
100
AcDbTrace
 10
1644.282590099842
 20
2343.761950650373
 30
0.0
 11
1644.282590099842
 21
2336.261950650373
 31
0.0
 12
1666.782590099842
 22
2340.011950650374
 32
0.0
 13
1666.782590099842
 23
2340.011950650374
 33
0.0
  0
MTEXT
  5
9F5E
330
99C1
100
AcDbEntity
  8
寸法引出
 48
15.0
100
AcDbMText
 10
1498.032590099842
 20
2370.011950650374
 30
0.0
 40
30.0
 41
0.0
 71
     5
 72
     1
  1
\A1;337.5
  7
SANWA
 73
     1
 44
1.0
1001
ACAD
1000
MTEXTBEGIN
1070
    73
1070
     1
1070
    44
1040
1.0
1070
    74
1070
     0
1000
MTEXTEND
  0
POINT
  5
9F5F
330
99C1
100
AcDbEntity
  8
DEFPOINTS
 62
     0
 48
15.0
100
AcDbPoint
 10
1329.282590099842
 20
2257.603964298285
 30
0.0
  0
POINT
  5
9F60
330
99C1
100
AcDbEntity
  8
DEFPOINTS
 62
     0
 48
15.0
100
AcDbPoint
 10
1666.782590099842
 20
2257.603964298285
 30
0.0
  0
POINT
  5
9F61
330
99C1
100
AcDbEntity
  8
DEFPOINTS
 62
     0
 48
15.0
100
AcDbPoint
 10
1666.782590099842
 20
2340.011950650374
 30
0.0
  0
ENDBLK
  5
99CC
330
99C1
100
AcDbEntity
  8
0
 48
15.0
100
AcDbBlockEnd
  0
BLOCK
  5
99D8
330
99CD
100
AcDbEntity
  8
0
 48
15.0
100
AcDbBlockBegin
  2
*D220
 70
     1
 10
0.0
 20
0.0
 30
0.0
  3
*D220
  1

  0
LINE
  5
9F62
330
99CD
100
AcDbEntity
  8
寸法引出
 48
15.0
370
    -2
100
AcDbLine
 10
1731.782590099842
 20
2272.603964298285
 30
0.0
 11
1731.782590099842
 21
2347.511950650373
 31
0.0
  0
LINE
  5
9F63
330
99CD
100
AcDbEntity
  8
寸法引出
 48
15.0
370
    -2
100
AcDbLine
 10
1644.282590099842
 20
2340.011950650374
 30
0.0
 11
1621.782590099842
 21
2340.011950650374
 31
0.0
  0
LINE
  5
9F64
330
99CD
100
AcDbEntity
  8
寸法引出
 48
15.0
370
    -2
100
AcDbLine
 10
1754.282590099842
 20
2340.011950650374
 30
0.0
 11
1776.782590099842
 21
2340.011950650374
 31
0.0
  0
LINE
  5
9F65
330
99CD
100
AcDbEntity
  8
寸法引出
 48
15.0
370
    -2
100
AcDbLine
 10
1666.782590099842
 20
2340.011950650374
 30
0.0
 11
1731.782590099842
 21
2340.011950650374
 31
0.0
  0
SOLID
  5
9F66
330
99CD
100
AcDbEntity
  8
寸法引出
 48
15.0
100
AcDbTrace
 10
1644.282590099842
 20
2343.761950650373
 30
0.0
 11
1644.282590099842
 21
2336.261950650373
 31
0.0
 12
1666.782590099842
 22
2340.011950650374
 32
0.0
 13
1666.782590099842
 23
2340.011950650374
 33
0.0
  0
SOLID
  5
9F67
330
99CD
100
AcDbEntity
  8
寸法引出
 48
15.0
100
AcDbTrace
 10
1754.282590099842
 20
2343.761950650373
 30
0.0
 11
1754.282590099842
 21
2336.261950650373
 31
0.0
 12
1731.782590099842
 22
2340.011950650374
 32
0.0
 13
1731.782590099842
 23
2340.011950650374
 33
0.0
  0
MTEXT
  5
9F68
330
99CD
100
AcDbEntity
  8
寸法引出
 48
15.0
100
AcDbMText
 10
1699.282590099842
 20
2370.011950650374
 30
0.0
 40
30.0
 41
0.0
 71
     5
 72
     1
  1
\A1;65
  7
SANWA
 73
     1
 44
1.0
1001
ACAD
1000
MTEXTBEGIN
1070
    73
1070
     1
1070
    44
1040
1.0
1070
    74
1070
     0
1000
MTEXTEND
  0
POINT
  5
9F69
330
99CD
100
AcDbEntity
  8
DEFPOINTS
 62
     0
 48
15.0
100
AcDbPoint
 10
1666.782590099842
 20
2257.603964298285
 30
0.0
  0
POINT
  5
9F6A
330
99CD
100
AcDbEntity
  8
DEFPOINTS
 62
     0
 48
15.0
100
AcDbPoint
 10
1731.782590099842
 20
2257.603964298285
 30
0.0
  0
POINT
  5
9F6B
330
99CD
100
AcDbEntity
  8
DEFPOINTS
 62
     0
 48
15.0
100
AcDbPoint
 10
1731.782590099842
 20
2340.011950650374
 30
0.0
  0
ENDBLK
  5
99D9
330
99CD
100
AcDbEntity
  8
0
 48
15.0
100
AcDbBlockEnd
  0
BLOCK
  5
99E4
330
99DA
100
AcDbEntity
  8
0
 48
15.0
100
AcDbBlockBegin
  2
*D221
 70
     1
 10
0.0
 20
0.0
 30
0.0
  3
*D221
  1

  0
LINE
  5
9F6C
330
99DA
100
AcDbEntity
  8
寸法引出
 48
15.0
370
    -2
100
AcDbLine
 10
1329.282590099842
 20
2272.603964298285
 30
0.0
 11
1329.282590099842
 21
2406.27680270103
 31
0.0
  0
LINE
  5
9F6D
330
99DA
100
AcDbEntity
  8
寸法引出
 48
15.0
370
    -2
100
AcDbLine
 10
2069.282590099843
 20
2272.603964298285
 30
0.0
 11
2069.282590099843
 21
2406.27680270103
 31
0.0
  0
LINE
  5
9F6E
330
99DA
100
AcDbEntity
  8
寸法引出
 48
15.0
370
    -2
100
AcDbLine
 10
1351.782590099842
 20
2398.77680270103
 30
0.0
 11
2046.782590099843
 21
2398.77680270103
 31
0.0
  0
SOLID
  5
9F6F
330
99DA
100
AcDbEntity
  8
寸法引出
 48
15.0
100
AcDbTrace
 10
1351.782590099842
 20
2402.52680270103
 30
0.0
 11
1351.782590099842
 21
2395.02680270103
 31
0.0
 12
1329.282590099842
 22
2398.77680270103
 32
0.0
 13
1329.282590099842
 23
2398.77680270103
 33
0.0
  0
SOLID
  5
9F70
330
99DA
100
AcDbEntity
  8
寸法引出
 48
15.0
100
AcDbTrace
 10
2046.782590099843
 20
2402.52680270103
 30
0.0
 11
2046.782590099843
 21
2395.02680270103
 31
0.0
 12
2069.282590099843
 22
2398.77680270103
 32
0.0
 13
2069.282590099843
 23
2398.77680270103
 33
0.0
  0
MTEXT
  5
9F71
330
99DA
100
AcDbEntity
  8
寸法引出
 48
15.0
100
AcDbMText
 10
1699.282590099842
 20
2428.77680270103
 30
0.0
 40
30.0
 41
0.0
 71
     5
 72
     1
  1
\A1;740
  7
SANWA
 73
     1
 44
1.0
1001
ACAD
1000
MTEXTBEGIN
1070
    73
1070
     1
1070
    44
1040
1.0
1070
    74
1070
     0
1000
MTEXTEND
  0
POINT
  5
9F72
330
99DA
100
AcDbEntity
  8
DEFPOINTS
 62
     0
 48
15.0
100
AcDbPoint
 10
1329.282590099842
 20
2257.603964298285
 30
0.0
  0
POINT
  5
9F73
330
99DA
100
AcDbEntity
  8
DEFPOINTS
 62
     0
 48
15.0
100
AcDbPoint
 10
2069.282590099843
 20
2257.603964298285
 30
0.0
  0
POINT
  5
9F74
330
99DA
100
AcDbEntity
  8
DEFPOINTS
 62
     0
 48
15.0
100
AcDbPoint
 10
2069.282590099843
 20
2398.77680270103
 30
0.0
  0
ENDBLK
  5
99E5
330
99DA
100
AcDbEntity
  8
0
 48
15.0
100
AcDbBlockEnd
  0
BLOCK
  5
99EF
330
99E6
100
AcDbEntity
  8
0
 48
15.0
100
AcDbBlockBegin
  2
*D222
 70
     1
 10
0.0
 20
0.0
 30
0.0
  3
*D222
  1

  0
LINE
  5
9F75
330
99E6
100
AcDbEntity
  8
寸法引出
 48
15.0
370
    -2
100
AcDbLine
 10
2069.282590099843
 20
2272.603964298285
 30
0.0
 11
2069.282590099843
 21
2347.511950650373
 31
0.0
  0
LINE
  5
9F76
330
99E6
100
AcDbEntity
  8
寸法引出
 48
15.0
370
    -2
100
AcDbLine
 10
1754.282590099842
 20
2340.011950650374
 30
0.0
 11
2046.782590099843
 21
2340.011950650374
 31
0.0
  0
SOLID
  5
9F77
330
99E6
100
AcDbEntity
  8
寸法引出
 48
15.0
100
AcDbTrace
 10
1754.282590099842
 20
2343.761950650373
 30
0.0
 11
1754.282590099842
 21
2336.261950650373
 31
0.0
 12
1731.782590099842
 22
2340.011950650374
 32
0.0
 13
1731.782590099842
 23
2340.011950650374
 33
0.0
  0
SOLID
  5
9F78
330
99E6
100
AcDbEntity
  8
寸法引出
 48
15.0
100
AcDbTrace
 10
2046.782590099843
 20
2343.761950650373
 30
0.0
 11
2046.782590099843
 21
2336.261950650373
 31
0.0
 12
2069.282590099843
 22
2340.011950650374
 32
0.0
 13
2069.282590099843
 23
2340.011950650374
 33
0.0
  0
MTEXT
  5
9F79
330
99E6
100
AcDbEntity
  8
寸法引出
 48
15.0
100
AcDbMText
 10
1900.532590099842
 20
2370.011950650374
 30
0.0
 40
30.0
 41
0.0
 71
     5
 72
     1
  1
\A1;337.5
  7
SANWA
 73
     1
 44
1.0
1001
ACAD
1000
MTEXTBEGIN
1070
    73
1070
     1
1070
    44
1040
1.0
1070
    74
1070
     0
1000
MTEXTEND
  0
POINT
  5
9F7A
330
99E6
100
AcDbEntity
  8
DEFPOINTS
 62
     0
 48
15.0
100
AcDbPoint
 10
1731.782590099842
 20
2257.603964298285
 30
0.0
  0
POINT
  5
9F7B
330
99E6
100
AcDbEntity
  8
DEFPOINTS
 62
     0
 48
15.0
100
AcDbPoint
 10
2069.282590099843
 20
2257.603964298285
 30
0.0
  0
POINT
  5
9F7C
330
99E6
100
AcDbEntity
  8
DEFPOINTS
 62
     0
 48
15.0
100
AcDbPoint
 10
2069.282590099843
 20
2340.011950650374
 30
0.0
  0
ENDBLK
  5
99F0
330
99E6
100
AcDbEntity
  8
0
 48
15.0
100
AcDbBlockEnd
  0
BLOCK
  5
99FB
330
99F1
100
AcDbEntity
  8
0
 48
15.0
100
AcDbBlockBegin
  2
*D223
 70
     1
 10
0.0
 20
0.0
 30
0.0
  3
*D223
  1

  0
LINE
  5
9F7D
330
99F1
100
AcDbEntity
  8
寸法引出
 48
15.0
370
    -2
100
AcDbLine
 10
1747.282590099842
 20
2122.603964298285
 30
0.0
 11
1747.282590099842
 21
1976.131318854553
 31
0.0
  0
LINE
  5
9F7E
330
99F1
100
AcDbEntity
  8
寸法引出
 48
15.0
370
    -2
100
AcDbLine
 10
2069.282590099843
 20
2122.603964298285
 30
0.0
 11
2069.282590099843
 21
1976.131318854553
 31
0.0
  0
LINE
  5
9F7F
330
99F1
100
AcDbEntity
  8
寸法引出
 48
15.0
370
    -2
100
AcDbLine
 10
1769.782590099842
 20
1983.631318854553
 30
0.0
 11
2046.782590099843
 21
1983.631318854553
 31
0.0
  0
SOLID
  5
9F80
330
99F1
100
AcDbEntity
  8
寸法引出
 48
15.0
100
AcDbTrace
 10
1769.782590099842
 20
1987.381318854553
 30
0.0
 11
1769.782590099842
 21
1979.881318854553
 31
0.0
 12
1747.282590099842
 22
1983.631318854553
 32
0.0
 13
1747.282590099842
 23
1983.631318854553
 33
0.0
  0
SOLID
  5
9F81
330
99F1
100
AcDbEntity
  8
寸法引出
 48
15.0
100
AcDbTrace
 10
2046.782590099843
 20
1987.381318854553
 30
0.0
 11
2046.782590099843
 21
1979.881318854553
 31
0.0
 12
2069.282590099843
 22
1983.631318854553
 32
0.0
 13
2069.282590099843
 23
1983.631318854553
 33
0.0
  0
MTEXT
  5
9F82
330
99F1
100
AcDbEntity
  8
寸法引出
 48
15.0
100
AcDbMText
 10
1908.282590099842
 20
2013.631318854553
 30
0.0
 40
30.0
 41
0.0
 71
     5
 72
     1
  1
\A1;322
  7
SANWA
 73
     1
 44
1.0
1001
ACAD
1000
MTEXTBEGIN
1070
    73
1070
     1
1070
    44
1040
1.0
1070
    74
1070
     0
1000
MTEXTEND
  0
POINT
  5
9F83
330
99F1
100
AcDbEntity
  8
DEFPOINTS
 62
     0
 48
15.0
100
AcDbPoint
 10
1747.282590099842
 20
2137.603964298285
 30
0.0
  0
POINT
  5
9F84
330
99F1
100
AcDbEntity
  8
DEFPOINTS
 62
     0
 48
15.0
100
AcDbPoint
 10
2069.282590099843
 20
2137.603964298285
 30
0.0
  0
POINT
  5
9F85
330
99F1
100
AcDbEntity
  8
DEFPOINTS
 62
     0
 48
15.0
100
AcDbPoint
 10
2069.282590099843
 20
1983.631318854553
 30
0.0
  0
ENDBLK
  5
99FC
330
99F1
100
AcDbEntity
  8
0
 48
15.0
100
AcDbBlockEnd
  0
BLOCK
  5
9A06
330
99FD
100
AcDbEntity
  8
0
 48
15.0
100
AcDbBlockBegin
  2
*D224
 70
     1
 10
0.0
 20
0.0
 30
0.0
  3
*D224
  1

  0
LINE
  5
9F86
330
99FD
100
AcDbEntity
  8
寸法引出
 48
15.0
370
    -2
100
AcDbLine
 10
2069.282590099843
 20
1570.776461578135
 30
0.0
 11
2069.282590099843
 21
1670.935510376952
 31
0.0
  0
LINE
  5
9F87
330
99FD
100
AcDbEntity
  8
寸法引出
 48
15.0
370
    -2
100
AcDbLine
 10
1754.282590099842
 20
1663.435510376952
 30
0.0
 11
2046.782590099843
 21
1663.435510376952
 31
0.0
  0
SOLID
  5
9F88
330
99FD
100
AcDbEntity
  8
寸法引出
 48
15.0
100
AcDbTrace
 10
1754.282590099842
 20
1667.185510376952
 30
0.0
 11
1754.282590099842
 21
1659.685510376952
 31
0.0
 12
1731.782590099842
 22
1663.435510376952
 32
0.0
 13
1731.782590099842
 23
1663.435510376952
 33
0.0
  0
SOLID
  5
9F89
330
99FD
100
AcDbEntity
  8
寸法引出
 48
15.0
100
AcDbTrace
 10
2046.782590099843
 20
1667.185510376952
 30
0.0
 11
2046.782590099843
 21
1659.685510376952
 31
0.0
 12
2069.282590099843
 22
1663.435510376952
 32
0.0
 13
2069.282590099843
 23
1663.435510376952
 33
0.0
  0
MTEXT
  5
9F8A
330
99FD
100
AcDbEntity
  8
寸法引出
 48
15.0
100
AcDbMText
 10
1900.532590099842
 20
1693.435510376952
 30
0.0
 40
30.0
 41
0.0
 71
     5
 72
     1
  1
\A1;337.5
  7
SANWA
 73
     1
 44
1.0
1001
ACAD
1000
MTEXTBEGIN
1070
    73
1070
     1
1070
    44
1040
1.0
1070
    74
1070
     0
1000
MTEXTEND
  0
POINT
  5
9F8B
330
99FD
100
AcDbEntity
  8
DEFPOINTS
 62
     0
 48
15.0
100
AcDbPoint
 10
1731.782590099842
 20
1555.776461578135
 30
0.0
  0
POINT
  5
9F8C
330
99FD
100
AcDbEntity
  8
DEFPOINTS
 62
     0
 48
15.0
100
AcDbPoint
 10
2069.282590099843
 20
1555.776461578135
 30
0.0
  0
POINT
  5
9F8D
330
99FD
100
AcDbEntity
  8
DEFPOINTS
 62
     0
 48
15.0
100
AcDbPoint
 10
2069.282590099843
 20
1663.435510376952
 30
0.0
  0
ENDBLK
  5
9A07
330
99FD
100
AcDbEntity
  8
0
 48
15.0
100
AcDbBlockEnd
  0
BLOCK
  5
9A12
330
9A08
100
AcDbEntity
  8
0
 48
15.0
100
AcDbBlockBegin
  2
*D225
 70
     1
 10
0.0
 20
0.0
 30
0.0
  3
*D225
  1

  0
LINE
  5
9F8E
330
9A08
100
AcDbEntity
  8
寸法引出
 48
15.0
370
    -2
100
AcDbLine
 10
1329.282590099842
 20
1570.776461578135
 30
0.0
 11
1329.282590099842
 21
1670.935510376952
 31
0.0
  0
LINE
  5
9F8F
330
9A08
100
AcDbEntity
  8
寸法引出
 48
15.0
370
    -2
100
AcDbLine
 10
1666.782590099842
 20
1570.776461578135
 30
0.0
 11
1666.782590099842
 21
1670.935510376952
 31
0.0
  0
LINE
  5
9F90
330
9A08
100
AcDbEntity
  8
寸法引出
 48
15.0
370
    -2
100
AcDbLine
 10
1351.782590099842
 20
1663.435510376952
 30
0.0
 11
1644.282590099842
 21
1663.435510376952
 31
0.0
  0
SOLID
  5
9F91
330
9A08
100
AcDbEntity
  8
寸法引出
 48
15.0
100
AcDbTrace
 10
1351.782590099842
 20
1667.185510376952
 30
0.0
 11
1351.782590099842
 21
1659.685510376952
 31
0.0
 12
1329.282590099842
 22
1663.435510376952
 32
0.0
 13
1329.282590099842
 23
1663.435510376952
 33
0.0
  0
SOLID
  5
9F92
330
9A08
100
AcDbEntity
  8
寸法引出
 48
15.0
100
AcDbTrace
 10
1644.282590099842
 20
1667.185510376952
 30
0.0
 11
1644.282590099842
 21
1659.685510376952
 31
0.0
 12
1666.782590099842
 22
1663.435510376952
 32
0.0
 13
1666.782590099842
 23
1663.435510376952
 33
0.0
  0
MTEXT
  5
9F93
330
9A08
100
AcDbEntity
  8
寸法引出
 48
15.0
100
AcDbMText
 10
1498.032590099842
 20
1693.435510376952
 30
0.0
 40
30.0
 41
0.0
 71
     5
 72
     1
  1
\A1;337.5
  7
SANWA
 73
     1
 44
1.0
1001
ACAD
1000
MTEXTBEGIN
1070
    73
1070
     1
1070
    44
1040
1.0
1070
    74
1070
     0
1000
MTEXTEND
  0
POINT
  5
9F94
330
9A08
100
AcDbEntity
  8
DEFPOINTS
 62
     0
 48
15.0
100
AcDbPoint
 10
1329.282590099842
 20
1555.776461578135
 30
0.0
  0
POINT
  5
9F95
330
9A08
100
AcDbEntity
  8
DEFPOINTS
 62
     0
 48
15.0
100
AcDbPoint
 10
1666.782590099842
 20
1555.776461578135
 30
0.0
  0
POINT
  5
9F96
330
9A08
100
AcDbEntity
  8
DEFPOINTS
 62
     0
 48
15.0
100
AcDbPoint
 10
1666.782590099842
 20
1663.435510376952
 30
0.0
  0
ENDBLK
  5
9A13
330
9A08
100
AcDbEntity
  8
0
 48
15.0
100
AcDbBlockEnd
  0
BLOCK
  5
9A1E
330
9A14
100
AcDbEntity
  8
0
 48
15.0
100
AcDbBlockBegin
  2
*D226
 70
     1
 10
0.0
 20
0.0
 30
0.0
  3
*D226
  1

  0
LINE
  5
9F97
330
9A14
100
AcDbEntity
  8
寸法引出
 48
15.0
370
    -2
100
AcDbLine
 10
1314.282590099842
 20
1555.776461578135
 30
0.0
 11
1157.673392900417
 21
1555.776461578135
 31
0.0
  0
LINE
  5
9F98
330
9A14
100
AcDbEntity
  8
寸法引出
 48
15.0
370
    -2
100
AcDbLine
 10
1314.282590099842
 20
1435.776461578135
 30
0.0
 11
1157.673392900417
 21
1435.776461578135
 31
0.0
  0
LINE
  5
9F99
330
9A14
100
AcDbEntity
  8
寸法引出
 48
15.0
370
    -2
100
AcDbLine
 10
1165.173392900417
 20
1533.276461578135
 30
0.0
 11
1165.173392900417
 21
1458.276461578135
 31
0.0
  0
SOLID
  5
9F9A
330
9A14
100
AcDbEntity
  8
寸法引出
 48
15.0
100
AcDbTrace
 10
1161.423392900417
 20
1533.276461578135
 30
0.0
 11
1168.923392900417
 21
1533.276461578135
 31
0.0
 12
1165.173392900417
 22
1555.776461578135
 32
0.0
 13
1165.173392900417
 23
1555.776461578135
 33
0.0
  0
SOLID
  5
9F9B
330
9A14
100
AcDbEntity
  8
寸法引出
 48
15.0
100
AcDbTrace
 10
1161.423392900417
 20
1458.276461578135
 30
0.0
 11
1168.923392900417
 21
1458.276461578135
 31
0.0
 12
1165.173392900417
 22
1435.776461578135
 32
0.0
 13
1165.173392900417
 23
1435.776461578135
 33
0.0
  0
MTEXT
  5
9F9C
330
9A14
100
AcDbEntity
  8
寸法引出
 48
15.0
100
AcDbMText
 10
1135.173392900416
 20
1495.776461578135
 30
0.0
 40
30.0
 41
0.0
 71
     5
 72
     1
  1
\A1;120
  7
SANWA
 11
0.0000000000000001
 21
1.0
 31
0.0
 73
     1
 44
1.0
1001
ACAD
1000
MTEXTBEGIN
1070
    73
1070
     1
1070
    44
1040
1.0
1070
    74
1070
     0
1000
MTEXTEND
  0
POINT
  5
9F9D
330
9A14
100
AcDbEntity
  8
DEFPOINTS
 62
     0
 48
15.0
100
AcDbPoint
 10
1329.282590099842
 20
1555.776461578135
 30
0.0
  0
POINT
  5
9F9E
330
9A14
100
AcDbEntity
  8
DEFPOINTS
 62
     0
 48
15.0
100
AcDbPoint
 10
1329.282590099842
 20
1435.776461578135
 30
0.0
  0
POINT
  5
9F9F
330
9A14
100
AcDbEntity
  8
DEFPOINTS
 62
     0
 48
15.0
100
AcDbPoint
 10
1165.173392900417
 20
1435.776461578135
 30
0.0
  0
ENDBLK
  5
9A1F
330
9A14
100
AcDbEntity
  8
0
 48
15.0
100
AcDbBlockEnd
  0
BLOCK
  5
9A2B
330
9A20
100
AcDbEntity
  8
0
 48
15.0
100
AcDbBlockBegin
  2
*D227
 70
     1
 10
0.0
 20
0.0
 30
0.0
  3
*D227
  1

  0
LINE
  5
9FA0
330
9A20
100
AcDbEntity
  8
寸法引出
 48
15.0
370
    -2
100
AcDbLine
 10
1731.782590099842
 20
1570.776461578135
 30
0.0
 11
1731.782590099842
 21
1670.935510376952
 31
0.0
  0
LINE
  5
9FA1
330
9A20
100
AcDbEntity
  8
寸法引出
 48
15.0
370
    -2
100
AcDbLine
 10
1644.282590099842
 20
1663.435510376952
 30
0.0
 11
1621.782590099842
 21
1663.435510376952
 31
0.0
  0
LINE
  5
9FA2
330
9A20
100
AcDbEntity
  8
寸法引出
 48
15.0
370
    -2
100
AcDbLine
 10
1754.282590099842
 20
1663.435510376952
 30
0.0
 11
1776.782590099842
 21
1663.435510376952
 31
0.0
  0
LINE
  5
9FA3
330
9A20
100
AcDbEntity
  8
寸法引出
 48
15.0
370
    -2
100
AcDbLine
 10
1666.782590099842
 20
1663.435510376952
 30
0.0
 11
1731.782590099842
 21
1663.435510376952
 31
0.0
  0
SOLID
  5
9FA4
330
9A20
100
AcDbEntity
  8
寸法引出
 48
15.0
100
AcDbTrace
 10
1644.282590099842
 20
1667.185510376952
 30
0.0
 11
1644.282590099842
 21
1659.685510376952
 31
0.0
 12
1666.782590099842
 22
1663.435510376952
 32
0.0
 13
1666.782590099842
 23
1663.435510376952
 33
0.0
  0
SOLID
  5
9FA5
330
9A20
100
AcDbEntity
  8
寸法引出
 48
15.0
100
AcDbTrace
 10
1754.282590099842
 20
1667.185510376952
 30
0.0
 11
1754.282590099842
 21
1659.685510376952
 31
0.0
 12
1731.782590099842
 22
1663.435510376952
 32
0.0
 13
1731.782590099842
 23
1663.435510376952
 33
0.0
  0
MTEXT
  5
9FA6
330
9A20
100
AcDbEntity
  8
寸法引出
 48
15.0
100
AcDbMText
 10
1699.282590099842
 20
1693.435510376952
 30
0.0
 40
30.0
 41
0.0
 71
     5
 72
     1
  1
\A1;65
  7
SANWA
 73
     1
 44
1.0
1001
ACAD
1000
MTEXTBEGIN
1070
    73
1070
     1
1070
    44
1040
1.0
1070
    74
1070
     0
1000
MTEXTEND
  0
POINT
  5
9FA7
330
9A20
100
AcDbEntity
  8
DEFPOINTS
 62
     0
 48
15.0
100
AcDbPoint
 10
1666.782590099842
 20
1555.776461578135
 30
0.0
  0
POINT
  5
9FA8
330
9A20
100
AcDbEntity
  8
DEFPOINTS
 62
     0
 48
15.0
100
AcDbPoint
 10
1731.782590099842
 20
1555.776461578135
 30
0.0
  0
POINT
  5
9FA9
330
9A20
100
AcDbEntity
  8
DEFPOINTS
 62
     0
 48
15.0
100
AcDbPoint
 10
1731.782590099842
 20
1663.435510376952
 30
0.0
  0
ENDBLK
  5
9A2C
330
9A20
100
AcDbEntity
  8
0
 48
15.0
100
AcDbBlockEnd
  0
BLOCK
  5
9A37
330
9A2D
100
AcDbEntity
  8
0
 48
15.0
100
AcDbBlockBegin
  2
*D228
 70
     1
 10
0.0
 20
0.0
 30
0.0
  3
*D228
  1

  0
LINE
  5
9FAA
330
9A2D
100
AcDbEntity
  8
寸法引出
 48
15.0
370
    -2
100
AcDbLine
 10
1329.282590099842
 20
2122.603964298285
 30
0.0
 11
1329.282590099842
 21
1976.131318854553
 31
0.0
  0
LINE
  5
9FAB
330
9A2D
100
AcDbEntity
  8
寸法引出
 48
15.0
370
    -2
100
AcDbLine
 10
1651.282590099842
 20
2122.603964298285
 30
0.0
 11
1651.282590099842
 21
1976.131318854553
 31
0.0
  0
LINE
  5
9FAC
330
9A2D
100
AcDbEntity
  8
寸法引出
 48
15.0
370
    -2
100
AcDbLine
 10
1351.782590099842
 20
1983.631318854553
 30
0.0
 11
1628.782590099842
 21
1983.631318854553
 31
0.0
  0
SOLID
  5
9FAD
330
9A2D
100
AcDbEntity
  8
寸法引出
 48
15.0
100
AcDbTrace
 10
1351.782590099842
 20
1987.381318854553
 30
0.0
 11
1351.782590099842
 21
1979.881318854553
 31
0.0
 12
1329.282590099842
 22
1983.631318854553
 32
0.0
 13
1329.282590099842
 23
1983.631318854553
 33
0.0
  0
SOLID
  5
9FAE
330
9A2D
100
AcDbEntity
  8
寸法引出
 48
15.0
100
AcDbTrace
 10
1628.782590099842
 20
1987.381318854553
 30
0.0
 11
1628.782590099842
 21
1979.881318854553
 31
0.0
 12
1651.282590099842
 22
1983.631318854553
 32
0.0
 13
1651.282590099842
 23
1983.631318854553
 33
0.0
  0
MTEXT
  5
9FAF
330
9A2D
100
AcDbEntity
  8
寸法引出
 48
15.0
100
AcDbMText
 10
1490.282590099842
 20
2013.631318854553
 30
0.0
 40
30.0
 41
0.0
 71
     5
 72
     1
  1
\A1;322
  7
SANWA
 73
     1
 44
1.0
1001
ACAD
1000
MTEXTBEGIN
1070
    73
1070
     1
1070
    44
1040
1.0
1070
    74
1070
     0
1000
MTEXTEND
  0
POINT
  5
9FB0
330
9A2D
100
AcDbEntity
  8
DEFPOINTS
 62
     0
 48
15.0
100
AcDbPoint
 10
1329.282590099842
 20
2137.603964298285
 30
0.0
  0
POINT
  5
9FB1
330
9A2D
100
AcDbEntity
  8
DEFPOINTS
 62
     0
 48
15.0
100
AcDbPoint
 10
1651.282590099842
 20
2137.603964298285
 30
0.0
  0
POINT
  5
9FB2
330
9A2D
100
AcDbEntity
  8
DEFPOINTS
 62
     0
 48
15.0
100
AcDbPoint
 10
1651.282590099842
 20
1983.631318854553
 30
0.0
  0
ENDBLK
  5
9A38
330
9A2D
100
AcDbEntity
  8
0
 48
15.0
100
AcDbBlockEnd
  0
BLOCK
  5
9A43
330
9A39
100
AcDbEntity
  8
0
 48
15.0
100
AcDbBlockBegin
  2
*D229
 70
     1
 10
0.0
 20
0.0
 30
0.0
  3
*D229
  1

  0
LINE
  5
9FB3
330
9A39
100
AcDbEntity
  8
寸法引出
 48
15.0
370
    -2
100
AcDbLine
 10
1651.282590099842
 20
2122.603964298285
 30
0.0
 11
1651.282590099842
 21
1976.131318854553
 31
0.0
  0
LINE
  5
9FB4
330
9A39
100
AcDbEntity
  8
寸法引出
 48
15.0
370
    -2
100
AcDbLine
 10
1747.282590099842
 20
2122.603964298285
 30
0.0
 11
1747.282590099842
 21
1976.131318854553
 31
0.0
  0
LINE
  5
9FB5
330
9A39
100
AcDbEntity
  8
寸法引出
 48
15.0
370
    -2
100
AcDbLine
 10
1673.782590099842
 20
1983.631318854553
 30
0.0
 11
1724.782590099842
 21
1983.631318854553
 31
0.0
  0
SOLID
  5
9FB6
330
9A39
100
AcDbEntity
  8
寸法引出
 48
15.0
100
AcDbTrace
 10
1673.782590099842
 20
1987.381318854553
 30
0.0
 11
1673.782590099842
 21
1979.881318854553
 31
0.0
 12
1651.282590099842
 22
1983.631318854553
 32
0.0
 13
1651.282590099842
 23
1983.631318854553
 33
0.0
  0
SOLID
  5
9FB7
330
9A39
100
AcDbEntity
  8
寸法引出
 48
15.0
100
AcDbTrace
 10
1724.782590099842
 20
1987.381318854553
 30
0.0
 11
1724.782590099842
 21
1979.881318854553
 31
0.0
 12
1747.282590099842
 22
1983.631318854553
 32
0.0
 13
1747.282590099842
 23
1983.631318854553
 33
0.0
  0
MTEXT
  5
9FB8
330
9A39
100
AcDbEntity
  8
寸法引出
 48
15.0
100
AcDbMText
 10
1699.282590099842
 20
2013.631318854553
 30
0.0
 40
30.0
 41
0.0
 71
     5
 72
     1
  1
\A1;96
  7
SANWA
 73
     1
 44
1.0
1001
ACAD
1000
MTEXTBEGIN
1070
    73
1070
     1
1070
    44
1040
1.0
1070
    74
1070
     0
1000
MTEXTEND
  0
POINT
  5
9FB9
330
9A39
100
AcDbEntity
  8
DEFPOINTS
 62
     0
 48
15.0
100
AcDbPoint
 10
1651.282590099842
 20
2137.603964298285
 30
0.0
  0
POINT
  5
9FBA
330
9A39
100
AcDbEntity
  8
DEFPOINTS
 62
     0
 48
15.0
100
AcDbPoint
 10
1747.282590099842
 20
2137.603964298285
 30
0.0
  0
POINT
  5
9FBB
330
9A39
100
AcDbEntity
  8
DEFPOINTS
 62
     0
 48
15.0
100
AcDbPoint
 10
1747.282590099842
 20
1983.631318854553
 30
0.0
  0
ENDBLK
  5
9A44
330
9A39
100
AcDbEntity
  8
0
 48
15.0
100
AcDbBlockEnd
  0
BLOCK
  5
9A51
330
9A45
100
AcDbEntity
  8
0
 48
15.0
100
AcDbBlockBegin
  2
*D230
 70
     1
 10
0.0
 20
0.0
 30
0.0
  3
*D230
  1

  0
LINE
  5
9FBC
330
9A45
100
AcDbEntity
  8
寸法引出
 48
15.0
370
    -2
100
AcDbLine
 10
1651.782590099842
 20
2219.603964298284
 30
0.0
 11
1619.831590149837
 21
2219.603964298284
 31
0.0
  0
LINE
  5
9FBD
330
9A45
100
AcDbEntity
  8
寸法引出
 48
15.0
370
    -2
100
AcDbLine
 10
1641.282590099842
 20
2217.303964298285
 30
0.0
 11
1619.831590149837
 21
2217.303964298285
 31
0.0
  0
LINE
  5
9FBE
330
9A45
100
AcDbEntity
  8
寸法引出
 48
15.0
370
    -2
100
AcDbLine
 10
1627.331590149837
 20
2242.103964298284
 30
0.0
 11
1627.331590149837
 21
2264.603964298284
 31
0.0
  0
LINE
  5
9FBF
330
9A45
100
AcDbEntity
  8
寸法引出
 48
15.0
370
    -2
100
AcDbLine
 10
1627.331590149837
 20
2194.803964298285
 30
0.0
 11
1627.331590149837
 21
2172.303964298285
 31
0.0
  0
LINE
  5
9FC0
330
9A45
100
AcDbEntity
  8
寸法引出
 48
15.0
370
    -2
100
AcDbLine
 10
1627.331590149837
 20
2219.603964298284
 30
0.0
 11
1627.331590149837
 21
2217.303964298285
 31
0.0
  0
SOLID
  5
9FC1
330
9A45
100
AcDbEntity
  8
寸法引出
 48
15.0
100
AcDbTrace
 10
1623.581590149837
 20
2242.103964298284
 30
0.0
 11
1631.081590149837
 21
2242.103964298284
 31
0.0
 12
1627.331590149837
 22
2219.603964298284
 32
0.0
 13
1627.331590149837
 23
2219.603964298284
 33
0.0
  0
SOLID
  5
9FC2
330
9A45
100
AcDbEntity
  8
寸法引出
 48
15.0
100
AcDbTrace
 10
1623.581590149837
 20
2194.803964298285
 30
0.0
 11
1631.081590149837
 21
2194.803964298285
 31
0.0
 12
1627.331590149837
 22
2217.303964298285
 32
0.0
 13
1627.331590149837
 23
2217.303964298285
 33
0.0
  0
MTEXT
  5
9FC3
330
9A45
100
AcDbEntity
  8
寸法引出
 48
15.0
100
AcDbMText
 10
1597.331590149837
 20
2218.453964298285
 30
0.0
 40
30.0
 41
0.0
 71
     5
 72
     1
  1
\A1;2.3
  7
SANWA
 11
0.0000000000000001
 21
1.0
 31
0.0
 73
     1
 44
1.0
1001
ACAD
1000
MTEXTBEGIN
1070
    73
1070
     1
1070
    44
1040
1.0
1070
    74
1070
     0
1000
MTEXTEND
  0
POINT
  5
9FC4
330
9A45
100
AcDbEntity
  8
DEFPOINTS
 62
     0
 48
15.0
100
AcDbPoint
 10
1666.782590099842
 20
2219.603964298284
 30
0.0
  0
POINT
  5
9FC5
330
9A45
100
AcDbEntity
  8
DEFPOINTS
 62
     0
 48
15.0
100
AcDbPoint
 10
1656.282590099842
 20
2217.303964298285
 30
0.0
  0
POINT
  5
9FC6
330
9A45
100
AcDbEntity
  8
DEFPOINTS
 62
     0
 48
15.0
100
AcDbPoint
 10
1627.331590149837
 20
2217.303964298285
 30
0.0
  0
ENDBLK
  5
9A52
330
9A45
100
AcDbEntity
  8
0
 48
15.0
100
AcDbBlockEnd
  0
BLOCK
  5
9A5D
330
9A53
100
AcDbEntity
  8
0
 48
15.0
100
AcDbBlockBegin
  2
*D231
 70
     1
 10
0.0
 20
0.0
 30
0.0
  3
*D231
  1

  0
LINE
  5
9FC7
330
9A53
100
AcDbEntity
  8
寸法引出
 48
15.0
370
    -2
100
AcDbLine
 10
1656.282590099842
 20
2131.603964298285
 30
0.0
 11
1656.282590099842
 21
2038.603961025009
 31
0.0
  0
LINE
  5
9FC8
330
9A53
100
AcDbEntity
  8
寸法引出
 48
15.0
370
    -2
100
AcDbLine
 10
1742.282590099842
 20
2131.603964298285
 30
0.0
 11
1742.282590099842
 21
2038.603961025009
 31
0.0
  0
LINE
  5
9FC9
330
9A53
100
AcDbEntity
  8
寸法引出
 48
15.0
370
    -2
100
AcDbLine
 10
1678.782590099842
 20
2046.103961025009
 30
0.0
 11
1719.782590099842
 21
2046.103961025009
 31
0.0
  0
SOLID
  5
9FCA
330
9A53
100
AcDbEntity
  8
寸法引出
 48
15.0
100
AcDbTrace
 10
1678.782590099842
 20
2049.853961025009
 30
0.0
 11
1678.782590099842
 21
2042.353961025009
 31
0.0
 12
1656.282590099842
 22
2046.103961025009
 32
0.0
 13
1656.282590099842
 23
2046.103961025009
 33
0.0
  0
SOLID
  5
9FCB
330
9A53
100
AcDbEntity
  8
寸法引出
 48
15.0
100
AcDbTrace
 10
1719.782590099842
 20
2049.853961025009
 30
0.0
 11
1719.782590099842
 21
2042.353961025009
 31
0.0
 12
1742.282590099842
 22
2046.103961025009
 32
0.0
 13
1742.282590099842
 23
2046.103961025009
 33
0.0
  0
MTEXT
  5
9FCC
330
9A53
100
AcDbEntity
  8
寸法引出
 48
15.0
100
AcDbMText
 10
1699.282590099842
 20
2076.103961025009
 30
0.0
 40
30.0
 41
0.0
 71
     5
 72
     1
  1
\A1;86
  7
SANWA
 73
     1
 44
1.0
1001
ACAD
1000
MTEXTBEGIN
1070
    73
1070
     1
1070
    44
1040
1.0
1070
    74
1070
     0
1000
MTEXTEND
  0
POINT
  5
9FCD
330
9A53
100
AcDbEntity
  8
DEFPOINTS
 62
     0
 48
15.0
100
AcDbPoint
 10
1656.282590099842
 20
2146.603964298285
 30
0.0
  0
POINT
  5
9FCE
330
9A53
100
AcDbEntity
  8
DEFPOINTS
 62
     0
 48
15.0
100
AcDbPoint
 10
1742.282590099842
 20
2146.603964298285
 30
0.0
  0
POINT
  5
9FCF
330
9A53
100
AcDbEntity
  8
DEFPOINTS
 62
     0
 48
15.0
100
AcDbPoint
 10
1742.282590099842
 20
2046.103961025009
 30
0.0
  0
ENDBLK
  5
9A5E
330
9A53
100
AcDbEntity
  8
0
 48
15.0
100
AcDbBlockEnd
  0
BLOCK
  5
9A69
330
9A5F
100
AcDbEntity
  8
0
 48
15.0
100
AcDbBlockBegin
  2
*D232
 70
     1
 10
0.0
 20
0.0
 30
0.0
  3
*D232
  1

  0
LINE
  5
9FD0
330
9A5F
100
AcDbEntity
  8
寸法引出
 48
15.0
370
    -2
100
AcDbLine
 10
2084.282590099842
 20
2257.603964298285
 30
0.0
 11
2195.597015320511
 21
2257.603964298285
 31
0.0
  0
LINE
  5
9FD1
330
9A5F
100
AcDbEntity
  8
寸法引出
 48
15.0
370
    -2
100
AcDbLine
 10
2084.282590099842
 20
2137.603964298285
 30
0.0
 11
2195.597015320511
 21
2137.603964298285
 31
0.0
  0
LINE
  5
9FD2
330
9A5F
100
AcDbEntity
  8
寸法引出
 48
15.0
370
    -2
100
AcDbLine
 10
2188.097015320511
 20
2235.103964298285
 30
0.0
 11
2188.097015320511
 21
2160.103964298285
 31
0.0
  0
SOLID
  5
9FD3
330
9A5F
100
AcDbEntity
  8
寸法引出
 48
15.0
100
AcDbTrace
 10
2184.347015320511
 20
2235.103964298285
 30
0.0
 11
2191.847015320511
 21
2235.103964298285
 31
0.0
 12
2188.097015320511
 22
2257.603964298285
 32
0.0
 13
2188.097015320511
 23
2257.603964298285
 33
0.0
  0
SOLID
  5
9FD4
330
9A5F
100
AcDbEntity
  8
寸法引出
 48
15.0
100
AcDbTrace
 10
2184.347015320511
 20
2160.103964298285
 30
0.0
 11
2191.847015320511
 21
2160.103964298285
 31
0.0
 12
2188.097015320511
 22
2137.603964298285
 32
0.0
 13
2188.097015320511
 23
2137.603964298285
 33
0.0
  0
MTEXT
  5
9FD5
330
9A5F
100
AcDbEntity
  8
寸法引出
 48
15.0
100
AcDbMText
 10
2158.09701532051
 20
2197.603964298285
 30
0.0
 40
30.0
 41
0.0
 71
     5
 72
     1
  1
\A1;120
  7
SANWA
 11
0.0000000000000001
 21
1.0
 31
0.0
 73
     1
 44
1.0
1001
ACAD
1000
MTEXTBEGIN
1070
    73
1070
     1
1070
    44
1040
1.0
1070
    74
1070
     0
1000
MTEXTEND
  0
POINT
  5
9FD6
330
9A5F
100
AcDbEntity
  8
DEFPOINTS
 62
     0
 48
15.0
100
AcDbPoint
 10
2069.282590099843
 20
2257.603964298285
 30
0.0
  0
POINT
  5
9FD7
330
9A5F
100
AcDbEntity
  8
DEFPOINTS
 62
     0
 48
15.0
100
AcDbPoint
 10
2069.282590099843
 20
2137.603964298285
 30
0.0
  0
POINT
  5
9FD8
330
9A5F
100
AcDbEntity
  8
DEFPOINTS
 62
     0
 48
15.0
100
AcDbPoint
 10
2188.097015320511
 20
2137.603964298285
 30
0.0
  0
ENDBLK
  5
9A6A
330
9A5F
100
AcDbEntity
  8
0
 48
15.0
100
AcDbBlockEnd
  0
BLOCK
  5
9A74
330
9A6B
100
AcDbEntity
  8
0
 48
15.0
100
AcDbBlockBegin
  2
*D233
 70
     1
 10
0.0
 20
0.0
 30
0.0
  3
*D233
  1

  0
LINE
  5
9FD9
330
9A6B
100
AcDbEntity
  8
寸法引出
 48
15.0
370
    -2
100
AcDbLine
 10
3535.6319440691
 20
2122.603964298285
 30
0.0
 11
3535.6319440691
 21
2035.152296701097
 31
0.0
  0
LINE
  5
9FDA
330
9A6B
100
AcDbEntity
  8
寸法引出
 48
15.0
370
    -2
100
AcDbLine
 10
3438.1319440691
 20
2042.652296701097
 30
0.0
 11
3513.1319440691
 21
2042.652296701097
 31
0.0
  0
SOLID
  5
9FDB
330
9A6B
100
AcDbEntity
  8
寸法引出
 48
15.0
100
AcDbTrace
 10
3438.1319440691
 20
2046.402296701097
 30
0.0
 11
3438.1319440691
 21
2038.902296701097
 31
0.0
 12
3415.6319440691
 22
2042.652296701097
 32
0.0
 13
3415.6319440691
 23
2042.652296701097
 33
0.0
  0
SOLID
  5
9FDC
330
9A6B
100
AcDbEntity
  8
寸法引出
 48
15.0
100
AcDbTrace
 10
3513.1319440691
 20
2046.402296701097
 30
0.0
 11
3513.1319440691
 21
2038.902296701097
 31
0.0
 12
3535.6319440691
 22
2042.652296701097
 32
0.0
 13
3535.6319440691
 23
2042.652296701097
 33
0.0
  0
MTEXT
  5
9FDD
330
9A6B
100
AcDbEntity
  8
寸法引出
 48
15.0
100
AcDbMText
 10
3475.6319440691
 20
2072.652296701097
 30
0.0
 40
30.0
 41
0.0
 71
     5
 72
     1
  1
\A1;120
  7
SANWA
 73
     1
 44
1.0
1001
ACAD
1000
MTEXTBEGIN
1070
    73
1070
     1
1070
    44
1040
1.0
1070
    74
1070
     0
1000
MTEXTEND
  0
POINT
  5
9FDE
330
9A6B
100
AcDbEntity
  8
DEFPOINTS
 62
     0
 48
15.0
100
AcDbPoint
 10
3415.6319440691
 20
2137.603964298285
 30
0.0
  0
POINT
  5
9FDF
330
9A6B
100
AcDbEntity
  8
DEFPOINTS
 62
     0
 48
15.0
100
AcDbPoint
 10
3535.6319440691
 20
2137.603964298285
 30
0.0
  0
POINT
  5
9FE0
330
9A6B
100
AcDbEntity
  8
DEFPOINTS
 62
     0
 48
15.0
100
AcDbPoint
 10
3535.6319440691
 20
2042.652296701097
 30
0.0
  0
ENDBLK
  5
9A75
330
9A6B
100
AcDbEntity
  8
0
 48
15.0
100
AcDbBlockEnd
  0
BLOCK
  5
9A7F
330
9A76
100
AcDbEntity
  8
0
 48
15.0
100
AcDbBlockBegin
  2
*D234
 70
     1
 10
0.0
 20
0.0
 30
0.0
  3
*D234
  1

  0
LINE
  5
9FE1
330
9A76
100
AcDbEntity
  8
寸法引出
 48
15.0
370
    -2
100
AcDbLine
 10
3415.6319440691
 20
2122.603964298285
 30
0.0
 11
3415.6319440691
 21
2035.152296701097
 31
0.0
  0
LINE
  5
9FE2
330
9A76
100
AcDbEntity
  8
寸法引出
 48
15.0
370
    -2
100
AcDbLine
 10
2678.1319440691
 20
2042.652296701097
 30
0.0
 11
3393.1319440691
 21
2042.652296701097
 31
0.0
  0
SOLID
  5
9FE3
330
9A76
100
AcDbEntity
  8
寸法引出
 48
15.0
100
AcDbTrace
 10
2678.1319440691
 20
2046.402296701097
 30
0.0
 11
2678.1319440691
 21
2038.902296701097
 31
0.0
 12
2655.6319440691
 22
2042.652296701097
 32
0.0
 13
2655.6319440691
 23
2042.652296701097
 33
0.0
  0
SOLID
  5
9FE4
330
9A76
100
AcDbEntity
  8
寸法引出
 48
15.0
100
AcDbTrace
 10
3393.1319440691
 20
2046.402296701097
 30
0.0
 11
3393.1319440691
 21
2038.902296701097
 31
0.0
 12
3415.6319440691
 22
2042.652296701097
 32
0.0
 13
3415.6319440691
 23
2042.652296701097
 33
0.0
  0
MTEXT
  5
9FE5
330
9A76
100
AcDbEntity
  8
寸法引出
 48
15.0
100
AcDbMText
 10
3035.6319440691
 20
2072.652296701097
 30
0.0
 40
30.0
 41
0.0
 71
     5
 72
     1
  1
\A1;760
  7
SANWA
 73
     1
 44
1.0
1001
ACAD
1000
MTEXTBEGIN
1070
    73
1070
     1
1070
    44
1040
1.0
1070
    74
1070
     0
1000
MTEXTEND
  0
POINT
  5
9FE6
330
9A76
100
AcDbEntity
  8
DEFPOINTS
 62
     0
 48
15.0
100
AcDbPoint
 10
2655.6319440691
 20
2137.603964298285
 30
0.0
  0
POINT
  5
9FE7
330
9A76
100
AcDbEntity
  8
DEFPOINTS
 62
     0
 48
15.0
100
AcDbPoint
 10
3415.6319440691
 20
2137.603964298285
 30
0.0
  0
POINT
  5
9FE8
330
9A76
100
AcDbEntity
  8
DEFPOINTS
 62
     0
 48
15.0
100
AcDbPoint
 10
3415.6319440691
 20
2042.652296701097
 30
0.0
  0
ENDBLK
  5
9A80
330
9A76
100
AcDbEntity
  8
0
 48
15.0
100
AcDbBlockEnd
  0
BLOCK
  5
9A8B
330
9A81
100
AcDbEntity
  8
0
 48
15.0
100
AcDbBlockBegin
  2
*D235
 70
     1
 10
0.0
 20
0.0
 30
0.0
  3
*D235
  1

  0
LINE
  5
9FE9
330
9A81
100
AcDbEntity
  8
寸法引出
 48
15.0
370
    -2
100
AcDbLine
 10
3550.631944069099
 20
2257.603964298285
 30
0.0
 11
3642.528837182113
 21
2257.603964298285
 31
0.0
  0
LINE
  5
9FEA
330
9A81
100
AcDbEntity
  8
寸法引出
 48
15.0
370
    -2
100
AcDbLine
 10
3550.631944069099
 20
2137.603964298285
 30
0.0
 11
3642.528837182113
 21
2137.603964298285
 31
0.0
  0
LINE
  5
9FEB
330
9A81
100
AcDbEntity
  8
寸法引出
 48
15.0
370
    -2
100
AcDbLine
 10
3635.028837182114
 20
2235.103964298285
 30
0.0
 11
3635.028837182114
 21
2160.103964298285
 31
0.0
  0
SOLID
  5
9FEC
330
9A81
100
AcDbEntity
  8
寸法引出
 48
15.0
100
AcDbTrace
 10
3631.278837182114
 20
2235.103964298285
 30
0.0
 11
3638.778837182114
 21
2235.103964298285
 31
0.0
 12
3635.028837182114
 22
2257.603964298285
 32
0.0
 13
3635.028837182114
 23
2257.603964298285
 33
0.0
  0
SOLID
  5
9FED
330
9A81
100
AcDbEntity
  8
寸法引出
 48
15.0
100
AcDbTrace
 10
3631.278837182114
 20
2160.103964298285
 30
0.0
 11
3638.778837182114
 21
2160.103964298285
 31
0.0
 12
3635.028837182114
 22
2137.603964298285
 32
0.0
 13
3635.028837182114
 23
2137.603964298285
 33
0.0
  0
MTEXT
  5
9FEE
330
9A81
100
AcDbEntity
  8
寸法引出
 48
15.0
100
AcDbMText
 10
3605.028837182113
 20
2197.603964298286
 30
0.0
 40
30.0
 41
0.0
 71
     5
 72
     1
  1
\A1;120
  7
SANWA
 11
0.0000000000000001
 21
1.0
 31
0.0
 73
     1
 44
1.0
1001
ACAD
1000
MTEXTBEGIN
1070
    73
1070
     1
1070
    44
1040
1.0
1070
    74
1070
     0
1000
MTEXTEND
  0
POINT
  5
9FEF
330
9A81
100
AcDbEntity
  8
DEFPOINTS
 62
     0
 48
15.0
100
AcDbPoint
 10
3535.6319440691
 20
2257.603964298285
 30
0.0
  0
POINT
  5
9FF0
330
9A81
100
AcDbEntity
  8
DEFPOINTS
 62
     0
 48
15.0
100
AcDbPoint
 10
3535.6319440691
 20
2137.603964298285
 30
0.0
  0
POINT
  5
9FF1
330
9A81
100
AcDbEntity
  8
DEFPOINTS
 62
     0
 48
15.0
100
AcDbPoint
 10
3635.028837182114
 20
2137.603964298285
 30
0.0
  0
ENDBLK
  5
9A8C
330
9A81
100
AcDbEntity
  8
0
 48
15.0
100
AcDbBlockEnd
  0
BLOCK
  5
9A96
330
9A8D
100
AcDbEntity
  8
0
 48
15.0
100
AcDbBlockBegin
  2
*D236
 70
     1
 10
0.0
 20
0.0
 30
0.0
  3
*D236
  1

  0
LINE
  5
9FF2
330
9A8D
100
AcDbEntity
  8
寸法引出
 48
15.0
370
    -2
100
AcDbLine
 10
2069.282590099843
 20
5619.022858903177
 30
0.0
 11
2069.282590099843
 21
5693.930845255266
 31
0.0
  0
LINE
  5
9FF3
330
9A8D
100
AcDbEntity
  8
寸法引出
 48
15.0
370
    -2
100
AcDbLine
 10
1754.282590099842
 20
5686.430845255266
 30
0.0
 11
2046.782590099843
 21
5686.430845255266
 31
0.0
  0
SOLID
  5
9FF4
330
9A8D
100
AcDbEntity
  8
寸法引出
 48
15.0
100
AcDbTrace
 10
1754.282590099842
 20
5690.180845255266
 30
0.0
 11
1754.282590099842
 21
5682.680845255266
 31
0.0
 12
1731.782590099842
 22
5686.430845255266
 32
0.0
 13
1731.782590099842
 23
5686.430845255266
 33
0.0
  0
SOLID
  5
9FF5
330
9A8D
100
AcDbEntity
  8
寸法引出
 48
15.0
100
AcDbTrace
 10
2046.782590099843
 20
5690.180845255266
 30
0.0
 11
2046.782590099843
 21
5682.680845255266
 31
0.0
 12
2069.282590099843
 22
5686.430845255266
 32
0.0
 13
2069.282590099843
 23
5686.430845255266
 33
0.0
  0
MTEXT
  5
9FF6
330
9A8D
100
AcDbEntity
  8
寸法引出
 48
15.0
100
AcDbMText
 10
1900.532590099842
 20
5716.430845255266
 30
0.0
 40
30.0
 41
0.0
 71
     5
 72
     1
  1
\A1;337.5
  7
SANWA
 73
     1
 44
1.0
1001
ACAD
1000
MTEXTBEGIN
1070
    73
1070
     1
1070
    44
1040
1.0
1070
    74
1070
     0
1000
MTEXTEND
  0
POINT
  5
9FF7
330
9A8D
100
AcDbEntity
  8
DEFPOINTS
 62
     0
 48
15.0
100
AcDbPoint
 10
1731.782590099842
 20
5604.022858903177
 30
0.0
  0
POINT
  5
9FF8
330
9A8D
100
AcDbEntity
  8
DEFPOINTS
 62
     0
 48
15.0
100
AcDbPoint
 10
2069.282590099843
 20
5604.022858903177
 30
0.0
  0
POINT
  5
9FF9
330
9A8D
100
AcDbEntity
  8
DEFPOINTS
 62
     0
 48
15.0
100
AcDbPoint
 10
2069.282590099843
 20
5686.430845255266
 30
0.0
  0
ENDBLK
  5
9A97
330
9A8D
100
AcDbEntity
  8
0
 48
15.0
100
AcDbBlockEnd
  0
BLOCK
  5
9AA3
330
9A98
100
AcDbEntity
  8
0
 48
15.0
100
AcDbBlockBegin
  2
*D237
 70
     1
 10
0.0
 20
0.0
 30
0.0
  3
*D237
  1

  0
LINE
  5
9FFA
330
9A98
100
AcDbEntity
  8
寸法引出
 48
15.0
370
    -2
100
AcDbLine
 10
1731.782590099842
 20
5619.022858903177
 30
0.0
 11
1731.782590099842
 21
5693.930845255266
 31
0.0
  0
LINE
  5
9FFB
330
9A98
100
AcDbEntity
  8
寸法引出
 48
15.0
370
    -2
100
AcDbLine
 10
1644.282590099842
 20
5686.430845255266
 30
0.0
 11
1621.782590099842
 21
5686.430845255266
 31
0.0
  0
LINE
  5
9FFC
330
9A98
100
AcDbEntity
  8
寸法引出
 48
15.0
370
    -2
100
AcDbLine
 10
1754.282590099842
 20
5686.430845255266
 30
0.0
 11
1776.782590099842
 21
5686.430845255266
 31
0.0
  0
LINE
  5
9FFD
330
9A98
100
AcDbEntity
  8
寸法引出
 48
15.0
370
    -2
100
AcDbLine
 10
1666.782590099842
 20
5686.430845255266
 30
0.0
 11
1731.782590099842
 21
5686.430845255266
 31
0.0
  0
SOLID
  5
9FFE
330
9A98
100
AcDbEntity
  8
寸法引出
 48
15.0
100
AcDbTrace
 10
1644.282590099842
 20
5690.180845255266
 30
0.0
 11
1644.282590099842
 21
5682.680845255266
 31
0.0
 12
1666.782590099842
 22
5686.430845255266
 32
0.0
 13
1666.782590099842
 23
5686.430845255266
 33
0.0
  0
SOLID
  5
9FFF
330
9A98
100
AcDbEntity
  8
寸法引出
 48
15.0
100
AcDbTrace
 10
1754.282590099842
 20
5690.180845255266
 30
0.0
 11
1754.282590099842
 21
5682.680845255266
 31
0.0
 12
1731.782590099842
 22
5686.430845255266
 32
0.0
 13
1731.782590099842
 23
5686.430845255266
 33
0.0
  0
MTEXT
  5
A000
330
9A98
100
AcDbEntity
  8
寸法引出
 48
15.0
100
AcDbMText
 10
1699.282590099842
 20
5716.430845255266
 30
0.0
 40
30.0
 41
0.0
 71
     5
 72
     1
  1
\A1;65
  7
SANWA
 73
     1
 44
1.0
1001
ACAD
1000
MTEXTBEGIN
1070
    73
1070
     1
1070
    44
1040
1.0
1070
    74
1070
     0
1000
MTEXTEND
  0
POINT
  5
A001
330
9A98
100
AcDbEntity
  8
DEFPOINTS
 62
     0
 48
15.0
100
AcDbPoint
 10
1666.782590099842
 20
5604.022858903177
 30
0.0
  0
POINT
  5
A002
330
9A98
100
AcDbEntity
  8
DEFPOINTS
 62
     0
 48
15.0
100
AcDbPoint
 10
1731.782590099842
 20
5604.022858903177
 30
0.0
  0
POINT
  5
A003
330
9A98
100
AcDbEntity
  8
DEFPOINTS
 62
     0
 48
15.0
100
AcDbPoint
 10
1731.782590099842
 20
5686.430845255266
 30
0.0
  0
ENDBLK
  5
9AA4
330
9A98
100
AcDbEntity
  8
0
 48
15.0
100
AcDbBlockEnd
  0
BLOCK
  5
9AAF
330
9AA5
100
AcDbEntity
  8
0
 48
15.0
100
AcDbBlockBegin
  2
*D238
 70
     1
 10
0.0
 20
0.0
 30
0.0
  3
*D238
  1

  0
LINE
  5
A004
330
9AA5
100
AcDbEntity
  8
寸法引出
 48
15.0
370
    -2
100
AcDbLine
 10
1329.282590099842
 20
5619.022858903177
 30
0.0
 11
1329.282590099842
 21
5693.930845255266
 31
0.0
  0
LINE
  5
A005
330
9AA5
100
AcDbEntity
  8
寸法引出
 48
15.0
370
    -2
100
AcDbLine
 10
1666.782590099842
 20
5619.022858903177
 30
0.0
 11
1666.782590099842
 21
5693.930845255266
 31
0.0
  0
LINE
  5
A006
330
9AA5
100
AcDbEntity
  8
寸法引出
 48
15.0
370
    -2
100
AcDbLine
 10
1351.782590099842
 20
5686.430845255266
 30
0.0
 11
1644.282590099842
 21
5686.430845255266
 31
0.0
  0
SOLID
  5
A007
330
9AA5
100
AcDbEntity
  8
寸法引出
 48
15.0
100
AcDbTrace
 10
1351.782590099842
 20
5690.180845255266
 30
0.0
 11
1351.782590099842
 21
5682.680845255266
 31
0.0
 12
1329.282590099842
 22
5686.430845255266
 32
0.0
 13
1329.282590099842
 23
5686.430845255266
 33
0.0
  0
SOLID
  5
A008
330
9AA5
100
AcDbEntity
  8
寸法引出
 48
15.0
100
AcDbTrace
 10
1644.282590099842
 20
5690.180845255266
 30
0.0
 11
1644.282590099842
 21
5682.680845255266
 31
0.0
 12
1666.782590099842
 22
5686.430845255266
 32
0.0
 13
1666.782590099842
 23
5686.430845255266
 33
0.0
  0
MTEXT
  5
A009
330
9AA5
100
AcDbEntity
  8
寸法引出
 48
15.0
100
AcDbMText
 10
1498.032590099842
 20
5716.430845255266
 30
0.0
 40
30.0
 41
0.0
 71
     5
 72
     1
  1
\A1;337.5
  7
SANWA
 73
     1
 44
1.0
1001
ACAD
1000
MTEXTBEGIN
1070
    73
1070
     1
1070
    44
1040
1.0
1070
    74
1070
     0
1000
MTEXTEND
  0
POINT
  5
A00A
330
9AA5
100
AcDbEntity
  8
DEFPOINTS
 62
     0
 48
15.0
100
AcDbPoint
 10
1329.282590099842
 20
5604.022858903177
 30
0.0
  0
POINT
  5
A00B
330
9AA5
100
AcDbEntity
  8
DEFPOINTS
 62
     0
 48
15.0
100
AcDbPoint
 10
1666.782590099842
 20
5604.022858903177
 30
0.0
  0
POINT
  5
A00C
330
9AA5
100
AcDbEntity
  8
DEFPOINTS
 62
     0
 48
15.0
100
AcDbPoint
 10
1666.782590099842
 20
5686.430845255266
 30
0.0
  0
ENDBLK
  5
9AB0
330
9AA5
100
AcDbEntity
  8
0
 48
15.0
100
AcDbBlockEnd
  0
BLOCK
  5
9ABB
330
9AB1
100
AcDbEntity
  8
0
 48
15.0
100
AcDbBlockBegin
  2
*D239
 70
     1
 10
0.0
 20
0.0
 30
0.0
  3
*D239
  1

  0
LINE
  5
A00D
330
9AB1
100
AcDbEntity
  8
寸法引出
 48
15.0
370
    -2
100
AcDbLine
 10
2535.6319440691
 20
5619.022858903177
 30
0.0
 11
2535.6319440691
 21
5706.826260267977
 31
0.0
  0
LINE
  5
A00E
330
9AB1
100
AcDbEntity
  8
寸法引出
 48
15.0
370
    -2
100
AcDbLine
 10
3535.6319440691
 20
5619.022858903177
 30
0.0
 11
3535.6319440691
 21
5706.826260267977
 31
0.0
  0
LINE
  5
A00F
330
9AB1
100
AcDbEntity
  8
寸法引出
 48
15.0
370
    -2
100
AcDbLine
 10
2558.1319440691
 20
5699.326260267977
 30
0.0
 11
3513.1319440691
 21
5699.326260267977
 31
0.0
  0
SOLID
  5
A010
330
9AB1
100
AcDbEntity
  8
寸法引出
 48
15.0
100
AcDbTrace
 10
2558.1319440691
 20
5703.076260267977
 30
0.0
 11
2558.1319440691
 21
5695.576260267976
 31
0.0
 12
2535.6319440691
 22
5699.326260267977
 32
0.0
 13
2535.6319440691
 23
5699.326260267977
 33
0.0
  0
SOLID
  5
A011
330
9AB1
100
AcDbEntity
  8
寸法引出
 48
15.0
100
AcDbTrace
 10
3513.1319440691
 20
5703.076260267977
 30
0.0
 11
3513.1319440691
 21
5695.576260267976
 31
0.0
 12
3535.6319440691
 22
5699.326260267977
 32
0.0
 13
3535.6319440691
 23
5699.326260267977
 33
0.0
  0
MTEXT
  5
A012
330
9AB1
100
AcDbEntity
  8
寸法引出
 48
15.0
100
AcDbMText
 10
3035.6319440691
 20
5729.326260267977
 30
0.0
 40
30.0
 41
0.0
 71
     5
 72
     1
  1
\A1;1000
  7
SANWA
 73
     1
 44
1.0
1001
ACAD
1000
MTEXTBEGIN
1070
    73
1070
     1
1070
    44
1040
1.0
1070
    74
1070
     0
1000
MTEXTEND
  0
POINT
  5
A013
330
9AB1
100
AcDbEntity
  8
DEFPOINTS
 62
     0
 48
15.0
100
AcDbPoint
 10
2535.6319440691
 20
5604.022858903177
 30
0.0
  0
POINT
  5
A014
330
9AB1
100
AcDbEntity
  8
DEFPOINTS
 62
     0
 48
15.0
100
AcDbPoint
 10
3535.6319440691
 20
5604.022858903177
 30
0.0
  0
POINT
  5
A015
330
9AB1
100
AcDbEntity
  8
DEFPOINTS
 62
     0
 48
15.0
100
AcDbPoint
 10
3535.6319440691
 20
5699.326260267977
 30
0.0
  0
ENDBLK
  5
9ABC
330
9AB1
100
AcDbEntity
  8
0
 48
15.0
100
AcDbBlockEnd
  0
BLOCK
  5
9AC7
330
9ABD
100
AcDbEntity
  8
0
 48
15.0
100
AcDbBlockBegin
  2
*D240
 70
     1
 10
0.0
 20
0.0
 30
0.0
  3
*D240
  1

  0
LINE
  5
A016
330
9ABD
100
AcDbEntity
  8
寸法引出
 48
15.0
370
    -2
100
AcDbLine
 10
1329.282590099842
 20
5619.022858903177
 30
0.0
 11
1329.282590099842
 21
5752.695697305922
 31
0.0
  0
LINE
  5
A017
330
9ABD
100
AcDbEntity
  8
寸法引出
 48
15.0
370
    -2
100
AcDbLine
 10
2069.282590099843
 20
5619.022858903177
 30
0.0
 11
2069.282590099843
 21
5752.695697305922
 31
0.0
  0
LINE
  5
A018
330
9ABD
100
AcDbEntity
  8
寸法引出
 48
15.0
370
    -2
100
AcDbLine
 10
1351.782590099842
 20
5745.195697305923
 30
0.0
 11
2046.782590099843
 21
5745.195697305923
 31
0.0
  0
SOLID
  5
A019
330
9ABD
100
AcDbEntity
  8
寸法引出
 48
15.0
100
AcDbTrace
 10
1351.782590099842
 20
5748.945697305923
 30
0.0
 11
1351.782590099842
 21
5741.445697305922
 31
0.0
 12
1329.282590099842
 22
5745.195697305923
 32
0.0
 13
1329.282590099842
 23
5745.195697305923
 33
0.0
  0
SOLID
  5
A01A
330
9ABD
100
AcDbEntity
  8
寸法引出
 48
15.0
100
AcDbTrace
 10
2046.782590099843
 20
5748.945697305923
 30
0.0
 11
2046.782590099843
 21
5741.445697305922
 31
0.0
 12
2069.282590099843
 22
5745.195697305923
 32
0.0
 13
2069.282590099843
 23
5745.195697305923
 33
0.0
  0
MTEXT
  5
A01B
330
9ABD
100
AcDbEntity
  8
寸法引出
 48
15.0
100
AcDbMText
 10
1699.282590099842
 20
5775.195697305922
 30
0.0
 40
30.0
 41
0.0
 71
     5
 72
     1
  1
\A1;740
  7
SANWA
 73
     1
 44
1.0
1001
ACAD
1000
MTEXTBEGIN
1070
    73
1070
     1
1070
    44
1040
1.0
1070
    74
1070
     0
1000
MTEXTEND
  0
POINT
  5
A01C
330
9ABD
100
AcDbEntity
  8
DEFPOINTS
 62
     0
 48
15.0
100
AcDbPoint
 10
1329.282590099842
 20
5604.022858903177
 30
0.0
  0
POINT
  5
A01D
330
9ABD
100
AcDbEntity
  8
DEFPOINTS
 62
     0
 48
15.0
100
AcDbPoint
 10
2069.282590099843
 20
5604.022858903177
 30
0.0
  0
POINT
  5
A01E
330
9ABD
100
AcDbEntity
  8
DEFPOINTS
 62
     0
 48
15.0
100
AcDbPoint
 10
2069.282590099843
 20
5745.195697305923
 30
0.0
  0
ENDBLK
  5
9AC8
330
9ABD
100
AcDbEntity
  8
0
 48
15.0
100
AcDbBlockEnd
  0
BLOCK
  5
9AD3
330
9AC9
100
AcDbEntity
  8
0
 48
15.0
100
AcDbBlockBegin
  2
*D241
 70
     1
 10
0.0
 20
0.0
 30
0.0
  3
*D241
  1

  0
LINE
  5
A01F
330
9AC9
100
AcDbEntity
  8
寸法引出
 48
15.0
370
    -2
100
AcDbLine
 10
2535.6319440691
 20
5469.022858903176
 30
0.0
 11
2535.6319440691
 21
5381.571191305989
 31
0.0
  0
LINE
  5
A020
330
9AC9
100
AcDbEntity
  8
寸法引出
 48
15.0
370
    -2
100
AcDbLine
 10
2655.6319440691
 20
5469.022858903176
 30
0.0
 11
2655.6319440691
 21
5381.571191305989
 31
0.0
  0
LINE
  5
A021
330
9AC9
100
AcDbEntity
  8
寸法引出
 48
15.0
370
    -2
100
AcDbLine
 10
2558.1319440691
 20
5389.07119130599
 30
0.0
 11
2633.1319440691
 21
5389.07119130599
 31
0.0
  0
SOLID
  5
A022
330
9AC9
100
AcDbEntity
  8
寸法引出
 48
15.0
100
AcDbTrace
 10
2558.1319440691
 20
5392.82119130599
 30
0.0
 11
2558.1319440691
 21
5385.321191305989
 31
0.0
 12
2535.6319440691
 22
5389.07119130599
 32
0.0
 13
2535.6319440691
 23
5389.07119130599
 33
0.0
  0
SOLID
  5
A023
330
9AC9
100
AcDbEntity
  8
寸法引出
 48
15.0
100
AcDbTrace
 10
2633.1319440691
 20
5392.82119130599
 30
0.0
 11
2633.1319440691
 21
5385.321191305989
 31
0.0
 12
2655.6319440691
 22
5389.07119130599
 32
0.0
 13
2655.6319440691
 23
5389.07119130599
 33
0.0
  0
MTEXT
  5
A024
330
9AC9
100
AcDbEntity
  8
寸法引出
 48
15.0
100
AcDbMText
 10
2595.6319440691
 20
5419.071191305989
 30
0.0
 40
30.0
 41
0.0
 71
     5
 72
     1
  1
\A1;120
  7
SANWA
 73
     1
 44
1.0
1001
ACAD
1000
MTEXTBEGIN
1070
    73
1070
     1
1070
    44
1040
1.0
1070
    74
1070
     0
1000
MTEXTEND
  0
POINT
  5
A025
330
9AC9
100
AcDbEntity
  8
DEFPOINTS
 62
     0
 48
15.0
100
AcDbPoint
 10
2535.6319440691
 20
5484.022858903177
 30
0.0
  0
POINT
  5
A026
330
9AC9
100
AcDbEntity
  8
DEFPOINTS
 62
     0
 48
15.0
100
AcDbPoint
 10
2655.6319440691
 20
5484.022858903177
 30
0.0
  0
POINT
  5
A027
330
9AC9
100
AcDbEntity
  8
DEFPOINTS
 62
     0
 48
15.0
100
AcDbPoint
 10
2655.6319440691
 20
5389.07119130599
 30
0.0
  0
ENDBLK
  5
9AD4
330
9AC9
100
AcDbEntity
  8
0
 48
15.0
100
AcDbBlockEnd
  0
BLOCK
  5
9ADF
330
9AD5
100
AcDbEntity
  8
0
 48
15.0
100
AcDbBlockBegin
  2
*D242
 70
     1
 10
0.0
 20
0.0
 30
0.0
  3
*D242
  1

  0
LINE
  5
A028
330
9AD5
100
AcDbEntity
  8
寸法引出
 48
15.0
370
    -2
100
AcDbLine
 10
2084.282590099842
 20
4902.195356183028
 30
0.0
 11
2227.306304376738
 21
4902.195356183028
 31
0.0
  0
LINE
  5
A029
330
9AD5
100
AcDbEntity
  8
寸法引出
 48
15.0
370
    -2
100
AcDbLine
 10
2084.282590099842
 20
3902.195356183028
 30
0.0
 11
2227.306304376738
 21
3902.195356183028
 31
0.0
  0
LINE
  5
A02A
330
9AD5
100
AcDbEntity
  8
寸法引出
 48
15.0
370
    -2
100
AcDbLine
 10
2219.806304376738
 20
4879.695356183027
 30
0.0
 11
2219.806304376738
 21
3924.695356183028
 31
0.0
  0
SOLID
  5
A02B
330
9AD5
100
AcDbEntity
  8
寸法引出
 48
15.0
100
AcDbTrace
 10
2216.056304376738
 20
4879.695356183027
 30
0.0
 11
2223.556304376738
 21
4879.695356183027
 31
0.0
 12
2219.806304376738
 22
4902.195356183028
 32
0.0
 13
2219.806304376738
 23
4902.195356183028
 33
0.0
  0
SOLID
  5
A02C
330
9AD5
100
AcDbEntity
  8
寸法引出
 48
15.0
100
AcDbTrace
 10
2216.056304376738
 20
3924.695356183028
 30
0.0
 11
2223.556304376738
 21
3924.695356183028
 31
0.0
 12
2219.806304376738
 22
3902.195356183028
 32
0.0
 13
2219.806304376738
 23
3902.195356183028
 33
0.0
  0
MTEXT
  5
A02D
330
9AD5
100
AcDbEntity
  8
寸法引出
 48
15.0
100
AcDbMText
 10
2189.806304376737
 20
4402.195356183028
 30
0.0
 40
30.0
 41
0.0
 71
     5
 72
     1
  1
\A1;1000
  7
SANWA
 11
0.0000000000000001
 21
1.0
 31
0.0
 73
     1
 44
1.0
1001
ACAD
1000
MTEXTBEGIN
1070
    73
1070
     1
1070
    44
1040
1.0
1070
    74
1070
     0
1000
MTEXTEND
  0
POINT
  5
A02E
330
9AD5
100
AcDbEntity
  8
DEFPOINTS
 62
     0
 48
15.0
100
AcDbPoint
 10
2069.282590099843
 20
4902.195356183028
 30
0.0
  0
POINT
  5
A02F
330
9AD5
100
AcDbEntity
  8
DEFPOINTS
 62
     0
 48
15.0
100
AcDbPoint
 10
2069.282590099843
 20
3902.195356183028
 30
0.0
  0
POINT
  5
A030
330
9AD5
100
AcDbEntity
  8
DEFPOINTS
 62
     0
 48
15.0
100
AcDbPoint
 10
2219.806304376738
 20
3902.195356183028
 30
0.0
  0
ENDBLK
  5
9AE0
330
9AD5
100
AcDbEntity
  8
0
 48
15.0
100
AcDbBlockEnd
  0
BLOCK
  5
9AEA
330
9AE1
100
AcDbEntity
  8
0
 48
15.0
100
AcDbBlockBegin
  2
*D243
 70
     1
 10
0.0
 20
0.0
 30
0.0
  3
*D243
  1

  0
LINE
  5
A031
330
9AE1
100
AcDbEntity
  8
寸法引出
 48
15.0
370
    -2
100
AcDbLine
 10
1314.282590099842
 20
4022.195356183027
 30
0.0
 11
1157.673392900417
 21
4022.195356183027
 31
0.0
  0
LINE
  5
A032
330
9AE1
100
AcDbEntity
  8
寸法引出
 48
15.0
370
    -2
100
AcDbLine
 10
1165.173392900417
 20
4759.695356183027
 30
0.0
 11
1165.173392900417
 21
4044.695356183027
 31
0.0
  0
SOLID
  5
A033
330
9AE1
100
AcDbEntity
  8
寸法引出
 48
15.0
100
AcDbTrace
 10
1161.423392900417
 20
4759.695356183027
 30
0.0
 11
1168.923392900417
 21
4759.695356183027
 31
0.0
 12
1165.173392900417
 22
4782.195356183027
 32
0.0
 13
1165.173392900417
 23
4782.195356183027
 33
0.0
  0
SOLID
  5
A034
330
9AE1
100
AcDbEntity
  8
寸法引出
 48
15.0
100
AcDbTrace
 10
1161.423392900417
 20
4044.695356183027
 30
0.0
 11
1168.923392900417
 21
4044.695356183027
 31
0.0
 12
1165.173392900417
 22
4022.195356183027
 32
0.0
 13
1165.173392900417
 23
4022.195356183027
 33
0.0
  0
MTEXT
  5
A035
330
9AE1
100
AcDbEntity
  8
寸法引出
 48
15.0
100
AcDbMText
 10
1135.173392900416
 20
4402.195356183027
 30
0.0
 40
30.0
 41
0.0
 71
     5
 72
     1
  1
\A1;760
  7
SANWA
 11
0.0000000000000001
 21
1.0
 31
0.0
 73
     1
 44
1.0
1001
ACAD
1000
MTEXTBEGIN
1070
    73
1070
     1
1070
    44
1040
1.0
1070
    74
1070
     0
1000
MTEXTEND
  0
POINT
  5
A036
330
9AE1
100
AcDbEntity
  8
DEFPOINTS
 62
     0
 48
15.0
100
AcDbPoint
 10
1329.282590099842
 20
4782.195356183027
 30
0.0
  0
POINT
  5
A037
330
9AE1
100
AcDbEntity
  8
DEFPOINTS
 62
     0
 48
15.0
100
AcDbPoint
 10
1329.282590099842
 20
4022.195356183027
 30
0.0
  0
POINT
  5
A038
330
9AE1
100
AcDbEntity
  8
DEFPOINTS
 62
     0
 48
15.0
100
AcDbPoint
 10
1165.173392900417
 20
4022.195356183027
 30
0.0
  0
ENDBLK
  5
9AEB
330
9AE1
100
AcDbEntity
  8
0
 48
15.0
100
AcDbBlockEnd
  0
BLOCK
  5
9AF6
330
9AEC
100
AcDbEntity
  8
0
 48
15.0
100
AcDbBlockBegin
  2
*D244
 70
     1
 10
0.0
 20
0.0
 30
0.0
  3
*D244
  1

  0
LINE
  5
A039
330
9AEC
100
AcDbEntity
  8
寸法引出
 48
15.0
370
    -2
100
AcDbLine
 10
1364.282590099842
 20
3887.195356183028
 30
0.0
 11
1364.282590099842
 21
3784.215171096172
 31
0.0
  0
LINE
  5
A03A
330
9AEC
100
AcDbEntity
  8
寸法引出
 48
15.0
370
    -2
100
AcDbLine
 10
2034.282590099842
 20
3887.195356183028
 30
0.0
 11
2034.282590099842
 21
3784.215171096172
 31
0.0
  0
LINE
  5
A03B
330
9AEC
100
AcDbEntity
  8
寸法引出
 48
15.0
370
    -2
100
AcDbLine
 10
1386.782590099842
 20
3791.715171096172
 30
0.0
 11
2011.782590099842
 21
3791.715171096172
 31
0.0
  0
SOLID
  5
A03C
330
9AEC
100
AcDbEntity
  8
寸法引出
 48
15.0
100
AcDbTrace
 10
1386.782590099842
 20
3795.465171096172
 30
0.0
 11
1386.782590099842
 21
3787.965171096172
 31
0.0
 12
1364.282590099842
 22
3791.715171096172
 32
0.0
 13
1364.282590099842
 23
3791.715171096172
 33
0.0
  0
SOLID
  5
A03D
330
9AEC
100
AcDbEntity
  8
寸法引出
 48
15.0
100
AcDbTrace
 10
2011.782590099842
 20
3795.465171096172
 30
0.0
 11
2011.782590099842
 21
3787.965171096172
 31
0.0
 12
2034.282590099842
 22
3791.715171096172
 32
0.0
 13
2034.282590099842
 23
3791.715171096172
 33
0.0
  0
MTEXT
  5
A03E
330
9AEC
100
AcDbEntity
  8
寸法引出
 48
15.0
100
AcDbMText
 10
1699.282590099842
 20
3821.715171096172
 30
0.0
 40
30.0
 41
0.0
 71
     5
 72
     1
  1
\A1;670
  7
SANWA
 73
     1
 44
1.0
1001
ACAD
1000
MTEXTBEGIN
1070
    73
1070
     1
1070
    44
1040
1.0
1070
    74
1070
     0
1000
MTEXTEND
  0
POINT
  5
A03F
330
9AEC
100
AcDbEntity
  8
DEFPOINTS
 62
     0
 48
15.0
100
AcDbPoint
 10
1364.282590099842
 20
3902.195356183028
 30
0.0
  0
POINT
  5
A040
330
9AEC
100
AcDbEntity
  8
DEFPOINTS
 62
     0
 48
15.0
100
AcDbPoint
 10
2034.282590099842
 20
3902.195356183028
 30
0.0
  0
POINT
  5
A041
330
9AEC
100
AcDbEntity
  8
DEFPOINTS
 62
     0
 48
15.0
100
AcDbPoint
 10
2034.282590099842
 20
3791.715171096172
 30
0.0
  0
ENDBLK
  5
9AF7
330
9AEC
100
AcDbEntity
  8
0
 48
15.0
100
AcDbBlockEnd
  0
BLOCK
  5
9B02
330
9AF8
100
AcDbEntity
  8
0
 48
15.0
100
AcDbBlockBegin
  2
*D245
 70
     1
 10
0.0
 20
0.0
 30
0.0
  3
*D245
  1

  0
LINE
  5
A042
330
9AF8
100
AcDbEntity
  8
寸法引出
 48
15.0
370
    -2
100
AcDbLine
 10
1329.282590099842
 20
3887.195356183028
 30
0.0
 11
1329.282590099842
 21
3719.293260323999
 31
0.0
  0
LINE
  5
A043
330
9AF8
100
AcDbEntity
  8
寸法引出
 48
15.0
370
    -2
100
AcDbLine
 10
2069.282590099843
 20
3887.195356183028
 30
0.0
 11
2069.282590099843
 21
3719.293260323999
 31
0.0
  0
LINE
  5
A044
330
9AF8
100
AcDbEntity
  8
寸法引出
 48
15.0
370
    -2
100
AcDbLine
 10
1351.782590099842
 20
3726.793260323999
 30
0.0
 11
2046.782590099843
 21
3726.793260323999
 31
0.0
  0
SOLID
  5
A045
330
9AF8
100
AcDbEntity
  8
寸法引出
 48
15.0
100
AcDbTrace
 10
1351.782590099842
 20
3730.543260323999
 30
0.0
 11
1351.782590099842
 21
3723.043260323999
 31
0.0
 12
1329.282590099842
 22
3726.793260323999
 32
0.0
 13
1329.282590099842
 23
3726.793260323999
 33
0.0
  0
SOLID
  5
A046
330
9AF8
100
AcDbEntity
  8
寸法引出
 48
15.0
100
AcDbTrace
 10
2046.782590099843
 20
3730.543260323999
 30
0.0
 11
2046.782590099843
 21
3723.043260323999
 31
0.0
 12
2069.282590099843
 22
3726.793260323999
 32
0.0
 13
2069.282590099843
 23
3726.793260323999
 33
0.0
  0
MTEXT
  5
A047
330
9AF8
100
AcDbEntity
  8
寸法引出
 48
15.0
100
AcDbMText
 10
1699.282590099842
 20
3756.793260323999
 30
0.0
 40
30.0
 41
0.0
 71
     5
 72
     1
  1
\A1;740
  7
SANWA
 73
     1
 44
1.0
1001
ACAD
1000
MTEXTBEGIN
1070
    73
1070
     1
1070
    44
1040
1.0
1070
    74
1070
     0
1000
MTEXTEND
  0
POINT
  5
A048
330
9AF8
100
AcDbEntity
  8
DEFPOINTS
 62
     0
 48
15.0
100
AcDbPoint
 10
1329.282590099842
 20
3902.195356183028
 30
0.0
  0
POINT
  5
A049
330
9AF8
100
AcDbEntity
  8
DEFPOINTS
 62
     0
 48
15.0
100
AcDbPoint
 10
2069.282590099843
 20
3902.195356183028
 30
0.0
  0
POINT
  5
A04A
330
9AF8
100
AcDbEntity
  8
DEFPOINTS
 62
     0
 48
15.0
100
AcDbPoint
 10
2069.282590099843
 20
3726.793260323999
 30
0.0
  0
ENDBLK
  5
9B03
330
9AF8
100
AcDbEntity
  8
0
 48
15.0
100
AcDbBlockEnd
  0
BLOCK
  5
9B0D
330
9B04
100
AcDbEntity
  8
0
 48
15.0
100
AcDbBlockBegin
  2
*D246
 70
     1
 10
0.0
 20
0.0
 30
0.0
  3
*D246
  1

  0
LINE
  5
A04B
330
9B04
100
AcDbEntity
  8
寸法引出
 48
15.0
370
    -2
100
AcDbLine
 10
1314.282590099842
 20
3902.195356183028
 30
0.0
 11
1157.673392900417
 21
3902.195356183028
 31
0.0
  0
LINE
  5
A04C
330
9B04
100
AcDbEntity
  8
寸法引出
 48
15.0
370
    -2
100
AcDbLine
 10
1165.173392900417
 20
3999.695356183028
 30
0.0
 11
1165.173392900417
 21
3924.695356183028
 31
0.0
  0
SOLID
  5
A04D
330
9B04
100
AcDbEntity
  8
寸法引出
 48
15.0
100
AcDbTrace
 10
1161.423392900417
 20
3999.695356183028
 30
0.0
 11
1168.923392900417
 21
3999.695356183028
 31
0.0
 12
1165.173392900417
 22
4022.195356183027
 32
0.0
 13
1165.173392900417
 23
4022.195356183027
 33
0.0
  0
SOLID
  5
A04E
330
9B04
100
AcDbEntity
  8
寸法引出
 48
15.0
100
AcDbTrace
 10
1161.423392900417
 20
3924.695356183028
 30
0.0
 11
1168.923392900417
 21
3924.695356183028
 31
0.0
 12
1165.173392900417
 22
3902.195356183028
 32
0.0
 13
1165.173392900417
 23
3902.195356183028
 33
0.0
  0
MTEXT
  5
A04F
330
9B04
100
AcDbEntity
  8
寸法引出
 48
15.0
100
AcDbMText
 10
1135.173392900416
 20
3962.195356183028
 30
0.0
 40
30.0
 41
0.0
 71
     5
 72
     1
  1
\A1;120
  7
SANWA
 11
0.0000000000000001
 21
1.0
 31
0.0
 73
     1
 44
1.0
1001
ACAD
1000
MTEXTBEGIN
1070
    73
1070
     1
1070
    44
1040
1.0
1070
    74
1070
     0
1000
MTEXTEND
  0
POINT
  5
A050
330
9B04
100
AcDbEntity
  8
DEFPOINTS
 62
     0
 48
15.0
100
AcDbPoint
 10
1329.282590099842
 20
4022.195356183027
 30
0.0
  0
POINT
  5
A051
330
9B04
100
AcDbEntity
  8
DEFPOINTS
 62
     0
 48
15.0
100
AcDbPoint
 10
1329.282590099842
 20
3902.195356183028
 30
0.0
  0
POINT
  5
A052
330
9B04
100
AcDbEntity
  8
DEFPOINTS
 62
     0
 48
15.0
100
AcDbPoint
 10
1165.173392900417
 20
3902.195356183028
 30
0.0
  0
ENDBLK
  5
9B0E
330
9B04
100
AcDbEntity
  8
0
 48
15.0
100
AcDbBlockEnd
  0
BLOCK
  5
9B1B
330
9B0F
100
AcDbEntity
  8
0
 48
15.0
100
AcDbBlockBegin
  2
*D247
 70
     1
 10
0.0
 20
0.0
 30
0.0
  3
*D247
  1

  0
LINE
  5
A053
330
9B0F
100
AcDbEntity
  8
寸法引出
 48
15.0
370
    -2
100
AcDbLine
 10
1329.282590099842
 20
3887.195356183028
 30
0.0
 11
1329.282590099842
 21
3784.215171096172
 31
0.0
  0
LINE
  5
A054
330
9B0F
100
AcDbEntity
  8
寸法引出
 48
15.0
370
    -2
100
AcDbLine
 10
1364.282590099842
 20
3887.195356183028
 30
0.0
 11
1364.282590099842
 21
3784.215171096172
 31
0.0
  0
LINE
  5
A055
330
9B0F
100
AcDbEntity
  8
寸法引出
 48
15.0
370
    -2
100
AcDbLine
 10
1306.782590099842
 20
3791.715171096172
 30
0.0
 11
1284.282590099842
 21
3791.715171096172
 31
0.0
  0
LINE
  5
A056
330
9B0F
100
AcDbEntity
  8
寸法引出
 48
15.0
370
    -2
100
AcDbLine
 10
1386.782590099842
 20
3791.715171096172
 30
0.0
 11
1409.282590099842
 21
3791.715171096172
 31
0.0
  0
LINE
  5
A057
330
9B0F
100
AcDbEntity
  8
寸法引出
 48
15.0
370
    -2
100
AcDbLine
 10
1329.282590099842
 20
3791.715171096172
 30
0.0
 11
1364.282590099842
 21
3791.715171096172
 31
0.0
  0
SOLID
  5
A058
330
9B0F
100
AcDbEntity
  8
寸法引出
 48
15.0
100
AcDbTrace
 10
1306.782590099842
 20
3795.465171096172
 30
0.0
 11
1306.782590099842
 21
3787.965171096172
 31
0.0
 12
1329.282590099842
 22
3791.715171096172
 32
0.0
 13
1329.282590099842
 23
3791.715171096172
 33
0.0
  0
SOLID
  5
A059
330
9B0F
100
AcDbEntity
  8
寸法引出
 48
15.0
100
AcDbTrace
 10
1386.782590099842
 20
3795.465171096172
 30
0.0
 11
1386.782590099842
 21
3787.965171096172
 31
0.0
 12
1364.282590099842
 22
3791.715171096172
 32
0.0
 13
1364.282590099842
 23
3791.715171096172
 33
0.0
  0
MTEXT
  5
A05A
330
9B0F
100
AcDbEntity
  8
寸法引出
 48
15.0
100
AcDbMText
 10
1346.782590099842
 20
3821.715171096172
 30
0.0
 40
30.0
 41
0.0
 71
     5
 72
     1
  1
\A1;35
  7
SANWA
 73
     1
 44
1.0
1001
ACAD
1000
MTEXTBEGIN
1070
    73
1070
     1
1070
    44
1040
1.0
1070
    74
1070
     0
1000
MTEXTEND
  0
POINT
  5
A05B
330
9B0F
100
AcDbEntity
  8
DEFPOINTS
 62
     0
 48
15.0
100
AcDbPoint
 10
1329.282590099842
 20
3902.195356183028
 30
0.0
  0
POINT
  5
A05C
330
9B0F
100
AcDbEntity
  8
DEFPOINTS
 62
     0
 48
15.0
100
AcDbPoint
 10
1364.282590099842
 20
3902.195356183028
 30
0.0
  0
POINT
  5
A05D
330
9B0F
100
AcDbEntity
  8
DEFPOINTS
 62
     0
 48
15.0
100
AcDbPoint
 10
1364.282590099842
 20
3791.715171096172
 30
0.0
  0
ENDBLK
  5
9B1C
330
9B0F
100
AcDbEntity
  8
0
 48
15.0
100
AcDbBlockEnd
  0
BLOCK
  5
9B28
330
9B1D
100
AcDbEntity
  8
0
 48
15.0
100
AcDbBlockBegin
  2
*D248
 70
     1
 10
0.0
 20
0.0
 30
0.0
  3
*D248
  1

  0
LINE
  5
A05E
330
9B1D
100
AcDbEntity
  8
寸法引出
 48
15.0
370
    -2
100
AcDbLine
 10
2069.282590099843
 20
3887.195356183028
 30
0.0
 11
2069.282590099843
 21
3784.215171096172
 31
0.0
  0
LINE
  5
A05F
330
9B1D
100
AcDbEntity
  8
寸法引出
 48
15.0
370
    -2
100
AcDbLine
 10
2011.782590099842
 20
3791.715171096172
 30
0.0
 11
1989.282590099842
 21
3791.715171096172
 31
0.0
  0
LINE
  5
A060
330
9B1D
100
AcDbEntity
  8
寸法引出
 48
15.0
370
    -2
100
AcDbLine
 10
2091.782590099843
 20
3791.715171096172
 30
0.0
 11
2114.282590099842
 21
3791.715171096172
 31
0.0
  0
LINE
  5
A061
330
9B1D
100
AcDbEntity
  8
寸法引出
 48
15.0
370
    -2
100
AcDbLine
 10
2034.282590099842
 20
3791.715171096172
 30
0.0
 11
2069.282590099843
 21
3791.715171096172
 31
0.0
  0
SOLID
  5
A062
330
9B1D
100
AcDbEntity
  8
寸法引出
 48
15.0
100
AcDbTrace
 10
2011.782590099842
 20
3795.465171096172
 30
0.0
 11
2011.782590099842
 21
3787.965171096172
 31
0.0
 12
2034.282590099842
 22
3791.715171096172
 32
0.0
 13
2034.282590099842
 23
3791.715171096172
 33
0.0
  0
SOLID
  5
A063
330
9B1D
100
AcDbEntity
  8
寸法引出
 48
15.0
100
AcDbTrace
 10
2091.782590099843
 20
3795.465171096172
 30
0.0
 11
2091.782590099843
 21
3787.965171096172
 31
0.0
 12
2069.282590099843
 22
3791.715171096172
 32
0.0
 13
2069.282590099843
 23
3791.715171096172
 33
0.0
  0
MTEXT
  5
A064
330
9B1D
100
AcDbEntity
  8
寸法引出
 48
15.0
100
AcDbMText
 10
2051.782590099842
 20
3821.715171096172
 30
0.0
 40
30.0
 41
0.0
 71
     5
 72
     1
  1
\A1;35
  7
SANWA
 73
     1
 44
1.0
1001
ACAD
1000
MTEXTBEGIN
1070
    73
1070
     1
1070
    44
1040
1.0
1070
    74
1070
     0
1000
MTEXTEND
  0
POINT
  5
A065
330
9B1D
100
AcDbEntity
  8
DEFPOINTS
 62
     0
 48
15.0
100
AcDbPoint
 10
2034.282590099842
 20
3902.195356183028
 30
0.0
  0
POINT
  5
A066
330
9B1D
100
AcDbEntity
  8
DEFPOINTS
 62
     0
 48
15.0
100
AcDbPoint
 10
2069.282590099843
 20
3902.195356183028
 30
0.0
  0
POINT
  5
A067
330
9B1D
100
AcDbEntity
  8
DEFPOINTS
 62
     0
 48
15.0
100
AcDbPoint
 10
2069.282590099843
 20
3791.715171096172
 30
0.0
  0
ENDBLK
  5
9B29
330
9B1D
100
AcDbEntity
  8
0
 48
15.0
100
AcDbBlockEnd
  0
BLOCK
  5
9B33
330
9B2A
100
AcDbEntity
  8
0
 48
15.0
100
AcDbBlockBegin
  2
*D249
 70
     1
 10
0.0
 20
0.0
 30
0.0
  3
*D249
  1

  0
LINE
  5
A068
330
9B2A
100
AcDbEntity
  8
寸法引出
 48
15.0
370
    -2
100
AcDbLine
 10
2069.282590099843
 20
4917.195356183028
 30
0.0
 11
2069.282590099843
 21
5017.354404981844
 31
0.0
  0
LINE
  5
A069
330
9B2A
100
AcDbEntity
  8
寸法引出
 48
15.0
370
    -2
100
AcDbLine
 10
1754.282590099842
 20
5009.854404981845
 30
0.0
 11
2046.782590099843
 21
5009.854404981845
 31
0.0
  0
SOLID
  5
A06A
330
9B2A
100
AcDbEntity
  8
寸法引出
 48
15.0
100
AcDbTrace
 10
1754.282590099842
 20
5013.604404981845
 30
0.0
 11
1754.282590099842
 21
5006.104404981845
 31
0.0
 12
1731.782590099842
 22
5009.854404981845
 32
0.0
 13
1731.782590099842
 23
5009.854404981845
 33
0.0
  0
SOLID
  5
A06B
330
9B2A
100
AcDbEntity
  8
寸法引出
 48
15.0
100
AcDbTrace
 10
2046.782590099843
 20
5013.604404981845
 30
0.0
 11
2046.782590099843
 21
5006.104404981845
 31
0.0
 12
2069.282590099843
 22
5009.854404981845
 32
0.0
 13
2069.282590099843
 23
5009.854404981845
 33
0.0
  0
MTEXT
  5
A06C
330
9B2A
100
AcDbEntity
  8
寸法引出
 48
15.0
100
AcDbMText
 10
1900.532590099842
 20
5039.854404981845
 30
0.0
 40
30.0
 41
0.0
 71
     5
 72
     1
  1
\A1;337.5
  7
SANWA
 73
     1
 44
1.0
1001
ACAD
1000
MTEXTBEGIN
1070
    73
1070
     1
1070
    44
1040
1.0
1070
    74
1070
     0
1000
MTEXTEND
  0
POINT
  5
A06D
330
9B2A
100
AcDbEntity
  8
DEFPOINTS
 62
     0
 48
15.0
100
AcDbPoint
 10
1731.782590099842
 20
4902.195356183028
 30
0.0
  0
POINT
  5
A06E
330
9B2A
100
AcDbEntity
  8
DEFPOINTS
 62
     0
 48
15.0
100
AcDbPoint
 10
2069.282590099843
 20
4902.195356183028
 30
0.0
  0
POINT
  5
A06F
330
9B2A
100
AcDbEntity
  8
DEFPOINTS
 62
     0
 48
15.0
100
AcDbPoint
 10
2069.282590099843
 20
5009.854404981845
 30
0.0
  0
ENDBLK
  5
9B34
330
9B2A
100
AcDbEntity
  8
0
 48
15.0
100
AcDbBlockEnd
  0
BLOCK
  5
9B3F
330
9B35
100
AcDbEntity
  8
0
 48
15.0
100
AcDbBlockBegin
  2
*D250
 70
     1
 10
0.0
 20
0.0
 30
0.0
  3
*D250
  1

  0
LINE
  5
A070
330
9B35
100
AcDbEntity
  8
寸法引出
 48
15.0
370
    -2
100
AcDbLine
 10
1747.282590099842
 20
5469.022858903176
 30
0.0
 11
1747.282590099842
 21
5322.550213459446
 31
0.0
  0
LINE
  5
A071
330
9B35
100
AcDbEntity
  8
寸法引出
 48
15.0
370
    -2
100
AcDbLine
 10
2069.282590099843
 20
5469.022858903176
 30
0.0
 11
2069.282590099843
 21
5322.550213459446
 31
0.0
  0
LINE
  5
A072
330
9B35
100
AcDbEntity
  8
寸法引出
 48
15.0
370
    -2
100
AcDbLine
 10
1769.782590099842
 20
5330.050213459445
 30
0.0
 11
2046.782590099843
 21
5330.050213459445
 31
0.0
  0
SOLID
  5
A073
330
9B35
100
AcDbEntity
  8
寸法引出
 48
15.0
100
AcDbTrace
 10
1769.782590099842
 20
5333.800213459445
 30
0.0
 11
1769.782590099842
 21
5326.300213459445
 31
0.0
 12
1747.282590099842
 22
5330.050213459445
 32
0.0
 13
1747.282590099842
 23
5330.050213459445
 33
0.0
  0
SOLID
  5
A074
330
9B35
100
AcDbEntity
  8
寸法引出
 48
15.0
100
AcDbTrace
 10
2046.782590099843
 20
5333.800213459445
 30
0.0
 11
2046.782590099843
 21
5326.300213459445
 31
0.0
 12
2069.282590099843
 22
5330.050213459445
 32
0.0
 13
2069.282590099843
 23
5330.050213459445
 33
0.0
  0
MTEXT
  5
A075
330
9B35
100
AcDbEntity
  8
寸法引出
 48
15.0
100
AcDbMText
 10
1908.282590099842
 20
5360.050213459445
 30
0.0
 40
30.0
 41
0.0
 71
     5
 72
     1
  1
\A1;322
  7
SANWA
 73
     1
 44
1.0
1001
ACAD
1000
MTEXTBEGIN
1070
    73
1070
     1
1070
    44
1040
1.0
1070
    74
1070
     0
1000
MTEXTEND
  0
POINT
  5
A076
330
9B35
100
AcDbEntity
  8
DEFPOINTS
 62
     0
 48
15.0
100
AcDbPoint
 10
1747.282590099842
 20
5484.022858903177
 30
0.0
  0
POINT
  5
A077
330
9B35
100
AcDbEntity
  8
DEFPOINTS
 62
     0
 48
15.0
100
AcDbPoint
 10
2069.282590099843
 20
5484.022858903177
 30
0.0
  0
POINT
  5
A078
330
9B35
100
AcDbEntity
  8
DEFPOINTS
 62
     0
 48
15.0
100
AcDbPoint
 10
2069.282590099843
 20
5330.050213459445
 30
0.0
  0
ENDBLK
  5
9B40
330
9B35
100
AcDbEntity
  8
0
 48
15.0
100
AcDbBlockEnd
  0
BLOCK
  5
9B4B
330
9B41
100
AcDbEntity
  8
0
 48
15.0
100
AcDbBlockBegin
  2
*D251
 70
     1
 10
0.0
 20
0.0
 30
0.0
  3
*D251
  1

  0
LINE
  5
A079
330
9B41
100
AcDbEntity
  8
寸法引出
 48
15.0
370
    -2
100
AcDbLine
 10
1329.282590099842
 20
4917.195356183028
 30
0.0
 11
1329.282590099842
 21
5017.354404981844
 31
0.0
  0
LINE
  5
A07A
330
9B41
100
AcDbEntity
  8
寸法引出
 48
15.0
370
    -2
100
AcDbLine
 10
1666.782590099842
 20
4917.195356183028
 30
0.0
 11
1666.782590099842
 21
5017.354404981844
 31
0.0
  0
LINE
  5
A07B
330
9B41
100
AcDbEntity
  8
寸法引出
 48
15.0
370
    -2
100
AcDbLine
 10
1351.782590099842
 20
5009.854404981845
 30
0.0
 11
1644.282590099842
 21
5009.854404981845
 31
0.0
  0
SOLID
  5
A07C
330
9B41
100
AcDbEntity
  8
寸法引出
 48
15.0
100
AcDbTrace
 10
1351.782590099842
 20
5013.604404981845
 30
0.0
 11
1351.782590099842
 21
5006.104404981845
 31
0.0
 12
1329.282590099842
 22
5009.854404981845
 32
0.0
 13
1329.282590099842
 23
5009.854404981845
 33
0.0
  0
SOLID
  5
A07D
330
9B41
100
AcDbEntity
  8
寸法引出
 48
15.0
100
AcDbTrace
 10
1644.282590099842
 20
5013.604404981845
 30
0.0
 11
1644.282590099842
 21
5006.104404981845
 31
0.0
 12
1666.782590099842
 22
5009.854404981845
 32
0.0
 13
1666.782590099842
 23
5009.854404981845
 33
0.0
  0
MTEXT
  5
A07E
330
9B41
100
AcDbEntity
  8
寸法引出
 48
15.0
100
AcDbMText
 10
1498.032590099842
 20
5039.854404981845
 30
0.0
 40
30.0
 41
0.0
 71
     5
 72
     1
  1
\A1;337.5
  7
SANWA
 73
     1
 44
1.0
1001
ACAD
1000
MTEXTBEGIN
1070
    73
1070
     1
1070
    44
1040
1.0
1070
    74
1070
     0
1000
MTEXTEND
  0
POINT
  5
A07F
330
9B41
100
AcDbEntity
  8
DEFPOINTS
 62
     0
 48
15.0
100
AcDbPoint
 10
1329.282590099842
 20
4902.195356183028
 30
0.0
  0
POINT
  5
A080
330
9B41
100
AcDbEntity
  8
DEFPOINTS
 62
     0
 48
15.0
100
AcDbPoint
 10
1666.782590099842
 20
4902.195356183028
 30
0.0
  0
POINT
  5
A081
330
9B41
100
AcDbEntity
  8
DEFPOINTS
 62
     0
 48
15.0
100
AcDbPoint
 10
1666.782590099842
 20
5009.854404981845
 30
0.0
  0
ENDBLK
  5
9B4C
330
9B41
100
AcDbEntity
  8
0
 48
15.0
100
AcDbBlockEnd
  0
BLOCK
  5
9B57
330
9B4D
100
AcDbEntity
  8
0
 48
15.0
100
AcDbBlockBegin
  2
*D252
 70
     1
 10
0.0
 20
0.0
 30
0.0
  3
*D252
  1

  0
LINE
  5
A082
330
9B4D
100
AcDbEntity
  8
寸法引出
 48
15.0
370
    -2
100
AcDbLine
 10
1314.282590099842
 20
4902.195356183028
 30
0.0
 11
1157.673392900417
 21
4902.195356183028
 31
0.0
  0
LINE
  5
A083
330
9B4D
100
AcDbEntity
  8
寸法引出
 48
15.0
370
    -2
100
AcDbLine
 10
1314.282590099842
 20
4782.195356183027
 30
0.0
 11
1157.673392900417
 21
4782.195356183027
 31
0.0
  0
LINE
  5
A084
330
9B4D
100
AcDbEntity
  8
寸法引出
 48
15.0
370
    -2
100
AcDbLine
 10
1165.173392900417
 20
4879.695356183027
 30
0.0
 11
1165.173392900417
 21
4804.695356183028
 31
0.0
  0
SOLID
  5
A085
330
9B4D
100
AcDbEntity
  8
寸法引出
 48
15.0
100
AcDbTrace
 10
1161.423392900417
 20
4879.695356183027
 30
0.0
 11
1168.923392900417
 21
4879.695356183027
 31
0.0
 12
1165.173392900417
 22
4902.195356183028
 32
0.0
 13
1165.173392900417
 23
4902.195356183028
 33
0.0
  0
SOLID
  5
A086
330
9B4D
100
AcDbEntity
  8
寸法引出
 48
15.0
100
AcDbTrace
 10
1161.423392900417
 20
4804.695356183028
 30
0.0
 11
1168.923392900417
 21
4804.695356183028
 31
0.0
 12
1165.173392900417
 22
4782.195356183027
 32
0.0
 13
1165.173392900417
 23
4782.195356183027
 33
0.0
  0
MTEXT
  5
A087
330
9B4D
100
AcDbEntity
  8
寸法引出
 48
15.0
100
AcDbMText
 10
1135.173392900416
 20
4842.195356183028
 30
0.0
 40
30.0
 41
0.0
 71
     5
 72
     1
  1
\A1;120
  7
SANWA
 11
0.0000000000000001
 21
1.0
 31
0.0
 73
     1
 44
1.0
1001
ACAD
1000
MTEXTBEGIN
1070
    73
1070
     1
1070
    44
1040
1.0
1070
    74
1070
     0
1000
MTEXTEND
  0
POINT
  5
A088
330
9B4D
100
AcDbEntity
  8
DEFPOINTS
 62
     0
 48
15.0
100
AcDbPoint
 10
1329.282590099842
 20
4902.195356183028
 30
0.0
  0
POINT
  5
A089
330
9B4D
100
AcDbEntity
  8
DEFPOINTS
 62
     0
 48
15.0
100
AcDbPoint
 10
1329.282590099842
 20
4782.195356183027
 30
0.0
  0
POINT
  5
A08A
330
9B4D
100
AcDbEntity
  8
DEFPOINTS
 62
     0
 48
15.0
100
AcDbPoint
 10
1165.173392900417
 20
4782.195356183027
 30
0.0
  0
ENDBLK
  5
9B58
330
9B4D
100
AcDbEntity
  8
0
 48
15.0
100
AcDbBlockEnd
  0
BLOCK
  5
9B64
330
9B59
100
AcDbEntity
  8
0
 48
15.0
100
AcDbBlockBegin
  2
*D253
 70
     1
 10
0.0
 20
0.0
 30
0.0
  3
*D253
  1

  0
LINE
  5
A08B
330
9B59
100
AcDbEntity
  8
寸法引出
 48
15.0
370
    -2
100
AcDbLine
 10
1731.782590099842
 20
4917.195356183028
 30
0.0
 11
1731.782590099842
 21
5017.354404981844
 31
0.0
  0
LINE
  5
A08C
330
9B59
100
AcDbEntity
  8
寸法引出
 48
15.0
370
    -2
100
AcDbLine
 10
1644.282590099842
 20
5009.854404981845
 30
0.0
 11
1621.782590099842
 21
5009.854404981845
 31
0.0
  0
LINE
  5
A08D
330
9B59
100
AcDbEntity
  8
寸法引出
 48
15.0
370
    -2
100
AcDbLine
 10
1754.282590099842
 20
5009.854404981845
 30
0.0
 11
1776.782590099842
 21
5009.854404981845
 31
0.0
  0
LINE
  5
A08E
330
9B59
100
AcDbEntity
  8
寸法引出
 48
15.0
370
    -2
100
AcDbLine
 10
1666.782590099842
 20
5009.854404981845
 30
0.0
 11
1731.782590099842
 21
5009.854404981845
 31
0.0
  0
SOLID
  5
A08F
330
9B59
100
AcDbEntity
  8
寸法引出
 48
15.0
100
AcDbTrace
 10
1644.282590099842
 20
5013.604404981845
 30
0.0
 11
1644.282590099842
 21
5006.104404981845
 31
0.0
 12
1666.782590099842
 22
5009.854404981845
 32
0.0
 13
1666.782590099842
 23
5009.854404981845
 33
0.0
  0
SOLID
  5
A090
330
9B59
100
AcDbEntity
  8
寸法引出
 48
15.0
100
AcDbTrace
 10
1754.282590099842
 20
5013.604404981845
 30
0.0
 11
1754.282590099842
 21
5006.104404981845
 31
0.0
 12
1731.782590099842
 22
5009.854404981845
 32
0.0
 13
1731.782590099842
 23
5009.854404981845
 33
0.0
  0
MTEXT
  5
A091
330
9B59
100
AcDbEntity
  8
寸法引出
 48
15.0
100
AcDbMText
 10
1699.282590099842
 20
5039.854404981845
 30
0.0
 40
30.0
 41
0.0
 71
     5
 72
     1
  1
\A1;65
  7
SANWA
 73
     1
 44
1.0
1001
ACAD
1000
MTEXTBEGIN
1070
    73
1070
     1
1070
    44
1040
1.0
1070
    74
1070
     0
1000
MTEXTEND
  0
POINT
  5
A092
330
9B59
100
AcDbEntity
  8
DEFPOINTS
 62
     0
 48
15.0
100
AcDbPoint
 10
1666.782590099842
 20
4902.195356183028
 30
0.0
  0
POINT
  5
A093
330
9B59
100
AcDbEntity
  8
DEFPOINTS
 62
     0
 48
15.0
100
AcDbPoint
 10
1731.782590099842
 20
4902.195356183028
 30
0.0
  0
POINT
  5
A094
330
9B59
100
AcDbEntity
  8
DEFPOINTS
 62
     0
 48
15.0
100
AcDbPoint
 10
1731.782590099842
 20
5009.854404981845
 30
0.0
  0
ENDBLK
  5
9B65
330
9B59
100
AcDbEntity
  8
0
 48
15.0
100
AcDbBlockEnd
  0
BLOCK
  5
9B70
330
9B66
100
AcDbEntity
  8
0
 48
15.0
100
AcDbBlockBegin
  2
*D254
 70
     1
 10
0.0
 20
0.0
 30
0.0
  3
*D254
  1

  0
LINE
  5
A095
330
9B66
100
AcDbEntity
  8
寸法引出
 48
15.0
370
    -2
100
AcDbLine
 10
1329.282590099842
 20
5469.022858903176
 30
0.0
 11
1329.282590099842
 21
5322.550213459446
 31
0.0
  0
LINE
  5
A096
330
9B66
100
AcDbEntity
  8
寸法引出
 48
15.0
370
    -2
100
AcDbLine
 10
1651.282590099842
 20
5469.022858903176
 30
0.0
 11
1651.282590099842
 21
5322.550213459446
 31
0.0
  0
LINE
  5
A097
330
9B66
100
AcDbEntity
  8
寸法引出
 48
15.0
370
    -2
100
AcDbLine
 10
1351.782590099842
 20
5330.050213459445
 30
0.0
 11
1628.782590099842
 21
5330.050213459445
 31
0.0
  0
SOLID
  5
A098
330
9B66
100
AcDbEntity
  8
寸法引出
 48
15.0
100
AcDbTrace
 10
1351.782590099842
 20
5333.800213459445
 30
0.0
 11
1351.782590099842
 21
5326.300213459445
 31
0.0
 12
1329.282590099842
 22
5330.050213459445
 32
0.0
 13
1329.282590099842
 23
5330.050213459445
 33
0.0
  0
SOLID
  5
A099
330
9B66
100
AcDbEntity
  8
寸法引出
 48
15.0
100
AcDbTrace
 10
1628.782590099842
 20
5333.800213459445
 30
0.0
 11
1628.782590099842
 21
5326.300213459445
 31
0.0
 12
1651.282590099842
 22
5330.050213459445
 32
0.0
 13
1651.282590099842
 23
5330.050213459445
 33
0.0
  0
MTEXT
  5
A09A
330
9B66
100
AcDbEntity
  8
寸法引出
 48
15.0
100
AcDbMText
 10
1490.282590099842
 20
5360.050213459445
 30
0.0
 40
30.0
 41
0.0
 71
     5
 72
     1
  1
\A1;322
  7
SANWA
 73
     1
 44
1.0
1001
ACAD
1000
MTEXTBEGIN
1070
    73
1070
     1
1070
    44
1040
1.0
1070
    74
1070
     0
1000
MTEXTEND
  0
POINT
  5
A09B
330
9B66
100
AcDbEntity
  8
DEFPOINTS
 62
     0
 48
15.0
100
AcDbPoint
 10
1329.282590099842
 20
5484.022858903177
 30
0.0
  0
POINT
  5
A09C
330
9B66
100
AcDbEntity
  8
DEFPOINTS
 62
     0
 48
15.0
100
AcDbPoint
 10
1651.282590099842
 20
5484.022858903177
 30
0.0
  0
POINT
  5
A09D
330
9B66
100
AcDbEntity
  8
DEFPOINTS
 62
     0
 48
15.0
100
AcDbPoint
 10
1651.282590099842
 20
5330.050213459445
 30
0.0
  0
ENDBLK
  5
9B71
330
9B66
100
AcDbEntity
  8
0
 48
15.0
100
AcDbBlockEnd
  0
BLOCK
  5
9B7C
330
9B72
100
AcDbEntity
  8
0
 48
15.0
100
AcDbBlockBegin
  2
*D255
 70
     1
 10
0.0
 20
0.0
 30
0.0
  3
*D255
  1

  0
LINE
  5
A09E
330
9B72
100
AcDbEntity
  8
寸法引出
 48
15.0
370
    -2
100
AcDbLine
 10
1651.282590099842
 20
5469.022858903176
 30
0.0
 11
1651.282590099842
 21
5322.550213459446
 31
0.0
  0
LINE
  5
A09F
330
9B72
100
AcDbEntity
  8
寸法引出
 48
15.0
370
    -2
100
AcDbLine
 10
1747.282590099842
 20
5469.022858903176
 30
0.0
 11
1747.282590099842
 21
5322.550213459446
 31
0.0
  0
LINE
  5
A0A0
330
9B72
100
AcDbEntity
  8
寸法引出
 48
15.0
370
    -2
100
AcDbLine
 10
1673.782590099842
 20
5330.050213459445
 30
0.0
 11
1724.782590099842
 21
5330.050213459445
 31
0.0
  0
SOLID
  5
A0A1
330
9B72
100
AcDbEntity
  8
寸法引出
 48
15.0
100
AcDbTrace
 10
1673.782590099842
 20
5333.800213459445
 30
0.0
 11
1673.782590099842
 21
5326.300213459445
 31
0.0
 12
1651.282590099842
 22
5330.050213459445
 32
0.0
 13
1651.282590099842
 23
5330.050213459445
 33
0.0
  0
SOLID
  5
A0A2
330
9B72
100
AcDbEntity
  8
寸法引出
 48
15.0
100
AcDbTrace
 10
1724.782590099842
 20
5333.800213459445
 30
0.0
 11
1724.782590099842
 21
5326.300213459445
 31
0.0
 12
1747.282590099842
 22
5330.050213459445
 32
0.0
 13
1747.282590099842
 23
5330.050213459445
 33
0.0
  0
MTEXT
  5
A0A3
330
9B72
100
AcDbEntity
  8
寸法引出
 48
15.0
100
AcDbMText
 10
1699.282590099842
 20
5360.050213459445
 30
0.0
 40
30.0
 41
0.0
 71
     5
 72
     1
  1
\A1;96
  7
SANWA
 73
     1
 44
1.0
1001
ACAD
1000
MTEXTBEGIN
1070
    73
1070
     1
1070
    44
1040
1.0
1070
    74
1070
     0
1000
MTEXTEND
  0
POINT
  5
A0A4
330
9B72
100
AcDbEntity
  8
DEFPOINTS
 62
     0
 48
15.0
100
AcDbPoint
 10
1651.282590099842
 20
5484.022858903177
 30
0.0
  0
POINT
  5
A0A5
330
9B72
100
AcDbEntity
  8
DEFPOINTS
 62
     0
 48
15.0
100
AcDbPoint
 10
1747.282590099842
 20
5484.022858903177
 30
0.0
  0
POINT
  5
A0A6
330
9B72
100
AcDbEntity
  8
DEFPOINTS
 62
     0
 48
15.0
100
AcDbPoint
 10
1747.282590099842
 20
5330.050213459445
 30
0.0
  0
ENDBLK
  5
9B7D
330
9B72
100
AcDbEntity
  8
0
 48
15.0
100
AcDbBlockEnd
  0
BLOCK
  5
9B88
330
9B7E
100
AcDbEntity
  8
0
 48
15.0
100
AcDbBlockBegin
  2
*D256
 70
     1
 10
0.0
 20
0.0
 30
0.0
  3
*D256
  1

  0
LINE
  5
A0A7
330
9B7E
100
AcDbEntity
  8
寸法引出
 48
15.0
370
    -2
100
AcDbLine
 10
1656.282590099842
 20
5478.022858903177
 30
0.0
 11
1656.282590099842
 21
5385.022855629902
 31
0.0
  0
LINE
  5
A0A8
330
9B7E
100
AcDbEntity
  8
寸法引出
 48
15.0
370
    -2
100
AcDbLine
 10
1742.282590099842
 20
5478.022858903177
 30
0.0
 11
1742.282590099842
 21
5385.022855629902
 31
0.0
  0
LINE
  5
A0A9
330
9B7E
100
AcDbEntity
  8
寸法引出
 48
15.0
370
    -2
100
AcDbLine
 10
1678.782590099842
 20
5392.522855629902
 30
0.0
 11
1719.782590099842
 21
5392.522855629902
 31
0.0
  0
SOLID
  5
A0AA
330
9B7E
100
AcDbEntity
  8
寸法引出
 48
15.0
100
AcDbTrace
 10
1678.782590099842
 20
5396.272855629902
 30
0.0
 11
1678.782590099842
 21
5388.772855629902
 31
0.0
 12
1656.282590099842
 22
5392.522855629902
 32
0.0
 13
1656.282590099842
 23
5392.522855629902
 33
0.0
  0
SOLID
  5
A0AB
330
9B7E
100
AcDbEntity
  8
寸法引出
 48
15.0
100
AcDbTrace
 10
1719.782590099842
 20
5396.272855629902
 30
0.0
 11
1719.782590099842
 21
5388.772855629902
 31
0.0
 12
1742.282590099842
 22
5392.522855629902
 32
0.0
 13
1742.282590099842
 23
5392.522855629902
 33
0.0
  0
MTEXT
  5
A0AC
330
9B7E
100
AcDbEntity
  8
寸法引出
 48
15.0
100
AcDbMText
 10
1699.282590099842
 20
5422.522855629901
 30
0.0
 40
30.0
 41
0.0
 71
     5
 72
     1
  1
\A1;86
  7
SANWA
 73
     1
 44
1.0
1001
ACAD
1000
MTEXTBEGIN
1070
    73
1070
     1
1070
    44
1040
1.0
1070
    74
1070
     0
1000
MTEXTEND
  0
POINT
  5
A0AD
330
9B7E
100
AcDbEntity
  8
DEFPOINTS
 62
     0
 48
15.0
100
AcDbPoint
 10
1656.282590099842
 20
5493.022858903177
 30
0.0
  0
POINT
  5
A0AE
330
9B7E
100
AcDbEntity
  8
DEFPOINTS
 62
     0
 48
15.0
100
AcDbPoint
 10
1742.282590099842
 20
5493.022858903177
 30
0.0
  0
POINT
  5
A0AF
330
9B7E
100
AcDbEntity
  8
DEFPOINTS
 62
     0
 48
15.0
100
AcDbPoint
 10
1742.282590099842
 20
5392.522855629902
 30
0.0
  0
ENDBLK
  5
9B89
330
9B7E
100
AcDbEntity
  8
0
 48
15.0
100
AcDbBlockEnd
  0
BLOCK
  5
9B96
330
9B8A
100
AcDbEntity
  8
0
 48
15.0
100
AcDbBlockBegin
  2
*D257
 70
     1
 10
0.0
 20
0.0
 30
0.0
  3
*D257
  1

  0
LINE
  5
A0B0
330
9B8A
100
AcDbEntity
  8
寸法引出
 48
15.0
370
    -2
100
AcDbLine
 10
1746.782590099842
 20
5566.022858903177
 30
0.0
 11
1808.698313469549
 21
5566.022858903177
 31
0.0
  0
LINE
  5
A0B1
330
9B8A
100
AcDbEntity
  8
寸法引出
 48
15.0
370
    -2
100
AcDbLine
 10
1757.282590099842
 20
5563.722858903178
 30
0.0
 11
1808.698313469549
 21
5563.722858903178
 31
0.0
  0
LINE
  5
A0B2
330
9B8A
100
AcDbEntity
  8
寸法引出
 48
15.0
370
    -2
100
AcDbLine
 10
1801.198313469549
 20
5588.522858903177
 30
0.0
 11
1801.198313469549
 21
5611.022858903177
 31
0.0
  0
LINE
  5
A0B3
330
9B8A
100
AcDbEntity
  8
寸法引出
 48
15.0
370
    -2
100
AcDbLine
 10
1801.198313469549
 20
5541.222858903178
 30
0.0
 11
1801.198313469549
 21
5518.722858903178
 31
0.0
  0
LINE
  5
A0B4
330
9B8A
100
AcDbEntity
  8
寸法引出
 48
15.0
370
    -2
100
AcDbLine
 10
1801.198313469549
 20
5566.022858903177
 30
0.0
 11
1801.198313469549
 21
5563.722858903178
 31
0.0
  0
SOLID
  5
A0B5
330
9B8A
100
AcDbEntity
  8
寸法引出
 48
15.0
100
AcDbTrace
 10
1797.448313469549
 20
5588.522858903177
 30
0.0
 11
1804.948313469549
 21
5588.522858903177
 31
0.0
 12
1801.198313469549
 22
5566.022858903177
 32
0.0
 13
1801.198313469549
 23
5566.022858903177
 33
0.0
  0
SOLID
  5
A0B6
330
9B8A
100
AcDbEntity
  8
寸法引出
 48
15.0
100
AcDbTrace
 10
1797.448313469549
 20
5541.222858903178
 30
0.0
 11
1804.948313469549
 21
5541.222858903178
 31
0.0
 12
1801.198313469549
 22
5563.722858903178
 32
0.0
 13
1801.198313469549
 23
5563.722858903178
 33
0.0
  0
MTEXT
  5
A0B7
330
9B8A
100
AcDbEntity
  8
寸法引出
 48
15.0
100
AcDbMText
 10
1771.198313469548
 20
5564.872858903177
 30
0.0
 40
30.0
 41
0.0
 71
     5
 72
     1
  1
\A1;2.3
  7
SANWA
 11
0.0000000000000001
 21
1.0
 31
0.0
 73
     1
 44
1.0
1001
ACAD
1000
MTEXTBEGIN
1070
    73
1070
     1
1070
    44
1040
1.0
1070
    74
1070
     0
1000
MTEXTEND
  0
POINT
  5
A0B8
330
9B8A
100
AcDbEntity
  8
DEFPOINTS
 62
     0
 48
15.0
100
AcDbPoint
 10
1731.782590099842
 20
5566.022858903177
 30
0.0
  0
POINT
  5
A0B9
330
9B8A
100
AcDbEntity
  8
DEFPOINTS
 62
     0
 48
15.0
100
AcDbPoint
 10
1742.282590099842
 20
5563.722858903178
 30
0.0
  0
POINT
  5
A0BA
330
9B8A
100
AcDbEntity
  8
DEFPOINTS
 62
     0
 48
15.0
100
AcDbPoint
 10
1801.198313469549
 20
5563.722858903178
 30
0.0
  0
ENDBLK
  5
9B97
330
9B8A
100
AcDbEntity
  8
0
 48
15.0
100
AcDbBlockEnd
  0
BLOCK
  5
9BA2
330
9B98
100
AcDbEntity
  8
0
 48
15.0
100
AcDbBlockBegin
  2
*D258
 70
     1
 10
0.0
 20
0.0
 30
0.0
  3
*D258
  1

  0
LINE
  5
A0BB
330
9B98
100
AcDbEntity
  8
寸法引出
 48
15.0
370
    -2
100
AcDbLine
 10
2084.282590099842
 20
5604.022858903177
 30
0.0
 11
2195.597015320511
 21
5604.022858903177
 31
0.0
  0
LINE
  5
A0BC
330
9B98
100
AcDbEntity
  8
寸法引出
 48
15.0
370
    -2
100
AcDbLine
 10
2084.282590099842
 20
5484.022858903177
 30
0.0
 11
2195.597015320511
 21
5484.022858903177
 31
0.0
  0
LINE
  5
A0BD
330
9B98
100
AcDbEntity
  8
寸法引出
 48
15.0
370
    -2
100
AcDbLine
 10
2188.097015320511
 20
5581.522858903177
 30
0.0
 11
2188.097015320511
 21
5506.522858903177
 31
0.0
  0
SOLID
  5
A0BE
330
9B98
100
AcDbEntity
  8
寸法引出
 48
15.0
100
AcDbTrace
 10
2184.347015320511
 20
5581.522858903177
 30
0.0
 11
2191.847015320511
 21
5581.522858903177
 31
0.0
 12
2188.097015320511
 22
5604.022858903177
 32
0.0
 13
2188.097015320511
 23
5604.022858903177
 33
0.0
  0
SOLID
  5
A0BF
330
9B98
100
AcDbEntity
  8
寸法引出
 48
15.0
100
AcDbTrace
 10
2184.347015320511
 20
5506.522858903177
 30
0.0
 11
2191.847015320511
 21
5506.522858903177
 31
0.0
 12
2188.097015320511
 22
5484.022858903177
 32
0.0
 13
2188.097015320511
 23
5484.022858903177
 33
0.0
  0
MTEXT
  5
A0C0
330
9B98
100
AcDbEntity
  8
寸法引出
 48
15.0
100
AcDbMText
 10
2158.09701532051
 20
5544.022858903177
 30
0.0
 40
30.0
 41
0.0
 71
     5
 72
     1
  1
\A1;120
  7
SANWA
 11
0.0000000000000001
 21
1.0
 31
0.0
 73
     1
 44
1.0
1001
ACAD
1000
MTEXTBEGIN
1070
    73
1070
     1
1070
    44
1040
1.0
1070
    74
1070
     0
1000
MTEXTEND
  0
POINT
  5
A0C1
330
9B98
100
AcDbEntity
  8
DEFPOINTS
 62
     0
 48
15.0
100
AcDbPoint
 10
2069.282590099843
 20
5604.022858903177
 30
0.0
  0
POINT
  5
A0C2
330
9B98
100
AcDbEntity
  8
DEFPOINTS
 62
     0
 48
15.0
100
AcDbPoint
 10
2069.282590099843
 20
5484.022858903177
 30
0.0
  0
POINT
  5
A0C3
330
9B98
100
AcDbEntity
  8
DEFPOINTS
 62
     0
 48
15.0
100
AcDbPoint
 10
2188.097015320511
 20
5484.022858903177
 30
0.0
  0
ENDBLK
  5
9BA3
330
9B98
100
AcDbEntity
  8
0
 48
15.0
100
AcDbBlockEnd
  0
ENDSEC
  0
SECTION
  2
ENTITIES
  0
TEXT
  5
944E
330
747D
100
AcDbEntity
  8
0
100
AcDbText
 10
3766.408313412463
 20
206.71887241068
 30
0.0
 40
24.0
  1
三和コンクリート工業株式会社
  7
SANWA
100
AcDbText
  0
LINE
  5
944F
330
747D
100
AcDbEntity
  8
枠
100
AcDbLine
 10
375.0
 20
150.0000000000018
 30
0.0
 11
4305.0
 21
150.0000000000018
 31
0.0
  0
LINE
  5
9450
330
747D
100
AcDbEntity
  8
枠
100
AcDbLine
 10
375.0
 20
3000.0
 30
0.0
 11
4305.0
 21
3000.0
 31
0.0
  0
LINE
  5
9451
330
747D
100
AcDbEntity
  8
0
100
AcDbLine
 10
3202.531914893604
 20
306.0000000000014
 30
0.0
 11
4305.0
 21
306.0000000000014
 31
0.0
  0
LINE
  5
9452
330
747D
100
AcDbEntity
  8
0
 62
     0
100
AcDbLine
 10
3202.531914893604
 20
594.0000000000036
 30
0.0
 11
4305.0
 21
594.0000000000036
 31
0.0
  0
LINE
  5
9453
330
747D
100
AcDbEntity
  8
0
 62
     0
100
AcDbLine
 10
3598.531914893611
 20
402.0000000000027
 30
0.0
 11
4305.0
 21
402.0000000000027
 31
0.0
  0
LINE
  5
9454
330
747D
100
AcDbEntity
  8
0
 62
     0
100
AcDbLine
 10
3598.531914893611
 20
498.0000000000041
 30
0.0
 11
4305.0
 21
498.0000000000041
 31
0.0
  0
MTEXT
  5
9465
330
747D
100
AcDbEntity
  8
寸法引出
  6
ByBlock
 48
15.0
100
AcDbMText
 10
1079.484524336844
 20
1655.89569542376
 30
0.0
 40
30.0
 41
0.0
 71
     5
 72
     1
  1
ﾛｯｸﾋﾟﾝ用ｲﾝｻｰﾄ
  7
SANWA
 73
     1
 44
1.0
1001
ACAD
1000
MTEXTBEGIN
1070
    73
1070
     1
1070
    44
1040
1.0
1070
    74
1070
     0
1000
MTEXTEND
  0
LEADER
  5
9466
330
747D
100
AcDbEntity
  8
寸法引出
 48
15.0
100
AcDbLeader
  3
SANWA
 76
     3
 10
1364.282590099842
 20
1445.776461578135
 30
0.0
 10
1240.667065065763
 20
1628.684134439134
 30
0.0
 10
918.3019836079257
 20
1628.684134439134
 30
0.0
1001
ACAD
1000
DSTYLE
1002
{
1070
   140
1040
2.0
1070
    40
1040
15.0
1070
   147
1040
1.0
1070
    44
1040
0.5
1070
    43
1040
5.0
1070
   178
1070
   256
1070
   177
1070
   256
1070
   176
1070
   256
1070
    41
1040
1.5
1002
}
  0
LINE
  5
9467
330
747D
100
AcDbEntity
  8
枠
100
AcDbLine
 10
375.0
 20
150.0
 30
0.0
 11
375.0
 21
3000.0
 31
0.0
  0
LINE
  5
9468
330
747D
100
AcDbEntity
  8
0
100
AcDbLine
 10
0.0
 20
0.0
 30
0.0
 11
0.0
 21
150.0
 31
0.0
  0
LINE
  5
9469
330
747D
100
AcDbEntity
  8
0
100
AcDbLine
 10
375.0
 20
0.0
 30
0.0
 11
0.0
 21
0.0
 31
0.0
  0
LINE
  5
946A
330
747D
100
AcDbEntity
  8
0
100
AcDbLine
 10
0.0
 20
3150.0
 30
0.0
 11
375.0
 21
3150.0
 31
0.0
  0
LINE
  5
946C
330
747D
100
AcDbEntity
  8
0
100
AcDbLine
 10
0.0
 20
3000.0
 30
0.0
 11
0.0
 21
3150.0
 31
0.0
  0
LINE
  5
946D
330
747D
100
AcDbEntity
  8
0
 48
15.0
100
AcDbLine
 10
2069.282590099843
 20
1555.776461578135
 30
0.0
 11
2069.282590099843
 21
555.7764615781352
 31
0.0
  0
LINE
  5
946E
330
747D
100
AcDbEntity
  8
0
 48
15.0
100
AcDbLine
 10
1329.282590099842
 20
1555.776461578135
 30
0.0
 11
1329.282590099842
 21
555.7764615781352
 31
0.0
  0
LINE
  5
946F
330
747D
100
AcDbEntity
  8
0
 48
15.0
100
AcDbLine
 10
1666.782590099842
 20
1555.776461578135
 30
0.0
 11
1666.782590099842
 21
555.7764615781352
 31
0.0
  0
LINE
  5
9470
330
747D
100
AcDbEntity
  8
0
 48
15.0
100
AcDbLine
 10
1731.782590099842
 20
1555.776461578135
 30
0.0
 11
1731.782590099842
 21
555.7764615781352
 31
0.0
  0
DIMENSION
  5
9471
330
747D
100
AcDbEntity
  8
寸法引出
 48
15.0
100
AcDbDimension
  2
*D210
 10
2219.806304376738
 20
555.7764615781352
 30
0.0
 11
2189.806304376738
 21
1055.776461578135
 31
0.0
 70
    32
 71
     5
 42
1000.0
  3
SANWA
100
AcDbAlignedDimension
 13
2069.282590099843
 23
1555.776461578135
 33
0.0
 14
2069.282590099843
 24
555.7764615781352
 34
0.0
 50
90.0
100
AcDbRotatedDimension
1001
ACAD
1000
DSTYLE
1002
{
1070
   140
1040
2.0
1070
    40
1040
15.0
1070
   147
1040
1.0
1070
    44
1040
0.5
1070
    43
1040
5.0
1070
   178
1070
   256
1070
   177
1070
   256
1070
   176
1070
   256
1070
    41
1040
1.5
1002
}
  0
DIMENSION
  5
9472
330
747D
100
AcDbEntity
  8
寸法引出
 48
15.0
100
AcDbDimension
  2
*D211
 10
1165.173392900417
 20
675.7764615781353
 30
0.0
 11
1135.173392900416
 21
1055.776461578135
 31
0.0
 70
    32
 71
     5
 42
759.9999999999998
  3
SANWA
100
AcDbAlignedDimension
 13
1329.282590099842
 23
1435.776461578135
 33
0.0
 14
1329.282590099842
 24
675.7764615781352
 34
0.0
 50
90.0
100
AcDbRotatedDimension
1001
ACAD
1000
DSTYLE
1002
{
1070
    40
1040
15.0
1070
    41
1040
1.5
1070
    43
1040
5.0
1070
    44
1040
0.5
1070
    75
1070
     1
1070
   140
1040
2.0
1070
   147
1040
1.0
1070
   176
1070
   256
1070
   177
1070
   256
1070
   178
1070
   256
1070
   279
1070
     1
1002
}
  0
LINE
  5
9473
330
747D
100
AcDbEntity
  8
0
  6
CENTER2
 48
10.0
100
AcDbLine
 10
1699.282590099842
 20
1605.776461578135
 30
0.0
 11
1699.282590099842
 21
505.7764615781352
 31
0.0
  0
MTEXT
  5
9474
330
747D
100
AcDbEntity
  8
寸法引出
  6
ByBlock
 48
15.0
100
AcDbMText
 10
2575.263708975581
 20
835.0848634187268
 30
0.0
 40
30.0
 41
0.0
 71
     5
 72
     1
  1
ｸﾞﾚｰﾁﾝｸﾞ65×38×998（細目）
  7
SANWA
 73
     1
 44
1.0
1001
ACAD
1000
MTEXTBEGIN
1070
    73
1070
     1
1070
    44
1040
1.0
1070
    74
1070
     0
1000
MTEXTEND
  0
LEADER
  5
9475
330
747D
100
AcDbEntity
  8
寸法引出
 48
15.0
100
AcDbLeader
  3
SANWA
 76
     2
 10
1712.806828287614
 20
805.0450948004455
 30
0.0
 10
2853.713478962614
 20
805.0450948004455
 30
0.0
1001
ACAD
1000
DSTYLE
1002
{
1070
   140
1040
2.0
1070
    40
1040
15.0
1070
   147
1040
1.0
1070
    44
1040
0.5
1070
    43
1040
5.0
1070
   178
1070
   256
1070
   177
1070
   256
1070
   176
1070
   256
1070
    41
1040
1.5
1002
}
  0
LINE
  5
9476
330
747D
100
AcDbEntity
  8
0
 48
15.0
100
AcDbLine
 10
1329.282590099842
 20
555.7764615781352
 30
0.0
 11
2069.282590099843
 21
555.7764615781352
 31
0.0
  0
DIMENSION
  5
9477
330
747D
100
AcDbEntity
  8
寸法引出
 48
15.0
100
AcDbDimension
  2
*D212
 10
2069.282590099843
 20
380.3743657191062
 30
0.0
 11
1699.282590099842
 21
410.3743657191062
 31
0.0
 70
    32
 71
     5
 42
740.0
  3
SANWA
100
AcDbAlignedDimension
 13
1329.282590099842
 23
555.7764615781352
 33
0.0
 14
2069.282590099843
 24
555.7764615781352
 34
0.0
100
AcDbRotatedDimension
1001
ACAD
1000
DSTYLE
1002
{
1070
   140
1040
2.0
1070
    40
1040
15.0
1070
   147
1040
1.0
1070
    44
1040
0.5
1070
    43
1040
5.0
1070
   178
1070
   256
1070
   177
1070
   256
1070
   176
1070
   256
1070
    41
1040
1.5
1002
}
  0
DIMENSION
  5
9478
330
747D
100
AcDbEntity
  8
寸法引出
 48
15.0
100
AcDbDimension
  2
*D213
 10
2034.282590099842
 20
445.296276491279
 30
0.0
 11
1699.282590099842
 21
475.2962764912791
 31
0.0
 70
    32
 71
     5
 42
670.0
  3
SANWA
100
AcDbAlignedDimension
 13
1364.282590099842
 23
555.7764615781352
 33
0.0
 14
2034.282590099842
 24
555.7764615781352
 34
0.0
100
AcDbRotatedDimension
1001
ACAD
1000
DSTYLE
1002
{
1070
   140
1040
2.0
1070
    40
1040
15.0
1070
   147
1040
1.0
1070
    44
1040
0.5
1070
    43
1040
5.0
1070
   178
1070
   256
1070
   177
1070
   256
1070
   176
1070
   256
1070
    41
1040
1.5
1002
}
  0
DIMENSION
  5
9479
330
747D
100
AcDbEntity
  8
寸法引出
 48
15.0
100
AcDbDimension
  2
*D214
 10
1165.173392900417
 20
555.7764615781353
 30
0.0
 11
1135.173392900416
 21
615.7764615781355
 31
0.0
 70
    32
 71
     5
 42
120.0
  3
SANWA
100
AcDbAlignedDimension
 13
1329.282590099842
 23
675.7764615781352
 33
0.0
 14
1329.282590099842
 24
555.7764615781352
 34
0.0
 50
90.0
100
AcDbRotatedDimension
1001
ACAD
1000
DSTYLE
1002
{
1070
    40
1040
15.0
1070
    41
1040
1.5
1070
    43
1040
5.0
1070
    44
1040
0.5
1070
    75
1070
     1
1070
   140
1040
2.0
1070
   147
1040
1.0
1070
   176
1070
   256
1070
   177
1070
   256
1070
   178
1070
   256
1070
   279
1070
     1
1002
}
  0
DIMENSION
  5
947A
330
747D
100
AcDbEntity
  8
寸法引出
 48
15.0
100
AcDbDimension
  2
*D215
 10
1364.282590099842
 20
445.296276491279
 30
0.0
 11
1346.782590099842
 21
475.2962764912791
 31
0.0
 70
    32
 71
     5
 42
35.0
  3
SANWA
100
AcDbAlignedDimension
 13
1329.282590099842
 23
555.7764615781352
 33
0.0
 14
1364.282590099842
 24
555.7764615781352
 34
0.0
100
AcDbRotatedDimension
1001
ACAD
1000
DSTYLE
1002
{
1070
   140
1040
2.0
1070
    40
1040
15.0
1070
   147
1040
1.0
1070
    44
1040
0.5
1070
    43
1040
5.0
1070
   178
1070
   256
1070
   177
1070
   256
1070
   176
1070
   256
1070
    41
1040
1.5
1002
}
  0
CIRCLE
  5
947B
330
747D
100
AcDbEntity
  8
0
 48
15.0
100
AcDbCircle
 10
1364.282590099842
 20
675.7764615781352
 30
0.0
 40
10.0
  0
DIMENSION
  5
947C
330
747D
100
AcDbEntity
  8
寸法引出
 48
15.0
100
AcDbDimension
  2
*D216
 10
2069.282590099843
 20
445.296276491279
 30
0.0
 11
2051.782590099842
 21
475.2962764912791
 31
0.0
 70
    32
 71
     5
 42
35.0
  3
SANWA
100
AcDbAlignedDimension
 13
2034.282590099842
 23
555.7764615781352
 33
0.0
 14
2069.282590099843
 24
555.7764615781352
 34
0.0
100
AcDbRotatedDimension
1001
ACAD
1000
DSTYLE
1002
{
1070
    40
1040
15.0
1070
    41
1040
1.5
1070
    43
1040
5.0
1070
    44
1040
0.5
1070
    75
1070
     1
1070
   140
1040
2.0
1070
   147
1040
1.0
1070
   176
1070
   256
1070
   177
1070
   256
1070
   178
1070
   256
1070
   279
1070
     1
1002
}
  0
LINE
  5
947D
330
747D
100
AcDbEntity
  8
寸法引出
  6
ByBlock
 48
15.0
100
AcDbLine
 10
2069.282590099843
 20
540.7764615781352
 30
0.0
 11
2069.282590099843
 21
446.8736787375465
 31
0.0
  0
CIRCLE
  5
947E
330
747D
100
AcDbEntity
  8
0
 48
15.0
100
AcDbCircle
 10
2034.282590099842
 20
675.7764615781352
 30
0.0
 40
10.0
  0
TEXT
  5
947F
330
747D
100
AcDbEntity
  8
0
 48
2.0
100
AcDbText
 10
3392.339284911464
 20
558.6411916425954
 30
0.0
 40
24.0
  1
番号
  7
SANWA
100
AcDbText
  0
TEXT
  5
9480
330
747D
100
AcDbEntity
  8
0
 48
2.0
100
AcDbText
 10
3346.741305135573
 20
378.5853012973512
 30
0.0
 40
24.0
  1
1 : 15
  7
SANWA
100
AcDbText
  0
TEXT
  5
9481
330
747D
100
AcDbEntity
  8
0
 48
2.0
100
AcDbText
 10
3326.458873159423
 20
434.3839146702152
 30
0.0
 40
24.0
  1
縮    尺
  7
SANWA
100
AcDbText
  0
TEXT
  5
9482
330
747D
100
AcDbEntity
  8
0
 48
2.0
100
AcDbText
 10
3369.075985825585
 20
277.1357177512964
 30
0.0
 40
24.0
  1
設計
  7
SANWA
100
AcDbText
  0
LINE
  5
9483
330
747D
100
AcDbEntity
  8
0
 62
     0
100
AcDbLine
 10
3202.531914893604
 20
270.0000000000018
 30
0.0
 11
3598.531914893611
 21
270.0000000000018
 31
0.0
  0
LINE
  5
9484
330
747D
100
AcDbEntity
  8
0
 62
     0
100
AcDbLine
 10
3202.531914893604
 20
426.0000000000031
 30
0.0
 11
3598.531914893611
 21
426.0000000000031
 31
0.0
  0
LINE
  5
9485
330
747D
100
AcDbEntity
  8
0
 62
     0
100
AcDbLine
 10
3202.531914893604
 20
474.0000000000036
 30
0.0
 11
3598.531914893611
 21
474.0000000000036
 31
0.0
  0
LINE
  5
9486
330
747D
100
AcDbEntity
  8
0
 62
     0
100
AcDbLine
 10
3202.531914893604
 20
546.0000000000031
 30
0.0
 11
3598.531914893611
 21
546.0000000000031
 31
0.0
  0
LINE
  5
9487
330
747D
100
AcDbEntity
  8
0
 62
     0
100
AcDbLine
 10
3202.531914893604
 20
546.0000000000031
 30
0.0
 11
3598.531914893611
 21
546.0000000000031
 31
0.0
  0
LINE
  5
9488
330
747D
100
AcDbEntity
  8
0
 62
     0
100
AcDbLine
 10
3202.531914893604
 20
342.0000000000027
 30
0.0
 11
3598.531914893611
 21
342.0000000000027
 31
0.0
  0
TEXT
  5
9489
330
747D
100
AcDbEntity
  8
0
 48
2.0
100
AcDbText
 10
3388.972302949391
 20
313.2513790084822
 30
0.0
 40
24.0
  1
2000.3.29
  7
SANWA
100
AcDbText
  0
TEXT
  5
948A
102
{ACAD_REACTORS
330
948E
102
}
330
747D
100
AcDbEntity
  8
0
 48
2.0
100
AcDbText
 10
3423.685385233716
 20
46.9478827426451
 30
0.0
 40
24.0
  1
嶋
  7
SANWA
100
AcDbText
  0
TEXT
  5
948B
102
{ACAD_REACTORS
330
948E
102
}
330
747D
100
AcDbEntity
  8
0
 48
2.0
100
AcDbText
 10
3424.249755796504
 20
80.9186938288767
 30
0.0
 40
24.0
  1
大
  7
SANWA
100
AcDbText
  0
CIRCLE
  5
948C
102
{ACAD_REACTORS
330
948E
102
}
330
747D
100
AcDbEntity
  8
0
100
AcDbCircle
 10
3440.808049969283
 20
72.91679629800182
 30
0.0
 40
45.58512634354756
  0
CIRCLE
  5
948D
102
{ACAD_REACTORS
330
948E
102
}
330
747D
100
AcDbEntity
  8
0
100
AcDbCircle
 10
3440.808049969283
 20
72.91679629800182
 30
0.0
 40
47.98512634354756
  0
HATCH
  5
948E
330
747D
100
AcDbEntity
  8
0
100
AcDbHatch
 10
0.0
 20
0.0
 30
0.0
210
0.0
220
0.0
230
1.0
  2
SOLID
 70
     1
 71
     1
 91
        4
 92
        7
 72
     1
 73
     1
 93
        2
 10
3488.79317631283
 20
72.91679629800182
 42
1.0
 10
3392.822923625735
 20
72.91679629800182
 42
1.0
 97
        1
330
948D
 92
       22
 72
     1
 73
     1
 93
        2
 10
3486.39317631283
 20
72.91679629800182
 42
1.0
 10
3395.222923625735
 20
72.91679629800182
 42
1.0
 97
        1
330
948C
 92
      136
 93
        4
 72
     1
 10
3416.638327225075
 20
71.11297954316242
 11
3466.969755796503
 21
71.11297954316242
 72
     1
 10
3466.969755796503
 20
71.11297954316242
 11
3466.969755796503
 21
116.7815509717338
 72
     1
 10
3466.969755796503
 20
116.7815509717338
 11
3416.638327225075
 21
116.7815509717338
 72
     1
 10
3416.638327225075
 20
116.7815509717338
 11
3416.638327225075
 21
71.11297954316242
 97
        1
330
948B
 92
      136
 93
        4
 72
     1
 10
3415.696813805144
 20
35.3935970283594
 11
3466.782528090858
 21
35.3935970283594
 72
     1
 10
3466.782528090858
 20
35.3935970283594
 11
3466.782528090858
 21
83.32502559978797
 72
     1
 10
3466.782528090858
 20
83.32502559978797
 11
3415.696813805144
 21
83.32502559978797
 72
     1
 10
3415.696813805144
 20
83.32502559978797
 11
3415.696813805144
 21
35.3935970283594
 97
        1
330
948A
 75
     0
 76
     1
 47
0.0602706122334892
 98
        2
 10
3463.7983358356
 20
114.1660473987804
 10
3463.7983358356
 20
114.1660473987804
  0
LINE
  5
948F
330
747D
100
AcDbEntity
  8
0
100
AcDbLine
 10
3202.531914893604
 20
594.0000000000036
 30
0.0
 11
3202.531914893604
 21
522.0000000000027
 31
0.0
  0
LINE
  5
9490
330
747D
100
AcDbEntity
  8
0
100
AcDbLine
 10
3202.531914893604
 20
342.0000000000027
 30
0.0
 11
3202.531914893604
 21
306.0000000000014
 31
0.0
  0
LINE
  5
9491
330
747D
100
AcDbEntity
  8
0
100
AcDbLine
 10
3334.531914893605
 20
150.0000000000018
 30
0.0
 11
3334.531914893605
 21
342.0000000000027
 31
0.0
  0
LINE
  5
9492
330
747D
100
AcDbEntity
  8
0
100
AcDbLine
 10
3202.531914893604
 20
378.0000000000023
 30
0.0
 11
3202.531914893604
 21
299.9351497097659
 31
0.0
  0
LINE
  5
9493
330
747D
100
AcDbEntity
  8
0
 62
     0
100
AcDbLine
 10
3202.531914893604
 20
378.0000000000023
 30
0.0
 11
3202.531914893604
 21
150.0000000000018
 31
0.0
  0
CIRCLE
  5
9494
102
{ACAD_REACTORS
330
9496
102
}
330
747D
100
AcDbEntity
  8
0
100
AcDbCircle
 10
3271.393652783633
 20
209.6730343627801
 30
0.0
 40
47.98512634354756
  0
CIRCLE
  5
9495
102
{ACAD_REACTORS
330
9496
102
}
330
747D
100
AcDbEntity
  8
0
100
AcDbCircle
 10
3271.393652783633
 20
209.6730343627801
 30
0.0
 40
45.58512634354756
  0
HATCH
  5
9496
330
747D
100
AcDbEntity
  8
0
100
AcDbHatch
 10
0.0
 20
0.0
 30
0.0
210
0.0
220
0.0
230
1.0
  2
SOLID
 70
     1
 71
     1
 91
        2
 92
        7
 72
     1
 73
     1
 93
        2
 10
3319.37877912718
 20
209.6730343627801
 42
1.0
 10
3223.408526440085
 20
209.6730343627801
 42
1.0
 97
        1
330
9494
 92
       22
 72
     1
 73
     1
 93
        2
 10
3316.978779127179
 20
209.6730343627801
 42
1.0
 10
3225.808526440085
 20
209.6730343627801
 42
1.0
 97
        1
330
9495
 75
     0
 76
     1
 47
0.0602706122334892
 98
        2
 10
3294.383938649941
 20
250.9222854635582
 10
3294.383938649941
 20
250.9222854635582
  0
TEXT
  5
9497
330
747D
100
AcDbEntity
  8
0
 48
2.0
100
AcDbText
 10
3231.216179933126
 20
275.7717951156465
 30
0.0
 40
24.0
  1
検図
  7
SANWA
100
AcDbText
  0
TEXT
  5
9498
330
747D
100
AcDbEntity
  8
0
 48
2.0
100
AcDbText
 10
3254.270988048065
 20
178.8732655360522
 30
0.0
 40
24.0
  1
口
  7
SANWA
100
AcDbText
  0
TEXT
  5
9499
330
747D
100
AcDbEntity
  8
0
 48
2.0
100
AcDbText
 10
3254.835358610853
 20
212.8440766222821
 30
0.0
 40
24.0
  1
河
  7
SANWA
100
AcDbText
  0
TEXT
  5
949A
102
{ACAD_REACTORS
330
949D
102
}
330
747D
100
AcDbEntity
  8
0
 48
2.0
100
AcDbText
 10
3302.289654268228
 20
43.08129504455883
 30
0.0
 40
24.0
  1
田
  7
SANWA
100
AcDbText
  0
CIRCLE
  5
949B
102
{ACAD_REACTORS
330
949D
102
}
330
747D
100
AcDbEntity
  8
0
100
AcDbCircle
 10
3319.412319003783
 20
72.91679629800182
 30
0.0
 40
47.98512634354756
  0
CIRCLE
  5
949C
102
{ACAD_REACTORS
330
949D
102
}
330
747D
100
AcDbEntity
  8
0
100
AcDbCircle
 10
3319.412319003783
 20
72.91679629800182
 30
0.0
 40
45.58512634354756
  0
HATCH
  5
949D
330
747D
100
AcDbEntity
  8
0
100
AcDbHatch
 10
0.0
 20
0.0
 30
0.0
210
0.0
220
0.0
230
1.0
  2
SOLID
 70
     1
 71
     1
 91
        4
 92
        7
 72
     1
 73
     1
 93
        2
 10
3367.39744534733
 20
72.91679629800182
 42
1.0
 10
3271.427192660235
 20
72.91679629800182
 42
1.0
 97
        1
330
949B
 92
       22
 72
     1
 73
     1
 93
        2
 10
3364.99744534733
 20
72.91679629800182
 42
1.0
 10
3273.827192660235
 20
72.91679629800182
 42
1.0
 97
        1
330
949C
 92
      136
 93
        4
 72
     1
 10
3294.934024831004
 20
68.28126186921346
 11
3345.882596259575
 21
68.28126186921346
 72
     1
 10
3345.882596259575
 20
68.28126186921346
 11
3345.882596259575
 21
115.8012618692135
 72
     1
 10
3345.882596259575
 20
115.8012618692135
 11
3294.934024831004
 21
115.8012618692135
 72
     1
 10
3294.934024831004
 20
115.8012618692135
 11
3294.934024831004
 21
68.28126186921346
 97
        1
330
949E
 92
       24
 93
        4
 72
     1
 10
3295.123939982514
 20
32.62415218741598
 11
3344.563939982514
 21
32.62415218741598
 72
     1
 10
3344.563939982514
 20
32.62415218741598
 11
3344.563939982514
 21
75.61843790170168
 72
     1
 10
3344.563939982514
 20
75.61843790170168
 11
3295.123939982514
 21
75.61843790170168
 72
     1
 10
3295.123939982514
 20
75.61843790170168
 11
3295.123939982514
 21
32.62415218741598
 97
        1
330
949A
 75
     0
 76
     1
 47
0.0602706122334892
 98
        2
 10
3342.402604870091
 20
114.1660473987804
 10
3342.402604870091
 20
114.1660473987804
  0
TEXT
  5
949E
102
{ACAD_REACTORS
330
949D
102
}
330
747D
100
AcDbEntity
  8
0
 48
2.0
100
AcDbText
 10
3302.854024831004
 20
79.6298332977849
 30
0.0
 40
24.0
  1
蒔
  7
SANWA
100
AcDbText
  0
LINE
  5
949F
330
747D
100
AcDbEntity
  8
0
100
AcDbLine
 10
3202.531914893604
 20
402.0000000000027
 30
0.0
 11
3202.531914893604
 21
436.0565675878984
 31
0.0
  0
LINE
  5
94A0
330
747D
100
AcDbEntity
  8
0
100
AcDbLine
 10
3202.531914893604
 20
436.0565675878984
 30
0.0
 11
3202.531914893604
 21
529.2701469420904
 31
0.0
  0
LINE
  5
94A1
330
747D
100
AcDbEntity
  8
0
 62
     0
100
AcDbLine
 10
3202.531914893604
 20
522.0000000000027
 30
0.0
 11
3202.531914893604
 21
378.0000000000023
 31
0.0
  0
LINE
  5
94A2
330
747D
100
AcDbEntity
  8
0
100
AcDbLine
 10
3202.531914893604
 20
342.0000000000027
 30
0.0
 11
3202.531914893604
 21
378.0000000000023
 31
0.0
  0
TEXT
  5
94A3
330
747D
100
AcDbEntity
  8
0
 48
2.0
100
AcDbText
 10
3325.407362835249
 20
557.2772861648263
 30
0.0
 40
24.0
  1
図面
  7
SANWA
100
AcDbText
  0
TEXT
  5
94A4
330
747D
100
AcDbEntity
  8
0
 48
2.0
100
AcDbText
 10
3234.749396044363
 20
313.2513790084822
 30
0.0
 40
24.0
  1
製図
  7
SANWA
100
AcDbText
  0
LINE
  5
94A5
330
747D
100
AcDbEntity
  8
0
100
AcDbLine
 10
3646.531914893607
 20
306.0000000000014
 30
0.0
 11
3646.531914893607
 21
594.0000000000036
 31
0.0
  0
LINE
  5
94A6
330
747D
100
AcDbEntity
  8
0
100
AcDbLine
 10
3598.531914893611
 20
150.0000000000018
 30
0.0
 11
3598.531914893611
 21
594.0000000000036
 31
0.0
  0
TEXT
  5
94A7
330
747D
100
AcDbEntity
  8
0
100
AcDbText
 10
3800.223100303954
 20
534.0000000000031
 30
0.0
 40
24.0
  1
マルチスリット側溝蓋
  7
SANWA
 72
     4
 11
3975.765957446811
 21
546.0000000000031
 31
0.0
100
AcDbText
  0
ARC
  5
94A8
330
747D
100
AcDbEntity
  8
0
100
AcDbCircle
 10
3680.136214331806
 20
223.2088158088008
 30
0.0
 40
43.86378893304791
100
AcDbArc
 50
138.136495447086
 51
266.8635045529183
  0
ARC
  5
94A9
330
747D
100
AcDbEntity
  8
0
100
AcDbCircle
 10
3680.136214331806
 20
223.2088158088008
 30
0.0
 40
41.46378893304791
100
AcDbArc
 50
141.6476737862055
 51
263.3523262138002
  0
TEXT
  5
94AA
330
747D
100
AcDbEntity
  8
0
 48
2.0
100
AcDbText
 10
3498.749396044368
 20
277.2513790084827
 30
0.0
 40
24.0
  1
製図
  7
SANWA
100
AcDbText
  0
TEXT
  5
94AB
102
{ACAD_REACTORS
330
94AF
102
}
330
747D
100
AcDbEntity
  8
0
 48
2.0
100
AcDbText
 10
3518.077492889756
 20
185.3130163787968
 30
0.0
 40
24.0
  1
川
  7
SANWA
100
AcDbText
  0
CIRCLE
  5
94AC
102
{ACAD_REACTORS
330
94AF
102
}
330
747D
100
AcDbEntity
  8
0
100
AcDbCircle
 10
3535.200157625322
 20
211.2819299341536
 30
0.0
 40
47.98512634354756
  0
CIRCLE
  5
94AD
102
{ACAD_REACTORS
330
94AF
102
}
330
747D
100
AcDbEntity
  8
0
100
AcDbCircle
 10
3535.200157625322
 20
211.2819299341536
 30
0.0
 40
45.58512634354756
  0
TEXT
  5
94AE
102
{ACAD_REACTORS
330
94AF
102
}
330
747D
100
AcDbEntity
  8
0
 48
2.0
100
AcDbText
 10
3518.641863452531
 20
219.2838274650285
 30
0.0
 40
24.0
  1
中
  7
SANWA
100
AcDbText
  0
HATCH
  5
94AF
330
747D
100
AcDbEntity
  8
0
100
AcDbHatch
 10
0.0
 20
0.0
 30
0.0
210
0.0
220
0.0
230
1.0
  2
SOLID
 70
     1
 71
     1
 91
        4
 92
        7
 72
     1
 73
     1
 93
        2
 10
3583.18528396887
 20
211.2819299341536
 42
1.0
 10
3487.215031281775
 20
211.2819299341536
 42
1.0
 97
        1
330
94AC
 92
       22
 72
     1
 73
     1
 93
        2
 10
3580.78528396887
 20
211.2819299341536
 42
1.0
 10
3489.615031281775
 20
211.2819299341536
 42
1.0
 97
        1
330
94AD
 92
      136
 93
        4
 72
     1
 10
3510.65329202396
 20
207.3181131793142
 11
3561.739006309674
 21
207.3181131793142
 72
     1
 10
3561.739006309674
 20
207.3181131793142
 11
3561.739006309674
 21
255.2495417507428
 72
     1
 10
3561.739006309674
 20
255.2495417507428
 11
3510.65329202396
 21
255.2495417507428
 72
     1
 10
3510.65329202396
 20
255.2495417507428
 11
3510.65329202396
 21
207.3181131793142
 97
        1
330
94AE
 92
      136
 93
        4
 72
     1
 10
3510.568921461184
 20
174.9244449502254
 11
3560.694635746898
 21
174.9244449502254
 72
     1
 10
3560.694635746898
 20
174.9244449502254
 11
3560.694635746898
 21
219.975873521654
 72
     1
 10
3560.694635746898
 20
219.975873521654
 11
3510.568921461184
 21
219.975873521654
 72
     1
 10
3510.568921461184
 20
219.975873521654
 11
3510.568921461184
 21
174.9244449502254
 97
        1
330
94AB
 75
     0
 76
     1
 47
0.0602706122334892
 98
        2
 10
3558.19044349164
 20
252.5311810349322
 10
3558.19044349164
 20
252.5311810349322
  0
LINE
  5
94B0
330
747D
100
AcDbEntity
  8
0
100
AcDbLine
 10
3466.531914893607
 20
150.0000000000018
 30
0.0
 11
3466.531914893607
 21
306.0000000000014
 31
0.0
  0
LINE
  5
94B1
330
747D
100
AcDbEntity
  8
0
100
AcDbLine
 10
3708.376255375803
 20
244.6606317534051
 30
0.0
 11
3712.652533122477
 21
248.9369095000866
 31
0.0
  0
LINE
  5
94B2
330
747D
100
AcDbEntity
  8
0
100
AcDbLine
 10
3701.588030276413
 20
251.4488568527968
 30
0.0
 11
3705.864308023087
 21
255.7251345994782
 31
0.0
  0
LINE
  5
94B3
330
747D
100
AcDbEntity
  8
0
100
AcDbLine
 10
3701.75711399877
 20
248.2238280254664
 30
0.0
 11
3709.409078783056
 21
255.8757928097593
 31
0.0
  0
LINE
  5
94B4
330
747D
100
AcDbEntity
  8
0
100
AcDbLine
 10
3705.151226548463
 20
244.8297154757715
 30
0.0
 11
3712.803191332766
 21
252.4816802600626
 31
0.0
  0
LINE
  5
94B5
330
747D
100
AcDbEntity
  8
0
100
AcDbLine
 10
3658.684398387199
 20
251.4488568527968
 30
0.0
 11
3654.408120640525
 21
255.7251345994764
 31
0.0
  0
LINE
  5
94B6
330
747D
100
AcDbEntity
  8
0
100
AcDbLine
 10
3651.896173287809
 20
244.6606317534051
 30
0.0
 11
3647.619895541135
 21
248.9369095000866
 31
0.0
  0
LINE
  5
94B7
330
747D
100
AcDbEntity
  8
0
100
AcDbLine
 10
3655.121202115134
 20
244.8297154757715
 30
0.0
 11
3647.422775453855
 21
252.5281421370473
 31
0.0
  0
LINE
  5
94B8
330
747D
100
AcDbEntity
  8
0
100
AcDbLine
 10
3658.515314664828
 20
248.2238280254664
 30
0.0
 11
3650.816888003552
 21
255.9222546867423
 31
0.0
  0
TEXT
  5
94B9
330
747D
100
AcDbEntity
  8
0
100
AcDbText
 10
3666.709002834926
 20
230.6320916026407
 30
0.0
 40
18.0
  1
三
  7
SANWA
100
AcDbText
  0
ARC
  5
94BA
330
747D
100
AcDbEntity
  8
0
100
AcDbCircle
 10
3680.136214331806
 20
223.2088158088008
 30
0.0
 40
43.86378893304791
100
AcDbArc
 50
48.13649544707415
 51
131.8635045529259
  0
ARC
  5
94BB
330
747D
100
AcDbEntity
  8
0
100
AcDbCircle
 10
3680.136214331806
 20
223.2088158088008
 30
0.0
 40
41.46378893304791
100
AcDbArc
 50
51.64767378620888
 51
128.3523262137916
  0
ARC
  5
94BC
330
747D
100
AcDbEntity
  8
0
100
AcDbCircle
 10
3680.136214331806
 20
223.2088158088008
 30
0.0
 40
35.46378893304791
100
AcDbArc
 50
52.77882031189539
 51
127.2211796881046
  0
ARC
  5
94BD
330
747D
100
AcDbEntity
  8
0
100
AcDbCircle
 10
3680.136214331806
 20
223.2088158088008
 30
0.0
 40
33.06378893304791
100
AcDbArc
 50
49.16258741112231
 51
130.8374125888779
  0
LINE
  5
94BE
330
747D
100
AcDbEntity
  8
0
100
AcDbLine
 10
3675.33621433181
 20
182.0237967765802
 30
0.0
 11
3675.33621433181
 21
188.0713667624081
 31
0.0
  0
LINE
  5
94BF
330
747D
100
AcDbEntity
  8
0
100
AcDbLine
 10
3684.936214331801
 20
182.0237967765802
 30
0.0
 11
3684.936214331801
 21
188.0713667624081
 31
0.0
  0
LINE
  5
94C0
330
747D
100
AcDbEntity
  8
0
100
AcDbLine
 10
3682.536214331804
 20
179.4107338923181
 30
0.0
 11
3682.536214331804
 21
190.2322462690636
 31
0.0
  0
LINE
  5
94C1
330
747D
100
AcDbEntity
  8
0
100
AcDbLine
 10
3677.736214331808
 20
179.4107338923181
 30
0.0
 11
3677.736214331808
 21
190.2322462690617
 31
0.0
  0
HATCH
  5
94C2
330
747D
100
AcDbEntity
  8
0
100
AcDbHatch
 10
0.0
 20
0.0
 30
0.0
210
0.0
220
0.0
230
1.0
  2
SOLID
 70
     1
 71
     0
 91
        6
 92
        7
 72
     1
 73
     1
 93
        4
 10
3650.86334988054
 20
255.8757928097543
 42
0.0
 10
3658.515314664832
 20
248.2238280254633
 42
-0.3722683533228807
 10
3701.757113998773
 20
248.2238280254692
 42
0.0
 10
3709.40907878306
 20
255.8757928097644
 42
0.3824979940289912
 97
        0
 92
       22
 72
     1
 73
     1
 93
        4
 10
3705.864308023088
 20
255.7251345994791
 42
0.0
 10
3701.588030276412
 20
251.4488568527954
 42
0.3367429548951287
 10
3658.6843983872
 20
251.4488568527954
 42
0.0
 10
3654.408120640523
 20
255.7251345994782
 42
-0.3477704275230651
 97
        0
 92
        7
 72
     1
 73
     1
 93
        4
 10
3705.151226548468
 20
244.8297154757756
 42
-0.6168583269100142
 10
3682.536214331804
 20
190.2322462690636
 42
0.0
 10
3682.536214331804
 20
179.4107338923177
 42
0.6292889159379672
 10
3712.803191332763
 20
252.4816802600613
 42
0.0
 97
        0
 92
       22
 72
     1
 73
     1
 93
        4
 10
3712.652533122478
 20
248.9369095000884
 42
-0.587310490888974
 10
3684.936214331801
 20
182.0237967765802
 42
0.0
 10
3684.936214331801
 20
188.0713667624086
 42
0.5741105922167652
 10
3708.376255375803
 20
244.6606317534047
 42
0.0
 97
        0
 92
        7
 72
     1
 73
     1
 93
        4
 10
3647.469237330844
 20
252.4816802600576
 42
0.6292889159379327
 10
3677.736214331808
 20
179.4107338923177
 42
0.0
 10
3677.736214331808
 20
190.2322462690631
 42
-0.6168583269099111
 10
3655.121202115137
 20
244.8297154757679
 42
0.0
 97
        0
 92
       22
 72
     1
 73
     1
 93
        4
 10
3651.896173287809
 20
244.6606317534047
 42
0.5741105922167668
 10
3675.33621433181
 20
188.0713667624086
 42
0.0
 10
3675.33621433181
 20
182.0237967765802
 42
-0.5873104908889788
 10
3647.619895541133
 20
248.9369095000884
 42
0.0
 97
        0
 75
     0
 76
     1
 47
0.0143554168026844
 98
        6
 10
3699.348496783976
 20
260.8853257705127
 10
3699.348496783976
 20
260.8853257705127
 10
3708.313957346865
 20
246.9318614530635
 10
3708.313957346865
 20
246.9318614530635
 10
3652.969453356039
 20
246.4150661606036
 10
3652.969453356039
 20
246.4150661606036
  0
TEXT
  5
94C3
330
747D
100
AcDbEntity
  8
0
100
AcDbText
 10
3666.709002834926
 20
206.71887241068
 30
0.0
 40
18.0
  1
和
  7
SANWA
100
AcDbText
  0
ARC
  5
94C4
330
747D
100
AcDbEntity
  8
0
100
AcDbCircle
 10
3680.136214331806
 20
223.2088158088008
 30
0.0
 40
41.46378893304791
100
AcDbArc
 50
276.6476737861998
 51
38.35232621379456
  0
ARC
  5
94C5
330
747D
100
AcDbEntity
  8
0
100
AcDbCircle
 10
3680.136214331806
 20
223.2088158088008
 30
0.0
 40
43.86378893304791
100
AcDbArc
 50
273.1364954470817
 51
41.86350455291424
  0
ARC
  5
94C6
330
747D
100
AcDbEntity
  8
0
100
AcDbCircle
 10
3680.136214331806
 20
223.2088158088008
 30
0.0
 40
35.46378893304791
100
AcDbArc
 50
277.7788203119047
 51
37.22117968810881
  0
ARC
  5
94C7
330
747D
100
AcDbEntity
  8
0
100
AcDbCircle
 10
3680.136214331806
 20
223.2088158088008
 30
0.0
 40
33.06378893304791
100
AcDbArc
 50
274.1625874111327
 51
40.83741258887877
  0
ARC
  5
94C8
330
747D
100
AcDbEntity
  8
0
100
AcDbCircle
 10
3680.136214331806
 20
223.2088158088008
 30
0.0
 40
33.06378893304791
100
AcDbArc
 50
139.1625874111213
 51
265.8374125888738
  0
ARC
  5
94C9
330
747D
100
AcDbEntity
  8
0
100
AcDbCircle
 10
3680.136214331806
 20
223.2088158088008
 30
0.0
 40
35.46378893304791
100
AcDbArc
 50
142.778820311891
 51
262.2211796881018
  0
TEXT
  5
94CA
330
747D
100
AcDbEntity
  8
0
 48
2.0
100
AcDbText
 10
3608.833038597699
 20
520.9962632445931
 30
0.0
 40
16.79999999999999
  1
名
  7
SANWA
100
AcDbText
  0
TEXT
  5
94CB
330
747D
100
AcDbEntity
  8
0
 48
2.0
100
AcDbText
 10
3609.743097260976
 20
560.3768966870493
 30
0.0
 40
16.79999999999999
  1
品
  7
SANWA
100
AcDbText
  0
TEXT
  5
94CC
330
747D
100
AcDbEntity
  8
0
 48
2.0
100
AcDbText
 10
3609.288067929338
 20
360.6846153128759
 30
0.0
 40
16.79999999999999
  1
規
  7
SANWA
100
AcDbText
  0
TEXT
  5
94CD
330
747D
100
AcDbEntity
  8
0
 48
2.0
100
AcDbText
 10
3608.865365864922
 20
419.9263485547308
 30
0.0
 40
16.79999999999999
  1
名
  7
SANWA
100
AcDbText
  0
TEXT
  5
94CE
330
747D
100
AcDbEntity
  8
0
 48
2.0
100
AcDbText
 10
3608.525134886844
 20
443.4326160008049
 30
0.0
 40
16.79999999999999
  1
び
  7
SANWA
100
AcDbText
  0
TEXT
  5
94CF
330
747D
100
AcDbEntity
  8
0
 48
2.0
100
AcDbText
 10
3608.76342530841
 20
466.4348193000683
 30
0.0
 40
16.79999999999999
  1
呼
  7
SANWA
100
AcDbText
  0
TEXT
  5
94D0
330
747D
100
AcDbEntity
  8
0
 48
2.0
100
AcDbText
 10
3609.288067929338
 20
324.9410917409396
 30
0.0
 40
16.79999999999999
  1
格
  7
SANWA
100
AcDbText
  0
TEXT
  5
94D1
330
747D
100
AcDbEntity
  8
0
100
AcDbText
 10
3905.548814589668
 20
341.588571428575
 30
0.0
 40
24.0
  1
６００用
  7
SANWA
 72
     4
 11
3975.765957446811
 21
354.0000000000036
 31
0.0
100
AcDbText
  0
TEXT
  5
94D2
330
747D
100
AcDbEntity
  8
0
100
AcDbText
 10
3940.657386018239
 20
436.6971428571464
 30
0.0
 40
24.0
  1
Ｆ型
  7
SANWA
 72
     4
 11
3975.765957446811
 21
450.0000000000036
 31
0.0
100
AcDbText
  0
LINE
  5
94D3
330
747D
100
AcDbEntity
  8
0
100
AcDbLine
 10
3598.531914893611
 20
594.0000000000036
 30
0.0
 11
3621.277272305448
 21
594.0000000000036
 31
0.0
  0
LINE
  5
94D4
330
747D
100
AcDbEntity
  8
0
  6
HIDDEN2
 48
15.0
100
AcDbLine
 10
2565.6319440691
 20
2146.603964298285
 30
0.0
 11
2625.6319440691
 21
2146.603964298284
 31
0.0
  0
TEXT
  5
94D5
330
747D
100
AcDbEntity
  8
0
100
AcDbText
 10
1621.440635305495
 20
2712.987863176665
 30
0.0
 40
42.0
  1
マルチスリット側溝蓋 Ｆ型 ６００用
  7
SANWA
 72
     4
 11
2143.680635305496
 21
2733.987863176665
 31
0.0
100
AcDbText
  0
LINE
  5
94D6
330
747D
100
AcDbEntity
  8
0
100
AcDbLine
 10
1605.403603686135
 20
2688.000000000001
 30
0.0
 11
2953.19727005673
 21
2688.000000000001
 31
0.0
  0
LINE
  5
94D7
330
747D
100
AcDbEntity
  8
0
100
AcDbLine
 10
1605.403603686135
 20
2700.0
 30
0.0
 11
2953.19727005673
 21
2700.0
 31
0.0
  0
DIMENSION
  5
94D8
330
747D
100
AcDbEntity
  8
寸法引出
 48
15.0
100
AcDbDimension
  2
*D217
 10
2655.6319440691
 20
2042.652296701097
 30
0.0
 11
2595.6319440691
 21
2072.652296701097
 31
0.0
 70
    32
 71
     5
 42
120.0
  3
SANWA
100
AcDbAlignedDimension
 13
2535.6319440691
 23
2137.603964298285
 33
0.0
 14
2655.6319440691
 24
2137.603964298285
 34
0.0
100
AcDbRotatedDimension
1001
ACAD
1000
DSTYLE
1002
{
1070
   140
1040
2.0
1070
    40
1040
15.0
1070
   147
1040
1.0
1070
    44
1040
0.5
1070
    43
1040
5.0
1070
   178
1070
   256
1070
   177
1070
   256
1070
   176
1070
   256
1070
    41
1040
1.5
1002
}
  0
LINE
  5
94D9
330
747D
100
AcDbEntity
  8
0
 48
15.0
100
AcDbLine
 10
2535.6319440691
 20
2257.603964298285
 30
0.0
 11
3535.6319440691
 21
2257.603964298285
 31
0.0
  0
LINE
  5
94DA
330
747D
100
AcDbEntity
  8
0
 48
15.0
100
AcDbLine
 10
2535.6319440691
 20
2137.603964298285
 30
0.0
 11
3535.6319440691
 21
2137.603964298285
 31
0.0
  0
DIMENSION
  5
94DB
330
747D
100
AcDbEntity
  8
寸法引出
 48
15.0
100
AcDbDimension
  2
*D218
 10
3535.6319440691
 20
2352.907365663085
 30
0.0
 11
3035.6319440691
 21
2382.907365663085
 31
0.0
 70
    32
 71
     5
 42
1000.0
  3
SANWA
100
AcDbAlignedDimension
 13
2535.6319440691
 23
2257.603964298285
 33
0.0
 14
3535.6319440691
 24
2257.603964298285
 34
0.0
100
AcDbRotatedDimension
1001
ACAD
1000
DSTYLE
1002
{
1070
   140
1040
2.0
1070
    40
1040
15.0
1070
   147
1040
1.0
1070
    44
1040
0.5
1070
    43
1040
5.0
1070
   178
1070
   256
1070
   177
1070
   256
1070
   176
1070
   256
1070
    41
1040
1.5
1002
}
  0
LINE
  5
94DC
330
747D
100
AcDbEntity
  8
0
  6
HIDDEN2
 48
15.0
100
AcDbLine
 10
2535.631944069101
 20
2219.603964298284
 30
0.0
 11
3535.6319440691
 21
2219.603964298285
 31
0.0
  0
DIMENSION
  5
94DD
330
747D
100
AcDbEntity
  8
寸法引出
 48
15.0
100
AcDbDimension
  2
*D219
 10
1666.782590099842
 20
2340.011950650374
 30
0.0
 11
1498.032590099842
 21
2370.011950650374
 31
0.0
 70
    32
 71
     5
 42
337.5
  3
SANWA
100
AcDbAlignedDimension
 13
1329.282590099842
 23
2257.603964298285
 33
0.0
 14
1666.782590099842
 24
2257.603964298285
 34
0.0
100
AcDbRotatedDimension
1001
ACAD
1000
DSTYLE
1002
{
1070
   140
1040
2.0
1070
    40
1040
15.0
1070
   147
1040
1.0
1070
    44
1040
0.5
1070
    43
1040
5.0
1070
   178
1070
   256
1070
   177
1070
   256
1070
   176
1070
   256
1070
    41
1040
1.5
1002
}
  0
DIMENSION
  5
94DE
330
747D
100
AcDbEntity
  8
寸法引出
 48
15.0
100
AcDbDimension
  2
*D220
 10
1731.782590099842
 20
2340.011950650374
 30
0.0
 11
1699.282590099842
 21
2370.011950650374
 31
0.0
 70
    32
 71
     5
 42
65.0
  3
SANWA
100
AcDbAlignedDimension
 13
1666.782590099842
 23
2257.603964298285
 33
0.0
 14
1731.782590099842
 24
2257.603964298285
 34
0.0
100
AcDbRotatedDimension
1001
ACAD
1000
DSTYLE
1002
{
1070
    40
1040
15.0
1070
    41
1040
1.5
1070
    43
1040
5.0
1070
    44
1040
0.5
1070
    75
1070
     1
1070
   140
1040
2.0
1070
   147
1040
1.0
1070
   176
1070
   256
1070
   177
1070
   256
1070
   178
1070
   256
1070
   279
1070
     1
1002
}
  0
DIMENSION
  5
94DF
330
747D
100
AcDbEntity
  8
寸法引出
 48
15.0
100
AcDbDimension
  2
*D221
 10
2069.282590099843
 20
2398.77680270103
 30
0.0
 11
1699.282590099842
 21
2428.77680270103
 31
0.0
 70
    32
 71
     5
 42
740.0
  3
SANWA
100
AcDbAlignedDimension
 13
1329.282590099842
 23
2257.603964298285
 33
0.0
 14
2069.282590099843
 24
2257.603964298285
 34
0.0
100
AcDbRotatedDimension
1001
ACAD
1000
DSTYLE
1002
{
1070
   140
1040
2.0
1070
    40
1040
15.0
1070
   147
1040
1.0
1070
    44
1040
0.5
1070
    43
1040
5.0
1070
   178
1070
   256
1070
   177
1070
   256
1070
   176
1070
   256
1070
    41
1040
1.5
1002
}
  0
DIMENSION
  5
94E0
330
747D
100
AcDbEntity
  8
寸法引出
 48
15.0
100
AcDbDimension
  2
*D222
 10
2069.282590099843
 20
2340.011950650374
 30
0.0
 11
1900.532590099842
 21
2370.011950650374
 31
0.0
 70
    32
 71
     5
 42
337.5
  3
SANWA
100
AcDbAlignedDimension
 13
1731.782590099842
 23
2257.603964298285
 33
0.0
 14
2069.282590099843
 24
2257.603964298285
 34
0.0
100
AcDbRotatedDimension
1001
ACAD
1000
DSTYLE
1002
{
1070
    40
1040
15.0
1070
    41
1040
1.5
1070
    43
1040
5.0
1070
    44
1040
0.5
1070
    75
1070
     1
1070
   140
1040
2.0
1070
   147
1040
1.0
1070
   176
1070
   256
1070
   177
1070
   256
1070
   178
1070
   256
1070
   279
1070
     1
1002
}
  0
LINE
  5
94E1
330
747D
100
AcDbEntity
  8
0
 48
15.0
100
AcDbLine
 10
2069.282590099843
 20
2257.603964298285
 30
0.0
 11
1731.782590099842
 21
2257.603964298285
 31
0.0
  0
LINE
  5
94E2
330
747D
100
AcDbEntity
  8
0
 48
15.0
100
AcDbLine
 10
1747.282590099842
 20
2137.603964298285
 30
0.0
 11
2069.282590099843
 21
2137.603964298285
 31
0.0
  0
DIMENSION
  5
94E3
330
747D
100
AcDbEntity
  8
寸法引出
 48
15.0
100
AcDbDimension
  2
*D223
 10
2069.282590099843
 20
1983.631318854553
 30
0.0
 11
1908.282590099842
 21
2013.631318854553
 31
0.0
 70
    32
 71
     5
 42
322.0
  3
SANWA
100
AcDbAlignedDimension
 13
1747.282590099842
 23
2137.603964298285
 33
0.0
 14
2069.282590099843
 24
2137.603964298285
 34
0.0
100
AcDbRotatedDimension
1001
ACAD
1000
DSTYLE
1002
{
1070
   140
1040
2.0
1070
    40
1040
15.0
1070
   147
1040
1.0
1070
    44
1040
0.5
1070
    43
1040
5.0
1070
   178
1070
   256
1070
   177
1070
   256
1070
   176
1070
   256
1070
    41
1040
1.5
1002
}
  0
LINE
  5
94E4
330
747D
100
AcDbEntity
  8
0
 48
15.0
100
AcDbLine
 10
1329.282590099842
 20
1555.776461578135
 30
0.0
 11
2069.282590099843
 21
1555.776461578135
 31
0.0
  0
DIMENSION
  5
94E5
330
747D
100
AcDbEntity
  8
寸法引出
 48
15.0
100
AcDbDimension
  2
*D224
 10
2069.282590099843
 20
1663.435510376952
 30
0.0
 11
1900.532590099842
 21
1693.435510376952
 31
0.0
 70
    32
 71
     5
 42
337.5
  3
SANWA
100
AcDbAlignedDimension
 13
1731.782590099842
 23
1555.776461578135
 33
0.0
 14
2069.282590099843
 24
1555.776461578135
 34
0.0
100
AcDbRotatedDimension
1001
ACAD
1000
DSTYLE
1002
{
1070
    40
1040
15.0
1070
    41
1040
1.5
1070
    43
1040
5.0
1070
    44
1040
0.5
1070
    75
1070
     1
1070
   140
1040
2.0
1070
   147
1040
1.0
1070
   176
1070
   256
1070
   177
1070
   256
1070
   178
1070
   256
1070
   279
1070
     1
1002
}
  0
DIMENSION
  5
94E6
330
747D
100
AcDbEntity
  8
寸法引出
 48
15.0
100
AcDbDimension
  2
*D225
 10
1666.782590099842
 20
1663.435510376952
 30
0.0
 11
1498.032590099842
 21
1693.435510376952
 31
0.0
 70
    32
 71
     5
 42
337.5
  3
SANWA
100
AcDbAlignedDimension
 13
1329.282590099842
 23
1555.776461578135
 33
0.0
 14
1666.782590099842
 24
1555.776461578135
 34
0.0
100
AcDbRotatedDimension
1001
ACAD
1000
DSTYLE
1002
{
1070
   140
1040
2.0
1070
    40
1040
15.0
1070
   147
1040
1.0
1070
    44
1040
0.5
1070
    43
1040
5.0
1070
   178
1070
   256
1070
   177
1070
   256
1070
   176
1070
   256
1070
    41
1040
1.5
1002
}
  0
CIRCLE
  5
94E7
330
747D
100
AcDbEntity
  8
0
 48
15.0
100
AcDbCircle
 10
1364.282590099842
 20
1435.776461578135
 30
0.0
 40
10.0
  0
DIMENSION
  5
94E8
330
747D
100
AcDbEntity
  8
寸法引出
 48
15.0
100
AcDbDimension
  2
*D226
 10
1165.173392900417
 20
1435.776461578135
 30
0.0
 11
1135.173392900416
 21
1495.776461578135
 31
0.0
 70
    32
 71
     5
 42
120.0
  3
SANWA
100
AcDbAlignedDimension
 13
1329.282590099842
 23
1555.776461578135
 33
0.0
 14
1329.282590099842
 24
1435.776461578135
 34
0.0
 50
90.0
100
AcDbRotatedDimension
1001
ACAD
1000
DSTYLE
1002
{
1070
   140
1040
2.0
1070
    40
1040
15.0
1070
   147
1040
1.0
1070
    44
1040
0.5
1070
    43
1040
5.0
1070
   178
1070
   256
1070
   177
1070
   256
1070
   176
1070
   256
1070
    41
1040
1.5
1002
}
  0
DIMENSION
  5
94E9
330
747D
100
AcDbEntity
  8
寸法引出
 48
15.0
100
AcDbDimension
  2
*D227
 10
1731.782590099842
 20
1663.435510376952
 30
0.0
 11
1699.282590099842
 21
1693.435510376952
 31
0.0
 70
    32
 71
     5
 42
65.0
  3
SANWA
100
AcDbAlignedDimension
 13
1666.782590099842
 23
1555.776461578135
 33
0.0
 14
1731.782590099842
 24
1555.776461578135
 34
0.0
100
AcDbRotatedDimension
1001
ACAD
1000
DSTYLE
1002
{
1070
    40
1040
15.0
1070
    41
1040
1.5
1070
    43
1040
5.0
1070
    44
1040
0.5
1070
    75
1070
     1
1070
   140
1040
2.0
1070
   147
1040
1.0
1070
   176
1070
   256
1070
   177
1070
   256
1070
   178
1070
   256
1070
   279
1070
     1
1002
}
  0
LINE
  5
94EA
330
747D
100
AcDbEntity
  8
0
 48
15.0
100
AcDbLine
 10
1329.282590099842
 20
2137.603964298285
 30
0.0
 11
1651.282590099842
 21
2137.603964298285
 31
0.0
  0
LINE
  5
94EB
330
747D
100
AcDbEntity
  8
0
 48
15.0
100
AcDbLine
 10
1329.282590099842
 20
2257.603964298285
 30
0.0
 11
1666.782590099842
 21
2257.603964298285
 31
0.0
  0
DIMENSION
  5
94EC
330
747D
100
AcDbEntity
  8
寸法引出
 48
15.0
100
AcDbDimension
  2
*D228
 10
1651.282590099842
 20
1983.631318854553
 30
0.0
 11
1490.282590099842
 21
2013.631318854553
 31
0.0
 70
    32
 71
     5
 42
322.0
  3
SANWA
100
AcDbAlignedDimension
 13
1329.282590099842
 23
2137.603964298285
 33
0.0
 14
1651.282590099842
 24
2137.603964298285
 34
0.0
100
AcDbRotatedDimension
1001
ACAD
1000
DSTYLE
1002
{
1070
   140
1040
2.0
1070
    40
1040
15.0
1070
   147
1040
1.0
1070
    44
1040
0.5
1070
    43
1040
5.0
1070
   178
1070
   256
1070
   177
1070
   256
1070
   176
1070
   256
1070
    41
1040
1.5
1002
}
  0
LINE
  5
94ED
330
747D
100
AcDbEntity
  8
0
  6
HIDDEN2
 48
5.0
100
AcDbLine
 10
1354.282590099842
 20
2137.603964298285
 30
0.0
 11
1354.282590099842
 21
2170.603964298285
 31
0.0
  0
LINE
  5
94EE
330
747D
100
AcDbEntity
  8
0
  6
HIDDEN2
 48
5.0
100
AcDbLine
 10
1374.282590099842
 20
2137.603964298285
 30
0.0
 11
1374.282590099842
 21
2170.603964298285
 31
0.0
  0
LINE
  5
94EF
330
747D
100
AcDbEntity
  8
0
  6
HIDDEN2
 48
5.0
100
AcDbLine
 10
1354.282590099842
 20
2170.603964298285
 30
0.0
 11
1374.282590099842
 21
2170.603964298285
 31
0.0
  0
POINT
  5
94F0
330
747D
100
AcDbEntity
  8
DEFPOINTS
  6
ByBlock
 62
     0
 48
15.0
100
AcDbPoint
 10
1364.282590099842
 20
2137.603964298285
 30
0.0
  0
POINT
  5
94F1
330
747D
100
AcDbEntity
  8
DEFPOINTS
  6
ByBlock
 62
     0
 48
15.0
100
AcDbPoint
 10
1329.282590099842
 20
2137.603964298285
 30
0.0
  0
LINE
  5
94F2
330
747D
100
AcDbEntity
  8
0
 48
15.0
100
AcDbLine
 10
1329.282590099842
 20
2137.603964298285
 30
0.0
 11
1329.282590099842
 21
2257.603964298285
 31
0.0
  0
LINE
  5
94F3
330
747D
100
AcDbEntity
  8
寸法引出
  6
ByBlock
 48
15.0
100
AcDbLine
 10
1386.782590099842
 20
2046.369484310268
 30
0.0
 11
1409.282590099842
 21
2046.369484310268
 31
0.0
  0
SOLID
  5
94F4
330
747D
100
AcDbEntity
  8
寸法引出
  6
ByBlock
 48
15.0
100
AcDbTrace
 10
1386.782590099842
 20
2050.119484310268
 30
0.0
 11
1386.782590099842
 21
2042.619484310268
 31
0.0
 12
1364.282590099842
 22
2046.369484310268
 32
0.0
 13
1364.282590099842
 23
2046.369484310268
 33
0.0
  0
POINT
  5
94F5
330
747D
100
AcDbEntity
  8
寸法引出
  6
ByBlock
 62
     0
 48
15.0
100
AcDbPoint
 10
1364.282590099842
 20
2046.369484310268
 30
0.0
  0
LINE
  5
94F6
330
747D
100
AcDbEntity
  8
寸法引出
  6
ByBlock
 48
15.0
100
AcDbLine
 10
1306.782590099842
 20
2046.369484310268
 30
0.0
 11
1284.282590099842
 21
2046.369484310268
 31
0.0
  0
SOLID
  5
94F7
330
747D
100
AcDbEntity
  8
寸法引出
  6
ByBlock
 48
15.0
100
AcDbTrace
 10
1306.782590099842
 20
2050.119484310268
 30
0.0
 11
1306.782590099842
 21
2042.619484310268
 31
0.0
 12
1329.282590099842
 22
2046.369484310268
 32
0.0
 13
1329.282590099842
 23
2046.369484310268
 33
0.0
  0
LINE
  5
94F8
330
747D
100
AcDbEntity
  8
寸法引出
  6
ByBlock
 48
15.0
100
AcDbLine
 10
1329.282590099842
 20
2046.369484310268
 30
0.0
 11
1364.282590099842
 21
2046.369484310268
 31
0.0
  0
LINE
  5
94F9
330
747D
100
AcDbEntity
  8
寸法引出
  6
ByBlock
 48
15.0
100
AcDbLine
 10
1329.282590099842
 20
2122.603964298285
 30
0.0
 11
1329.282590099842
 21
2038.869484310268
 31
0.0
  0
LINE
  5
94FA
330
747D
100
AcDbEntity
  8
寸法引出
  6
ByBlock
 48
15.0
100
AcDbLine
 10
1364.282590099842
 20
2122.603964298285
 30
0.0
 11
1364.282590099842
 21
2038.869484310268
 31
0.0
  0
MTEXT
  5
94FB
330
747D
100
AcDbEntity
  8
寸法引出
  6
ByBlock
 48
15.0
100
AcDbMText
 10
1302.13107445336
 20
2076.369484310268
 30
0.0
 40
30.0
 41
0.0
 71
     5
 72
     1
  1
\A1;35
  7
SANWA
 73
     1
 44
1.0
1001
ACAD
1000
MTEXTBEGIN
1070
    73
1070
     1
1070
    44
1040
1.0
1070
    74
1070
     0
1000
MTEXTEND
  0
DIMENSION
  5
94FC
330
747D
100
AcDbEntity
  8
寸法引出
 48
15.0
100
AcDbDimension
  2
*D229
 10
1747.282590099842
 20
1983.631318854553
 30
0.0
 11
1699.282590099842
 21
2013.631318854553
 31
0.0
 70
    32
 71
     5
 42
96.0
  3
SANWA
100
AcDbAlignedDimension
 13
1651.282590099842
 23
2137.603964298285
 33
0.0
 14
1747.282590099842
 24
2137.603964298285
 34
0.0
100
AcDbRotatedDimension
1001
ACAD
1000
DSTYLE
1002
{
1070
   140
1040
2.0
1070
    40
1040
15.0
1070
   147
1040
1.0
1070
    44
1040
0.5
1070
    43
1040
5.0
1070
   178
1070
   256
1070
   177
1070
   256
1070
   176
1070
   256
1070
    41
1040
1.5
1002
}
  0
DIMENSION
  5
94FD
330
747D
100
AcDbEntity
  8
寸法引出
 48
15.0
100
AcDbDimension
  2
*D230
 10
1627.331590149837
 20
2217.303964298285
 30
0.0
 11
1597.331590149837
 21
2218.453964298285
 31
0.0
 70
    32
 71
     5
 42
2.299999999999272
  3
SANWA
100
AcDbAlignedDimension
 13
1666.782590099842
 23
2219.603964298284
 33
0.0
 14
1656.282590099842
 24
2217.303964298285
 34
0.0
 50
90.0
100
AcDbRotatedDimension
1001
ACAD
1000
DSTYLE
1002
{
1070
   140
1040
2.0
1070
    40
1040
15.0
1070
   147
1040
1.0
1070
    44
1040
0.5
1070
    43
1040
5.0
1070
   178
1070
   256
1070
   177
1070
   256
1070
   176
1070
   256
1070
    41
1040
1.5
1002
}
  0
LINE
  5
94FE
330
747D
100
AcDbEntity
  8
0
 48
15.0
100
AcDbLine
 10
1731.782590099842
 20
2257.603964298285
 30
0.0
 11
1731.782590099842
 21
2219.603964298284
 31
0.0
  0
LINE
  5
94FF
330
747D
100
AcDbEntity
  8
0
 48
15.0
100
AcDbLine
 10
1666.782590099842
 20
2257.603964298285
 30
0.0
 11
1666.782590099842
 21
2219.603964298284
 31
0.0
  0
LINE
  5
9500
330
747D
100
AcDbEntity
  8
0
 48
15.0
100
AcDbLine
 10
1666.782590099842
 20
2257.603964298285
 30
0.0
 11
1731.782590099842
 21
2257.603964298285
 31
0.0
  0
LINE
  5
9501
330
747D
100
AcDbEntity
  8
0
 48
15.0
100
AcDbLine
 10
1666.782590099842
 20
2219.603964298284
 30
0.0
 11
1731.782590099842
 21
2219.603964298284
 31
0.0
  0
LINE
  5
9502
330
747D
100
AcDbEntity
  8
0
 48
15.0
100
AcDbLine
 10
1656.282590099842
 20
2217.303964298285
 30
0.0
 11
1742.282590099842
 21
2217.303964298285
 31
0.0
  0
LINE
  5
9503
330
747D
100
AcDbEntity
  8
0
 48
15.0
100
AcDbLine
 10
1666.782590099842
 20
2257.603964298285
 30
0.0
 11
1731.782590099842
 21
2219.603964298284
 31
0.0
  0
LINE
  5
9504
330
747D
100
AcDbEntity
  8
0
 48
15.0
100
AcDbLine
 10
1731.782590099842
 20
2257.603964298285
 30
0.0
 11
1666.782590099842
 21
2219.603964298284
 31
0.0
  0
POINT
  5
9505
330
747D
100
AcDbEntity
  8
DEFPOINTS
  6
ByBlock
 62
     0
 48
15.0
100
AcDbPoint
 10
1746.733809612037
 20
2146.603964298285
 30
0.0
  0
POINT
  5
9506
330
747D
100
AcDbEntity
  8
DEFPOINTS
  6
ByBlock
 62
     0
 48
15.0
100
AcDbPoint
 10
1747.282590099842
 20
2137.603964298285
 30
0.0
  0
LINE
  5
9507
330
747D
100
AcDbEntity
  8
寸法引出
  6
ByBlock
 48
15.0
100
AcDbLine
 10
1710.309484854069
 20
2115.103964298285
 30
0.0
 11
1710.309484854069
 21
2092.603964298285
 31
0.0
  0
LINE
  5
9508
330
747D
100
AcDbEntity
  8
寸法引出
  6
ByBlock
 48
15.0
100
AcDbLine
 10
1710.309484854069
 20
2146.603964298285
 30
0.0
 11
1710.309484854069
 21
2137.603964298285
 31
0.0
  0
SOLID
  5
9509
330
747D
100
AcDbEntity
  8
寸法引出
  6
ByBlock
 48
15.0
100
AcDbTrace
 10
1706.559484854069
 20
2169.103964298285
 30
0.0
 11
1714.05948485407
 21
2169.103964298285
 31
0.0
 12
1710.309484854069
 22
2146.603964298285
 32
0.0
 13
1710.309484854069
 23
2146.603964298285
 33
0.0
  0
SOLID
  5
950A
330
747D
100
AcDbEntity
  8
寸法引出
  6
ByBlock
 48
15.0
100
AcDbTrace
 10
1706.559484854069
 20
2115.103964298285
 30
0.0
 11
1714.05948485407
 21
2115.103964298285
 31
0.0
 12
1710.309484854069
 22
2137.603964298285
 32
0.0
 13
1710.309484854069
 23
2137.603964298285
 33
0.0
  0
MTEXT
  5
950B
330
747D
100
AcDbEntity
  8
寸法引出
  6
ByBlock
 48
15.0
100
AcDbMText
 10
1680.309484854069
 20
2125.455696538562
 30
0.0
 40
30.0
 41
0.0
 71
     5
 72
     1
  1
\A1;9
  7
SANWA
 11
0.0000000000000001
 21
1.0
 31
0.0
 73
     1
 44
1.0
1001
ACAD
1000
MTEXTBEGIN
1070
    73
1070
     1
1070
    44
1040
1.0
1070
    74
1070
     0
1000
MTEXTEND
  0
POINT
  5
950C
330
747D
100
AcDbEntity
  8
寸法引出
  6
ByBlock
 62
     0
 48
15.0
100
AcDbPoint
 10
1710.309484854069
 20
2137.603964298285
 30
0.0
  0
LINE
  5
950D
330
747D
100
AcDbEntity
  8
0
 48
15.0
100
AcDbLine
 10
1651.831370587647
 20
2146.603964298285
 30
0.0
 11
1746.733809612037
 21
2146.603964298285
 31
0.0
  0
LINE
  5
950E
330
747D
100
AcDbEntity
  8
寸法引出
  6
ByBlock
 48
15.0
100
AcDbLine
 10
1731.733809612038
 20
2146.603964298285
 30
0.0
 11
1702.80948485407
 21
2146.603964298285
 31
0.0
  0
LINE
  5
950F
330
747D
100
AcDbEntity
  8
寸法引出
  6
ByBlock
 48
15.0
100
AcDbLine
 10
1732.282590099842
 20
2137.603964298285
 30
0.0
 11
1702.80948485407
 21
2137.603964298285
 31
0.0
  0
LINE
  5
9510
330
747D
100
AcDbEntity
  8
0
 48
15.0
100
AcDbLine
 10
1656.282590099842
 20
2217.303964298285
 30
0.0
 11
1651.282590099842
 21
2137.603964298285
 31
0.0
  0
LINE
  5
9511
330
747D
100
AcDbEntity
  8
0
 48
15.0
100
AcDbLine
 10
1742.282590099842
 20
2217.303964298285
 30
0.0
 11
1747.282590099842
 21
2137.603964298285
 31
0.0
  0
LINE
  5
9512
330
747D
100
AcDbEntity
  8
寸法引出
  6
ByBlock
 48
15.0
100
AcDbLine
 10
1710.309484854069
 20
2169.103964298285
 30
0.0
 11
1710.309484854069
 21
2191.603964298284
 31
0.0
  0
DIMENSION
  5
9513
330
747D
100
AcDbEntity
  8
寸法引出
 48
15.0
100
AcDbDimension
  2
*D231
 10
1742.282590099842
 20
2046.103961025009
 30
0.0
 11
1699.282590099842
 21
2076.103961025009
 31
0.0
 70
    32
 71
     5
 42
86.0
  3
SANWA
100
AcDbAlignedDimension
 13
1656.282590099842
 23
2146.603964298285
 33
0.0
 14
1742.282590099842
 24
2146.603964298285
 34
0.0
100
AcDbRotatedDimension
1001
ACAD
1000
DSTYLE
1002
{
1070
   140
1040
2.0
1070
    40
1040
15.0
1070
   147
1040
1.0
1070
    44
1040
0.5
1070
    43
1040
5.0
1070
   178
1070
   256
1070
   177
1070
   256
1070
   176
1070
   256
1070
    41
1040
1.5
1002
}
  0
CIRCLE
  5
9514
330
747D
100
AcDbEntity
  8
0
 48
15.0
100
AcDbCircle
 10
2034.282590099842
 20
1435.776461578135
 30
0.0
 40
10.0
  0
SOLID
  5
9515
330
747D
100
AcDbEntity
  8
寸法引出
  6
ByBlock
 48
15.0
100
AcDbTrace
 10
2011.782590099842
 20
2050.119484310268
 30
0.0
 11
2011.782590099842
 21
2042.619484310268
 31
0.0
 12
2034.282590099842
 22
2046.369484310268
 32
0.0
 13
2034.282590099842
 23
2046.369484310268
 33
0.0
  0
LINE
  5
9516
330
747D
100
AcDbEntity
  8
寸法引出
  6
ByBlock
 48
15.0
100
AcDbLine
 10
2011.782590099842
 20
2046.369484310268
 30
0.0
 11
1989.282590099842
 21
2046.369484310268
 31
0.0
  0
POINT
  5
9517
330
747D
100
AcDbEntity
  8
寸法引出
  6
ByBlock
 62
     0
 48
15.0
100
AcDbPoint
 10
2172.442249869743
 20
2257.603964298285
 30
0.0
  0
LINE
  5
9518
330
747D
100
AcDbEntity
  8
寸法引出
  6
ByBlock
 48
15.0
100
AcDbLine
 10
2084.282590099842
 20
2257.603964298285
 30
0.0
 11
2179.942249869743
 21
2257.603964298285
 31
0.0
  0
LINE
  5
9519
330
747D
100
AcDbEntity
  8
0
  6
HIDDEN2
 48
5.0
100
AcDbLine
 10
2024.282590099842
 20
2170.603964298285
 30
0.0
 11
2044.282590099843
 21
2170.603964298285
 31
0.0
  0
LINE
  5
951A
330
747D
100
AcDbEntity
  8
0
  6
HIDDEN2
 48
5.0
100
AcDbLine
 10
2024.282590099842
 20
2137.603964298285
 30
0.0
 11
2024.282590099842
 21
2170.603964298285
 31
0.0
  0
LINE
  5
951B
330
747D
100
AcDbEntity
  8
0
  6
HIDDEN2
 48
5.0
100
AcDbLine
 10
2044.282590099843
 20
2137.603964298285
 30
0.0
 11
2044.282590099843
 21
2170.603964298285
 31
0.0
  0
POINT
  5
951C
330
747D
100
AcDbEntity
  8
DEFPOINTS
  6
ByBlock
 62
     0
 48
15.0
100
AcDbPoint
 10
2034.282590099842
 20
2137.603964298285
 30
0.0
  0
LINE
  5
951D
330
747D
100
AcDbEntity
  8
寸法引出
  6
ByBlock
 48
15.0
100
AcDbLine
 10
2084.282590099842
 20
2137.603964298285
 30
0.0
 11
2179.942249869743
 21
2137.603964298285
 31
0.0
  0
LINE
  5
951E
330
747D
100
AcDbEntity
  8
0
 48
15.0
100
AcDbLine
 10
2069.282590099843
 20
2137.603964298285
 30
0.0
 11
2069.282590099843
 21
2257.603964298285
 31
0.0
  0
DIMENSION
  5
951F
330
747D
100
AcDbEntity
  8
寸法引出
 48
15.0
100
AcDbDimension
  2
*D232
 10
2188.097015320511
 20
2137.603964298285
 30
0.0
 11
2158.09701532051
 21
2197.603964298285
 31
0.0
 70
    32
 71
     5
 42
120.0
  3
SANWA
100
AcDbAlignedDimension
 13
2069.282590099843
 23
2257.603964298285
 33
0.0
 14
2069.282590099843
 24
2137.603964298285
 34
0.0
 50
90.0
100
AcDbRotatedDimension
1001
ACAD
1000
DSTYLE
1002
{
1070
   140
1040
2.0
1070
    40
1040
15.0
1070
   147
1040
1.0
1070
    44
1040
0.5
1070
    43
1040
5.0
1070
   178
1070
   256
1070
   177
1070
   256
1070
   176
1070
   256
1070
    41
1040
1.5
1002
}
  0
LINE
  5
9520
330
747D
100
AcDbEntity
  8
寸法引出
  6
ByBlock
 48
15.0
100
AcDbLine
 10
2091.782590099843
 20
2046.369484310268
 30
0.0
 11
2114.282590099842
 21
2046.369484310268
 31
0.0
  0
LINE
  5
9521
330
747D
100
AcDbEntity
  8
寸法引出
  6
ByBlock
 48
15.0
100
AcDbLine
 10
2034.282590099842
 20
2046.369484310268
 30
0.0
 11
2069.282590099843
 21
2046.369484310268
 31
0.0
  0
SOLID
  5
9522
330
747D
100
AcDbEntity
  8
寸法引出
  6
ByBlock
 48
15.0
100
AcDbTrace
 10
2091.782590099843
 20
2050.119484310268
 30
0.0
 11
2091.782590099843
 21
2042.619484310268
 31
0.0
 12
2069.282590099843
 22
2046.369484310268
 32
0.0
 13
2069.282590099843
 23
2046.369484310268
 33
0.0
  0
POINT
  5
9523
330
747D
100
AcDbEntity
  8
寸法引出
  6
ByBlock
 62
     0
 48
15.0
100
AcDbPoint
 10
2069.282590099843
 20
2046.369484310268
 30
0.0
  0
LINE
  5
9524
330
747D
100
AcDbEntity
  8
寸法引出
  6
ByBlock
 48
15.0
100
AcDbLine
 10
2034.282590099842
 20
2122.603964298285
 30
0.0
 11
2034.282590099842
 21
2038.869484310268
 31
0.0
  0
LINE
  5
9525
330
747D
100
AcDbEntity
  8
寸法引出
  6
ByBlock
 48
15.0
100
AcDbLine
 10
2069.282590099843
 20
2122.603964298285
 30
0.0
 11
2069.282590099843
 21
2038.869484310268
 31
0.0
  0
MTEXT
  5
9526
330
747D
100
AcDbEntity
  8
寸法引出
  6
ByBlock
 48
15.0
100
AcDbMText
 10
2097.973814352001
 20
2076.369484310268
 30
0.0
 40
30.0
 41
0.0
 71
     5
 72
     1
  1
\A1;35
  7
SANWA
 73
     1
 44
1.0
1001
ACAD
1000
MTEXTBEGIN
1070
    73
1070
     1
1070
    44
1040
1.0
1070
    74
1070
     0
1000
MTEXTEND
  0
LINE
  5
9527
330
747D
100
AcDbEntity
  8
0
  6
HIDDEN2
 48
15.0
100
AcDbLine
 10
2560.6319440691
 20
2219.603964298284
 30
0.0
 11
2565.6319440691
 21
2146.603964298285
 31
0.0
  0
LINE
  5
9528
330
747D
100
AcDbEntity
  8
0
 48
15.0
100
AcDbLine
 10
2535.6319440691
 20
2137.603964298285
 30
0.0
 11
2535.6319440691
 21
2257.603964298285
 31
0.0
  0
TEXT
  5
9529
330
747D
100
AcDbEntity
  8
0
100
AcDbText
 10
2029.57636224786
 20
2621.805475386291
 30
0.0
 40
42.0
  1
グレーチング細目
  7
SANWA
 72
     4
 11
2275.33636224786
 21
2644.125475386291
 31
0.0
100
AcDbText
  0
DIMENSION
  5
952A
330
747D
100
AcDbEntity
  8
寸法引出
 48
15.0
100
AcDbDimension
  2
*D233
 10
3535.6319440691
 20
2042.652296701097
 30
0.0
 11
3475.6319440691
 21
2072.652296701097
 31
0.0
 70
    32
 71
     5
 42
120.0
  3
SANWA
100
AcDbAlignedDimension
 13
3415.6319440691
 23
2137.603964298285
 33
0.0
 14
3535.6319440691
 24
2137.603964298285
 34
0.0
100
AcDbRotatedDimension
1001
ACAD
1000
DSTYLE
1002
{
1070
    40
1040
15.0
1070
    41
1040
1.5
1070
    43
1040
5.0
1070
    44
1040
0.5
1070
    75
1070
     1
1070
   140
1040
2.0
1070
   147
1040
1.0
1070
   176
1070
   256
1070
   177
1070
   256
1070
   178
1070
   256
1070
   279
1070
     1
1002
}
  0
DIMENSION
  5
952B
330
747D
100
AcDbEntity
  8
寸法引出
 48
15.0
100
AcDbDimension
  2
*D234
 10
3415.6319440691
 20
2042.652296701097
 30
0.0
 11
3035.6319440691
 21
2072.652296701097
 31
0.0
 70
    32
 71
     5
 42
760.0
  3
SANWA
100
AcDbAlignedDimension
 13
2655.6319440691
 23
2137.603964298285
 33
0.0
 14
3415.6319440691
 24
2137.603964298285
 34
0.0
100
AcDbRotatedDimension
1001
ACAD
1000
DSTYLE
1002
{
1070
    40
1040
15.0
1070
    41
1040
1.5
1070
    43
1040
5.0
1070
    44
1040
0.5
1070
    75
1070
     1
1070
   140
1040
2.0
1070
   147
1040
1.0
1070
   176
1070
   256
1070
   177
1070
   256
1070
   178
1070
   256
1070
   279
1070
     1
1002
}
  0
LINE
  5
952C
330
747D
100
AcDbEntity
  8
0
  6
HIDDEN2
 48
15.0
100
AcDbLine
 10
2625.6319440691
 20
2146.603964298284
 30
0.0
 11
2630.631944069099
 21
2219.603964298284
 31
0.0
  0
LINE
  5
952D
330
747D
100
AcDbEntity
  8
0
  6
HIDDEN2
 48
5.0
100
AcDbLine
 10
2645.6319440691
 20
2137.603964298285
 30
0.0
 11
2645.6319440691
 21
2170.603964298285
 31
0.0
  0
LINE
  5
952E
330
747D
100
AcDbEntity
  8
0
  6
HIDDEN2
 48
5.0
100
AcDbLine
 10
2665.6319440691
 20
2137.603964298285
 30
0.0
 11
2665.6319440691
 21
2170.603964298285
 31
0.0
  0
LINE
  5
952F
330
747D
100
AcDbEntity
  8
0
  6
HIDDEN2
 48
5.0
100
AcDbLine
 10
2645.6319440691
 20
2170.603964298285
 30
0.0
 11
2665.6319440691
 21
2170.603964298285
 31
0.0
  0
LINE
  5
9530
330
747D
100
AcDbEntity
  8
0
  6
HIDDEN2
 48
15.0
100
AcDbLine
 10
2918.6319440691
 20
2146.603964298284
 30
0.0
 11
2923.6319440691
 21
2219.603964298284
 31
0.0
  0
LINE
  5
9531
330
747D
100
AcDbEntity
  8
0
  6
HIDDEN2
 48
15.0
100
AcDbLine
 10
2853.6319440691
 20
2219.603964298284
 30
0.0
 11
2858.6319440691
 21
2146.603964298285
 31
0.0
  0
LINE
  5
9532
330
747D
100
AcDbEntity
  8
0
  6
HIDDEN2
 48
15.0
100
AcDbLine
 10
2858.6319440691
 20
2146.603964298285
 30
0.0
 11
2918.6319440691
 21
2146.603964298284
 31
0.0
  0
LINE
  5
9533
330
747D
100
AcDbEntity
  8
0
  6
HIDDEN2
 48
15.0
100
AcDbLine
 10
3147.6319440691
 20
2219.603964298285
 30
0.0
 11
3152.6319440691
 21
2146.603964298285
 31
0.0
  0
LINE
  5
9534
330
747D
100
AcDbEntity
  8
0
  6
HIDDEN2
 48
15.0
100
AcDbLine
 10
3212.6319440691
 20
2146.603964298285
 30
0.0
 11
3217.6319440691
 21
2219.603964298285
 31
0.0
  0
LINE
  5
9535
330
747D
100
AcDbEntity
  8
0
  6
HIDDEN2
 48
15.0
100
AcDbLine
 10
3152.6319440691
 20
2146.603964298285
 30
0.0
 11
3212.6319440691
 21
2146.603964298285
 31
0.0
  0
LINE
  5
9536
330
747D
100
AcDbEntity
  8
0
  6
HIDDEN2
 48
5.0
100
AcDbLine
 10
3405.6319440691
 20
2170.603964298285
 30
0.0
 11
3425.631944069101
 21
2170.603964298285
 31
0.0
  0
LINE
  5
9537
330
747D
100
AcDbEntity
  8
0
  6
HIDDEN2
 48
5.0
100
AcDbLine
 10
3405.6319440691
 20
2137.603964298285
 30
0.0
 11
3405.6319440691
 21
2170.603964298285
 31
0.0
  0
LINE
  5
9538
330
747D
100
AcDbEntity
  8
0
  6
HIDDEN2
 48
5.0
100
AcDbLine
 10
3425.631944069099
 20
2137.603964298285
 30
0.0
 11
3425.631944069099
 21
2170.603964298285
 31
0.0
  0
DIMENSION
  5
9539
330
747D
100
AcDbEntity
  8
寸法引出
 48
15.0
100
AcDbDimension
  2
*D235
 10
3635.028837182114
 20
2137.603964298285
 30
0.0
 11
3605.028837182113
 21
2197.603964298286
 31
0.0
 70
    32
 71
     5
 42
120.0
  3
SANWA
100
AcDbAlignedDimension
 13
3535.6319440691
 23
2257.603964298285
 33
0.0
 14
3535.6319440691
 24
2137.603964298285
 34
0.0
 50
90.0
100
AcDbRotatedDimension
1001
ACAD
1000
DSTYLE
1002
{
1070
   140
1040
2.0
1070
    40
1040
15.0
1070
   147
1040
1.0
1070
    44
1040
0.5
1070
    43
1040
5.0
1070
   178
1070
   256
1070
   177
1070
   256
1070
   176
1070
   256
1070
    41
1040
1.5
1002
}
  0
LINE
  5
953A
330
747D
100
AcDbEntity
  8
0
  6
HIDDEN2
 48
15.0
100
AcDbLine
 10
3505.631944069099
 20
2146.603964298285
 30
0.0
 11
3510.631944069099
 21
2219.603964298285
 31
0.0
  0
LINE
  5
953B
330
747D
100
AcDbEntity
  8
0
  6
HIDDEN2
 48
15.0
100
AcDbLine
 10
3440.631944069099
 20
2219.603964298285
 30
0.0
 11
3445.631944069099
 21
2146.603964298285
 31
0.0
  0
LINE
  5
953C
330
747D
100
AcDbEntity
  8
0
  6
HIDDEN2
 48
15.0
100
AcDbLine
 10
3445.631944069099
 20
2146.603964298285
 30
0.0
 11
3505.631944069099
 21
2146.603964298285
 31
0.0
  0
LINE
  5
953D
330
747D
100
AcDbEntity
  8
0
 48
15.0
100
AcDbLine
 10
3535.6319440691
 20
2137.603964298285
 30
0.0
 11
3535.6319440691
 21
2257.603964298285
 31
0.0
  0
TEXT
  5
953F
330
747D
100
AcDbEntity
  8
0
100
AcDbText
 10
2734.428337808731
 20
2716.913577462379
 30
0.0
 40
36.0
  1
W=219㎏
  7
SANWA
 72
     4
 11
2826.588337808731
 21
2733.987863176665
 31
0.0
100
AcDbText
  0
LINE
  5
968C
330
747D
100
AcDbEntity
  8
枠
100
AcDbLine
 10
4305.0
 20
150.0
 30
0.0
 11
4305.0
 21
3000.0
 31
0.0
  0
LINE
  5
968D
330
747D
100
AcDbEntity
  8
0
100
AcDbLine
 10
4455.0
 20
150.0
 30
0.0
 11
4455.0
 21
0.0
 31
0.0
  0
LINE
  5
968E
330
747D
100
AcDbEntity
  8
0
100
AcDbLine
 10
4455.0
 20
0.0
 30
0.0
 11
4305.0
 21
0.0
 31
0.0
  0
LINE
  5
9690
330
747D
100
AcDbEntity
  8
0
100
AcDbLine
 10
4305.0
 20
3150.0
 30
0.0
 11
4455.0
 21
3150.0
 31
0.0
  0
LINE
  5
9691
330
747D
100
AcDbEntity
  8
0
100
AcDbLine
 10
4455.0
 20
3150.0
 30
0.0
 11
4455.0
 21
3000.0
 31
0.0
  0
VIEWPORT
  5
7540
102
{ACAD_XDICTIONARY
360
A23F
102
}
330
747A
100
AcDbEntity
 67
     1
  8
0
100
AcDbViewport
 10
4944.071918455135
 20
-586.820762458396
 30
0.0
 40
10375.17740785569
 41
7404.807756488591
 68
     1
 69
     1
 12
4944.071918455135
 22
-586.820762458396
 13
0.0
 23
0.0
 14
10.0
 24
10.0
 15
10.0
 25
10.0
 16
0.0
 26
0.0
 36
1.0
 17
0.0
 27
0.0
 37
0.0
 42
50.0
 43
0.0
 44
0.0
 45
7404.807756488591
 50
0.0
 51
0.0
 72
   100
 90
    32800
  1

281
     0
 71
     1
 74
     0
110
0.0
120
0.0
130
0.0
111
1.0
121
0.0
131
0.0
112
0.0
122
1.0
132
0.0
 79
     0
146
0.0
  0
TEXT
  5
7737
330
747A
100
AcDbEntity
 67
     1
  8
0
 48
2.0
100
AcDbText
 10
331.871196811185
 20
20.60428158404022
 30
0.0
 40
2.0
  1

  7
SANWA
100
AcDbText
  0
ENDSEC
  0
SECTION
  2
OBJECTS
  0
DICTIONARY
  5
7471
330
0
100
AcDbDictionary
281
     1
  3
ACAD_COLOR
350
9ED8
  3
ACAD_GROUP
350
7472
  3
ACAD_LAYOUT
350
8C68
  3
ACAD_MATERIAL
350
9EAE
  3
ACAD_MLEADERSTYLE
350
9EFD
  3
ACAD_MLINESTYLE
350
7473
  3
ACAD_PLOTSETTINGS
350
8C69
  3
ACAD_PLOTSTYLENAME
350
8C66
  3
ACAD_SCALELIST
350
9EDB
  3
ACAD_TABLESTYLE
350
9ED9
  3
ACAD_VISUALSTYLE
350
9EC7
  3
ACDB_RECOMPOSE_DATA
350
A23D
  3
ACDBVARIABLEDICTIONARY
350
789B
  3
DWGPROPS
350
A23E
  0
DICTIONARY
  5
A20E
330
7474
100
AcDbDictionary
280
     1
281
     1
  3
ADSK_XREC_LAYER_RECONCILED
360
A20F
  0
DICTIONARY
  5
A210
330
7486
100
AcDbDictionary
280
     1
281
     1
  3
ADSK_XREC_LAYER_RECONCILED
360
A211
  0
DICTIONARY
  5
A212
330
7950
100
AcDbDictionary
280
     1
281
     1
  3
ADSK_XREC_LAYER_RECONCILED
360
A213
  0
DICTIONARY
  5
A214
330
7D58
100
AcDbDictionary
280
     1
281
     1
  3
ADSK_XREC_LAYER_RECONCILED
360
A215
  0
DICTIONARY
  5
A216
330
7D59
100
AcDbDictionary
280
     1
281
     1
  3
ADSK_XREC_LAYER_RECONCILED
360
A217
  0
DICTIONARY
  5
A218
330
7D5A
100
AcDbDictionary
280
     1
281
     1
  3
ADSK_XREC_LAYER_RECONCILED
360
A219
  0
DICTIONARY
  5
A23F
330
7540
100
AcDbDictionary
280
     1
281
     1
  3
ACAD_XREC_ROUNDTRIP
360
A240
  0
DICTIONARY
  5
9ED8
102
{ACAD_REACTORS
330
7471
102
}
330
7471
100
AcDbDictionary
281
     1
  0
DICTIONARY
  5
7472
102
{ACAD_REACTORS
330
7471
102
}
330
0
100
AcDbDictionary
281
     1
  0
DICTIONARY
  5
8C68
102
{ACAD_REACTORS
330
7471
102
}
330
7471
100
AcDbDictionary
281
     1
  3
Model
350
8C6A
  3
ﾚｲｱｳﾄ1
350
8C6B
  0
DICTIONARY
  5
9EAE
102
{ACAD_REACTORS
330
7471
102
}
330
7471
100
AcDbDictionary
281
     1
  3
ByBlock
350
9EB7
  3
ByLayer
350
9EAF
  3
Global
350
9EBF
  0
DICTIONARY
  5
9EFD
102
{ACAD_REACTORS
330
7471
102
}
330
7471
100
AcDbDictionary
281
     1
  3
Standard
350
9EFE
  0
DICTIONARY
  5
7473
102
{ACAD_REACTORS
330
7471
102
}
330
0
100
AcDbDictionary
281
     1
  3
STANDARD
350
7480
  0
DICTIONARY
  5
8C69
102
{ACAD_REACTORS
330
7471
102
}
330
7471
100
AcDbDictionary
281
     1
  0
ACDBDICTIONARYWDFLT
  5
8C66
102
{ACAD_REACTORS
330
7471
102
}
330
7471
100
AcDbDictionary
281
     1
  3
Normal
350
8C67
100
AcDbDictionaryWithDefault
340
8C67
  0
DICTIONARY
  5
9EDB
102
{ACAD_REACTORS
330
7471
102
}
330
7471
100
AcDbDictionary
281
     1
  3
A0
350
9EDC
  3
A1
350
9EDD
  3
A2
350
9EDE
  3
A3
350
9EDF
  3
A4
350
9EE0
  3
A5
350
9EE1
  3
A6
350
9EE2
  3
A7
350
9EE3
  3
A8
350
9EE4
  3
A9
350
9EE5
  3
B0
350
9EE6
  3
B1
350
9EE7
  3
B2
350
9EE8
  3
B3
350
9EE9
  3
B4
350
9EEA
  3
B5
350
9EEB
  3
B6
350
9EEC
  3
B7
350
9EED
  3
B8
350
9EEE
  3
B9
350
9EEF
  3
C0
350
9EF0
  3
C1
350
9EF1
  3
C2
350
9EF2
  3
C3
350
9EF3
  3
C4
350
9EF4
  3
C5
350
9EF5
  3
C6
350
9EF6
  3
C7
350
9EF7
  3
C8
350
9EF8
  3
C9
350
9EF9
  3
D0
350
9EFA
  3
D1
350
9EFB
  3
D2
350
9EFC
  0
DICTIONARY
  5
9ED9
102
{ACAD_REACTORS
330
7471
102
}
330
7471
100
AcDbDictionary
281
     1
  3
Standard
350
9EDA
  0
DICTIONARY
  5
9EC7
102
{ACAD_REACTORS
330
7471
102
}
330
7471
100
AcDbDictionary
281
     1
  3
2dWireframe
350
9ECD
  3
3D Hidden
350
9ECF
  3
3dWireframe
350
9ECE
  3
Basic
350
9ECC
  3
Brighten
350
9ED3
  3
ColorChange
350
9ED7
  3
Conceptual
350
9ED0
  3
Dim
350
9ED2
  3
Facepattern
350
9ED6
  3
Flat
350
9EC8
  3
FlatWithEdges
350
9EC9
  3
Gouraud
350
9ECA
  3
GouraudWithEdges
350
9ECB
  3
Linepattern
350
9ED5
  3
Realistic
350
9ED1
  3
Thicken
350
9ED4
  0
XRECORD
  5
A23D
102
{ACAD_REACTORS
330
7471
102
}
330
7471
100
AcDbXrecord
280
     1
 90
        1
330
9EDA
  0
DICTIONARY
  5
789B
102
{ACAD_REACTORS
330
7471
102
}
330
7471
100
AcDbDictionary
281
     1
  3
CANNOSCALE
350
A239
  3
CMLEADERSTYLE
350
A238
  3
CTABLESTYLE
350
A237
  3
DIMASSOC
350
8CEA
  3
INDEXCTL
350
A23A
  3
SORTENTS
350
789C
  0
XRECORD
  5
A23E
102
{ACAD_REACTORS
330
7471
102
}
330
7471
100
AcDbXrecord
280
     1
  1
DWGPROPS COOKIE
  2

  3

  4

  6

  7

  8
ooshima
  9

300
=
301
=
302
=
303
=
304
=
305
=
306
=
307
=
308
=
309
=
 40
0.4163282175925926
 41
2451633.596246065
 42
2455412.416485822
  1

 90
        0
  0
XRECORD
  5
A20F
102
{ACAD_REACTORS
330
A20E
102
}
330
A20E
100
AcDbXrecord
280
     1
290
     1
  0
XRECORD
  5
A211
102
{ACAD_REACTORS
330
A210
102
}
330
A210
100
AcDbXrecord
280
     1
290
     1
  0
XRECORD
  5
A213
102
{ACAD_REACTORS
330
A212
102
}
330
A212
100
AcDbXrecord
280
     1
290
     1
  0
XRECORD
  5
A215
102
{ACAD_REACTORS
330
A214
102
}
330
A214
100
AcDbXrecord
280
     1
290
     1
  0
XRECORD
  5
A217
102
{ACAD_REACTORS
330
A216
102
}
330
A216
100
AcDbXrecord
280
     1
290
     1
  0
XRECORD
  5
A219
102
{ACAD_REACTORS
330
A218
102
}
330
A218
100
AcDbXrecord
280
     1
290
     1
  0
XRECORD
  5
A240
102
{ACAD_REACTORS
330
A23F
102
}
330
A23F
100
AcDbXrecord
280
     1
102
SHADEPLOT
 70
     0
  0
LAYOUT
  5
8C6A
102
{ACAD_XDICTIONARY
360
A241
102
}
102
{ACAD_REACTORS
330
8C68
102
}
330
8C68
100
AcDbPlotSettings
  1

  2
DocuWorks Printer
  4
A4
  6

 40
5.408082962036132
 41
5.408079147338867
 42
5.4080810546875
 43
5.4080810546875
 44
210.0156707763672
 45
297.0106506347656
 46
4.599753379821777
 47
12.09724521636963
 48
375.0
 49
150.0
140
4305.0
141
3000.0
142
1.0
143
15.0
 70
 11940
 72
     1
 73
     1
 74
     4
  7
sanwa3.ctb
 75
     0
147
0.0698945637753135
148
-375.0
149
-150.0
100
AcDbLayout
  1
Model
 70
     1
 71
     0
 10
0.0
 20
0.0
 11
12.0
 21
9.0
 12
0.0
 22
0.0
 32
0.0
 14
0.0
 24
0.0
 34
0.0
 15
0.0
 25
0.0
 35
0.0
146
0.0
 13
0.0
 23
0.0
 33
0.0
 16
1.0
 26
0.0
 36
0.0
 17
0.0
 27
1.0
 37
0.0
 76
     0
330
747D
331
9EAC
1001
ACAD_PSEXT
1000
DocuWorks Printer
1000
DocuWorks Printer Driver
1000
DocuWorks Port
1000

1070
     0
  0
LAYOUT
  5
8C6B
102
{ACAD_XDICTIONARY
360
A243
102
}
102
{ACAD_REACTORS
330
8C68
102
}
330
8C68
100
AcDbPlotSettings
  1

  2
RICOH NX-510
  4
A4
  6

 40
5.873749732971191
 41
4.92125654220581
 42
7.588241577148437
 43
5.81024169921875
 44
209.9944915771484
 45
296.989501953125
 46
0.0
 47
0.0
 48
0.0
 49
0.0
140
0.0
141
0.0
142
1.0
143
34.65291413633267
 70
   688
 72
     1
 73
     1
 74
     1
  7
sanwa3.ctb
 75
     0
147
0.028857601876303
148
0.3621301174207474
149
4021.738760166317
100
AcDbLayout
  1
ﾚｲｱｳﾄ1
 70
     1
 71
     1
 10
-201.7039368317877
 20
-4225.281305321274
 11
10089.84777374205
 21
3051.639780404483
 12
0.0
 22
0.0
 32
0.0
 14
1.000000000000000E+20
 24
1.000000000000000E+20
 34
1.000000000000000E+20
 15
-1.000000000000000E+20
 25
-1.000000000000000E+20
 35
-1.000000000000000E+20
146
0.0
 13
0.0
 23
0.0
 33
0.0
 16
1.0
 26
0.0
 36
0.0
 17
0.0
 27
1.0
 37
0.0
 76
     0
330
747A
331
7540
  0
MATERIAL
  5
9EB7
102
{ACAD_XDICTIONARY
360
9EB8
102
}
102
{ACAD_REACTORS
330
9EAE
102
}
330
9EAE
100
AcDbMaterial
  1
ByBlock
 72
     0
 43
0.0208333333333333
 43
0.0
 43
0.0
 43
0.0
 43
0.0
 43
0.0208333333333333
 43
0.0
 43
0.0
 43
0.0
 43
0.0
 43
1.0
 43
0.0
 43
0.0
 43
0.0
 43
0.0
 43
1.0
 77
     0
 47
0.0208333333333333
 47
0.0
 47
0.0
 47
0.0
 47
0.0
 47
0.0208333333333333
 47
0.0
 47
0.0
 47
0.0
 47
0.0
 47
1.0
 47
0.0
 47
0.0
 47
0.0
 47
0.0
 47
1.0
171
     0
 49
0.0208333333333333
 49
0.0
 49
0.0
 49
0.0
 49
0.0
 49
0.0208333333333333
 49
0.0
 49
0.0
 49
0.0
 49
0.0
 49
1.0
 49
0.0
 49
0.0
 49
0.0
 49
0.0
 49
1.0
175
     0
142
0.0208333333333333
142
0.0
142
0.0
142
0.0
142
0.0
142
0.0208333333333333
142
0.0
142
0.0
142
0.0
142
0.0
142
1.0
142
0.0
142
0.0
142
0.0
142
0.0
142
1.0
179
     0
144
0.0208333333333333
144
0.0
144
0.0
144
0.0
144
0.0
144
0.0208333333333333
144
0.0
144
0.0
144
0.0
144
0.0
144
1.0
144
0.0
144
0.0
144
0.0
144
0.0
144
1.0
147
0.0208333333333333
147
0.0
147
0.0
147
0.0
147
0.0
147
0.0208333333333333
147
0.0
147
0.0
147
0.0
147
0.0
147
1.0
147
0.0
147
0.0
147
0.0
147
0.0
147
1.0
  0
MATERIAL
  5
9EAF
102
{ACAD_XDICTIONARY
360
9EB0
102
}
102
{ACAD_REACTORS
330
9EAE
102
}
330
9EAE
100
AcDbMaterial
  1
ByLayer
 72
     0
 43
0.0208333333333333
 43
0.0
 43
0.0
 43
0.0
 43
0.0
 43
0.0208333333333333
 43
0.0
 43
0.0
 43
0.0
 43
0.0
 43
1.0
 43
0.0
 43
0.0
 43
0.0
 43
0.0
 43
1.0
 77
     0
 47
0.0208333333333333
 47
0.0
 47
0.0
 47
0.0
 47
0.0
 47
0.0208333333333333
 47
0.0
 47
0.0
 47
0.0
 47
0.0
 47
1.0
 47
0.0
 47
0.0
 47
0.0
 47
0.0
 47
1.0
171
     0
 49
0.0208333333333333
 49
0.0
 49
0.0
 49
0.0
 49
0.0
 49
0.0208333333333333
 49
0.0
 49
0.0
 49
0.0
 49
0.0
 49
1.0
 49
0.0
 49
0.0
 49
0.0
 49
0.0
 49
1.0
175
     0
142
0.0208333333333333
142
0.0
142
0.0
142
0.0
142
0.0
142
0.0208333333333333
142
0.0
142
0.0
142
0.0
142
0.0
142
1.0
142
0.0
142
0.0
142
0.0
142
0.0
142
1.0
179
     0
144
0.0208333333333333
144
0.0
144
0.0
144
0.0
144
0.0
144
0.0208333333333333
144
0.0
144
0.0
144
0.0
144
0.0
144
1.0
144
0.0
144
0.0
144
0.0
144
0.0
144
1.0
147
0.0208333333333333
147
0.0
147
0.0
147
0.0
147
0.0
147
0.0208333333333333
147
0.0
147
0.0
147
0.0
147
0.0
147
1.0
147
0.0
147
0.0
147
0.0
147
0.0
147
1.0
  0
MATERIAL
  5
9EBF
102
{ACAD_XDICTIONARY
360
9EC0
102
}
102
{ACAD_REACTORS
330
9EAE
102
}
330
9EAE
100
AcDbMaterial
  1
Global
 72
     0
 43
0.0208333333333333
 43
0.0
 43
0.0
 43
0.0
 43
0.0
 43
0.0208333333333333
 43
0.0
 43
0.0
 43
0.0
 43
0.0
 43
1.0
 43
0.0
 43
0.0
 43
0.0
 43
0.0
 43
1.0
 77
     0
 47
0.0208333333333333
 47
0.0
 47
0.0
 47
0.0
 47
0.0
 47
0.0208333333333333
 47
0.0
 47
0.0
 47
0.0
 47
0.0
 47
1.0
 47
0.0
 47
0.0
 47
0.0
 47
0.0
 47
1.0
171
     0
 49
0.0208333333333333
 49
0.0
 49
0.0
 49
0.0
 49
0.0
 49
0.0208333333333333
 49
0.0
 49
0.0
 49
0.0
 49
0.0
 49
1.0
 49
0.0
 49
0.0
 49
0.0
 49
0.0
 49
1.0
175
     0
142
0.0208333333333333
142
0.0
142
0.0
142
0.0
142
0.0
142
0.0208333333333333
142
0.0
142
0.0
142
0.0
142
0.0
142
1.0
142
0.0
142
0.0
142
0.0
142
0.0
142
1.0
179
     0
144
0.0208333333333333
144
0.0
144
0.0
144
0.0
144
0.0
144
0.0208333333333333
144
0.0
144
0.0
144
0.0
144
0.0
144
1.0
144
0.0
144
0.0
144
0.0
144
0.0
144
1.0
147
0.0208333333333333
147
0.0
147
0.0
147
0.0
147
0.0
147
0.0208333333333333
147
0.0
147
0.0
147
0.0
147
0.0
147
1.0
147
0.0
147
0.0
147
0.0
147
0.0
147
1.0
  0
MLEADERSTYLE
  5
9EFE
102
{ACAD_REACTORS
330
9EFD
102
}
330
9EFD
100
AcDbMLeaderStyle
170
     2
171
     1
172
     0
 90
        2
 40
0.0
 41
0.0
173
     1
 91
-1056964608
340
7477
 92
       -2
290
     1
 42
2.0
291
     1
 43
0.36
  3
Standard
 44
4.0
300

342
7475
174
     1
178
     6
175
     1
176
     0
 93
-1056964608
 45
4.0
292
     0
297
     0
 46
4.0
 94
-1056964608
 47
1.0
 49
1.0
140
1.0
293
     1
141
0.0
294
     1
177
     0
142
1.0
295
     0
296
     0
143
0.125
1001
ACAD_MLEADERVER
1070
     2
  0
MLINESTYLE
  5
7480
102
{ACAD_REACTORS
330
7473
102
}
330
0
100
AcDbMlineStyle
  2
STANDARD
 70
     0
  3

 62
     0
 51
90.0
 52
90.0
 71
     2
 49
0.5
 62
   256
  6
BYLAYER
 49
-0.5
 62
   256
  6
BYLAYER
  0
ACDBPLACEHOLDER
  5
8C67
102
{ACAD_REACTORS
330
8C66
102
}
330
8C66
  0
SCALE
  5
9EDC
102
{ACAD_REACTORS
330
9EDB
102
}
330
9EDB
100
AcDbScale
 70
     0
300
1:1
140
1.0
141
1.0
290
     1
  0
SCALE
  5
9EDD
102
{ACAD_REACTORS
330
9EDB
102
}
330
9EDB
100
AcDbScale
 70
     0
300
1:2
140
1.0
141
2.0
290
     0
  0
SCALE
  5
9EDE
102
{ACAD_REACTORS
330
9EDB
102
}
330
9EDB
100
AcDbScale
 70
     0
300
1:4
140
1.0
141
4.0
290
     0
  0
SCALE
  5
9EDF
102
{ACAD_REACTORS
330
9EDB
102
}
330
9EDB
100
AcDbScale
 70
     0
300
1:5
140
1.0
141
5.0
290
     0
  0
SCALE
  5
9EE0
102
{ACAD_REACTORS
330
9EDB
102
}
330
9EDB
100
AcDbScale
 70
     0
300
1:8
140
1.0
141
8.0
290
     0
  0
SCALE
  5
9EE1
102
{ACAD_REACTORS
330
9EDB
102
}
330
9EDB
100
AcDbScale
 70
     0
300
1:10
140
1.0
141
10.0
290
     0
  0
SCALE
  5
9EE2
102
{ACAD_REACTORS
330
9EDB
102
}
330
9EDB
100
AcDbScale
 70
     0
300
1:16
140
1.0
141
16.0
290
     0
  0
SCALE
  5
9EE3
102
{ACAD_REACTORS
330
9EDB
102
}
330
9EDB
100
AcDbScale
 70
     0
300
1:20
140
1.0
141
20.0
290
     0
  0
SCALE
  5
9EE4
102
{ACAD_REACTORS
330
9EDB
102
}
330
9EDB
100
AcDbScale
 70
     0
300
1:30
140
1.0
141
30.0
290
     0
  0
SCALE
  5
9EE5
102
{ACAD_REACTORS
330
9EDB
102
}
330
9EDB
100
AcDbScale
 70
     0
300
1:40
140
1.0
141
40.0
290
     0
  0
SCALE
  5
9EE6
102
{ACAD_REACTORS
330
9EDB
102
}
330
9EDB
100
AcDbScale
 70
     0
300
1:50
140
1.0
141
50.0
290
     0
  0
SCALE
  5
9EE7
102
{ACAD_REACTORS
330
9EDB
102
}
330
9EDB
100
AcDbScale
 70
     0
300
1:100
140
1.0
141
100.0
290
     0
  0
SCALE
  5
9EE8
102
{ACAD_REACTORS
330
9EDB
102
}
330
9EDB
100
AcDbScale
 70
     0
300
2:1
140
2.0
141
1.0
290
     0
  0
SCALE
  5
9EE9
102
{ACAD_REACTORS
330
9EDB
102
}
330
9EDB
100
AcDbScale
 70
     0
300
4:1
140
4.0
141
1.0
290
     0
  0
SCALE
  5
9EEA
102
{ACAD_REACTORS
330
9EDB
102
}
330
9EDB
100
AcDbScale
 70
     0
300
8:1
140
8.0
141
1.0
290
     0
  0
SCALE
  5
9EEB
102
{ACAD_REACTORS
330
9EDB
102
}
330
9EDB
100
AcDbScale
 70
     0
300
10:1
140
10.0
141
1.0
290
     0
  0
SCALE
  5
9EEC
102
{ACAD_REACTORS
330
9EDB
102
}
330
9EDB
100
AcDbScale
 70
     0
300
100:1
140
100.0
141
1.0
290
     0
  0
SCALE
  5
9EED
102
{ACAD_REACTORS
330
9EDB
102
}
330
9EDB
100
AcDbScale
 70
     0
300
1/128" = 1'-0"
140
0.0078125
141
12.0
290
     0
  0
SCALE
  5
9EEE
102
{ACAD_REACTORS
330
9EDB
102
}
330
9EDB
100
AcDbScale
 70
     0
300
1/64" = 1'-0"
140
0.015625
141
12.0
290
     0
  0
SCALE
  5
9EEF
102
{ACAD_REACTORS
330
9EDB
102
}
330
9EDB
100
AcDbScale
 70
     0
300
1/32" = 1'-0"
140
0.03125
141
12.0
290
     0
  0
SCALE
  5
9EF0
102
{ACAD_REACTORS
330
9EDB
102
}
330
9EDB
100
AcDbScale
 70
     0
300
1/16" = 1'-0"
140
0.0625
141
12.0
290
     0
  0
SCALE
  5
9EF1
102
{ACAD_REACTORS
330
9EDB
102
}
330
9EDB
100
AcDbScale
 70
     0
300
3/32" = 1'-0"
140
0.09375
141
12.0
290
     0
  0
SCALE
  5
9EF2
102
{ACAD_REACTORS
330
9EDB
102
}
330
9EDB
100
AcDbScale
 70
     0
300
1/8" = 1'-0"
140
0.125
141
12.0
290
     0
  0
SCALE
  5
9EF3
102
{ACAD_REACTORS
330
9EDB
102
}
330
9EDB
100
AcDbScale
 70
     0
300
3/16" = 1'-0"
140
0.1875
141
12.0
290
     0
  0
SCALE
  5
9EF4
102
{ACAD_REACTORS
330
9EDB
102
}
330
9EDB
100
AcDbScale
 70
     0
300
1/4" = 1'-0"
140
0.25
141
12.0
290
     0
  0
SCALE
  5
9EF5
102
{ACAD_REACTORS
330
9EDB
102
}
330
9EDB
100
AcDbScale
 70
     0
300
3/8" = 1'-0"
140
0.375
141
12.0
290
     0
  0
SCALE
  5
9EF6
102
{ACAD_REACTORS
330
9EDB
102
}
330
9EDB
100
AcDbScale
 70
     0
300
1/2" = 1'-0"
140
0.5
141
12.0
290
     0
  0
SCALE
  5
9EF7
102
{ACAD_REACTORS
330
9EDB
102
}
330
9EDB
100
AcDbScale
 70
     0
300
3/4" = 1'-0"
140
0.75
141
12.0
290
     0
  0
SCALE
  5
9EF8
102
{ACAD_REACTORS
330
9EDB
102
}
330
9EDB
100
AcDbScale
 70
     0
300
1" = 1'-0"
140
1.0
141
12.0
290
     0
  0
SCALE
  5
9EF9
102
{ACAD_REACTORS
330
9EDB
102
}
330
9EDB
100
AcDbScale
 70
     0
300
1-1/2" = 1'-0"
140
1.5
141
12.0
290
     0
  0
SCALE
  5
9EFA
102
{ACAD_REACTORS
330
9EDB
102
}
330
9EDB
100
AcDbScale
 70
     0
300
3" = 1'-0"
140
3.0
141
12.0
290
     0
  0
SCALE
  5
9EFB
102
{ACAD_REACTORS
330
9EDB
102
}
330
9EDB
100
AcDbScale
 70
     0
300
6" = 1'-0"
140
6.0
141
12.0
290
     0
  0
SCALE
  5
9EFC
102
{ACAD_REACTORS
330
9EDB
102
}
330
9EDB
100
AcDbScale
 70
     0
300
1'-0" = 1'-0"
140
12.0
141
12.0
290
     0
  0
TABLESTYLE
  5
9EDA
102
{ACAD_XDICTIONARY
360
A23B
102
}
102
{ACAD_REACTORS
330
9ED9
102
}
330
9ED9
100
AcDbTableStyle
  3
Standard
 70
     0
 71
     0
 40
1.5
 41
1.5
280
     0
281
     0
  7
STANDARD
140
4.5
170
     2
 62
     0
 63
     7
283
     0
274
    -2
284
     1
 64
     0
275
    -2
285
     1
 65
     0
276
    -2
286
     1
 66
     0
277
    -2
287
     1
 67
     0
278
    -2
288
     1
 68
     0
279
    -2
289
     1
 69
     0
  7
STANDARD
140
6.0
170
     5
 62
     0
 63
     7
283
     0
274
    -2
284
     1
 64
     0
275
    -2
285
     1
 65
     0
276
    -2
286
     1
 66
     0
277
    -2
287
     1
 67
     0
278
    -2
288
     1
 68
     0
279
    -2
289
     1
 69
     0
  7
STANDARD
140
4.5
170
     5
 62
     0
 63
     7
283
     0
274
    -2
284
     1
 64
     0
275
    -2
285
     1
 65
     0
276
    -2
286
     1
 66
     0
277
    -2
287
     1
 67
     0
278
    -2
288
     1
 68
     0
279
    -2
289
     1
 69
     0
  0
VISUALSTYLE
  5
9ECD
102
{ACAD_REACTORS
330
9EC7
102
}
330
9EC7
100
AcDbVisualStyle
  2
2dWireframe
 70
     4
 71
     0
 72
     2
 73
     0
 90
        0
 40
-0.6
 41
-30.0
 62
     5
 63
     7
 74
     1
 91
        4
 64
     7
 65
   257
 75
     1
175
     1
 42
1.0
 92
        0
 66
   257
 43
1.0
 76
     1
 77
     6
 78
     2
 67
     7
 79
     5
170
     0
171
     0
290
     0
174
     0
 93
        1
 44
0.0
173
     0
291
     0
 45
0.0
1001
ACAD
1000
AcDbSavedByObjectVersion
1070
     0
  0
VISUALSTYLE
  5
9ECF
102
{ACAD_REACTORS
330
9EC7
102
}
330
9EC7
100
AcDbVisualStyle
  2
3D Hidden
 70
     6
 71
     1
 72
     2
 73
     2
 90
        0
 40
-0.6
 41
-30.0
 62
     5
 63
     7
 74
     2
 91
        2
 64
     7
 65
   257
 75
     2
175
     1
 42
40.0
 92
        0
 66
   257
 43
1.0
 76
     1
 77
     6
 78
     2
 67
     7
 79
     3
170
     0
171
     0
290
     0
174
     0
 93
        1
 44
0.0
173
     0
291
     0
 45
0.0
1001
ACAD
1000
AcDbSavedByObjectVersion
1070
     0
  0
VISUALSTYLE
  5
9ECE
102
{ACAD_REACTORS
330
9EC7
102
}
330
9EC7
100
AcDbVisualStyle
  2
3dWireframe
 70
     5
 71
     0
 72
     2
 73
     0
 90
        0
 40
-0.6
 41
-30.0
 62
     5
 63
     7
 74
     1
 91
        4
 64
     7
 65
   257
 75
     1
175
     1
 42
1.0
 92
        0
 66
   257
 43
1.0
 76
     1
 77
     6
 78
     2
 67
     7
 79
     5
170
     0
171
     0
290
     0
174
     0
 93
        1
 44
0.0
173
     0
291
     0
 45
0.0
1001
ACAD
1000
AcDbSavedByObjectVersion
1070
     0
  0
VISUALSTYLE
  5
9ECC
102
{ACAD_REACTORS
330
9EC7
102
}
330
9EC7
100
AcDbVisualStyle
  2
Basic
 70
     7
 71
     1
 72
     0
 73
     1
 90
        0
 40
-0.6
 41
-30.0
 62
     5
 63
     7
 74
     0
 91
        4
 64
     7
 65
   257
 75
     1
175
     1
 42
1.0
 92
        8
 66
     7
 43
1.0
 76
     1
 77
     6
 78
     2
 67
     7
 79
     5
170
     0
171
     0
290
     0
174
     0
 93
        1
 44
0.0
173
     0
291
     1
 45
0.0
1001
ACAD
1000
AcDbSavedByObjectVersion
1070
     0
  0
VISUALSTYLE
  5
9ED3
102
{ACAD_REACTORS
330
9EC7
102
}
330
9EC7
100
AcDbVisualStyle
  2
Brighten
 70
    12
 71
     2
 72
     2
 73
     0
 90
        0
 40
-0.6
 41
-30.0
 62
     5
 63
     7
 74
     1
 91
        4
 64
     7
 65
   257
 75
     1
175
     1
 42
1.0
 92
        8
 66
     7
 43
1.0
 76
     1
 77
     6
 78
     2
 67
     7
 79
     5
170
     0
171
     0
290
     0
174
     0
 93
        1
 44
50.0
173
     0
291
     1
 45
0.0
1001
ACAD
1000
AcDbSavedByObjectVersion
1070
     0
  0
VISUALSTYLE
  5
9ED7
102
{ACAD_REACTORS
330
9EC7
102
}
330
9EC7
100
AcDbVisualStyle
  2
ColorChange
 70
    16
 71
     2
 72
     2
 73
     3
 90
        0
 40
-0.6
 41
-30.0
 62
     5
 63
     8
 74
     1
 91
        4
 64
     7
 65
   257
 75
     1
175
     1
 42
1.0
 92
        8
 66
     8
 43
1.0
 76
     1
 77
     6
 78
     2
 67
     7
 79
     5
170
     0
171
     0
290
     0
174
     0
 93
        1
 44
0.0
173
     0
291
     1
 45
0.0
1001
ACAD
1000
AcDbSavedByObjectVersion
1070
     0
  0
VISUALSTYLE
  5
9ED0
102
{ACAD_REACTORS
330
9EC7
102
}
330
9EC7
100
AcDbVisualStyle
  2
Conceptual
 70
     9
 71
     3
 72
     2
 73
     0
 90
        0
 40
-0.6
 41
-30.0
 62
     5
 63
     7
 74
     2
 91
        2
 64
     7
 65
   257
 75
     1
175
     1
 42
40.0
 92
        8
 66
     7
 43
1.0
 76
     1
 77
     6
 78
     2
 67
     7
 79
     3
170
     0
171
     0
290
     0
174
     0
 93
        1
 44
0.0
173
     0
291
     0
 45
0.0
1001
ACAD
1000
AcDbSavedByObjectVersion
1070
     0
  0
VISUALSTYLE
  5
9ED2
102
{ACAD_REACTORS
330
9EC7
102
}
330
9EC7
100
AcDbVisualStyle
  2
Dim
 70
    11
 71
     2
 72
     2
 73
     0
 90
        0
 40
-0.6
 41
-30.0
 62
     5
 63
     7
 74
     1
 91
        4
 64
     7
 65
   257
 75
     1
175
     1
 42
1.0
 92
        8
 66
     7
 43
1.0
 76
     1
 77
     6
 78
     2
 67
     7
 79
     5
170
     0
171
     0
290
     0
174
     0
 93
        1
 44
-50.0
173
     0
291
     1
 45
0.0
1001
ACAD
1000
AcDbSavedByObjectVersion
1070
     0
  0
VISUALSTYLE
  5
9ED6
102
{ACAD_REACTORS
330
9EC7
102
}
330
9EC7
100
AcDbVisualStyle
  2
Facepattern
 70
    15
 71
     2
 72
     2
 73
     0
 90
        0
 40
-0.6
 41
-30.0
 62
     5
 63
     7
 74
     1
 91
        4
 64
     7
 65
   257
 75
     1
175
     1
 42
1.0
 92
        8
 66
     7
 43
1.0
 76
     1
 77
     6
 78
     2
 67
     7
 79
     5
170
     0
171
     0
290
     0
174
     0
 93
        1
 44
0.0
173
     0
291
     1
 45
0.0
1001
ACAD
1000
AcDbSavedByObjectVersion
1070
     0
  0
VISUALSTYLE
  5
9EC8
102
{ACAD_REACTORS
330
9EC7
102
}
330
9EC7
100
AcDbVisualStyle
  2
Flat
 70
     0
 71
     2
 72
     1
 73
     1
 90
        2
 40
-0.6
 41
30.0
 62
     5
 63
     7
 74
     0
 91
        4
 64
     7
 65
   257
 75
     1
175
     1
 42
1.0
 92
        8
 66
     7
 43
1.0
 76
     1
 77
     6
 78
     2
 67
     7
 79
     5
170
     0
171
     0
290
     0
174
     0
 93
       13
 44
0.0
173
     0
291
     1
 45
0.0
1001
ACAD
1000
AcDbSavedByObjectVersion
1070
     0
  0
VISUALSTYLE
  5
9EC9
102
{ACAD_REACTORS
330
9EC7
102
}
330
9EC7
100
AcDbVisualStyle
  2
FlatWithEdges
 70
     1
 71
     2
 72
     1
 73
     1
 90
        2
 40
-0.6
 41
30.0
 62
     5
 63
     7
 74
     1
 91
        4
 64
     7
 65
   257
 75
     1
175
     1
 42
1.0
 92
        0
 66
   257
 43
1.0
 76
     1
 77
     6
 78
     2
 67
     7
 79
     5
170
     0
171
     0
290
     0
174
     0
 93
       13
 44
0.0
173
     0
291
     1
 45
0.0
1001
ACAD
1000
AcDbSavedByObjectVersion
1070
     0
  0
VISUALSTYLE
  5
9ECA
102
{ACAD_REACTORS
330
9EC7
102
}
330
9EC7
100
AcDbVisualStyle
  2
Gouraud
 70
     2
 71
     2
 72
     2
 73
     1
 90
        2
 40
-0.6
 41
30.0
 62
     5
 63
     7
 74
     0
 91
        4
 64
     7
 65
   257
 75
     1
175
     1
 42
1.0
 92
        0
 66
     7
 43
1.0
 76
     1
 77
     6
 78
     2
 67
     7
 79
     5
170
     0
171
     0
290
     0
174
     0
 93
       13
 44
0.0
173
     0
291
     1
 45
0.0
1001
ACAD
1000
AcDbSavedByObjectVersion
1070
     0
  0
VISUALSTYLE
  5
9ECB
102
{ACAD_REACTORS
330
9EC7
102
}
330
9EC7
100
AcDbVisualStyle
  2
GouraudWithEdges
 70
     3
 71
     2
 72
     2
 73
     1
 90
        2
 40
-0.6
 41
30.0
 62
     5
 63
     7
 74
     1
 91
        4
 64
     7
 65
   257
 75
     1
175
     1
 42
1.0
 92
        0
 66
   257
 43
1.0
 76
     1
 77
     6
 78
     2
 67
     7
 79
     5
170
     0
171
     0
290
     0
174
     0
 93
       13
 44
0.0
173
     0
291
     1
 45
0.0
1001
ACAD
1000
AcDbSavedByObjectVersion
1070
     0
  0
VISUALSTYLE
  5
9ED5
102
{ACAD_REACTORS
330
9EC7
102
}
330
9EC7
100
AcDbVisualStyle
  2
Linepattern
 70
    14
 71
     2
 72
     2
 73
     0
 90
        0
 40
-0.6
 41
-30.0
 62
     5
 63
     7
 74
     1
 91
        4
 64
     7
 65
   257
 75
     7
175
     7
 42
1.0
 92
        8
 66
     7
 43
1.0
 76
     1
 77
     6
 78
     2
 67
     7
 79
     5
170
     0
171
     0
290
     0
174
     0
 93
        1
 44
0.0
173
     0
291
     1
 45
0.0
1001
ACAD
1000
AcDbSavedByObjectVersion
1070
     0
  0
VISUALSTYLE
  5
9ED1
102
{ACAD_REACTORS
330
9EC7
102
}
330
9EC7
100
AcDbVisualStyle
  2
Realistic
 70
     8
 71
     2
 72
     2
 73
     0
 90
        0
 40
-0.6
 41
-30.0
 62
     5
 63
     7
 74
     1
 91
        0
 64
     7
 65
   257
 75
     1
175
     1
 42
1.0
 92
        8
 66
     8
 43
1.0
 76
     1
 77
     6
 78
     2
 67
     7
 79
     5
170
     0
171
     0
290
     0
174
     0
 93
       13
 44
0.0
173
     0
291
     0
 45
0.0
1001
ACAD
1000
AcDbSavedByObjectVersion
1070
     0
  0
VISUALSTYLE
  5
9ED4
102
{ACAD_REACTORS
330
9EC7
102
}
330
9EC7
100
AcDbVisualStyle
  2
Thicken
 70
    13
 71
     2
 72
     2
 73
     0
 90
        0
 40
-0.6
 41
-30.0
 62
     5
 63
     7
 74
     1
 91
        4
 64
     7
 65
   257
 75
     1
175
     1
 42
1.0
 92
       12
 66
     7
 43
1.0
 76
     1
 77
     6
 78
     2
 67
     7
 79
     5
170
     0
171
     0
290
     0
174
     0
 93
        1
 44
0.0
173
     0
291
     1
 45
0.0
1001
ACAD
1000
AcDbSavedByObjectVersion
1070
     0
  0
DICTIONARYVAR
  5
A239
102
{ACAD_REACTORS
330
789B
102
}
330
789B
100
DictionaryVariables
280
     0
  1
1:1
  0
DICTIONARYVAR
  5
A238
102
{ACAD_REACTORS
330
789B
102
}
330
789B
100
DictionaryVariables
280
     0
  1
STANDARD
  0
DICTIONARYVAR
  5
A237
102
{ACAD_REACTORS
330
789B
102
}
330
789B
100
DictionaryVariables
280
     0
  1
STANDARD
  0
DICTIONARYVAR
  5
8CEA
102
{ACAD_REACTORS
330
789B
102
}
330
789B
100
DictionaryVariables
280
     0
  1
1
  0
DICTIONARYVAR
  5
A23A
102
{ACAD_REACTORS
330
789B
102
}
330
789B
100
DictionaryVariables
280
     0
  1
0
  0
DICTIONARYVAR
  5
789C
102
{ACAD_REACTORS
330
789B
102
}
330
789B
100
DictionaryVariables
280
     0
  1
96
  0
DICTIONARY
  5
A241
330
8C6A
100
AcDbDictionary
280
     1
281
     1
  3
ACAD_XREC_ROUNDTRIP
360
A242
  0
DICTIONARY
  5
A243
330
8C6B
100
AcDbDictionary
280
     1
281
     1
  3
ACAD_XREC_ROUNDTRIP
360
A244
  0
DICTIONARY
  5
9EB8
330
9EB7
100
AcDbDictionary
280
     1
281
     1
  3
ACAD_XREC_ROUNDTRIP
360
A246
  3
BUMPTILE
360
9EBA
  3
DIFFUSETILE
360
9EB9
  3
OPACITYTILE
360
9EBD
  3
REFLECTIONTILE
360
9EBC
  3
REFRACTIONTILE
360
9EBE
  3
SPECULARTILE
360
9EBB
  0
DICTIONARY
  5
9EB0
330
9EAF
100
AcDbDictionary
280
     1
281
     1
  3
ACAD_XREC_ROUNDTRIP
360
A245
  3
BUMPTILE
360
9EB2
  3
DIFFUSETILE
360
9EB1
  3
OPACITYTILE
360
9EB5
  3
REFLECTIONTILE
360
9EB4
  3
REFRACTIONTILE
360
9EB6
  3
SPECULARTILE
360
9EB3
  0
DICTIONARY
  5
9EC0
330
9EBF
100
AcDbDictionary
280
     1
281
     1
  3
ACAD_XREC_ROUNDTRIP
360
A247
  3
BUMPTILE
360
9EC2
  3
DIFFUSETILE
360
9EC1
  3
OPACITYTILE
360
9EC5
  3
REFLECTIONTILE
360
9EC4
  3
REFRACTIONTILE
360
9EC6
  3
SPECULARTILE
360
9EC3
  0
DICTIONARY
  5
A23B
330
9EDA
100
AcDbDictionary
280
     1
281
     1
  3
ACAD_ROUNDTRIP_2008_TABLESTYLE_CELLSTYLEMAP
360
A23C
  3
ACAD_XREC_ROUNDTRIP
360
A248
  0
XRECORD
  5
A242
102
{ACAD_REACTORS
330
A241
102
}
330
A241
100
AcDbXrecord
280
     1
102
SHADEPLOT
 70
     0
102
SHADEPLOTRESLEVEL
 70
     2
102
SHADEPLOTCUSTOMDPI
 70
   300
  0
XRECORD
  5
A244
102
{ACAD_REACTORS
330
A243
102
}
330
A243
100
AcDbXrecord
280
     1
102
SHADEPLOT
 70
     0
102
SHADEPLOTRESLEVEL
 70
     2
102
SHADEPLOTCUSTOMDPI
 70
   300
  0
XRECORD
  5
A246
102
{ACAD_REACTORS
330
9EB8
102
}
330
9EB8
100
AcDbXrecord
280
     1
102
MATERIAL
148
0.0
149
0.0
149
0.0
 93
        0
 94
      127
282
     0
 72
     0
 77
     0
171
     0
175
     0
179
     0
273
     0
  0
XRECORD
  5
9EBA
102
{ACAD_REACTORS
330
9EB8
102
}
330
9EB8
100
AcDbXrecord
280
     1
270
     1
271
     1
  0
XRECORD
  5
9EB9
102
{ACAD_REACTORS
330
9EB8
102
}
330
9EB8
100
AcDbXrecord
280
     1
270
     1
271
     1
  0
XRECORD
  5
9EBD
102
{ACAD_REACTORS
330
9EB8
102
}
330
9EB8
100
AcDbXrecord
280
     1
270
     1
271
     1
  0
XRECORD
  5
9EBC
102
{ACAD_REACTORS
330
9EB8
102
}
330
9EB8
100
AcDbXrecord
280
     1
270
     1
271
     1
  0
XRECORD
  5
9EBE
102
{ACAD_REACTORS
330
9EB8
102
}
330
9EB8
100
AcDbXrecord
280
     1
270
     1
271
     1
  0
XRECORD
  5
9EBB
102
{ACAD_REACTORS
330
9EB8
102
}
330
9EB8
100
AcDbXrecord
280
     1
270
     1
271
     1
  0
XRECORD
  5
A245
102
{ACAD_REACTORS
330
9EB0
102
}
330
9EB0
100
AcDbXrecord
280
     1
102
MATERIAL
148
0.0
149
0.0
149
0.0
 93
        0
 94
      127
282
     0
 72
     0
 77
     0
171
     0
175
     0
179
     0
273
     0
  0
XRECORD
  5
9EB2
102
{ACAD_REACTORS
330
9EB0
102
}
330
9EB0
100
AcDbXrecord
280
     1
270
     1
271
     1
  0
XRECORD
  5
9EB1
102
{ACAD_REACTORS
330
9EB0
102
}
330
9EB0
100
AcDbXrecord
280
     1
270
     1
271
     1
  0
XRECORD
  5
9EB5
102
{ACAD_REACTORS
330
9EB0
102
}
330
9EB0
100
AcDbXrecord
280
     1
270
     1
271
     1
  0
XRECORD
  5
9EB4
102
{ACAD_REACTORS
330
9EB0
102
}
330
9EB0
100
AcDbXrecord
280
     1
270
     1
271
     1
  0
XRECORD
  5
9EB6
102
{ACAD_REACTORS
330
9EB0
102
}
330
9EB0
100
AcDbXrecord
280
     1
270
     1
271
     1
  0
XRECORD
  5
9EB3
102
{ACAD_REACTORS
330
9EB0
102
}
330
9EB0
100
AcDbXrecord
280
     1
270
     1
271
     1
  0
XRECORD
  5
A247
102
{ACAD_REACTORS
330
9EC0
102
}
330
9EC0
100
AcDbXrecord
280
     1
102
MATERIAL
148
0.0
149
0.0
149
0.0
 93
        0
 94
      127
282
     0
 72
     0
 77
     0
171
     0
175
     0
179
     0
273
     0
  0
XRECORD
  5
9EC2
102
{ACAD_REACTORS
330
9EC0
102
}
330
9EC0
100
AcDbXrecord
280
     1
270
     1
271
     1
  0
XRECORD
  5
9EC1
102
{ACAD_REACTORS
330
9EC0
102
}
330
9EC0
100
AcDbXrecord
280
     1
270
     1
271
     1
  0
XRECORD
  5
9EC5
102
{ACAD_REACTORS
330
9EC0
102
}
330
9EC0
100
AcDbXrecord
280
     1
270
     1
271
     1
  0
XRECORD
  5
9EC4
102
{ACAD_REACTORS
330
9EC0
102
}
330
9EC0
100
AcDbXrecord
280
     1
270
     1
271
     1
  0
XRECORD
  5
9EC6
102
{ACAD_REACTORS
330
9EC0
102
}
330
9EC0
100
AcDbXrecord
280
     1
270
     1
271
     1
  0
XRECORD
  5
9EC3
102
{ACAD_REACTORS
330
9EC0
102
}
330
9EC0
100
AcDbXrecord
280
     1
270
     1
271
     1
  0
CELLSTYLEMAP
  5
A23C
102
{ACAD_REACTORS
330
A23B
102
}
330
A23B
100
AcDbCellStyleMap
 90
        3
300
CELLSTYLE
  1
TABLEFORMAT_BEGIN
 90
        5
170
     1
 91
        0
 92
    32768
 62
   257
 93
        1
300
CONTENTFORMAT
  1
CONTENTFORMAT_BEGIN
 90
        0
 91
        0
 92
      512
 93
        0
300

 40
0.0
140
1.0
 94
        5
 62
     0
340
7475
144
6.0
309
CONTENTFORMAT_END
171
     1
301
MARGIN
  1
CELLMARGIN_BEGIN
 40
1.5
 40
1.5
 40
1.5
 40
1.5
 40
4.5
 40
4.5
309
CELLMARGIN_END
 94
        6
 95
        1
302
GRIDFORMAT
  1
GRIDFORMAT_BEGIN
 90
        0
 91
        1
 62
     0
 92
       -2
340
0
 93
        0
 40
1.125
309
GRIDFORMAT_END
 95
        2
302
GRIDFORMAT
  1
GRIDFORMAT_BEGIN
 90
        0
 91
        1
 62
     0
 92
       -2
340
0
 93
        0
 40
1.125
309
GRIDFORMAT_END
 95
        4
302
GRIDFORMAT
  1
GRIDFORMAT_BEGIN
 90
        0
 91
        1
 62
     0
 92
       -2
340
0
 93
        0
 40
1.125
309
GRIDFORMAT_END
 95
        8
302
GRIDFORMAT
  1
GRIDFORMAT_BEGIN
 90
        0
 91
        1
 62
     0
 92
       -2
340
0
 93
        0
 40
1.125
309
GRIDFORMAT_END
 95
       16
302
GRIDFORMAT
  1
GRIDFORMAT_BEGIN
 90
        0
 91
        1
 62
     0
 92
       -2
340
0
 93
        0
 40
1.125
309
GRIDFORMAT_END
 95
       32
302
GRIDFORMAT
  1
GRIDFORMAT_BEGIN
 90
        0
 91
        1
 62
     0
 92
       -2
340
0
 93
        0
 40
1.125
309
GRIDFORMAT_END
309
TABLEFORMAT_END
  1
CELLSTYLE_BEGIN
 90
        1
 91
        1
300
_TITLE
309
CELLSTYLE_END
300
CELLSTYLE
  1
TABLEFORMAT_BEGIN
 90
        5
170
     1
 91
        0
 92
        0
 62
   257
 93
        1
300
CONTENTFORMAT
  1
CONTENTFORMAT_BEGIN
 90
        0
 91
        0
 92
      512
 93
        0
300

 40
0.0
140
1.0
 94
        5
 62
     0
340
7475
144
4.5
309
CONTENTFORMAT_END
171
     1
301
MARGIN
  1
CELLMARGIN_BEGIN
 40
1.5
 40
1.5
 40
1.5
 40
1.5
 40
4.5
 40
4.5
309
CELLMARGIN_END
 94
        6
 95
        1
302
GRIDFORMAT
  1
GRIDFORMAT_BEGIN
 90
        0
 91
        1
 62
     0
 92
       -2
340
0
 93
        0
 40
1.125
309
GRIDFORMAT_END
 95
        2
302
GRIDFORMAT
  1
GRIDFORMAT_BEGIN
 90
        0
 91
        1
 62
     0
 92
       -2
340
0
 93
        0
 40
1.125
309
GRIDFORMAT_END
 95
        4
302
GRIDFORMAT
  1
GRIDFORMAT_BEGIN
 90
        0
 91
        1
 62
     0
 92
       -2
340
0
 93
        0
 40
1.125
309
GRIDFORMAT_END
 95
        8
302
GRIDFORMAT
  1
GRIDFORMAT_BEGIN
 90
        0
 91
        1
 62
     0
 92
       -2
340
0
 93
        0
 40
1.125
309
GRIDFORMAT_END
 95
       16
302
GRIDFORMAT
  1
GRIDFORMAT_BEGIN
 90
        0
 91
        1
 62
     0
 92
       -2
340
0
 93
        0
 40
1.125
309
GRIDFORMAT_END
 95
       32
302
GRIDFORMAT
  1
GRIDFORMAT_BEGIN
 90
        0
 91
        1
 62
     0
 92
       -2
340
0
 93
        0
 40
1.125
309
GRIDFORMAT_END
309
TABLEFORMAT_END
  1
CELLSTYLE_BEGIN
 90
        2
 91
        1
300
_HEADER
309
CELLSTYLE_END
300
CELLSTYLE
  1
TABLEFORMAT_BEGIN
 90
        5
170
     1
 91
        0
 92
        0
 62
   257
 93
        1
300
CONTENTFORMAT
  1
CONTENTFORMAT_BEGIN
 90
        0
 91
        0
 92
      512
 93
        0
300

 40
0.0
140
1.0
 94
        2
 62
     0
340
7475
144
4.5
309
CONTENTFORMAT_END
171
     1
301
MARGIN
  1
CELLMARGIN_BEGIN
 40
1.5
 40
1.5
 40
1.5
 40
1.5
 40
4.5
 40
4.5
309
CELLMARGIN_END
 94
        6
 95
        1
302
GRIDFORMAT
  1
GRIDFORMAT_BEGIN
 90
        0
 91
        1
 62
     0
 92
       -2
340
0
 93
        0
 40
1.125
309
GRIDFORMAT_END
 95
        2
302
GRIDFORMAT
  1
GRIDFORMAT_BEGIN
 90
        0
 91
        1
 62
     0
 92
       -2
340
0
 93
        0
 40
1.125
309
GRIDFORMAT_END
 95
        4
302
GRIDFORMAT
  1
GRIDFORMAT_BEGIN
 90
        0
 91
        1
 62
     0
 92
       -2
340
0
 93
        0
 40
1.125
309
GRIDFORMAT_END
 95
        8
302
GRIDFORMAT
  1
GRIDFORMAT_BEGIN
 90
        0
 91
        1
 62
     0
 92
       -2
340
0
 93
        0
 40
1.125
309
GRIDFORMAT_END
 95
       16
302
GRIDFORMAT
  1
GRIDFORMAT_BEGIN
 90
        0
 91
        1
 62
     0
 92
       -2
340
0
 93
        0
 40
1.125
309
GRIDFORMAT_END
 95
       32
302
GRIDFORMAT
  1
GRIDFORMAT_BEGIN
 90
        0
 91
        1
 62
     0
 92
       -2
340
0
 93
        0
 40
1.125
309
GRIDFORMAT_END
309
TABLEFORMAT_END
  1
CELLSTYLE_BEGIN
 90
        3
 91
        2
300
_DATA
309
CELLSTYLE_END
  0
XRECORD
  5
A248
102
{ACAD_REACTORS
330
A23B
102
}
330
A23B
100
AcDbXrecord
280
     1
102
ACAD_ROUNDTRIP_PRE2007_TABLESTYLE
 90
      512
 91
        0
  1

 92
      512
 93
        0
  2

 94
      512
 95
        0
  3

  0
ENDSEC
  0
EOF
