  0
SECTION
  2
HEADER
  9
$ACADVER
  1
AC1015
  9
$ACADMAINTVER
 70
    20
  9
$DWGCODEPAGE
  3
ANSI_932
  9
$INSBASE
 10
0.0
 20
0.0
 30
0.0
  9
$EXTMIN
 10
-0.4646816475833476
 20
-0.145258369639123
 30
-0.0000000000000011
  9
$EXTMAX
 10
4455.559110131213
 20
3150.196581536171
 30
0.0000000000000141
  9
$LIMMIN
 10
0.0
 20
0.0
  9
$LIMMAX
 10
420.0
 20
297.0
  9
$ORTHOMODE
 70
     1
  9
$REGENMODE
 70
     1
  9
$FILLMODE
 70
     1
  9
$QTEXTMODE
 70
     0
  9
$MIRRTEXT
 70
     1
  9
$LTSCALE
 40
0.5
  9
$ATTMODE
 70
     1
  9
$TEXTSIZE
 40
2.799999999999999
  9
$TRACEWID
 40
1.0
  9
$TEXTSTYLE
  7
SANWA
  9
$CLAYER
  8
0
  9
$CELTYPE
  6
BYLAYER
  9
$CECOLOR
 62
   256
  9
$CELTSCALE
 40
15.0
  9
$DISPSILH
 70
     0
  9
$DIMSCALE
 40
15.0
  9
$DIMASZ
 40
1.5
  9
$DIMEXO
 40
1.0
  9
$DIMDLI
 40
5.0
  9
$DIMRND
 40
0.0
  9
$DIMDLE
 40
0.0
  9
$DIMEXE
 40
0.5
  9
$DIMTP
 40
0.0
  9
$DIMTM
 40
0.0
  9
$DIMTXT
 40
2.0
  9
$DIMCEN
 40
0.0
  9
$DIMTSZ
 40
0.0
  9
$DIMTOL
 70
     0
  9
$DIMLIM
 70
     0
  9
$DIMTIH
 70
     0
  9
$DIMTOH
 70
     0
  9
$DIMSE1
 70
     0
  9
$DIMSE2
 70
     0
  9
$DIMTAD
 70
     1
  9
$DIMZIN
 70
     8
  9
$DIMBLK
  1

  9
$DIMASO
 70
     1
  9
$DIMSHO
 70
     1
  9
$DIMPOST
  1

  9
$DIMAPOST
  1

  9
$DIMALT
 70
     0
  9
$DIMALTD
 70
     2
  9
$DIMALTF
 40
0.0394
  9
$DIMLFAC
 40
1.0
  9
$DIMTOFL
 70
     1
  9
$DIMTVP
 40
0.0
  9
$DIMTIX
 70
     1
  9
$DIMSOXD
 70
     0
  9
$DIMSAH
 70
     0
  9
$DIMBLK1
  1

  9
$DIMBLK2
  1

  9
$DIMSTYLE
  2
SANWA
  9
$DIMCLRD
 70
   256
  9
$DIMCLRE
 70
   256
  9
$DIMCLRT
 70
   256
  9
$DIMTFAC
 40
1.0
  9
$DIMGAP
 40
1.0
  9
$DIMJUST
 70
     0
  9
$DIMSD1
 70
     0
  9
$DIMSD2
 70
     0
  9
$DIMTOLJ
 70
     1
  9
$DIMTZIN
 70
     0
  9
$DIMALTZ
 70
     0
  9
$DIMALTTZ
 70
     0
  9
$DIMUPT
 70
     0
  9
$DIMDEC
 70
     4
  9
$DIMTDEC
 70
     4
  9
$DIMALTU
 70
     2
  9
$DIMALTTD
 70
     2
  9
$DIMTXSTY
  7
SANWA
  9
$DIMAUNIT
 70
     0
  9
$DIMADEC
 70
     0
  9
$DIMALTRND
 40
0.0
  9
$DIMAZIN
 70
     0
  9
$DIMDSEP
 70
    46
  9
$DIMATFIT
 70
     3
  9
$DIMFRAC
 70
     0
  9
$DIMLDRBLK
  1

  9
$DIMLUNIT
 70
     2
  9
$DIMLWD
 70
    -2
  9
$DIMLWE
 70
    -2
  9
$DIMTMOVE
 70
     0
  9
$LUNITS
 70
     2
  9
$LUPREC
 70
     4
  9
$SKETCHINC
 40
1.0
  9
$FILLETRAD
 40
10.0
  9
$AUNITS
 70
     0
  9
$AUPREC
 70
     0
  9
$MENU
  1
acad
  9
$ELEVATION
 40
0.0
  9
$PELEVATION
 40
0.0
  9
$THICKNESS
 40
0.0
  9
$LIMCHECK
 70
     0
  9
$CHAMFERA
 40
0.0
  9
$CHAMFERB
 40
0.0
  9
$CHAMFERC
 40
0.0
  9
$CHAMFERD
 40
0.0
  9
$SKPOLY
 70
     1
  9
$TDCREATE
 40
2451898.440750926
  9
$TDUCREATE
 40
2451898.065750926
  9
$TDUPDATE
 40
2455412.406612419
  9
$TDUUPDATE
 40
2455412.031612419
  9
$TDINDWG
 40
0.1520486343
  9
$TDUSRTIMER
 40
0.1520486343
  9
$USRTIMER
 70
     1
  9
$ANGBASE
 50
0.0
  9
$ANGDIR
 70
     0
  9
$PDMODE
 70
     0
  9
$PDSIZE
 40
0.0
  9
$PLINEWID
 40
0.0
  9
$SPLFRAME
 70
     0
  9
$SPLINETYPE
 70
     6
  9
$SPLINESEGS
 70
     8
  9
$HANDSEED
  5
97F1
  9
$SURFTAB1
 70
     6
  9
$SURFTAB2
 70
     6
  9
$SURFTYPE
 70
     6
  9
$SURFU
 70
     6
  9
$SURFV
 70
     6
  9
$UCSBASE
  2

  9
$UCSNAME
  2

  9
$UCSORG
 10
0.0
 20
0.0
 30
0.0
  9
$UCSXDIR
 10
1.0
 20
0.0
 30
0.0
  9
$UCSYDIR
 10
0.0
 20
1.0
 30
0.0
  9
$UCSORTHOREF
  2

  9
$UCSORTHOVIEW
 70
     0
  9
$UCSORGTOP
 10
0.0
 20
0.0
 30
0.0
  9
$UCSORGBOTTOM
 10
0.0
 20
0.0
 30
0.0
  9
$UCSORGLEFT
 10
0.0
 20
0.0
 30
0.0
  9
$UCSORGRIGHT
 10
0.0
 20
0.0
 30
0.0
  9
$UCSORGFRONT
 10
0.0
 20
0.0
 30
0.0
  9
$UCSORGBACK
 10
0.0
 20
0.0
 30
0.0
  9
$PUCSBASE
  2

  9
$PUCSNAME
  2

  9
$PUCSORG
 10
0.0
 20
0.0
 30
0.0
  9
$PUCSXDIR
 10
1.0
 20
0.0
 30
0.0
  9
$PUCSYDIR
 10
0.0
 20
1.0
 30
0.0
  9
$PUCSORTHOREF
  2

  9
$PUCSORTHOVIEW
 70
     0
  9
$PUCSORGTOP
 10
0.0
 20
0.0
 30
0.0
  9
$PUCSORGBOTTOM
 10
0.0
 20
0.0
 30
0.0
  9
$PUCSORGLEFT
 10
0.0
 20
0.0
 30
0.0
  9
$PUCSORGRIGHT
 10
0.0
 20
0.0
 30
0.0
  9
$PUCSORGFRONT
 10
0.0
 20
0.0
 30
0.0
  9
$PUCSORGBACK
 10
0.0
 20
0.0
 30
0.0
  9
$USERI1
 70
     0
  9
$USERI2
 70
     0
  9
$USERI3
 70
     0
  9
$USERI4
 70
     0
  9
$USERI5
 70
     0
  9
$USERR1
 40
0.0
  9
$USERR2
 40
0.0
  9
$USERR3
 40
0.0
  9
$USERR4
 40
0.0
  9
$USERR5
 40
0.0
  9
$WORLDVIEW
 70
     1
  9
$SHADEDGE
 70
     3
  9
$SHADEDIF
 70
    70
  9
$TILEMODE
 70
     1
  9
$MAXACTVP
 70
    48
  9
$PINSBASE
 10
0.0
 20
0.0
 30
0.0
  9
$PLIMCHECK
 70
     0
  9
$PEXTMIN
 10
-1587.066828717961
 20
-1807.522793119792
 30
-0.0000000000000164
  9
$PEXTMAX
 10
8566.965704409254
 20
3174.025734010291
 30
0.0000000000000141
  9
$PLIMMIN
 10
-1793.165461679217
 20
-2015.874158345215
  9
$PLIMMAX
 10
8741.530601758814
 20
5432.968744225195
  9
$UNITMODE
 70
     0
  9
$VISRETAIN
 70
     1
  9
$PLINEGEN
 70
     0
  9
$PSLTSCALE
 70
     1
  9
$TREEDEPTH
 70
  3020
  9
$CMLSTYLE
  2
STANDARD
  9
$CMLJUST
 70
     0
  9
$CMLSCALE
 40
1.0
  9
$PROXYGRAPHICS
 70
     1
  9
$MEASUREMENT
 70
     1
  9
$CELWEIGHT
370
    -1
  9
$ENDCAPS
280
     0
  9
$JOINSTYLE
280
     0
  9
$LWDISPLAY
290
     0
  9
$INSUNITS
 70
     0
  9
$HYPERLINKBASE
  1

  9
$STYLESHEET
  1
sanwa3.ctb
  9
$XEDIT
290
     1
  9
$CEPSNTYPE
380
     0
  9
$PSTYLEMODE
290
     1
  9
$FINGERPRINTGUID
  2
{2C14463F-FC7F-453D-8319-795B49786EDC}
  9
$VERSIONGUID
  2
{90E2BCC1-A55A-402F-9227-C31D5AB87ECF}
  9
$EXTNAMES
290
     1
  9
$PSVPSCALE
 40
0.0
  9
$OLESTARTUP
290
     0
  0
ENDSEC
  0
SECTION
  2
CLASSES
  0
CLASS
  1
DICTIONARYVAR
  2
AcDbDictionaryVar
  3
ObjectDBX Classes
 90
        0
280
     0
281
     0
  0
CLASS
  1
ACDBDICTIONARYWDFLT
  2
AcDbDictionaryWithDefault
  3
ObjectDBX Classes
 90
        0
280
     0
281
     0
  0
CLASS
  1
ACDBPLACEHOLDER
  2
AcDbPlaceHolder
  3
ObjectDBX Classes
 90
        0
280
     0
281
     0
  0
CLASS
  1
LAYOUT
  2
AcDbLayout
  3
ObjectDBX Classes
 90
        0
280
     0
281
     0
  0
CLASS
  1
MATERIAL
  2
AcDbMaterial
  3
ObjectDBX Classes
 90
     1153
280
     0
281
     0
  0
CLASS
  1
VISUALSTYLE
  2
AcDbVisualStyle
  3
ObjectDBX Classes
 90
     4095
280
     0
281
     0
  0
CLASS
  1
TABLESTYLE
  2
AcDbTableStyle
  3
ObjectDBX Classes
 90
     4095
280
     0
281
     0
  0
CLASS
  1
SCALE
  2
AcDbScale
  3
ObjectDBX Classes
 90
     1153
280
     0
281
     0
  0
CLASS
  1
MLEADERSTYLE
  2
AcDbMLeaderStyle
  3
ACDB_MLEADERSTYLE_CLASS
 90
     4095
280
     0
281
     0
  0
CLASS
  1
CELLSTYLEMAP
  2
AcDbCellStyleMap
  3
ObjectDBX Classes
 90
     1152
280
     0
281
     0
  0
ENDSEC
  0
SECTION
  2
TABLES
  0
TABLE
  2
VPORT
  5
746D
330
0
100
AcDbSymbolTable
 70
     1
  0
VPORT
  5
95D7
330
746D
100
AcDbSymbolTableRecord
100
AcDbViewportTableRecord
  2
*Active
 70
     0
 10
0.0
 20
0.0
 11
1.0
 21
1.0
 12
2227.547196606711
 22
1575.025653933861
 13
0.0
 23
0.0
 14
10.0
 24
10.0
 15
10.0
 25
10.0
 16
0.0
 26
0.0
 36
1.0
 17
0.0
 27
0.0
 37
0.0
 40
3640.190308801813
 41
1.353070175438596
 42
50.0
 43
0.0
 44
0.0
 50
0.0
 51
0.0
 71
     0
 72
   100
 73
     1
 74
     0
 75
     0
 76
     0
 77
     0
 78
     0
281
     0
 65
     1
110
0.0
120
0.0
130
0.0
111
1.0
121
0.0
131
0.0
112
0.0
122
1.0
132
0.0
 79
     0
146
0.0
  0
ENDTAB
  0
TABLE
  2
LTYPE
  5
746A
330
0
100
AcDbSymbolTable
 70
     5
  0
LTYPE
  5
7477
330
746A
100
AcDbSymbolTableRecord
100
AcDbLinetypeTableRecord
  2
BYBLOCK
 70
     0
  3

 72
    65
 73
     0
 40
0.0
  0
LTYPE
  5
7478
330
746A
100
AcDbSymbolTableRecord
100
AcDbLinetypeTableRecord
  2
BYLAYER
 70
     0
  3

 72
    65
 73
     0
 40
0.0
  0
LTYPE
  5
7479
330
746A
100
AcDbSymbolTableRecord
100
AcDbLinetypeTableRecord
  2
CONTINUOUS
 70
     0
  3
Solid line
 72
    65
 73
     0
 40
0.0
  0
LTYPE
  5
7D54
330
746A
100
AcDbSymbolTableRecord
100
AcDbLinetypeTableRecord
  2
CENTER2
 70
     0
  3
Center (.5x) ___ _ ___ _ ___ _ ___ _ ___ _ ___
 72
    65
 73
     4
 40
28.575
 49
19.05
 74
     0
 49
-3.174999999999999
 74
     0
 49
3.174999999999999
 74
     0
 49
-3.174999999999999
 74
     0
  0
LTYPE
  5
7D55
330
746A
100
AcDbSymbolTableRecord
100
AcDbLinetypeTableRecord
  2
DOT
 70
     0
  3
Dot . . . . . . . . . . . . . . . . . . . . . .
 72
    65
 73
     2
 40
6.349999999999999
 49
0.0
 74
     0
 49
-6.349999999999999
 74
     0
  0
LTYPE
  5
7D56
330
746A
100
AcDbSymbolTableRecord
100
AcDbLinetypeTableRecord
  2
HIDDEN2
 70
     0
  3
Hidden (.5x) _ _ _ _ _ _ _ _ _ _ _ _ _ _ _ _ _
 72
    65
 73
     2
 40
4.762499999999999
 49
3.174999999999999
 74
     0
 49
-1.587499999999999
 74
     0
  0
LTYPE
  5
7D57
330
746A
100
AcDbSymbolTableRecord
100
AcDbLinetypeTableRecord
  2
PHANTOM2
 70
     0
  3
Phantom (.5x) ___ _ _ ___ _ _ ___ _ _ ___ _ _
 72
    65
 73
     6
 40
31.75
 49
15.875
 74
     0
 49
-3.174999999999999
 74
     0
 49
3.174999999999999
 74
     0
 49
-3.174999999999999
 74
     0
 49
3.174999999999999
 74
     0
 49
-3.174999999999999
 74
     0
  0
ENDTAB
  0
TABLE
  2
LAYER
  5
7467
330
0
100
AcDbSymbolTable
 70
     7
  0
LAYER
  5
7474
102
{ACAD_XDICTIONARY
360
97B6
102
}
330
7467
100
AcDbSymbolTableRecord
100
AcDbLayerTableRecord
  2
0
 70
     0
 62
     7
  6
CONTINUOUS
370
    -3
390
8A68
  0
LAYER
  5
7485
330
7467
100
AcDbSymbolTableRecord
100
AcDbLayerTableRecord
  2
DEFPOINTS
 70
     0
 62
     7
  6
CONTINUOUS
290
     0
370
    -3
390
8A68
  0
LAYER
  5
7486
102
{ACAD_XDICTIONARY
360
97B8
102
}
330
7467
100
AcDbSymbolTableRecord
100
AcDbLayerTableRecord
  2
OBJECT
 70
     0
 62
     7
  6
CONTINUOUS
370
    -3
390
8A68
  0
LAYER
  5
7950
102
{ACAD_XDICTIONARY
360
97BA
102
}
330
7467
100
AcDbSymbolTableRecord
100
AcDbLayerTableRecord
  2
枠
 70
     0
 62
     3
  6
CONTINUOUS
370
    -3
390
8A68
  0
LAYER
  5
7D58
102
{ACAD_XDICTIONARY
360
97BC
102
}
330
7467
100
AcDbSymbolTableRecord
100
AcDbLayerTableRecord
  2
寸法引出
 70
     0
 62
     2
  6
CONTINUOUS
370
    -3
390
8A68
  0
LAYER
  5
7D59
102
{ACAD_XDICTIONARY
360
97BE
102
}
330
7467
100
AcDbSymbolTableRecord
100
AcDbLayerTableRecord
  2
鉄筋
 70
     0
 62
     4
  6
CONTINUOUS
370
    -3
390
8A68
  0
LAYER
  5
7D5A
102
{ACAD_XDICTIONARY
360
97C0
102
}
330
7467
100
AcDbSymbolTableRecord
100
AcDbLayerTableRecord
  2
補助線
 70
     0
 62
     6
  6
CONTINUOUS
370
    -3
390
8A68
  0
ENDTAB
  0
TABLE
  2
STYLE
  5
7468
330
0
100
AcDbSymbolTable
 70
     5
  0
STYLE
  5
7475
330
7468
100
AcDbSymbolTableRecord
100
AcDbTextStyleTableRecord
  2
STANDARD
 70
     0
 40
0.0
 41
1.0
 50
0.0
 71
     0
 42
3.5
  3
txt
  4

  0
STYLE
  5
7481
330
7468
100
AcDbSymbolTableRecord
100
AcDbTextStyleTableRecord
  2
ADESK1
 70
     0
 40
0.0
 41
1.0
 50
0.0
 71
     0
 42
5.0
  3
romans
  4
bigfont
  0
STYLE
  5
7731
330
7468
100
AcDbSymbolTableRecord
100
AcDbTextStyleTableRecord
  2
SANWA
 70
     0
 40
0.0
 41
1.0
 50
0.0
 71
     0
 42
2.799999999999999
  3
MS Mincho.ttf
  4

1001
ACAD
1000
MS Mincho
1071
    32785
  0
STYLE
  5
7D45
330
7468
100
AcDbSymbolTableRecord
100
AcDbTextStyleTableRecord
  2

 70
     1
 40
0.0
 41
1.0
 50
0.0
 71
     0
 42
3.5
  3
ltypeshp.shx
  4

  0
ENDTAB
  0
TABLE
  2
VIEW
  5
746B
330
0
100
AcDbSymbolTable
 70
     0
  0
ENDTAB
  0
TABLE
  2
UCS
  5
746C
330
0
100
AcDbSymbolTable
 70
     0
  0
ENDTAB
  0
TABLE
  2
APPID
  5
746E
330
0
100
AcDbSymbolTable
 70
     3
  0
APPID
  5
7476
330
746E
100
AcDbSymbolTableRecord
100
AcDbRegAppTableRecord
  2
ACAD
 70
     0
  0
APPID
  5
962A
330
746E
100
AcDbSymbolTableRecord
100
AcDbRegAppTableRecord
  2
ACAD_MLEADERVER
 70
     0
  0
APPID
  5
97DE
330
746E
100
AcDbSymbolTableRecord
100
AcDbRegAppTableRecord
  2
ACAD_PSEXT
 70
     0
  0
ENDTAB
  0
TABLE
  2
DIMSTYLE
  5
746F
330
0
100
AcDbSymbolTable
 70
     5
100
AcDbDimStyleTable
 71
     1
340
796F
  0
DIMSTYLE
105
7484
330
746F
100
AcDbSymbolTableRecord
100
AcDbDimStyleTableRecord
  2
JIS
 70
     0
 41
2.5
 42
1.0
 43
7.0
 44
1.0
 73
     0
 74
     0
 77
     1
 78
     8
140
2.5
141
0.0
143
0.0394
147
0.0
172
     1
174
     1
176
     2
177
     2
178
     2
340
7731
  0
DIMSTYLE
105
796F
102
{ACAD_REACTORS
330
83D1
330
83D2
330
83DE
330
8454
330
8455
330
845D
330
845E
330
845F
330
8460
330
8461
330
8467
330
846A
330
846B
330
846C
330
846D
330
846E
330
847F
330
8490
330
8495
330
8496
330
90C8
330
90CA
330
90D4
330
90D5
330
90D8
330
90DB
330
90DC
330
90DE
330
90DF
330
90E6
330
90EB
330
90ED
330
90EE
330
8FF9
330
8FFC
330
9071
330
9072
330
9073
102
}
330
746F
100
AcDbSymbolTableRecord
100
AcDbDimStyleTableRecord
  2
SANWA
 70
     0
 41
2.5
 42
1.0
 43
7.0
 44
1.0
 73
     0
 74
     0
 77
     1
 78
     8
140
2.5
141
0.0
143
0.0394
147
0.0
172
     1
174
     1
176
     2
177
     2
178
     2
340
7731
  0
DIMSTYLE
105
7C9D
330
746F
100
AcDbSymbolTableRecord
100
AcDbDimStyleTableRecord
  2
SANWA$4
 70
     0
 41
2.5
 42
1.0
 43
5.0
 44
1.0
 73
     0
 74
     0
 77
     1
 78
     8
140
2.5
141
0.0
143
0.0394
147
1.0
172
     1
174
     1
176
     2
177
     2
178
     2
289
     2
340
7731
  0
DIMSTYLE
105
7CB5
330
746F
100
AcDbSymbolTableRecord
100
AcDbDimStyleTableRecord
  2
SANWA$3
 70
     0
 41
2.5
 42
1.0
 43
7.0
 44
1.0
 73
     0
 74
     0
 77
     1
 78
     8
140
2.5
141
0.0
143
0.0394
147
0.0
172
     1
174
     1
176
     2
177
     2
178
     2
289
     0
340
7731
  0
ENDTAB
  0
TABLE
  2
BLOCK_RECORD
  5
7466
330
0
100
AcDbSymbolTable
 70
    66
  0
BLOCK_RECORD
  5
747D
330
7466
100
AcDbSymbolTableRecord
100
AcDbBlockTableRecord
  2
*MODEL_SPACE
340
8A6B
  0
BLOCK_RECORD
  5
747A
330
7466
100
AcDbSymbolTableRecord
100
AcDbBlockTableRecord
  2
*PAPER_SPACE
340
8A6C
  0
BLOCK_RECORD
  5
7493
330
7466
100
AcDbSymbolTableRecord
100
AcDbBlockTableRecord
  2
TITLE_BLOCK
340
0
  0
BLOCK_RECORD
  5
82D5
330
7466
100
AcDbSymbolTableRecord
100
AcDbBlockTableRecord
  2
*D1
340
0
  0
BLOCK_RECORD
  5
82E1
330
7466
100
AcDbSymbolTableRecord
100
AcDbBlockTableRecord
  2
*D2
340
0
  0
BLOCK_RECORD
  5
82EE
330
7466
100
AcDbSymbolTableRecord
100
AcDbBlockTableRecord
  2
*D3
340
0
  0
BLOCK_RECORD
  5
82FC
330
7466
100
AcDbSymbolTableRecord
100
AcDbBlockTableRecord
  2
*D4
340
0
  0
BLOCK_RECORD
  5
830A
330
7466
100
AcDbSymbolTableRecord
100
AcDbBlockTableRecord
  2
*D5
340
0
  0
BLOCK_RECORD
  5
8315
330
7466
100
AcDbSymbolTableRecord
100
AcDbBlockTableRecord
  2
*D6
340
0
  0
BLOCK_RECORD
  5
8322
330
7466
100
AcDbSymbolTableRecord
100
AcDbBlockTableRecord
  2
*D7
340
0
  0
BLOCK_RECORD
  5
832E
330
7466
100
AcDbSymbolTableRecord
100
AcDbBlockTableRecord
  2
*D8
340
0
  0
BLOCK_RECORD
  5
833A
330
7466
100
AcDbSymbolTableRecord
100
AcDbBlockTableRecord
  2
*D9
340
0
  0
BLOCK_RECORD
  5
8348
330
7466
100
AcDbSymbolTableRecord
100
AcDbBlockTableRecord
  2
*D10
340
0
  0
BLOCK_RECORD
  5
8353
330
7466
100
AcDbSymbolTableRecord
100
AcDbBlockTableRecord
  2
*D11
340
0
  0
BLOCK_RECORD
  5
8360
330
7466
100
AcDbSymbolTableRecord
100
AcDbBlockTableRecord
  2
*D12
340
0
  0
BLOCK_RECORD
  5
836C
330
7466
100
AcDbSymbolTableRecord
100
AcDbBlockTableRecord
  2
*D13
340
0
  0
BLOCK_RECORD
  5
8379
330
7466
100
AcDbSymbolTableRecord
100
AcDbBlockTableRecord
  2
*D14
340
0
  0
BLOCK_RECORD
  5
8387
330
7466
100
AcDbSymbolTableRecord
100
AcDbBlockTableRecord
  2
*D15
340
0
  0
BLOCK_RECORD
  5
8392
330
7466
100
AcDbSymbolTableRecord
100
AcDbBlockTableRecord
  2
*D16
340
0
  0
BLOCK_RECORD
  5
839F
330
7466
100
AcDbSymbolTableRecord
100
AcDbBlockTableRecord
  2
*D17
340
0
  0
BLOCK_RECORD
  5
83AB
330
7466
100
AcDbSymbolTableRecord
100
AcDbBlockTableRecord
  2
*D18
340
0
  0
BLOCK_RECORD
  5
83B8
330
7466
100
AcDbSymbolTableRecord
100
AcDbBlockTableRecord
  2
*D19
340
0
  0
BLOCK_RECORD
  5
83C4
330
7466
100
AcDbSymbolTableRecord
100
AcDbBlockTableRecord
  2
*D20
340
0
  0
BLOCK_RECORD
  5
83D0
330
7466
100
AcDbSymbolTableRecord
100
AcDbBlockTableRecord
  2
A$C32BC39A0
340
0
  0
BLOCK_RECORD
  5
91D2
330
7466
100
AcDbSymbolTableRecord
100
AcDbBlockTableRecord
  2
*D22
340
0
  0
BLOCK_RECORD
  5
91DD
330
7466
100
AcDbSymbolTableRecord
100
AcDbBlockTableRecord
  2
*D23
340
0
  0
BLOCK_RECORD
  5
91E8
330
7466
100
AcDbSymbolTableRecord
100
AcDbBlockTableRecord
  2
*D24
340
0
  0
BLOCK_RECORD
  5
91F3
330
7466
100
AcDbSymbolTableRecord
100
AcDbBlockTableRecord
  2
*D25
340
0
  0
BLOCK_RECORD
  5
91FF
330
7466
100
AcDbSymbolTableRecord
100
AcDbBlockTableRecord
  2
*D26
340
0
  0
BLOCK_RECORD
  5
920B
330
7466
100
AcDbSymbolTableRecord
100
AcDbBlockTableRecord
  2
*D27
340
0
  0
BLOCK_RECORD
  5
9216
330
7466
100
AcDbSymbolTableRecord
100
AcDbBlockTableRecord
  2
*D28
340
0
  0
BLOCK_RECORD
  5
9223
330
7466
100
AcDbSymbolTableRecord
100
AcDbBlockTableRecord
  2
*D29
340
0
  0
BLOCK_RECORD
  5
922F
330
7466
100
AcDbSymbolTableRecord
100
AcDbBlockTableRecord
  2
*D30
340
0
  0
BLOCK_RECORD
  5
923D
330
7466
100
AcDbSymbolTableRecord
100
AcDbBlockTableRecord
  2
*D31
340
0
  0
BLOCK_RECORD
  5
9249
330
7466
100
AcDbSymbolTableRecord
100
AcDbBlockTableRecord
  2
*D32
340
0
  0
BLOCK_RECORD
  5
9255
330
7466
100
AcDbSymbolTableRecord
100
AcDbBlockTableRecord
  2
*D33
340
0
  0
BLOCK_RECORD
  5
9261
330
7466
100
AcDbSymbolTableRecord
100
AcDbBlockTableRecord
  2
*D34
340
0
  0
BLOCK_RECORD
  5
926C
330
7466
100
AcDbSymbolTableRecord
100
AcDbBlockTableRecord
  2
*D35
340
0
  0
BLOCK_RECORD
  5
9279
330
7466
100
AcDbSymbolTableRecord
100
AcDbBlockTableRecord
  2
*D36
340
0
  0
BLOCK_RECORD
  5
9285
330
7466
100
AcDbSymbolTableRecord
100
AcDbBlockTableRecord
  2
*D37
340
0
  0
BLOCK_RECORD
  5
9293
330
7466
100
AcDbSymbolTableRecord
100
AcDbBlockTableRecord
  2
*D38
340
0
  0
BLOCK_RECORD
  5
92A1
330
7466
100
AcDbSymbolTableRecord
100
AcDbBlockTableRecord
  2
*D39
340
0
  0
BLOCK_RECORD
  5
92AC
330
7466
100
AcDbSymbolTableRecord
100
AcDbBlockTableRecord
  2
*D40
340
0
  0
BLOCK_RECORD
  5
92B9
330
7466
100
AcDbSymbolTableRecord
100
AcDbBlockTableRecord
  2
*D41
340
0
  0
BLOCK_RECORD
  5
92C5
330
7466
100
AcDbSymbolTableRecord
100
AcDbBlockTableRecord
  2
*D42
340
0
  0
BLOCK_RECORD
  5
92D1
330
7466
100
AcDbSymbolTableRecord
100
AcDbBlockTableRecord
  2
*D43
340
0
  0
BLOCK_RECORD
  5
92DD
330
7466
100
AcDbSymbolTableRecord
100
AcDbBlockTableRecord
  2
*D44
340
0
  0
BLOCK_RECORD
  5
92E9
330
7466
100
AcDbSymbolTableRecord
100
AcDbBlockTableRecord
  2
*D45
340
0
  0
BLOCK_RECORD
  5
92F4
330
7466
100
AcDbSymbolTableRecord
100
AcDbBlockTableRecord
  2
*D46
340
0
  0
BLOCK_RECORD
  5
9300
330
7466
100
AcDbSymbolTableRecord
100
AcDbBlockTableRecord
  2
*D47
340
0
  0
BLOCK_RECORD
  5
930B
330
7466
100
AcDbSymbolTableRecord
100
AcDbBlockTableRecord
  2
*D48
340
0
  0
BLOCK_RECORD
  5
9317
330
7466
100
AcDbSymbolTableRecord
100
AcDbBlockTableRecord
  2
*D49
340
0
  0
BLOCK_RECORD
  5
9324
330
7466
100
AcDbSymbolTableRecord
100
AcDbBlockTableRecord
  2
*D50
340
0
  0
BLOCK_RECORD
  5
9332
330
7466
100
AcDbSymbolTableRecord
100
AcDbBlockTableRecord
  2
*D51
340
0
  0
BLOCK_RECORD
  5
933D
330
7466
100
AcDbSymbolTableRecord
100
AcDbBlockTableRecord
  2
*D52
340
0
  0
BLOCK_RECORD
  5
934B
330
7466
100
AcDbSymbolTableRecord
100
AcDbBlockTableRecord
  2
*D53
340
0
  0
BLOCK_RECORD
  5
9357
330
7466
100
AcDbSymbolTableRecord
100
AcDbBlockTableRecord
  2
*D54
340
0
  0
BLOCK_RECORD
  5
9364
330
7466
100
AcDbSymbolTableRecord
100
AcDbBlockTableRecord
  2
*D55
340
0
  0
BLOCK_RECORD
  5
9372
330
7466
100
AcDbSymbolTableRecord
100
AcDbBlockTableRecord
  2
*D56
340
0
  0
BLOCK_RECORD
  5
937D
330
7466
100
AcDbSymbolTableRecord
100
AcDbBlockTableRecord
  2
*D57
340
0
  0
BLOCK_RECORD
  5
9389
330
7466
100
AcDbSymbolTableRecord
100
AcDbBlockTableRecord
  2
*D58
340
0
  0
BLOCK_RECORD
  5
9394
330
7466
100
AcDbSymbolTableRecord
100
AcDbBlockTableRecord
  2
*D59
340
0
  0
BLOCK_RECORD
  5
93A1
330
7466
100
AcDbSymbolTableRecord
100
AcDbBlockTableRecord
  2
*D60
340
0
  0
BLOCK_RECORD
  5
93AD
330
7466
100
AcDbSymbolTableRecord
100
AcDbBlockTableRecord
  2
*D61
340
0
  0
BLOCK_RECORD
  5
93B9
330
7466
100
AcDbSymbolTableRecord
100
AcDbBlockTableRecord
  2
*D62
340
0
  0
BLOCK_RECORD
  5
93C7
330
7466
100
AcDbSymbolTableRecord
100
AcDbBlockTableRecord
  2
*D63
340
0
  0
BLOCK_RECORD
  5
93D2
330
7466
100
AcDbSymbolTableRecord
100
AcDbBlockTableRecord
  2
*D64
340
0
  0
ENDTAB
  0
ENDSEC
  0
SECTION
  2
BLOCKS
  0
BLOCK
  5
7489
330
747D
100
AcDbEntity
  8
0
100
AcDbBlockBegin
  2
*MODEL_SPACE
 70
     0
 10
0.0
 20
0.0
 30
0.0
  3
*MODEL_SPACE
  1

  0
ENDBLK
  5
748A
330
747D
100
AcDbEntity
  8
0
100
AcDbBlockEnd
  0
BLOCK
  5
7487
330
747A
100
AcDbEntity
 67
     1
  8
0
100
AcDbBlockBegin
  2
*PAPER_SPACE
 70
     2
 10
0.0
 20
0.0
 30
0.0
  3
*PAPER_SPACE
  1

  0
ENDBLK
  5
7488
330
747A
100
AcDbEntity
 67
     1
  8
0
100
AcDbBlockEnd
  0
BLOCK
  5
7494
330
7493
100
AcDbEntity
  8
0
100
AcDbBlockBegin
  2
TITLE_BLOCK
 70
     2
 10
0.0
 20
0.0
 30
0.0
  3
TITLE_BLOCK
  1

  0
LINE
  5
7495
330
7493
100
AcDbEntity
  8
0
 62
     0
100
AcDbLine
 10
402.7943262411347
 20
16.00000000000008
 30
0.0
 11
410.0
 21
16.00000000000008
 31
0.0
  0
LINE
  5
7496
330
7493
100
AcDbEntity
  8
0
 62
     0
100
AcDbLine
 10
410.0
 20
10.0
 30
0.0
 11
410.0
 21
49.00000000000036
 31
0.0
  0
LINE
  5
7497
330
7493
100
AcDbEntity
  8
0
 62
     0
100
AcDbLine
 10
410.0
 20
49.00000000000036
 30
0.0
 11
410.0
 21
10.0
 31
0.0
  0
LINE
  5
7498
330
7493
100
AcDbEntity
  8
0
 62
     0
100
AcDbLine
 10
402.7943262411347
 20
22.00000000000012
 30
0.0
 11
402.7943262411347
 21
10.0
 31
0.0
  0
LINE
  5
7499
330
7493
100
AcDbEntity
  8
0
 62
     0
100
AcDbLine
 10
336.1418439716306
 20
49.00000000000036
 30
0.0
 11
336.1418439716306
 21
22.00000000000012
 31
0.0
  0
LINE
  5
749A
330
7493
100
AcDbEntity
  8
0
 62
     0
100
AcDbLine
 10
325.3333333333326
 20
37.00000000000024
 30
0.0
 11
325.3333333333326
 21
25.00000000000012
 31
0.0
  0
LINE
  5
749B
330
7493
100
AcDbEntity
  8
0
 62
     0
100
AcDbLine
 10
318.1276595744673
 20
49.00000000000036
 30
0.0
 11
318.1276595744673
 21
25.00000000000012
 31
0.0
  0
LINE
  5
749C
330
7493
100
AcDbEntity
  8
0
 62
     0
100
AcDbLine
 10
318.1276595744673
 20
25.00000000000012
 30
0.0
 11
348.7517730496447
 21
25.00000000000012
 31
0.0
  0
LINE
  5
749D
330
7493
100
AcDbEntity
  8
0
 62
     0
100
AcDbLine
 10
280.2978723404242
 20
28.00000000000016
 30
0.0
 11
348.7517730496447
 21
28.00000000000016
 31
0.0
  0
LINE
  5
749E
330
7493
100
AcDbEntity
  8
0
 62
     0
100
AcDbLine
 10
280.2978723404242
 20
31.0000000000002
 30
0.0
 11
348.7517730496447
 21
31.0000000000002
 31
0.0
  0
LINE
  5
749F
330
7493
100
AcDbEntity
  8
0
 62
     0
100
AcDbLine
 10
280.2978723404242
 20
34.00000000000024
 30
0.0
 11
348.7517730496447
 21
34.00000000000024
 31
0.0
  0
LINE
  5
74A0
330
7493
100
AcDbEntity
  8
0
 62
     0
100
AcDbLine
 10
280.2978723404242
 20
19.00000000000008
 30
0.0
 11
318.1276595744673
 21
19.00000000000012
 31
0.0
  0
LINE
  5
74A1
330
7493
100
AcDbEntity
  8
0
 62
     0
100
AcDbLine
 10
280.2978723404242
 20
22.00000000000008
 30
0.0
 11
318.1276595744673
 21
22.00000000000012
 31
0.0
  0
LINE
  5
74A2
330
7493
100
AcDbEntity
  8
0
 62
     0
100
AcDbLine
 10
280.2978723404242
 20
25.00000000000012
 30
0.0
 11
318.1276595744673
 21
25.00000000000012
 31
0.0
  0
TEXT
  5
74A3
330
7493
100
AcDbEntity
  8
0
 62
     0
100
AcDbText
 10
342.2447163844405
 20
10.55220101068186
 30
0.0
 40
1.791674070777747
  1
照査
  7
ADESK1
 72
     1
 11
344.1558353932701
 21
10.55220101068186
 31
0.0
100
AcDbText
  0
TEXT
  5
74A4
330
7493
100
AcDbEntity
  8
0
 62
     0
100
AcDbText
 10
332.2960689314087
 20
10.48329012996929
 30
0.0
 40
1.791674070777747
  1
設計
  7
ADESK1
 72
     1
 11
334.2071879402383
 21
10.48329012996929
 31
0.0
100
AcDbText
  0
TEXT
  5
74A5
330
7493
100
AcDbEntity
  8
0
 62
     0
100
AcDbText
 10
321.7174935280942
 20
10.48329012996929
 30
0.0
 40
1.791674070777747
  1
製図
  7
ADESK1
 72
     1
 11
323.5688900678979
 21
10.48329012996929
 31
0.0
100
AcDbText
  0
LINE
  5
74A6
330
7493
100
AcDbEntity
  8
0
 62
     0
100
AcDbLine
 10
280.2978723404242
 20
10.0
 30
0.0
 11
280.2978723404242
 21
13.00000000000004
 31
0.0
  0
LINE
  5
74A7
330
7493
100
AcDbEntity
  8
0
 62
     0
100
AcDbLine
 10
280.2978723404242
 20
16.00000000000008
 30
0.0
 11
318.1276595744673
 21
16.00000000000008
 31
0.0
  0
LINE
  5
74A8
330
7493
100
AcDbEntity
  8
0
 62
     0
100
AcDbLine
 10
339.4042553191484
 20
22.00000000000008
 30
0.0
 11
339.4042553191484
 21
10.0
 31
0.0
  0
LINE
  5
74A9
330
7493
100
AcDbEntity
  8
0
 62
     0
100
AcDbLine
 10
328.7659574468078
 20
22.00000000000008
 30
0.0
 11
328.7659574468078
 21
10.0
 31
0.0
  0
LINE
  5
74AA
330
7493
100
AcDbEntity
  8
0
 62
     0
100
AcDbLine
 10
348.7517730496447
 20
49.00000000000036
 30
0.0
 11
348.7517730496447
 21
10.0
 31
0.0
  0
LINE
  5
74AB
330
7493
100
AcDbEntity
  8
0
 62
     0
100
AcDbLine
 10
280.2978723404242
 20
49.00000000000036
 30
0.0
 11
280.2978723404242
 21
10.0
 31
0.0
  0
LINE
  5
74AC
330
7493
100
AcDbEntity
  8
0
 62
     0
100
AcDbLine
 10
318.1276595744673
 20
25.00000000000012
 30
0.0
 11
318.1276595744673
 21
10.0
 31
0.0
  0
LINE
  5
74AD
330
7493
100
AcDbEntity
  8
0
 62
     0
100
AcDbLine
 10
312.7234042553184
 20
37.00000000000024
 30
0.0
 11
312.7234042553184
 21
10.0
 31
0.0
  0
LINE
  5
74AE
330
7493
100
AcDbEntity
  8
0
 62
     0
100
AcDbLine
 10
285.7021276595731
 20
37.00000000000024
 30
0.0
 11
285.7021276595731
 21
10.0
 31
0.0
  0
LINE
  5
74AF
330
7493
100
AcDbEntity
  8
0
 62
     0
100
AcDbLine
 10
303.7163120567366
 20
37.00000000000024
 30
0.0
 11
303.7163120567366
 21
10.0
 31
0.0
  0
LINE
  5
74B0
330
7493
100
AcDbEntity
  8
0
 62
     0
100
AcDbLine
 10
410.0
 20
49.00000000000036
 30
0.0
 11
280.2978723404242
 21
49.00000000000036
 31
0.0
  0
LINE
  5
74B1
330
7493
100
AcDbEntity
  8
0
 62
     0
100
AcDbLine
 10
280.2978723404242
 20
10.0
 30
0.0
 11
410.0
 21
10.0
 31
0.0
  0
LINE
  5
74B2
330
7493
100
AcDbEntity
  8
0
 62
     0
100
AcDbLine
 10
318.1276595744673
 20
22.00000000000012
 30
0.0
 11
410.0
 21
22.00000000000012
 31
0.0
  0
LINE
  5
74B3
330
7493
100
AcDbEntity
  8
0
 62
     0
100
AcDbLine
 10
280.2978723404242
 20
37.00000000000024
 30
0.0
 11
410.0
 21
37.00000000000024
 31
0.0
  0
LINE
  5
74B4
330
7493
100
AcDbEntity
  8
0
 62
     0
100
AcDbLine
 10
280.2978723404242
 20
13.00000000000004
 30
0.0
 11
410.0
 21
13.00000000000004
 31
0.0
  0
LINE
  5
74B5
330
7493
100
AcDbEntity
  8
0
 62
     0
100
AcDbLine
 10
280.2978723404242
 20
49.00000000000036
 30
0.0
 11
410.0
 21
49.00000000000036
 31
0.0
  0
TEXT
  5
74B6
330
7493
100
AcDbEntity
  8
0
100
AcDbText
 10
411.3708251683467
 20
33.08333333333334
 30
0.0
 40
3.0
  1
F
  7
ADESK1
 72
     1
 11
412.8708251683468
 21
33.08333333333334
 31
0.0
100
AcDbText
  0
TEXT
  5
74B7
330
7493
100
AcDbEntity
  8
0
100
AcDbText
 10
411.3708251683467
 20
79.25
 30
0.0
 40
3.0
  1
E
  7
ADESK1
 72
     1
 11
412.8708251683468
 21
79.25
 31
0.0
100
AcDbText
  0
TEXT
  5
74B8
330
7493
100
AcDbEntity
  8
0
100
AcDbText
 10
411.2993965969182
 20
125.4166666666666
 30
0.0
 40
3.0
  1
D
  7
ADESK1
 72
     1
 11
412.8708251683468
 21
125.4166666666666
 31
0.0
100
AcDbText
  0
TEXT
  5
74B9
330
7493
100
AcDbEntity
  8
0
100
AcDbText
 10
411.3708251683467
 20
171.5833333333333
 30
0.0
 40
3.0
  1
C
  7
ADESK1
 72
     1
 11
412.8708251683468
 21
171.5833333333333
 31
0.0
100
AcDbText
  0
TEXT
  5
74BA
330
7493
100
AcDbEntity
  8
0
100
AcDbText
 10
411.2993965969182
 20
217.75
 30
0.0
 40
3.0
  1
B
  7
ADESK1
 72
     1
 11
412.8708251683468
 21
217.75
 31
0.0
100
AcDbText
  0
TEXT
  5
74BB
330
7493
100
AcDbEntity
  8
0
100
AcDbText
 10
411.5851108826324
 20
263.9166666666666
 30
0.0
 40
3.0
  1
A
  7
ADESK1
 72
     1
 11
412.8708251683468
 21
263.9166666666666
 31
0.0
100
AcDbText
  0
TEXT
  5
74BC
330
7493
100
AcDbEntity
  8
0
100
AcDbText
 10
384.5089285714286
 20
6.019997240728748
 30
0.0
 40
3.0
  1
8
  7
ADESK1
 72
     1
 11
385.9375
 21
6.019997240728748
 31
0.0
100
AcDbText
  0
TEXT
  5
74BD
330
7493
100
AcDbEntity
  8
0
100
AcDbText
 10
336.3839285714286
 20
6.019997240728748
 30
0.0
 40
3.0
  1
7
  7
ADESK1
 72
     1
 11
337.8125
 21
6.019997240728748
 31
0.0
100
AcDbText
  0
TEXT
  5
74BE
330
7493
100
AcDbEntity
  8
0
100
AcDbText
 10
288.1875
 20
6.019997240728748
 30
0.0
 40
3.0
  1
6
  7
ADESK1
 72
     1
 11
289.6875
 21
6.019997240728748
 31
0.0
100
AcDbText
  0
TEXT
  5
74BF
330
7493
100
AcDbEntity
  8
0
100
AcDbText
 10
240.1339285714286
 20
6.019997240728748
 30
0.0
 40
3.0
  1
5
  7
ADESK1
 72
     1
 11
241.5625
 21
6.019997240728748
 31
0.0
100
AcDbText
  0
TEXT
  5
74C0
330
7493
100
AcDbEntity
  8
0
100
AcDbText
 10
191.9375
 20
6.019997240728748
 30
0.0
 40
3.0
  1
4
  7
ADESK1
 72
     1
 11
193.4375
 21
6.019997240728748
 31
0.0
100
AcDbText
  0
TEXT
  5
74C1
330
7493
100
AcDbEntity
  8
0
100
AcDbText
 10
143.8839285714285
 20
6.019997240728748
 30
0.0
 40
3.0
  1
3
  7
ADESK1
 72
     1
 11
145.3125
 21
6.019997240728748
 31
0.0
100
AcDbText
  0
TEXT
  5
74C2
330
7493
100
AcDbEntity
  8
0
100
AcDbText
 10
95.75892857142857
 20
6.019997240728748
 30
0.0
 40
3.0
  1
2
  7
ADESK1
 72
     1
 11
97.1875
 21
6.019997240728748
 31
0.0
100
AcDbText
  0
TEXT
  5
74C3
330
7493
100
AcDbEntity
  8
0
100
AcDbText
 10
47.84821428571429
 20
6.019997240728748
 30
0.0
 40
3.0
  1
1
  7
ADESK1
 72
     1
 11
49.0625
 21
6.019997240728748
 31
0.0
100
AcDbText
  0
TEXT
  5
74C4
330
7493
100
AcDbEntity
  8
0
100
AcDbText
 10
21.1071613595339
 20
33.08333333333334
 30
0.0
 40
3.0
  1
F
  7
ADESK1
 72
     1
 11
22.6071613595339
 21
33.08333333333334
 31
0.0
100
AcDbText
  0
TEXT
  5
74C5
330
7493
100
AcDbEntity
  8
0
100
AcDbText
 10
21.1071613595339
 20
79.25
 30
0.0
 40
3.0
  1
E
  7
ADESK1
 72
     1
 11
22.6071613595339
 21
79.25
 31
0.0
100
AcDbText
  0
TEXT
  5
74C6
330
7493
100
AcDbEntity
  8
0
100
AcDbText
 10
21.03573278810533
 20
125.4166666666666
 30
0.0
 40
3.0
  1
D
  7
ADESK1
 72
     1
 11
22.6071613595339
 21
125.4166666666666
 31
0.0
100
AcDbText
  0
TEXT
  5
74C7
330
7493
100
AcDbEntity
  8
0
100
AcDbText
 10
21.1071613595339
 20
171.5833333333333
 30
0.0
 40
3.0
  1
C
  7
ADESK1
 72
     1
 11
22.6071613595339
 21
171.5833333333333
 31
0.0
100
AcDbText
  0
TEXT
  5
74C8
330
7493
100
AcDbEntity
  8
0
100
AcDbText
 10
21.03573278810533
 20
217.75
 30
0.0
 40
3.0
  1
B
  7
ADESK1
 72
     1
 11
22.6071613595339
 21
217.75
 31
0.0
100
AcDbText
  0
TEXT
  5
74C9
330
7493
100
AcDbEntity
  8
0
100
AcDbText
 10
384.5089285714286
 20
288.0
 30
0.0
 40
3.0
  1
8
  7
ADESK1
 72
     1
 11
385.9375
 21
288.0
 31
0.0
100
AcDbText
  0
TEXT
  5
74CA
330
7493
100
AcDbEntity
  8
0
100
AcDbText
 10
336.3839285714286
 20
288.0
 30
0.0
 40
3.0
  1
7
  7
ADESK1
 72
     1
 11
337.8125
 21
288.0
 31
0.0
100
AcDbText
  0
TEXT
  5
74CB
330
7493
100
AcDbEntity
  8
0
100
AcDbText
 10
288.1875
 20
288.0
 30
0.0
 40
3.0
  1
6
  7
ADESK1
 72
     1
 11
289.6875
 21
288.0
 31
0.0
100
AcDbText
  0
TEXT
  5
74CC
330
7493
100
AcDbEntity
  8
0
100
AcDbText
 10
240.1339285714286
 20
288.0
 30
0.0
 40
3.0
  1
5
  7
ADESK1
 72
     1
 11
241.5625
 21
288.0
 31
0.0
100
AcDbText
  0
TEXT
  5
74CD
330
7493
100
AcDbEntity
  8
0
100
AcDbText
 10
191.9375
 20
288.0
 30
0.0
 40
3.0
  1
4
  7
ADESK1
 72
     1
 11
193.4375
 21
288.0
 31
0.0
100
AcDbText
  0
TEXT
  5
74CE
330
7493
100
AcDbEntity
  8
0
100
AcDbText
 10
143.8839285714285
 20
288.0
 30
0.0
 40
3.0
  1
3
  7
ADESK1
 72
     1
 11
145.3125
 21
288.0
 31
0.0
100
AcDbText
  0
TEXT
  5
74CF
330
7493
100
AcDbEntity
  8
0
100
AcDbText
 10
95.75892857142857
 20
288.0
 30
0.0
 40
3.0
  1
2
  7
ADESK1
 72
     1
 11
97.1875
 21
288.0
 31
0.0
100
AcDbText
  0
TEXT
  5
74D0
330
7493
100
AcDbEntity
  8
0
100
AcDbText
 10
21.32144707381961
 20
263.9166666666666
 30
0.0
 40
3.0
  1
A
  7
ADESK1
 72
     1
 11
22.6071613595339
 21
263.9166666666666
 31
0.0
100
AcDbText
  0
TEXT
  5
74D1
330
7493
100
AcDbEntity
  8
0
100
AcDbText
 10
47.84821428571429
 20
288.0
 30
0.0
 40
3.0
  1
1
  7
ADESK1
 72
     1
 11
49.0625
 21
288.0
 31
0.0
100
AcDbText
  0
LINE
  5
74D2
330
7493
100
AcDbEntity
  8
0
100
AcDbLine
 10
73.125
 20
287.0
 30
0.0
 11
73.125
 21
292.0
 31
0.0
  0
LINE
  5
74D3
330
7493
100
AcDbEntity
  8
0
100
AcDbLine
 10
121.25
 20
287.0
 30
0.0
 11
121.25
 21
292.0
 31
0.0
  0
LINE
  5
74D4
330
7493
100
AcDbEntity
  8
0
100
AcDbLine
 10
169.375
 20
287.0
 30
0.0
 11
169.375
 21
292.0
 31
0.0
  0
LINE
  5
74D5
330
7493
100
AcDbEntity
  8
0
100
AcDbLine
 10
217.5
 20
287.0
 30
0.0
 11
217.5
 21
292.0
 31
0.0
  0
LINE
  5
74D6
330
7493
100
AcDbEntity
  8
0
100
AcDbLine
 10
265.625
 20
287.0
 30
0.0
 11
265.625
 21
292.0
 31
0.0
  0
LINE
  5
74D7
330
7493
100
AcDbEntity
  8
0
100
AcDbLine
 10
313.75
 20
287.0
 30
0.0
 11
313.75
 21
292.0
 31
0.0
  0
LINE
  5
74D8
330
7493
100
AcDbEntity
  8
0
100
AcDbLine
 10
361.875
 20
287.0
 30
0.0
 11
361.875
 21
292.0
 31
0.0
  0
LINE
  5
74D9
330
7493
100
AcDbEntity
  8
0
100
AcDbLine
 10
361.875
 20
10.0
 30
0.0
 11
361.875
 21
5.0
 31
0.0
  0
LINE
  5
74DA
330
7493
100
AcDbEntity
  8
0
100
AcDbLine
 10
313.75
 20
10.0
 30
0.0
 11
313.75
 21
5.0
 31
0.0
  0
LINE
  5
74DB
330
7493
100
AcDbEntity
  8
0
100
AcDbLine
 10
265.625
 20
10.0
 30
0.0
 11
265.625
 21
5.0
 31
0.0
  0
LINE
  5
74DC
330
7493
100
AcDbEntity
  8
0
100
AcDbLine
 10
217.5
 20
10.0
 30
0.0
 11
217.5
 21
5.0
 31
0.0
  0
LINE
  5
74DD
330
7493
100
AcDbEntity
  8
0
100
AcDbLine
 10
169.375
 20
10.0
 30
0.0
 11
169.375
 21
5.0
 31
0.0
  0
LINE
  5
74DE
330
7493
100
AcDbEntity
  8
0
100
AcDbLine
 10
121.25
 20
10.0
 30
0.0
 11
121.25
 21
5.0
 31
0.0
  0
LINE
  5
74DF
330
7493
100
AcDbEntity
  8
0
100
AcDbLine
 10
73.125
 20
10.0
 30
0.0
 11
73.125
 21
5.0
 31
0.0
  0
LINE
  5
74E0
330
7493
100
AcDbEntity
  8
0
100
AcDbLine
 10
410.0
 20
240.8333333333334
 30
0.0
 11
415.0
 21
240.8333333333334
 31
0.0
  0
LINE
  5
74E1
330
7493
100
AcDbEntity
  8
0
100
AcDbLine
 10
410.0
 20
194.6666666666667
 30
0.0
 11
415.0
 21
194.6666666666667
 31
0.0
  0
LINE
  5
74E2
330
7493
100
AcDbEntity
  8
0
100
AcDbLine
 10
410.0
 20
148.5
 30
0.0
 11
415.0
 21
148.5
 31
0.0
  0
LINE
  5
74E3
330
7493
100
AcDbEntity
  8
0
100
AcDbLine
 10
410.0
 20
102.3333333333333
 30
0.0
 11
415.0
 21
102.3333333333333
 31
0.0
  0
LINE
  5
74E4
330
7493
100
AcDbEntity
  8
0
100
AcDbLine
 10
410.0
 20
56.16666666666668
 30
0.0
 11
415.0
 21
56.16666666666668
 31
0.0
  0
LINE
  5
74E5
330
7493
100
AcDbEntity
  8
0
100
AcDbLine
 10
25.0
 20
56.16666666666667
 30
0.0
 11
20.0
 21
56.16666666666667
 31
0.0
  0
LINE
  5
74E6
330
7493
100
AcDbEntity
  8
0
100
AcDbLine
 10
25.0
 20
102.3333333333333
 30
0.0
 11
20.0
 21
102.3333333333333
 31
0.0
  0
LINE
  5
74E7
330
7493
100
AcDbEntity
  8
0
100
AcDbLine
 10
25.0
 20
148.5
 30
0.0
 11
20.0
 21
148.5
 31
0.0
  0
LINE
  5
74E8
330
7493
100
AcDbEntity
  8
0
100
AcDbLine
 10
25.0
 20
194.6666666666666
 30
0.0
 11
20.0
 21
194.6666666666666
 31
0.0
  0
LINE
  5
74E9
330
7493
100
AcDbEntity
  8
0
100
AcDbLine
 10
25.0
 20
240.8333333333333
 30
0.0
 11
20.0
 21
240.8333333333333
 31
0.0
  0
TEXT
  5
74EA
330
7493
100
AcDbEntity
  8
0
100
AcDbText
 10
1.0
 20
1.0
 30
0.0
 40
3.0
  1
この図枠はサンプルです。社内の規格やプロッタの出力範囲に合わせて適当に変更してご利用ください。
  7
ADESK1
100
AcDbText
  0
LINE
  5
74EB
330
7493
100
AcDbEntity
  8
0
100
AcDbLine
 10
25.0
 20
148.5
 30
0.0
 11
0.0
 21
148.5
 31
0.0
  0
LINE
  5
74EC
330
7493
100
AcDbEntity
  8
0
100
AcDbLine
 10
410.0
 20
148.5
 30
0.0
 11
420.0
 21
148.5
 31
0.0
  0
LINE
  5
74ED
330
7493
100
AcDbEntity
  8
0
100
AcDbLine
 10
217.5
 20
287.0
 30
0.0
 11
217.5
 21
297.0
 31
0.0
  0
LINE
  5
74EE
330
7493
100
AcDbEntity
  8
0
100
AcDbLine
 10
217.5
 20
10.0
 30
0.0
 11
217.5
 21
0.0
 31
0.0
  0
LINE
  5
74EF
330
7493
100
AcDbEntity
  8
OBJECT
100
AcDbLine
 10
130.0
 20
40.0
 30
0.0
 11
130.0
 21
10.0
 31
0.0
  0
LINE
  5
74F0
330
7493
100
AcDbEntity
  8
OBJECT
100
AcDbLine
 10
120.0
 20
10.0
 30
0.0
 11
120.0
 21
40.0
 31
0.0
  0
LINE
  5
74F1
330
7493
100
AcDbEntity
  8
OBJECT
100
AcDbLine
 10
44.5
 20
37.0
 30
0.0
 11
45.49999999999999
 21
37.0
 31
0.0
  0
LINE
  5
74F2
330
7493
100
AcDbEntity
  8
OBJECT
100
AcDbLine
 10
44.5
 20
31.0
 30
0.0
 11
45.49999999999999
 21
31.0
 31
0.0
  0
LINE
  5
74F3
330
7493
100
AcDbEntity
  8
OBJECT
100
AcDbLine
 10
39.5
 20
37.0
 30
0.0
 11
40.49999999999999
 21
37.0
 31
0.0
  0
LINE
  5
74F4
330
7493
100
AcDbEntity
  8
OBJECT
100
AcDbLine
 10
39.5
 20
31.0
 30
0.0
 11
40.49999999999999
 21
31.0
 31
0.0
  0
LINE
  5
74F5
330
7493
100
AcDbEntity
  8
OBJECT
100
AcDbLine
 10
44.5
 20
25.0
 30
0.0
 11
45.49999999999999
 21
25.0
 31
0.0
  0
LINE
  5
74F6
330
7493
100
AcDbEntity
  8
OBJECT
100
AcDbLine
 10
39.5
 20
25.0
 30
0.0
 11
40.49999999999999
 21
25.0
 31
0.0
  0
LINE
  5
74F7
330
7493
100
AcDbEntity
  8
OBJECT
100
AcDbLine
 10
44.5
 20
19.0
 30
0.0
 11
45.49999999999999
 21
19.0
 31
0.0
  0
LINE
  5
74F8
330
7493
100
AcDbEntity
  8
OBJECT
100
AcDbLine
 10
39.5
 20
19.0
 30
0.0
 11
40.49999999999999
 21
19.0
 31
0.0
  0
LINE
  5
74F9
330
7493
100
AcDbEntity
  8
OBJECT
100
AcDbLine
 10
28.0
 20
29.53589800000001
 30
0.0
 11
30.0
 21
33.0
 31
0.0
  0
LINE
  5
74FA
330
7493
100
AcDbEntity
  8
OBJECT
100
AcDbLine
 10
28.0
 20
29.53589800000001
 30
0.0
 11
32.0
 21
29.53589800000001
 31
0.0
  0
LINE
  5
74FB
330
7493
100
AcDbEntity
  8
OBJECT
100
AcDbLine
 10
32.0
 20
29.53589800000001
 30
0.0
 11
30.0
 21
33.0
 31
0.0
  0
LINE
  5
74FC
330
7493
100
AcDbEntity
  8
OBJECT
100
AcDbLine
 10
28.0
 20
35.535898
 30
0.0
 11
32.0
 21
35.535898
 31
0.0
  0
LINE
  5
74FD
330
7493
100
AcDbEntity
  8
OBJECT
100
AcDbLine
 10
32.0
 20
35.535898
 30
0.0
 11
30.0
 21
39.0
 31
0.0
  0
LINE
  5
74FE
330
7493
100
AcDbEntity
  8
OBJECT
100
AcDbLine
 10
28.0
 20
35.535898
 30
0.0
 11
30.0
 21
39.0
 31
0.0
  0
LINE
  5
74FF
330
7493
100
AcDbEntity
  8
OBJECT
100
AcDbLine
 10
28.0
 20
23.535898
 30
0.0
 11
30.0
 21
27.0
 31
0.0
  0
LINE
  5
7500
330
7493
100
AcDbEntity
  8
OBJECT
100
AcDbLine
 10
28.0
 20
23.535898
 30
0.0
 11
32.0
 21
23.535898
 31
0.0
  0
LINE
  5
7501
330
7493
100
AcDbEntity
  8
OBJECT
100
AcDbLine
 10
32.0
 20
23.535898
 30
0.0
 11
30.0
 21
27.0
 31
0.0
  0
LINE
  5
7502
330
7493
100
AcDbEntity
  8
OBJECT
100
AcDbLine
 10
28.0
 20
17.535898
 30
0.0
 11
30.0
 21
21.0
 31
0.0
  0
LINE
  5
7503
330
7493
100
AcDbEntity
  8
OBJECT
100
AcDbLine
 10
28.0
 20
17.535898
 30
0.0
 11
32.0
 21
17.535898
 31
0.0
  0
LINE
  5
7504
330
7493
100
AcDbEntity
  8
OBJECT
100
AcDbLine
 10
32.0
 20
17.535898
 30
0.0
 11
30.0
 21
21.0
 31
0.0
  0
LINE
  5
7505
330
7493
100
AcDbEntity
  8
OBJECT
100
AcDbLine
 10
44.5
 20
13.0
 30
0.0
 11
45.49999999999999
 21
13.0
 31
0.0
  0
LINE
  5
7506
330
7493
100
AcDbEntity
  8
OBJECT
100
AcDbLine
 10
39.5
 20
13.0
 30
0.0
 11
40.49999999999999
 21
13.0
 31
0.0
  0
LINE
  5
7507
330
7493
100
AcDbEntity
  8
OBJECT
100
AcDbLine
 10
28.0
 20
11.535898
 30
0.0
 11
32.0
 21
11.535898
 31
0.0
  0
LINE
  5
7508
330
7493
100
AcDbEntity
  8
OBJECT
100
AcDbLine
 10
80.0
 20
10.0
 30
0.0
 11
80.0
 21
40.0
 31
0.0
  0
LINE
  5
7509
330
7493
100
AcDbEntity
  8
OBJECT
100
AcDbLine
 10
50.0
 20
10.0
 30
0.0
 11
50.0
 21
40.0
 31
0.0
  0
LINE
  5
750A
330
7493
100
AcDbEntity
  8
OBJECT
100
AcDbLine
 10
35.0
 20
10.0
 30
0.0
 11
35.0
 21
40.0
 31
0.0
  0
LINE
  5
750B
330
7493
100
AcDbEntity
  8
OBJECT
100
AcDbLine
 10
32.0
 20
11.535898
 30
0.0
 11
30.0
 21
15.0
 31
0.0
  0
LINE
  5
750C
330
7493
100
AcDbEntity
  8
OBJECT
100
AcDbLine
 10
28.0
 20
11.535898
 30
0.0
 11
30.0
 21
15.0
 31
0.0
  0
LINE
  5
750D
330
7493
100
AcDbEntity
  8
OBJECT
100
AcDbLine
 10
130.0
 20
40.0
 30
0.0
 11
25.0
 21
40.0
 31
0.0
  0
LINE
  5
750E
330
7493
100
AcDbEntity
  8
OBJECT
100
AcDbLine
 10
130.0
 20
34.0
 30
0.0
 11
25.0
 21
34.0
 31
0.0
  0
LINE
  5
750F
330
7493
100
AcDbEntity
  8
OBJECT
100
AcDbLine
 10
130.0
 20
28.0
 30
0.0
 11
25.0
 21
28.0
 31
0.0
  0
LINE
  5
7510
330
7493
100
AcDbEntity
  8
OBJECT
100
AcDbLine
 10
130.0
 20
22.0
 30
0.0
 11
25.0
 21
22.0
 31
0.0
  0
LINE
  5
7511
330
7493
100
AcDbEntity
  8
OBJECT
100
AcDbLine
 10
130.0
 20
16.0
 30
0.0
 11
25.0
 21
16.0
 31
0.0
  0
ATTDEF
  5
7512
330
7493
100
AcDbEntity
  8
0
 62
     0
100
AcDbText
 10
19.0
 20
118.0
 30
0.0
 40
3.0
  1

 50
90.0
  7
ADESK1
100
AcDbAttributeDefinition
  3

  2
FNAME
 70
     8
  0
ATTDEF
  5
7513
330
7493
100
AcDbEntity
  8
0
 62
     0
100
AcDbText
 10
19.0
 20
70.0
 30
0.0
 40
3.0
  1

 50
90.0
  7
ADESK1
100
AcDbAttributeDefinition
  3

  2
REVDATE
 70
     8
  0
ATTDEF
  5
7514
330
7493
100
AcDbEntity
  8
0
 62
     0
100
AcDbText
 10
19.0
 20
10.0
 30
0.0
 40
3.0
  1

 50
90.0
  7
ADESK1
100
AcDbAttributeDefinition
  3

  2
USER
 70
     8
  0
LINE
  5
7515
330
7493
100
AcDbEntity
  8
0
100
AcDbLine
 10
410.0
 20
297.0
 30
0.0
 11
420.0
 21
297.0
 31
0.0
  0
LINE
  5
7516
330
7493
100
AcDbEntity
  8
0
100
AcDbLine
 10
420.0
 20
10.0
 30
0.0
 11
420.0
 21
0.0
 31
0.0
  0
LINE
  5
7517
330
7493
100
AcDbEntity
  8
0
100
AcDbLine
 10
25.0
 20
0.0
 30
0.0
 11
0.0
 21
0.0
 31
0.0
  0
LINE
  5
7518
330
7493
100
AcDbEntity
  8
0
100
AcDbLine
 10
0.0
 20
287.0
 30
0.0
 11
0.0
 21
297.0
 31
0.0
  0
LINE
  5
7519
330
7493
100
AcDbEntity
  8
0
100
AcDbLine
 10
25.0
 20
287.0
 30
0.0
 11
410.0
 21
287.0
 31
0.0
  0
LINE
  5
751A
330
7493
100
AcDbEntity
  8
0
100
AcDbLine
 10
410.0
 20
287.0
 30
0.0
 11
410.0
 21
10.0
 31
0.0
  0
LINE
  5
751B
330
7493
100
AcDbEntity
  8
0
100
AcDbLine
 10
410.0
 20
10.0
 30
0.0
 11
25.0
 21
10.0
 31
0.0
  0
LINE
  5
751C
330
7493
100
AcDbEntity
  8
0
100
AcDbLine
 10
25.0
 20
10.0
 30
0.0
 11
25.0
 21
287.0
 31
0.0
  0
LINE
  5
751D
330
7493
100
AcDbEntity
  8
0
100
AcDbLine
 10
420.0
 20
0.0
 30
0.0
 11
410.0
 21
0.0
 31
0.0
  0
LINE
  5
751E
330
7493
100
AcDbEntity
  8
0
100
AcDbLine
 10
420.0
 20
297.0
 30
0.0
 11
420.0
 21
287.0
 31
0.0
  0
LINE
  5
751F
330
7493
100
AcDbEntity
  8
0
100
AcDbLine
 10
0.0
 20
297.0
 30
0.0
 11
25.0
 21
297.0
 31
0.0
  0
LINE
  5
7520
330
7493
100
AcDbEntity
  8
0
100
AcDbLine
 10
0.0
 20
0.0
 30
0.0
 11
0.0
 21
10.0
 31
0.0
  0
ENDBLK
  5
7521
330
7493
100
AcDbEntity
  8
0
100
AcDbBlockEnd
  0
BLOCK
  5
82DF
330
82D5
100
AcDbEntity
  8
0
 48
15.0
100
AcDbBlockBegin
  2
*D1
 70
     1
 10
0.0
 20
0.0
 30
0.0
  3
*D1
  1

  0
LINE
  5
82D6
330
82D5
100
AcDbEntity
  8
0
  6
ByBlock
 48
15.0
100
AcDbLine
 10
5868.190383268453
 20
-1020.90701398616
 30
0.0
 11
6149.849036117579
 21
-1020.90701398616
 31
0.0
  0
LINE
  5
82D7
330
82D5
100
AcDbEntity
  8
0
  6
ByBlock
 48
15.0
100
AcDbLine
 10
5868.190383268453
 20
-110.9070139861605
 30
0.0
 11
6149.849036117579
 21
-110.9070139861606
 31
0.0
  0
LINE
  5
82D8
330
82D5
100
AcDbEntity
  8
0
  6
ByBlock
 48
15.0
100
AcDbLine
 10
6142.349036117579
 20
-998.4070139861605
 30
0.0
 11
6142.349036117579
 21
-133.4070139861606
 31
0.0
  0
SOLID
  5
82D9
330
82D5
100
AcDbEntity
  8
0
  6
ByBlock
 48
15.0
100
AcDbTrace
 10
6138.599036117579
 20
-998.4070139861605
 30
0.0
 11
6146.099036117579
 21
-998.4070139861605
 31
0.0
 12
6142.349036117579
 22
-1020.90701398616
 32
0.0
 13
6142.349036117579
 23
-1020.90701398616
 33
0.0
  0
SOLID
  5
82DA
330
82D5
100
AcDbEntity
  8
0
  6
ByBlock
 48
15.0
100
AcDbTrace
 10
6138.599036117579
 20
-133.4070139861606
 30
0.0
 11
6146.099036117579
 21
-133.4070139861606
 31
0.0
 12
6142.349036117579
 22
-110.9070139861606
 32
0.0
 13
6142.349036117579
 23
-110.9070139861606
 33
0.0
  0
MTEXT
  5
82DB
330
82D5
100
AcDbEntity
  8
0
  6
ByBlock
 48
15.0
100
AcDbMText
 10
6112.349036117579
 20
-565.9070139861605
 30
0.0
 40
30.0
 41
0.0
 71
     5
 72
     1
  1
\A1;7@130=910
  7
SANWA
 11
0.0000000000000001
 21
1.0
 31
0.0
 73
     1
 44
1.0
1001
ACAD
1000
MTEXTBEGIN
1070
    73
1070
     1
1070
    44
1040
1.0
1070
    74
1070
     0
1000
MTEXTEND
  0
POINT
  5
82DC
330
82D5
100
AcDbEntity
  8
DEFPOINTS
  6
ByBlock
 62
     0
 48
15.0
100
AcDbPoint
 10
5853.190383268453
 20
-1020.90701398616
 30
0.0
  0
POINT
  5
82DD
330
82D5
100
AcDbEntity
  8
DEFPOINTS
  6
ByBlock
 62
     0
 48
15.0
100
AcDbPoint
 10
5853.190383268453
 20
-110.9070139861605
 30
0.0
  0
POINT
  5
82DE
330
82D5
100
AcDbEntity
  8
DEFPOINTS
  6
ByBlock
 62
     0
 48
15.0
100
AcDbPoint
 10
6142.349036117579
 20
-110.9070139861606
 30
0.0
  0
ENDBLK
  5
82E0
330
82D5
100
AcDbEntity
  8
0
 48
15.0
100
AcDbBlockEnd
  0
BLOCK
  5
82EC
330
82E1
100
AcDbEntity
  8
0
 48
15.0
100
AcDbBlockBegin
  2
*D2
 70
     1
 10
0.0
 20
0.0
 30
0.0
  3
*D2
  1

  0
LINE
  5
82E2
330
82E1
100
AcDbEntity
  8
0
  6
ByBlock
 48
15.0
100
AcDbLine
 10
5868.190383268453
 20
-65.90701398616056
 30
0.0
 11
6149.849036117579
 21
-65.90701398616059
 31
0.0
  0
LINE
  5
82E3
330
82E1
100
AcDbEntity
  8
0
  6
ByBlock
 48
15.0
100
AcDbLine
 10
6142.349036117579
 20
-133.4070139861606
 30
0.0
 11
6142.349036117579
 21
-155.9070139861606
 31
0.0
  0
LINE
  5
82E4
330
82E1
100
AcDbEntity
  8
0
  6
ByBlock
 48
15.0
100
AcDbLine
 10
6142.349036117579
 20
-43.4070139861606
 30
0.0
 11
6142.349036117579
 21
-20.9070139861606
 31
0.0
  0
LINE
  5
82E5
330
82E1
100
AcDbEntity
  8
0
  6
ByBlock
 48
15.0
100
AcDbLine
 10
6142.349036117579
 20
-110.9070139861606
 30
0.0
 11
6142.349036117579
 21
-65.90701398616059
 31
0.0
  0
SOLID
  5
82E6
330
82E1
100
AcDbEntity
  8
0
  6
ByBlock
 48
15.0
100
AcDbTrace
 10
6138.599036117579
 20
-133.4070139861606
 30
0.0
 11
6146.099036117579
 21
-133.4070139861606
 31
0.0
 12
6142.349036117579
 22
-110.9070139861606
 32
0.0
 13
6142.349036117579
 23
-110.9070139861606
 33
0.0
  0
SOLID
  5
82E7
330
82E1
100
AcDbEntity
  8
0
  6
ByBlock
 48
15.0
100
AcDbTrace
 10
6138.599036117579
 20
-43.40701398616059
 30
0.0
 11
6146.099036117579
 21
-43.40701398616059
 31
0.0
 12
6142.349036117579
 22
-65.90701398616059
 32
0.0
 13
6142.349036117579
 23
-65.90701398616059
 33
0.0
  0
MTEXT
  5
82E8
330
82E1
100
AcDbEntity
  8
0
  6
ByBlock
 48
15.0
100
AcDbMText
 10
6112.349036117579
 20
-88.4070139861606
 30
0.0
 40
30.0
 41
0.0
 71
     5
 72
     1
  1
\A1;45
  7
SANWA
 11
0.0000000000000001
 21
1.0
 31
0.0
 73
     1
 44
1.0
1001
ACAD
1000
MTEXTBEGIN
1070
    73
1070
     1
1070
    44
1040
1.0
1070
    74
1070
     0
1000
MTEXTEND
  0
POINT
  5
82E9
330
82E1
100
AcDbEntity
  8
DEFPOINTS
  6
ByBlock
 62
     0
 48
15.0
100
AcDbPoint
 10
5853.190383268453
 20
-110.9070139861605
 30
0.0
  0
POINT
  5
82EA
330
82E1
100
AcDbEntity
  8
DEFPOINTS
  6
ByBlock
 62
     0
 48
15.0
100
AcDbPoint
 10
5853.190383268453
 20
-65.90701398616056
 30
0.0
  0
POINT
  5
82EB
330
82E1
100
AcDbEntity
  8
DEFPOINTS
  6
ByBlock
 62
     0
 48
15.0
100
AcDbPoint
 10
6142.349036117579
 20
-65.90701398616059
 30
0.0
  0
ENDBLK
  5
82ED
330
82E1
100
AcDbEntity
  8
0
 48
15.0
100
AcDbBlockEnd
  0
BLOCK
  5
82FA
330
82EE
100
AcDbEntity
  8
0
 48
15.0
100
AcDbBlockBegin
  2
*D3
 70
     1
 10
0.0
 20
0.0
 30
0.0
  3
*D3
  1

  0
LINE
  5
82EF
330
82EE
100
AcDbEntity
  8
0
  6
ByBlock
 48
15.0
100
AcDbLine
 10
5868.190383268453
 20
-1065.90701398616
 30
0.0
 11
6149.849036117579
 21
-1065.90701398616
 31
0.0
  0
LINE
  5
82F0
330
82EE
100
AcDbEntity
  8
0
  6
ByBlock
 48
15.0
100
AcDbLine
 10
5868.190383268453
 20
-1020.90701398616
 30
0.0
 11
6149.849036117579
 21
-1020.90701398616
 31
0.0
  0
LINE
  5
82F1
330
82EE
100
AcDbEntity
  8
0
  6
ByBlock
 48
15.0
100
AcDbLine
 10
6142.349036117579
 20
-1088.40701398616
 30
0.0
 11
6142.349036117579
 21
-1110.90701398616
 31
0.0
  0
LINE
  5
82F2
330
82EE
100
AcDbEntity
  8
0
  6
ByBlock
 48
15.0
100
AcDbLine
 10
6142.349036117579
 20
-998.4070139861605
 30
0.0
 11
6142.349036117579
 21
-975.9070139861606
 31
0.0
  0
LINE
  5
82F3
330
82EE
100
AcDbEntity
  8
0
  6
ByBlock
 48
15.0
100
AcDbLine
 10
6142.349036117579
 20
-1065.90701398616
 30
0.0
 11
6142.349036117579
 21
-1020.90701398616
 31
0.0
  0
SOLID
  5
82F4
330
82EE
100
AcDbEntity
  8
0
  6
ByBlock
 48
15.0
100
AcDbTrace
 10
6138.599036117579
 20
-1088.40701398616
 30
0.0
 11
6146.099036117579
 21
-1088.40701398616
 31
0.0
 12
6142.349036117579
 22
-1065.90701398616
 32
0.0
 13
6142.349036117579
 23
-1065.90701398616
 33
0.0
  0
SOLID
  5
82F5
330
82EE
100
AcDbEntity
  8
0
  6
ByBlock
 48
15.0
100
AcDbTrace
 10
6138.599036117579
 20
-998.4070139861605
 30
0.0
 11
6146.099036117579
 21
-998.4070139861605
 31
0.0
 12
6142.349036117579
 22
-1020.90701398616
 32
0.0
 13
6142.349036117579
 23
-1020.90701398616
 33
0.0
  0
MTEXT
  5
82F6
330
82EE
100
AcDbEntity
  8
0
  6
ByBlock
 48
15.0
100
AcDbMText
 10
6112.349036117579
 20
-1043.40701398616
 30
0.0
 40
30.0
 41
0.0
 71
     5
 72
     1
  1
\A1;45
  7
SANWA
 11
0.0000000000000001
 21
1.0
 31
0.0
 73
     1
 44
1.0
1001
ACAD
1000
MTEXTBEGIN
1070
    73
1070
     1
1070
    44
1040
1.0
1070
    74
1070
     0
1000
MTEXTEND
  0
POINT
  5
82F7
330
82EE
100
AcDbEntity
  8
DEFPOINTS
  6
ByBlock
 62
     0
 48
15.0
100
AcDbPoint
 10
5853.190383268453
 20
-1065.90701398616
 30
0.0
  0
POINT
  5
82F8
330
82EE
100
AcDbEntity
  8
DEFPOINTS
  6
ByBlock
 62
     0
 48
15.0
100
AcDbPoint
 10
5853.190383268453
 20
-1020.90701398616
 30
0.0
  0
POINT
  5
82F9
330
82EE
100
AcDbEntity
  8
DEFPOINTS
  6
ByBlock
 62
     0
 48
15.0
100
AcDbPoint
 10
6142.349036117579
 20
-1020.90701398616
 30
0.0
  0
ENDBLK
  5
82FB
330
82EE
100
AcDbEntity
  8
0
 48
15.0
100
AcDbBlockEnd
  0
BLOCK
  5
8308
330
82FC
100
AcDbEntity
  8
0
 48
15.0
100
AcDbBlockBegin
  2
*D4
 70
     1
 10
0.0
 20
0.0
 30
0.0
  3
*D4
  1

  0
LINE
  5
82FD
330
82FC
100
AcDbEntity
  8
0
  6
ByBlock
 48
15.0
100
AcDbLine
 10
5453.190383268452
 20
-50.90701398616056
 30
0.0
 11
5453.190383268452
 21
31.03649067867991
 31
0.0
  0
LINE
  5
82FE
330
82FC
100
AcDbEntity
  8
0
  6
ByBlock
 48
15.0
100
AcDbLine
 10
5508.190383268454
 20
-50.90701398616056
 30
0.0
 11
5508.190383268454
 21
31.03649067867991
 31
0.0
  0
LINE
  5
82FF
330
82FC
100
AcDbEntity
  8
0
  6
ByBlock
 48
15.0
100
AcDbLine
 10
5430.690383268453
 20
23.53649067867991
 30
0.0
 11
5408.190383268453
 21
23.53649067867991
 31
0.0
  0
LINE
  5
8300
330
82FC
100
AcDbEntity
  8
0
  6
ByBlock
 48
15.0
100
AcDbLine
 10
5530.690383268454
 20
23.53649067867991
 30
0.0
 11
5553.190383268454
 21
23.53649067867991
 31
0.0
  0
LINE
  5
8301
330
82FC
100
AcDbEntity
  8
0
  6
ByBlock
 48
15.0
100
AcDbLine
 10
5453.190383268452
 20
23.53649067867991
 30
0.0
 11
5508.190383268454
 21
23.53649067867991
 31
0.0
  0
SOLID
  5
8302
330
82FC
100
AcDbEntity
  8
0
  6
ByBlock
 48
15.0
100
AcDbTrace
 10
5430.690383268453
 20
27.28649067867991
 30
0.0
 11
5430.690383268453
 21
19.78649067867991
 31
0.0
 12
5453.190383268452
 22
23.53649067867991
 32
0.0
 13
5453.190383268452
 23
23.53649067867991
 33
0.0
  0
SOLID
  5
8303
330
82FC
100
AcDbEntity
  8
0
  6
ByBlock
 48
15.0
100
AcDbTrace
 10
5530.690383268454
 20
27.28649067867991
 30
0.0
 11
5530.690383268454
 21
19.78649067867991
 31
0.0
 12
5508.190383268454
 22
23.53649067867991
 32
0.0
 13
5508.190383268454
 23
23.53649067867991
 33
0.0
  0
MTEXT
  5
8304
330
82FC
100
AcDbEntity
  8
0
  6
ByBlock
 48
15.0
100
AcDbMText
 10
5480.690383268453
 20
53.53649067867991
 30
0.0
 40
30.0
 41
0.0
 71
     5
 72
     1
  1
\A1;55
  7
SANWA
 73
     1
 44
1.0
1001
ACAD
1000
MTEXTBEGIN
1070
    73
1070
     1
1070
    44
1040
1.0
1070
    74
1070
     0
1000
MTEXTEND
  0
POINT
  5
8305
330
82FC
100
AcDbEntity
  8
DEFPOINTS
  6
ByBlock
 62
     0
 48
15.0
100
AcDbPoint
 10
5453.190383268452
 20
-65.90701398616056
 30
0.0
  0
POINT
  5
8306
330
82FC
100
AcDbEntity
  8
DEFPOINTS
  6
ByBlock
 62
     0
 48
15.0
100
AcDbPoint
 10
5508.190383268454
 20
-65.90701398616056
 30
0.0
  0
POINT
  5
8307
330
82FC
100
AcDbEntity
  8
DEFPOINTS
  6
ByBlock
 62
     0
 48
15.0
100
AcDbPoint
 10
5508.190383268454
 20
23.53649067867991
 30
0.0
  0
ENDBLK
  5
8309
330
82FC
100
AcDbEntity
  8
0
 48
15.0
100
AcDbBlockEnd
  0
BLOCK
  5
8313
330
830A
100
AcDbEntity
  8
0
 48
15.0
100
AcDbBlockBegin
  2
*D5
 70
     1
 10
0.0
 20
0.0
 30
0.0
  3
*D5
  1

  0
LINE
  5
830B
330
830A
100
AcDbEntity
  8
0
  6
ByBlock
 48
15.0
100
AcDbLine
 10
5798.190383268454
 20
-50.90701398616056
 30
0.0
 11
5798.190383268454
 21
31.03649067867991
 31
0.0
  0
LINE
  5
830C
330
830A
100
AcDbEntity
  8
0
  6
ByBlock
 48
15.0
100
AcDbLine
 10
5530.690383268454
 20
23.53649067867991
 30
0.0
 11
5775.690383268454
 21
23.53649067867991
 31
0.0
  0
SOLID
  5
830D
330
830A
100
AcDbEntity
  8
0
  6
ByBlock
 48
15.0
100
AcDbTrace
 10
5530.690383268454
 20
27.28649067867991
 30
0.0
 11
5530.690383268454
 21
19.78649067867991
 31
0.0
 12
5508.190383268454
 22
23.53649067867991
 32
0.0
 13
5508.190383268454
 23
23.53649067867991
 33
0.0
  0
SOLID
  5
830E
330
830A
100
AcDbEntity
  8
0
  6
ByBlock
 48
15.0
100
AcDbTrace
 10
5775.690383268454
 20
27.28649067867991
 30
0.0
 11
5775.690383268454
 21
19.78649067867991
 31
0.0
 12
5798.190383268454
 22
23.53649067867991
 32
0.0
 13
5798.190383268454
 23
23.53649067867991
 33
0.0
  0
MTEXT
  5
830F
330
830A
100
AcDbEntity
  8
0
  6
ByBlock
 48
15.0
100
AcDbMText
 10
5653.190383268454
 20
53.53649067867991
 30
0.0
 40
30.0
 41
0.0
 71
     5
 72
     1
  1
\A1;2@145=290
  7
SANWA
 73
     1
 44
1.0
1001
ACAD
1000
MTEXTBEGIN
1070
    73
1070
     1
1070
    44
1040
1.0
1070
    74
1070
     0
1000
MTEXTEND
  0
POINT
  5
8310
330
830A
100
AcDbEntity
  8
DEFPOINTS
  6
ByBlock
 62
     0
 48
15.0
100
AcDbPoint
 10
5508.190383268454
 20
-65.90701398616056
 30
0.0
  0
POINT
  5
8311
330
830A
100
AcDbEntity
  8
DEFPOINTS
  6
ByBlock
 62
     0
 48
15.0
100
AcDbPoint
 10
5798.190383268454
 20
-65.90701398616056
 30
0.0
  0
POINT
  5
8312
330
830A
100
AcDbEntity
  8
DEFPOINTS
  6
ByBlock
 62
     0
 48
15.0
100
AcDbPoint
 10
5798.190383268454
 20
23.53649067867991
 30
0.0
  0
ENDBLK
  5
8314
330
830A
100
AcDbEntity
  8
0
 48
15.0
100
AcDbBlockEnd
  0
BLOCK
  5
8320
330
8315
100
AcDbEntity
  8
0
 48
15.0
100
AcDbBlockBegin
  2
*D6
 70
     1
 10
0.0
 20
0.0
 30
0.0
  3
*D6
  1

  0
LINE
  5
8316
330
8315
100
AcDbEntity
  8
0
  6
ByBlock
 48
15.0
100
AcDbLine
 10
5853.190383268453
 20
-50.90701398616056
 30
0.0
 11
5853.190383268453
 21
31.03649067867991
 31
0.0
  0
LINE
  5
8317
330
8315
100
AcDbEntity
  8
0
  6
ByBlock
 48
15.0
100
AcDbLine
 10
5775.690383268454
 20
23.53649067867991
 30
0.0
 11
5753.190383268454
 21
23.53649067867991
 31
0.0
  0
LINE
  5
8318
330
8315
100
AcDbEntity
  8
0
  6
ByBlock
 48
15.0
100
AcDbLine
 10
5875.690383268453
 20
23.53649067867991
 30
0.0
 11
5898.190383268453
 21
23.53649067867991
 31
0.0
  0
LINE
  5
8319
330
8315
100
AcDbEntity
  8
0
  6
ByBlock
 48
15.0
100
AcDbLine
 10
5798.190383268454
 20
23.53649067867991
 30
0.0
 11
5853.190383268453
 21
23.53649067867991
 31
0.0
  0
SOLID
  5
831A
330
8315
100
AcDbEntity
  8
0
  6
ByBlock
 48
15.0
100
AcDbTrace
 10
5775.690383268454
 20
27.28649067867991
 30
0.0
 11
5775.690383268454
 21
19.78649067867991
 31
0.0
 12
5798.190383268454
 22
23.53649067867991
 32
0.0
 13
5798.190383268454
 23
23.53649067867991
 33
0.0
  0
SOLID
  5
831B
330
8315
100
AcDbEntity
  8
0
  6
ByBlock
 48
15.0
100
AcDbTrace
 10
5875.690383268453
 20
27.28649067867991
 30
0.0
 11
5875.690383268453
 21
19.78649067867991
 31
0.0
 12
5853.190383268453
 22
23.53649067867991
 32
0.0
 13
5853.190383268453
 23
23.53649067867991
 33
0.0
  0
MTEXT
  5
831C
330
8315
100
AcDbEntity
  8
0
  6
ByBlock
 48
15.0
100
AcDbMText
 10
5825.690383268453
 20
53.53649067867991
 30
0.0
 40
30.0
 41
0.0
 71
     5
 72
     1
  1
\A1;55
  7
SANWA
 73
     1
 44
1.0
1001
ACAD
1000
MTEXTBEGIN
1070
    73
1070
     1
1070
    44
1040
1.0
1070
    74
1070
     0
1000
MTEXTEND
  0
POINT
  5
831D
330
8315
100
AcDbEntity
  8
DEFPOINTS
  6
ByBlock
 62
     0
 48
15.0
100
AcDbPoint
 10
5798.190383268454
 20
-65.90701398616056
 30
0.0
  0
POINT
  5
831E
330
8315
100
AcDbEntity
  8
DEFPOINTS
  6
ByBlock
 62
     0
 48
15.0
100
AcDbPoint
 10
5853.190383268453
 20
-65.90701398616056
 30
0.0
  0
POINT
  5
831F
330
8315
100
AcDbEntity
  8
DEFPOINTS
  6
ByBlock
 62
     0
 48
15.0
100
AcDbPoint
 10
5853.190383268453
 20
23.53649067867991
 30
0.0
  0
ENDBLK
  5
8321
330
8315
100
AcDbEntity
  8
0
 48
15.0
100
AcDbBlockEnd
  0
BLOCK
  5
832C
330
8322
100
AcDbEntity
  8
0
 48
15.0
100
AcDbBlockBegin
  2
*D7
 70
     1
 10
0.0
 20
0.0
 30
0.0
  3
*D7
  1

  0
LINE
  5
8323
330
8322
100
AcDbEntity
  8
0
  6
ByBlock
 48
15.0
100
AcDbLine
 10
5453.190383268452
 20
-50.90701398616056
 30
0.0
 11
5453.190383268452
 21
94.8395556133928
 31
0.0
  0
LINE
  5
8324
330
8322
100
AcDbEntity
  8
0
  6
ByBlock
 48
15.0
100
AcDbLine
 10
5853.190383268453
 20
-50.90701398616056
 30
0.0
 11
5853.190383268453
 21
94.8395556133928
 31
0.0
  0
LINE
  5
8325
330
8322
100
AcDbEntity
  8
0
  6
ByBlock
 48
15.0
100
AcDbLine
 10
5475.690383268453
 20
87.3395556133928
 30
0.0
 11
5830.690383268454
 21
87.3395556133928
 31
0.0
  0
SOLID
  5
8326
330
8322
100
AcDbEntity
  8
0
  6
ByBlock
 48
15.0
100
AcDbTrace
 10
5475.690383268453
 20
91.0895556133928
 30
0.0
 11
5475.690383268453
 21
83.5895556133928
 31
0.0
 12
5453.190383268452
 22
87.3395556133928
 32
0.0
 13
5453.190383268452
 23
87.3395556133928
 33
0.0
  0
SOLID
  5
8327
330
8322
100
AcDbEntity
  8
0
  6
ByBlock
 48
15.0
100
AcDbTrace
 10
5830.690383268454
 20
91.0895556133928
 30
0.0
 11
5830.690383268454
 21
83.5895556133928
 31
0.0
 12
5853.190383268453
 22
87.3395556133928
 32
0.0
 13
5853.190383268453
 23
87.3395556133928
 33
0.0
  0
MTEXT
  5
8328
330
8322
100
AcDbEntity
  8
0
  6
ByBlock
 48
15.0
100
AcDbMText
 10
5653.190383268452
 20
117.3395556133928
 30
0.0
 40
30.0
 41
0.0
 71
     5
 72
     1
  1
\A1;400
  7
SANWA
 73
     1
 44
1.0
1001
ACAD
1000
MTEXTBEGIN
1070
    73
1070
     1
1070
    44
1040
1.0
1070
    74
1070
     0
1000
MTEXTEND
  0
POINT
  5
8329
330
8322
100
AcDbEntity
  8
DEFPOINTS
  6
ByBlock
 62
     0
 48
15.0
100
AcDbPoint
 10
5453.190383268452
 20
-65.90701398616056
 30
0.0
  0
POINT
  5
832A
330
8322
100
AcDbEntity
  8
DEFPOINTS
  6
ByBlock
 62
     0
 48
15.0
100
AcDbPoint
 10
5853.190383268453
 20
-65.90701398616056
 30
0.0
  0
POINT
  5
832B
330
8322
100
AcDbEntity
  8
DEFPOINTS
  6
ByBlock
 62
     0
 48
15.0
100
AcDbPoint
 10
5853.190383268453
 20
87.3395556133928
 30
0.0
  0
ENDBLK
  5
832D
330
8322
100
AcDbEntity
  8
0
 48
15.0
100
AcDbBlockEnd
  0
BLOCK
  5
8338
330
832E
100
AcDbEntity
  8
0
 48
15.0
100
AcDbBlockBegin
  2
*D8
 70
     1
 10
0.0
 20
0.0
 30
0.0
  3
*D8
  1

  0
LINE
  5
832F
330
832E
100
AcDbEntity
  8
0
  6
ByBlock
 48
15.0
100
AcDbLine
 10
5868.190383268453
 20
-65.90701398616056
 30
0.0
 11
6218.872496471267
 21
-65.90701398616062
 31
0.0
  0
LINE
  5
8330
330
832E
100
AcDbEntity
  8
0
  6
ByBlock
 48
15.0
100
AcDbLine
 10
5868.190383268453
 20
-1065.90701398616
 30
0.0
 11
6218.872496471267
 21
-1065.90701398616
 31
0.0
  0
LINE
  5
8331
330
832E
100
AcDbEntity
  8
0
  6
ByBlock
 48
15.0
100
AcDbLine
 10
6211.372496471267
 20
-88.40701398616062
 30
0.0
 11
6211.372496471267
 21
-1043.40701398616
 31
0.0
  0
SOLID
  5
8332
330
832E
100
AcDbEntity
  8
0
  6
ByBlock
 48
15.0
100
AcDbTrace
 10
6207.622496471267
 20
-88.40701398616062
 30
0.0
 11
6215.122496471267
 21
-88.40701398616062
 31
0.0
 12
6211.372496471267
 22
-65.90701398616062
 32
0.0
 13
6211.372496471267
 23
-65.90701398616062
 33
0.0
  0
SOLID
  5
8333
330
832E
100
AcDbEntity
  8
0
  6
ByBlock
 48
15.0
100
AcDbTrace
 10
6207.622496471267
 20
-1043.40701398616
 30
0.0
 11
6215.122496471267
 21
-1043.40701398616
 31
0.0
 12
6211.372496471267
 22
-1065.90701398616
 32
0.0
 13
6211.372496471267
 23
-1065.90701398616
 33
0.0
  0
MTEXT
  5
8334
330
832E
100
AcDbEntity
  8
0
  6
ByBlock
 48
15.0
100
AcDbMText
 10
6181.372496471268
 20
-565.9070139861605
 30
0.0
 40
30.0
 41
0.0
 71
     5
 72
     1
  1
\A1;1000
  7
SANWA
 11
0.0000000000000001
 21
1.0
 31
0.0
 73
     1
 44
1.0
1001
ACAD
1000
MTEXTBEGIN
1070
    73
1070
     1
1070
    44
1040
1.0
1070
    74
1070
     0
1000
MTEXTEND
  0
POINT
  5
8335
330
832E
100
AcDbEntity
  8
DEFPOINTS
  6
ByBlock
 62
     0
 48
15.0
100
AcDbPoint
 10
5853.190383268453
 20
-65.90701398616056
 30
0.0
  0
POINT
  5
8336
330
832E
100
AcDbEntity
  8
DEFPOINTS
  6
ByBlock
 62
     0
 48
15.0
100
AcDbPoint
 10
5853.190383268453
 20
-1065.90701398616
 30
0.0
  0
POINT
  5
8337
330
832E
100
AcDbEntity
  8
DEFPOINTS
  6
ByBlock
 62
     0
 48
15.0
100
AcDbPoint
 10
6211.372496471267
 20
-1065.90701398616
 30
0.0
  0
ENDBLK
  5
8339
330
832E
100
AcDbEntity
  8
0
 48
15.0
100
AcDbBlockEnd
  0
BLOCK
  5
8346
330
833A
100
AcDbEntity
  8
0
 48
15.0
100
AcDbBlockBegin
  2
*D9
 70
     1
 10
0.0
 20
0.0
 30
0.0
  3
*D9
  1

  0
LINE
  5
833B
330
833A
100
AcDbEntity
  8
0
  6
ByBlock
 48
15.0
100
AcDbLine
 10
5453.190383268452
 20
462.3048059684811
 30
0.0
 11
5453.190383268452
 21
536.5961995516482
 31
0.0
  0
LINE
  5
833C
330
833A
100
AcDbEntity
  8
0
  6
ByBlock
 48
15.0
100
AcDbLine
 10
5508.190383268454
 20
462.3048059684811
 30
0.0
 11
5508.190383268454
 21
536.5961995516482
 31
0.0
  0
LINE
  5
833D
330
833A
100
AcDbEntity
  8
0
  6
ByBlock
 48
15.0
100
AcDbLine
 10
5430.690383268453
 20
529.0961995516481
 30
0.0
 11
5408.190383268453
 21
529.0961995516481
 31
0.0
  0
LINE
  5
833E
330
833A
100
AcDbEntity
  8
0
  6
ByBlock
 48
15.0
100
AcDbLine
 10
5530.690383268454
 20
529.0961995516481
 30
0.0
 11
5553.190383268454
 21
529.0961995516481
 31
0.0
  0
LINE
  5
833F
330
833A
100
AcDbEntity
  8
0
  6
ByBlock
 48
15.0
100
AcDbLine
 10
5453.190383268452
 20
529.0961995516481
 30
0.0
 11
5508.190383268454
 21
529.0961995516481
 31
0.0
  0
SOLID
  5
8340
330
833A
100
AcDbEntity
  8
0
  6
ByBlock
 48
15.0
100
AcDbTrace
 10
5430.690383268453
 20
532.8461995516481
 30
0.0
 11
5430.690383268453
 21
525.3461995516481
 31
0.0
 12
5453.190383268452
 22
529.0961995516481
 32
0.0
 13
5453.190383268452
 23
529.0961995516481
 33
0.0
  0
SOLID
  5
8341
330
833A
100
AcDbEntity
  8
0
  6
ByBlock
 48
15.0
100
AcDbTrace
 10
5530.690383268454
 20
532.8461995516481
 30
0.0
 11
5530.690383268454
 21
525.3461995516481
 31
0.0
 12
5508.190383268454
 22
529.0961995516481
 32
0.0
 13
5508.190383268454
 23
529.0961995516481
 33
0.0
  0
MTEXT
  5
8342
330
833A
100
AcDbEntity
  8
0
  6
ByBlock
 48
15.0
100
AcDbMText
 10
5480.690383268453
 20
559.0961995516481
 30
0.0
 40
30.0
 41
0.0
 71
     5
 72
     1
  1
\A1;55
  7
SANWA
 73
     1
 44
1.0
1001
ACAD
1000
MTEXTBEGIN
1070
    73
1070
     1
1070
    44
1040
1.0
1070
    74
1070
     0
1000
MTEXTEND
  0
POINT
  5
8343
330
833A
100
AcDbEntity
  8
DEFPOINTS
  6
ByBlock
 62
     0
 48
15.0
100
AcDbPoint
 10
5453.190383268452
 20
447.3048059684811
 30
0.0
  0
POINT
  5
8344
330
833A
100
AcDbEntity
  8
DEFPOINTS
  6
ByBlock
 62
     0
 48
15.0
100
AcDbPoint
 10
5508.190383268454
 20
447.3048059684811
 30
0.0
  0
POINT
  5
8345
330
833A
100
AcDbEntity
  8
DEFPOINTS
  6
ByBlock
 62
     0
 48
15.0
100
AcDbPoint
 10
5508.190383268454
 20
529.0961995516481
 30
0.0
  0
ENDBLK
  5
8347
330
833A
100
AcDbEntity
  8
0
 48
15.0
100
AcDbBlockEnd
  0
BLOCK
  5
8351
330
8348
100
AcDbEntity
  8
0
 48
15.0
100
AcDbBlockBegin
  2
*D10
 70
     1
 10
0.0
 20
0.0
 30
0.0
  3
*D10
  1

  0
LINE
  5
8349
330
8348
100
AcDbEntity
  8
0
  6
ByBlock
 48
15.0
100
AcDbLine
 10
5798.190383268454
 20
462.3048059684811
 30
0.0
 11
5798.190383268454
 21
536.5961995516482
 31
0.0
  0
LINE
  5
834A
330
8348
100
AcDbEntity
  8
0
  6
ByBlock
 48
15.0
100
AcDbLine
 10
5530.690383268454
 20
529.0961995516481
 30
0.0
 11
5775.690383268454
 21
529.0961995516481
 31
0.0
  0
SOLID
  5
834B
330
8348
100
AcDbEntity
  8
0
  6
ByBlock
 48
15.0
100
AcDbTrace
 10
5530.690383268454
 20
532.8461995516481
 30
0.0
 11
5530.690383268454
 21
525.3461995516481
 31
0.0
 12
5508.190383268454
 22
529.0961995516481
 32
0.0
 13
5508.190383268454
 23
529.0961995516481
 33
0.0
  0
SOLID
  5
834C
330
8348
100
AcDbEntity
  8
0
  6
ByBlock
 48
15.0
100
AcDbTrace
 10
5775.690383268454
 20
532.8461995516481
 30
0.0
 11
5775.690383268454
 21
525.3461995516481
 31
0.0
 12
5798.190383268454
 22
529.0961995516481
 32
0.0
 13
5798.190383268454
 23
529.0961995516481
 33
0.0
  0
MTEXT
  5
834D
330
8348
100
AcDbEntity
  8
0
  6
ByBlock
 48
15.0
100
AcDbMText
 10
5653.190383268454
 20
559.0961995516481
 30
0.0
 40
30.0
 41
0.0
 71
     5
 72
     1
  1
\A1;2@145=290
  7
SANWA
 73
     1
 44
1.0
1001
ACAD
1000
MTEXTBEGIN
1070
    73
1070
     1
1070
    44
1040
1.0
1070
    74
1070
     0
1000
MTEXTEND
  0
POINT
  5
834E
330
8348
100
AcDbEntity
  8
DEFPOINTS
  6
ByBlock
 62
     0
 48
15.0
100
AcDbPoint
 10
5508.190383268454
 20
447.3048059684811
 30
0.0
  0
POINT
  5
834F
330
8348
100
AcDbEntity
  8
DEFPOINTS
  6
ByBlock
 62
     0
 48
15.0
100
AcDbPoint
 10
5798.190383268454
 20
447.3048059684811
 30
0.0
  0
POINT
  5
8350
330
8348
100
AcDbEntity
  8
DEFPOINTS
  6
ByBlock
 62
     0
 48
15.0
100
AcDbPoint
 10
5798.190383268454
 20
529.0961995516481
 30
0.0
  0
ENDBLK
  5
8352
330
8348
100
AcDbEntity
  8
0
 48
15.0
100
AcDbBlockEnd
  0
BLOCK
  5
835E
330
8353
100
AcDbEntity
  8
0
 48
15.0
100
AcDbBlockBegin
  2
*D11
 70
     1
 10
0.0
 20
0.0
 30
0.0
  3
*D11
  1

  0
LINE
  5
8354
330
8353
100
AcDbEntity
  8
0
  6
ByBlock
 48
15.0
100
AcDbLine
 10
5853.190383268453
 20
462.3048059684811
 30
0.0
 11
5853.190383268453
 21
536.5961995516482
 31
0.0
  0
LINE
  5
8355
330
8353
100
AcDbEntity
  8
0
  6
ByBlock
 48
15.0
100
AcDbLine
 10
5775.690383268454
 20
529.0961995516481
 30
0.0
 11
5753.190383268454
 21
529.0961995516481
 31
0.0
  0
LINE
  5
8356
330
8353
100
AcDbEntity
  8
0
  6
ByBlock
 48
15.0
100
AcDbLine
 10
5875.690383268453
 20
529.0961995516481
 30
0.0
 11
5898.190383268453
 21
529.0961995516481
 31
0.0
  0
LINE
  5
8357
330
8353
100
AcDbEntity
  8
0
  6
ByBlock
 48
15.0
100
AcDbLine
 10
5798.190383268454
 20
529.0961995516481
 30
0.0
 11
5853.190383268453
 21
529.0961995516481
 31
0.0
  0
SOLID
  5
8358
330
8353
100
AcDbEntity
  8
0
  6
ByBlock
 48
15.0
100
AcDbTrace
 10
5775.690383268454
 20
532.8461995516481
 30
0.0
 11
5775.690383268454
 21
525.3461995516481
 31
0.0
 12
5798.190383268454
 22
529.0961995516481
 32
0.0
 13
5798.190383268454
 23
529.0961995516481
 33
0.0
  0
SOLID
  5
8359
330
8353
100
AcDbEntity
  8
0
  6
ByBlock
 48
15.0
100
AcDbTrace
 10
5875.690383268453
 20
532.8461995516481
 30
0.0
 11
5875.690383268453
 21
525.3461995516481
 31
0.0
 12
5853.190383268453
 22
529.0961995516481
 32
0.0
 13
5853.190383268453
 23
529.0961995516481
 33
0.0
  0
MTEXT
  5
835A
330
8353
100
AcDbEntity
  8
0
  6
ByBlock
 48
15.0
100
AcDbMText
 10
5825.690383268453
 20
559.0961995516481
 30
0.0
 40
30.0
 41
0.0
 71
     5
 72
     1
  1
\A1;55
  7
SANWA
 73
     1
 44
1.0
1001
ACAD
1000
MTEXTBEGIN
1070
    73
1070
     1
1070
    44
1040
1.0
1070
    74
1070
     0
1000
MTEXTEND
  0
POINT
  5
835B
330
8353
100
AcDbEntity
  8
DEFPOINTS
  6
ByBlock
 62
     0
 48
15.0
100
AcDbPoint
 10
5798.190383268454
 20
447.3048059684811
 30
0.0
  0
POINT
  5
835C
330
8353
100
AcDbEntity
  8
DEFPOINTS
  6
ByBlock
 62
     0
 48
15.0
100
AcDbPoint
 10
5853.190383268453
 20
447.3048059684811
 30
0.0
  0
POINT
  5
835D
330
8353
100
AcDbEntity
  8
DEFPOINTS
  6
ByBlock
 62
     0
 48
15.0
100
AcDbPoint
 10
5853.190383268453
 20
529.0961995516481
 30
0.0
  0
ENDBLK
  5
835F
330
8353
100
AcDbEntity
  8
0
 48
15.0
100
AcDbBlockEnd
  0
BLOCK
  5
836A
330
8360
100
AcDbEntity
  8
0
 48
15.0
100
AcDbBlockBegin
  2
*D12
 70
     1
 10
0.0
 20
0.0
 30
0.0
  3
*D12
  1

  0
LINE
  5
8361
330
8360
100
AcDbEntity
  8
0
  6
ByBlock
 48
15.0
100
AcDbLine
 10
5453.190383268452
 20
462.3048059684811
 30
0.0
 11
5453.190383268452
 21
601.2786016039899
 31
0.0
  0
LINE
  5
8362
330
8360
100
AcDbEntity
  8
0
  6
ByBlock
 48
15.0
100
AcDbLine
 10
5853.190383268453
 20
462.3048059684811
 30
0.0
 11
5853.190383268453
 21
601.2786016039899
 31
0.0
  0
LINE
  5
8363
330
8360
100
AcDbEntity
  8
0
  6
ByBlock
 48
15.0
100
AcDbLine
 10
5475.690383268453
 20
593.77860160399
 30
0.0
 11
5830.690383268454
 21
593.77860160399
 31
0.0
  0
SOLID
  5
8364
330
8360
100
AcDbEntity
  8
0
  6
ByBlock
 48
15.0
100
AcDbTrace
 10
5475.690383268453
 20
597.5286016039899
 30
0.0
 11
5475.690383268453
 21
590.0286016039899
 31
0.0
 12
5453.190383268452
 22
593.77860160399
 32
0.0
 13
5453.190383268452
 23
593.77860160399
 33
0.0
  0
SOLID
  5
8365
330
8360
100
AcDbEntity
  8
0
  6
ByBlock
 48
15.0
100
AcDbTrace
 10
5830.690383268454
 20
597.5286016039899
 30
0.0
 11
5830.690383268454
 21
590.0286016039899
 31
0.0
 12
5853.190383268453
 22
593.77860160399
 32
0.0
 13
5853.190383268453
 23
593.77860160399
 33
0.0
  0
MTEXT
  5
8366
330
8360
100
AcDbEntity
  8
0
  6
ByBlock
 48
15.0
100
AcDbMText
 10
5653.190383268452
 20
623.7786016039899
 30
0.0
 40
30.0
 41
0.0
 71
     5
 72
     1
  1
\A1;400
  7
SANWA
 73
     1
 44
1.0
1001
ACAD
1000
MTEXTBEGIN
1070
    73
1070
     1
1070
    44
1040
1.0
1070
    74
1070
     0
1000
MTEXTEND
  0
POINT
  5
8367
330
8360
100
AcDbEntity
  8
DEFPOINTS
  6
ByBlock
 62
     0
 48
15.0
100
AcDbPoint
 10
5453.190383268452
 20
447.3048059684811
 30
0.0
  0
POINT
  5
8368
330
8360
100
AcDbEntity
  8
DEFPOINTS
  6
ByBlock
 62
     0
 48
15.0
100
AcDbPoint
 10
5853.190383268453
 20
447.3048059684811
 30
0.0
  0
POINT
  5
8369
330
8360
100
AcDbEntity
  8
DEFPOINTS
  6
ByBlock
 62
     0
 48
15.0
100
AcDbPoint
 10
5853.190383268453
 20
593.77860160399
 30
0.0
  0
ENDBLK
  5
836B
330
8360
100
AcDbEntity
  8
0
 48
15.0
100
AcDbBlockEnd
  0
BLOCK
  5
8377
330
836C
100
AcDbEntity
  8
0
 48
15.0
100
AcDbBlockBegin
  2
*D13
 70
     1
 10
0.0
 20
0.0
 30
0.0
  3
*D13
  1

  0
LINE
  5
836D
330
836C
100
AcDbEntity
  8
0
  6
ByBlock
 48
15.0
100
AcDbLine
 10
5868.190383268453
 20
447.3048059684811
 30
0.0
 11
5974.747289350037
 21
447.3048059684811
 31
0.0
  0
LINE
  5
836E
330
836C
100
AcDbEntity
  8
0
  6
ByBlock
 48
15.0
100
AcDbLine
 10
5967.247289350038
 20
354.8048059684811
 30
0.0
 11
5967.247289350038
 21
332.3048059684811
 31
0.0
  0
LINE
  5
836F
330
836C
100
AcDbEntity
  8
0
  6
ByBlock
 48
15.0
100
AcDbLine
 10
5967.247289350038
 20
469.804805968481
 30
0.0
 11
5967.247289350038
 21
492.3048059684811
 31
0.0
  0
LINE
  5
8370
330
836C
100
AcDbEntity
  8
0
  6
ByBlock
 48
15.0
100
AcDbLine
 10
5967.247289350038
 20
377.3048059684811
 30
0.0
 11
5967.247289350038
 21
447.3048059684811
 31
0.0
  0
SOLID
  5
8371
330
836C
100
AcDbEntity
  8
0
  6
ByBlock
 48
15.0
100
AcDbTrace
 10
5963.497289350038
 20
354.8048059684811
 30
0.0
 11
5970.997289350037
 21
354.8048059684811
 31
0.0
 12
5967.247289350038
 22
377.3048059684811
 32
0.0
 13
5967.247289350038
 23
377.3048059684811
 33
0.0
  0
SOLID
  5
8372
330
836C
100
AcDbEntity
  8
0
  6
ByBlock
 48
15.0
100
AcDbTrace
 10
5963.497289350038
 20
469.804805968481
 30
0.0
 11
5970.997289350037
 21
469.804805968481
 31
0.0
 12
5967.247289350038
 22
447.3048059684811
 32
0.0
 13
5967.247289350038
 23
447.3048059684811
 33
0.0
  0
MTEXT
  5
8373
330
836C
100
AcDbEntity
  8
0
  6
ByBlock
 48
15.0
100
AcDbMText
 10
5937.247289350038
 20
412.304805968481
 30
0.0
 40
30.0
 41
0.0
 71
     5
 72
     1
  1
\A1;70
  7
SANWA
 11
0.0000000000000001
 21
1.0
 31
0.0
 73
     1
 44
1.0
1001
ACAD
1000
MTEXTBEGIN
1070
    73
1070
     1
1070
    44
1040
1.0
1070
    74
1070
     0
1000
MTEXTEND
  0
POINT
  5
8374
330
836C
100
AcDbEntity
  8
DEFPOINTS
  6
ByBlock
 62
     0
 48
15.0
100
AcDbPoint
 10
5853.190383268453
 20
377.3048059684811
 30
0.0
  0
POINT
  5
8375
330
836C
100
AcDbEntity
  8
DEFPOINTS
  6
ByBlock
 62
     0
 48
15.0
100
AcDbPoint
 10
5853.190383268453
 20
447.3048059684811
 30
0.0
  0
POINT
  5
8376
330
836C
100
AcDbEntity
  8
DEFPOINTS
  6
ByBlock
 62
     0
 48
15.0
100
AcDbPoint
 10
5967.247289350038
 20
447.3048059684811
 30
0.0
  0
ENDBLK
  5
8378
330
836C
100
AcDbEntity
  8
0
 48
15.0
100
AcDbBlockEnd
  0
BLOCK
  5
8385
330
8379
100
AcDbEntity
  8
0
 48
15.0
100
AcDbBlockBegin
  2
*D14
 70
     1
 10
0.0
 20
0.0
 30
0.0
  3
*D14
  1

  0
LINE
  5
837A
330
8379
100
AcDbEntity
  8
0
  6
ByBlock
 48
15.0
100
AcDbLine
 10
6254.85123642764
 20
462.3048059684811
 30
0.0
 11
6254.85123642764
 21
536.5961995516482
 31
0.0
  0
LINE
  5
837B
330
8379
100
AcDbEntity
  8
0
  6
ByBlock
 48
15.0
100
AcDbLine
 10
6299.85123642764
 20
462.3048059684811
 30
0.0
 11
6299.85123642764
 21
536.5961995516482
 31
0.0
  0
LINE
  5
837C
330
8379
100
AcDbEntity
  8
0
  6
ByBlock
 48
15.0
100
AcDbLine
 10
6232.35123642764
 20
529.0961995516481
 30
0.0
 11
6209.85123642764
 21
529.0961995516481
 31
0.0
  0
LINE
  5
837D
330
8379
100
AcDbEntity
  8
0
  6
ByBlock
 48
15.0
100
AcDbLine
 10
6322.35123642764
 20
529.0961995516481
 30
0.0
 11
6344.85123642764
 21
529.0961995516481
 31
0.0
  0
LINE
  5
837E
330
8379
100
AcDbEntity
  8
0
  6
ByBlock
 48
15.0
100
AcDbLine
 10
6254.85123642764
 20
529.0961995516481
 30
0.0
 11
6299.85123642764
 21
529.0961995516481
 31
0.0
  0
SOLID
  5
837F
330
8379
100
AcDbEntity
  8
0
  6
ByBlock
 48
15.0
100
AcDbTrace
 10
6232.35123642764
 20
532.8461995516481
 30
0.0
 11
6232.35123642764
 21
525.3461995516481
 31
0.0
 12
6254.85123642764
 22
529.0961995516481
 32
0.0
 13
6254.85123642764
 23
529.0961995516481
 33
0.0
  0
SOLID
  5
8380
330
8379
100
AcDbEntity
  8
0
  6
ByBlock
 48
15.0
100
AcDbTrace
 10
6322.35123642764
 20
532.8461995516481
 30
0.0
 11
6322.35123642764
 21
525.3461995516481
 31
0.0
 12
6299.85123642764
 22
529.0961995516481
 32
0.0
 13
6299.85123642764
 23
529.0961995516481
 33
0.0
  0
MTEXT
  5
8381
330
8379
100
AcDbEntity
  8
0
  6
ByBlock
 48
15.0
100
AcDbMText
 10
6277.351236427641
 20
559.0961995516481
 30
0.0
 40
30.0
 41
0.0
 71
     5
 72
     1
  1
\A1;45
  7
SANWA
 73
     1
 44
1.0
1001
ACAD
1000
MTEXTBEGIN
1070
    73
1070
     1
1070
    44
1040
1.0
1070
    74
1070
     0
1000
MTEXTEND
  0
POINT
  5
8382
330
8379
100
AcDbEntity
  8
DEFPOINTS
  6
ByBlock
 62
     0
 48
15.0
100
AcDbPoint
 10
6254.85123642764
 20
447.3048059684811
 30
0.0
  0
POINT
  5
8383
330
8379
100
AcDbEntity
  8
DEFPOINTS
  6
ByBlock
 62
     0
 48
15.0
100
AcDbPoint
 10
6299.85123642764
 20
447.3048059684811
 30
0.0
  0
POINT
  5
8384
330
8379
100
AcDbEntity
  8
DEFPOINTS
  6
ByBlock
 62
     0
 48
15.0
100
AcDbPoint
 10
6299.85123642764
 20
529.0961995516481
 30
0.0
  0
ENDBLK
  5
8386
330
8379
100
AcDbEntity
  8
0
 48
15.0
100
AcDbBlockEnd
  0
BLOCK
  5
8390
330
8387
100
AcDbEntity
  8
0
 48
15.0
100
AcDbBlockBegin
  2
*D15
 70
     1
 10
0.0
 20
0.0
 30
0.0
  3
*D15
  1

  0
LINE
  5
8388
330
8387
100
AcDbEntity
  8
0
  6
ByBlock
 48
15.0
100
AcDbLine
 10
7209.85123642764
 20
462.3048059684811
 30
0.0
 11
7209.85123642764
 21
536.5961995516482
 31
0.0
  0
LINE
  5
8389
330
8387
100
AcDbEntity
  8
0
  6
ByBlock
 48
15.0
100
AcDbLine
 10
6322.35123642764
 20
529.0961995516481
 30
0.0
 11
7187.351236427641
 21
529.0961995516481
 31
0.0
  0
SOLID
  5
838A
330
8387
100
AcDbEntity
  8
0
  6
ByBlock
 48
15.0
100
AcDbTrace
 10
6322.35123642764
 20
532.8461995516481
 30
0.0
 11
6322.35123642764
 21
525.3461995516481
 31
0.0
 12
6299.85123642764
 22
529.0961995516481
 32
0.0
 13
6299.85123642764
 23
529.0961995516481
 33
0.0
  0
SOLID
  5
838B
330
8387
100
AcDbEntity
  8
0
  6
ByBlock
 48
15.0
100
AcDbTrace
 10
7187.351236427641
 20
532.8461995516481
 30
0.0
 11
7187.351236427641
 21
525.3461995516481
 31
0.0
 12
7209.85123642764
 22
529.0961995516481
 32
0.0
 13
7209.85123642764
 23
529.0961995516481
 33
0.0
  0
MTEXT
  5
838C
330
8387
100
AcDbEntity
  8
0
  6
ByBlock
 48
15.0
100
AcDbMText
 10
6754.85123642764
 20
559.0961995516481
 30
0.0
 40
30.0
 41
0.0
 71
     5
 72
     1
  1
\A1;7@130=910
  7
SANWA
 73
     1
 44
1.0
1001
ACAD
1000
MTEXTBEGIN
1070
    73
1070
     1
1070
    44
1040
1.0
1070
    74
1070
     0
1000
MTEXTEND
  0
POINT
  5
838D
330
8387
100
AcDbEntity
  8
DEFPOINTS
  6
ByBlock
 62
     0
 48
15.0
100
AcDbPoint
 10
6299.85123642764
 20
447.3048059684811
 30
0.0
  0
POINT
  5
838E
330
8387
100
AcDbEntity
  8
DEFPOINTS
  6
ByBlock
 62
     0
 48
15.0
100
AcDbPoint
 10
7209.85123642764
 20
447.3048059684811
 30
0.0
  0
POINT
  5
838F
330
8387
100
AcDbEntity
  8
DEFPOINTS
  6
ByBlock
 62
     0
 48
15.0
100
AcDbPoint
 10
7209.85123642764
 20
529.0961995516481
 30
0.0
  0
ENDBLK
  5
8391
330
8387
100
AcDbEntity
  8
0
 48
15.0
100
AcDbBlockEnd
  0
BLOCK
  5
839D
330
8392
100
AcDbEntity
  8
0
 48
15.0
100
AcDbBlockBegin
  2
*D16
 70
     1
 10
0.0
 20
0.0
 30
0.0
  3
*D16
  1

  0
LINE
  5
8393
330
8392
100
AcDbEntity
  8
0
  6
ByBlock
 48
15.0
100
AcDbLine
 10
7254.85123642764
 20
462.3048059684811
 30
0.0
 11
7254.85123642764
 21
536.5961995516482
 31
0.0
  0
LINE
  5
8394
330
8392
100
AcDbEntity
  8
0
  6
ByBlock
 48
15.0
100
AcDbLine
 10
7187.351236427641
 20
529.0961995516481
 30
0.0
 11
7164.85123642764
 21
529.0961995516481
 31
0.0
  0
LINE
  5
8395
330
8392
100
AcDbEntity
  8
0
  6
ByBlock
 48
15.0
100
AcDbLine
 10
7277.35123642764
 20
529.0961995516481
 30
0.0
 11
7299.851236427641
 21
529.0961995516481
 31
0.0
  0
LINE
  5
8396
330
8392
100
AcDbEntity
  8
0
  6
ByBlock
 48
15.0
100
AcDbLine
 10
7209.85123642764
 20
529.0961995516481
 30
0.0
 11
7254.85123642764
 21
529.0961995516481
 31
0.0
  0
SOLID
  5
8397
330
8392
100
AcDbEntity
  8
0
  6
ByBlock
 48
15.0
100
AcDbTrace
 10
7187.351236427641
 20
532.8461995516481
 30
0.0
 11
7187.351236427641
 21
525.3461995516481
 31
0.0
 12
7209.85123642764
 22
529.0961995516481
 32
0.0
 13
7209.85123642764
 23
529.0961995516481
 33
0.0
  0
SOLID
  5
8398
330
8392
100
AcDbEntity
  8
0
  6
ByBlock
 48
15.0
100
AcDbTrace
 10
7277.35123642764
 20
532.8461995516481
 30
0.0
 11
7277.35123642764
 21
525.3461995516481
 31
0.0
 12
7254.85123642764
 22
529.0961995516481
 32
0.0
 13
7254.85123642764
 23
529.0961995516481
 33
0.0
  0
MTEXT
  5
8399
330
8392
100
AcDbEntity
  8
0
  6
ByBlock
 48
15.0
100
AcDbMText
 10
7232.351236427641
 20
559.0961995516481
 30
0.0
 40
30.0
 41
0.0
 71
     5
 72
     1
  1
\A1;45
  7
SANWA
 73
     1
 44
1.0
1001
ACAD
1000
MTEXTBEGIN
1070
    73
1070
     1
1070
    44
1040
1.0
1070
    74
1070
     0
1000
MTEXTEND
  0
POINT
  5
839A
330
8392
100
AcDbEntity
  8
DEFPOINTS
  6
ByBlock
 62
     0
 48
15.0
100
AcDbPoint
 10
7209.85123642764
 20
447.3048059684811
 30
0.0
  0
POINT
  5
839B
330
8392
100
AcDbEntity
  8
DEFPOINTS
  6
ByBlock
 62
     0
 48
15.0
100
AcDbPoint
 10
7254.85123642764
 20
447.3048059684811
 30
0.0
  0
POINT
  5
839C
330
8392
100
AcDbEntity
  8
DEFPOINTS
  6
ByBlock
 62
     0
 48
15.0
100
AcDbPoint
 10
7254.85123642764
 20
529.0961995516481
 30
0.0
  0
ENDBLK
  5
839E
330
8392
100
AcDbEntity
  8
0
 48
15.0
100
AcDbBlockEnd
  0
BLOCK
  5
83A9
330
839F
100
AcDbEntity
  8
0
 48
15.0
100
AcDbBlockBegin
  2
*D17
 70
     1
 10
0.0
 20
0.0
 30
0.0
  3
*D17
  1

  0
LINE
  5
83A0
330
839F
100
AcDbEntity
  8
0
  6
ByBlock
 48
15.0
100
AcDbLine
 10
6254.85123642764
 20
462.3048059684811
 30
0.0
 11
6254.85123642764
 21
601.2786016039899
 31
0.0
  0
LINE
  5
83A1
330
839F
100
AcDbEntity
  8
0
  6
ByBlock
 48
15.0
100
AcDbLine
 10
7254.85123642764
 20
462.3048059684811
 30
0.0
 11
7254.85123642764
 21
601.2786016039899
 31
0.0
  0
LINE
  5
83A2
330
839F
100
AcDbEntity
  8
0
  6
ByBlock
 48
15.0
100
AcDbLine
 10
6277.351236427641
 20
593.77860160399
 30
0.0
 11
7232.351236427641
 21
593.77860160399
 31
0.0
  0
SOLID
  5
83A3
330
839F
100
AcDbEntity
  8
0
  6
ByBlock
 48
15.0
100
AcDbTrace
 10
6277.351236427641
 20
597.5286016039899
 30
0.0
 11
6277.351236427641
 21
590.0286016039899
 31
0.0
 12
6254.85123642764
 22
593.77860160399
 32
0.0
 13
6254.85123642764
 23
593.77860160399
 33
0.0
  0
SOLID
  5
83A4
330
839F
100
AcDbEntity
  8
0
  6
ByBlock
 48
15.0
100
AcDbTrace
 10
7232.351236427641
 20
597.5286016039899
 30
0.0
 11
7232.351236427641
 21
590.0286016039899
 31
0.0
 12
7254.85123642764
 22
593.77860160399
 32
0.0
 13
7254.85123642764
 23
593.77860160399
 33
0.0
  0
MTEXT
  5
83A5
330
839F
100
AcDbEntity
  8
0
  6
ByBlock
 48
15.0
100
AcDbMText
 10
6754.85123642764
 20
623.7786016039899
 30
0.0
 40
30.0
 41
0.0
 71
     5
 72
     1
  1
\A1;1000
  7
SANWA
 73
     1
 44
1.0
1001
ACAD
1000
MTEXTBEGIN
1070
    73
1070
     1
1070
    44
1040
1.0
1070
    74
1070
     0
1000
MTEXTEND
  0
POINT
  5
83A6
330
839F
100
AcDbEntity
  8
DEFPOINTS
  6
ByBlock
 62
     0
 48
15.0
100
AcDbPoint
 10
6254.85123642764
 20
447.3048059684811
 30
0.0
  0
POINT
  5
83A7
330
839F
100
AcDbEntity
  8
DEFPOINTS
  6
ByBlock
 62
     0
 48
15.0
100
AcDbPoint
 10
7254.85123642764
 20
447.3048059684811
 30
0.0
  0
POINT
  5
83A8
330
839F
100
AcDbEntity
  8
DEFPOINTS
  6
ByBlock
 62
     0
 48
15.0
100
AcDbPoint
 10
7254.85123642764
 20
593.77860160399
 30
0.0
  0
ENDBLK
  5
83AA
330
839F
100
AcDbEntity
  8
0
 48
15.0
100
AcDbBlockEnd
  0
BLOCK
  5
83B6
330
83AB
100
AcDbEntity
  8
0
 48
15.0
100
AcDbBlockBegin
  2
*D18
 70
     1
 10
0.0
 20
0.0
 30
0.0
  3
*D18
  1

  0
LINE
  5
83AC
330
83AB
100
AcDbEntity
  8
0
  6
ByBlock
 48
15.0
100
AcDbLine
 10
7269.851236427641
 20
447.3048059684811
 30
0.0
 11
7369.28209680537
 21
447.3048059684811
 31
0.0
  0
LINE
  5
83AD
330
83AB
100
AcDbEntity
  8
0
  6
ByBlock
 48
15.0
100
AcDbLine
 10
7361.78209680537
 20
354.8048059684811
 30
0.0
 11
7361.78209680537
 21
332.3048059684811
 31
0.0
  0
LINE
  5
83AE
330
83AB
100
AcDbEntity
  8
0
  6
ByBlock
 48
15.0
100
AcDbLine
 10
7361.78209680537
 20
469.804805968481
 30
0.0
 11
7361.78209680537
 21
492.3048059684811
 31
0.0
  0
LINE
  5
83AF
330
83AB
100
AcDbEntity
  8
0
  6
ByBlock
 48
15.0
100
AcDbLine
 10
7361.78209680537
 20
377.3048059684811
 30
0.0
 11
7361.78209680537
 21
447.3048059684811
 31
0.0
  0
SOLID
  5
83B0
330
83AB
100
AcDbEntity
  8
0
  6
ByBlock
 48
15.0
100
AcDbTrace
 10
7358.032096805371
 20
354.8048059684811
 30
0.0
 11
7365.532096805371
 21
354.8048059684811
 31
0.0
 12
7361.78209680537
 22
377.3048059684811
 32
0.0
 13
7361.78209680537
 23
377.3048059684811
 33
0.0
  0
SOLID
  5
83B1
330
83AB
100
AcDbEntity
  8
0
  6
ByBlock
 48
15.0
100
AcDbTrace
 10
7358.032096805371
 20
469.804805968481
 30
0.0
 11
7365.532096805371
 21
469.804805968481
 31
0.0
 12
7361.78209680537
 22
447.3048059684811
 32
0.0
 13
7361.78209680537
 23
447.3048059684811
 33
0.0
  0
MTEXT
  5
83B2
330
83AB
100
AcDbEntity
  8
0
  6
ByBlock
 48
15.0
100
AcDbMText
 10
7331.782096805371
 20
412.304805968481
 30
0.0
 40
30.0
 41
0.0
 71
     5
 72
     1
  1
\A1;70
  7
SANWA
 11
0.0000000000000001
 21
1.0
 31
0.0
 73
     1
 44
1.0
1001
ACAD
1000
MTEXTBEGIN
1070
    73
1070
     1
1070
    44
1040
1.0
1070
    74
1070
     0
1000
MTEXTEND
  0
POINT
  5
83B3
330
83AB
100
AcDbEntity
  8
DEFPOINTS
  6
ByBlock
 62
     0
 48
15.0
100
AcDbPoint
 10
7254.85123642764
 20
377.3048059684811
 30
0.0
  0
POINT
  5
83B4
330
83AB
100
AcDbEntity
  8
DEFPOINTS
  6
ByBlock
 62
     0
 48
15.0
100
AcDbPoint
 10
7254.85123642764
 20
447.3048059684811
 30
0.0
  0
POINT
  5
83B5
330
83AB
100
AcDbEntity
  8
DEFPOINTS
  6
ByBlock
 62
     0
 48
15.0
100
AcDbPoint
 10
7361.78209680537
 20
447.3048059684811
 30
0.0
  0
ENDBLK
  5
83B7
330
83AB
100
AcDbEntity
  8
0
 48
15.0
100
AcDbBlockEnd
  0
BLOCK
  5
83C2
330
83B8
100
AcDbEntity
  8
0
 48
15.0
100
AcDbBlockBegin
  2
*D19
 70
     1
 10
0.0
 20
0.0
 30
0.0
  3
*D19
  1

  0
LINE
  5
83B9
330
83B8
100
AcDbEntity
  8
0
  6
ByBlock
 48
15.0
100
AcDbLine
 10
7269.851236427641
 20
347.3048059684811
 30
0.0
 11
7439.15259905123
 21
347.3048059684811
 31
0.0
  0
LINE
  5
83BA
330
83B8
100
AcDbEntity
  8
0
  6
ByBlock
 48
15.0
100
AcDbLine
 10
7269.851236427641
 20
447.3048059684811
 30
0.0
 11
7439.15259905123
 21
447.3048059684811
 31
0.0
  0
LINE
  5
83BB
330
83B8
100
AcDbEntity
  8
0
  6
ByBlock
 48
15.0
100
AcDbLine
 10
7431.652599051232
 20
369.8048059684811
 30
0.0
 11
7431.652599051232
 21
424.804805968481
 31
0.0
  0
SOLID
  5
83BC
330
83B8
100
AcDbEntity
  8
0
  6
ByBlock
 48
15.0
100
AcDbTrace
 10
7427.902599051231
 20
369.8048059684811
 30
0.0
 11
7435.402599051231
 21
369.8048059684811
 31
0.0
 12
7431.652599051232
 22
347.3048059684811
 32
0.0
 13
7431.652599051232
 23
347.3048059684811
 33
0.0
  0
SOLID
  5
83BD
330
83B8
100
AcDbEntity
  8
0
  6
ByBlock
 48
15.0
100
AcDbTrace
 10
7427.902599051231
 20
424.804805968481
 30
0.0
 11
7435.402599051231
 21
424.804805968481
 31
0.0
 12
7431.652599051232
 22
447.3048059684811
 32
0.0
 13
7431.652599051232
 23
447.3048059684811
 33
0.0
  0
MTEXT
  5
83BE
330
83B8
100
AcDbEntity
  8
0
  6
ByBlock
 48
15.0
100
AcDbMText
 10
7401.652599051231
 20
397.3048059684811
 30
0.0
 40
30.0
 41
0.0
 71
     5
 72
     1
  1
\A1;100
  7
SANWA
 11
0.0000000000000001
 21
1.0
 31
0.0
 73
     1
 44
1.0
1001
ACAD
1000
MTEXTBEGIN
1070
    73
1070
     1
1070
    44
1040
1.0
1070
    74
1070
     0
1000
MTEXTEND
  0
POINT
  5
83BF
330
83B8
100
AcDbEntity
  8
DEFPOINTS
  6
ByBlock
 62
     0
 48
15.0
100
AcDbPoint
 10
7254.85123642764
 20
347.3048059684811
 30
0.0
  0
POINT
  5
83C0
330
83B8
100
AcDbEntity
  8
DEFPOINTS
  6
ByBlock
 62
     0
 48
15.0
100
AcDbPoint
 10
7254.85123642764
 20
447.3048059684811
 30
0.0
  0
POINT
  5
83C1
330
83B8
100
AcDbEntity
  8
DEFPOINTS
  6
ByBlock
 62
     0
 48
15.0
100
AcDbPoint
 10
7431.652599051232
 20
447.3048059684811
 30
0.0
  0
ENDBLK
  5
83C3
330
83B8
100
AcDbEntity
  8
0
 48
15.0
100
AcDbBlockEnd
  0
BLOCK
  5
83CE
330
83C4
100
AcDbEntity
  8
0
 48
15.0
100
AcDbBlockBegin
  2
*D20
 70
     1
 10
0.0
 20
0.0
 30
0.0
  3
*D20
  1

  0
LINE
  5
83C5
330
83C4
100
AcDbEntity
  8
0
  6
ByBlock
 48
15.0
100
AcDbLine
 10
5868.190383268453
 20
347.3048059684811
 30
0.0
 11
6044.071897282891
 21
347.304805968481
 31
0.0
  0
LINE
  5
83C6
330
83C4
100
AcDbEntity
  8
0
  6
ByBlock
 48
15.0
100
AcDbLine
 10
5868.190383268453
 20
447.3048059684811
 30
0.0
 11
6044.071897282891
 21
447.304805968481
 31
0.0
  0
LINE
  5
83C7
330
83C4
100
AcDbEntity
  8
0
  6
ByBlock
 48
15.0
100
AcDbLine
 10
6036.571897282891
 20
369.804805968481
 30
0.0
 11
6036.571897282891
 21
424.804805968481
 31
0.0
  0
SOLID
  5
83C8
330
83C4
100
AcDbEntity
  8
0
  6
ByBlock
 48
15.0
100
AcDbTrace
 10
6032.82189728289
 20
369.804805968481
 30
0.0
 11
6040.321897282891
 21
369.804805968481
 31
0.0
 12
6036.571897282891
 22
347.304805968481
 32
0.0
 13
6036.571897282891
 23
347.304805968481
 33
0.0
  0
SOLID
  5
83C9
330
83C4
100
AcDbEntity
  8
0
  6
ByBlock
 48
15.0
100
AcDbTrace
 10
6032.82189728289
 20
424.804805968481
 30
0.0
 11
6040.321897282891
 21
424.804805968481
 31
0.0
 12
6036.571897282891
 22
447.304805968481
 32
0.0
 13
6036.571897282891
 23
447.304805968481
 33
0.0
  0
MTEXT
  5
83CA
330
83C4
100
AcDbEntity
  8
0
  6
ByBlock
 48
15.0
100
AcDbMText
 10
6006.571897282891
 20
397.3048059684811
 30
0.0
 40
30.0
 41
0.0
 71
     5
 72
     1
  1
\A1;100
  7
SANWA
 11
0.0000000000000001
 21
1.0
 31
0.0
 73
     1
 44
1.0
1001
ACAD
1000
MTEXTBEGIN
1070
    73
1070
     1
1070
    44
1040
1.0
1070
    74
1070
     0
1000
MTEXTEND
  0
POINT
  5
83CB
330
83C4
100
AcDbEntity
  8
DEFPOINTS
  6
ByBlock
 62
     0
 48
15.0
100
AcDbPoint
 10
5853.190383268453
 20
347.3048059684811
 30
0.0
  0
POINT
  5
83CC
330
83C4
100
AcDbEntity
  8
DEFPOINTS
  6
ByBlock
 62
     0
 48
15.0
100
AcDbPoint
 10
5853.190383268453
 20
447.3048059684811
 30
0.0
  0
POINT
  5
83CD
330
83C4
100
AcDbEntity
  8
DEFPOINTS
  6
ByBlock
 62
     0
 48
15.0
100
AcDbPoint
 10
6036.571897282891
 20
447.304805968481
 30
0.0
  0
ENDBLK
  5
83CF
330
83C4
100
AcDbEntity
  8
0
 48
15.0
100
AcDbBlockEnd
  0
BLOCK
  5
84A9
330
83D0
100
AcDbEntity
  8
0
 48
15.0
100
AcDbBlockBegin
  2
A$C32BC39A0
 70
     0
 10
0.0
 20
0.0
 30
0.0
  3
A$C32BC39A0
  1

  0
DIMENSION
  5
83D1
330
83D0
100
AcDbEntity
  8
寸法引出
 48
15.0
100
AcDbDimension
  2
*D8
 10
2099.561747676162
 20
741.5677515008037
 30
0.0
 11
2069.561747676162
 21
1241.567751500804
 31
0.0
 12
-4111.810748795106
 22
1807.474765486964
 32
0.0
 71
     5
 42
-1.0
  3
SANWA
100
AcDbAlignedDimension
 13
1741.379634473347
 23
1741.567751500804
 33
0.0
 14
1741.379634473347
 24
741.5677515008037
 34
0.0
 50
90.0
100
AcDbRotatedDimension
1001
ACAD
1000
DSTYLE
1002
{
1070
   140
1040
2.0
1070
    40
1040
15.0
1070
   147
1040
1.0
1070
    44
1040
0.5
1070
    43
1040
5.0
1070
   178
1070
   256
1070
   177
1070
   256
1070
   176
1070
   256
1070
    41
1040
1.5
1002
}
  0
DIMENSION
  5
83D2
330
83D0
100
AcDbEntity
  8
寸法引出
 48
15.0
100
AcDbDimension
  2
*D1
 10
2030.538287322474
 20
1696.567751500804
 30
0.0
 11
2000.538287322473
 21
1241.567751500804
 31
0.0
 12
-4111.810748795106
 22
1807.474765486964
 32
0.0
  1
7@130=<>
 71
     5
 42
-1.0
  3
SANWA
100
AcDbAlignedDimension
 13
1741.379634473347
 23
786.5677515008037
 33
0.0
 14
1741.379634473347
 24
1696.567751500804
 34
0.0
 50
90.0
100
AcDbRotatedDimension
1001
ACAD
1000
DSTYLE
1002
{
1070
   140
1040
2.0
1070
    40
1040
15.0
1070
   147
1040
1.0
1070
    44
1040
0.5
1070
    43
1040
5.0
1070
   178
1070
   256
1070
   177
1070
   256
1070
   176
1070
   256
1070
    41
1040
1.5
1002
}
  0
LWPOLYLINE
  5
83D3
330
83D0
100
AcDbEntity
  8
寸法引出
 48
15.0
100
AcDbPolyline
 90
        3
 70
     0
 43
0.0
 10
1450.965200517574
 20
1674.067751500803
 10
1450.965200517574
 20
638.7581343055899
 10
1661.327385450735
 20
638.7581343055899
1001
ACAD
1000
DSTYLE
1002
{
1070
   140
1040
2.0
1070
    40
1040
15.0
1070
   147
1040
1.0
1070
    44
1040
0.5
1070
    43
1040
5.0
1070
   178
1070
   256
1070
   177
1070
   256
1070
   176
1070
   256
1070
    41
1040
1.5
1002
}
  0
LINE
  5
83D4
330
83D0
100
AcDbEntity
  8
鉄筋
 48
15.0
100
AcDbLine
 10
1686.379634473348
 20
1701.567751500803
 30
0.0
 11
1686.379634473347
 21
781.5677515008037
 31
0.0
  0
LINE
  5
83D5
330
83D0
100
AcDbEntity
  8
鉄筋
 48
15.0
100
AcDbLine
 10
1396.379634473348
 20
1701.567751500803
 30
0.0
 11
1396.379634473347
 21
781.5677515008037
 31
0.0
  0
LINE
  5
83D6
330
83D0
100
AcDbEntity
  8
鉄筋
 48
15.0
100
AcDbLine
 10
1541.379634473348
 20
1701.567751500803
 30
0.0
 11
1541.379634473347
 21
781.5677515008037
 31
0.0
  0
LINE
  5
83D7
330
83D0
100
AcDbEntity
  8
枠
100
AcDbLine
 10
4304.999994500241
 20
150.0000038137932
 30
0.0
 11
4304.999994500241
 21
3000.000003813794
 31
0.0
  0
LINE
  5
83D8
330
83D0
100
AcDbEntity
  8
0
 48
15.0
100
AcDbLine
 10
1341.379634473347
 20
1741.567751500804
 30
0.0
 11
1341.379634473347
 21
741.5677515008037
 31
0.0
  0
LINE
  5
83D9
330
83D0
100
AcDbEntity
  8
0
 48
15.0
100
AcDbLine
 10
1741.379634473347
 20
1741.567751500804
 30
0.0
 11
1741.379634473347
 21
741.5677515008037
 31
0.0
  0
LINE
  5
83DA
330
83D0
100
AcDbEntity
  8
枠
100
AcDbLine
 10
374.9999945002419
 20
150.0000038137932
 30
0.0
 11
374.9999945002419
 21
3000.000003813794
 31
0.0
  0
LINE
  5
83DB
330
83D0
100
AcDbEntity
  8
枠
100
AcDbLine
 10
374.9999945002419
 20
150.000003813795
 30
0.0
 11
4304.999994500241
 21
150.000003813795
 31
0.0
  0
LINE
  5
83DC
330
83D0
100
AcDbEntity
  8
0
100
AcDbLine
 10
-0.0000054997581174
 20
0.0000038137932279
 30
0.0
 11
-0.0000054997581174
 21
150.0000038137932
 31
0.0
  0
LINE
  5
83DD
330
83D0
100
AcDbEntity
  8
0
100
AcDbLine
 10
374.9999945002419
 20
0.0000038137932279
 30
0.0
 11
-0.0000054997581174
 21
0.0000038137932279
 31
0.0
  0
DIMENSION
  5
83DE
330
83D0
100
AcDbEntity
  8
寸法引出
 48
15.0
100
AcDbDimension
  2
*D3
 10
2030.538287322474
 20
786.5677515008037
 30
0.0
 11
2000.538287322473
 21
764.0677515008037
 31
0.0
 12
-4111.810748795106
 22
1807.474765486964
 32
0.0
 71
     5
 42
-1.0
  3
SANWA
100
AcDbAlignedDimension
 13
1741.379634473347
 23
741.5677515008037
 33
0.0
 14
1741.379634473347
 24
786.5677515008037
 34
0.0
 50
90.0
100
AcDbRotatedDimension
1001
ACAD
1000
DSTYLE
1002
{
1070
   140
1040
2.0
1070
    40
1040
15.0
1070
   147
1040
1.0
1070
    44
1040
0.5
1070
    43
1040
5.0
1070
   178
1070
   256
1070
   177
1070
   256
1070
   176
1070
   256
1070
    41
1040
1.5
1002
}
  0
LINE
  5
83DF
330
83D0
100
AcDbEntity
  8
0
 48
15.0
100
AcDbLine
 10
1341.379634473347
 20
741.5677515008037
 30
0.0
 11
1741.379634473347
 21
741.5677515008037
 31
0.0
  0
MTEXT
  5
83E0
330
83D0
100
AcDbEntity
  8
寸法引出
  6
ByBlock
 48
15.0
100
AcDbMText
 10
1557.226833787798
 20
662.1969664431162
 30
0.0
 40
30.0
 41
0.0
 71
     5
 72
     1
  1
S1 D13×8
  7
SANWA
 73
     1
 44
1.0
1001
ACAD
1000
MTEXTBEGIN
1070
    73
1070
     1
1070
    44
1040
1.0
1070
    74
1070
     0
1000
MTEXTEND
  0
CIRCLE
  5
83E1
330
83D0
100
AcDbEntity
  8
寸法引出
 48
15.0
100
AcDbCircle
 10
1482.449663842359
 20
660.4757268147932
 30
0.0
 40
24.86816063193874
  0
LINE
  5
83E2
330
83D0
100
AcDbEntity
  8
鉄筋
 48
15.0
100
AcDbLine
 10
1391.379634473347
 20
786.5677515008036
 30
0.0
 11
1691.379634473348
 21
786.5677515008037
 31
0.0
  0
SOLID
  5
83E3
330
83D0
100
AcDbEntity
  8
寸法引出
 48
15.0
100
AcDbTrace
 10
1447.215200517574
 20
764.0677515008037
 30
0.0
 11
1450.965200517574
 21
786.5677515008036
 31
0.0
 12
1454.715200517574
 22
764.0677515008037
 32
0.0
 13
1454.715200517574
 23
764.0677515008037
 33
0.0
1001
ACAD
1000
DSTYLE
1002
{
1070
   140
1040
2.0
1070
    40
1040
15.0
1070
   147
1040
1.0
1070
    44
1040
0.5
1070
    43
1040
5.0
1070
   178
1070
   256
1070
   177
1070
   256
1070
   176
1070
   256
1070
    41
1040
1.5
1002
}
  0
CIRCLE
  5
83E4
330
83D0
100
AcDbEntity
  8
0
 48
15.0
100
AcDbCircle
 10
1366.379634473347
 20
861.5677515008037
 30
0.0
 40
10.0
  0
LINE
  5
83E5
330
83D0
100
AcDbEntity
  8
鉄筋
 48
15.0
100
AcDbLine
 10
1391.379634473347
 20
916.5677515008036
 30
0.0
 11
1691.379634473348
 21
916.5677515008038
 31
0.0
  0
SOLID
  5
83E6
330
83D0
100
AcDbEntity
  8
寸法引出
 48
15.0
100
AcDbTrace
 10
1447.215200517574
 20
894.0677515008037
 30
0.0
 11
1450.965200517574
 21
916.5677515008036
 31
0.0
 12
1454.715200517574
 22
894.0677515008037
 32
0.0
 13
1454.715200517574
 23
894.0677515008037
 33
0.0
1001
ACAD
1000
DSTYLE
1002
{
1070
   140
1040
2.0
1070
    40
1040
15.0
1070
   147
1040
1.0
1070
    44
1040
0.5
1070
    43
1040
5.0
1070
   178
1070
   256
1070
   177
1070
   256
1070
   176
1070
   256
1070
    41
1040
1.5
1002
}
  0
CIRCLE
  5
83E7
330
83D0
100
AcDbEntity
  8
0
 48
15.0
100
AcDbCircle
 10
1716.379634473347
 20
861.5677515008037
 30
0.0
 40
10.0
  0
LINE
  5
83E8
330
83D0
100
AcDbEntity
  8
鉄筋
 48
15.0
100
AcDbLine
 10
1391.379634473347
 20
1046.567751500804
 30
0.0
 11
1691.379634473348
 21
1046.567751500804
 31
0.0
  0
SOLID
  5
83E9
330
83D0
100
AcDbEntity
  8
寸法引出
 48
15.0
100
AcDbTrace
 10
1447.215200517574
 20
1024.067751500804
 30
0.0
 11
1450.965200517574
 21
1046.567751500804
 31
0.0
 12
1454.715200517574
 22
1024.067751500804
 32
0.0
 13
1454.715200517574
 23
1024.067751500804
 33
0.0
1001
ACAD
1000
DSTYLE
1002
{
1070
   140
1040
2.0
1070
    40
1040
15.0
1070
   147
1040
1.0
1070
    44
1040
0.5
1070
    43
1040
5.0
1070
   178
1070
   256
1070
   177
1070
   256
1070
   176
1070
   256
1070
    41
1040
1.5
1002
}
  0
LWPOLYLINE
  5
83EA
330
83D0
100
AcDbEntity
  8
寸法引出
 48
15.0
100
AcDbPolyline
 90
        2
 70
     0
 43
0.0
 10
1418.879634473347
 20
1232.734900165295
 10
1976.498043814317
 20
1232.734900165295
1001
ACAD
1000
DSTYLE
1002
{
1070
   140
1040
2.0
1070
    40
1040
15.0
1070
   147
1040
1.0
1070
    44
1040
0.5
1070
    43
1040
5.0
1070
   178
1070
   256
1070
   177
1070
   256
1070
   176
1070
   256
1070
    41
1040
1.5
1002
}
  0
LINE
  5
83EB
330
83D0
100
AcDbEntity
  8
鉄筋
 48
15.0
100
AcDbLine
 10
1391.379634473347
 20
1176.567751500804
 30
0.0
 11
1691.379634473348
 21
1176.567751500804
 31
0.0
  0
SOLID
  5
83EC
330
83D0
100
AcDbEntity
  8
寸法引出
 48
15.0
100
AcDbTrace
 10
1447.215200517574
 20
1154.067751500804
 30
0.0
 11
1450.965200517574
 21
1176.567751500804
 31
0.0
 12
1454.715200517574
 22
1154.067751500804
 32
0.0
 13
1454.715200517574
 23
1154.067751500804
 33
0.0
1001
ACAD
1000
DSTYLE
1002
{
1070
   140
1040
2.0
1070
    40
1040
15.0
1070
   147
1040
1.0
1070
    44
1040
0.5
1070
    43
1040
5.0
1070
   178
1070
   256
1070
   177
1070
   256
1070
   176
1070
   256
1070
    41
1040
1.5
1002
}
  0
SOLID
  5
83ED
330
83D0
100
AcDbEntity
  8
寸法引出
 48
15.0
100
AcDbTrace
 10
1563.879634473347
 20
1228.984900165295
 30
-0.0000000000000023
 11
1541.379634473347
 21
1232.734900165295
 31
-0.0000000000000023
 12
1563.879634473347
 22
1236.484900165295
 32
-0.0000000000000023
 13
1563.879634473347
 23
1236.484900165295
 33
-0.0000000000000023
1001
ACAD
1000
DSTYLE
1002
{
1070
   140
1040
2.0
1070
    40
1040
15.0
1070
   147
1040
1.0
1070
    44
1040
0.5
1070
    43
1040
5.0
1070
   178
1070
   256
1070
   177
1070
   256
1070
   176
1070
   256
1070
    41
1040
1.5
1002
}
  0
LINE
  5
83EE
330
83D0
100
AcDbEntity
  8
鉄筋
 48
15.0
100
AcDbLine
 10
1391.379634473347
 20
1306.567751500804
 30
0.0
 11
1691.379634473348
 21
1306.567751500804
 31
0.0
  0
SOLID
  5
83EF
330
83D0
100
AcDbEntity
  8
寸法引出
 48
15.0
100
AcDbTrace
 10
1418.879634473347
 20
1228.984900165295
 30
-0.0000000000000023
 11
1396.379634473347
 21
1232.734900165295
 31
-0.0000000000000023
 12
1418.879634473347
 22
1236.484900165295
 32
-0.0000000000000023
 13
1418.879634473347
 23
1236.484900165295
 33
-0.0000000000000023
1001
ACAD
1000
DSTYLE
1002
{
1070
   140
1040
2.0
1070
    40
1040
15.0
1070
   147
1040
1.0
1070
    44
1040
0.5
1070
    43
1040
5.0
1070
   178
1070
   256
1070
   177
1070
   256
1070
   176
1070
   256
1070
    41
1040
1.5
1002
}
  0
SOLID
  5
83F0
330
83D0
100
AcDbEntity
  8
寸法引出
 48
15.0
100
AcDbTrace
 10
1447.215200517574
 20
1284.067751500804
 30
0.0
 11
1450.965200517574
 21
1306.567751500804
 31
0.0
 12
1454.715200517574
 22
1284.067751500804
 32
0.0
 13
1454.715200517574
 23
1284.067751500804
 33
0.0
1001
ACAD
1000
DSTYLE
1002
{
1070
   140
1040
2.0
1070
    40
1040
15.0
1070
   147
1040
1.0
1070
    44
1040
0.5
1070
    43
1040
5.0
1070
   178
1070
   256
1070
   177
1070
   256
1070
   176
1070
   256
1070
    41
1040
1.5
1002
}
  0
SOLID
  5
83F1
330
83D0
100
AcDbEntity
  8
寸法引出
 48
15.0
100
AcDbTrace
 10
1708.879634473347
 20
1228.984900165295
 30
-0.0000000000000023
 11
1686.379634473347
 21
1232.734900165295
 31
-0.0000000000000023
 12
1708.879634473347
 22
1236.484900165295
 32
-0.0000000000000023
 13
1708.879634473347
 23
1236.484900165295
 33
-0.0000000000000023
1001
ACAD
1000
DSTYLE
1002
{
1070
   140
1040
2.0
1070
    40
1040
15.0
1070
   147
1040
1.0
1070
    44
1040
0.5
1070
    43
1040
5.0
1070
   178
1070
   256
1070
   177
1070
   256
1070
   176
1070
   256
1070
    41
1040
1.5
1002
}
  0
LINE
  5
83F2
330
83D0
100
AcDbEntity
  8
鉄筋
 48
15.0
100
AcDbLine
 10
1391.379634473347
 20
1436.567751500804
 30
0.0
 11
1691.379634473348
 21
1436.567751500804
 31
0.0
  0
SOLID
  5
83F3
330
83D0
100
AcDbEntity
  8
寸法引出
 48
15.0
100
AcDbTrace
 10
1447.215200517574
 20
1414.067751500804
 30
0.0
 11
1450.965200517574
 21
1436.567751500804
 31
0.0
 12
1454.715200517574
 22
1414.067751500804
 32
0.0
 13
1454.715200517574
 23
1414.067751500804
 33
0.0
1001
ACAD
1000
DSTYLE
1002
{
1070
   140
1040
2.0
1070
    40
1040
15.0
1070
   147
1040
1.0
1070
    44
1040
0.5
1070
    43
1040
5.0
1070
   178
1070
   256
1070
   177
1070
   256
1070
   176
1070
   256
1070
    41
1040
1.5
1002
}
  0
LINE
  5
83F4
330
83D0
100
AcDbEntity
  8
鉄筋
 48
15.0
100
AcDbLine
 10
1391.379634473347
 20
1566.567751500804
 30
0.0
 11
1691.379634473348
 21
1566.567751500804
 31
0.0
  0
SOLID
  5
83F5
330
83D0
100
AcDbEntity
  8
寸法引出
 48
15.0
100
AcDbTrace
 10
1447.215200517574
 20
1544.067751500804
 30
0.0
 11
1450.965200517574
 21
1566.567751500804
 31
0.0
 12
1454.715200517574
 22
1544.067751500804
 32
0.0
 13
1454.715200517574
 23
1544.067751500804
 33
0.0
1001
ACAD
1000
DSTYLE
1002
{
1070
   140
1040
2.0
1070
    40
1040
15.0
1070
   147
1040
1.0
1070
    44
1040
0.5
1070
    43
1040
5.0
1070
   178
1070
   256
1070
   177
1070
   256
1070
   176
1070
   256
1070
    41
1040
1.5
1002
}
  0
MTEXT
  5
83F6
330
83D0
100
AcDbEntity
  8
寸法引出
  6
ByBlock
 48
15.0
100
AcDbMText
 10
1872.39749215138
 20
1256.173732302821
 30
0.0
 40
30.0
 41
0.0
 71
     5
 72
     1
  1
S2 D10×3
  7
SANWA
 73
     1
 44
1.0
1001
ACAD
1000
MTEXTBEGIN
1070
    73
1070
     1
1070
    44
1040
1.0
1070
    74
1070
     0
1000
MTEXTEND
  0
CIRCLE
  5
83F7
330
83D0
100
AcDbEntity
  8
寸法引出
 48
15.0
100
AcDbCircle
 10
1797.620322205941
 20
1254.452492674498
 30
0.0
 40
24.86816063193874
  0
LINE
  5
83F8
330
83D0
100
AcDbEntity
  8
0
100
AcDbLine
 10
3646.531909393849
 20
306.0000038137946
 30
0.0
 11
3646.531909393849
 21
594.0000038137968
 31
0.0
  0
LINE
  5
83F9
330
83D0
100
AcDbEntity
  8
0
100
AcDbLine
 10
3598.531909393845
 20
150.000003813795
 30
0.0
 11
3598.531909393845
 21
594.0000038137968
 31
0.0
  0
LINE
  5
83FA
330
83D0
100
AcDbEntity
  8
0
100
AcDbLine
 10
3202.531909393851
 20
594.0000038137968
 30
0.0
 11
3202.531909393851
 21
522.000003813796
 31
0.0
  0
LINE
  5
83FB
330
83D0
100
AcDbEntity
  8
0
100
AcDbLine
 10
3202.531909393851
 20
306.0000038137946
 30
0.0
 11
4304.999994500241
 21
306.0000038137946
 31
0.0
  0
TEXT
  5
83FC
330
83D0
100
AcDbEntity
  8
0
100
AcDbText
 10
3766.408307912697
 20
206.7188762244734
 30
0.0
 40
24.0
  1
三和コンクリート工業株式会社
  7
SANWA
100
AcDbText
  0
LINE
  5
83FD
330
83D0
100
AcDbEntity
  8
0
 62
     0
100
AcDbLine
 10
3598.531909393845
 20
498.0000038137973
 30
0.0
 11
4304.999994500241
 21
498.0000038137973
 31
0.0
  0
LINE
  5
83FE
330
83D0
100
AcDbEntity
  8
0
 62
     0
100
AcDbLine
 10
3598.531909393845
 20
402.0000038137959
 30
0.0
 11
4304.999994500241
 21
402.0000038137959
 31
0.0
  0
TEXT
  5
83FF
330
83D0
100
AcDbEntity
  8
0
100
AcDbText
 10
3803.274331835313
 20
534.2681602383773
 30
0.0
 40
24.0
  1
マルチスリット側溝蓋
  7
SANWA
 72
     4
 11
3975.765951947045
 21
546.0000038137963
 31
0.0
100
AcDbText
  0
TEXT
  5
8400
102
{ACAD_REACTORS
330
8403
102
}
330
83D0
100
AcDbEntity
  8
0
 48
2.0
100
AcDbText
 10
3424.249750296739
 20
80.91869764267016
 30
0.0
 40
24.0
  1
大
  7
SANWA
100
AcDbText
  0
CIRCLE
  5
8401
102
{ACAD_REACTORS
330
8403
102
}
330
83D0
100
AcDbEntity
  8
0
100
AcDbCircle
 10
3440.808044469531
 20
72.91680011179505
 30
0.0
 40
47.98512634354756
  0
CIRCLE
  5
8402
102
{ACAD_REACTORS
330
8403
102
}
330
83D0
100
AcDbEntity
  8
0
100
AcDbCircle
 10
3440.808044469531
 20
72.91680011179505
 30
0.0
 40
45.58512634354756
  0
HATCH
  5
8403
330
83D0
100
AcDbEntity
  8
0
100
AcDbHatch
 10
0.0
 20
0.0
 30
0.0
210
0.0
220
0.0
230
1.0
  2
SOLID
 70
     1
 71
     1
 91
        4
 92
        7
 72
     1
 73
     1
 93
        2
 10
3392.822918125983
 20
72.91680011179505
 42
1.000000014053304
 10
3488.793170813079
 20
72.91680011179505
 42
1.000000014053304
 97
        1
330
8401
 92
       22
 72
     1
 73
     1
 93
        2
 10
3486.393170813079
 20
72.91680011179505
 42
-1.0
 10
3395.222918125983
 20
72.91680011179505
 42
-1.0
 97
        1
330
8402
 92
      136
 93
        4
 72
     1
 10
3418.551426274393
 20
71.33210546389932
 11
3464.540253090035
 21
71.33210546389932
 72
     1
 10
3464.540253090035
 20
71.33210546389932
 11
3464.540253090035
 21
115.9801501566366
 72
     1
 10
3464.540253090035
 20
115.9801501566366
 11
3418.551426274393
 21
115.9801501566366
 72
     1
 10
3418.551426274393
 20
115.9801501566366
 11
3418.551426274393
 21
71.33210546389932
 97
        1
330
8400
 92
      136
 93
        4
 72
     1
 10
3418.690966326143
 20
35.65179717096339
 11
3464.746832247931
 21
35.65179717096339
 72
     1
 10
3464.746832247931
 20
35.65179717096339
 11
3464.746832247931
 21
82.51213236649414
 72
     1
 10
3464.746832247931
 20
82.51213236649414
 11
3418.690966326143
 21
82.51213236649414
 72
     1
 10
3418.690966326143
 20
82.51213236649414
 11
3418.690966326143
 21
35.65179717096339
 97
        1
330
8409
 75
     0
 76
     1
 47
0.0602706122334892
 98
        2
 10
3463.798330335834
 20
114.1660512125734
 10
3463.798330335834
 20
114.1660512125734
  0
CIRCLE
  5
8404
102
{ACAD_REACTORS
330
8407
102
}
330
83D0
100
AcDbEntity
  8
0
100
AcDbCircle
 10
3319.41231350403
 20
72.91680011179505
 30
0.0
 40
45.58512634354756
  0
CIRCLE
  5
8405
102
{ACAD_REACTORS
330
8407
102
}
330
83D0
100
AcDbEntity
  8
0
100
AcDbCircle
 10
3319.41231350403
 20
72.91680011179505
 30
0.0
 40
47.98512634354756
  0
TEXT
  5
8406
102
{ACAD_REACTORS
330
8407
102
}
330
83D0
100
AcDbEntity
  8
0
 48
2.0
100
AcDbText
 10
3302.854019331246
 20
79.62983711157789
 30
0.0
 40
24.0
  1
蒔
  7
SANWA
100
AcDbText
  0
HATCH
  5
8407
330
83D0
100
AcDbEntity
  8
0
100
AcDbHatch
 10
0.0
 20
0.0
 30
0.0
210
0.0
220
0.0
230
1.0
  2
SOLID
 70
     1
 71
     1
 91
        4
 92
        7
 72
     1
 73
     1
 93
        2
 10
3271.427187160482
 20
72.91680011179505
 42
1.000000014053304
 10
3367.397439847578
 20
72.91680011179505
 42
1.000000014053304
 97
        1
330
8405
 92
       22
 72
     1
 73
     1
 93
        2
 10
3364.997439847578
 20
72.91680011179505
 42
-1.0
 10
3273.827187160482
 20
72.91680011179505
 42
-1.0
 97
        1
330
8404
 92
      136
 93
        4
 72
     1
 10
3296.719941118955
 20
68.53486504453872
 11
3343.848432739067
 21
68.53486504453872
 72
     1
 10
3343.848432739067
 20
68.53486504453872
 11
3343.848432739067
 21
114.9929656031979
 72
     1
 10
3343.848432739067
 20
114.9929656031979
 11
3296.719941118955
 21
114.9929656031979
 72
     1
 10
3296.719941118955
 20
114.9929656031979
 11
3296.719941118955
 21
68.53486504453872
 97
        1
330
8406
 92
      136
 93
        4
 72
     1
 10
3301.317581729358
 20
32.85783517120149
 11
3339.596911338296
 21
32.85783517120149
 72
     1
 10
3339.596911338296
 20
32.85783517120149
 11
3339.596911338296
 21
74.89135472427415
 72
     1
 10
3339.596911338296
 20
74.89135472427415
 11
3301.317581729358
 21
74.89135472427415
 72
     1
 10
3301.317581729358
 20
74.89135472427415
 11
3301.317581729358
 21
32.85783517120149
 97
        1
330
8408
 75
     0
 76
     1
 47
0.0602706122334892
 98
        2
 10
3342.40259937034
 20
114.1660512125734
 10
3342.40259937034
 20
114.1660512125734
  0
TEXT
  5
8408
102
{ACAD_REACTORS
330
8407
102
}
330
83D0
100
AcDbEntity
  8
0
 48
2.0
100
AcDbText
 10
3302.289648768464
 20
43.08129885835228
 30
0.0
 40
24.0
  1
田
  7
SANWA
100
AcDbText
  0
TEXT
  5
8409
102
{ACAD_REACTORS
330
8403
102
}
330
83D0
100
AcDbEntity
  8
0
 48
2.0
100
AcDbText
 10
3423.685379733965
 20
46.94788655643833
 30
0.0
 40
24.0
  1
嶋
  7
SANWA
100
AcDbText
  0
TEXT
  5
840A
330
83D0
100
AcDbEntity
  8
0
 48
2.0
100
AcDbText
 10
3325.407357335497
 20
557.2772899786196
 30
0.0
 40
24.0
  1
図面
  7
SANWA
100
AcDbText
  0
TEXT
  5
840B
330
83D0
100
AcDbEntity
  8
0
 48
2.0
100
AcDbText
 10
3341.538427974705
 20
378.5853051111444
 30
0.0
 40
24.0
  1
1 : 15
  7
SANWA
100
AcDbText
  0
TEXT
  5
840C
330
83D0
100
AcDbEntity
  8
0
 48
2.0
100
AcDbText
 10
3326.458867659657
 20
434.3839184840085
 30
0.0
 40
24.0
  1
縮    尺
  7
SANWA
100
AcDbText
  0
LINE
  5
840D
330
83D0
100
AcDbEntity
  8
0
 62
     0
100
AcDbLine
 10
3202.531909393851
 20
270.000003813795
 30
0.0
 11
3598.531909393852
 21
270.000003813795
 31
0.0
  0
LINE
  5
840E
330
83D0
100
AcDbEntity
  8
0
 62
     0
100
AcDbLine
 10
3202.531909393851
 20
546.0000038137963
 30
0.0
 11
3598.531909393845
 21
546.0000038137963
 31
0.0
  0
LINE
  5
840F
330
83D0
100
AcDbEntity
  8
0
 62
     0
100
AcDbLine
 10
3202.531909393851
 20
546.0000038137963
 30
0.0
 11
3598.531909393845
 21
546.0000038137963
 31
0.0
  0
LINE
  5
8410
330
83D0
100
AcDbEntity
  8
0
 62
     0
100
AcDbLine
 10
3202.531909393851
 20
342.000003813796
 30
0.0
 11
3598.531909393852
 21
342.000003813796
 31
0.0
  0
LINE
  5
8411
330
83D0
100
AcDbEntity
  8
0
 62
     0
100
AcDbLine
 10
3202.531909393851
 20
474.0000038137968
 30
0.0
 11
3598.531909393845
 21
474.0000038137968
 31
0.0
  0
LINE
  5
8412
330
83D0
100
AcDbEntity
  8
0
 62
     0
100
AcDbLine
 10
3202.531909393851
 20
426.0000038137964
 30
0.0
 11
3598.531909393845
 21
426.0000038137964
 31
0.0
  0
LINE
  5
8413
330
83D0
100
AcDbEntity
  8
0
100
AcDbLine
 10
3202.531909393851
 20
378.0000038137955
 30
0.0
 11
3202.531909393851
 21
299.9351535235592
 31
0.0
  0
LINE
  5
8414
330
83D0
100
AcDbEntity
  8
0
100
AcDbLine
 10
3202.531909393851
 20
342.000003813796
 30
0.0
 11
3202.531909393851
 21
378.0000038137955
 31
0.0
  0
LINE
  5
8415
330
83D0
100
AcDbEntity
  8
0
 62
     0
100
AcDbLine
 10
3202.531909393851
 20
378.0000038137955
 30
0.0
 11
3202.531909393851
 21
150.000003813795
 31
0.0
  0
LINE
  5
8416
330
83D0
100
AcDbEntity
  8
0
100
AcDbLine
 10
3334.531909393847
 20
150.000003813795
 30
0.0
 11
3334.531909393847
 21
342.000003813796
 31
0.0
  0
TEXT
  5
8417
330
83D0
100
AcDbEntity
  8
0
 48
2.0
100
AcDbText
 10
3251.727096117006
 20
210.5983017827955
 30
0.0
 40
24.0
  1
河
  7
SANWA
100
AcDbText
  0
CIRCLE
  5
8418
102
{ACAD_REACTORS
330
841A
102
}
330
83D0
100
AcDbEntity
  8
0
100
AcDbCircle
 10
3268.28539028979
 20
207.4272595232933
 30
0.0
 40
45.58512634354756
  0
CIRCLE
  5
8419
102
{ACAD_REACTORS
330
841A
102
}
330
83D0
100
AcDbEntity
  8
0
100
AcDbCircle
 10
3268.28539028979
 20
207.4272595232933
 30
0.0
 40
47.98512634354756
  0
HATCH
  5
841A
330
83D0
100
AcDbEntity
  8
0
100
AcDbHatch
 10
0.0
 20
0.0
 30
0.0
210
0.0
220
0.0
230
1.0
  2
SOLID
 70
     1
 71
     1
 91
        2
 92
        7
 72
     1
 73
     1
 93
        2
 10
3220.300263946242
 20
207.4272595232933
 42
1.000000014053304
 10
3316.270516633338
 20
207.4272595232933
 42
1.000000014053304
 97
        1
330
8419
 92
       22
 72
     1
 73
     1
 93
        2
 10
3313.870516633337
 20
207.4272595232933
 42
-1.0
 10
3222.700263946242
 20
207.4272595232933
 42
-1.0
 97
        1
330
8418
 75
     0
 76
     1
 47
0.0602706122334892
 98
        2
 10
3291.2756761561
 20
248.6765106240716
 10
3291.2756761561
 20
248.6765106240716
  0
TEXT
  5
841B
330
83D0
100
AcDbEntity
  8
0
 48
2.0
100
AcDbText
 10
3251.162725554231
 20
176.6274906965654
 30
0.0
 40
24.0
  1
口
  7
SANWA
100
AcDbText
  0
LINE
  5
841C
330
83D0
100
AcDbEntity
  8
0
100
AcDbLine
 10
3202.531909393851
 20
342.000003813796
 30
0.0
 11
3202.531909393851
 21
306.0000038137946
 31
0.0
  0
TEXT
  5
841D
330
83D0
100
AcDbEntity
  8
0
 48
2.0
100
AcDbText
 10
3234.749390544604
 20
313.2513828222755
 30
0.0
 40
24.0
  1
製図
  7
SANWA
100
AcDbText
  0
TEXT
  5
841E
330
83D0
100
AcDbEntity
  8
0
 48
2.0
100
AcDbText
 10
3231.216174433374
 20
275.7717989294395
 30
0.0
 40
24.0
  1
検図
  7
SANWA
100
AcDbText
  0
LINE
  5
841F
330
83D0
100
AcDbEntity
  8
0
 62
     0
100
AcDbLine
 10
3202.531909393851
 20
522.000003813796
 30
0.0
 11
3202.531909393851
 21
378.0000038137955
 31
0.0
  0
LINE
  5
8420
330
83D0
100
AcDbEntity
  8
0
100
AcDbLine
 10
3202.531909393851
 20
436.0565714016916
 30
0.0
 11
3202.531909393851
 21
529.2701507558835
 31
0.0
  0
LINE
  5
8421
330
83D0
100
AcDbEntity
  8
0
100
AcDbLine
 10
3202.531909393851
 20
402.0000038137959
 30
0.0
 11
3202.531909393851
 21
436.0565714016916
 31
0.0
  0
TEXT
  5
8422
330
83D0
100
AcDbEntity
  8
0
 48
2.0
100
AcDbText
 10
3609.288062429572
 20
324.941095554733
 30
0.0
 40
16.79999999999999
  1
格
  7
SANWA
100
AcDbText
  0
TEXT
  5
8423
330
83D0
100
AcDbEntity
  8
0
100
AcDbText
 10
3904.369303902353
 20
341.8659256015064
 30
0.0
 40
24.0
  1
３００用
  7
SANWA
 72
     4
 11
3975.765951947045
 21
354.0000038137969
 31
0.0
100
AcDbText
  0
TEXT
  5
8424
330
83D0
100
AcDbEntity
  8
0
100
AcDbText
 10
3666.708997335176
 20
206.7188762244734
 30
0.0
 40
18.0
  1
和
  7
SANWA
100
AcDbText
  0
ARC
  5
8425
102
{ACAD_REACTORS
330
8432
102
}
330
83D0
100
AcDbEntity
  8
0
100
AcDbCircle
 10
3680.136208832041
 20
223.2088196225941
 30
0.0
 40
33.06378893304791
100
AcDbArc
 50
274.1625874111288
 51
40.83741258887306
  0
ARC
  5
8426
102
{ACAD_REACTORS
330
8432
102
}
330
83D0
100
AcDbEntity
  8
0
100
AcDbCircle
 10
3680.136208832041
 20
223.2088196225941
 30
0.0
 40
43.86378893304791
100
AcDbArc
 50
273.1364954470844
 51
41.86350455291712
  0
ARC
  5
8427
102
{ACAD_REACTORS
330
8432
102
}
330
83D0
100
AcDbEntity
  8
0
100
AcDbCircle
 10
3680.136208832041
 20
223.2088196225941
 30
0.0
 40
35.46378893304791
100
AcDbArc
 50
277.7788203119023
 51
37.22117968809818
  0
ARC
  5
8428
102
{ACAD_REACTORS
330
8432
102
}
330
83D0
100
AcDbEntity
  8
0
100
AcDbCircle
 10
3680.136208832041
 20
223.2088196225941
 30
0.0
 40
41.46378893304791
100
AcDbArc
 50
276.6476737862027
 51
38.35232621379853
  0
TEXT
  5
8429
102
{ACAD_REACTORS
330
842C
102
}
330
83D0
100
AcDbEntity
  8
0
 48
2.0
100
AcDbText
 10
3515.556239560524
 20
218.1742794261074
 30
0.0
 40
24.0
  1
中
  7
SANWA
100
AcDbText
  0
CIRCLE
  5
842A
102
{ACAD_REACTORS
330
842C
102
}
330
83D0
100
AcDbEntity
  8
0
100
AcDbCircle
 10
3532.114533733309
 20
210.1723818952323
 30
0.0
 40
47.98512634354756
  0
CIRCLE
  5
842B
102
{ACAD_REACTORS
330
842C
102
}
330
83D0
100
AcDbEntity
  8
0
100
AcDbCircle
 10
3532.114533733309
 20
210.1723818952323
 30
0.0
 40
45.58512634354756
  0
HATCH
  5
842C
330
83D0
100
AcDbEntity
  8
0
100
AcDbHatch
 10
0.0
 20
0.0
 30
0.0
210
0.0
220
0.0
230
1.0
  2
SOLID
 70
     1
 71
     1
 91
        4
 92
        7
 72
     1
 73
     1
 93
        2
 10
3484.129407389762
 20
210.1723818952323
 42
1.000000014053304
 10
3580.099660076857
 20
210.1723818952323
 42
1.000000014053304
 97
        1
330
842A
 92
       22
 72
     1
 73
     1
 93
        2
 10
3577.699660076857
 20
210.1723818952323
 42
-1.0
 10
3486.529407389762
 20
210.1723818952323
 42
-1.0
 97
        1
330
842B
 92
      136
 93
        4
 72
     1
 10
3512.841155761641
 20
206.475955403761
 11
3554.874675314714
 21
206.475955403761
 72
     1
 10
3554.874675314714
 20
206.475955403761
 11
3554.874675314714
 21
253.3362905992917
 72
     1
 10
3554.874675314714
 20
253.3362905992917
 11
3512.841155761641
 21
253.3362905992917
 72
     1
 10
3512.841155761641
 20
253.3362905992917
 11
3512.841155761641
 21
206.475955403761
 97
        1
330
8429
 92
      136
 93
        4
 72
     1
 10
3508.32147793629
 20
174.0470437588699
 11
3553.036561735173
 21
174.0470437588699
 72
     1
 10
3553.036561735173
 20
174.0470437588699
 11
3553.036561735173
 21
218.0917364963002
 72
     1
 10
3553.036561735173
 20
218.0917364963002
 11
3508.32147793629
 21
218.0917364963002
 72
     1
 10
3508.32147793629
 20
218.0917364963002
 11
3508.32147793629
 21
174.0470437588699
 97
        1
330
8433
 75
     0
 76
     1
 47
0.0602706122334892
 98
        2
 10
3555.10481959962
 20
251.4216329960107
 10
3555.10481959962
 20
251.4216329960107
  0
LINE
  5
842D
330
83D0
100
AcDbEntity
  8
0
100
AcDbLine
 10
3466.531909393849
 20
150.000003813795
 30
0.0
 11
3466.531909393849
 21
306.0000038137946
 31
0.0
  0
ARC
  5
842E
102
{ACAD_REACTORS
330
8432
102
}
330
83D0
100
AcDbEntity
  8
0
100
AcDbCircle
 10
3680.136208832041
 20
223.2088196225941
 30
0.0
 40
41.46378893304791
100
AcDbArc
 50
141.6476737862016
 51
263.3523262137983
  0
ARC
  5
842F
102
{ACAD_REACTORS
330
8432
102
}
330
83D0
100
AcDbEntity
  8
0
100
AcDbCircle
 10
3680.136208832041
 20
223.2088196225941
 30
0.0
 40
43.86378893304791
100
AcDbArc
 50
138.1364954470837
 51
266.8635045529165
  0
ARC
  5
8430
102
{ACAD_REACTORS
330
8432
102
}
330
83D0
100
AcDbEntity
  8
0
100
AcDbCircle
 10
3680.136208832041
 20
223.2088196225941
 30
0.0
 40
35.46378893304791
100
AcDbArc
 50
142.7788203119012
 51
262.2211796880999
  0
ARC
  5
8431
102
{ACAD_REACTORS
330
8432
102
}
330
83D0
100
AcDbEntity
  8
0
100
AcDbCircle
 10
3680.136208832041
 20
223.2088196225941
 30
0.0
 40
33.06378893304791
100
AcDbArc
 50
139.1625874111273
 51
265.8374125888725
  0
HATCH
  5
8432
330
83D0
100
AcDbEntity
  8
0
100
AcDbHatch
 10
0.0
 20
0.0
 30
0.0
210
0.0
220
0.0
230
1.0
  2
SOLID
 70
     1
 71
     1
 91
        6
 92
        7
 72
     1
 73
     1
 93
        4
 10
3650.863344380781
 20
255.8757966235532
 42
0.0
 10
3658.515309165074
 20
248.2238318392626
 42
-0.3722683533228704
 10
3701.757108499015
 20
248.2238318392563
 42
0.0
 10
3709.409073283302
 20
255.875796623551
 42
0.3824979940289992
 97
        4
330
8445
330
843B
330
8441
330
8444
 92
       22
 72
     1
 73
     1
 93
        4
 10
3705.864302523326
 20
255.7251384132687
 42
0.0
 10
3701.588024776646
 20
251.4488606665893
 42
0.336742954895075
 10
3658.684392887439
 20
251.4488606665921
 42
0.0
 10
3654.408115140757
 20
255.7251384132708
 42
-0.3477704275230964
 97
        4
330
8442
330
843C
330
843F
330
843D
 92
        7
 72
     1
 73
     1
 93
        4
 10
3705.151221048709
 20
244.8297192895609
 42
-0.6168583269097669
 10
3682.536208832052
 20
190.2322500828575
 42
0.0
 10
3682.536208832046
 20
179.4107377061111
 42
0.629288915937916
 10
3712.803185832998
 20
252.4816840738549
 42
0.0
 97
        4
330
8440
330
8425
330
8435
330
8426
 92
       22
 72
     1
 73
     1
 93
        4
 10
3712.652527622717
 20
248.9369133138778
 42
-0.5873104908888742
 10
3684.936208832044
 20
182.0238005903743
 42
0.0
 10
3684.936208832044
 20
188.0713705762027
 42
0.5741105922167026
 10
3708.376249876037
 20
244.6606355671988
 42
0.0
 97
        4
330
8428
330
8437
330
8427
330
8443
 92
        7
 72
     1
 73
     1
 93
        4
 10
3647.469231831087
 20
252.4816840738586
 42
0.6292889159380126
 10
3677.736208832043
 20
179.4107377061107
 42
0.0
 10
3677.736208832043
 20
190.2322500828563
 42
-0.6168583269100103
 10
3655.121196615378
 20
244.8297192895686
 42
0.0
 97
        4
330
842F
330
8434
330
8431
330
8446
 92
       22
 72
     1
 73
     1
 93
        4
 10
3651.896167788047
 20
244.6606355672023
 42
0.5741105922168146
 10
3675.336208832045
 20
188.0713705762018
 42
0.0
 10
3675.336208832045
 20
182.0238005903732
 42
-0.5873104908889722
 10
3647.619890041368
 20
248.9369133138812
 42
0.0
 97
        4
330
8430
330
8436
330
842E
330
8447
 75
     0
 76
     1
 47
0.0143554168026844
 98
        6
 10
3699.348491284218
 20
260.885329584306
 10
3699.348491284218
 20
260.885329584306
 10
3708.313951847107
 20
246.9318652668567
 10
3708.313951847107
 20
246.9318652668567
 10
3652.969447856282
 20
246.4150699743968
 10
3652.969447856282
 20
246.4150699743968
  0
TEXT
  5
8433
102
{ACAD_REACTORS
330
842C
102
}
330
83D0
100
AcDbEntity
  8
0
 48
2.0
100
AcDbText
 10
3514.991868997742
 20
184.2034683398756
 30
0.0
 40
24.0
  1
川
  7
SANWA
100
AcDbText
  0
LINE
  5
8434
102
{ACAD_REACTORS
330
8432
102
}
330
83D0
100
AcDbEntity
  8
0
100
AcDbLine
 10
3677.736208832043
 20
179.4107377061114
 30
0.0
 11
3677.736208832043
 21
190.2322500828552
 31
0.0
  0
LINE
  5
8435
102
{ACAD_REACTORS
330
8432
102
}
330
83D0
100
AcDbEntity
  8
0
100
AcDbLine
 10
3682.536208832046
 20
179.4107377061114
 30
0.0
 11
3682.536208832052
 21
190.2322500828568
 31
0.0
  0
LINE
  5
8436
102
{ACAD_REACTORS
330
8432
102
}
330
83D0
100
AcDbEntity
  8
0
100
AcDbLine
 10
3675.336208832045
 20
182.0238005903734
 30
0.0
 11
3675.336208832045
 21
188.0713705762014
 31
0.0
  0
LINE
  5
8437
102
{ACAD_REACTORS
330
8432
102
}
330
83D0
100
AcDbEntity
  8
0
100
AcDbLine
 10
3684.936208832044
 20
182.0238005903734
 30
0.0
 11
3684.936208832044
 21
188.0713705762014
 31
0.0
  0
TEXT
  5
8438
330
83D0
100
AcDbEntity
  8
0
 48
2.0
100
AcDbText
 10
3388.97229744964
 20
313.2513828222755
 30
0.0
 40
24.0
  1
2000.12.19
  7
SANWA
100
AcDbText
  0
TEXT
  5
8439
330
83D0
100
AcDbEntity
  8
0
 48
2.0
100
AcDbText
 10
3498.749390544603
 20
277.2513828222759
 30
0.0
 40
24.0
  1
製図
  7
SANWA
100
AcDbText
  0
TEXT
  5
843A
330
83D0
100
AcDbEntity
  8
0
 48
2.0
100
AcDbText
 10
3369.075980325826
 20
277.1357215650896
 30
0.0
 40
24.0
  1
設計
  7
SANWA
100
AcDbText
  0
ARC
  5
843B
102
{ACAD_REACTORS
330
8432
102
}
330
83D0
100
AcDbEntity
  8
0
100
AcDbCircle
 10
3680.136208832041
 20
223.2088196225941
 30
0.0
 40
33.06378893304791
100
AcDbArc
 50
49.16258741112848
 51
130.8374125888727
  0
ARC
  5
843C
102
{ACAD_REACTORS
330
8432
102
}
330
83D0
100
AcDbEntity
  8
0
100
AcDbCircle
 10
3680.136208832041
 20
223.2088196225941
 30
0.0
 40
35.46378893304791
100
AcDbArc
 50
52.77882031190202
 51
127.2211796880981
  0
ARC
  5
843D
102
{ACAD_REACTORS
330
8432
102
}
330
83D0
100
AcDbEntity
  8
0
100
AcDbCircle
 10
3680.136208832041
 20
223.2088196225941
 30
0.0
 40
41.46378893304791
100
AcDbArc
 50
51.64767378620499
 51
128.3523262137973
  0
TEXT
  5
843E
330
83D0
100
AcDbEntity
  8
0
100
AcDbText
 10
3666.708997335176
 20
230.6320954164339
 30
0.0
 40
18.0
  1
三
  7
SANWA
100
AcDbText
  0
LINE
  5
843F
102
{ACAD_REACTORS
330
8432
102
}
330
83D0
100
AcDbEntity
  8
0
100
AcDbLine
 10
3658.684392887441
 20
251.44886066659
 30
0.0
 11
3654.408115140758
 21
255.7251384132696
 31
0.0
  0
LINE
  5
8440
102
{ACAD_REACTORS
330
8432
102
}
330
83D0
100
AcDbEntity
  8
0
100
AcDbLine
 10
3705.151221048712
 20
244.8297192895648
 30
0.0
 11
3712.803185832999
 21
252.481684073856
 31
0.0
  0
LINE
  5
8441
102
{ACAD_REACTORS
330
8432
102
}
330
83D0
100
AcDbEntity
  8
0
100
AcDbLine
 10
3701.757108499018
 20
248.2238318392597
 30
0.0
 11
3709.409073283304
 21
255.8757966235526
 31
0.0
  0
LINE
  5
8442
102
{ACAD_REACTORS
330
8432
102
}
330
83D0
100
AcDbEntity
  8
0
100
AcDbLine
 10
3701.588024776646
 20
251.44886066659
 30
0.0
 11
3705.864302523329
 21
255.7251384132712
 31
0.0
  0
LINE
  5
8443
102
{ACAD_REACTORS
330
8432
102
}
330
83D0
100
AcDbEntity
  8
0
100
AcDbLine
 10
3708.376249876037
 20
244.6606355671986
 30
0.0
 11
3712.652527622719
 21
248.9369133138798
 31
0.0
  0
ARC
  5
8444
102
{ACAD_REACTORS
330
8432
102
}
330
83D0
100
AcDbEntity
  8
0
100
AcDbCircle
 10
3680.136208832041
 20
223.2088196225941
 30
0.0
 40
43.86378893304791
100
AcDbArc
 50
48.13649544708374
 51
131.8635045529165
  0
LINE
  5
8445
102
{ACAD_REACTORS
330
8432
102
}
330
83D0
100
AcDbEntity
  8
0
100
AcDbLine
 10
3658.515309165077
 20
248.2238318392597
 30
0.0
 11
3650.816882503799
 21
255.9222585005352
 31
0.0
  0
LINE
  5
8446
102
{ACAD_REACTORS
330
8432
102
}
330
83D0
100
AcDbEntity
  8
0
100
AcDbLine
 10
3655.121196615382
 20
244.8297192895648
 30
0.0
 11
3647.422769954105
 21
252.5281459508403
 31
0.0
  0
LINE
  5
8447
102
{ACAD_REACTORS
330
8432
102
}
330
83D0
100
AcDbEntity
  8
0
100
AcDbLine
 10
3651.896167788051
 20
244.6606355671986
 30
0.0
 11
3647.619890041369
 21
248.9369133138798
 31
0.0
  0
TEXT
  5
8448
330
83D0
100
AcDbEntity
  8
0
 48
2.0
100
AcDbText
 10
3608.763419808646
 20
466.4348231138615
 30
0.0
 40
16.79999999999999
  1
呼
  7
SANWA
100
AcDbText
  0
TEXT
  5
8449
330
83D0
100
AcDbEntity
  8
0
 48
2.0
100
AcDbText
 10
3608.865360365164
 20
419.9263523685237
 30
0.0
 40
16.79999999999999
  1
名
  7
SANWA
100
AcDbText
  0
TEXT
  5
844A
330
83D0
100
AcDbEntity
  8
0
 48
2.0
100
AcDbText
 10
3609.288062429572
 20
360.6846191266691
 30
0.0
 40
16.79999999999999
  1
規
  7
SANWA
100
AcDbText
  0
TEXT
  5
844B
330
83D0
100
AcDbEntity
  8
0
 48
2.0
100
AcDbText
 10
3608.525129387093
 20
443.4326198145981
 30
0.0
 40
16.79999999999999
  1
び
  7
SANWA
100
AcDbText
  0
TEXT
  5
844C
330
83D0
100
AcDbEntity
  8
0
 48
2.0
100
AcDbText
 10
3392.339279411698
 20
558.6411954563886
 30
0.0
 40
24.0
  1
番号
  7
SANWA
100
AcDbText
  0
TEXT
  5
844D
330
83D0
100
AcDbEntity
  8
0
 48
2.0
100
AcDbText
 10
3609.74309176121
 20
560.3769005008428
 30
0.0
 40
16.79999999999999
  1
品
  7
SANWA
100
AcDbText
  0
TEXT
  5
844E
330
83D0
100
AcDbEntity
  8
0
 48
2.0
100
AcDbText
 10
3608.833033097948
 20
520.9962670583865
 30
0.0
 40
16.79999999999999
  1
名
  7
SANWA
100
AcDbText
  0
TEXT
  5
844F
330
83D0
100
AcDbEntity
  8
0
100
AcDbText
 10
3938.894443567157
 20
436.9944172216178
 30
0.0
 40
24.0
  1
Ｂ型
  7
SANWA
 72
     4
 11
3975.765951947045
 21
450.0000038137966
 31
0.0
100
AcDbText
  0
LINE
  5
8450
330
83D0
100
AcDbEntity
  8
0
100
AcDbLine
 10
4454.999994500242
 20
150.0000038137932
 30
0.0
 11
4454.999994500242
 21
0.0000038137932279
 31
0.0
  0
LINE
  5
8451
330
83D0
100
AcDbEntity
  8
0
100
AcDbLine
 10
4454.999994500242
 20
0.0000038137932279
 30
0.0
 11
4304.999994500241
 21
0.0000038137932279
 31
0.0
  0
LINE
  5
8452
330
83D0
100
AcDbEntity
  8
0
 62
     0
100
AcDbLine
 10
3202.531909393851
 20
594.0000038137968
 30
0.0
 11
4304.999994500241
 21
594.0000038137968
 31
0.0
  0
LINE
  5
8453
330
83D0
100
AcDbEntity
  8
0
100
AcDbLine
 10
3598.531909393845
 20
594.0000038137968
 30
0.0
 11
3621.277266805682
 21
594.0000038137968
 31
0.0
  0
DIMENSION
  5
8454
330
83D0
100
AcDbEntity
  8
寸法引出
 48
15.0
100
AcDbDimension
  2
*D17
 10
3143.040487632535
 20
2401.253367090955
 30
0.0
 11
2643.040487632535
 21
2431.253367090955
 31
0.0
 12
-4111.810748795106
 22
1807.474765486964
 32
0.0
 71
     5
 42
-1.0
  3
SANWA
100
AcDbAlignedDimension
 13
2143.040487632535
 23
2254.779571455445
 33
0.0
 14
3143.040487632535
 24
2254.779571455445
 34
0.0
100
AcDbRotatedDimension
1001
ACAD
1000
DSTYLE
1002
{
1070
   140
1040
2.0
1070
    40
1040
15.0
1070
   147
1040
1.0
1070
    44
1040
0.5
1070
    43
1040
5.0
1070
   178
1070
   256
1070
   177
1070
   256
1070
   176
1070
   256
1070
    41
1040
1.5
1002
}
  0
DIMENSION
  5
8455
330
83D0
100
AcDbEntity
  8
寸法引出
 48
15.0
100
AcDbDimension
  2
*D15
 10
3098.040487632535
 20
2336.570965038613
 30
0.0
 11
2643.040487632535
 21
2366.570965038613
 31
0.0
 12
-4111.810748795106
 22
1807.474765486964
 32
0.0
  1
7@130=<>
 71
     5
 42
-1.0
  3
SANWA
100
AcDbAlignedDimension
 13
2188.040487632535
 23
2254.779571455445
 33
0.0
 14
3098.040487632535
 24
2254.779571455445
 34
0.0
100
AcDbRotatedDimension
1001
ACAD
1000
DSTYLE
1002
{
1070
    40
1040
15.0
1070
    41
1040
1.5
1070
    43
1040
5.0
1070
    44
1040
0.5
1070
    75
1070
     1
1070
   140
1040
2.0
1070
   147
1040
1.0
1070
   176
1070
   256
1070
   177
1070
   256
1070
   178
1070
   256
1070
   279
1070
     1
1002
}
  0
LINE
  5
8456
330
83D0
100
AcDbEntity
  8
鉄筋
 48
15.0
100
AcDbLine
 10
2183.040487632536
 20
2189.779571455446
 30
0.0
 11
3103.040487632535
 21
2189.779571455446
 31
0.0
  0
LINE
  5
8457
330
83D0
100
AcDbEntity
  8
0
 48
15.0
100
AcDbLine
 10
2143.040487632535
 20
2154.779571455446
 30
0.0
 11
3143.040487632535
 21
2154.779571455446
 31
0.0
  0
LINE
  5
8458
330
83D0
100
AcDbEntity
  8
0
 48
15.0
100
AcDbLine
 10
2143.040487632535
 20
2254.779571455445
 30
0.0
 11
3143.040487632535
 21
2254.779571455445
 31
0.0
  0
TEXT
  5
8459
330
83D0
100
AcDbEntity
  8
0
100
AcDbText
 10
1678.542038139113
 20
2723.003631107563
 30
0.0
 40
42.0
  1
マルチスリット側溝蓋 Ｂ型 ３００用 配筋図
  7
SANWA
 72
     4
 11
2294.229188977102
 21
2743.768994236055
 31
0.0
100
AcDbText
  0
LINE
  5
845A
330
83D0
100
AcDbEntity
  8
0
100
AcDbLine
 10
1654.443846158548
 20
2700.000003813793
 30
0.0
 11
2944.640315922164
 21
2700.000003813793
 31
0.0
  0
LINE
  5
845B
330
83D0
100
AcDbEntity
  8
0
100
AcDbLine
 10
1654.443846158548
 20
2688.000003813794
 30
0.0
 11
2944.640315922164
 21
2688.000003813794
 31
0.0
  0
LINE
  5
845C
330
83D0
100
AcDbEntity
  8
枠
100
AcDbLine
 10
374.9999945002419
 20
3000.000003813794
 30
0.0
 11
4304.999994500241
 21
3000.000003813794
 31
0.0
  0
DIMENSION
  5
845D
330
83D0
100
AcDbEntity
  8
寸法引出
 48
15.0
100
AcDbDimension
  2
*D6
 10
1741.379634473347
 20
1831.011256165644
 30
0.0
 11
1713.879634473347
 21
1861.011256165644
 31
0.0
 12
-4111.810748795106
 22
1807.474765486964
 32
0.0
 71
     5
 42
-1.0
  3
SANWA
100
AcDbAlignedDimension
 13
1686.379634473348
 23
1741.567751500804
 33
0.0
 14
1741.379634473347
 24
1741.567751500804
 34
0.0
100
AcDbRotatedDimension
1001
ACAD
1000
DSTYLE
1002
{
1070
    40
1040
15.0
1070
    41
1040
1.5
1070
    43
1040
5.0
1070
    44
1040
0.5
1070
    75
1070
     1
1070
   140
1040
2.0
1070
   147
1040
1.0
1070
   176
1070
   256
1070
   177
1070
   256
1070
   178
1070
   256
1070
   279
1070
     1
1002
}
  0
DIMENSION
  5
845E
330
83D0
100
AcDbEntity
  8
寸法引出
 48
15.0
100
AcDbDimension
  2
*D2
 10
2030.538287322474
 20
1741.567751500804
 30
0.0
 11
2000.538287322473
 21
1719.067751500803
 31
0.0
 12
-4111.810748795106
 22
1807.474765486964
 32
0.0
 71
     5
 42
-1.0
  3
SANWA
100
AcDbAlignedDimension
 13
1741.379634473347
 23
1696.567751500804
 33
0.0
 14
1741.379634473347
 24
1741.567751500804
 34
0.0
 50
90.0
100
AcDbRotatedDimension
1001
ACAD
1000
DSTYLE
1002
{
1070
    40
1040
15.0
1070
    41
1040
1.5
1070
    43
1040
5.0
1070
    44
1040
0.5
1070
    75
1070
     1
1070
   140
1040
2.0
1070
   147
1040
1.0
1070
   176
1070
   256
1070
   177
1070
   256
1070
   178
1070
   256
1070
   279
1070
     1
1002
}
  0
DIMENSION
  5
845F
330
83D0
100
AcDbEntity
  8
寸法引出
 48
15.0
100
AcDbDimension
  2
*D7
 10
1741.379634473347
 20
1894.814321100357
 30
0.0
 11
1541.379634473347
 21
1924.814321100357
 31
0.0
 12
-4111.810748795106
 22
1807.474765486964
 32
0.0
 71
     5
 42
-1.0
  3
SANWA
100
AcDbAlignedDimension
 13
1341.379634473347
 23
1741.567751500804
 33
0.0
 14
1741.379634473347
 24
1741.567751500804
 34
0.0
100
AcDbRotatedDimension
1001
ACAD
1000
DSTYLE
1002
{
1070
   140
1040
2.0
1070
    40
1040
15.0
1070
   147
1040
1.0
1070
    44
1040
0.5
1070
    43
1040
5.0
1070
   178
1070
   256
1070
   177
1070
   256
1070
   176
1070
   256
1070
    41
1040
1.5
1002
}
  0
DIMENSION
  5
8460
330
83D0
100
AcDbEntity
  8
寸法引出
 48
15.0
100
AcDbDimension
  2
*D5
 10
1686.379634473348
 20
1831.011256165644
 30
0.0
 11
1541.379634473348
 21
1861.011256165644
 31
0.0
 12
-4111.810748795106
 22
1807.474765486964
 32
0.0
  1
2@145=<>
 71
     5
 42
-1.0
  3
SANWA
100
AcDbAlignedDimension
 13
1396.379634473348
 23
1741.567751500804
 33
0.0
 14
1686.379634473348
 24
1741.567751500804
 34
0.0
100
AcDbRotatedDimension
1001
ACAD
1000
DSTYLE
1002
{
1070
    40
1040
15.0
1070
    41
1040
1.5
1070
    43
1040
5.0
1070
    44
1040
0.5
1070
    75
1070
     1
1070
   140
1040
2.0
1070
   147
1040
1.0
1070
   176
1070
   256
1070
   177
1070
   256
1070
   178
1070
   256
1070
   279
1070
     1
1002
}
  0
DIMENSION
  5
8461
330
83D0
100
AcDbEntity
  8
寸法引出
 48
15.0
100
AcDbDimension
  2
*D4
 10
1396.379634473348
 20
1831.011256165644
 30
0.0
 11
1368.879634473347
 21
1861.011256165644
 31
0.0
 12
-4111.810748795106
 22
1807.474765486964
 32
0.0
 71
     5
 42
-1.0
  3
SANWA
100
AcDbAlignedDimension
 13
1341.379634473347
 23
1741.567751500804
 33
0.0
 14
1396.379634473348
 24
1741.567751500804
 34
0.0
100
AcDbRotatedDimension
1001
ACAD
1000
DSTYLE
1002
{
1070
   140
1040
2.0
1070
    40
1040
15.0
1070
   147
1040
1.0
1070
    44
1040
0.5
1070
    43
1040
5.0
1070
   178
1070
   256
1070
   177
1070
   256
1070
   176
1070
   256
1070
    41
1040
1.5
1002
}
  0
CIRCLE
  5
8462
330
83D0
100
AcDbEntity
  8
0
 48
15.0
100
AcDbCircle
 10
1366.379634473347
 20
1621.567751500804
 30
0.0
 40
10.0
  0
LINE
  5
8463
330
83D0
100
AcDbEntity
  8
0
 48
15.0
100
AcDbLine
 10
1341.379634473347
 20
1741.567751500804
 30
0.0
 11
1741.379634473347
 21
1741.567751500804
 31
0.0
  0
LINE
  5
8464
330
83D0
100
AcDbEntity
  8
鉄筋
 48
15.0
100
AcDbLine
 10
1391.379634473347
 20
1696.567751500804
 30
0.0
 11
1691.379634473348
 21
1696.567751500804
 31
0.0
  0
SOLID
  5
8465
330
83D0
100
AcDbEntity
  8
寸法引出
 48
15.0
100
AcDbTrace
 10
1447.215200517574
 20
1674.067751500803
 30
0.0
 11
1450.965200517574
 21
1696.567751500804
 31
0.0
 12
1454.715200517574
 22
1674.067751500803
 32
0.0
 13
1454.715200517574
 23
1674.067751500803
 33
0.0
1001
ACAD
1000
DSTYLE
1002
{
1070
   140
1040
2.0
1070
    40
1040
15.0
1070
   147
1040
1.0
1070
    44
1040
0.5
1070
    43
1040
5.0
1070
   178
1070
   256
1070
   177
1070
   256
1070
   176
1070
   256
1070
    41
1040
1.5
1002
}
  0
CIRCLE
  5
8466
330
83D0
100
AcDbEntity
  8
0
 48
15.0
100
AcDbCircle
 10
1716.379634473347
 20
1621.567751500804
 30
0.0
 40
10.0
  0
DIMENSION
  5
8467
330
83D0
100
AcDbEntity
  8
寸法引出
 48
15.0
100
AcDbDimension
  2
*D20
 10
1924.761148487785
 20
2254.779571455445
 30
0.0
 11
1894.761148487785
 21
2204.779571455445
 31
0.0
 12
-4111.810748795106
 22
1807.474765486964
 32
0.0
 71
     5
 42
-1.0
  3
SANWA
100
AcDbAlignedDimension
 13
1741.379634473347
 23
2154.779571455446
 33
0.0
 14
1741.379634473347
 24
2254.779571455445
 34
0.0
 50
90.0
100
AcDbRotatedDimension
1001
ACAD
1000
DSTYLE
1002
{
1070
   140
1040
2.0
1070
    40
1040
15.0
1070
   147
1040
1.0
1070
    44
1040
0.5
1070
    43
1040
5.0
1070
   178
1070
   256
1070
   177
1070
   256
1070
   176
1070
   256
1070
    41
1040
1.5
1002
}
  0
LINE
  5
8468
330
83D0
100
AcDbEntity
  8
寸法引出
  6
ByBlock
 48
15.0
100
AcDbLine
 10
1756.379634473347
 20
2184.779571455445
 30
0.0
 11
1862.936540554932
 21
2184.779571455445
 31
0.0
  0
LINE
  5
8469
330
83D0
100
AcDbEntity
  8
寸法引出
  6
ByBlock
 48
15.0
100
AcDbLine
 10
1756.379634473347
 20
2154.779571455446
 30
0.0
 11
1862.936540554932
 21
2154.779571455446
 31
0.0
  0
DIMENSION
  5
846A
330
83D0
100
AcDbEntity
  8
寸法引出
 48
15.0
100
AcDbDimension
  2
*D13
 10
1855.436540554932
 20
2254.779571455445
 30
0.0
 11
1825.436540554932
 21
2219.779571455446
 31
0.0
 12
-4111.810748795106
 22
1807.474765486964
 32
0.0
 71
     5
 42
-1.0
  3
SANWA
100
AcDbAlignedDimension
 13
1741.379634473347
 23
2184.779571455445
 33
0.0
 14
1741.379634473347
 24
2254.779571455445
 34
0.0
 50
90.0
100
AcDbRotatedDimension
1001
ACAD
1000
DSTYLE
1002
{
1070
    40
1040
15.0
1070
    41
1040
1.5
1070
    43
1040
5.0
1070
    44
1040
0.5
1070
    75
1070
     1
1070
   140
1040
2.0
1070
   147
1040
1.0
1070
   176
1070
   256
1070
   177
1070
   256
1070
   178
1070
   256
1070
   279
1070
     1
1002
}
  0
DIMENSION
  5
846B
330
83D0
100
AcDbEntity
  8
寸法引出
 48
15.0
100
AcDbDimension
  2
*D11
 10
1741.379634473347
 20
2336.570965038613
 30
0.0
 11
1713.879634473347
 21
2366.570965038613
 31
0.0
 12
-4111.810748795106
 22
1807.474765486964
 32
0.0
 71
     5
 42
-1.0
  3
SANWA
100
AcDbAlignedDimension
 13
1686.379634473348
 23
2254.779571455445
 33
0.0
 14
1741.379634473347
 24
2254.779571455445
 34
0.0
100
AcDbRotatedDimension
1001
ACAD
1000
DSTYLE
1002
{
1070
    40
1040
15.0
1070
    41
1040
1.5
1070
    43
1040
5.0
1070
    44
1040
0.5
1070
    75
1070
     1
1070
   140
1040
2.0
1070
   147
1040
1.0
1070
   176
1070
   256
1070
   177
1070
   256
1070
   178
1070
   256
1070
   279
1070
     1
1002
}
  0
DIMENSION
  5
846C
330
83D0
100
AcDbEntity
  8
寸法引出
 48
15.0
100
AcDbDimension
  2
*D12
 10
1741.379634473347
 20
2401.253367090955
 30
0.0
 11
1541.379634473347
 21
2431.253367090955
 31
0.0
 12
-4111.810748795106
 22
1807.474765486964
 32
0.0
 71
     5
 42
-1.0
  3
SANWA
100
AcDbAlignedDimension
 13
1341.379634473347
 23
2254.779571455445
 33
0.0
 14
1741.379634473347
 24
2254.779571455445
 34
0.0
100
AcDbRotatedDimension
1001
ACAD
1000
DSTYLE
1002
{
1070
   140
1040
2.0
1070
    40
1040
15.0
1070
   147
1040
1.0
1070
    44
1040
0.5
1070
    43
1040
5.0
1070
   178
1070
   256
1070
   177
1070
   256
1070
   176
1070
   256
1070
    41
1040
1.5
1002
}
  0
DIMENSION
  5
846D
330
83D0
100
AcDbEntity
  8
寸法引出
 48
15.0
100
AcDbDimension
  2
*D10
 10
1686.379634473348
 20
2336.570965038613
 30
0.0
 11
1541.379634473348
 21
2366.570965038613
 31
0.0
 12
-4111.810748795106
 22
1807.474765486964
 32
0.0
  1
2@145=<>
 71
     5
 42
-1.0
  3
SANWA
100
AcDbAlignedDimension
 13
1396.379634473348
 23
2254.779571455445
 33
0.0
 14
1686.379634473348
 24
2254.779571455445
 34
0.0
100
AcDbRotatedDimension
1001
ACAD
1000
DSTYLE
1002
{
1070
    40
1040
15.0
1070
    41
1040
1.5
1070
    43
1040
5.0
1070
    44
1040
0.5
1070
    75
1070
     1
1070
   140
1040
2.0
1070
   147
1040
1.0
1070
   176
1070
   256
1070
   177
1070
   256
1070
   178
1070
   256
1070
   279
1070
     1
1002
}
  0
DIMENSION
  5
846E
330
83D0
100
AcDbEntity
  8
寸法引出
 48
15.0
100
AcDbDimension
  2
*D9
 10
1396.379634473348
 20
2336.570965038613
 30
0.0
 11
1368.879634473347
 21
2366.570965038613
 31
0.0
 12
-4111.810748795106
 22
1807.474765486964
 32
0.0
 71
     5
 42
-1.0
  3
SANWA
100
AcDbAlignedDimension
 13
1341.379634473347
 23
2254.779571455445
 33
0.0
 14
1396.379634473348
 24
2254.779571455445
 34
0.0
100
AcDbRotatedDimension
1001
ACAD
1000
DSTYLE
1002
{
1070
   140
1040
2.0
1070
    40
1040
15.0
1070
   147
1040
1.0
1070
    44
1040
0.5
1070
    43
1040
5.0
1070
   178
1070
   256
1070
   177
1070
   256
1070
   176
1070
   256
1070
    41
1040
1.5
1002
}
  0
LINE
  5
846F
330
83D0
100
AcDbEntity
  8
0
  6
HIDDEN2
 48
5.0
100
AcDbLine
 10
1356.379634473347
 20
2187.779571455445
 30
0.0
 11
1376.379634473347
 21
2187.779571455445
 31
0.0
  0
LINE
  5
8470
330
83D0
100
AcDbEntity
  8
0
 48
15.0
100
AcDbLine
 10
1341.379634473347
 20
2154.779571455446
 30
0.0
 11
1741.379634473347
 21
2154.779571455446
 31
0.0
  0
LINE
  5
8471
330
83D0
100
AcDbEntity
  8
0
 48
15.0
100
AcDbLine
 10
1341.379634473347
 20
2254.779571455445
 30
0.0
 11
1741.379634473347
 21
2254.779571455445
 31
0.0
  0
LINE
  5
8472
330
83D0
100
AcDbEntity
  8
0
 48
15.0
100
AcDbLine
 10
1341.379634473347
 20
2254.779571455445
 30
0.0
 11
1341.379634473347
 21
2154.779571455446
 31
0.0
  0
LINE
  5
8473
330
83D0
100
AcDbEntity
  8
0
  6
HIDDEN2
 48
5.0
100
AcDbLine
 10
1356.379634473347
 20
2187.779571455445
 30
0.0
 11
1356.379634473347
 21
2154.779571455446
 31
0.0
  0
CIRCLE
  5
8474
330
83D0
100
AcDbEntity
  8
鉄筋
 48
15.0
100
AcDbCircle
 10
1686.379634473348
 20
2189.779571455446
 30
0.0
 40
5.0
  0
CIRCLE
  5
8475
330
83D0
100
AcDbEntity
  8
鉄筋
 48
15.0
100
AcDbCircle
 10
1396.379634473348
 20
2189.779571455446
 30
0.0
 40
5.0
  0
CIRCLE
  5
8476
330
83D0
100
AcDbEntity
  8
鉄筋
 48
15.0
100
AcDbCircle
 10
1541.379634473348
 20
2189.779571455446
 30
0.0
 40
5.0
  0
LINE
  5
8477
330
83D0
100
AcDbEntity
  8
0
 48
15.0
100
AcDbLine
 10
1741.379634473347
 20
2254.779571455445
 30
0.0
 11
1741.379634473347
 21
2154.779571455446
 31
0.0
  0
LINE
  5
8478
330
83D0
100
AcDbEntity
  8
鉄筋
 48
15.0
100
AcDbLine
 10
1391.379634473348
 20
2184.779571455445
 30
0.0
 11
1691.379634473348
 21
2184.779571455445
 31
0.0
  0
LINE
  5
8479
330
83D0
100
AcDbEntity
  8
0
  6
HIDDEN2
 48
5.0
100
AcDbLine
 10
1376.379634473347
 20
2187.779571455445
 30
0.0
 11
1376.379634473347
 21
2154.779571455446
 31
0.0
  0
POINT
  5
847A
330
83D0
100
AcDbEntity
  8
DEFPOINTS
  6
ByBlock
 62
     0
 48
15.0
100
AcDbPoint
 10
1741.379634473347
 20
2184.779571455445
 30
0.0
  0
POINT
  5
847B
330
83D0
100
AcDbEntity
  8
DEFPOINTS
  6
ByBlock
 62
     0
 48
15.0
100
AcDbPoint
 10
1741.379634473347
 20
2154.779571455446
 30
0.0
  0
LINE
  5
847C
330
83D0
100
AcDbEntity
  8
0
  6
HIDDEN2
 48
5.0
100
AcDbLine
 10
1726.379634473347
 20
2187.779571455445
 30
0.0
 11
1726.379634473347
 21
2154.779571455446
 31
0.0
  0
LINE
  5
847D
330
83D0
100
AcDbEntity
  8
0
  6
HIDDEN2
 48
5.0
100
AcDbLine
 10
1706.379634473347
 20
2187.779571455445
 30
0.0
 11
1706.379634473347
 21
2154.779571455446
 31
0.0
  0
LINE
  5
847E
330
83D0
100
AcDbEntity
  8
0
  6
HIDDEN2
 48
5.0
100
AcDbLine
 10
1706.379634473347
 20
2187.779571455445
 30
0.0
 11
1726.379634473347
 21
2187.779571455445
 31
0.0
  0
DIMENSION
  5
847F
330
83D0
100
AcDbEntity
  8
寸法引出
 48
15.0
100
AcDbDimension
  2
*D14
 10
2188.040487632535
 20
2336.570965038613
 30
0.0
 11
2165.540487632535
 21
2366.570965038613
 31
0.0
 12
-4111.810748795106
 22
1807.474765486964
 32
0.0
 71
     5
 42
-1.0
  3
SANWA
100
AcDbAlignedDimension
 13
2143.040487632535
 23
2254.779571455445
 33
0.0
 14
2188.040487632535
 24
2254.779571455445
 34
0.0
100
AcDbRotatedDimension
1001
ACAD
1000
DSTYLE
1002
{
1070
   140
1040
2.0
1070
    40
1040
15.0
1070
   147
1040
1.0
1070
    44
1040
0.5
1070
    43
1040
5.0
1070
   178
1070
   256
1070
   177
1070
   256
1070
   176
1070
   256
1070
    41
1040
1.5
1002
}
  0
SOLID
  5
8480
330
83D0
100
AcDbEntity
  8
寸法引出
  6
ByBlock
 48
15.0
100
AcDbTrace
 10
1851.686540554932
 20
2207.279571455446
 30
0.0
 11
1859.186540554932
 21
2207.279571455446
 31
0.0
 12
1855.436540554932
 22
2184.779571455445
 32
0.0
 13
1855.436540554932
 23
2184.779571455445
 33
0.0
  0
LINE
  5
8481
330
83D0
100
AcDbEntity
  8
0
 48
15.0
100
AcDbLine
 10
2143.040487632535
 20
2254.779571455445
 30
0.0
 11
2143.040487632535
 21
2154.779571455446
 31
0.0
  0
POINT
  5
8482
330
83D0
100
AcDbEntity
  8
寸法引出
  6
ByBlock
 62
     0
 48
15.0
100
AcDbPoint
 10
1855.436540554932
 20
2184.779571455445
 30
0.0
  0
MTEXT
  5
8483
330
83D0
100
AcDbEntity
  8
寸法引出
  6
ByBlock
 48
15.0
100
AcDbMText
 10
1825.436540554932
 20
2134.267659220796
 30
0.0
 40
30.0
 41
0.0
 71
     5
 72
     1
  1
\A1;30
  7
SANWA
 11
0.0000000000000001
 21
1.0
 31
0.0
 73
     1
 44
1.0
1001
ACAD
1000
MTEXTBEGIN
1070
    73
1070
     1
1070
    44
1040
1.0
1070
    74
1070
     0
1000
MTEXTEND
  0
SOLID
  5
8484
330
83D0
100
AcDbEntity
  8
寸法引出
  6
ByBlock
 48
15.0
100
AcDbTrace
 10
1851.686540554932
 20
2132.279571455446
 30
0.0
 11
1859.186540554932
 21
2132.279571455446
 31
0.0
 12
1855.436540554932
 22
2154.779571455446
 32
0.0
 13
1855.436540554932
 23
2154.779571455446
 33
0.0
  0
LINE
  5
8485
330
83D0
100
AcDbEntity
  8
寸法引出
  6
ByBlock
 48
15.0
100
AcDbLine
 10
1855.436540554932
 20
2154.779571455446
 30
0.0
 11
1855.436540554932
 21
2184.779571455445
 31
0.0
  0
LINE
  5
8486
330
83D0
100
AcDbEntity
  8
寸法引出
  6
ByBlock
 48
15.0
100
AcDbLine
 10
1855.436540554932
 20
2132.279571455446
 30
0.0
 11
1855.436540554932
 21
2109.779571455446
 31
0.0
  0
LINE
  5
8487
330
83D0
100
AcDbEntity
  8
寸法引出
  6
ByBlock
 48
15.0
100
AcDbLine
 10
1855.436540554932
 20
2207.279571455446
 30
0.0
 11
1855.436540554932
 21
2229.779571455445
 31
0.0
  0
CIRCLE
  5
8488
330
83D0
100
AcDbEntity
  8
鉄筋
 48
15.0
100
AcDbCircle
 10
2188.040487632535
 20
2184.779571455445
 30
0.0
 40
5.0
  0
CIRCLE
  5
8489
330
83D0
100
AcDbEntity
  8
鉄筋
 48
15.0
100
AcDbCircle
 10
2318.040487632535
 20
2184.779571455445
 30
0.0
 40
5.0
  0
LINE
  5
848A
330
83D0
100
AcDbEntity
  8
0
  6
HIDDEN2
 48
5.0
100
AcDbLine
 10
2273.040487632535
 20
2187.779571455445
 30
0.0
 11
2273.040487632535
 21
2154.779571455446
 31
0.0
  0
LINE
  5
848B
330
83D0
100
AcDbEntity
  8
0
  6
HIDDEN2
 48
5.0
100
AcDbLine
 10
2253.040487632535
 20
2187.779571455445
 30
0.0
 11
2253.040487632535
 21
2154.779571455446
 31
0.0
  0
LINE
  5
848C
330
83D0
100
AcDbEntity
  8
0
  6
HIDDEN2
 48
5.0
100
AcDbLine
 10
2253.040487632535
 20
2187.779571455445
 30
0.0
 11
2273.040487632535
 21
2187.779571455445
 31
0.0
  0
CIRCLE
  5
848D
330
83D0
100
AcDbEntity
  8
鉄筋
 48
15.0
100
AcDbCircle
 10
2448.040487632535
 20
2184.779571455445
 30
0.0
 40
5.0
  0
LINE
  5
848E
330
83D0
100
AcDbEntity
  8
0
100
AcDbLine
 10
-0.0000054997581174
 20
3000.000003813794
 30
0.0
 11
-0.0000054997581174
 21
3150.000003813794
 31
0.0
  0
LINE
  5
848F
330
83D0
100
AcDbEntity
  8
0
100
AcDbLine
 10
-0.0000054997581174
 20
3150.000003813794
 30
0.0
 11
374.9999945002419
 21
3150.000003813794
 31
0.0
  0
DIMENSION
  5
8490
330
83D0
100
AcDbEntity
  8
寸法引出
 48
15.0
100
AcDbDimension
  2
*D16
 10
3143.040487632535
 20
2336.570965038613
 30
0.0
 11
3120.540487632535
 21
2366.570965038613
 31
0.0
 12
-4111.810748795106
 22
1807.474765486964
 32
0.0
 71
     5
 42
-1.0
  3
SANWA
100
AcDbAlignedDimension
 13
3098.040487632535
 23
2254.779571455445
 33
0.0
 14
3143.040487632535
 24
2254.779571455445
 34
0.0
100
AcDbRotatedDimension
1001
ACAD
1000
DSTYLE
1002
{
1070
    40
1040
15.0
1070
    41
1040
1.5
1070
    43
1040
5.0
1070
    44
1040
0.5
1070
    75
1070
     1
1070
   140
1040
2.0
1070
   147
1040
1.0
1070
   176
1070
   256
1070
   177
1070
   256
1070
   178
1070
   256
1070
   279
1070
     1
1002
}
  0
CIRCLE
  5
8491
330
83D0
100
AcDbEntity
  8
鉄筋
 48
15.0
100
AcDbCircle
 10
2578.040487632535
 20
2184.779571455445
 30
0.0
 40
5.0
  0
CIRCLE
  5
8492
330
83D0
100
AcDbEntity
  8
鉄筋
 48
15.0
100
AcDbCircle
 10
2708.040487632535
 20
2184.779571455445
 30
0.0
 40
5.0
  0
CIRCLE
  5
8493
330
83D0
100
AcDbEntity
  8
鉄筋
 48
15.0
100
AcDbCircle
 10
2838.040487632535
 20
2184.779571455445
 30
0.0
 40
5.0
  0
SOLID
  5
8494
330
83D0
100
AcDbEntity
  8
寸法引出
  6
ByBlock
 48
15.0
100
AcDbTrace
 10
3246.221348010266
 20
2207.279571455446
 30
0.0
 11
3253.721348010266
 21
2207.279571455446
 31
0.0
 12
3249.971348010266
 22
2184.779571455445
 32
0.0
 13
3249.971348010266
 23
2184.779571455445
 33
0.0
  0
DIMENSION
  5
8495
330
83D0
100
AcDbEntity
  8
寸法引出
 48
15.0
100
AcDbDimension
  2
*D19
 10
3319.841850256125
 20
2254.779571455445
 30
0.0
 11
3289.841850256126
 21
2204.779571455445
 31
0.0
 12
-4111.810748795106
 22
1807.474765486964
 32
0.0
 71
     5
 42
-1.0
  3
SANWA
100
AcDbAlignedDimension
 13
3143.040487632535
 23
2154.779571455446
 33
0.0
 14
3143.040487632535
 24
2254.779571455445
 34
0.0
 50
90.0
100
AcDbRotatedDimension
1001
ACAD
1000
DSTYLE
1002
{
1070
   140
1040
2.0
1070
    40
1040
15.0
1070
   147
1040
1.0
1070
    44
1040
0.5
1070
    43
1040
5.0
1070
   178
1070
   256
1070
   177
1070
   256
1070
   176
1070
   256
1070
    41
1040
1.5
1002
}
  0
DIMENSION
  5
8496
330
83D0
100
AcDbEntity
  8
寸法引出
 48
15.0
100
AcDbDimension
  2
*D18
 10
3249.971348010266
 20
2254.779571455445
 30
0.0
 11
3219.971348010266
 21
2219.779571455446
 31
0.0
 12
-4111.810748795106
 22
1807.474765486964
 32
0.0
 71
     5
 42
-1.0
  3
SANWA
100
AcDbAlignedDimension
 13
3143.040487632535
 23
2184.779571455445
 33
0.0
 14
3143.040487632535
 24
2254.779571455445
 34
0.0
 50
90.0
100
AcDbRotatedDimension
1001
ACAD
1000
DSTYLE
1002
{
1070
    40
1040
15.0
1070
    41
1040
1.5
1070
    43
1040
5.0
1070
    44
1040
0.5
1070
    75
1070
     1
1070
   140
1040
2.0
1070
   147
1040
1.0
1070
   176
1070
   256
1070
   177
1070
   256
1070
   178
1070
   256
1070
   279
1070
     1
1002
}
  0
LINE
  5
8497
330
83D0
100
AcDbEntity
  8
0
 48
15.0
100
AcDbLine
 10
3143.040487632535
 20
2254.779571455445
 30
0.0
 11
3143.040487632535
 21
2154.779571455446
 31
0.0
  0
POINT
  5
8498
330
83D0
100
AcDbEntity
  8
DEFPOINTS
  6
ByBlock
 62
     0
 48
15.0
100
AcDbPoint
 10
3143.040487632535
 20
2184.779571455445
 30
0.0
  0
POINT
  5
8499
330
83D0
100
AcDbEntity
  8
DEFPOINTS
  6
ByBlock
 62
     0
 48
15.0
100
AcDbPoint
 10
3143.040487632535
 20
2154.779571455446
 30
0.0
  0
CIRCLE
  5
849A
330
83D0
100
AcDbEntity
  8
鉄筋
 48
15.0
100
AcDbCircle
 10
3098.040487632535
 20
2184.779571455445
 30
0.0
 40
5.0
  0
CIRCLE
  5
849B
330
83D0
100
AcDbEntity
  8
鉄筋
 48
15.0
100
AcDbCircle
 10
2968.040487632535
 20
2184.779571455445
 30
0.0
 40
5.0
  0
LINE
  5
849C
330
83D0
100
AcDbEntity
  8
0
  6
HIDDEN2
 48
5.0
100
AcDbLine
 10
3013.040487632535
 20
2187.779571455445
 30
0.0
 11
3033.040487632535
 21
2187.779571455445
 31
0.0
  0
LINE
  5
849D
330
83D0
100
AcDbEntity
  8
0
  6
HIDDEN2
 48
5.0
100
AcDbLine
 10
3013.040487632535
 20
2187.779571455445
 30
0.0
 11
3013.040487632535
 21
2154.779571455446
 31
0.0
  0
LINE
  5
849E
330
83D0
100
AcDbEntity
  8
0
  6
HIDDEN2
 48
5.0
100
AcDbLine
 10
3033.040487632535
 20
2187.779571455445
 30
0.0
 11
3033.040487632535
 21
2154.779571455446
 31
0.0
  0
POINT
  5
849F
330
83D0
100
AcDbEntity
  8
寸法引出
  6
ByBlock
 62
     0
 48
15.0
100
AcDbPoint
 10
3249.971348010266
 20
2184.779571455445
 30
0.0
  0
MTEXT
  5
84A0
330
83D0
100
AcDbEntity
  8
寸法引出
  6
ByBlock
 48
15.0
100
AcDbMText
 10
3219.971348010266
 20
2132.55187695129
 30
0.0
 40
30.0
 41
0.0
 71
     5
 72
     1
  1
\A1;30
  7
SANWA
 11
0.0000000000000001
 21
1.0
 31
0.0
 73
     1
 44
1.0
1001
ACAD
1000
MTEXTBEGIN
1070
    73
1070
     1
1070
    44
1040
1.0
1070
    74
1070
     0
1000
MTEXTEND
  0
SOLID
  5
84A1
330
83D0
100
AcDbEntity
  8
寸法引出
  6
ByBlock
 48
15.0
100
AcDbTrace
 10
3246.221348010266
 20
2132.279571455446
 30
0.0
 11
3253.721348010266
 21
2132.279571455446
 31
0.0
 12
3249.971348010266
 22
2154.779571455446
 32
0.0
 13
3249.971348010266
 23
2154.779571455446
 33
0.0
  0
LINE
  5
84A2
330
83D0
100
AcDbEntity
  8
寸法引出
  6
ByBlock
 48
15.0
100
AcDbLine
 10
3249.971348010266
 20
2154.779571455446
 30
0.0
 11
3249.971348010266
 21
2184.779571455445
 31
0.0
  0
LINE
  5
84A3
330
83D0
100
AcDbEntity
  8
寸法引出
  6
ByBlock
 48
15.0
100
AcDbLine
 10
3249.971348010266
 20
2132.279571455446
 30
0.0
 11
3249.971348010266
 21
2109.779571455446
 31
0.0
  0
LINE
  5
84A4
330
83D0
100
AcDbEntity
  8
寸法引出
  6
ByBlock
 48
15.0
100
AcDbLine
 10
3158.040487632535
 20
2184.779571455445
 30
0.0
 11
3257.471348010266
 21
2184.779571455445
 31
0.0
  0
LINE
  5
84A5
330
83D0
100
AcDbEntity
  8
寸法引出
  6
ByBlock
 48
15.0
100
AcDbLine
 10
3158.040487632535
 20
2154.779571455446
 30
0.0
 11
3257.471348010266
 21
2154.779571455446
 31
0.0
  0
LINE
  5
84A6
330
83D0
100
AcDbEntity
  8
寸法引出
  6
ByBlock
 48
15.0
100
AcDbLine
 10
3249.971348010266
 20
2207.279571455446
 30
0.0
 11
3249.971348010266
 21
2229.779571455445
 31
0.0
  0
LINE
  5
84A7
330
83D0
100
AcDbEntity
  8
0
100
AcDbLine
 10
4454.999994500242
 20
3150.000003813794
 30
0.0
 11
4454.999994500242
 21
3000.000003813794
 31
0.0
  0
LINE
  5
84A8
330
83D0
100
AcDbEntity
  8
0
100
AcDbLine
 10
4304.999994500241
 20
3150.000003813794
 30
0.0
 11
4454.999994500242
 21
3150.000003813794
 31
0.0
  0
ENDBLK
  5
84AA
330
83D0
100
AcDbEntity
  8
0
 48
15.0
100
AcDbBlockEnd
  0
BLOCK
  5
91DB
330
91D2
100
AcDbEntity
  8
0
 48
15.0
100
AcDbBlockBegin
  2
*D22
 70
     1
 10
0.0
 20
0.0
 30
0.0
  3
*D22
  1

  0
LINE
  5
9661
330
91D2
100
AcDbEntity
  8
寸法引出
 48
15.0
370
    -2
100
AcDbLine
 10
1266.379639973106
 20
861.5677476870105
 30
0.0
 11
1185.078843988344
 21
861.5677476870105
 31
0.0
  0
LINE
  5
9662
330
91D2
100
AcDbEntity
  8
寸法引出
 48
15.0
370
    -2
100
AcDbLine
 10
1192.578843988344
 20
1599.06774768701
 30
0.0
 11
1192.578843988344
 21
884.0677476870107
 31
0.0
  0
SOLID
  5
9663
330
91D2
100
AcDbEntity
  8
寸法引出
 48
15.0
100
AcDbTrace
 10
1188.828843988344
 20
1599.06774768701
 30
0.0
 11
1196.328843988344
 21
1599.06774768701
 31
0.0
 12
1192.578843988344
 22
1621.56774768701
 32
0.0
 13
1192.578843988344
 23
1621.56774768701
 33
0.0
  0
SOLID
  5
9664
330
91D2
100
AcDbEntity
  8
寸法引出
 48
15.0
100
AcDbTrace
 10
1188.828843988344
 20
884.0677476870107
 30
0.0
 11
1196.328843988344
 21
884.0677476870107
 31
0.0
 12
1192.578843988344
 22
861.5677476870105
 32
0.0
 13
1192.578843988344
 23
861.5677476870105
 33
0.0
  0
MTEXT
  5
9665
330
91D2
100
AcDbEntity
  8
寸法引出
 48
15.0
100
AcDbMText
 10
1162.578843988343
 20
1241.567747687011
 30
0.0
 40
30.0
 41
0.0
 71
     5
 72
     1
  1
\A1;760
  7
SANWA
 11
0.0000000000000001
 21
1.0
 31
0.0
 73
     1
 44
1.0
1001
ACAD
1000
MTEXTBEGIN
1070
    73
1070
     1
1070
    44
1040
1.0
1070
    74
1070
     0
1000
MTEXTEND
  0
POINT
  5
9666
330
91D2
100
AcDbEntity
  8
DEFPOINTS
 62
     0
 48
15.0
100
AcDbPoint
 10
1281.379639973106
 20
1621.56774768701
 30
0.0
  0
POINT
  5
9667
330
91D2
100
AcDbEntity
  8
DEFPOINTS
 62
     0
 48
15.0
100
AcDbPoint
 10
1281.379639973106
 20
861.5677476870105
 30
0.0
  0
POINT
  5
9668
330
91D2
100
AcDbEntity
  8
DEFPOINTS
 62
     0
 48
15.0
100
AcDbPoint
 10
1192.578843988344
 20
861.5677476870105
 30
0.0
  0
ENDBLK
  5
91DC
330
91D2
100
AcDbEntity
  8
0
 48
15.0
100
AcDbBlockEnd
  0
BLOCK
  5
91E6
330
91DD
100
AcDbEntity
  8
0
 48
15.0
100
AcDbBlockBegin
  2
*D23
 70
     1
 10
0.0
 20
0.0
 30
0.0
  3
*D23
  1

  0
LINE
  5
9669
330
91DD
100
AcDbEntity
  8
寸法引出
 48
15.0
370
    -2
100
AcDbLine
 10
1266.379639973106
 20
741.5677476870106
 30
0.0
 11
1185.078843988344
 21
741.5677476870106
 31
0.0
  0
LINE
  5
966A
330
91DD
100
AcDbEntity
  8
寸法引出
 48
15.0
370
    -2
100
AcDbLine
 10
1192.578843988344
 20
839.0677476870106
 30
0.0
 11
1192.578843988344
 21
764.0677476870106
 31
0.0
  0
SOLID
  5
966B
330
91DD
100
AcDbEntity
  8
寸法引出
 48
15.0
100
AcDbTrace
 10
1188.828843988344
 20
839.0677476870106
 30
0.0
 11
1196.328843988344
 21
839.0677476870106
 31
0.0
 12
1192.578843988344
 22
861.5677476870105
 32
0.0
 13
1192.578843988344
 23
861.5677476870105
 33
0.0
  0
SOLID
  5
966C
330
91DD
100
AcDbEntity
  8
寸法引出
 48
15.0
100
AcDbTrace
 10
1188.828843988344
 20
764.0677476870106
 30
0.0
 11
1196.328843988344
 21
764.0677476870106
 31
0.0
 12
1192.578843988344
 22
741.5677476870106
 32
0.0
 13
1192.578843988344
 23
741.5677476870106
 33
0.0
  0
MTEXT
  5
966D
330
91DD
100
AcDbEntity
  8
寸法引出
 48
15.0
100
AcDbMText
 10
1162.578843988343
 20
801.5677476870108
 30
0.0
 40
30.0
 41
0.0
 71
     5
 72
     1
  1
\A1;120
  7
SANWA
 11
0.0000000000000001
 21
1.0
 31
0.0
 73
     1
 44
1.0
1001
ACAD
1000
MTEXTBEGIN
1070
    73
1070
     1
1070
    44
1040
1.0
1070
    74
1070
     0
1000
MTEXTEND
  0
POINT
  5
966E
330
91DD
100
AcDbEntity
  8
DEFPOINTS
 62
     0
 48
15.0
100
AcDbPoint
 10
1281.379639973106
 20
861.5677476870105
 30
0.0
  0
POINT
  5
966F
330
91DD
100
AcDbEntity
  8
DEFPOINTS
 62
     0
 48
15.0
100
AcDbPoint
 10
1281.379639973106
 20
741.5677476870105
 30
0.0
  0
POINT
  5
9670
330
91DD
100
AcDbEntity
  8
DEFPOINTS
 62
     0
 48
15.0
100
AcDbPoint
 10
1192.578843988344
 20
741.5677476870106
 30
0.0
  0
ENDBLK
  5
91E7
330
91DD
100
AcDbEntity
  8
0
 48
15.0
100
AcDbBlockEnd
  0
BLOCK
  5
91F1
330
91E8
100
AcDbEntity
  8
0
 48
15.0
100
AcDbBlockBegin
  2
*D24
 70
     1
 10
0.0
 20
0.0
 30
0.0
  3
*D24
  1

  0
LINE
  5
9671
330
91E8
100
AcDbEntity
  8
寸法引出
 48
15.0
370
    -2
100
AcDbLine
 10
3023.040493132294
 20
2139.779567641652
 30
0.0
 11
3023.040493132294
 21
2072.642148029828
 31
0.0
  0
LINE
  5
9672
330
91E8
100
AcDbEntity
  8
寸法引出
 48
15.0
370
    -2
100
AcDbLine
 10
2285.540493132293
 20
2080.142148029828
 30
0.0
 11
3000.540493132293
 21
2080.142148029828
 31
0.0
  0
SOLID
  5
9673
330
91E8
100
AcDbEntity
  8
寸法引出
 48
15.0
100
AcDbTrace
 10
2285.540493132293
 20
2083.892148029828
 30
0.0
 11
2285.540493132293
 21
2076.392148029828
 31
0.0
 12
2263.040493132293
 22
2080.142148029828
 32
0.0
 13
2263.040493132293
 23
2080.142148029828
 33
0.0
  0
SOLID
  5
9674
330
91E8
100
AcDbEntity
  8
寸法引出
 48
15.0
100
AcDbTrace
 10
3000.540493132293
 20
2083.892148029828
 30
0.0
 11
3000.540493132293
 21
2076.392148029828
 31
0.0
 12
3023.040493132294
 22
2080.142148029828
 32
0.0
 13
3023.040493132294
 23
2080.142148029828
 33
0.0
  0
MTEXT
  5
9675
330
91E8
100
AcDbEntity
  8
寸法引出
 48
15.0
100
AcDbMText
 10
2643.040493132293
 20
2110.142148029828
 30
0.0
 40
30.0
 41
0.0
 71
     5
 72
     1
  1
\A1;760
  7
SANWA
 73
     1
 44
1.0
1001
ACAD
1000
MTEXTBEGIN
1070
    73
1070
     1
1070
    44
1040
1.0
1070
    74
1070
     0
1000
MTEXTEND
  0
POINT
  5
9676
330
91E8
100
AcDbEntity
  8
DEFPOINTS
 62
     0
 48
15.0
100
AcDbPoint
 10
2263.040493132293
 20
2154.779567641652
 30
0.0
  0
POINT
  5
9677
330
91E8
100
AcDbEntity
  8
DEFPOINTS
 62
     0
 48
15.0
100
AcDbPoint
 10
3023.040493132294
 20
2154.779567641652
 30
0.0
  0
POINT
  5
9678
330
91E8
100
AcDbEntity
  8
DEFPOINTS
 62
     0
 48
15.0
100
AcDbPoint
 10
3023.040493132294
 20
2080.142148029828
 30
0.0
  0
ENDBLK
  5
91F2
330
91E8
100
AcDbEntity
  8
0
 48
15.0
100
AcDbBlockEnd
  0
BLOCK
  5
91FD
330
91F3
100
AcDbEntity
  8
0
 48
15.0
100
AcDbBlockBegin
  2
*D25
 70
     1
 10
0.0
 20
0.0
 30
0.0
  3
*D25
  1

  0
LINE
  5
9679
330
91F3
100
AcDbEntity
  8
寸法引出
 48
15.0
370
    -2
100
AcDbLine
 10
2143.040493132293
 20
2279.779567641652
 30
0.0
 11
2143.040493132293
 21
2367.97267715487
 31
0.0
  0
LINE
  5
967A
330
91F3
100
AcDbEntity
  8
寸法引出
 48
15.0
370
    -2
100
AcDbLine
 10
3143.040493132293
 20
2279.779567641652
 30
0.0
 11
3143.040493132293
 21
2367.97267715487
 31
0.0
  0
LINE
  5
967B
330
91F3
100
AcDbEntity
  8
寸法引出
 48
15.0
370
    -2
100
AcDbLine
 10
2165.540493132294
 20
2360.47267715487
 30
0.0
 11
3120.540493132294
 21
2360.47267715487
 31
0.0
  0
SOLID
  5
967C
330
91F3
100
AcDbEntity
  8
寸法引出
 48
15.0
100
AcDbTrace
 10
2165.540493132294
 20
2364.22267715487
 30
0.0
 11
2165.540493132294
 21
2356.72267715487
 31
0.0
 12
2143.040493132293
 22
2360.47267715487
 32
0.0
 13
2143.040493132293
 23
2360.47267715487
 33
0.0
  0
SOLID
  5
967D
330
91F3
100
AcDbEntity
  8
寸法引出
 48
15.0
100
AcDbTrace
 10
3120.540493132294
 20
2364.22267715487
 30
0.0
 11
3120.540493132294
 21
2356.72267715487
 31
0.0
 12
3143.040493132293
 22
2360.47267715487
 32
0.0
 13
3143.040493132293
 23
2360.47267715487
 33
0.0
  0
MTEXT
  5
967E
330
91F3
100
AcDbEntity
  8
寸法引出
 48
15.0
100
AcDbMText
 10
2643.040493132293
 20
2390.47267715487
 30
0.0
 40
30.0
 41
0.0
 71
     5
 72
     1
  1
\A1;1000
  7
SANWA
 73
     1
 44
1.0
1001
ACAD
1000
MTEXTBEGIN
1070
    73
1070
     1
1070
    44
1040
1.0
1070
    74
1070
     0
1000
MTEXTEND
  0
POINT
  5
967F
330
91F3
100
AcDbEntity
  8
DEFPOINTS
 62
     0
 48
15.0
100
AcDbPoint
 10
2143.040493132293
 20
2264.779567641652
 30
0.0
  0
POINT
  5
9680
330
91F3
100
AcDbEntity
  8
DEFPOINTS
 62
     0
 48
15.0
100
AcDbPoint
 10
3143.040493132293
 20
2264.779567641652
 30
0.0
  0
POINT
  5
9681
330
91F3
100
AcDbEntity
  8
DEFPOINTS
 62
     0
 48
15.0
100
AcDbPoint
 10
3143.040493132293
 20
2360.47267715487
 30
0.0
  0
ENDBLK
  5
91FE
330
91F3
100
AcDbEntity
  8
0
 48
15.0
100
AcDbBlockEnd
  0
BLOCK
  5
9209
330
91FF
100
AcDbEntity
  8
0
 48
15.0
100
AcDbBlockBegin
  2
*D26
 70
     1
 10
0.0
 20
0.0
 30
0.0
  3
*D26
  1

  0
LINE
  5
9682
330
91FF
100
AcDbEntity
  8
寸法引出
 48
15.0
370
    -2
100
AcDbLine
 10
1810.90451337318
 20
2264.779567641652
 30
0.0
 11
1924.438707791345
 21
2264.779567641652
 31
0.0
  0
LINE
  5
9683
330
91FF
100
AcDbEntity
  8
寸法引出
 48
15.0
370
    -2
100
AcDbLine
 10
1810.90451337318
 20
2154.779567641652
 30
0.0
 11
1924.438707791345
 21
2154.779567641652
 31
0.0
  0
LINE
  5
9684
330
91FF
100
AcDbEntity
  8
寸法引出
 48
15.0
370
    -2
100
AcDbLine
 10
1916.938707791345
 20
2242.279567641652
 30
0.0
 11
1916.938707791345
 21
2177.279567641652
 31
0.0
  0
SOLID
  5
9685
330
91FF
100
AcDbEntity
  8
寸法引出
 48
15.0
100
AcDbTrace
 10
1913.188707791345
 20
2242.279567641652
 30
0.0
 11
1920.688707791344
 21
2242.279567641652
 31
0.0
 12
1916.938707791345
 22
2264.779567641652
 32
0.0
 13
1916.938707791345
 23
2264.779567641652
 33
0.0
  0
SOLID
  5
9686
330
91FF
100
AcDbEntity
  8
寸法引出
 48
15.0
100
AcDbTrace
 10
1913.188707791345
 20
2177.279567641652
 30
0.0
 11
1920.688707791344
 21
2177.279567641652
 31
0.0
 12
1916.938707791345
 22
2154.779567641652
 32
0.0
 13
1916.938707791345
 23
2154.779567641652
 33
0.0
  0
MTEXT
  5
9687
330
91FF
100
AcDbEntity
  8
寸法引出
 48
15.0
100
AcDbMText
 10
1886.938707791344
 20
2209.779567641653
 30
0.0
 40
30.0
 41
0.0
 71
     5
 72
     1
  1
\A1;110
  7
SANWA
 11
0.0000000000000001
 21
1.0
 31
0.0
 73
     1
 44
1.0
1001
ACAD
1000
MTEXTBEGIN
1070
    73
1070
     1
1070
    44
1040
1.0
1070
    74
1070
     0
1000
MTEXTEND
  0
POINT
  5
9688
330
91FF
100
AcDbEntity
  8
DEFPOINTS
 62
     0
 48
15.0
100
AcDbPoint
 10
1795.90451337318
 20
2264.779567641652
 30
0.0
  0
POINT
  5
9689
330
91FF
100
AcDbEntity
  8
DEFPOINTS
 62
     0
 48
15.0
100
AcDbPoint
 10
1795.90451337318
 20
2154.779567641652
 30
0.0
  0
POINT
  5
968A
330
91FF
100
AcDbEntity
  8
DEFPOINTS
 62
     0
 48
15.0
100
AcDbPoint
 10
1916.938707791345
 20
2154.779567641652
 30
0.0
  0
ENDBLK
  5
920A
330
91FF
100
AcDbEntity
  8
0
 48
15.0
100
AcDbBlockEnd
  0
BLOCK
  5
9214
330
920B
100
AcDbEntity
  8
0
 48
15.0
100
AcDbBlockBegin
  2
*D27
 70
     1
 10
0.0
 20
0.0
 30
0.0
  3
*D27
  1

  0
LINE
  5
968B
330
920B
100
AcDbEntity
  8
寸法引出
 48
15.0
370
    -2
100
AcDbLine
 10
1765.90451337318
 20
2139.779567641652
 30
0.0
 11
1765.90451337318
 21
2072.642148029828
 31
0.0
  0
LINE
  5
968C
330
920B
100
AcDbEntity
  8
寸法引出
 48
15.0
370
    -2
100
AcDbLine
 10
1328.40451337318
 20
2080.142148029828
 30
0.0
 11
1743.40451337318
 21
2080.142148029828
 31
0.0
  0
SOLID
  5
968D
330
920B
100
AcDbEntity
  8
寸法引出
 48
15.0
100
AcDbTrace
 10
1328.40451337318
 20
2083.892148029828
 30
0.0
 11
1328.40451337318
 21
2076.392148029828
 31
0.0
 12
1305.90451337318
 22
2080.142148029828
 32
0.0
 13
1305.90451337318
 23
2080.142148029828
 33
0.0
  0
SOLID
  5
968E
330
920B
100
AcDbEntity
  8
寸法引出
 48
15.0
100
AcDbTrace
 10
1743.40451337318
 20
2083.892148029828
 30
0.0
 11
1743.40451337318
 21
2076.392148029828
 31
0.0
 12
1765.90451337318
 22
2080.142148029828
 32
0.0
 13
1765.90451337318
 23
2080.142148029828
 33
0.0
  0
MTEXT
  5
968F
330
920B
100
AcDbEntity
  8
寸法引出
 48
15.0
100
AcDbMText
 10
1535.90451337318
 20
2110.142148029828
 30
0.0
 40
30.0
 41
0.0
 71
     5
 72
     1
  1
\A1;460
  7
SANWA
 73
     1
 44
1.0
1001
ACAD
1000
MTEXTBEGIN
1070
    73
1070
     1
1070
    44
1040
1.0
1070
    74
1070
     0
1000
MTEXTEND
  0
POINT
  5
9690
330
920B
100
AcDbEntity
  8
DEFPOINTS
 62
     0
 48
15.0
100
AcDbPoint
 10
1305.90451337318
 20
2154.779567641652
 30
0.0
  0
POINT
  5
9691
330
920B
100
AcDbEntity
  8
DEFPOINTS
 62
     0
 48
15.0
100
AcDbPoint
 10
1765.90451337318
 20
2154.779567641652
 30
0.0
  0
POINT
  5
9692
330
920B
100
AcDbEntity
  8
DEFPOINTS
 62
     0
 48
15.0
100
AcDbPoint
 10
1765.90451337318
 20
2080.142148029828
 30
0.0
  0
ENDBLK
  5
9215
330
920B
100
AcDbEntity
  8
0
 48
15.0
100
AcDbBlockEnd
  0
BLOCK
  5
9221
330
9216
100
AcDbEntity
  8
0
 48
15.0
100
AcDbBlockBegin
  2
*D28
 70
     1
 10
0.0
 20
0.0
 30
0.0
  3
*D28
  1

  0
LINE
  5
9693
330
9216
100
AcDbEntity
  8
寸法引出
 48
15.0
370
    -2
100
AcDbLine
 10
1795.90451337318
 20
2139.779567641652
 30
0.0
 11
1795.90451337318
 21
2072.642148029828
 31
0.0
  0
LINE
  5
9694
330
9216
100
AcDbEntity
  8
寸法引出
 48
15.0
370
    -2
100
AcDbLine
 10
1743.40451337318
 20
2080.142148029828
 30
0.0
 11
1720.90451337318
 21
2080.142148029828
 31
0.0
  0
LINE
  5
9695
330
9216
100
AcDbEntity
  8
寸法引出
 48
15.0
370
    -2
100
AcDbLine
 10
1818.40451337318
 20
2080.142148029828
 30
0.0
 11
1840.90451337318
 21
2080.142148029828
 31
0.0
  0
LINE
  5
9696
330
9216
100
AcDbEntity
  8
寸法引出
 48
15.0
370
    -2
100
AcDbLine
 10
1765.90451337318
 20
2080.142148029828
 30
0.0
 11
1795.90451337318
 21
2080.142148029828
 31
0.0
  0
SOLID
  5
9697
330
9216
100
AcDbEntity
  8
寸法引出
 48
15.0
100
AcDbTrace
 10
1743.40451337318
 20
2083.892148029828
 30
0.0
 11
1743.40451337318
 21
2076.392148029828
 31
0.0
 12
1765.90451337318
 22
2080.142148029828
 32
0.0
 13
1765.90451337318
 23
2080.142148029828
 33
0.0
  0
SOLID
  5
9698
330
9216
100
AcDbEntity
  8
寸法引出
 48
15.0
100
AcDbTrace
 10
1818.40451337318
 20
2083.892148029828
 30
0.0
 11
1818.40451337318
 21
2076.392148029828
 31
0.0
 12
1795.90451337318
 22
2080.142148029828
 32
0.0
 13
1795.90451337318
 23
2080.142148029828
 33
0.0
  0
MTEXT
  5
9699
330
9216
100
AcDbEntity
  8
寸法引出
 48
15.0
100
AcDbMText
 10
1780.90451337318
 20
2110.142148029828
 30
0.0
 40
30.0
 41
0.0
 71
     5
 72
     1
  1
\A1;30
  7
SANWA
 73
     1
 44
1.0
1001
ACAD
1000
MTEXTBEGIN
1070
    73
1070
     1
1070
    44
1040
1.0
1070
    74
1070
     0
1000
MTEXTEND
  0
POINT
  5
969A
330
9216
100
AcDbEntity
  8
DEFPOINTS
 62
     0
 48
15.0
100
AcDbPoint
 10
1765.90451337318
 20
2154.779567641652
 30
0.0
  0
POINT
  5
969B
330
9216
100
AcDbEntity
  8
DEFPOINTS
 62
     0
 48
15.0
100
AcDbPoint
 10
1795.90451337318
 20
2154.779567641652
 30
0.0
  0
POINT
  5
969C
330
9216
100
AcDbEntity
  8
DEFPOINTS
 62
     0
 48
15.0
100
AcDbPoint
 10
1795.90451337318
 20
2080.142148029828
 30
0.0
  0
ENDBLK
  5
9222
330
9216
100
AcDbEntity
  8
0
 48
15.0
100
AcDbBlockEnd
  0
BLOCK
  5
922D
330
9223
100
AcDbEntity
  8
0
 48
15.0
100
AcDbBlockBegin
  2
*D29
 70
     1
 10
0.0
 20
0.0
 30
0.0
  3
*D29
  1

  0
LINE
  5
969D
330
9223
100
AcDbEntity
  8
寸法引出
 48
15.0
370
    -2
100
AcDbLine
 10
1281.379639973106
 20
1756.56774768701
 30
0.0
 11
1281.379639973106
 21
1872.99569695952
 31
0.0
  0
LINE
  5
969E
330
9223
100
AcDbEntity
  8
寸法引出
 48
15.0
370
    -2
100
AcDbLine
 10
1801.379639973106
 20
1756.56774768701
 30
0.0
 11
1801.379639973106
 21
1872.99569695952
 31
0.0
  0
LINE
  5
969F
330
9223
100
AcDbEntity
  8
寸法引出
 48
15.0
370
    -2
100
AcDbLine
 10
1303.879639973106
 20
1865.49569695952
 30
0.0
 11
1778.879639973106
 21
1865.49569695952
 31
0.0
  0
SOLID
  5
96A0
330
9223
100
AcDbEntity
  8
寸法引出
 48
15.0
100
AcDbTrace
 10
1303.879639973106
 20
1869.24569695952
 30
0.0
 11
1303.879639973106
 21
1861.745696959521
 31
0.0
 12
1281.379639973106
 22
1865.49569695952
 32
0.0
 13
1281.379639973106
 23
1865.49569695952
 33
0.0
  0
SOLID
  5
96A1
330
9223
100
AcDbEntity
  8
寸法引出
 48
15.0
100
AcDbTrace
 10
1778.879639973106
 20
1869.24569695952
 30
0.0
 11
1778.879639973106
 21
1861.745696959521
 31
0.0
 12
1801.379639973106
 22
1865.49569695952
 32
0.0
 13
1801.379639973106
 23
1865.49569695952
 33
0.0
  0
MTEXT
  5
96A2
330
9223
100
AcDbEntity
  8
寸法引出
 48
15.0
100
AcDbMText
 10
1541.379639973106
 20
1895.49569695952
 30
0.0
 40
30.0
 41
0.0
 71
     5
 72
     1
  1
\A1;520
  7
SANWA
 73
     1
 44
1.0
1001
ACAD
1000
MTEXTBEGIN
1070
    73
1070
     1
1070
    44
1040
1.0
1070
    74
1070
     0
1000
MTEXTEND
  0
POINT
  5
96A3
330
9223
100
AcDbEntity
  8
DEFPOINTS
 62
     0
 48
15.0
100
AcDbPoint
 10
1281.379639973106
 20
1741.56774768701
 30
0.0
  0
POINT
  5
96A4
330
9223
100
AcDbEntity
  8
DEFPOINTS
 62
     0
 48
15.0
100
AcDbPoint
 10
1801.379639973106
 20
1741.56774768701
 30
0.0
  0
POINT
  5
96A5
330
9223
100
AcDbEntity
  8
DEFPOINTS
 62
     0
 48
15.0
100
AcDbPoint
 10
1801.379639973106
 20
1865.49569695952
 30
0.0
  0
ENDBLK
  5
922E
330
9223
100
AcDbEntity
  8
0
 48
15.0
100
AcDbBlockEnd
  0
BLOCK
  5
923B
330
922F
100
AcDbEntity
  8
0
 48
15.0
100
AcDbBlockBegin
  2
*D30
 70
     1
 10
0.0
 20
0.0
 30
0.0
  3
*D30
  1

  0
LINE
  5
96A6
330
922F
100
AcDbEntity
  8
寸法引出
 48
15.0
370
    -2
100
AcDbLine
 10
1275.90451337318
 20
2139.779567641652
 30
0.0
 11
1275.90451337318
 21
2072.642148029828
 31
0.0
  0
LINE
  5
96A7
330
922F
100
AcDbEntity
  8
寸法引出
 48
15.0
370
    -2
100
AcDbLine
 10
1305.90451337318
 20
2139.779567641652
 30
0.0
 11
1305.90451337318
 21
2072.642148029828
 31
0.0
  0
LINE
  5
96A8
330
922F
100
AcDbEntity
  8
寸法引出
 48
15.0
370
    -2
100
AcDbLine
 10
1253.40451337318
 20
2080.142148029828
 30
0.0
 11
1230.90451337318
 21
2080.142148029828
 31
0.0
  0
LINE
  5
96A9
330
922F
100
AcDbEntity
  8
寸法引出
 48
15.0
370
    -2
100
AcDbLine
 10
1328.40451337318
 20
2080.142148029828
 30
0.0
 11
1350.90451337318
 21
2080.142148029828
 31
0.0
  0
LINE
  5
96AA
330
922F
100
AcDbEntity
  8
寸法引出
 48
15.0
370
    -2
100
AcDbLine
 10
1275.90451337318
 20
2080.142148029828
 30
0.0
 11
1305.90451337318
 21
2080.142148029828
 31
0.0
  0
SOLID
  5
96AB
330
922F
100
AcDbEntity
  8
寸法引出
 48
15.0
100
AcDbTrace
 10
1253.40451337318
 20
2083.892148029828
 30
0.0
 11
1253.40451337318
 21
2076.392148029828
 31
0.0
 12
1275.90451337318
 22
2080.142148029828
 32
0.0
 13
1275.90451337318
 23
2080.142148029828
 33
0.0
  0
SOLID
  5
96AC
330
922F
100
AcDbEntity
  8
寸法引出
 48
15.0
100
AcDbTrace
 10
1328.40451337318
 20
2083.892148029828
 30
0.0
 11
1328.40451337318
 21
2076.392148029828
 31
0.0
 12
1305.90451337318
 22
2080.142148029828
 32
0.0
 13
1305.90451337318
 23
2080.142148029828
 33
0.0
  0
MTEXT
  5
96AD
330
922F
100
AcDbEntity
  8
寸法引出
 48
15.0
100
AcDbMText
 10
1290.90451337318
 20
2110.142148029828
 30
0.0
 40
30.0
 41
0.0
 71
     5
 72
     1
  1
\A1;30
  7
SANWA
 73
     1
 44
1.0
1001
ACAD
1000
MTEXTBEGIN
1070
    73
1070
     1
1070
    44
1040
1.0
1070
    74
1070
     0
1000
MTEXTEND
  0
POINT
  5
96AE
330
922F
100
AcDbEntity
  8
DEFPOINTS
 62
     0
 48
15.0
100
AcDbPoint
 10
1275.90451337318
 20
2154.779567641652
 30
0.0
  0
POINT
  5
96AF
330
922F
100
AcDbEntity
  8
DEFPOINTS
 62
     0
 48
15.0
100
AcDbPoint
 10
1305.90451337318
 20
2154.779567641652
 30
0.0
  0
POINT
  5
96B0
330
922F
100
AcDbEntity
  8
DEFPOINTS
 62
     0
 48
15.0
100
AcDbPoint
 10
1305.90451337318
 20
2080.142148029828
 30
0.0
  0
ENDBLK
  5
923C
330
922F
100
AcDbEntity
  8
0
 48
15.0
100
AcDbBlockEnd
  0
BLOCK
  5
9247
330
923D
100
AcDbEntity
  8
0
 48
15.0
100
AcDbBlockBegin
  2
*D31
 70
     1
 10
0.0
 20
0.0
 30
0.0
  3
*D31
  1

  0
LINE
  5
96B1
330
923D
100
AcDbEntity
  8
寸法引出
 48
15.0
370
    -2
100
AcDbLine
 10
2143.040493132293
 20
2139.779567641652
 30
0.0
 11
2143.040493132293
 21
2072.642148029828
 31
0.0
  0
LINE
  5
96B2
330
923D
100
AcDbEntity
  8
寸法引出
 48
15.0
370
    -2
100
AcDbLine
 10
2263.040493132293
 20
2139.779567641652
 30
0.0
 11
2263.040493132293
 21
2072.642148029828
 31
0.0
  0
LINE
  5
96B3
330
923D
100
AcDbEntity
  8
寸法引出
 48
15.0
370
    -2
100
AcDbLine
 10
2165.540493132294
 20
2080.142148029828
 30
0.0
 11
2240.540493132293
 21
2080.142148029828
 31
0.0
  0
SOLID
  5
96B4
330
923D
100
AcDbEntity
  8
寸法引出
 48
15.0
100
AcDbTrace
 10
2165.540493132294
 20
2083.892148029828
 30
0.0
 11
2165.540493132294
 21
2076.392148029828
 31
0.0
 12
2143.040493132293
 22
2080.142148029828
 32
0.0
 13
2143.040493132293
 23
2080.142148029828
 33
0.0
  0
SOLID
  5
96B5
330
923D
100
AcDbEntity
  8
寸法引出
 48
15.0
100
AcDbTrace
 10
2240.540493132293
 20
2083.892148029828
 30
0.0
 11
2240.540493132293
 21
2076.392148029828
 31
0.0
 12
2263.040493132293
 22
2080.142148029828
 32
0.0
 13
2263.040493132293
 23
2080.142148029828
 33
0.0
  0
MTEXT
  5
96B6
330
923D
100
AcDbEntity
  8
寸法引出
 48
15.0
100
AcDbMText
 10
2203.040493132293
 20
2110.142148029828
 30
0.0
 40
30.0
 41
0.0
 71
     5
 72
     1
  1
\A1;120
  7
SANWA
 73
     1
 44
1.0
1001
ACAD
1000
MTEXTBEGIN
1070
    73
1070
     1
1070
    44
1040
1.0
1070
    74
1070
     0
1000
MTEXTEND
  0
POINT
  5
96B7
330
923D
100
AcDbEntity
  8
DEFPOINTS
 62
     0
 48
15.0
100
AcDbPoint
 10
2143.040493132293
 20
2154.779567641652
 30
0.0
  0
POINT
  5
96B8
330
923D
100
AcDbEntity
  8
DEFPOINTS
 62
     0
 48
15.0
100
AcDbPoint
 10
2263.040493132293
 20
2154.779567641652
 30
0.0
  0
POINT
  5
96B9
330
923D
100
AcDbEntity
  8
DEFPOINTS
 62
     0
 48
15.0
100
AcDbPoint
 10
2263.040493132293
 20
2080.142148029828
 30
0.0
  0
ENDBLK
  5
9248
330
923D
100
AcDbEntity
  8
0
 48
15.0
100
AcDbBlockEnd
  0
BLOCK
  5
9253
330
9249
100
AcDbEntity
  8
0
 48
15.0
100
AcDbBlockBegin
  2
*D32
 70
     1
 10
0.0
 20
0.0
 30
0.0
  3
*D32
  1

  0
LINE
  5
96BA
330
9249
100
AcDbEntity
  8
寸法引出
 48
15.0
370
    -2
100
AcDbLine
 10
1275.90451337318
 20
2279.779567641652
 30
0.0
 11
1275.90451337318
 21
2367.97267715487
 31
0.0
  0
LINE
  5
96BB
330
9249
100
AcDbEntity
  8
寸法引出
 48
15.0
370
    -2
100
AcDbLine
 10
1795.90451337318
 20
2279.779567641652
 30
0.0
 11
1795.90451337318
 21
2367.97267715487
 31
0.0
  0
LINE
  5
96BC
330
9249
100
AcDbEntity
  8
寸法引出
 48
15.0
370
    -2
100
AcDbLine
 10
1298.40451337318
 20
2360.47267715487
 30
0.0
 11
1773.40451337318
 21
2360.47267715487
 31
0.0
  0
SOLID
  5
96BD
330
9249
100
AcDbEntity
  8
寸法引出
 48
15.0
100
AcDbTrace
 10
1298.40451337318
 20
2364.22267715487
 30
0.0
 11
1298.40451337318
 21
2356.72267715487
 31
0.0
 12
1275.90451337318
 22
2360.47267715487
 32
0.0
 13
1275.90451337318
 23
2360.47267715487
 33
0.0
  0
SOLID
  5
96BE
330
9249
100
AcDbEntity
  8
寸法引出
 48
15.0
100
AcDbTrace
 10
1773.40451337318
 20
2364.22267715487
 30
0.0
 11
1773.40451337318
 21
2356.72267715487
 31
0.0
 12
1795.90451337318
 22
2360.47267715487
 32
0.0
 13
1795.90451337318
 23
2360.47267715487
 33
0.0
  0
MTEXT
  5
96BF
330
9249
100
AcDbEntity
  8
寸法引出
 48
15.0
100
AcDbMText
 10
1535.90451337318
 20
2390.47267715487
 30
0.0
 40
30.0
 41
0.0
 71
     5
 72
     1
  1
\A1;520
  7
SANWA
 73
     1
 44
1.0
1001
ACAD
1000
MTEXTBEGIN
1070
    73
1070
     1
1070
    44
1040
1.0
1070
    74
1070
     0
1000
MTEXTEND
  0
POINT
  5
96C0
330
9249
100
AcDbEntity
  8
DEFPOINTS
 62
     0
 48
15.0
100
AcDbPoint
 10
1275.90451337318
 20
2264.779567641652
 30
0.0
  0
POINT
  5
96C1
330
9249
100
AcDbEntity
  8
DEFPOINTS
 62
     0
 48
15.0
100
AcDbPoint
 10
1795.90451337318
 20
2264.779567641652
 30
0.0
  0
POINT
  5
96C2
330
9249
100
AcDbEntity
  8
DEFPOINTS
 62
     0
 48
15.0
100
AcDbPoint
 10
1795.90451337318
 20
2360.47267715487
 30
0.0
  0
ENDBLK
  5
9254
330
9249
100
AcDbEntity
  8
0
 48
15.0
100
AcDbBlockEnd
  0
BLOCK
  5
925F
330
9255
100
AcDbEntity
  8
0
 48
15.0
100
AcDbBlockBegin
  2
*D33
 70
     1
 10
0.0
 20
0.0
 30
0.0
  3
*D33
  1

  0
LINE
  5
96C3
330
9255
100
AcDbEntity
  8
寸法引出
 48
15.0
370
    -2
100
AcDbLine
 10
3158.040493132294
 20
2264.779567641652
 30
0.0
 11
3244.591700953461
 21
2264.779567641652
 31
0.0
  0
LINE
  5
96C4
330
9255
100
AcDbEntity
  8
寸法引出
 48
15.0
370
    -2
100
AcDbLine
 10
3158.040493132294
 20
2154.779567641652
 30
0.0
 11
3244.591700953461
 21
2154.779567641652
 31
0.0
  0
LINE
  5
96C5
330
9255
100
AcDbEntity
  8
寸法引出
 48
15.0
370
    -2
100
AcDbLine
 10
3237.091700953461
 20
2242.279567641652
 30
0.0
 11
3237.091700953461
 21
2177.279567641652
 31
0.0
  0
SOLID
  5
96C6
330
9255
100
AcDbEntity
  8
寸法引出
 48
15.0
100
AcDbTrace
 10
3233.341700953462
 20
2242.279567641652
 30
0.0
 11
3240.841700953461
 21
2242.279567641652
 31
0.0
 12
3237.091700953461
 22
2264.779567641652
 32
0.0
 13
3237.091700953461
 23
2264.779567641652
 33
0.0
  0
SOLID
  5
96C7
330
9255
100
AcDbEntity
  8
寸法引出
 48
15.0
100
AcDbTrace
 10
3233.341700953462
 20
2177.279567641652
 30
0.0
 11
3240.841700953461
 21
2177.279567641652
 31
0.0
 12
3237.091700953461
 22
2154.779567641652
 32
0.0
 13
3237.091700953461
 23
2154.779567641652
 33
0.0
  0
MTEXT
  5
96C8
330
9255
100
AcDbEntity
  8
寸法引出
 48
15.0
100
AcDbMText
 10
3207.091700953461
 20
2209.779567641653
 30
0.0
 40
30.0
 41
0.0
 71
     5
 72
     1
  1
\A1;110
  7
SANWA
 11
0.0000000000000001
 21
1.0
 31
0.0
 73
     1
 44
1.0
1001
ACAD
1000
MTEXTBEGIN
1070
    73
1070
     1
1070
    44
1040
1.0
1070
    74
1070
     0
1000
MTEXTEND
  0
POINT
  5
96C9
330
9255
100
AcDbEntity
  8
DEFPOINTS
 62
     0
 48
15.0
100
AcDbPoint
 10
3143.040493132293
 20
2264.779567641652
 30
0.0
  0
POINT
  5
96CA
330
9255
100
AcDbEntity
  8
DEFPOINTS
 62
     0
 48
15.0
100
AcDbPoint
 10
3143.040493132293
 20
2154.779567641652
 30
0.0
  0
POINT
  5
96CB
330
9255
100
AcDbEntity
  8
DEFPOINTS
 62
     0
 48
15.0
100
AcDbPoint
 10
3237.091700953461
 20
2154.779567641652
 30
0.0
  0
ENDBLK
  5
9260
330
9255
100
AcDbEntity
  8
0
 48
15.0
100
AcDbBlockEnd
  0
BLOCK
  5
926A
330
9261
100
AcDbEntity
  8
0
 48
15.0
100
AcDbBlockBegin
  2
*D34
 70
     1
 10
0.0
 20
0.0
 30
0.0
  3
*D34
  1

  0
LINE
  5
96CC
330
9261
100
AcDbEntity
  8
寸法引出
 48
15.0
370
    -2
100
AcDbLine
 10
3143.040493132293
 20
2139.779567641652
 30
0.0
 11
3143.040493132293
 21
2072.642148029828
 31
0.0
  0
LINE
  5
96CD
330
9261
100
AcDbEntity
  8
寸法引出
 48
15.0
370
    -2
100
AcDbLine
 10
3045.540493132293
 20
2080.142148029828
 30
0.0
 11
3120.540493132294
 21
2080.142148029828
 31
0.0
  0
SOLID
  5
96CE
330
9261
100
AcDbEntity
  8
寸法引出
 48
15.0
100
AcDbTrace
 10
3045.540493132293
 20
2083.892148029828
 30
0.0
 11
3045.540493132293
 21
2076.392148029828
 31
0.0
 12
3023.040493132294
 22
2080.142148029828
 32
0.0
 13
3023.040493132294
 23
2080.142148029828
 33
0.0
  0
SOLID
  5
96CF
330
9261
100
AcDbEntity
  8
寸法引出
 48
15.0
100
AcDbTrace
 10
3120.540493132294
 20
2083.892148029828
 30
0.0
 11
3120.540493132294
 21
2076.392148029828
 31
0.0
 12
3143.040493132293
 22
2080.142148029828
 32
0.0
 13
3143.040493132293
 23
2080.142148029828
 33
0.0
  0
MTEXT
  5
96D0
330
9261
100
AcDbEntity
  8
寸法引出
 48
15.0
100
AcDbMText
 10
3083.040493132294
 20
2110.142148029828
 30
0.0
 40
30.0
 41
0.0
 71
     5
 72
     1
  1
\A1;120
  7
SANWA
 73
     1
 44
1.0
1001
ACAD
1000
MTEXTBEGIN
1070
    73
1070
     1
1070
    44
1040
1.0
1070
    74
1070
     0
1000
MTEXTEND
  0
POINT
  5
96D1
330
9261
100
AcDbEntity
  8
DEFPOINTS
 62
     0
 48
15.0
100
AcDbPoint
 10
3023.040493132294
 20
2154.779567641652
 30
0.0
  0
POINT
  5
96D2
330
9261
100
AcDbEntity
  8
DEFPOINTS
 62
     0
 48
15.0
100
AcDbPoint
 10
3143.040493132293
 20
2154.779567641652
 30
0.0
  0
POINT
  5
96D3
330
9261
100
AcDbEntity
  8
DEFPOINTS
 62
     0
 48
15.0
100
AcDbPoint
 10
3143.040493132293
 20
2080.142148029828
 30
0.0
  0
ENDBLK
  5
926B
330
9261
100
AcDbEntity
  8
0
 48
15.0
100
AcDbBlockEnd
  0
BLOCK
  5
9277
330
926C
100
AcDbEntity
  8
0
 48
15.0
100
AcDbBlockBegin
  2
*D35
 70
     1
 10
0.0
 20
0.0
 30
0.0
  3
*D35
  1

  0
LINE
  5
96D4
330
926C
100
AcDbEntity
  8
寸法引出
 48
15.0
370
    -2
100
AcDbLine
 10
6557.006840264328
 20
1741.567751500804
 30
0.0
 11
6802.908938455729
 21
1741.567751500803
 31
0.0
  0
LINE
  5
96D5
330
926C
100
AcDbEntity
  8
寸法引出
 48
15.0
370
    -2
100
AcDbLine
 10
6795.408938455731
 20
1674.067751500803
 30
0.0
 11
6795.408938455731
 21
1651.567751500803
 31
0.0
  0
LINE
  5
96D6
330
926C
100
AcDbEntity
  8
寸法引出
 48
15.0
370
    -2
100
AcDbLine
 10
6795.408938455731
 20
1764.067751500803
 30
0.0
 11
6795.408938455731
 21
1786.567751500803
 31
0.0
  0
LINE
  5
96D7
330
926C
100
AcDbEntity
  8
寸法引出
 48
15.0
370
    -2
100
AcDbLine
 10
6795.408938455731
 20
1696.567751500803
 30
0.0
 11
6795.408938455731
 21
1741.567751500803
 31
0.0
  0
SOLID
  5
96D8
330
926C
100
AcDbEntity
  8
寸法引出
 48
15.0
100
AcDbTrace
 10
6791.658938455729
 20
1674.067751500803
 30
0.0
 11
6799.15893845573
 21
1674.067751500803
 31
0.0
 12
6795.408938455731
 22
1696.567751500803
 32
0.0
 13
6795.408938455731
 23
1696.567751500803
 33
0.0
  0
SOLID
  5
96D9
330
926C
100
AcDbEntity
  8
寸法引出
 48
15.0
100
AcDbTrace
 10
6791.658938455729
 20
1764.067751500803
 30
0.0
 11
6799.15893845573
 21
1764.067751500803
 31
0.0
 12
6795.408938455731
 22
1741.567751500803
 32
0.0
 13
6795.408938455731
 23
1741.567751500803
 33
0.0
  0
MTEXT
  5
96DA
330
926C
100
AcDbEntity
  8
寸法引出
 48
15.0
100
AcDbMText
 10
6765.408938455729
 20
1719.067751500805
 30
0.0
 40
30.0
 41
0.0
 71
     5
 72
     1
  1
\A1;45
  7
SANWA
 11
0.0000000000000001
 21
1.0
 31
0.0
 73
     1
 44
1.0
1001
ACAD
1000
MTEXTBEGIN
1070
    73
1070
     1
1070
    44
1040
1.0
1070
    74
1070
     0
1000
MTEXTEND
  0
POINT
  5
96DB
330
926C
100
AcDbEntity
  8
DEFPOINTS
 62
     0
 48
15.0
100
AcDbPoint
 10
6542.006840264328
 20
1696.567751500804
 30
0.0
  0
POINT
  5
96DC
330
926C
100
AcDbEntity
  8
DEFPOINTS
 62
     0
 48
15.0
100
AcDbPoint
 10
6542.006840264328
 20
1741.567751500804
 30
0.0
  0
POINT
  5
96DD
330
926C
100
AcDbEntity
  8
DEFPOINTS
 62
     0
 48
15.0
100
AcDbPoint
 10
6795.408938455731
 20
1741.567751500803
 30
0.0
  0
ENDBLK
  5
9278
330
926C
100
AcDbEntity
  8
0
 48
15.0
100
AcDbBlockEnd
  0
BLOCK
  5
9283
330
9279
100
AcDbEntity
  8
0
 48
15.0
100
AcDbBlockBegin
  2
*D36
 70
     1
 10
0.0
 20
0.0
 30
0.0
  3
*D36
  1

  0
LINE
  5
96DE
330
9279
100
AcDbEntity
  8
寸法引出
 48
15.0
370
    -2
100
AcDbLine
 10
6557.006840264328
 20
1741.567751500804
 30
0.0
 11
6871.932398809419
 21
1741.567751500803
 31
0.0
  0
LINE
  5
96DF
330
9279
100
AcDbEntity
  8
寸法引出
 48
15.0
370
    -2
100
AcDbLine
 10
6557.006840264328
 20
741.5677515008037
 30
0.0
 11
6871.932398809419
 21
741.5677515008037
 31
0.0
  0
LINE
  5
96E0
330
9279
100
AcDbEntity
  8
寸法引出
 48
15.0
370
    -2
100
AcDbLine
 10
6864.432398809419
 20
1719.067751500803
 30
0.0
 11
6864.432398809419
 21
764.0677515008037
 31
0.0
  0
SOLID
  5
96E1
330
9279
100
AcDbEntity
  8
寸法引出
 48
15.0
100
AcDbTrace
 10
6860.682398809419
 20
1719.067751500803
 30
0.0
 11
6868.182398809418
 21
1719.067751500803
 31
0.0
 12
6864.432398809419
 22
1741.567751500803
 32
0.0
 13
6864.432398809419
 23
1741.567751500803
 33
0.0
  0
SOLID
  5
96E2
330
9279
100
AcDbEntity
  8
寸法引出
 48
15.0
100
AcDbTrace
 10
6860.682398809419
 20
764.0677515008037
 30
0.0
 11
6868.182398809418
 21
764.0677515008037
 31
0.0
 12
6864.432398809419
 22
741.5677515008037
 32
0.0
 13
6864.432398809419
 23
741.5677515008037
 33
0.0
  0
MTEXT
  5
96E3
330
9279
100
AcDbEntity
  8
寸法引出
 48
15.0
100
AcDbMText
 10
6834.432398809418
 20
1241.567751500805
 30
0.0
 40
30.0
 41
0.0
 71
     5
 72
     1
  1
\A1;1000
  7
SANWA
 11
0.0000000000000001
 21
1.0
 31
0.0
 73
     1
 44
1.0
1001
ACAD
1000
MTEXTBEGIN
1070
    73
1070
     1
1070
    44
1040
1.0
1070
    74
1070
     0
1000
MTEXTEND
  0
POINT
  5
96E4
330
9279
100
AcDbEntity
  8
DEFPOINTS
 62
     0
 48
15.0
100
AcDbPoint
 10
6542.006840264328
 20
1741.567751500804
 30
0.0
  0
POINT
  5
96E5
330
9279
100
AcDbEntity
  8
DEFPOINTS
 62
     0
 48
15.0
100
AcDbPoint
 10
6542.006840264328
 20
741.5677515008037
 30
0.0
  0
POINT
  5
96E6
330
9279
100
AcDbEntity
  8
DEFPOINTS
 62
     0
 48
15.0
100
AcDbPoint
 10
6864.432398809419
 20
741.5677515008037
 30
0.0
  0
ENDBLK
  5
9284
330
9279
100
AcDbEntity
  8
0
 48
15.0
100
AcDbBlockEnd
  0
BLOCK
  5
9291
330
9285
100
AcDbEntity
  8
0
 48
15.0
100
AcDbBlockBegin
  2
*D37
 70
     1
 10
0.0
 20
0.0
 30
0.0
  3
*D37
  1

  0
LINE
  5
96E7
330
9285
100
AcDbEntity
  8
寸法引出
 48
15.0
370
    -2
100
AcDbLine
 10
6557.006840264328
 20
741.5677515008037
 30
0.0
 11
6802.908938455729
 21
741.5677515008037
 31
0.0
  0
LINE
  5
96E8
330
9285
100
AcDbEntity
  8
寸法引出
 48
15.0
370
    -2
100
AcDbLine
 10
6557.006840264328
 20
786.5677515008037
 30
0.0
 11
6802.908938455729
 21
786.5677515008037
 31
0.0
  0
LINE
  5
96E9
330
9285
100
AcDbEntity
  8
寸法引出
 48
15.0
370
    -2
100
AcDbLine
 10
6795.408938455731
 20
719.0677515008037
 30
0.0
 11
6795.408938455731
 21
696.5677515008037
 31
0.0
  0
LINE
  5
96EA
330
9285
100
AcDbEntity
  8
寸法引出
 48
15.0
370
    -2
100
AcDbLine
 10
6795.408938455731
 20
809.0677515008037
 30
0.0
 11
6795.408938455731
 21
831.5677515008037
 31
0.0
  0
LINE
  5
96EB
330
9285
100
AcDbEntity
  8
寸法引出
 48
15.0
370
    -2
100
AcDbLine
 10
6795.408938455731
 20
741.5677515008037
 30
0.0
 11
6795.408938455731
 21
786.5677515008037
 31
0.0
  0
SOLID
  5
96EC
330
9285
100
AcDbEntity
  8
寸法引出
 48
15.0
100
AcDbTrace
 10
6791.658938455729
 20
719.0677515008037
 30
0.0
 11
6799.15893845573
 21
719.0677515008037
 31
0.0
 12
6795.408938455731
 22
741.5677515008037
 32
0.0
 13
6795.408938455731
 23
741.5677515008037
 33
0.0
  0
SOLID
  5
96ED
330
9285
100
AcDbEntity
  8
寸法引出
 48
15.0
100
AcDbTrace
 10
6791.658938455729
 20
809.0677515008037
 30
0.0
 11
6799.15893845573
 21
809.0677515008037
 31
0.0
 12
6795.408938455731
 22
786.5677515008037
 32
0.0
 13
6795.408938455731
 23
786.5677515008037
 33
0.0
  0
MTEXT
  5
96EE
330
9285
100
AcDbEntity
  8
寸法引出
 48
15.0
100
AcDbMText
 10
6765.408938455729
 20
764.0677515008047
 30
0.0
 40
30.0
 41
0.0
 71
     5
 72
     1
  1
\A1;45
  7
SANWA
 11
0.0000000000000001
 21
1.0
 31
0.0
 73
     1
 44
1.0
1001
ACAD
1000
MTEXTBEGIN
1070
    73
1070
     1
1070
    44
1040
1.0
1070
    74
1070
     0
1000
MTEXTEND
  0
POINT
  5
96EF
330
9285
100
AcDbEntity
  8
DEFPOINTS
 62
     0
 48
15.0
100
AcDbPoint
 10
6542.006840264328
 20
741.5677515008037
 30
0.0
  0
POINT
  5
96F0
330
9285
100
AcDbEntity
  8
DEFPOINTS
 62
     0
 48
15.0
100
AcDbPoint
 10
6542.006840264328
 20
786.5677515008037
 30
0.0
  0
POINT
  5
96F1
330
9285
100
AcDbEntity
  8
DEFPOINTS
 62
     0
 48
15.0
100
AcDbPoint
 10
6795.408938455731
 20
786.5677515008037
 30
0.0
  0
ENDBLK
  5
9292
330
9285
100
AcDbEntity
  8
0
 48
15.0
100
AcDbBlockEnd
  0
BLOCK
  5
929F
330
9293
100
AcDbEntity
  8
0
 48
15.0
100
AcDbBlockBegin
  2
*D38
 70
     1
 10
0.0
 20
0.0
 30
0.0
  3
*D38
  1

  0
LINE
  5
96F2
330
9293
100
AcDbEntity
  8
寸法引出
 48
15.0
370
    -2
100
AcDbLine
 10
6022.006840264328
 20
726.5677515008037
 30
0.0
 11
6022.006840264328
 21
578.1421391941985
 31
0.0
  0
LINE
  5
96F3
330
9293
100
AcDbEntity
  8
寸法引出
 48
15.0
370
    -2
100
AcDbLine
 10
6042.006840264328
 20
726.5677515008037
 30
0.0
 11
6042.006840264328
 21
578.1421391941985
 31
0.0
  0
LINE
  5
96F4
330
9293
100
AcDbEntity
  8
寸法引出
 48
15.0
370
    -2
100
AcDbLine
 10
5999.506840264328
 20
585.6421391941985
 30
0.0
 11
5977.006840264328
 21
585.6421391941985
 31
0.0
  0
LINE
  5
96F5
330
9293
100
AcDbEntity
  8
寸法引出
 48
15.0
370
    -2
100
AcDbLine
 10
6064.506840264328
 20
585.6421391941985
 30
0.0
 11
6087.006840264328
 21
585.6421391941985
 31
0.0
  0
LINE
  5
96F6
330
9293
100
AcDbEntity
  8
寸法引出
 48
15.0
370
    -2
100
AcDbLine
 10
6022.006840264328
 20
585.6421391941985
 30
0.0
 11
6042.006840264328
 21
585.6421391941985
 31
0.0
  0
SOLID
  5
96F7
330
9293
100
AcDbEntity
  8
寸法引出
 48
15.0
100
AcDbTrace
 10
5999.506840264328
 20
589.3921391941985
 30
0.0
 11
5999.506840264328
 21
581.8921391941985
 31
0.0
 12
6022.006840264328
 22
585.6421391941985
 32
0.0
 13
6022.006840264328
 23
585.6421391941985
 33
0.0
  0
SOLID
  5
96F8
330
9293
100
AcDbEntity
  8
寸法引出
 48
15.0
100
AcDbTrace
 10
6064.506840264328
 20
589.3921391941985
 30
0.0
 11
6064.506840264328
 21
581.8921391941985
 31
0.0
 12
6042.006840264328
 22
585.6421391941985
 32
0.0
 13
6042.006840264328
 23
585.6421391941985
 33
0.0
  0
MTEXT
  5
96F9
330
9293
100
AcDbEntity
  8
寸法引出
 48
15.0
100
AcDbMText
 10
6032.006840264329
 20
615.6421391941985
 30
0.0
 40
30.0
 41
0.0
 71
     5
 72
     1
  1
\A1;20
  7
SANWA
 73
     1
 44
1.0
1001
ACAD
1000
MTEXTBEGIN
1070
    73
1070
     1
1070
    44
1040
1.0
1070
    74
1070
     0
1000
MTEXTEND
  0
POINT
  5
96FA
330
9293
100
AcDbEntity
  8
DEFPOINTS
 62
     0
 48
15.0
100
AcDbPoint
 10
6022.006840264328
 20
741.5677515008037
 30
0.0
  0
POINT
  5
96FB
330
9293
100
AcDbEntity
  8
DEFPOINTS
 62
     0
 48
15.0
100
AcDbPoint
 10
6042.006840264328
 20
741.5677515008037
 30
0.0
  0
POINT
  5
96FC
330
9293
100
AcDbEntity
  8
DEFPOINTS
 62
     0
 48
15.0
100
AcDbPoint
 10
6042.006840264328
 20
585.6421391941985
 30
0.0
  0
ENDBLK
  5
92A0
330
9293
100
AcDbEntity
  8
0
 48
15.0
100
AcDbBlockEnd
  0
BLOCK
  5
92AA
330
92A1
100
AcDbEntity
  8
0
 48
15.0
100
AcDbBlockBegin
  2
*D39
 70
     1
 10
0.0
 20
0.0
 30
0.0
  3
*D39
  1

  0
LINE
  5
96FD
330
92A1
100
AcDbEntity
  8
寸法引出
 48
15.0
370
    -2
100
AcDbLine
 10
6522.006840264328
 20
726.5677515008037
 30
0.0
 11
6522.006840264328
 21
578.1421391941985
 31
0.0
  0
LINE
  5
96FE
330
92A1
100
AcDbEntity
  8
寸法引出
 48
15.0
370
    -2
100
AcDbLine
 10
6064.506840264328
 20
585.6421391941985
 30
0.0
 11
6499.506840264328
 21
585.6421391941985
 31
0.0
  0
SOLID
  5
96FF
330
92A1
100
AcDbEntity
  8
寸法引出
 48
15.0
100
AcDbTrace
 10
6064.506840264328
 20
589.3921391941985
 30
0.0
 11
6064.506840264328
 21
581.8921391941985
 31
0.0
 12
6042.006840264328
 22
585.6421391941985
 32
0.0
 13
6042.006840264328
 23
585.6421391941985
 33
0.0
  0
SOLID
  5
9700
330
92A1
100
AcDbEntity
  8
寸法引出
 48
15.0
100
AcDbTrace
 10
6499.506840264328
 20
589.3921391941985
 30
0.0
 11
6499.506840264328
 21
581.8921391941985
 31
0.0
 12
6522.006840264328
 22
585.6421391941985
 32
0.0
 13
6522.006840264328
 23
585.6421391941985
 33
0.0
  0
MTEXT
  5
9701
330
92A1
100
AcDbEntity
  8
寸法引出
 48
15.0
100
AcDbMText
 10
6282.006840264329
 20
615.6421391941985
 30
0.0
 40
30.0
 41
0.0
 71
     5
 72
     1
  1
\A1;480
  7
SANWA
 73
     1
 44
1.0
1001
ACAD
1000
MTEXTBEGIN
1070
    73
1070
     1
1070
    44
1040
1.0
1070
    74
1070
     0
1000
MTEXTEND
  0
POINT
  5
9702
330
92A1
100
AcDbEntity
  8
DEFPOINTS
 62
     0
 48
15.0
100
AcDbPoint
 10
6042.006840264328
 20
741.5677515008037
 30
0.0
  0
POINT
  5
9703
330
92A1
100
AcDbEntity
  8
DEFPOINTS
 62
     0
 48
15.0
100
AcDbPoint
 10
6522.006840264328
 20
741.5677515008037
 30
0.0
  0
POINT
  5
9704
330
92A1
100
AcDbEntity
  8
DEFPOINTS
 62
     0
 48
15.0
100
AcDbPoint
 10
6522.006840264328
 20
585.6421391941985
 30
0.0
  0
ENDBLK
  5
92AB
330
92A1
100
AcDbEntity
  8
0
 48
15.0
100
AcDbBlockEnd
  0
BLOCK
  5
92B7
330
92AC
100
AcDbEntity
  8
0
 48
15.0
100
AcDbBlockBegin
  2
*D40
 70
     1
 10
0.0
 20
0.0
 30
0.0
  3
*D40
  1

  0
LINE
  5
9705
330
92AC
100
AcDbEntity
  8
寸法引出
 48
15.0
370
    -2
100
AcDbLine
 10
6542.006840264328
 20
726.5677515008037
 30
0.0
 11
6542.006840264328
 21
578.1421391941985
 31
0.0
  0
LINE
  5
9706
330
92AC
100
AcDbEntity
  8
寸法引出
 48
15.0
370
    -2
100
AcDbLine
 10
6499.506840264328
 20
585.6421391941985
 30
0.0
 11
6477.006840264329
 21
585.6421391941985
 31
0.0
  0
LINE
  5
9707
330
92AC
100
AcDbEntity
  8
寸法引出
 48
15.0
370
    -2
100
AcDbLine
 10
6564.506840264328
 20
585.6421391941985
 30
0.0
 11
6587.006840264328
 21
585.6421391941985
 31
0.0
  0
LINE
  5
9708
330
92AC
100
AcDbEntity
  8
寸法引出
 48
15.0
370
    -2
100
AcDbLine
 10
6522.006840264328
 20
585.6421391941985
 30
0.0
 11
6542.006840264328
 21
585.6421391941985
 31
0.0
  0
SOLID
  5
9709
330
92AC
100
AcDbEntity
  8
寸法引出
 48
15.0
100
AcDbTrace
 10
6499.506840264328
 20
589.3921391941985
 30
0.0
 11
6499.506840264328
 21
581.8921391941985
 31
0.0
 12
6522.006840264328
 22
585.6421391941985
 32
0.0
 13
6522.006840264328
 23
585.6421391941985
 33
0.0
  0
SOLID
  5
970A
330
92AC
100
AcDbEntity
  8
寸法引出
 48
15.0
100
AcDbTrace
 10
6564.506840264328
 20
589.3921391941985
 30
0.0
 11
6564.506840264328
 21
581.8921391941985
 31
0.0
 12
6542.006840264328
 22
585.6421391941985
 32
0.0
 13
6542.006840264328
 23
585.6421391941985
 33
0.0
  0
MTEXT
  5
970B
330
92AC
100
AcDbEntity
  8
寸法引出
 48
15.0
100
AcDbMText
 10
6532.006840264329
 20
615.6421391941985
 30
0.0
 40
30.0
 41
0.0
 71
     5
 72
     1
  1
\A1;20
  7
SANWA
 73
     1
 44
1.0
1001
ACAD
1000
MTEXTBEGIN
1070
    73
1070
     1
1070
    44
1040
1.0
1070
    74
1070
     0
1000
MTEXTEND
  0
POINT
  5
970C
330
92AC
100
AcDbEntity
  8
DEFPOINTS
 62
     0
 48
15.0
100
AcDbPoint
 10
6522.006840264328
 20
741.5677515008037
 30
0.0
  0
POINT
  5
970D
330
92AC
100
AcDbEntity
  8
DEFPOINTS
 62
     0
 48
15.0
100
AcDbPoint
 10
6542.006840264328
 20
741.5677515008037
 30
0.0
  0
POINT
  5
970E
330
92AC
100
AcDbEntity
  8
DEFPOINTS
 62
     0
 48
15.0
100
AcDbPoint
 10
6542.006840264328
 20
585.6421391941985
 30
0.0
  0
ENDBLK
  5
92B8
330
92AC
100
AcDbEntity
  8
0
 48
15.0
100
AcDbBlockEnd
  0
BLOCK
  5
92C3
330
92B9
100
AcDbEntity
  8
0
 48
15.0
100
AcDbBlockBegin
  2
*D41
 70
     1
 10
0.0
 20
0.0
 30
0.0
  3
*D41
  1

  0
LINE
  5
970F
330
92B9
100
AcDbEntity
  8
寸法引出
 48
15.0
370
    -2
100
AcDbLine
 10
6557.006840264328
 20
786.5677515008037
 30
0.0
 11
6802.908938455729
 21
786.5677515008037
 31
0.0
  0
LINE
  5
9710
330
92B9
100
AcDbEntity
  8
寸法引出
 48
15.0
370
    -2
100
AcDbLine
 10
6557.006840264328
 20
1696.567751500804
 30
0.0
 11
6802.908938455729
 21
1696.567751500803
 31
0.0
  0
LINE
  5
9711
330
92B9
100
AcDbEntity
  8
寸法引出
 48
15.0
370
    -2
100
AcDbLine
 10
6795.408938455731
 20
809.0677515008037
 30
0.0
 11
6795.408938455731
 21
1674.067751500803
 31
0.0
  0
SOLID
  5
9712
330
92B9
100
AcDbEntity
  8
寸法引出
 48
15.0
100
AcDbTrace
 10
6791.658938455729
 20
809.0677515008037
 30
0.0
 11
6799.15893845573
 21
809.0677515008037
 31
0.0
 12
6795.408938455731
 22
786.5677515008037
 32
0.0
 13
6795.408938455731
 23
786.5677515008037
 33
0.0
  0
SOLID
  5
9713
330
92B9
100
AcDbEntity
  8
寸法引出
 48
15.0
100
AcDbTrace
 10
6791.658938455729
 20
1674.067751500803
 30
0.0
 11
6799.15893845573
 21
1674.067751500803
 31
0.0
 12
6795.408938455731
 22
1696.567751500803
 32
0.0
 13
6795.408938455731
 23
1696.567751500803
 33
0.0
  0
MTEXT
  5
9714
330
92B9
100
AcDbEntity
  8
寸法引出
 48
15.0
100
AcDbMText
 10
6763.523224170016
 20
1241.567751500805
 30
0.0
 40
30.0
 41
0.0
 71
     5
 72
     1
  1
\A1;5@182=910
  7
SANWA
 11
0.0000000000000001
 21
1.0
 31
0.0
 73
     1
 44
1.0
1001
ACAD
1000
MTEXTBEGIN
1070
    73
1070
     1
1070
    44
1040
1.0
1070
    74
1070
     0
1000
MTEXTEND
  0
POINT
  5
9715
330
92B9
100
AcDbEntity
  8
DEFPOINTS
 62
     0
 48
15.0
100
AcDbPoint
 10
6542.006840264328
 20
786.5677515008037
 30
0.0
  0
POINT
  5
9716
330
92B9
100
AcDbEntity
  8
DEFPOINTS
 62
     0
 48
15.0
100
AcDbPoint
 10
6542.006840264328
 20
1696.567751500804
 30
0.0
  0
POINT
  5
9717
330
92B9
100
AcDbEntity
  8
DEFPOINTS
 62
     0
 48
15.0
100
AcDbPoint
 10
6795.408938455731
 20
1696.567751500803
 30
0.0
  0
ENDBLK
  5
92C4
330
92B9
100
AcDbEntity
  8
0
 48
15.0
100
AcDbBlockEnd
  0
BLOCK
  5
92CF
330
92C5
100
AcDbEntity
  8
0
 48
15.0
100
AcDbBlockBegin
  2
*D42
 70
     1
 10
0.0
 20
0.0
 30
0.0
  3
*D42
  1

  0
LINE
  5
9718
330
92C5
100
AcDbEntity
  8
寸法引出
 48
15.0
370
    -2
100
AcDbLine
 10
6007.006840264328
 20
776.5677515008037
 30
0.0
 11
5897.986543921179
 21
776.5677515008037
 31
0.0
  0
LINE
  5
9719
330
92C5
100
AcDbEntity
  8
寸法引出
 48
15.0
370
    -2
100
AcDbLine
 10
6007.006840264328
 20
1706.567751500803
 30
0.0
 11
5897.986543921179
 21
1706.567751500803
 31
0.0
  0
LINE
  5
971A
330
92C5
100
AcDbEntity
  8
寸法引出
 48
15.0
370
    -2
100
AcDbLine
 10
5905.486543921178
 20
799.0677515008037
 30
0.0
 11
5905.486543921178
 21
1684.067751500804
 31
0.0
  0
SOLID
  5
971B
330
92C5
100
AcDbEntity
  8
寸法引出
 48
15.0
100
AcDbTrace
 10
5901.736543921179
 20
799.0677515008037
 30
0.0
 11
5909.236543921179
 21
799.0677515008037
 31
0.0
 12
5905.486543921178
 22
776.5677515008037
 32
0.0
 13
5905.486543921178
 23
776.5677515008037
 33
0.0
  0
SOLID
  5
971C
330
92C5
100
AcDbEntity
  8
寸法引出
 48
15.0
100
AcDbTrace
 10
5901.736543921179
 20
1684.067751500804
 30
0.0
 11
5909.236543921179
 21
1684.067751500804
 31
0.0
 12
5905.486543921178
 22
1706.567751500803
 32
0.0
 13
5905.486543921178
 23
1706.567751500803
 33
0.0
  0
MTEXT
  5
971D
330
92C5
100
AcDbEntity
  8
寸法引出
 48
15.0
100
AcDbMText
 10
5875.486543921179
 20
1241.567751500805
 30
0.0
 40
30.0
 41
0.0
 71
     5
 72
     1
  1
\A1;930
  7
SANWA
 11
0.0000000000000001
 21
1.0
 31
0.0
 73
     1
 44
1.0
1001
ACAD
1000
MTEXTBEGIN
1070
    73
1070
     1
1070
    44
1040
1.0
1070
    74
1070
     0
1000
MTEXTEND
  0
POINT
  5
971E
330
92C5
100
AcDbEntity
  8
DEFPOINTS
 62
     0
 48
15.0
100
AcDbPoint
 10
6022.006840264328
 20
776.5677515008037
 30
0.0
  0
POINT
  5
971F
330
92C5
100
AcDbEntity
  8
DEFPOINTS
 62
     0
 48
15.0
100
AcDbPoint
 10
6022.006840264328
 20
1706.567751500803
 30
0.0
  0
POINT
  5
9720
330
92C5
100
AcDbEntity
  8
DEFPOINTS
 62
     0
 48
15.0
100
AcDbPoint
 10
5905.486543921178
 20
1706.567751500803
 30
0.0
  0
ENDBLK
  5
92D0
330
92C5
100
AcDbEntity
  8
0
 48
15.0
100
AcDbBlockEnd
  0
BLOCK
  5
92DB
330
92D1
100
AcDbEntity
  8
0
 48
15.0
100
AcDbBlockBegin
  2
*D43
 70
     1
 10
0.0
 20
0.0
 30
0.0
  3
*D43
  1

  0
LINE
  5
9721
330
92D1
100
AcDbEntity
  8
寸法引出
 48
15.0
370
    -2
100
AcDbLine
 10
6883.667693423517
 20
2279.779571455446
 30
0.0
 11
6883.667693423517
 21
2418.753367090955
 31
0.0
  0
LINE
  5
9722
330
92D1
100
AcDbEntity
  8
寸法引出
 48
15.0
370
    -2
100
AcDbLine
 10
7883.667693423515
 20
2279.779571455446
 30
0.0
 11
7883.667693423515
 21
2418.753367090955
 31
0.0
  0
LINE
  5
9723
330
92D1
100
AcDbEntity
  8
寸法引出
 48
15.0
370
    -2
100
AcDbLine
 10
6906.167693423516
 20
2411.253367090954
 30
0.0
 11
7861.167693423515
 21
2411.253367090954
 31
0.0
  0
SOLID
  5
9724
330
92D1
100
AcDbEntity
  8
寸法引出
 48
15.0
100
AcDbTrace
 10
6906.167693423516
 20
2415.003367090954
 30
0.0
 11
6906.167693423516
 21
2407.503367090955
 31
0.0
 12
6883.667693423517
 22
2411.253367090954
 32
0.0
 13
6883.667693423517
 23
2411.253367090954
 33
0.0
  0
SOLID
  5
9725
330
92D1
100
AcDbEntity
  8
寸法引出
 48
15.0
100
AcDbTrace
 10
7861.167693423515
 20
2415.003367090954
 30
0.0
 11
7861.167693423515
 21
2407.503367090955
 31
0.0
 12
7883.667693423515
 22
2411.253367090954
 32
0.0
 13
7883.667693423515
 23
2411.253367090954
 33
0.0
  0
MTEXT
  5
9726
330
92D1
100
AcDbEntity
  8
寸法引出
 48
15.0
100
AcDbMText
 10
7383.667693423515
 20
2441.253367090955
 30
0.0
 40
30.0
 41
0.0
 71
     5
 72
     1
  1
\A1;1000
  7
SANWA
 73
     1
 44
1.0
1001
ACAD
1000
MTEXTBEGIN
1070
    73
1070
     1
1070
    44
1040
1.0
1070
    74
1070
     0
1000
MTEXTEND
  0
POINT
  5
9727
330
92D1
100
AcDbEntity
  8
DEFPOINTS
 62
     0
 48
15.0
100
AcDbPoint
 10
6883.667693423517
 20
2264.779571455445
 30
0.0
  0
POINT
  5
9728
330
92D1
100
AcDbEntity
  8
DEFPOINTS
 62
     0
 48
15.0
100
AcDbPoint
 10
7883.667693423515
 20
2264.779571455445
 30
0.0
  0
POINT
  5
9729
330
92D1
100
AcDbEntity
  8
DEFPOINTS
 62
     0
 48
15.0
100
AcDbPoint
 10
7883.667693423515
 20
2411.253367090954
 30
0.0
  0
ENDBLK
  5
92DC
330
92D1
100
AcDbEntity
  8
0
 48
15.0
100
AcDbBlockEnd
  0
BLOCK
  5
92E7
330
92DD
100
AcDbEntity
  8
0
 48
15.0
100
AcDbBlockBegin
  2
*D44
 70
     1
 10
0.0
 20
0.0
 30
0.0
  3
*D44
  1

  0
LINE
  5
972A
330
92DD
100
AcDbEntity
  8
寸法引出
 48
15.0
370
    -2
100
AcDbLine
 10
6918.667693423516
 20
2279.779571455446
 30
0.0
 11
6918.667693423516
 21
2366.293823167682
 31
0.0
  0
LINE
  5
972B
330
92DD
100
AcDbEntity
  8
寸法引出
 48
15.0
370
    -2
100
AcDbLine
 10
7848.667693423514
 20
2279.779571455446
 30
0.0
 11
7848.667693423514
 21
2366.293823167682
 31
0.0
  0
LINE
  5
972C
330
92DD
100
AcDbEntity
  8
寸法引出
 48
15.0
370
    -2
100
AcDbLine
 10
6941.167693423516
 20
2358.793823167681
 30
0.0
 11
7826.167693423515
 21
2358.793823167681
 31
0.0
  0
SOLID
  5
972D
330
92DD
100
AcDbEntity
  8
寸法引出
 48
15.0
100
AcDbTrace
 10
6941.167693423516
 20
2362.543823167682
 30
0.0
 11
6941.167693423516
 21
2355.043823167682
 31
0.0
 12
6918.667693423516
 22
2358.793823167681
 32
0.0
 13
6918.667693423516
 23
2358.793823167681
 33
0.0
  0
SOLID
  5
972E
330
92DD
100
AcDbEntity
  8
寸法引出
 48
15.0
100
AcDbTrace
 10
7826.167693423515
 20
2362.543823167682
 30
0.0
 11
7826.167693423515
 21
2355.043823167682
 31
0.0
 12
7848.667693423514
 22
2358.793823167681
 32
0.0
 13
7848.667693423514
 23
2358.793823167681
 33
0.0
  0
MTEXT
  5
972F
330
92DD
100
AcDbEntity
  8
寸法引出
 48
15.0
100
AcDbMText
 10
7383.667693423515
 20
2388.793823167682
 30
0.0
 40
30.0
 41
0.0
 71
     5
 72
     1
  1
\A1;930
  7
SANWA
 73
     1
 44
1.0
1001
ACAD
1000
MTEXTBEGIN
1070
    73
1070
     1
1070
    44
1040
1.0
1070
    74
1070
     0
1000
MTEXTEND
  0
POINT
  5
9730
330
92DD
100
AcDbEntity
  8
DEFPOINTS
 62
     0
 48
15.0
100
AcDbPoint
 10
6918.667693423516
 20
2264.779571455445
 30
0.0
  0
POINT
  5
9731
330
92DD
100
AcDbEntity
  8
DEFPOINTS
 62
     0
 48
15.0
100
AcDbPoint
 10
7848.667693423514
 20
2264.779571455445
 30
0.0
  0
POINT
  5
9732
330
92DD
100
AcDbEntity
  8
DEFPOINTS
 62
     0
 48
15.0
100
AcDbPoint
 10
7848.667693423514
 20
2358.793823167681
 30
0.0
  0
ENDBLK
  5
92E8
330
92DD
100
AcDbEntity
  8
0
 48
15.0
100
AcDbBlockEnd
  0
BLOCK
  5
92F2
330
92E9
100
AcDbEntity
  8
0
 48
15.0
100
AcDbBlockBegin
  2
*D45
 70
     1
 10
0.0
 20
0.0
 30
0.0
  3
*D45
  1

  0
LINE
  5
9733
330
92E9
100
AcDbEntity
  8
寸法引出
 48
15.0
370
    -2
100
AcDbLine
 10
7838.667693423515
 20
2139.779571455445
 30
0.0
 11
7838.667693423515
 21
2051.171652226731
 31
0.0
  0
LINE
  5
9734
330
92E9
100
AcDbEntity
  8
寸法引出
 48
15.0
370
    -2
100
AcDbLine
 10
6951.167693423517
 20
2058.671652226731
 30
0.0
 11
7816.167693423515
 21
2058.671652226731
 31
0.0
  0
SOLID
  5
9735
330
92E9
100
AcDbEntity
  8
寸法引出
 48
15.0
100
AcDbTrace
 10
6951.167693423517
 20
2062.421652226731
 30
0.0
 11
6951.167693423517
 21
2054.921652226731
 31
0.0
 12
6928.667693423516
 22
2058.671652226731
 32
0.0
 13
6928.667693423516
 23
2058.671652226731
 33
0.0
  0
SOLID
  5
9736
330
92E9
100
AcDbEntity
  8
寸法引出
 48
15.0
100
AcDbTrace
 10
7816.167693423515
 20
2062.421652226731
 30
0.0
 11
7816.167693423515
 21
2054.921652226731
 31
0.0
 12
7838.667693423515
 22
2058.671652226731
 32
0.0
 13
7838.667693423515
 23
2058.671652226731
 33
0.0
  0
MTEXT
  5
9737
330
92E9
100
AcDbEntity
  8
寸法引出
 48
15.0
100
AcDbMText
 10
7383.667693423515
 20
2090.557366512445
 30
0.0
 40
30.0
 41
0.0
 71
     5
 72
     1
  1
\A1;5@182=910
  7
SANWA
 73
     1
 44
1.0
1001
ACAD
1000
MTEXTBEGIN
1070
    73
1070
     1
1070
    44
1040
1.0
1070
    74
1070
     0
1000
MTEXTEND
  0
POINT
  5
9738
330
92E9
100
AcDbEntity
  8
DEFPOINTS
 62
     0
 48
15.0
100
AcDbPoint
 10
6928.667693423516
 20
2154.779571455446
 30
0.0
  0
POINT
  5
9739
330
92E9
100
AcDbEntity
  8
DEFPOINTS
 62
     0
 48
15.0
100
AcDbPoint
 10
7838.667693423515
 20
2154.779571455446
 30
0.0
  0
POINT
  5
973A
330
92E9
100
AcDbEntity
  8
DEFPOINTS
 62
     0
 48
15.0
100
AcDbPoint
 10
7838.667693423515
 20
2058.671652226731
 30
0.0
  0
ENDBLK
  5
92F3
330
92E9
100
AcDbEntity
  8
0
 48
15.0
100
AcDbBlockEnd
  0
BLOCK
  5
92FE
330
92F4
100
AcDbEntity
  8
0
 48
15.0
100
AcDbBlockBegin
  2
*D46
 70
     1
 10
0.0
 20
0.0
 30
0.0
  3
*D46
  1

  0
LINE
  5
973B
330
92F4
100
AcDbEntity
  8
寸法引出
 48
15.0
370
    -2
100
AcDbLine
 10
6557.006840264328
 20
2154.779571455446
 30
0.0
 11
6732.888354278767
 21
2154.779571455446
 31
0.0
  0
LINE
  5
973C
330
92F4
100
AcDbEntity
  8
寸法引出
 48
15.0
370
    -2
100
AcDbLine
 10
6557.006840264328
 20
2264.779571455445
 30
0.0
 11
6732.888354278767
 21
2264.779571455445
 31
0.0
  0
LINE
  5
973D
330
92F4
100
AcDbEntity
  8
寸法引出
 48
15.0
370
    -2
100
AcDbLine
 10
6725.388354278766
 20
2177.279571455446
 30
0.0
 11
6725.388354278766
 21
2242.279571455445
 31
0.0
  0
SOLID
  5
973E
330
92F4
100
AcDbEntity
  8
寸法引出
 48
15.0
100
AcDbTrace
 10
6721.638354278766
 20
2177.279571455446
 30
0.0
 11
6729.138354278766
 21
2177.279571455446
 31
0.0
 12
6725.388354278766
 22
2154.779571455446
 32
0.0
 13
6725.388354278766
 23
2154.779571455446
 33
0.0
  0
SOLID
  5
973F
330
92F4
100
AcDbEntity
  8
寸法引出
 48
15.0
100
AcDbTrace
 10
6721.638354278766
 20
2242.279571455445
 30
0.0
 11
6729.138354278766
 21
2242.279571455445
 31
0.0
 12
6725.388354278766
 22
2264.779571455445
 32
0.0
 13
6725.388354278766
 23
2264.779571455445
 33
0.0
  0
MTEXT
  5
9740
330
92F4
100
AcDbEntity
  8
寸法引出
 48
15.0
100
AcDbMText
 10
6695.388354278765
 20
2209.779571455447
 30
0.0
 40
30.0
 41
0.0
 71
     5
 72
     1
  1
\A1;110
  7
SANWA
 11
0.0000000000000001
 21
1.0
 31
0.0
 73
     1
 44
1.0
1001
ACAD
1000
MTEXTBEGIN
1070
    73
1070
     1
1070
    44
1040
1.0
1070
    74
1070
     0
1000
MTEXTEND
  0
POINT
  5
9741
330
92F4
100
AcDbEntity
  8
DEFPOINTS
 62
     0
 48
15.0
100
AcDbPoint
 10
6542.006840264328
 20
2154.779571455446
 30
0.0
  0
POINT
  5
9742
330
92F4
100
AcDbEntity
  8
DEFPOINTS
 62
     0
 48
15.0
100
AcDbPoint
 10
6542.006840264328
 20
2264.779571455445
 30
0.0
  0
POINT
  5
9743
330
92F4
100
AcDbEntity
  8
DEFPOINTS
 62
     0
 48
15.0
100
AcDbPoint
 10
6725.388354278766
 20
2264.779571455445
 30
0.0
  0
ENDBLK
  5
92FF
330
92F4
100
AcDbEntity
  8
0
 48
15.0
100
AcDbBlockEnd
  0
BLOCK
  5
9309
330
9300
100
AcDbEntity
  8
0
 48
15.0
100
AcDbBlockBegin
  2
*D47
 70
     1
 10
0.0
 20
0.0
 30
0.0
  3
*D47
  1

  0
LINE
  5
9744
330
9300
100
AcDbEntity
  8
寸法引出
 48
15.0
370
    -2
100
AcDbLine
 10
6557.006840264328
 20
2264.779571455445
 30
0.0
 11
6663.563746345913
 21
2264.779571455445
 31
0.0
  0
LINE
  5
9745
330
9300
100
AcDbEntity
  8
寸法引出
 48
15.0
370
    -2
100
AcDbLine
 10
6656.063746345913
 20
2207.279571455446
 30
0.0
 11
6656.063746345913
 21
2242.279571455445
 31
0.0
  0
SOLID
  5
9746
330
9300
100
AcDbEntity
  8
寸法引出
 48
15.0
100
AcDbTrace
 10
6652.313746345914
 20
2207.279571455446
 30
0.0
 11
6659.813746345914
 21
2207.279571455446
 31
0.0
 12
6656.063746345913
 22
2184.779571455445
 32
0.0
 13
6656.063746345913
 23
2184.779571455445
 33
0.0
  0
SOLID
  5
9747
330
9300
100
AcDbEntity
  8
寸法引出
 48
15.0
100
AcDbTrace
 10
6652.313746345914
 20
2242.279571455445
 30
0.0
 11
6659.813746345914
 21
2242.279571455445
 31
0.0
 12
6656.063746345913
 22
2264.779571455445
 32
0.0
 13
6656.063746345913
 23
2264.779571455445
 33
0.0
  0
MTEXT
  5
9748
330
9300
100
AcDbEntity
  8
寸法引出
 48
15.0
100
AcDbMText
 10
6626.063746345912
 20
2224.779571455446
 30
0.0
 40
30.0
 41
0.0
 71
     5
 72
     1
  1
\A1;80
  7
SANWA
 11
0.0000000000000001
 21
1.0
 31
0.0
 73
     1
 44
1.0
1001
ACAD
1000
MTEXTBEGIN
1070
    73
1070
     1
1070
    44
1040
1.0
1070
    74
1070
     0
1000
MTEXTEND
  0
POINT
  5
9749
330
9300
100
AcDbEntity
  8
DEFPOINTS
 62
     0
 48
15.0
100
AcDbPoint
 10
6542.006840264328
 20
2184.779571455445
 30
0.0
  0
POINT
  5
974A
330
9300
100
AcDbEntity
  8
DEFPOINTS
 62
     0
 48
15.0
100
AcDbPoint
 10
6542.006840264328
 20
2264.779571455445
 30
0.0
  0
POINT
  5
974B
330
9300
100
AcDbEntity
  8
DEFPOINTS
 62
     0
 48
15.0
100
AcDbPoint
 10
6656.063746345913
 20
2264.779571455445
 30
0.0
  0
ENDBLK
  5
930A
330
9300
100
AcDbEntity
  8
0
 48
15.0
100
AcDbBlockEnd
  0
BLOCK
  5
9315
330
930B
100
AcDbEntity
  8
0
 48
15.0
100
AcDbBlockBegin
  2
*D48
 70
     1
 10
0.0
 20
0.0
 30
0.0
  3
*D48
  1

  0
LINE
  5
974C
330
930B
100
AcDbEntity
  8
寸法引出
 48
15.0
370
    -2
100
AcDbLine
 10
6022.006840264328
 20
1756.567751500804
 30
0.0
 11
6022.006840264328
 21
1902.314321100357
 31
0.0
  0
LINE
  5
974D
330
930B
100
AcDbEntity
  8
寸法引出
 48
15.0
370
    -2
100
AcDbLine
 10
6542.006840264328
 20
1756.567751500804
 30
0.0
 11
6542.006840264328
 21
1902.314321100357
 31
0.0
  0
LINE
  5
974E
330
930B
100
AcDbEntity
  8
寸法引出
 48
15.0
370
    -2
100
AcDbLine
 10
6044.506840264329
 20
1894.814321100357
 30
0.0
 11
6519.506840264329
 21
1894.814321100357
 31
0.0
  0
SOLID
  5
974F
330
930B
100
AcDbEntity
  8
寸法引出
 48
15.0
100
AcDbTrace
 10
6044.506840264329
 20
1898.564321100357
 30
0.0
 11
6044.506840264329
 21
1891.064321100357
 31
0.0
 12
6022.006840264328
 22
1894.814321100357
 32
0.0
 13
6022.006840264328
 23
1894.814321100357
 33
0.0
  0
SOLID
  5
9750
330
930B
100
AcDbEntity
  8
寸法引出
 48
15.0
100
AcDbTrace
 10
6519.506840264329
 20
1898.564321100357
 30
0.0
 11
6519.506840264329
 21
1891.064321100357
 31
0.0
 12
6542.006840264328
 22
1894.814321100357
 32
0.0
 13
6542.006840264328
 23
1894.814321100357
 33
0.0
  0
MTEXT
  5
9751
330
930B
100
AcDbEntity
  8
寸法引出
 48
15.0
100
AcDbMText
 10
6282.006840264329
 20
1924.814321100357
 30
0.0
 40
30.0
 41
0.0
 71
     5
 72
     1
  1
\A1;520
  7
SANWA
 73
     1
 44
1.0
1001
ACAD
1000
MTEXTBEGIN
1070
    73
1070
     1
1070
    44
1040
1.0
1070
    74
1070
     0
1000
MTEXTEND
  0
POINT
  5
9752
330
930B
100
AcDbEntity
  8
DEFPOINTS
 62
     0
 48
15.0
100
AcDbPoint
 10
6022.006840264328
 20
1741.567751500804
 30
0.0
  0
POINT
  5
9753
330
930B
100
AcDbEntity
  8
DEFPOINTS
 62
     0
 48
15.0
100
AcDbPoint
 10
6542.006840264328
 20
1741.567751500804
 30
0.0
  0
POINT
  5
9754
330
930B
100
AcDbEntity
  8
DEFPOINTS
 62
     0
 48
15.0
100
AcDbPoint
 10
6542.006840264328
 20
1894.814321100357
 30
0.0
  0
ENDBLK
  5
9316
330
930B
100
AcDbEntity
  8
0
 48
15.0
100
AcDbBlockEnd
  0
BLOCK
  5
9322
330
9317
100
AcDbEntity
  8
0
 48
15.0
100
AcDbBlockBegin
  2
*D49
 70
     1
 10
0.0
 20
0.0
 30
0.0
  3
*D49
  1

  0
LINE
  5
9755
330
9317
100
AcDbEntity
  8
寸法引出
 48
15.0
370
    -2
100
AcDbLine
 10
6542.006840264328
 20
1756.567751500804
 30
0.0
 11
6542.006840264328
 21
1841.176994017554
 31
0.0
  0
LINE
  5
9756
330
9317
100
AcDbEntity
  8
寸法引出
 48
15.0
370
    -2
100
AcDbLine
 10
6479.506840264329
 20
1833.676994017555
 30
0.0
 11
6519.506840264329
 21
1833.676994017555
 31
0.0
  0
SOLID
  5
9757
330
9317
100
AcDbEntity
  8
寸法引出
 48
15.0
100
AcDbTrace
 10
6479.506840264329
 20
1837.426994017554
 30
0.0
 11
6479.506840264329
 21
1829.926994017554
 31
0.0
 12
6457.00684026433
 22
1833.676994017555
 32
0.0
 13
6457.00684026433
 23
1833.676994017555
 33
0.0
  0
SOLID
  5
9758
330
9317
100
AcDbEntity
  8
寸法引出
 48
15.0
100
AcDbTrace
 10
6519.506840264329
 20
1837.426994017554
 30
0.0
 11
6519.506840264329
 21
1829.926994017554
 31
0.0
 12
6542.006840264328
 22
1833.676994017555
 32
0.0
 13
6542.006840264328
 23
1833.676994017555
 33
0.0
  0
MTEXT
  5
9759
330
9317
100
AcDbEntity
  8
寸法引出
 48
15.0
100
AcDbMText
 10
6499.50684026433
 20
1863.676994017555
 30
0.0
 40
30.0
 41
0.0
 71
     5
 72
     1
  1
\A1;85
  7
SANWA
 73
     1
 44
1.0
1001
ACAD
1000
MTEXTBEGIN
1070
    73
1070
     1
1070
    44
1040
1.0
1070
    74
1070
     0
1000
MTEXTEND
  0
POINT
  5
975A
330
9317
100
AcDbEntity
  8
DEFPOINTS
 62
     0
 48
15.0
100
AcDbPoint
 10
6457.00684026433
 20
1741.567751500804
 30
0.0
  0
POINT
  5
975B
330
9317
100
AcDbEntity
  8
DEFPOINTS
 62
     0
 48
15.0
100
AcDbPoint
 10
6542.006840264328
 20
1741.567751500804
 30
0.0
  0
POINT
  5
975C
330
9317
100
AcDbEntity
  8
DEFPOINTS
 62
     0
 48
15.0
100
AcDbPoint
 10
6542.006840264328
 20
1833.676994017555
 30
0.0
  0
ENDBLK
  5
9323
330
9317
100
AcDbEntity
  8
0
 48
15.0
100
AcDbBlockEnd
  0
BLOCK
  5
9330
330
9324
100
AcDbEntity
  8
0
 48
15.0
100
AcDbBlockBegin
  2
*D50
 70
     1
 10
0.0
 20
0.0
 30
0.0
  3
*D50
  1

  0
LINE
  5
975D
330
9324
100
AcDbEntity
  8
寸法引出
 48
15.0
370
    -2
100
AcDbLine
 10
6022.006840264328
 20
1756.567751500804
 30
0.0
 11
6022.006840264328
 21
1841.176994017554
 31
0.0
  0
LINE
  5
975E
330
9324
100
AcDbEntity
  8
寸法引出
 48
15.0
370
    -2
100
AcDbLine
 10
6107.00684026433
 20
1756.567751500804
 30
0.0
 11
6107.00684026433
 21
1841.176994017554
 31
0.0
  0
LINE
  5
975F
330
9324
100
AcDbEntity
  8
寸法引出
 48
15.0
370
    -2
100
AcDbLine
 10
6044.506840264329
 20
1833.676994017555
 30
0.0
 11
6084.50684026433
 21
1833.676994017555
 31
0.0
  0
SOLID
  5
9760
330
9324
100
AcDbEntity
  8
寸法引出
 48
15.0
100
AcDbTrace
 10
6044.506840264329
 20
1837.426994017554
 30
0.0
 11
6044.506840264329
 21
1829.926994017554
 31
0.0
 12
6022.006840264328
 22
1833.676994017555
 32
0.0
 13
6022.006840264328
 23
1833.676994017555
 33
0.0
  0
SOLID
  5
9761
330
9324
100
AcDbEntity
  8
寸法引出
 48
15.0
100
AcDbTrace
 10
6084.50684026433
 20
1837.426994017554
 30
0.0
 11
6084.50684026433
 21
1829.926994017554
 31
0.0
 12
6107.00684026433
 22
1833.676994017555
 32
0.0
 13
6107.00684026433
 23
1833.676994017555
 33
0.0
  0
MTEXT
  5
9762
330
9324
100
AcDbEntity
  8
寸法引出
 48
15.0
100
AcDbMText
 10
6064.506840264328
 20
1863.676994017555
 30
0.0
 40
30.0
 41
0.0
 71
     5
 72
     1
  1
\A1;85
  7
SANWA
 73
     1
 44
1.0
1001
ACAD
1000
MTEXTBEGIN
1070
    73
1070
     1
1070
    44
1040
1.0
1070
    74
1070
     0
1000
MTEXTEND
  0
POINT
  5
9763
330
9324
100
AcDbEntity
  8
DEFPOINTS
 62
     0
 48
15.0
100
AcDbPoint
 10
6022.006840264328
 20
1741.567751500804
 30
0.0
  0
POINT
  5
9764
330
9324
100
AcDbEntity
  8
DEFPOINTS
 62
     0
 48
15.0
100
AcDbPoint
 10
6107.00684026433
 20
1741.567751500804
 30
0.0
  0
POINT
  5
9765
330
9324
100
AcDbEntity
  8
DEFPOINTS
 62
     0
 48
15.0
100
AcDbPoint
 10
6107.00684026433
 20
1833.676994017555
 30
0.0
  0
ENDBLK
  5
9331
330
9324
100
AcDbEntity
  8
0
 48
15.0
100
AcDbBlockEnd
  0
BLOCK
  5
933B
330
9332
100
AcDbEntity
  8
0
 48
15.0
100
AcDbBlockBegin
  2
*D51
 70
     1
 10
0.0
 20
0.0
 30
0.0
  3
*D51
  1

  0
LINE
  5
9766
330
9332
100
AcDbEntity
  8
寸法引出
 48
15.0
370
    -2
100
AcDbLine
 10
6457.00684026433
 20
1756.567751500804
 30
0.0
 11
6457.00684026433
 21
1841.176994017554
 31
0.0
  0
LINE
  5
9767
330
9332
100
AcDbEntity
  8
寸法引出
 48
15.0
370
    -2
100
AcDbLine
 10
6129.50684026433
 20
1833.676994017555
 30
0.0
 11
6434.50684026433
 21
1833.676994017555
 31
0.0
  0
SOLID
  5
9768
330
9332
100
AcDbEntity
  8
寸法引出
 48
15.0
100
AcDbTrace
 10
6129.50684026433
 20
1837.426994017554
 30
0.0
 11
6129.50684026433
 21
1829.926994017554
 31
0.0
 12
6107.00684026433
 22
1833.676994017555
 32
0.0
 13
6107.00684026433
 23
1833.676994017555
 33
0.0
  0
SOLID
  5
9769
330
9332
100
AcDbEntity
  8
寸法引出
 48
15.0
100
AcDbTrace
 10
6434.50684026433
 20
1837.426994017554
 30
0.0
 11
6434.50684026433
 21
1829.926994017554
 31
0.0
 12
6457.00684026433
 22
1833.676994017555
 32
0.0
 13
6457.00684026433
 23
1833.676994017555
 33
0.0
  0
MTEXT
  5
976A
330
9332
100
AcDbEntity
  8
寸法引出
 48
15.0
100
AcDbMText
 10
6282.00684026433
 20
1865.562708303269
 30
0.0
 40
30.0
 41
0.0
 71
     5
 72
     1
  1
\A1;3@116.7=350
  7
SANWA
 73
     1
 44
1.0
1001
ACAD
1000
MTEXTBEGIN
1070
    73
1070
     1
1070
    44
1040
1.0
1070
    74
1070
     0
1000
MTEXTEND
  0
POINT
  5
976B
330
9332
100
AcDbEntity
  8
DEFPOINTS
 62
     0
 48
15.0
100
AcDbPoint
 10
6107.00684026433
 20
1741.567751500804
 30
0.0
  0
POINT
  5
976C
330
9332
100
AcDbEntity
  8
DEFPOINTS
 62
     0
 48
15.0
100
AcDbPoint
 10
6457.00684026433
 20
1741.567751500804
 30
0.0
  0
POINT
  5
976D
330
9332
100
AcDbEntity
  8
DEFPOINTS
 62
     0
 48
15.0
100
AcDbPoint
 10
6457.00684026433
 20
1833.676994017555
 30
0.0
  0
ENDBLK
  5
933C
330
9332
100
AcDbEntity
  8
0
 48
15.0
100
AcDbBlockEnd
  0
BLOCK
  5
9349
330
933D
100
AcDbEntity
  8
0
 48
15.0
100
AcDbBlockBegin
  2
*D52
 70
     1
 10
0.0
 20
0.0
 30
0.0
  3
*D52
  1

  0
LINE
  5
976E
330
933D
100
AcDbEntity
  8
寸法引出
 48
15.0
370
    -2
100
AcDbLine
 10
6883.667693423517
 20
2139.779571455445
 30
0.0
 11
6883.667693423517
 21
2051.171652226731
 31
0.0
  0
LINE
  5
976F
330
933D
100
AcDbEntity
  8
寸法引出
 48
15.0
370
    -2
100
AcDbLine
 10
6928.667693423516
 20
2139.779571455445
 30
0.0
 11
6928.667693423516
 21
2051.171652226731
 31
0.0
  0
LINE
  5
9770
330
933D
100
AcDbEntity
  8
寸法引出
 48
15.0
370
    -2
100
AcDbLine
 10
6861.167693423516
 20
2058.671652226731
 30
0.0
 11
6838.667693423516
 21
2058.671652226731
 31
0.0
  0
LINE
  5
9771
330
933D
100
AcDbEntity
  8
寸法引出
 48
15.0
370
    -2
100
AcDbLine
 10
6951.167693423517
 20
2058.671652226731
 30
0.0
 11
6973.667693423516
 21
2058.671652226731
 31
0.0
  0
LINE
  5
9772
330
933D
100
AcDbEntity
  8
寸法引出
 48
15.0
370
    -2
100
AcDbLine
 10
6883.667693423517
 20
2058.671652226731
 30
0.0
 11
6928.667693423516
 21
2058.671652226731
 31
0.0
  0
SOLID
  5
9773
330
933D
100
AcDbEntity
  8
寸法引出
 48
15.0
100
AcDbTrace
 10
6861.167693423516
 20
2062.421652226731
 30
0.0
 11
6861.167693423516
 21
2054.921652226731
 31
0.0
 12
6883.667693423517
 22
2058.671652226731
 32
0.0
 13
6883.667693423517
 23
2058.671652226731
 33
0.0
  0
SOLID
  5
9774
330
933D
100
AcDbEntity
  8
寸法引出
 48
15.0
100
AcDbTrace
 10
6951.167693423517
 20
2062.421652226731
 30
0.0
 11
6951.167693423517
 21
2054.921652226731
 31
0.0
 12
6928.667693423516
 22
2058.671652226731
 32
0.0
 13
6928.667693423516
 23
2058.671652226731
 33
0.0
  0
MTEXT
  5
9775
330
933D
100
AcDbEntity
  8
寸法引出
 48
15.0
100
AcDbMText
 10
6906.167693423516
 20
2088.671652226731
 30
0.0
 40
30.0
 41
0.0
 71
     5
 72
     1
  1
\A1;45
  7
SANWA
 73
     1
 44
1.0
1001
ACAD
1000
MTEXTBEGIN
1070
    73
1070
     1
1070
    44
1040
1.0
1070
    74
1070
     0
1000
MTEXTEND
  0
POINT
  5
9776
330
933D
100
AcDbEntity
  8
DEFPOINTS
 62
     0
 48
15.0
100
AcDbPoint
 10
6883.667693423517
 20
2154.779571455446
 30
0.0
  0
POINT
  5
9777
330
933D
100
AcDbEntity
  8
DEFPOINTS
 62
     0
 48
15.0
100
AcDbPoint
 10
6928.667693423516
 20
2154.779571455446
 30
0.0
  0
POINT
  5
9778
330
933D
100
AcDbEntity
  8
DEFPOINTS
 62
     0
 48
15.0
100
AcDbPoint
 10
6928.667693423516
 20
2058.671652226731
 30
0.0
  0
ENDBLK
  5
934A
330
933D
100
AcDbEntity
  8
0
 48
15.0
100
AcDbBlockEnd
  0
BLOCK
  5
9355
330
934B
100
AcDbEntity
  8
0
 48
15.0
100
AcDbBlockBegin
  2
*D53
 70
     1
 10
0.0
 20
0.0
 30
0.0
  3
*D53
  1

  0
LINE
  5
9779
330
934B
100
AcDbEntity
  8
寸法引出
 48
15.0
370
    -2
100
AcDbLine
 10
6022.006840264328
 20
2279.779571455446
 30
0.0
 11
6022.006840264328
 21
2418.753367090955
 31
0.0
  0
LINE
  5
977A
330
934B
100
AcDbEntity
  8
寸法引出
 48
15.0
370
    -2
100
AcDbLine
 10
6542.006840264328
 20
2279.779571455446
 30
0.0
 11
6542.006840264328
 21
2418.753367090955
 31
0.0
  0
LINE
  5
977B
330
934B
100
AcDbEntity
  8
寸法引出
 48
15.0
370
    -2
100
AcDbLine
 10
6044.506840264329
 20
2411.253367090954
 30
0.0
 11
6519.506840264329
 21
2411.253367090954
 31
0.0
  0
SOLID
  5
977C
330
934B
100
AcDbEntity
  8
寸法引出
 48
15.0
100
AcDbTrace
 10
6044.506840264329
 20
2415.003367090954
 30
0.0
 11
6044.506840264329
 21
2407.503367090955
 31
0.0
 12
6022.006840264328
 22
2411.253367090954
 32
0.0
 13
6022.006840264328
 23
2411.253367090954
 33
0.0
  0
SOLID
  5
977D
330
934B
100
AcDbEntity
  8
寸法引出
 48
15.0
100
AcDbTrace
 10
6519.506840264329
 20
2415.003367090954
 30
0.0
 11
6519.506840264329
 21
2407.503367090955
 31
0.0
 12
6542.006840264328
 22
2411.253367090954
 32
0.0
 13
6542.006840264328
 23
2411.253367090954
 33
0.0
  0
MTEXT
  5
977E
330
934B
100
AcDbEntity
  8
寸法引出
 48
15.0
100
AcDbMText
 10
6282.006840264329
 20
2441.253367090955
 30
0.0
 40
30.0
 41
0.0
 71
     5
 72
     1
  1
\A1;520
  7
SANWA
 73
     1
 44
1.0
1001
ACAD
1000
MTEXTBEGIN
1070
    73
1070
     1
1070
    44
1040
1.0
1070
    74
1070
     0
1000
MTEXTEND
  0
POINT
  5
977F
330
934B
100
AcDbEntity
  8
DEFPOINTS
 62
     0
 48
15.0
100
AcDbPoint
 10
6022.006840264328
 20
2264.779571455445
 30
0.0
  0
POINT
  5
9780
330
934B
100
AcDbEntity
  8
DEFPOINTS
 62
     0
 48
15.0
100
AcDbPoint
 10
6542.006840264328
 20
2264.779571455445
 30
0.0
  0
POINT
  5
9781
330
934B
100
AcDbEntity
  8
DEFPOINTS
 62
     0
 48
15.0
100
AcDbPoint
 10
6542.006840264328
 20
2411.253367090954
 30
0.0
  0
ENDBLK
  5
9356
330
934B
100
AcDbEntity
  8
0
 48
15.0
100
AcDbBlockEnd
  0
BLOCK
  5
9362
330
9357
100
AcDbEntity
  8
0
 48
15.0
100
AcDbBlockBegin
  2
*D54
 70
     1
 10
0.0
 20
0.0
 30
0.0
  3
*D54
  1

  0
LINE
  5
9782
330
9357
100
AcDbEntity
  8
寸法引出
 48
15.0
370
    -2
100
AcDbLine
 10
6542.006840264328
 20
2279.779571455446
 30
0.0
 11
6542.006840264328
 21
2354.070965038613
 31
0.0
  0
LINE
  5
9783
330
9357
100
AcDbEntity
  8
寸法引出
 48
15.0
370
    -2
100
AcDbLine
 10
6479.506840264329
 20
2346.570965038612
 30
0.0
 11
6519.506840264329
 21
2346.570965038612
 31
0.0
  0
SOLID
  5
9784
330
9357
100
AcDbEntity
  8
寸法引出
 48
15.0
100
AcDbTrace
 10
6479.506840264329
 20
2350.320965038612
 30
0.0
 11
6479.506840264329
 21
2342.820965038613
 31
0.0
 12
6457.00684026433
 22
2346.570965038612
 32
0.0
 13
6457.00684026433
 23
2346.570965038612
 33
0.0
  0
SOLID
  5
9785
330
9357
100
AcDbEntity
  8
寸法引出
 48
15.0
100
AcDbTrace
 10
6519.506840264329
 20
2350.320965038612
 30
0.0
 11
6519.506840264329
 21
2342.820965038613
 31
0.0
 12
6542.006840264328
 22
2346.570965038612
 32
0.0
 13
6542.006840264328
 23
2346.570965038612
 33
0.0
  0
MTEXT
  5
9786
330
9357
100
AcDbEntity
  8
寸法引出
 48
15.0
100
AcDbMText
 10
6499.50684026433
 20
2376.570965038613
 30
0.0
 40
30.0
 41
0.0
 71
     5
 72
     1
  1
\A1;85
  7
SANWA
 73
     1
 44
1.0
1001
ACAD
1000
MTEXTBEGIN
1070
    73
1070
     1
1070
    44
1040
1.0
1070
    74
1070
     0
1000
MTEXTEND
  0
POINT
  5
9787
330
9357
100
AcDbEntity
  8
DEFPOINTS
 62
     0
 48
15.0
100
AcDbPoint
 10
6457.00684026433
 20
2264.779571455445
 30
0.0
  0
POINT
  5
9788
330
9357
100
AcDbEntity
  8
DEFPOINTS
 62
     0
 48
15.0
100
AcDbPoint
 10
6542.006840264328
 20
2264.779571455445
 30
0.0
  0
POINT
  5
9789
330
9357
100
AcDbEntity
  8
DEFPOINTS
 62
     0
 48
15.0
100
AcDbPoint
 10
6542.006840264328
 20
2346.570965038612
 30
0.0
  0
ENDBLK
  5
9363
330
9357
100
AcDbEntity
  8
0
 48
15.0
100
AcDbBlockEnd
  0
BLOCK
  5
9370
330
9364
100
AcDbEntity
  8
0
 48
15.0
100
AcDbBlockBegin
  2
*D55
 70
     1
 10
0.0
 20
0.0
 30
0.0
  3
*D55
  1

  0
LINE
  5
978A
330
9364
100
AcDbEntity
  8
寸法引出
 48
15.0
370
    -2
100
AcDbLine
 10
6022.006840264328
 20
2279.779571455446
 30
0.0
 11
6022.006840264328
 21
2354.070965038613
 31
0.0
  0
LINE
  5
978B
330
9364
100
AcDbEntity
  8
寸法引出
 48
15.0
370
    -2
100
AcDbLine
 10
6107.00684026433
 20
2279.779571455446
 30
0.0
 11
6107.00684026433
 21
2354.070965038613
 31
0.0
  0
LINE
  5
978C
330
9364
100
AcDbEntity
  8
寸法引出
 48
15.0
370
    -2
100
AcDbLine
 10
6044.506840264329
 20
2346.570965038612
 30
0.0
 11
6084.50684026433
 21
2346.570965038612
 31
0.0
  0
SOLID
  5
978D
330
9364
100
AcDbEntity
  8
寸法引出
 48
15.0
100
AcDbTrace
 10
6044.506840264329
 20
2350.320965038612
 30
0.0
 11
6044.506840264329
 21
2342.820965038613
 31
0.0
 12
6022.006840264328
 22
2346.570965038612
 32
0.0
 13
6022.006840264328
 23
2346.570965038612
 33
0.0
  0
SOLID
  5
978E
330
9364
100
AcDbEntity
  8
寸法引出
 48
15.0
100
AcDbTrace
 10
6084.50684026433
 20
2350.320965038612
 30
0.0
 11
6084.50684026433
 21
2342.820965038613
 31
0.0
 12
6107.00684026433
 22
2346.570965038612
 32
0.0
 13
6107.00684026433
 23
2346.570965038612
 33
0.0
  0
MTEXT
  5
978F
330
9364
100
AcDbEntity
  8
寸法引出
 48
15.0
100
AcDbMText
 10
6064.506840264328
 20
2376.570965038613
 30
0.0
 40
30.0
 41
0.0
 71
     5
 72
     1
  1
\A1;85
  7
SANWA
 73
     1
 44
1.0
1001
ACAD
1000
MTEXTBEGIN
1070
    73
1070
     1
1070
    44
1040
1.0
1070
    74
1070
     0
1000
MTEXTEND
  0
POINT
  5
9790
330
9364
100
AcDbEntity
  8
DEFPOINTS
 62
     0
 48
15.0
100
AcDbPoint
 10
6022.006840264328
 20
2264.779571455445
 30
0.0
  0
POINT
  5
9791
330
9364
100
AcDbEntity
  8
DEFPOINTS
 62
     0
 48
15.0
100
AcDbPoint
 10
6107.00684026433
 20
2264.779571455445
 30
0.0
  0
POINT
  5
9792
330
9364
100
AcDbEntity
  8
DEFPOINTS
 62
     0
 48
15.0
100
AcDbPoint
 10
6107.00684026433
 20
2346.570965038612
 30
0.0
  0
ENDBLK
  5
9371
330
9364
100
AcDbEntity
  8
0
 48
15.0
100
AcDbBlockEnd
  0
BLOCK
  5
937B
330
9372
100
AcDbEntity
  8
0
 48
15.0
100
AcDbBlockBegin
  2
*D56
 70
     1
 10
0.0
 20
0.0
 30
0.0
  3
*D56
  1

  0
LINE
  5
9793
330
9372
100
AcDbEntity
  8
寸法引出
 48
15.0
370
    -2
100
AcDbLine
 10
6457.00684026433
 20
2279.779571455446
 30
0.0
 11
6457.00684026433
 21
2354.070965038613
 31
0.0
  0
LINE
  5
9794
330
9372
100
AcDbEntity
  8
寸法引出
 48
15.0
370
    -2
100
AcDbLine
 10
6129.50684026433
 20
2346.570965038612
 30
0.0
 11
6434.50684026433
 21
2346.570965038612
 31
0.0
  0
SOLID
  5
9795
330
9372
100
AcDbEntity
  8
寸法引出
 48
15.0
100
AcDbTrace
 10
6129.50684026433
 20
2350.320965038612
 30
0.0
 11
6129.50684026433
 21
2342.820965038613
 31
0.0
 12
6107.00684026433
 22
2346.570965038612
 32
0.0
 13
6107.00684026433
 23
2346.570965038612
 33
0.0
  0
SOLID
  5
9796
330
9372
100
AcDbEntity
  8
寸法引出
 48
15.0
100
AcDbTrace
 10
6434.50684026433
 20
2350.320965038612
 30
0.0
 11
6434.50684026433
 21
2342.820965038613
 31
0.0
 12
6457.00684026433
 22
2346.570965038612
 32
0.0
 13
6457.00684026433
 23
2346.570965038612
 33
0.0
  0
MTEXT
  5
9797
330
9372
100
AcDbEntity
  8
寸法引出
 48
15.0
100
AcDbMText
 10
6282.00684026433
 20
2378.456679324327
 30
0.0
 40
30.0
 41
0.0
 71
     5
 72
     1
  1
\A1;3@116.7=350
  7
SANWA
 73
     1
 44
1.0
1001
ACAD
1000
MTEXTBEGIN
1070
    73
1070
     1
1070
    44
1040
1.0
1070
    74
1070
     0
1000
MTEXTEND
  0
POINT
  5
9798
330
9372
100
AcDbEntity
  8
DEFPOINTS
 62
     0
 48
15.0
100
AcDbPoint
 10
6107.00684026433
 20
2264.779571455445
 30
0.0
  0
POINT
  5
9799
330
9372
100
AcDbEntity
  8
DEFPOINTS
 62
     0
 48
15.0
100
AcDbPoint
 10
6457.00684026433
 20
2264.779571455445
 30
0.0
  0
POINT
  5
979A
330
9372
100
AcDbEntity
  8
DEFPOINTS
 62
     0
 48
15.0
100
AcDbPoint
 10
6457.00684026433
 20
2346.570965038612
 30
0.0
  0
ENDBLK
  5
937C
330
9372
100
AcDbEntity
  8
0
 48
15.0
100
AcDbBlockEnd
  0
BLOCK
  5
9387
330
937D
100
AcDbEntity
  8
0
 48
15.0
100
AcDbBlockBegin
  2
*D57
 70
     1
 10
0.0
 20
0.0
 30
0.0
  3
*D57
  1

  0
LINE
  5
979B
330
937D
100
AcDbEntity
  8
寸法引出
 48
15.0
370
    -2
100
AcDbLine
 10
7898.667693423515
 20
2154.779571455446
 30
0.0
 11
8067.969056047106
 21
2154.779571455446
 31
0.0
  0
LINE
  5
979C
330
937D
100
AcDbEntity
  8
寸法引出
 48
15.0
370
    -2
100
AcDbLine
 10
7898.667693423515
 20
2264.779571455445
 30
0.0
 11
8067.969056047106
 21
2264.779571455445
 31
0.0
  0
LINE
  5
979D
330
937D
100
AcDbEntity
  8
寸法引出
 48
15.0
370
    -2
100
AcDbLine
 10
8060.469056047107
 20
2177.279571455446
 30
0.0
 11
8060.469056047107
 21
2242.279571455445
 31
0.0
  0
SOLID
  5
979E
330
937D
100
AcDbEntity
  8
寸法引出
 48
15.0
100
AcDbTrace
 10
8056.719056047105
 20
2177.279571455446
 30
0.0
 11
8064.219056047106
 21
2177.279571455446
 31
0.0
 12
8060.469056047107
 22
2154.779571455446
 32
0.0
 13
8060.469056047107
 23
2154.779571455446
 33
0.0
  0
SOLID
  5
979F
330
937D
100
AcDbEntity
  8
寸法引出
 48
15.0
100
AcDbTrace
 10
8056.719056047105
 20
2242.279571455445
 30
0.0
 11
8064.219056047106
 21
2242.279571455445
 31
0.0
 12
8060.469056047107
 22
2264.779571455445
 32
0.0
 13
8060.469056047107
 23
2264.779571455445
 33
0.0
  0
MTEXT
  5
97A0
330
937D
100
AcDbEntity
  8
寸法引出
 48
15.0
100
AcDbMText
 10
8030.469056047106
 20
2209.779571455447
 30
0.0
 40
30.0
 41
0.0
 71
     5
 72
     1
  1
\A1;110
  7
SANWA
 11
0.0000000000000001
 21
1.0
 31
0.0
 73
     1
 44
1.0
1001
ACAD
1000
MTEXTBEGIN
1070
    73
1070
     1
1070
    44
1040
1.0
1070
    74
1070
     0
1000
MTEXTEND
  0
POINT
  5
97A1
330
937D
100
AcDbEntity
  8
DEFPOINTS
 62
     0
 48
15.0
100
AcDbPoint
 10
7883.667693423515
 20
2154.779571455446
 30
0.0
  0
POINT
  5
97A2
330
937D
100
AcDbEntity
  8
DEFPOINTS
 62
     0
 48
15.0
100
AcDbPoint
 10
7883.667693423515
 20
2264.779571455445
 30
0.0
  0
POINT
  5
97A3
330
937D
100
AcDbEntity
  8
DEFPOINTS
 62
     0
 48
15.0
100
AcDbPoint
 10
8060.469056047107
 20
2264.779571455445
 30
0.0
  0
ENDBLK
  5
9388
330
937D
100
AcDbEntity
  8
0
 48
15.0
100
AcDbBlockEnd
  0
BLOCK
  5
9392
330
9389
100
AcDbEntity
  8
0
 48
15.0
100
AcDbBlockBegin
  2
*D58
 70
     1
 10
0.0
 20
0.0
 30
0.0
  3
*D58
  1

  0
LINE
  5
97A4
330
9389
100
AcDbEntity
  8
寸法引出
 48
15.0
370
    -2
100
AcDbLine
 10
7898.667693423515
 20
2264.779571455445
 30
0.0
 11
7998.098553801246
 21
2264.779571455445
 31
0.0
  0
LINE
  5
97A5
330
9389
100
AcDbEntity
  8
寸法引出
 48
15.0
370
    -2
100
AcDbLine
 10
7990.598553801247
 20
2207.279571455446
 30
0.0
 11
7990.598553801247
 21
2242.279571455445
 31
0.0
  0
SOLID
  5
97A6
330
9389
100
AcDbEntity
  8
寸法引出
 48
15.0
100
AcDbTrace
 10
7986.848553801246
 20
2207.279571455446
 30
0.0
 11
7994.348553801247
 21
2207.279571455446
 31
0.0
 12
7990.598553801247
 22
2184.779571455445
 32
0.0
 13
7990.598553801247
 23
2184.779571455445
 33
0.0
  0
SOLID
  5
97A7
330
9389
100
AcDbEntity
  8
寸法引出
 48
15.0
100
AcDbTrace
 10
7986.848553801246
 20
2242.279571455445
 30
0.0
 11
7994.348553801247
 21
2242.279571455445
 31
0.0
 12
7990.598553801247
 22
2264.779571455445
 32
0.0
 13
7990.598553801247
 23
2264.779571455445
 33
0.0
  0
MTEXT
  5
97A8
330
9389
100
AcDbEntity
  8
寸法引出
 48
15.0
100
AcDbMText
 10
7960.598553801246
 20
2224.779571455447
 30
0.0
 40
30.0
 41
0.0
 71
     5
 72
     1
  1
\A1;80
  7
SANWA
 11
0.0000000000000001
 21
1.0
 31
0.0
 73
     1
 44
1.0
1001
ACAD
1000
MTEXTBEGIN
1070
    73
1070
     1
1070
    44
1040
1.0
1070
    74
1070
     0
1000
MTEXTEND
  0
POINT
  5
97A9
330
9389
100
AcDbEntity
  8
DEFPOINTS
 62
     0
 48
15.0
100
AcDbPoint
 10
7883.667693423515
 20
2184.779571455445
 30
0.0
  0
POINT
  5
97AA
330
9389
100
AcDbEntity
  8
DEFPOINTS
 62
     0
 48
15.0
100
AcDbPoint
 10
7883.667693423515
 20
2264.779571455445
 30
0.0
  0
POINT
  5
97AB
330
9389
100
AcDbEntity
  8
DEFPOINTS
 62
     0
 48
15.0
100
AcDbPoint
 10
7990.598553801247
 20
2264.779571455445
 30
0.0
  0
ENDBLK
  5
9393
330
9389
100
AcDbEntity
  8
0
 48
15.0
100
AcDbBlockEnd
  0
BLOCK
  5
939F
330
9394
100
AcDbEntity
  8
0
 48
15.0
100
AcDbBlockBegin
  2
*D59
 70
     1
 10
0.0
 20
0.0
 30
0.0
  3
*D59
  1

  0
LINE
  5
97AC
330
9394
100
AcDbEntity
  8
寸法引出
 48
15.0
370
    -2
100
AcDbLine
 10
7883.667693423515
 20
2139.779571455445
 30
0.0
 11
7883.667693423515
 21
2051.171652226731
 31
0.0
  0
LINE
  5
97AD
330
9394
100
AcDbEntity
  8
寸法引出
 48
15.0
370
    -2
100
AcDbLine
 10
7816.167693423515
 20
2058.671652226731
 30
0.0
 11
7793.667693423515
 21
2058.671652226731
 31
0.0
  0
LINE
  5
97AE
330
9394
100
AcDbEntity
  8
寸法引出
 48
15.0
370
    -2
100
AcDbLine
 10
7906.167693423515
 20
2058.671652226731
 30
0.0
 11
7928.667693423514
 21
2058.671652226731
 31
0.0
  0
LINE
  5
97AF
330
9394
100
AcDbEntity
  8
寸法引出
 48
15.0
370
    -2
100
AcDbLine
 10
7838.667693423515
 20
2058.671652226731
 30
0.0
 11
7883.667693423515
 21
2058.671652226731
 31
0.0
  0
SOLID
  5
97B0
330
9394
100
AcDbEntity
  8
寸法引出
 48
15.0
100
AcDbTrace
 10
7816.167693423515
 20
2062.421652226731
 30
0.0
 11
7816.167693423515
 21
2054.921652226731
 31
0.0
 12
7838.667693423515
 22
2058.671652226731
 32
0.0
 13
7838.667693423515
 23
2058.671652226731
 33
0.0
  0
SOLID
  5
97B1
330
9394
100
AcDbEntity
  8
寸法引出
 48
15.0
100
AcDbTrace
 10
7906.167693423515
 20
2062.421652226731
 30
0.0
 11
7906.167693423515
 21
2054.921652226731
 31
0.0
 12
7883.667693423515
 22
2058.671652226731
 32
0.0
 13
7883.667693423515
 23
2058.671652226731
 33
0.0
  0
MTEXT
  5
97B2
330
9394
100
AcDbEntity
  8
寸法引出
 48
15.0
100
AcDbMText
 10
7861.167693423515
 20
2088.671652226731
 30
0.0
 40
30.0
 41
0.0
 71
     5
 72
     1
  1
\A1;45
  7
SANWA
 73
     1
 44
1.0
1001
ACAD
1000
MTEXTBEGIN
1070
    73
1070
     1
1070
    44
1040
1.0
1070
    74
1070
     0
1000
MTEXTEND
  0
POINT
  5
97B3
330
9394
100
AcDbEntity
  8
DEFPOINTS
 62
     0
 48
15.0
100
AcDbPoint
 10
7838.667693423515
 20
2154.779571455446
 30
0.0
  0
POINT
  5
97B4
330
9394
100
AcDbEntity
  8
DEFPOINTS
 62
     0
 48
15.0
100
AcDbPoint
 10
7883.667693423515
 20
2154.779571455446
 30
0.0
  0
POINT
  5
97B5
330
9394
100
AcDbEntity
  8
DEFPOINTS
 62
     0
 48
15.0
100
AcDbPoint
 10
7883.667693423515
 20
2058.671652226731
 30
0.0
  0
ENDBLK
  5
93A0
330
9394
100
AcDbEntity
  8
0
 48
15.0
100
AcDbBlockEnd
  0
BLOCK
  5
93AB
330
93A1
100
AcDbEntity
  8
0
 48
15.0
100
AcDbBlockBegin
  2
*D60
 70
     1
 10
0.0
 20
0.0
 30
0.0
  3
*D60
  1

  0
LINE
  5
9632
330
93A1
100
AcDbEntity
  8
寸法引出
 48
15.0
370
    -2
100
AcDbLine
 10
1266.379639973106
 20
1741.56774768701
 30
0.0
 11
1185.078843988344
 21
1741.56774768701
 31
0.0
  0
LINE
  5
9633
330
93A1
100
AcDbEntity
  8
寸法引出
 48
15.0
370
    -2
100
AcDbLine
 10
1266.379639973106
 20
1621.56774768701
 30
0.0
 11
1185.078843988344
 21
1621.56774768701
 31
0.0
  0
LINE
  5
9634
330
93A1
100
AcDbEntity
  8
寸法引出
 48
15.0
370
    -2
100
AcDbLine
 10
1192.578843988344
 20
1719.067747687011
 30
0.0
 11
1192.578843988344
 21
1644.06774768701
 31
0.0
  0
SOLID
  5
9635
330
93A1
100
AcDbEntity
  8
寸法引出
 48
15.0
100
AcDbTrace
 10
1188.828843988344
 20
1719.067747687011
 30
0.0
 11
1196.328843988344
 21
1719.067747687011
 31
0.0
 12
1192.578843988344
 22
1741.56774768701
 32
0.0
 13
1192.578843988344
 23
1741.56774768701
 33
0.0
  0
SOLID
  5
9636
330
93A1
100
AcDbEntity
  8
寸法引出
 48
15.0
100
AcDbTrace
 10
1188.828843988344
 20
1644.06774768701
 30
0.0
 11
1196.328843988344
 21
1644.06774768701
 31
0.0
 12
1192.578843988344
 22
1621.56774768701
 32
0.0
 13
1192.578843988344
 23
1621.56774768701
 33
0.0
  0
MTEXT
  5
9637
330
93A1
100
AcDbEntity
  8
寸法引出
 48
15.0
100
AcDbMText
 10
1162.578843988343
 20
1681.567747687011
 30
0.0
 40
30.0
 41
0.0
 71
     5
 72
     1
  1
\A1;120
  7
SANWA
 11
0.0000000000000001
 21
1.0
 31
0.0
 73
     1
 44
1.0
1001
ACAD
1000
MTEXTBEGIN
1070
    73
1070
     1
1070
    44
1040
1.0
1070
    74
1070
     0
1000
MTEXTEND
  0
POINT
  5
9638
330
93A1
100
AcDbEntity
  8
DEFPOINTS
 62
     0
 48
15.0
100
AcDbPoint
 10
1281.379639973106
 20
1741.56774768701
 30
0.0
  0
POINT
  5
9639
330
93A1
100
AcDbEntity
  8
DEFPOINTS
 62
     0
 48
15.0
100
AcDbPoint
 10
1281.379639973106
 20
1621.56774768701
 30
0.0
  0
POINT
  5
963A
330
93A1
100
AcDbEntity
  8
DEFPOINTS
 62
     0
 48
15.0
100
AcDbPoint
 10
1192.578843988344
 20
1621.56774768701
 30
0.0
  0
ENDBLK
  5
93AC
330
93A1
100
AcDbEntity
  8
0
 48
15.0
100
AcDbBlockEnd
  0
BLOCK
  5
93B7
330
93AD
100
AcDbEntity
  8
0
 48
15.0
100
AcDbBlockBegin
  2
*D61
 70
     1
 10
0.0
 20
0.0
 30
0.0
  3
*D61
  1

  0
LINE
  5
963B
330
93AD
100
AcDbEntity
  8
寸法引出
 48
15.0
370
    -2
100
AcDbLine
 10
1816.379639973106
 20
1741.56774768701
 30
0.0
 11
1926.163834391271
 21
1741.56774768701
 31
0.0
  0
LINE
  5
963C
330
93AD
100
AcDbEntity
  8
寸法引出
 48
15.0
370
    -2
100
AcDbLine
 10
1816.379639973106
 20
741.5677476870105
 30
0.0
 11
1926.16383439127
 21
741.5677476870105
 31
0.0
  0
LINE
  5
963D
330
93AD
100
AcDbEntity
  8
寸法引出
 48
15.0
370
    -2
100
AcDbLine
 10
1918.663834391271
 20
1719.067747687011
 30
0.0
 11
1918.66383439127
 21
764.0677476870105
 31
0.0
  0
SOLID
  5
963E
330
93AD
100
AcDbEntity
  8
寸法引出
 48
15.0
100
AcDbTrace
 10
1914.913834391271
 20
1719.067747687011
 30
0.0
 11
1922.41383439127
 21
1719.067747687011
 31
0.0
 12
1918.663834391271
 22
1741.56774768701
 32
0.0
 13
1918.663834391271
 23
1741.56774768701
 33
0.0
  0
SOLID
  5
963F
330
93AD
100
AcDbEntity
  8
寸法引出
 48
15.0
100
AcDbTrace
 10
1914.913834391271
 20
764.0677476870105
 30
0.0
 11
1922.41383439127
 21
764.0677476870105
 31
0.0
 12
1918.66383439127
 22
741.5677476870105
 32
0.0
 13
1918.66383439127
 23
741.5677476870105
 33
0.0
  0
MTEXT
  5
9640
330
93AD
100
AcDbEntity
  8
寸法引出
 48
15.0
100
AcDbMText
 10
1888.66383439127
 20
1241.567747687011
 30
0.0
 40
30.0
 41
0.0
 71
     5
 72
     1
  1
\A1;1000
  7
SANWA
 11
0.0000000000000001
 21
1.0
 31
0.0
 73
     1
 44
1.0
1001
ACAD
1000
MTEXTBEGIN
1070
    73
1070
     1
1070
    44
1040
1.0
1070
    74
1070
     0
1000
MTEXTEND
  0
POINT
  5
9641
330
93AD
100
AcDbEntity
  8
DEFPOINTS
 62
     0
 48
15.0
100
AcDbPoint
 10
1801.379639973106
 20
1741.56774768701
 30
0.0
  0
POINT
  5
9642
330
93AD
100
AcDbEntity
  8
DEFPOINTS
 62
     0
 48
15.0
100
AcDbPoint
 10
1801.379639973106
 20
741.5677476870105
 30
0.0
  0
POINT
  5
9643
330
93AD
100
AcDbEntity
  8
DEFPOINTS
 62
     0
 48
15.0
100
AcDbPoint
 10
1918.66383439127
 20
741.5677476870105
 30
0.0
  0
ENDBLK
  5
93B8
330
93AD
100
AcDbEntity
  8
0
 48
15.0
100
AcDbBlockEnd
  0
BLOCK
  5
93C5
330
93B9
100
AcDbEntity
  8
0
 48
15.0
100
AcDbBlockBegin
  2
*D62
 70
     1
 10
0.0
 20
0.0
 30
0.0
  3
*D62
  1

  0
LINE
  5
9644
330
93B9
100
AcDbEntity
  8
寸法引出
 48
15.0
370
    -2
100
AcDbLine
 10
1281.379639973106
 20
726.5677476870105
 30
0.0
 11
1281.379639973106
 21
603.919695900613
 31
0.0
  0
LINE
  5
9645
330
93B9
100
AcDbEntity
  8
寸法引出
 48
15.0
370
    -2
100
AcDbLine
 10
1311.379639973106
 20
726.5677476870105
 30
0.0
 11
1311.379639973106
 21
603.919695900613
 31
0.0
  0
LINE
  5
9646
330
93B9
100
AcDbEntity
  8
寸法引出
 48
15.0
370
    -2
100
AcDbLine
 10
1258.879639973106
 20
611.4196959006131
 30
0.0
 11
1236.379639973106
 21
611.4196959006131
 31
0.0
  0
LINE
  5
9647
330
93B9
100
AcDbEntity
  8
寸法引出
 48
15.0
370
    -2
100
AcDbLine
 10
1333.879639973106
 20
611.4196959006131
 30
0.0
 11
1356.379639973106
 21
611.4196959006131
 31
0.0
  0
LINE
  5
9648
330
93B9
100
AcDbEntity
  8
寸法引出
 48
15.0
370
    -2
100
AcDbLine
 10
1281.379639973106
 20
611.4196959006131
 30
0.0
 11
1311.379639973106
 21
611.4196959006131
 31
0.0
  0
SOLID
  5
9649
330
93B9
100
AcDbEntity
  8
寸法引出
 48
15.0
100
AcDbTrace
 10
1258.879639973106
 20
615.169695900613
 30
0.0
 11
1258.879639973106
 21
607.669695900613
 31
0.0
 12
1281.379639973106
 22
611.4196959006131
 32
0.0
 13
1281.379639973106
 23
611.4196959006131
 33
0.0
  0
SOLID
  5
964A
330
93B9
100
AcDbEntity
  8
寸法引出
 48
15.0
100
AcDbTrace
 10
1333.879639973106
 20
615.169695900613
 30
0.0
 11
1333.879639973106
 21
607.669695900613
 31
0.0
 12
1311.379639973106
 22
611.4196959006131
 32
0.0
 13
1311.379639973106
 23
611.4196959006131
 33
0.0
  0
MTEXT
  5
964B
330
93B9
100
AcDbEntity
  8
寸法引出
 48
15.0
100
AcDbMText
 10
1296.379639973106
 20
641.419695900613
 30
0.0
 40
30.0
 41
0.0
 71
     5
 72
     1
  1
\A1;30
  7
SANWA
 73
     1
 44
1.0
1001
ACAD
1000
MTEXTBEGIN
1070
    73
1070
     1
1070
    44
1040
1.0
1070
    74
1070
     0
1000
MTEXTEND
  0
POINT
  5
964C
330
93B9
100
AcDbEntity
  8
DEFPOINTS
 62
     0
 48
15.0
100
AcDbPoint
 10
1281.379639973106
 20
741.5677476870105
 30
0.0
  0
POINT
  5
964D
330
93B9
100
AcDbEntity
  8
DEFPOINTS
 62
     0
 48
15.0
100
AcDbPoint
 10
1311.379639973106
 20
741.5677476870105
 30
0.0
  0
POINT
  5
964E
330
93B9
100
AcDbEntity
  8
DEFPOINTS
 62
     0
 48
15.0
100
AcDbPoint
 10
1311.379639973106
 20
611.4196959006131
 30
0.0
  0
ENDBLK
  5
93C6
330
93B9
100
AcDbEntity
  8
0
 48
15.0
100
AcDbBlockEnd
  0
BLOCK
  5
93D0
330
93C7
100
AcDbEntity
  8
0
 48
15.0
100
AcDbBlockBegin
  2
*D63
 70
     1
 10
0.0
 20
0.0
 30
0.0
  3
*D63
  1

  0
LINE
  5
964F
330
93C7
100
AcDbEntity
  8
寸法引出
 48
15.0
370
    -2
100
AcDbLine
 10
1771.379639973106
 20
726.5677476870105
 30
0.0
 11
1771.379639973106
 21
603.919695900613
 31
0.0
  0
LINE
  5
9650
330
93C7
100
AcDbEntity
  8
寸法引出
 48
15.0
370
    -2
100
AcDbLine
 10
1333.879639973106
 20
611.4196959006131
 30
0.0
 11
1748.879639973106
 21
611.4196959006131
 31
0.0
  0
SOLID
  5
9651
330
93C7
100
AcDbEntity
  8
寸法引出
 48
15.0
100
AcDbTrace
 10
1333.879639973106
 20
615.169695900613
 30
0.0
 11
1333.879639973106
 21
607.669695900613
 31
0.0
 12
1311.379639973106
 22
611.4196959006131
 32
0.0
 13
1311.379639973106
 23
611.4196959006131
 33
0.0
  0
SOLID
  5
9652
330
93C7
100
AcDbEntity
  8
寸法引出
 48
15.0
100
AcDbTrace
 10
1748.879639973106
 20
615.169695900613
 30
0.0
 11
1748.879639973106
 21
607.669695900613
 31
0.0
 12
1771.379639973106
 22
611.4196959006131
 32
0.0
 13
1771.379639973106
 23
611.4196959006131
 33
0.0
  0
MTEXT
  5
9653
330
93C7
100
AcDbEntity
  8
寸法引出
 48
15.0
100
AcDbMText
 10
1541.379639973106
 20
641.419695900613
 30
0.0
 40
30.0
 41
0.0
 71
     5
 72
     1
  1
\A1;460
  7
SANWA
 73
     1
 44
1.0
1001
ACAD
1000
MTEXTBEGIN
1070
    73
1070
     1
1070
    44
1040
1.0
1070
    74
1070
     0
1000
MTEXTEND
  0
POINT
  5
9654
330
93C7
100
AcDbEntity
  8
DEFPOINTS
 62
     0
 48
15.0
100
AcDbPoint
 10
1311.379639973106
 20
741.5677476870105
 30
0.0
  0
POINT
  5
9655
330
93C7
100
AcDbEntity
  8
DEFPOINTS
 62
     0
 48
15.0
100
AcDbPoint
 10
1771.379639973106
 20
741.5677476870105
 30
0.0
  0
POINT
  5
9656
330
93C7
100
AcDbEntity
  8
DEFPOINTS
 62
     0
 48
15.0
100
AcDbPoint
 10
1771.379639973106
 20
611.4196959006131
 30
0.0
  0
ENDBLK
  5
93D1
330
93C7
100
AcDbEntity
  8
0
 48
15.0
100
AcDbBlockEnd
  0
BLOCK
  5
93DD
330
93D2
100
AcDbEntity
  8
0
 48
15.0
100
AcDbBlockBegin
  2
*D64
 70
     1
 10
0.0
 20
0.0
 30
0.0
  3
*D64
  1

  0
LINE
  5
9657
330
93D2
100
AcDbEntity
  8
寸法引出
 48
15.0
370
    -2
100
AcDbLine
 10
1801.379639973106
 20
726.5677476870105
 30
0.0
 11
1801.379639973106
 21
603.919695900613
 31
0.0
  0
LINE
  5
9658
330
93D2
100
AcDbEntity
  8
寸法引出
 48
15.0
370
    -2
100
AcDbLine
 10
1748.879639973106
 20
611.4196959006131
 30
0.0
 11
1726.379639973106
 21
611.4196959006131
 31
0.0
  0
LINE
  5
9659
330
93D2
100
AcDbEntity
  8
寸法引出
 48
15.0
370
    -2
100
AcDbLine
 10
1823.879639973106
 20
611.4196959006131
 30
0.0
 11
1846.379639973106
 21
611.4196959006131
 31
0.0
  0
LINE
  5
965A
330
93D2
100
AcDbEntity
  8
寸法引出
 48
15.0
370
    -2
100
AcDbLine
 10
1771.379639973106
 20
611.4196959006131
 30
0.0
 11
1801.379639973106
 21
611.4196959006131
 31
0.0
  0
SOLID
  5
965B
330
93D2
100
AcDbEntity
  8
寸法引出
 48
15.0
100
AcDbTrace
 10
1748.879639973106
 20
615.169695900613
 30
0.0
 11
1748.879639973106
 21
607.669695900613
 31
0.0
 12
1771.379639973106
 22
611.4196959006131
 32
0.0
 13
1771.379639973106
 23
611.4196959006131
 33
0.0
  0
SOLID
  5
965C
330
93D2
100
AcDbEntity
  8
寸法引出
 48
15.0
100
AcDbTrace
 10
1823.879639973106
 20
615.169695900613
 30
0.0
 11
1823.879639973106
 21
607.669695900613
 31
0.0
 12
1801.379639973106
 22
611.4196959006131
 32
0.0
 13
1801.379639973106
 23
611.4196959006131
 33
0.0
  0
MTEXT
  5
965D
330
93D2
100
AcDbEntity
  8
寸法引出
 48
15.0
100
AcDbMText
 10
1786.379639973105
 20
641.419695900613
 30
0.0
 40
30.0
 41
0.0
 71
     5
 72
     1
  1
\A1;30
  7
SANWA
 73
     1
 44
1.0
1001
ACAD
1000
MTEXTBEGIN
1070
    73
1070
     1
1070
    44
1040
1.0
1070
    74
1070
     0
1000
MTEXTEND
  0
POINT
  5
965E
330
93D2
100
AcDbEntity
  8
DEFPOINTS
 62
     0
 48
15.0
100
AcDbPoint
 10
1771.379639973106
 20
741.5677476870105
 30
0.0
  0
POINT
  5
965F
330
93D2
100
AcDbEntity
  8
DEFPOINTS
 62
     0
 48
15.0
100
AcDbPoint
 10
1801.379639973106
 20
741.5677476870105
 30
0.0
  0
POINT
  5
9660
330
93D2
100
AcDbEntity
  8
DEFPOINTS
 62
     0
 48
15.0
100
AcDbPoint
 10
1801.379639973106
 20
611.4196959006131
 30
0.0
  0
ENDBLK
  5
93DE
330
93D2
100
AcDbEntity
  8
0
 48
15.0
100
AcDbBlockEnd
  0
ENDSEC
  0
SECTION
  2
ENTITIES
  0
LINE
  5
8FF1
330
747D
100
AcDbEntity
  8
枠
100
AcDbLine
 10
375.0
 20
3000.0
 30
0.0
 11
4305.0
 21
3000.0
 31
0.0
  0
LINE
  5
8FF2
330
747D
100
AcDbEntity
  8
枠
100
AcDbLine
 10
375.0
 20
150.0000000000018
 30
0.0
 11
4305.0
 21
150.0000000000018
 31
0.0
  0
LINE
  5
8FF3
330
747D
100
AcDbEntity
  8
0
 62
     0
100
AcDbLine
 10
3202.531914893609
 20
594.0000000000036
 30
0.0
 11
4305.0
 21
594.0000000000036
 31
0.0
  0
LINE
  5
8FF4
330
747D
100
AcDbEntity
  8
0
100
AcDbLine
 10
3202.531914893609
 20
306.0000000000014
 30
0.0
 11
4305.0
 21
306.0000000000014
 31
0.0
  0
TEXT
  5
8FF5
330
747D
100
AcDbEntity
  8
0
100
AcDbText
 10
3800.223100303947
 20
534.0000000000031
 30
0.0
 40
24.0
  1
マルチスリット側溝蓋
  7
SANWA
 72
     4
 11
3975.765957446805
 21
546.0000000000031
 31
0.0
100
AcDbText
  0
TEXT
  5
8FF6
330
747D
100
AcDbEntity
  8
0
100
AcDbText
 10
3766.408313412455
 20
206.7188724106802
 30
0.0
 40
24.0
  1
三和コンクリート工業株式会社
  7
SANWA
100
AcDbText
  0
LINE
  5
8FF7
330
747D
100
AcDbEntity
  8
0
 62
     0
100
AcDbLine
 10
3598.531914893604
 20
498.0000000000041
 30
0.0
 11
4305.0
 21
498.0000000000041
 31
0.0
  0
LINE
  5
8FF8
330
747D
100
AcDbEntity
  8
0
 62
     0
100
AcDbLine
 10
3598.531914893604
 20
402.0000000000027
 30
0.0
 11
4305.0
 21
402.0000000000027
 31
0.0
  0
DIMENSION
  5
8FF9
330
747D
100
AcDbEntity
  8
寸法引出
 48
15.0
100
AcDbDimension
  2
*D60
 10
1192.578843988344
 20
1621.56774768701
 30
0.0
 11
1162.578843988343
 21
1681.567747687011
 31
0.0
 70
    32
 71
     5
 42
120.0
  3
SANWA
100
AcDbAlignedDimension
 13
1281.379639973106
 23
1741.56774768701
 33
0.0
 14
1281.379639973106
 24
1621.56774768701
 34
0.0
 50
90.0
100
AcDbRotatedDimension
1001
ACAD
1000
DSTYLE
1002
{
1070
   140
1040
2.0
1070
    40
1040
15.0
1070
   147
1040
1.0
1070
    44
1040
0.5
1070
    43
1040
5.0
1070
   178
1070
   256
1070
   177
1070
   256
1070
   176
1070
   256
1070
    41
1040
1.5
1002
}
  0
LINE
  5
8FFA
330
747D
100
AcDbEntity
  8
0
 48
15.0
100
AcDbLine
 10
1281.379639973106
 20
1741.56774768701
 30
0.0
 11
1281.379639973106
 21
741.5677476870105
 31
0.0
  0
LINE
  5
8FFB
330
747D
100
AcDbEntity
  8
0
 48
15.0
100
AcDbLine
 10
1801.379639973106
 20
1741.56774768701
 30
0.0
 11
1801.379639973106
 21
741.5677476870105
 31
0.0
  0
DIMENSION
  5
8FFC
330
747D
100
AcDbEntity
  8
寸法引出
 48
15.0
100
AcDbDimension
  2
*D61
 10
1918.66383439127
 20
741.5677476870105
 30
0.0
 11
1888.66383439127
 21
1241.567747687011
 31
0.0
 70
    32
 71
     5
 42
1000.0
  3
SANWA
100
AcDbAlignedDimension
 13
1801.379639973106
 23
1741.56774768701
 33
0.0
 14
1801.379639973106
 24
741.5677476870105
 34
0.0
 50
90.0
100
AcDbRotatedDimension
1001
ACAD
1000
DSTYLE
1002
{
1070
   140
1040
2.0
1070
    40
1040
15.0
1070
   147
1040
1.0
1070
    44
1040
0.5
1070
    43
1040
5.0
1070
   178
1070
   256
1070
   177
1070
   256
1070
   176
1070
   256
1070
    41
1040
1.5
1002
}
  0
LINE
  5
8FFD
330
747D
100
AcDbEntity
  8
枠
100
AcDbLine
 10
375.0
 20
150.0
 30
0.0
 11
375.0
 21
3000.0
 31
0.0
  0
LINE
  5
906F
330
747D
100
AcDbEntity
  8
0
100
AcDbLine
 10
375.0
 20
0.0
 30
0.0
 11
0.0
 21
0.0
 31
0.0
  0
LINE
  5
9070
330
747D
100
AcDbEntity
  8
0
100
AcDbLine
 10
0.0
 20
0.0
 30
0.0
 11
0.0
 21
150.0
 31
0.0
  0
DIMENSION
  5
9071
330
747D
100
AcDbEntity
  8
寸法引出
 48
15.0
100
AcDbDimension
  2
*D62
 10
1311.379639973106
 20
611.4196959006131
 30
0.0
 11
1296.379639973106
 21
641.419695900613
 31
0.0
 70
    32
 71
     5
 42
30.0
  3
SANWA
100
AcDbAlignedDimension
 13
1281.379639973106
 23
741.5677476870105
 33
0.0
 14
1311.379639973106
 24
741.5677476870105
 34
0.0
100
AcDbRotatedDimension
1001
ACAD
1000
DSTYLE
1002
{
1070
   140
1040
2.0
1070
    40
1040
15.0
1070
   147
1040
1.0
1070
    44
1040
0.5
1070
    43
1040
5.0
1070
   178
1070
   256
1070
   177
1070
   256
1070
   176
1070
   256
1070
    41
1040
1.5
1002
}
  0
DIMENSION
  5
9072
330
747D
100
AcDbEntity
  8
寸法引出
 48
15.0
100
AcDbDimension
  2
*D63
 10
1771.379639973106
 20
611.4196959006131
 30
0.0
 11
1541.379639973106
 21
641.419695900613
 31
0.0
 70
    32
 71
     5
 42
460.0
  3
SANWA
100
AcDbAlignedDimension
 13
1311.379639973106
 23
741.5677476870105
 33
0.0
 14
1771.379639973106
 24
741.5677476870105
 34
0.0
100
AcDbRotatedDimension
1001
ACAD
1000
DSTYLE
1002
{
1070
    40
1040
15.0
1070
    41
1040
1.5
1070
    43
1040
5.0
1070
    44
1040
0.5
1070
    75
1070
     1
1070
   140
1040
2.0
1070
   147
1040
1.0
1070
   176
1070
   256
1070
   177
1070
   256
1070
   178
1070
   256
1070
   279
1070
     1
1002
}
  0
DIMENSION
  5
9073
330
747D
100
AcDbEntity
  8
寸法引出
 48
15.0
100
AcDbDimension
  2
*D64
 10
1801.379639973106
 20
611.4196959006131
 30
0.0
 11
1786.379639973105
 21
641.419695900613
 31
0.0
 70
    32
 71
     5
 42
30.0
  3
SANWA
100
AcDbAlignedDimension
 13
1771.379639973106
 23
741.5677476870105
 33
0.0
 14
1801.379639973106
 24
741.5677476870105
 34
0.0
100
AcDbRotatedDimension
1001
ACAD
1000
DSTYLE
1002
{
1070
    40
1040
15.0
1070
    41
1040
1.5
1070
    43
1040
5.0
1070
    44
1040
0.5
1070
    75
1070
     1
1070
   140
1040
2.0
1070
   147
1040
1.0
1070
   176
1070
   256
1070
   177
1070
   256
1070
   178
1070
   256
1070
   279
1070
     1
1002
}
  0
HATCH
  5
9074
330
747D
100
AcDbEntity
  8
0
100
AcDbHatch
 10
0.0
 20
0.0
 30
0.0
210
0.0
220
0.0
230
1.0
  2
SOLID
 70
     1
 71
     0
 91
        6
 92
        7
 72
     1
 73
     1
 93
        4
 10
3650.86334988054
 20
255.87579280976
 42
0.0
 10
3658.515314664832
 20
248.2238280254696
 42
-0.3722683533228755
 10
3701.757113998773
 20
248.2238280254633
 42
0.0
 10
3709.409078783061
 20
255.8757928097575
 42
0.3824979940290032
 97
        0
 92
       22
 72
     1
 73
     1
 93
        4
 10
3705.864308023084
 20
255.7251345994753
 42
0.0
 10
3701.588030276404
 20
251.4488568527961
 42
0.3367429548950839
 10
3658.684398387197
 20
251.4488568527988
 42
0.0
 10
3654.408120640516
 20
255.7251345994775
 42
-0.3477704275231004
 97
        0
 92
        7
 72
     1
 73
     1
 93
        4
 10
3705.151226548468
 20
244.8297154757679
 42
-0.6168583269097676
 10
3682.53621433181
 20
190.2322462690642
 42
0.0
 10
3682.536214331804
 20
179.4107338923179
 42
0.629288915937916
 10
3712.803191332756
 20
252.4816802600617
 42
0.0
 97
        0
 92
       22
 72
     1
 73
     1
 93
        4
 10
3712.652533122476
 20
248.9369095000845
 42
-0.5873104908888777
 10
3684.936214331802
 20
182.0237967765809
 42
0.0
 10
3684.936214331802
 20
188.0713667624095
 42
0.5741105922167029
 10
3708.376255375795
 20
244.6606317534056
 42
0.0
 97
        0
 92
        7
 72
     1
 73
     1
 93
        4
 10
3647.469237330845
 20
252.4816802600653
 42
0.6292889159380128
 10
3677.736214331801
 20
179.4107338923175
 42
0.0
 10
3677.736214331801
 20
190.2322462690631
 42
-0.6168583269100097
 10
3655.121202115136
 20
244.8297154757752
 42
0.0
 97
        0
 92
       22
 72
     1
 73
     1
 93
        4
 10
3651.896173287806
 20
244.660631753409
 42
0.5741105922168146
 10
3675.336214331804
 20
188.0713667624086
 42
0.0
 10
3675.336214331804
 20
182.0237967765799
 42
-0.5873104908889749
 10
3647.619895541126
 20
248.9369095000879
 42
0.0
 97
        0
 75
     0
 76
     1
 47
0.0143554168026844
 98
        6
 10
3699.348496783976
 20
260.8853257705127
 10
3699.348496783976
 20
260.8853257705127
 10
3708.313957346866
 20
246.9318614530635
 10
3708.313957346866
 20
246.9318614530635
 10
3652.96945335604
 20
246.4150661606036
 10
3652.96945335604
 20
246.4150661606036
  0
HATCH
  5
9075
330
747D
100
AcDbEntity
  8
0
100
AcDbHatch
 10
0.0
 20
0.0
 30
0.0
210
0.0
220
0.0
230
1.0
  2
SOLID
 70
     1
 71
     1
 91
        4
 92
        7
 72
     1
 73
     1
 93
        2
 10
3580.099665576616
 20
210.1723780814391
 42
1.0
 10
3484.12941288952
 20
210.1723780814391
 42
1.0
 97
        1
330
907A
 92
       22
 72
     1
 73
     1
 93
        2
 10
3577.699665576616
 20
210.1723780814391
 42
1.0
 10
3486.52941288952
 20
210.1723780814391
 42
1.0
 97
        1
330
9079
 92
      136
 93
        4
 72
     1
 10
3507.567673631712
 20
206.2085613265999
 11
3558.653387917426
 21
206.2085613265999
 72
     1
 10
3558.653387917426
 20
206.2085613265999
 11
3558.653387917426
 21
254.1399898980285
 72
     1
 10
3558.653387917426
 20
254.1399898980285
 11
3507.567673631712
 21
254.1399898980285
 72
     1
 10
3507.567673631712
 20
254.1399898980285
 11
3507.567673631712
 21
206.2085613265999
 97
        1
330
907B
 92
      136
 93
        4
 72
     1
 10
3507.483303068929
 20
173.8148930975109
 11
3557.609017354644
 21
173.8148930975109
 72
     1
 10
3557.609017354644
 20
173.8148930975109
 11
3557.609017354644
 21
218.8663216689395
 72
     1
 10
3557.609017354644
 20
218.8663216689395
 11
3507.483303068929
 21
218.8663216689395
 72
     1
 10
3507.483303068929
 20
218.8663216689395
 11
3507.483303068929
 21
173.8148930975109
 97
        1
330
9095
 75
     0
 76
     1
 47
0.0602706122334892
 98
        2
 10
3555.104825099378
 20
251.4216291822174
 10
3555.104825099378
 20
251.4216291822174
  0
HATCH
  5
9076
330
747D
100
AcDbEntity
  8
0
100
AcDbHatch
 10
0.0
 20
0.0
 30
0.0
210
0.0
220
0.0
230
1.0
  2
SOLID
 70
     1
 71
     1
 91
        2
 92
        7
 72
     1
 73
     1
 93
        2
 10
3316.270522133096
 20
207.4272557095
 42
1.0
 10
3220.300269446001
 20
207.4272557095
 42
1.0
 97
        1
330
9086
 92
       22
 72
     1
 73
     1
 93
        2
 10
3313.870522133096
 20
207.4272557095
 42
1.0
 10
3222.700269446001
 20
207.4272557095
 42
1.0
 97
        1
330
9085
 75
     0
 76
     1
 47
0.0602706122334892
 98
        2
 10
3291.275681655859
 20
248.6765068102784
 10
3291.275681655859
 20
248.6765068102784
  0
TEXT
  5
9077
330
747D
100
AcDbEntity
  8
0
100
AcDbText
 10
3666.709002834934
 20
230.6320916026407
 30
0.0
 40
18.0
  1
三
  7
SANWA
100
AcDbText
  0
LINE
  5
9078
330
747D
100
AcDbEntity
  8
0
100
AcDbLine
 10
3334.531914893606
 20
150.0000000000018
 30
0.0
 11
3334.531914893606
 21
342.0000000000027
 31
0.0
  0
CIRCLE
  5
9079
102
{ACAD_REACTORS
330
9075
102
}
330
747D
100
AcDbEntity
  8
0
100
AcDbCircle
 10
3532.114539233068
 20
210.1723780814391
 30
0.0
 40
45.58512634354756
  0
CIRCLE
  5
907A
102
{ACAD_REACTORS
330
9075
102
}
330
747D
100
AcDbEntity
  8
0
100
AcDbCircle
 10
3532.114539233068
 20
210.1723780814391
 30
0.0
 40
47.98512634354756
  0
TEXT
  5
907B
102
{ACAD_REACTORS
330
9075
102
}
330
747D
100
AcDbEntity
  8
0
 48
2.0
100
AcDbText
 10
3515.556245060282
 20
218.1742756123142
 30
0.0
 40
24.0
  1
中
  7
SANWA
100
AcDbText
  0
ARC
  5
907C
330
747D
100
AcDbEntity
  8
0
100
AcDbCircle
 10
3680.136214331799
 20
223.2088158088008
 30
0.0
 40
41.46378893304791
100
AcDbArc
 50
141.6476737861968
 51
263.3523262138003
  0
ARC
  5
907D
330
747D
100
AcDbEntity
  8
0
100
AcDbCircle
 10
3680.136214331799
 20
223.2088158088008
 30
0.0
 40
43.86378893304791
100
AcDbArc
 50
138.1364954470838
 51
266.8635045529118
  0
ARC
  5
907E
330
747D
100
AcDbEntity
  8
0
100
AcDbCircle
 10
3680.136214331799
 20
223.2088158088008
 30
0.0
 40
35.46378893304791
100
AcDbArc
 50
142.7788203119036
 51
262.2211796881018
  0
ARC
  5
907F
330
747D
100
AcDbEntity
  8
0
100
AcDbCircle
 10
3680.136214331799
 20
223.2088158088008
 30
0.0
 40
33.06378893304791
100
AcDbArc
 50
139.1625874111315
 51
265.8374125888673
  0
LINE
  5
9080
330
747D
100
AcDbEntity
  8
0
100
AcDbLine
 10
3466.531914893607
 20
150.0000000000018
 30
0.0
 11
3466.531914893607
 21
306.0000000000014
 31
0.0
  0
ARC
  5
9081
330
747D
100
AcDbEntity
  8
0
100
AcDbCircle
 10
3680.136214331799
 20
223.2088158088008
 30
0.0
 40
33.06378893304791
100
AcDbArc
 50
274.1625874111327
 51
40.83741258886862
  0
ARC
  5
9082
330
747D
100
AcDbEntity
  8
0
100
AcDbCircle
 10
3680.136214331799
 20
223.2088158088008
 30
0.0
 40
35.46378893304791
100
AcDbArc
 50
277.7788203118981
 51
37.22117968809609
  0
ARC
  5
9083
330
747D
100
AcDbEntity
  8
0
100
AcDbCircle
 10
3680.136214331799
 20
223.2088158088008
 30
0.0
 40
43.86378893304791
100
AcDbArc
 50
273.1364954470882
 51
41.8635045529165
  0
ARC
  5
9084
330
747D
100
AcDbEntity
  8
0
100
AcDbCircle
 10
3680.136214331799
 20
223.2088158088008
 30
0.0
 40
41.46378893304791
100
AcDbArc
 50
276.6476737861997
 51
38.35232621380323
  0
CIRCLE
  5
9085
102
{ACAD_REACTORS
330
9076
102
}
330
747D
100
AcDbEntity
  8
0
100
AcDbCircle
 10
3268.285395789548
 20
207.4272557095
 30
0.0
 40
45.58512634354756
  0
CIRCLE
  5
9086
102
{ACAD_REACTORS
330
9076
102
}
330
747D
100
AcDbEntity
  8
0
100
AcDbCircle
 10
3268.285395789548
 20
207.4272557095
 30
0.0
 40
47.98512634354756
  0
TEXT
  5
9087
330
747D
100
AcDbEntity
  8
0
 48
2.0
100
AcDbText
 10
3251.727101616764
 20
210.5982979690022
 30
0.0
 40
24.0
  1
河
  7
SANWA
100
AcDbText
  0
LINE
  5
9088
330
747D
100
AcDbEntity
  8
0
 62
     0
100
AcDbLine
 10
3202.531914893609
 20
378.0000000000023
 30
0.0
 11
3202.531914893609
 21
150.0000000000018
 31
0.0
  0
LINE
  5
9089
330
747D
100
AcDbEntity
  8
0
100
AcDbLine
 10
3598.531914893604
 20
150.0000000000018
 30
0.0
 11
3598.531914893604
 21
594.0000000000036
 31
0.0
  0
HATCH
  5
908A
330
747D
100
AcDbEntity
  8
0
100
AcDbHatch
 10
0.0
 20
0.0
 30
0.0
210
0.0
220
0.0
230
1.0
  2
SOLID
 70
     1
 71
     1
 91
        4
 92
        7
 72
     1
 73
     1
 93
        2
 10
3367.397445347336
 20
72.91679629800182
 42
1.0
 10
3271.427192660241
 20
72.91679629800182
 42
1.0
 97
        1
330
908D
 92
       22
 72
     1
 73
     1
 93
        2
 10
3364.997445347337
 20
72.91679629800182
 42
1.0
 10
3273.827192660241
 20
72.91679629800182
 42
1.0
 97
        1
330
908C
 92
      136
 93
        4
 72
     1
 10
3294.934024831004
 20
68.28126186921323
 11
3345.882596259575
 21
68.28126186921323
 72
     1
 10
3345.882596259575
 20
68.28126186921323
 11
3345.882596259575
 21
115.8012618692132
 72
     1
 10
3345.882596259575
 20
115.8012618692132
 11
3294.934024831004
 21
115.8012618692132
 72
     1
 10
3294.934024831004
 20
115.8012618692132
 11
3294.934024831004
 21
68.28126186921323
 97
        1
330
908E
 92
       24
 93
        4
 72
     1
 10
3295.123939982508
 20
32.6241521874162
 11
3344.563939982509
 21
32.6241521874162
 72
     1
 10
3344.563939982509
 20
32.6241521874162
 11
3344.563939982509
 21
75.61843790170191
 72
     1
 10
3344.563939982509
 20
75.61843790170191
 11
3295.123939982508
 21
75.61843790170191
 72
     1
 10
3295.123939982508
 20
75.61843790170191
 11
3295.123939982508
 21
32.6241521874162
 97
        1
330
908B
 75
     0
 76
     1
 47
0.0602706122334892
 98
        2
 10
3342.402604870099
 20
114.1660473987801
 10
3342.402604870099
 20
114.1660473987801
  0
TEXT
  5
908B
102
{ACAD_REACTORS
330
908A
102
}
330
747D
100
AcDbEntity
  8
0
 48
2.0
100
AcDbText
 10
3302.289654268223
 20
43.08129504455905
 30
0.0
 40
24.0
  1
田
  7
SANWA
100
AcDbText
  0
CIRCLE
  5
908C
102
{ACAD_REACTORS
330
908A
102
}
330
747D
100
AcDbEntity
  8
0
100
AcDbCircle
 10
3319.412319003788
 20
72.91679629800182
 30
0.0
 40
45.58512634354756
  0
CIRCLE
  5
908D
102
{ACAD_REACTORS
330
908A
102
}
330
747D
100
AcDbEntity
  8
0
100
AcDbCircle
 10
3319.412319003788
 20
72.91679629800182
 30
0.0
 40
47.98512634354756
  0
TEXT
  5
908E
102
{ACAD_REACTORS
330
908A
102
}
330
747D
100
AcDbEntity
  8
0
 48
2.0
100
AcDbText
 10
3302.854024831005
 20
79.62983329778467
 30
0.0
 40
24.0
  1
蒔
  7
SANWA
100
AcDbText
  0
TEXT
  5
908F
330
747D
100
AcDbEntity
  8
0
 48
2.0
100
AcDbText
 10
3251.16273105399
 20
176.6274868827722
 30
0.0
 40
24.0
  1
口
  7
SANWA
100
AcDbText
  0
HATCH
  5
9090
330
747D
100
AcDbEntity
  8
0
100
AcDbHatch
 10
0.0
 20
0.0
 30
0.0
210
0.0
220
0.0
230
1.0
  2
SOLID
 70
     1
 71
     1
 91
        4
 92
        7
 72
     1
 73
     1
 93
        2
 10
3488.793176312837
 20
72.91679629800182
 42
1.0
 10
3392.822923625742
 20
72.91679629800182
 42
1.0
 97
        1
330
9091
 92
       22
 72
     1
 73
     1
 93
        2
 10
3486.393176312837
 20
72.91679629800182
 42
1.0
 10
3395.222923625742
 20
72.91679629800182
 42
1.0
 97
        1
330
9092
 92
      136
 93
        4
 72
     1
 10
3416.638327225069
 20
71.11297954316265
 11
3466.969755796498
 21
71.11297954316265
 72
     1
 10
3466.969755796498
 20
71.11297954316265
 11
3466.969755796498
 21
116.7815509717341
 72
     1
 10
3466.969755796498
 20
116.7815509717341
 11
3416.638327225069
 21
116.7815509717341
 72
     1
 10
3416.638327225069
 20
116.7815509717341
 11
3416.638327225069
 21
71.11297954316265
 97
        1
330
9094
 92
      136
 93
        4
 72
     1
 10
3415.696813805152
 20
35.3935970283594
 11
3466.782528090866
 21
35.3935970283594
 72
     1
 10
3466.782528090866
 20
35.3935970283594
 11
3466.782528090866
 21
83.32502559978797
 72
     1
 10
3466.782528090866
 20
83.32502559978797
 11
3415.696813805152
 21
83.32502559978797
 72
     1
 10
3415.696813805152
 20
83.32502559978797
 11
3415.696813805152
 21
35.3935970283594
 97
        1
330
9093
 75
     0
 76
     1
 47
0.0602706122334892
 98
        2
 10
3463.798335835593
 20
114.1660473987801
 10
3463.798335835593
 20
114.1660473987801
  0
CIRCLE
  5
9091
102
{ACAD_REACTORS
330
9090
102
}
330
747D
100
AcDbEntity
  8
0
100
AcDbCircle
 10
3440.80804996929
 20
72.91679629800182
 30
0.0
 40
47.98512634354756
  0
CIRCLE
  5
9092
102
{ACAD_REACTORS
330
9090
102
}
330
747D
100
AcDbEntity
  8
0
100
AcDbCircle
 10
3440.80804996929
 20
72.91679629800182
 30
0.0
 40
45.58512634354756
  0
TEXT
  5
9093
102
{ACAD_REACTORS
330
9090
102
}
330
747D
100
AcDbEntity
  8
0
 48
2.0
100
AcDbText
 10
3423.685385233723
 20
46.9478827426451
 30
0.0
 40
24.0
  1
嶋
  7
SANWA
100
AcDbText
  0
TEXT
  5
9094
102
{ACAD_REACTORS
330
9090
102
}
330
747D
100
AcDbEntity
  8
0
 48
2.0
100
AcDbText
 10
3424.249755796497
 20
80.91869382887693
 30
0.0
 40
24.0
  1
大
  7
SANWA
100
AcDbText
  0
TEXT
  5
9095
102
{ACAD_REACTORS
330
9075
102
}
330
747D
100
AcDbEntity
  8
0
 48
2.0
100
AcDbText
 10
3514.991874497501
 20
184.2034645260824
 30
0.0
 40
24.0
  1
川
  7
SANWA
100
AcDbText
  0
LINE
  5
9096
330
747D
100
AcDbEntity
  8
0
100
AcDbLine
 10
3677.736214331801
 20
179.4107338923181
 30
0.0
 11
3677.736214331801
 21
190.232246269062
 31
0.0
  0
LINE
  5
9097
330
747D
100
AcDbEntity
  8
0
100
AcDbLine
 10
3682.536214331804
 20
179.4107338923181
 30
0.0
 11
3682.53621433181
 21
190.2322462690636
 31
0.0
  0
LINE
  5
9098
330
747D
100
AcDbEntity
  8
0
100
AcDbLine
 10
3684.936214331802
 20
182.0237967765802
 30
0.0
 11
3684.936214331802
 21
188.0713667624081
 31
0.0
  0
LINE
  5
9099
330
747D
100
AcDbEntity
  8
0
100
AcDbLine
 10
3675.336214331804
 20
182.0237967765802
 30
0.0
 11
3675.336214331804
 21
188.0713667624081
 31
0.0
  0
TEXT
  5
909A
330
747D
100
AcDbEntity
  8
0
100
AcDbText
 10
3666.709002834934
 20
206.7188724106802
 30
0.0
 40
18.0
  1
和
  7
SANWA
100
AcDbText
  0
LINE
  5
909B
330
747D
100
AcDbEntity
  8
0
 62
     0
100
AcDbLine
 10
3202.531914893609
 20
546.0000000000031
 30
0.0
 11
3598.531914893604
 21
546.0000000000031
 31
0.0
  0
LINE
  5
909C
330
747D
100
AcDbEntity
  8
0
 62
     0
100
AcDbLine
 10
3202.531914893609
 20
546.0000000000031
 30
0.0
 11
3598.531914893604
 21
546.0000000000031
 31
0.0
  0
LINE
  5
909D
330
747D
100
AcDbEntity
  8
0
 62
     0
100
AcDbLine
 10
3202.531914893609
 20
342.0000000000027
 30
0.0
 11
3598.531914893611
 21
342.0000000000027
 31
0.0
  0
LINE
  5
909E
330
747D
100
AcDbEntity
  8
0
 62
     0
100
AcDbLine
 10
3202.531914893609
 20
474.0000000000036
 30
0.0
 11
3598.531914893604
 21
474.0000000000036
 31
0.0
  0
LINE
  5
909F
330
747D
100
AcDbEntity
  8
0
 62
     0
100
AcDbLine
 10
3202.531914893609
 20
426.0000000000031
 30
0.0
 11
3598.531914893604
 21
426.0000000000031
 31
0.0
  0
LINE
  5
90A0
330
747D
100
AcDbEntity
  8
0
 62
     0
100
AcDbLine
 10
3202.531914893609
 20
270.0000000000018
 30
0.0
 11
3598.531914893611
 21
270.0000000000018
 31
0.0
  0
TEXT
  5
90A1
330
747D
100
AcDbEntity
  8
0
 48
2.0
100
AcDbText
 10
3325.407362835256
 20
557.2772861648263
 30
0.0
 40
24.0
  1
図面
  7
SANWA
100
AcDbText
  0
LINE
  5
90A2
330
747D
100
AcDbEntity
  8
0
 62
     0
100
AcDbLine
 10
3202.531914893609
 20
522.0000000000027
 30
0.0
 11
3202.531914893609
 21
378.0000000000023
 31
0.0
  0
LINE
  5
90A3
330
747D
100
AcDbEntity
  8
0
100
AcDbLine
 10
3202.531914893609
 20
436.0565675878984
 30
0.0
 11
3202.531914893609
 21
529.2701469420904
 31
0.0
  0
LINE
  5
90A4
330
747D
100
AcDbEntity
  8
0
100
AcDbLine
 10
3202.531914893609
 20
378.0000000000023
 30
0.0
 11
3202.531914893609
 21
299.9351497097659
 31
0.0
  0
LINE
  5
90A5
330
747D
100
AcDbEntity
  8
0
100
AcDbLine
 10
3202.531914893609
 20
342.0000000000027
 30
0.0
 11
3202.531914893609
 21
378.0000000000023
 31
0.0
  0
LINE
  5
90A6
330
747D
100
AcDbEntity
  8
0
100
AcDbLine
 10
3202.531914893609
 20
342.0000000000027
 30
0.0
 11
3202.531914893609
 21
306.0000000000014
 31
0.0
  0
TEXT
  5
90A7
330
747D
100
AcDbEntity
  8
0
 48
2.0
100
AcDbText
 10
3234.749396044363
 20
313.2513790084822
 30
0.0
 40
24.0
  1
製図
  7
SANWA
100
AcDbText
  0
TEXT
  5
90A8
330
747D
100
AcDbEntity
  8
0
 48
2.0
100
AcDbText
 10
3231.216179933133
 20
275.7717951156462
 30
0.0
 40
24.0
  1
検図
  7
SANWA
100
AcDbText
  0
LINE
  5
90A9
330
747D
100
AcDbEntity
  8
0
100
AcDbLine
 10
3202.531914893609
 20
402.0000000000027
 30
0.0
 11
3202.531914893609
 21
436.0565675878984
 31
0.0
  0
LINE
  5
90AA
330
747D
100
AcDbEntity
  8
0
100
AcDbLine
 10
3202.531914893609
 20
594.0000000000036
 30
0.0
 11
3202.531914893609
 21
522.0000000000027
 31
0.0
  0
TEXT
  5
90AB
330
747D
100
AcDbEntity
  8
0
 48
2.0
100
AcDbText
 10
3608.763425308405
 20
466.4348193000683
 30
0.0
 40
16.79999999999999
  1
呼
  7
SANWA
100
AcDbText
  0
LINE
  5
90AC
330
747D
100
AcDbEntity
  8
0
100
AcDbLine
 10
3646.531914893607
 20
306.0000000000014
 30
0.0
 11
3646.531914893607
 21
594.0000000000036
 31
0.0
  0
TEXT
  5
90AD
330
747D
100
AcDbEntity
  8
0
 48
2.0
100
AcDbText
 10
3609.288067929331
 20
360.6846153128759
 30
0.0
 40
16.79999999999999
  1
規
  7
SANWA
100
AcDbText
  0
TEXT
  5
90AE
330
747D
100
AcDbEntity
  8
0
 48
2.0
100
AcDbText
 10
3388.972302949399
 20
313.2513790084822
 30
0.0
 40
24.0
  1
2000.12.21
  7
SANWA
100
AcDbText
  0
TEXT
  5
90AF
330
747D
100
AcDbEntity
  8
0
 48
2.0
100
AcDbText
 10
3498.749396044362
 20
277.2513790084827
 30
0.0
 40
24.0
  1
製図
  7
SANWA
100
AcDbText
  0
TEXT
  5
90B0
330
747D
100
AcDbEntity
  8
0
 48
2.0
100
AcDbText
 10
3369.075985825585
 20
277.1357177512964
 30
0.0
 40
24.0
  1
設計
  7
SANWA
100
AcDbText
  0
ARC
  5
90B1
330
747D
100
AcDbEntity
  8
0
100
AcDbCircle
 10
3680.136214331799
 20
223.2088158088008
 30
0.0
 40
33.06378893304791
100
AcDbArc
 50
49.16258741113054
 51
130.8374125888695
  0
ARC
  5
90B2
330
747D
100
AcDbEntity
  8
0
100
AcDbCircle
 10
3680.136214331799
 20
223.2088158088008
 30
0.0
 40
35.46378893304791
100
AcDbArc
 50
52.77882031190218
 51
127.2211796880978
  0
ARC
  5
90B3
330
747D
100
AcDbEntity
  8
0
100
AcDbCircle
 10
3680.136214331799
 20
223.2088158088008
 30
0.0
 40
41.46378893304791
100
AcDbArc
 50
51.64767378620835
 51
128.352326213792
  0
ARC
  5
90B4
330
747D
100
AcDbEntity
  8
0
100
AcDbCircle
 10
3680.136214331799
 20
223.2088158088008
 30
0.0
 40
43.86378893304791
100
AcDbArc
 50
48.13649544708951
 51
131.8635045529106
  0
LINE
  5
90B5
330
747D
100
AcDbEntity
  8
0
100
AcDbLine
 10
3658.515314664835
 20
248.2238280254664
 30
0.0
 11
3650.816888003558
 21
255.922254686742
 31
0.0
  0
LINE
  5
90B6
330
747D
100
AcDbEntity
  8
0
100
AcDbLine
 10
3655.12120211514
 20
244.8297154757715
 30
0.0
 11
3647.422775453863
 21
252.5281421370471
 31
0.0
  0
LINE
  5
90B7
330
747D
100
AcDbEntity
  8
0
100
AcDbLine
 10
3651.896173287809
 20
244.6606317534054
 30
0.0
 11
3647.619895541127
 21
248.9369095000866
 31
0.0
  0
LINE
  5
90B8
330
747D
100
AcDbEntity
  8
0
100
AcDbLine
 10
3658.6843983872
 20
251.4488568527968
 30
0.0
 11
3654.408120640517
 21
255.7251345994764
 31
0.0
  0
LINE
  5
90B9
330
747D
100
AcDbEntity
  8
0
100
AcDbLine
 10
3705.151226548471
 20
244.8297154757715
 30
0.0
 11
3712.803191332758
 21
252.4816802600629
 31
0.0
  0
LINE
  5
90BA
330
747D
100
AcDbEntity
  8
0
100
AcDbLine
 10
3701.757113998777
 20
248.2238280254664
 30
0.0
 11
3709.409078783063
 21
255.8757928097593
 31
0.0
  0
LINE
  5
90BB
330
747D
100
AcDbEntity
  8
0
100
AcDbLine
 10
3701.588030276405
 20
251.4488568527968
 30
0.0
 11
3705.864308023087
 21
255.725134599478
 31
0.0
  0
LINE
  5
90BC
330
747D
100
AcDbEntity
  8
0
100
AcDbLine
 10
3708.376255375795
 20
244.6606317534054
 30
0.0
 11
3712.652533122477
 21
248.9369095000866
 31
0.0
  0
TEXT
  5
90BD
330
747D
100
AcDbEntity
  8
0
 48
2.0
100
AcDbText
 10
3609.288067929331
 20
324.9410917409398
 30
0.0
 40
16.79999999999999
  1
格
  7
SANWA
100
AcDbText
  0
TEXT
  5
90BE
330
747D
100
AcDbEntity
  8
0
 48
2.0
100
AcDbText
 10
3326.458873159416
 20
434.3839146702152
 30
0.0
 40
24.0
  1
縮    尺
  7
SANWA
100
AcDbText
  0
TEXT
  5
90BF
330
747D
100
AcDbEntity
  8
0
 48
2.0
100
AcDbText
 10
3341.538433474464
 20
378.5853012973512
 30
0.0
 40
24.0
  1
1 : 15
  7
SANWA
100
AcDbText
  0
TEXT
  5
90C0
330
747D
100
AcDbEntity
  8
0
 48
2.0
100
AcDbText
 10
3608.525134886852
 20
443.4326160008049
 30
0.0
 40
16.79999999999999
  1
び
  7
SANWA
100
AcDbText
  0
TEXT
  5
90C1
330
747D
100
AcDbEntity
  8
0
 48
2.0
100
AcDbText
 10
3608.865365864922
 20
419.9263485547305
 30
0.0
 40
16.79999999999999
  1
名
  7
SANWA
100
AcDbText
  0
TEXT
  5
90C2
330
747D
100
AcDbEntity
  8
0
100
AcDbText
 10
3905.548814589661
 20
341.588571428575
 30
0.0
 40
24.0
  1
４００用
  7
SANWA
 72
     4
 11
3975.765957446805
 21
354.0000000000036
 31
0.0
100
AcDbText
  0
TEXT
  5
90C3
330
747D
100
AcDbEntity
  8
0
100
AcDbText
 10
3940.657386018233
 20
436.6971428571463
 30
0.0
 40
24.0
  1
Ｂ型
  7
SANWA
 72
     4
 11
3975.765957446805
 21
450.0000000000034
 31
0.0
100
AcDbText
  0
TEXT
  5
90C4
330
747D
100
AcDbEntity
  8
0
 48
2.0
100
AcDbText
 10
3392.339284911456
 20
558.6411916425954
 30
0.0
 40
24.0
  1
番号
  7
SANWA
100
AcDbText
  0
LINE
  5
90C5
330
747D
100
AcDbEntity
  8
0
100
AcDbLine
 10
3598.531914893604
 20
594.0000000000036
 30
0.0
 11
3621.27727230544
 21
594.0000000000036
 31
0.0
  0
TEXT
  5
90C6
330
747D
100
AcDbEntity
  8
0
 48
2.0
100
AcDbText
 10
3609.743097260969
 20
560.3768966870496
 30
0.0
 40
16.79999999999999
  1
品
  7
SANWA
100
AcDbText
  0
TEXT
  5
90C7
330
747D
100
AcDbEntity
  8
0
 48
2.0
100
AcDbText
 10
3608.833038597707
 20
520.9962632445933
 30
0.0
 40
16.79999999999999
  1
名
  7
SANWA
100
AcDbText
  0
DIMENSION
  5
90C8
330
747D
100
AcDbEntity
  8
寸法引出
 48
15.0
100
AcDbDimension
  2
*D22
 10
1192.578843988344
 20
861.5677476870105
 30
0.0
 11
1162.578843988343
 21
1241.567747687011
 31
0.0
 70
    32
 71
     5
 42
759.9999999999998
  3
SANWA
100
AcDbAlignedDimension
 13
1281.379639973106
 23
1621.56774768701
 33
0.0
 14
1281.379639973106
 24
861.5677476870105
 34
0.0
 50
90.0
100
AcDbRotatedDimension
1001
ACAD
1000
DSTYLE
1002
{
1070
    40
1040
15.0
1070
    41
1040
1.5
1070
    43
1040
5.0
1070
    44
1040
0.5
1070
    75
1070
     1
1070
   140
1040
2.0
1070
   147
1040
1.0
1070
   176
1070
   256
1070
   177
1070
   256
1070
   178
1070
   256
1070
   279
1070
     1
1002
}
  0
LINE
  5
90C9
330
747D
100
AcDbEntity
  8
0
 48
15.0
100
AcDbLine
 10
1281.379639973106
 20
741.5677476870105
 30
0.0
 11
1801.379639973106
 21
741.5677476870105
 31
0.0
  0
DIMENSION
  5
90CA
330
747D
100
AcDbEntity
  8
寸法引出
 48
15.0
100
AcDbDimension
  2
*D23
 10
1192.578843988344
 20
741.5677476870106
 30
0.0
 11
1162.578843988343
 21
801.5677476870108
 31
0.0
 70
    32
 71
     5
 42
120.0
  3
SANWA
100
AcDbAlignedDimension
 13
1281.379639973106
 23
861.5677476870105
 33
0.0
 14
1281.379639973106
 24
741.5677476870105
 34
0.0
 50
90.0
100
AcDbRotatedDimension
1001
ACAD
1000
DSTYLE
1002
{
1070
    40
1040
15.0
1070
    41
1040
1.5
1070
    43
1040
5.0
1070
    44
1040
0.5
1070
    75
1070
     1
1070
   140
1040
2.0
1070
   147
1040
1.0
1070
   176
1070
   256
1070
   177
1070
   256
1070
   178
1070
   256
1070
   279
1070
     1
1002
}
  0
CIRCLE
  5
90CB
330
747D
100
AcDbEntity
  8
0
 48
15.0
100
AcDbCircle
 10
1311.379639973106
 20
861.5677476870105
 30
0.0
 40
10.0
  0
CIRCLE
  5
90CC
330
747D
100
AcDbEntity
  8
0
 48
15.0
100
AcDbCircle
 10
1771.379639973106
 20
861.5677476870105
 30
0.0
 40
10.0
  0
CIRCLE
  5
90CD
330
747D
100
AcDbEntity
  8
0
 48
15.0
100
AcDbCircle
 10
1311.379639973106
 20
1621.56774768701
 30
0.0
 40
10.0
  0
CIRCLE
  5
90CE
330
747D
100
AcDbEntity
  8
0
 48
15.0
100
AcDbCircle
 10
1771.379639973106
 20
1621.56774768701
 30
0.0
 40
10.0
  0
LINE
  5
90CF
330
747D
100
AcDbEntity
  8
0
100
AcDbLine
 10
0.0
 20
3150.0
 30
0.0
 11
375.0
 21
3150.0
 31
0.0
  0
LINE
  5
90D0
330
747D
100
AcDbEntity
  8
0
100
AcDbLine
 10
0.0
 20
3000.0
 30
0.0
 11
0.0
 21
3150.0
 31
0.0
  0
LINE
  5
90D1
330
747D
100
AcDbEntity
  8
0
100
AcDbLine
 10
1578.978726667996
 20
2688.000000000001
 30
0.0
 11
2942.400196294205
 21
2688.000000000001
 31
0.0
  0
LINE
  5
90D2
330
747D
100
AcDbEntity
  8
0
 48
15.0
100
AcDbLine
 10
2143.040493132293
 20
2264.779567641652
 30
0.0
 11
3143.040493132293
 21
2264.779567641652
 31
0.0
  0
LINE
  5
90D3
330
747D
100
AcDbEntity
  8
0
 48
15.0
100
AcDbLine
 10
2143.040493132293
 20
2154.779567641652
 30
0.0
 11
3143.040493132293
 21
2154.779567641652
 31
0.0
  0
DIMENSION
  5
90D4
330
747D
100
AcDbEntity
  8
寸法引出
 48
15.0
100
AcDbDimension
  2
*D24
 10
3023.040493132294
 20
2080.142148029828
 30
0.0
 11
2643.040493132293
 21
2110.142148029828
 31
0.0
 70
    32
 71
     5
 42
760.0
  3
SANWA
100
AcDbAlignedDimension
 13
2263.040493132293
 23
2154.779567641652
 33
0.0
 14
3023.040493132294
 24
2154.779567641652
 34
0.0
100
AcDbRotatedDimension
1001
ACAD
1000
DSTYLE
1002
{
1070
    40
1040
15.0
1070
    41
1040
1.5
1070
    43
1040
5.0
1070
    44
1040
0.5
1070
    75
1070
     1
1070
   140
1040
2.0
1070
   147
1040
1.0
1070
   176
1070
   256
1070
   177
1070
   256
1070
   178
1070
   256
1070
   279
1070
     1
1002
}
  0
DIMENSION
  5
90D5
330
747D
100
AcDbEntity
  8
寸法引出
 48
15.0
100
AcDbDimension
  2
*D25
 10
3143.040493132293
 20
2360.47267715487
 30
0.0
 11
2643.040493132293
 21
2390.47267715487
 31
0.0
 70
    32
 71
     5
 42
1000.0
  3
SANWA
100
AcDbAlignedDimension
 13
2143.040493132293
 23
2264.779567641652
 33
0.0
 14
3143.040493132293
 24
2264.779567641652
 34
0.0
100
AcDbRotatedDimension
1001
ACAD
1000
DSTYLE
1002
{
1070
   140
1040
2.0
1070
    40
1040
15.0
1070
   147
1040
1.0
1070
    44
1040
0.5
1070
    43
1040
5.0
1070
   178
1070
   256
1070
   177
1070
   256
1070
   176
1070
   256
1070
    41
1040
1.5
1002
}
  0
LINE
  5
90D6
330
747D
100
AcDbEntity
  8
0
 48
15.0
100
AcDbLine
 10
2143.040493132293
 20
2264.779567641652
 30
0.0
 11
2143.040493132293
 21
2154.779567641652
 31
0.0
  0
LINE
  5
90D7
330
747D
100
AcDbEntity
  8
0
 48
15.0
100
AcDbLine
 10
1795.90451337318
 20
2264.779567641652
 30
0.0
 11
1795.90451337318
 21
2154.779567641652
 31
0.0
  0
DIMENSION
  5
90D8
330
747D
100
AcDbEntity
  8
寸法引出
 48
15.0
100
AcDbDimension
  2
*D26
 10
1916.938707791345
 20
2154.779567641652
 30
0.0
 11
1886.938707791344
 21
2209.779567641653
 31
0.0
 70
    32
 71
     5
 42
110.0
  3
SANWA
100
AcDbAlignedDimension
 13
1795.90451337318
 23
2264.779567641652
 33
0.0
 14
1795.90451337318
 24
2154.779567641652
 34
0.0
 50
90.0
100
AcDbRotatedDimension
1001
ACAD
1000
DSTYLE
1002
{
1070
   140
1040
2.0
1070
    40
1040
15.0
1070
   147
1040
1.0
1070
    44
1040
0.5
1070
    43
1040
5.0
1070
   178
1070
   256
1070
   177
1070
   256
1070
   176
1070
   256
1070
    41
1040
1.5
1002
}
  0
LINE
  5
90D9
330
747D
100
AcDbEntity
  8
0
 48
15.0
100
AcDbLine
 10
1275.90451337318
 20
2264.779567641652
 30
0.0
 11
1275.90451337318
 21
2154.779567641652
 31
0.0
  0
LINE
  5
90DA
330
747D
100
AcDbEntity
  8
0
 48
15.0
100
AcDbLine
 10
1275.90451337318
 20
2154.779567641652
 30
0.0
 11
1795.90451337318
 21
2154.779567641652
 31
0.0
  0
DIMENSION
  5
90DB
330
747D
100
AcDbEntity
  8
寸法引出
 48
15.0
100
AcDbDimension
  2
*D27
 10
1765.90451337318
 20
2080.142148029828
 30
0.0
 11
1535.90451337318
 21
2110.142148029828
 31
0.0
 70
    32
 71
     5
 42
460.0
  3
SANWA
100
AcDbAlignedDimension
 13
1305.90451337318
 23
2154.779567641652
 33
0.0
 14
1765.90451337318
 24
2154.779567641652
 34
0.0
100
AcDbRotatedDimension
1001
ACAD
1000
DSTYLE
1002
{
1070
    40
1040
15.0
1070
    41
1040
1.5
1070
    43
1040
5.0
1070
    44
1040
0.5
1070
    75
1070
     1
1070
   140
1040
2.0
1070
   147
1040
1.0
1070
   176
1070
   256
1070
   177
1070
   256
1070
   178
1070
   256
1070
   279
1070
     1
1002
}
  0
DIMENSION
  5
90DC
330
747D
100
AcDbEntity
  8
寸法引出
 48
15.0
100
AcDbDimension
  2
*D28
 10
1795.90451337318
 20
2080.142148029828
 30
0.0
 11
1780.90451337318
 21
2110.142148029828
 31
0.0
 70
    32
 71
     5
 42
30.0
  3
SANWA
100
AcDbAlignedDimension
 13
1765.90451337318
 23
2154.779567641652
 33
0.0
 14
1795.90451337318
 24
2154.779567641652
 34
0.0
100
AcDbRotatedDimension
1001
ACAD
1000
DSTYLE
1002
{
1070
    40
1040
15.0
1070
    41
1040
1.5
1070
    43
1040
5.0
1070
    44
1040
0.5
1070
    75
1070
     1
1070
   140
1040
2.0
1070
   147
1040
1.0
1070
   176
1070
   256
1070
   177
1070
   256
1070
   178
1070
   256
1070
   279
1070
     1
1002
}
  0
LINE
  5
90DD
330
747D
100
AcDbEntity
  8
0
 48
15.0
100
AcDbLine
 10
1281.379639973106
 20
1741.56774768701
 30
0.0
 11
1801.379639973106
 21
1741.56774768701
 31
0.0
  0
DIMENSION
  5
90DE
330
747D
100
AcDbEntity
  8
寸法引出
 48
15.0
100
AcDbDimension
  2
*D29
 10
1801.379639973106
 20
1865.49569695952
 30
0.0
 11
1541.379639973106
 21
1895.49569695952
 31
0.0
 70
    32
 71
     5
 42
520.0
  3
SANWA
100
AcDbAlignedDimension
 13
1281.379639973106
 23
1741.56774768701
 33
0.0
 14
1801.379639973106
 24
1741.56774768701
 34
0.0
100
AcDbRotatedDimension
1001
ACAD
1000
DSTYLE
1002
{
1070
   140
1040
2.0
1070
    40
1040
15.0
1070
   147
1040
1.0
1070
    44
1040
0.5
1070
    43
1040
5.0
1070
   178
1070
   256
1070
   177
1070
   256
1070
   176
1070
   256
1070
    41
1040
1.5
1002
}
  0
DIMENSION
  5
90DF
330
747D
100
AcDbEntity
  8
寸法引出
 48
15.0
100
AcDbDimension
  2
*D30
 10
1305.90451337318
 20
2080.142148029828
 30
0.0
 11
1290.90451337318
 21
2110.142148029828
 31
0.0
 70
    32
 71
     5
 42
30.0
  3
SANWA
100
AcDbAlignedDimension
 13
1275.90451337318
 23
2154.779567641652
 33
0.0
 14
1305.90451337318
 24
2154.779567641652
 34
0.0
100
AcDbRotatedDimension
1001
ACAD
1000
DSTYLE
1002
{
1070
   140
1040
2.0
1070
    40
1040
15.0
1070
   147
1040
1.0
1070
    44
1040
0.5
1070
    43
1040
5.0
1070
   178
1070
   256
1070
   177
1070
   256
1070
   176
1070
   256
1070
    41
1040
1.5
1002
}
  0
LINE
  5
90E0
330
747D
100
AcDbEntity
  8
0
  6
HIDDEN2
 48
5.0
100
AcDbLine
 10
1295.90451337318
 20
2187.779567641652
 30
0.0
 11
1295.90451337318
 21
2154.779567641652
 31
0.0
  0
LINE
  5
90E1
330
747D
100
AcDbEntity
  8
0
  6
HIDDEN2
 48
5.0
100
AcDbLine
 10
1315.90451337318
 20
2187.779567641652
 30
0.0
 11
1315.90451337318
 21
2154.779567641652
 31
0.0
  0
LINE
  5
90E2
330
747D
100
AcDbEntity
  8
0
  6
HIDDEN2
 48
5.0
100
AcDbLine
 10
1295.90451337318
 20
2187.779567641652
 30
0.0
 11
1315.90451337318
 21
2187.779567641652
 31
0.0
  0
LINE
  5
90E3
330
747D
100
AcDbEntity
  8
0
  6
HIDDEN2
 48
5.0
100
AcDbLine
 10
1755.90451337318
 20
2187.779567641652
 30
0.0
 11
1755.90451337318
 21
2154.779567641652
 31
0.0
  0
LINE
  5
90E4
330
747D
100
AcDbEntity
  8
0
  6
HIDDEN2
 48
5.0
100
AcDbLine
 10
1775.90451337318
 20
2187.779567641652
 30
0.0
 11
1775.90451337318
 21
2154.779567641652
 31
0.0
  0
LINE
  5
90E5
330
747D
100
AcDbEntity
  8
0
  6
HIDDEN2
 48
5.0
100
AcDbLine
 10
1755.90451337318
 20
2187.779567641652
 30
0.0
 11
1775.90451337318
 21
2187.779567641652
 31
0.0
  0
DIMENSION
  5
90E6
330
747D
100
AcDbEntity
  8
寸法引出
 48
15.0
100
AcDbDimension
  2
*D31
 10
2263.040493132293
 20
2080.142148029828
 30
0.0
 11
2203.040493132293
 21
2110.142148029828
 31
0.0
 70
    32
 71
     5
 42
120.0
  3
SANWA
100
AcDbAlignedDimension
 13
2143.040493132293
 23
2154.779567641652
 33
0.0
 14
2263.040493132293
 24
2154.779567641652
 34
0.0
100
AcDbRotatedDimension
1001
ACAD
1000
DSTYLE
1002
{
1070
   140
1040
2.0
1070
    40
1040
15.0
1070
   147
1040
1.0
1070
    44
1040
0.5
1070
    43
1040
5.0
1070
   178
1070
   256
1070
   177
1070
   256
1070
   176
1070
   256
1070
    41
1040
1.5
1002
}
  0
LINE
  5
90E7
330
747D
100
AcDbEntity
  8
0
  6
HIDDEN2
 48
5.0
100
AcDbLine
 10
2253.040493132294
 20
2187.779567641652
 30
0.0
 11
2273.040493132294
 21
2187.779567641652
 31
0.0
  0
LINE
  5
90E8
330
747D
100
AcDbEntity
  8
0
  6
HIDDEN2
 48
5.0
100
AcDbLine
 10
2253.040493132294
 20
2187.779567641652
 30
0.0
 11
2253.040493132294
 21
2154.779567641652
 31
0.0
  0
LINE
  5
90E9
330
747D
100
AcDbEntity
  8
0
  6
HIDDEN2
 48
5.0
100
AcDbLine
 10
2273.040493132294
 20
2187.779567641652
 30
0.0
 11
2273.040493132294
 21
2154.779567641652
 31
0.0
  0
LINE
  5
90EA
330
747D
100
AcDbEntity
  8
0
 48
15.0
100
AcDbLine
 10
1275.90451337318
 20
2264.779567641652
 30
0.0
 11
1795.90451337318
 21
2264.779567641652
 31
0.0
  0
DIMENSION
  5
90EB
330
747D
100
AcDbEntity
  8
寸法引出
 48
15.0
100
AcDbDimension
  2
*D32
 10
1795.90451337318
 20
2360.47267715487
 30
0.0
 11
1535.90451337318
 21
2390.47267715487
 31
0.0
 70
    32
 71
     5
 42
520.0
  3
SANWA
100
AcDbAlignedDimension
 13
1275.90451337318
 23
2264.779567641652
 33
0.0
 14
1795.90451337318
 24
2264.779567641652
 34
0.0
100
AcDbRotatedDimension
1001
ACAD
1000
DSTYLE
1002
{
1070
   140
1040
2.0
1070
    40
1040
15.0
1070
   147
1040
1.0
1070
    44
1040
0.5
1070
    43
1040
5.0
1070
   178
1070
   256
1070
   177
1070
   256
1070
   176
1070
   256
1070
    41
1040
1.5
1002
}
  0
LINE
  5
90EC
330
747D
100
AcDbEntity
  8
0
 48
15.0
100
AcDbLine
 10
3143.040493132293
 20
2264.779567641652
 30
0.0
 11
3143.040493132293
 21
2154.779567641652
 31
0.0
  0
DIMENSION
  5
90ED
330
747D
100
AcDbEntity
  8
寸法引出
 48
15.0
100
AcDbDimension
  2
*D33
 10
3237.091700953461
 20
2154.779567641652
 30
0.0
 11
3207.091700953461
 21
2209.779567641653
 31
0.0
 70
    32
 71
     5
 42
110.0
  3
SANWA
100
AcDbAlignedDimension
 13
3143.040493132293
 23
2264.779567641652
 33
0.0
 14
3143.040493132293
 24
2154.779567641652
 34
0.0
 50
90.0
100
AcDbRotatedDimension
1001
ACAD
1000
DSTYLE
1002
{
1070
   140
1040
2.0
1070
    40
1040
15.0
1070
   147
1040
1.0
1070
    44
1040
0.5
1070
    43
1040
5.0
1070
   178
1070
   256
1070
   177
1070
   256
1070
   176
1070
   256
1070
    41
1040
1.5
1002
}
  0
DIMENSION
  5
90EE
330
747D
100
AcDbEntity
  8
寸法引出
 48
15.0
100
AcDbDimension
  2
*D34
 10
3143.040493132293
 20
2080.142148029828
 30
0.0
 11
3083.040493132294
 21
2110.142148029828
 31
0.0
 70
    32
 71
     5
 42
120.0
  3
SANWA
100
AcDbAlignedDimension
 13
3023.040493132294
 23
2154.779567641652
 33
0.0
 14
3143.040493132293
 24
2154.779567641652
 34
0.0
100
AcDbRotatedDimension
1001
ACAD
1000
DSTYLE
1002
{
1070
    40
1040
15.0
1070
    41
1040
1.5
1070
    43
1040
5.0
1070
    44
1040
0.5
1070
    75
1070
     1
1070
   140
1040
2.0
1070
   147
1040
1.0
1070
   176
1070
   256
1070
   177
1070
   256
1070
   178
1070
   256
1070
   279
1070
     1
1002
}
  0
LINE
  5
90EF
330
747D
100
AcDbEntity
  8
0
  6
HIDDEN2
 48
5.0
100
AcDbLine
 10
3033.040493132293
 20
2187.779567641652
 30
0.0
 11
3033.040493132293
 21
2154.779567641652
 31
0.0
  0
LINE
  5
90F0
330
747D
100
AcDbEntity
  8
0
  6
HIDDEN2
 48
5.0
100
AcDbLine
 10
3013.040493132293
 20
2187.779567641652
 30
0.0
 11
3013.040493132293
 21
2154.779567641652
 31
0.0
  0
LINE
  5
90F1
330
747D
100
AcDbEntity
  8
0
  6
HIDDEN2
 48
5.0
100
AcDbLine
 10
3013.040493132293
 20
2187.779567641652
 30
0.0
 11
3033.040493132293
 21
2187.779567641652
 31
0.0
  0
TEXT
  5
90F2
330
747D
100
AcDbEntity
  8
0
100
AcDbText
 10
1621.440635305502
 20
2722.768990422261
 30
0.0
 40
42.0
  1
マルチスリット側溝蓋 Ｂ型 ４００用
  7
SANWA
 72
     4
 11
2143.680635305502
 21
2743.768990422261
 31
0.0
100
AcDbText
  0
LINE
  5
90F3
330
747D
100
AcDbEntity
  8
0
100
AcDbLine
 10
1578.978726667996
 20
2700.0
 30
0.0
 11
2942.400196294205
 21
2700.0
 31
0.0
  0
TEXT
  5
90F4
330
747D
100
AcDbEntity
  8
0
100
AcDbText
 10
2728.533788237559
 20
2729.629251340877
 30
0.0
 40
36.0
  1
W=159㎏
  7
SANWA
 72
     4
 11
2820.693788237559
 21
2746.703537055163
 31
0.0
100
AcDbText
  0
LINE
  5
90F6
330
747D
100
AcDbEntity
  8
枠
100
AcDbLine
 10
4305.0
 20
150.0
 30
0.0
 11
4305.0
 21
3000.0
 31
0.0
  0
LINE
  5
9103
330
747D
100
AcDbEntity
  8
0
100
AcDbLine
 10
4455.0
 20
150.0
 30
0.0
 11
4455.0
 21
0.0
 31
0.0
  0
LINE
  5
9104
330
747D
100
AcDbEntity
  8
0
100
AcDbLine
 10
4455.0
 20
0.0
 30
0.0
 11
4305.0
 21
0.0
 31
0.0
  0
LINE
  5
91B8
330
747D
100
AcDbEntity
  8
0
100
AcDbLine
 10
4455.0
 20
3150.0
 30
0.0
 11
4455.0
 21
3000.0
 31
0.0
  0
LINE
  5
91B9
330
747D
100
AcDbEntity
  8
0
100
AcDbLine
 10
4305.0
 20
3150.0
 30
0.0
 11
4455.0
 21
3150.0
 31
0.0
  0
VIEWPORT
  5
7540
102
{ACAD_XDICTIONARY
360
97E7
102
}
330
747A
100
AcDbEntity
 67
     1
  8
0
100
AcDbViewport
 10
3489.949390416756
 20
401.9674822965616
 30
0.0
 40
12344.5186568169
 41
7748.655929437804
 68
     1
 69
     1
 12
3489.949390416756
 22
401.9674822965616
 13
0.0
 23
0.0
 14
10.0
 24
10.0
 15
10.0
 25
10.0
 16
0.0
 26
0.0
 36
1.0
 17
0.0
 27
0.0
 37
0.0
 42
50.0
 43
0.0
 44
0.0
 45
7748.655929437804
 50
0.0
 51
0.0
 72
   100
 90
    32800
  1

281
     0
 71
     1
 74
     0
110
0.0
120
0.0
130
0.0
111
1.0
121
0.0
131
0.0
112
0.0
122
1.0
132
0.0
 79
     0
146
0.0
  0
TEXT
  5
7737
330
747A
100
AcDbEntity
 67
     1
  8
0
 48
2.0
100
AcDbText
 10
331.871196811185
 20
20.60428158404022
 30
0.0
 40
2.0
  1

  7
SANWA
100
AcDbText
  0
ENDSEC
  0
SECTION
  2
OBJECTS
  0
DICTIONARY
  5
7471
330
0
100
AcDbDictionary
281
     1
  3
ACAD_COLOR
350
9603
  3
ACAD_GROUP
350
7472
  3
ACAD_LAYOUT
350
8A69
  3
ACAD_MATERIAL
350
95D9
  3
ACAD_MLEADERSTYLE
350
9628
  3
ACAD_MLINESTYLE
350
7473
  3
ACAD_PLOTSETTINGS
350
8A6A
  3
ACAD_PLOTSTYLENAME
350
8A67
  3
ACAD_SCALELIST
350
9606
  3
ACAD_TABLESTYLE
350
9604
  3
ACAD_VISUALSTYLE
350
95F2
  3
ACDB_RECOMPOSE_DATA
350
97E5
  3
ACDBVARIABLEDICTIONARY
350
789B
  3
DWGPROPS
350
97E6
  0
DICTIONARY
  5
97B6
330
7474
100
AcDbDictionary
280
     1
281
     1
  3
ADSK_XREC_LAYER_RECONCILED
360
97B7
  0
DICTIONARY
  5
97B8
330
7486
100
AcDbDictionary
280
     1
281
     1
  3
ADSK_XREC_LAYER_RECONCILED
360
97B9
  0
DICTIONARY
  5
97BA
330
7950
100
AcDbDictionary
280
     1
281
     1
  3
ADSK_XREC_LAYER_RECONCILED
360
97BB
  0
DICTIONARY
  5
97BC
330
7D58
100
AcDbDictionary
280
     1
281
     1
  3
ADSK_XREC_LAYER_RECONCILED
360
97BD
  0
DICTIONARY
  5
97BE
330
7D59
100
AcDbDictionary
280
     1
281
     1
  3
ADSK_XREC_LAYER_RECONCILED
360
97BF
  0
DICTIONARY
  5
97C0
330
7D5A
100
AcDbDictionary
280
     1
281
     1
  3
ADSK_XREC_LAYER_RECONCILED
360
97C1
  0
DICTIONARY
  5
97E7
330
7540
100
AcDbDictionary
280
     1
281
     1
  3
ACAD_XREC_ROUNDTRIP
360
97E8
  0
DICTIONARY
  5
9603
102
{ACAD_REACTORS
330
7471
102
}
330
7471
100
AcDbDictionary
281
     1
  0
DICTIONARY
  5
7472
102
{ACAD_REACTORS
330
7471
102
}
330
0
100
AcDbDictionary
281
     1
  0
DICTIONARY
  5
8A69
102
{ACAD_REACTORS
330
7471
102
}
330
7471
100
AcDbDictionary
281
     1
  3
Model
350
8A6B
  3
ﾚｲｱｳﾄ1
350
8A6C
  0
DICTIONARY
  5
95D9
102
{ACAD_REACTORS
330
7471
102
}
330
7471
100
AcDbDictionary
281
     1
  3
ByBlock
350
95E2
  3
ByLayer
350
95DA
  3
Global
350
95EA
  0
DICTIONARY
  5
9628
102
{ACAD_REACTORS
330
7471
102
}
330
7471
100
AcDbDictionary
281
     1
  3
Standard
350
9629
  0
DICTIONARY
  5
7473
102
{ACAD_REACTORS
330
7471
102
}
330
0
100
AcDbDictionary
281
     1
  3
STANDARD
350
7480
  0
DICTIONARY
  5
8A6A
102
{ACAD_REACTORS
330
7471
102
}
330
7471
100
AcDbDictionary
281
     1
  0
ACDBDICTIONARYWDFLT
  5
8A67
102
{ACAD_REACTORS
330
7471
102
}
330
7471
100
AcDbDictionary
281
     1
  3
Normal
350
8A68
100
AcDbDictionaryWithDefault
340
8A68
  0
DICTIONARY
  5
9606
102
{ACAD_REACTORS
330
7471
102
}
330
7471
100
AcDbDictionary
281
     1
  3
A0
350
9607
  3
A1
350
9608
  3
A2
350
9609
  3
A3
350
960A
  3
A4
350
960B
  3
A5
350
960C
  3
A6
350
960D
  3
A7
350
960E
  3
A8
350
960F
  3
A9
350
9610
  3
B0
350
9611
  3
B1
350
9612
  3
B2
350
9613
  3
B3
350
9614
  3
B4
350
9615
  3
B5
350
9616
  3
B6
350
9617
  3
B7
350
9618
  3
B8
350
9619
  3
B9
350
961A
  3
C0
350
961B
  3
C1
350
961C
  3
C2
350
961D
  3
C3
350
961E
  3
C4
350
961F
  3
C5
350
9620
  3
C6
350
9621
  3
C7
350
9622
  3
C8
350
9623
  3
C9
350
9624
  3
D0
350
9625
  3
D1
350
9626
  3
D2
350
9627
  0
DICTIONARY
  5
9604
102
{ACAD_REACTORS
330
7471
102
}
330
7471
100
AcDbDictionary
281
     1
  3
Standard
350
9605
  0
DICTIONARY
  5
95F2
102
{ACAD_REACTORS
330
7471
102
}
330
7471
100
AcDbDictionary
281
     1
  3
2dWireframe
350
95F8
  3
3D Hidden
350
95FA
  3
3dWireframe
350
95F9
  3
Basic
350
95F7
  3
Brighten
350
95FE
  3
ColorChange
350
9602
  3
Conceptual
350
95FB
  3
Dim
350
95FD
  3
Facepattern
350
9601
  3
Flat
350
95F3
  3
FlatWithEdges
350
95F4
  3
Gouraud
350
95F5
  3
GouraudWithEdges
350
95F6
  3
Linepattern
350
9600
  3
Realistic
350
95FC
  3
Thicken
350
95FF
  0
XRECORD
  5
97E5
102
{ACAD_REACTORS
330
7471
102
}
330
7471
100
AcDbXrecord
280
     1
 90
        1
330
9605
  0
DICTIONARY
  5
789B
102
{ACAD_REACTORS
330
7471
102
}
330
7471
100
AcDbDictionary
281
     1
  3
CANNOSCALE
350
97E1
  3
CMLEADERSTYLE
350
97E0
  3
CTABLESTYLE
350
97DF
  3
DIMASSOC
350
956C
  3
INDEXCTL
350
97E2
  3
SORTENTS
350
789C
  0
XRECORD
  5
97E6
102
{ACAD_REACTORS
330
7471
102
}
330
7471
100
AcDbXrecord
280
     1
  1
DWGPROPS COOKIE
  2

  3

  4

  6

  7

  8
ooshima
  9

300
=
301
=
302
=
303
=
304
=
305
=
306
=
307
=
308
=
309
=
 40
0.1520484490740741
 41
2451898.440750926
 42
2455412.406612419
  1

 90
        0
  0
XRECORD
  5
97B7
102
{ACAD_REACTORS
330
97B6
102
}
330
97B6
100
AcDbXrecord
280
     1
290
     1
  0
XRECORD
  5
97B9
102
{ACAD_REACTORS
330
97B8
102
}
330
97B8
100
AcDbXrecord
280
     1
290
     1
  0
XRECORD
  5
97BB
102
{ACAD_REACTORS
330
97BA
102
}
330
97BA
100
AcDbXrecord
280
     1
290
     1
  0
XRECORD
  5
97BD
102
{ACAD_REACTORS
330
97BC
102
}
330
97BC
100
AcDbXrecord
280
     1
290
     1
  0
XRECORD
  5
97BF
102
{ACAD_REACTORS
330
97BE
102
}
330
97BE
100
AcDbXrecord
280
     1
290
     1
  0
XRECORD
  5
97C1
102
{ACAD_REACTORS
330
97C0
102
}
330
97C0
100
AcDbXrecord
280
     1
290
     1
  0
XRECORD
  5
97E8
102
{ACAD_REACTORS
330
97E7
102
}
330
97E7
100
AcDbXrecord
280
     1
102
SHADEPLOT
 70
     0
  0
LAYOUT
  5
8A6B
102
{ACAD_XDICTIONARY
360
97E9
102
}
102
{ACAD_REACTORS
330
8A69
102
}
330
8A69
100
AcDbPlotSettings
  1

  2
DocuWorks Printer
  4
A4
  6

 40
5.408082962036132
 41
5.408079147338867
 42
5.4080810546875
 43
5.4080810546875
 44
210.0156707763672
 45
297.0106506347656
 46
4.599753379821777
 47
12.09724521636963
 48
375.0
 49
150.0
140
4305.0
141
3000.0
142
1.0
143
15.0
 70
 11940
 72
     1
 73
     1
 74
     4
  7
sanwa3.ctb
 75
     0
147
0.0666666666666667
148
-375.0
149
-150.0
100
AcDbLayout
  1
Model
 70
     1
 71
     0
 10
0.0
 20
0.0
 11
12.0
 21
9.0
 12
0.0
 22
0.0
 32
0.0
 14
0.0
 24
0.0
 34
0.0
 15
0.0
 25
0.0
 35
0.0
146
0.0
 13
0.0
 23
0.0
 33
0.0
 16
1.0
 26
0.0
 36
0.0
 17
0.0
 27
1.0
 37
0.0
 76
     0
330
747D
331
95D7
1001
ACAD_PSEXT
1000
DocuWorks Printer
1000
DocuWorks Printer Driver
1000
DocuWorks Port
1000

1070
     0
  0
LAYOUT
  5
8A6C
102
{ACAD_XDICTIONARY
360
97EB
102
}
102
{ACAD_REACTORS
330
8A69
102
}
330
8A69
100
AcDbPlotSettings
  1

  2
RICOH NX-510
  4
A4
  6

 40
5.873749732971191
 41
4.92125654220581
 42
7.588241577148437
 43
5.81024169921875
 44
209.9944915771484
 45
296.989501953125
 46
0.0
 47
0.0
 48
0.0
 49
0.0
140
0.0
141
0.0
142
1.0
143
35.47161092953637
 70
   688
 72
     1
 73
     1
 74
     1
  7
sanwa3.ctb
 75
     0
147
0.0281915586519733
148
1587.066828717961
149
1807.522793119792
100
AcDbLayout
  1
ﾚｲｱｳﾄ1
 70
     1
 71
     1
 10
-1793.165461679217
 20
-2015.874158345215
 11
8741.530601758814
 21
5432.968744225195
 12
0.0
 22
0.0
 32
0.0
 14
-1587.066828717961
 24
-1807.522793119792
 34
-0.0000000000000164
 15
8566.965704409254
 25
3174.025734010291
 35
0.0000000000000141
146
0.0
 13
0.0
 23
0.0
 33
0.0
 16
1.0
 26
0.0
 36
0.0
 17
0.0
 27
1.0
 37
0.0
 76
     0
330
747A
331
7540
  0
MATERIAL
  5
95E2
102
{ACAD_XDICTIONARY
360
95E3
102
}
102
{ACAD_REACTORS
330
95D9
102
}
330
95D9
100
AcDbMaterial
  1
ByBlock
 72
     0
 43
0.0208333333333333
 43
0.0
 43
0.0
 43
0.0
 43
0.0
 43
0.0208333333333333
 43
0.0
 43
0.0
 43
0.0
 43
0.0
 43
1.0
 43
0.0
 43
0.0
 43
0.0
 43
0.0
 43
1.0
 77
     0
 47
0.0208333333333333
 47
0.0
 47
0.0
 47
0.0
 47
0.0
 47
0.0208333333333333
 47
0.0
 47
0.0
 47
0.0
 47
0.0
 47
1.0
 47
0.0
 47
0.0
 47
0.0
 47
0.0
 47
1.0
171
     0
 49
0.0208333333333333
 49
0.0
 49
0.0
 49
0.0
 49
0.0
 49
0.0208333333333333
 49
0.0
 49
0.0
 49
0.0
 49
0.0
 49
1.0
 49
0.0
 49
0.0
 49
0.0
 49
0.0
 49
1.0
175
     0
142
0.0208333333333333
142
0.0
142
0.0
142
0.0
142
0.0
142
0.0208333333333333
142
0.0
142
0.0
142
0.0
142
0.0
142
1.0
142
0.0
142
0.0
142
0.0
142
0.0
142
1.0
179
     0
144
0.0208333333333333
144
0.0
144
0.0
144
0.0
144
0.0
144
0.0208333333333333
144
0.0
144
0.0
144
0.0
144
0.0
144
1.0
144
0.0
144
0.0
144
0.0
144
0.0
144
1.0
147
0.0208333333333333
147
0.0
147
0.0
147
0.0
147
0.0
147
0.0208333333333333
147
0.0
147
0.0
147
0.0
147
0.0
147
1.0
147
0.0
147
0.0
147
0.0
147
0.0
147
1.0
  0
MATERIAL
  5
95DA
102
{ACAD_XDICTIONARY
360
95DB
102
}
102
{ACAD_REACTORS
330
95D9
102
}
330
95D9
100
AcDbMaterial
  1
ByLayer
 72
     0
 43
0.0208333333333333
 43
0.0
 43
0.0
 43
0.0
 43
0.0
 43
0.0208333333333333
 43
0.0
 43
0.0
 43
0.0
 43
0.0
 43
1.0
 43
0.0
 43
0.0
 43
0.0
 43
0.0
 43
1.0
 77
     0
 47
0.0208333333333333
 47
0.0
 47
0.0
 47
0.0
 47
0.0
 47
0.0208333333333333
 47
0.0
 47
0.0
 47
0.0
 47
0.0
 47
1.0
 47
0.0
 47
0.0
 47
0.0
 47
0.0
 47
1.0
171
     0
 49
0.0208333333333333
 49
0.0
 49
0.0
 49
0.0
 49
0.0
 49
0.0208333333333333
 49
0.0
 49
0.0
 49
0.0
 49
0.0
 49
1.0
 49
0.0
 49
0.0
 49
0.0
 49
0.0
 49
1.0
175
     0
142
0.0208333333333333
142
0.0
142
0.0
142
0.0
142
0.0
142
0.0208333333333333
142
0.0
142
0.0
142
0.0
142
0.0
142
1.0
142
0.0
142
0.0
142
0.0
142
0.0
142
1.0
179
     0
144
0.0208333333333333
144
0.0
144
0.0
144
0.0
144
0.0
144
0.0208333333333333
144
0.0
144
0.0
144
0.0
144
0.0
144
1.0
144
0.0
144
0.0
144
0.0
144
0.0
144
1.0
147
0.0208333333333333
147
0.0
147
0.0
147
0.0
147
0.0
147
0.0208333333333333
147
0.0
147
0.0
147
0.0
147
0.0
147
1.0
147
0.0
147
0.0
147
0.0
147
0.0
147
1.0
  0
MATERIAL
  5
95EA
102
{ACAD_XDICTIONARY
360
95EB
102
}
102
{ACAD_REACTORS
330
95D9
102
}
330
95D9
100
AcDbMaterial
  1
Global
 72
     0
 43
0.0208333333333333
 43
0.0
 43
0.0
 43
0.0
 43
0.0
 43
0.0208333333333333
 43
0.0
 43
0.0
 43
0.0
 43
0.0
 43
1.0
 43
0.0
 43
0.0
 43
0.0
 43
0.0
 43
1.0
 77
     0
 47
0.0208333333333333
 47
0.0
 47
0.0
 47
0.0
 47
0.0
 47
0.0208333333333333
 47
0.0
 47
0.0
 47
0.0
 47
0.0
 47
1.0
 47
0.0
 47
0.0
 47
0.0
 47
0.0
 47
1.0
171
     0
 49
0.0208333333333333
 49
0.0
 49
0.0
 49
0.0
 49
0.0
 49
0.0208333333333333
 49
0.0
 49
0.0
 49
0.0
 49
0.0
 49
1.0
 49
0.0
 49
0.0
 49
0.0
 49
0.0
 49
1.0
175
     0
142
0.0208333333333333
142
0.0
142
0.0
142
0.0
142
0.0
142
0.0208333333333333
142
0.0
142
0.0
142
0.0
142
0.0
142
1.0
142
0.0
142
0.0
142
0.0
142
0.0
142
1.0
179
     0
144
0.0208333333333333
144
0.0
144
0.0
144
0.0
144
0.0
144
0.0208333333333333
144
0.0
144
0.0
144
0.0
144
0.0
144
1.0
144
0.0
144
0.0
144
0.0
144
0.0
144
1.0
147
0.0208333333333333
147
0.0
147
0.0
147
0.0
147
0.0
147
0.0208333333333333
147
0.0
147
0.0
147
0.0
147
0.0
147
1.0
147
0.0
147
0.0
147
0.0
147
0.0
147
1.0
  0
MLEADERSTYLE
  5
9629
102
{ACAD_REACTORS
330
9628
102
}
330
9628
100
AcDbMLeaderStyle
170
     2
171
     1
172
     0
 90
        2
 40
0.0
 41
0.0
173
     1
 91
-1056964608
340
7477
 92
       -2
290
     1
 42
2.0
291
     1
 43
0.36
  3
Standard
 44
4.0
300

342
7475
174
     1
178
     6
175
     1
176
     0
 93
-1056964608
 45
4.0
292
     0
297
     0
 46
4.0
 94
-1056964608
 47
1.0
 49
1.0
140
1.0
293
     1
141
0.0
294
     1
177
     0
142
1.0
295
     0
296
     0
143
0.125
1001
ACAD_MLEADERVER
1070
     2
  0
MLINESTYLE
  5
7480
102
{ACAD_REACTORS
330
7473
102
}
330
0
100
AcDbMlineStyle
  2
STANDARD
 70
     0
  3

 62
     0
 51
90.0
 52
90.0
 71
     2
 49
0.5
 62
   256
  6
BYLAYER
 49
-0.5
 62
   256
  6
BYLAYER
  0
ACDBPLACEHOLDER
  5
8A68
102
{ACAD_REACTORS
330
8A67
102
}
330
8A67
  0
SCALE
  5
9607
102
{ACAD_REACTORS
330
9606
102
}
330
9606
100
AcDbScale
 70
     0
300
1:1
140
1.0
141
1.0
290
     1
  0
SCALE
  5
9608
102
{ACAD_REACTORS
330
9606
102
}
330
9606
100
AcDbScale
 70
     0
300
1:2
140
1.0
141
2.0
290
     0
  0
SCALE
  5
9609
102
{ACAD_REACTORS
330
9606
102
}
330
9606
100
AcDbScale
 70
     0
300
1:4
140
1.0
141
4.0
290
     0
  0
SCALE
  5
960A
102
{ACAD_REACTORS
330
9606
102
}
330
9606
100
AcDbScale
 70
     0
300
1:5
140
1.0
141
5.0
290
     0
  0
SCALE
  5
960B
102
{ACAD_REACTORS
330
9606
102
}
330
9606
100
AcDbScale
 70
     0
300
1:8
140
1.0
141
8.0
290
     0
  0
SCALE
  5
960C
102
{ACAD_REACTORS
330
9606
102
}
330
9606
100
AcDbScale
 70
     0
300
1:10
140
1.0
141
10.0
290
     0
  0
SCALE
  5
960D
102
{ACAD_REACTORS
330
9606
102
}
330
9606
100
AcDbScale
 70
     0
300
1:16
140
1.0
141
16.0
290
     0
  0
SCALE
  5
960E
102
{ACAD_REACTORS
330
9606
102
}
330
9606
100
AcDbScale
 70
     0
300
1:20
140
1.0
141
20.0
290
     0
  0
SCALE
  5
960F
102
{ACAD_REACTORS
330
9606
102
}
330
9606
100
AcDbScale
 70
     0
300
1:30
140
1.0
141
30.0
290
     0
  0
SCALE
  5
9610
102
{ACAD_REACTORS
330
9606
102
}
330
9606
100
AcDbScale
 70
     0
300
1:40
140
1.0
141
40.0
290
     0
  0
SCALE
  5
9611
102
{ACAD_REACTORS
330
9606
102
}
330
9606
100
AcDbScale
 70
     0
300
1:50
140
1.0
141
50.0
290
     0
  0
SCALE
  5
9612
102
{ACAD_REACTORS
330
9606
102
}
330
9606
100
AcDbScale
 70
     0
300
1:100
140
1.0
141
100.0
290
     0
  0
SCALE
  5
9613
102
{ACAD_REACTORS
330
9606
102
}
330
9606
100
AcDbScale
 70
     0
300
2:1
140
2.0
141
1.0
290
     0
  0
SCALE
  5
9614
102
{ACAD_REACTORS
330
9606
102
}
330
9606
100
AcDbScale
 70
     0
300
4:1
140
4.0
141
1.0
290
     0
  0
SCALE
  5
9615
102
{ACAD_REACTORS
330
9606
102
}
330
9606
100
AcDbScale
 70
     0
300
8:1
140
8.0
141
1.0
290
     0
  0
SCALE
  5
9616
102
{ACAD_REACTORS
330
9606
102
}
330
9606
100
AcDbScale
 70
     0
300
10:1
140
10.0
141
1.0
290
     0
  0
SCALE
  5
9617
102
{ACAD_REACTORS
330
9606
102
}
330
9606
100
AcDbScale
 70
     0
300
100:1
140
100.0
141
1.0
290
     0
  0
SCALE
  5
9618
102
{ACAD_REACTORS
330
9606
102
}
330
9606
100
AcDbScale
 70
     0
300
1/128" = 1'-0"
140
0.0078125
141
12.0
290
     0
  0
SCALE
  5
9619
102
{ACAD_REACTORS
330
9606
102
}
330
9606
100
AcDbScale
 70
     0
300
1/64" = 1'-0"
140
0.015625
141
12.0
290
     0
  0
SCALE
  5
961A
102
{ACAD_REACTORS
330
9606
102
}
330
9606
100
AcDbScale
 70
     0
300
1/32" = 1'-0"
140
0.03125
141
12.0
290
     0
  0
SCALE
  5
961B
102
{ACAD_REACTORS
330
9606
102
}
330
9606
100
AcDbScale
 70
     0
300
1/16" = 1'-0"
140
0.0625
141
12.0
290
     0
  0
SCALE
  5
961C
102
{ACAD_REACTORS
330
9606
102
}
330
9606
100
AcDbScale
 70
     0
300
3/32" = 1'-0"
140
0.09375
141
12.0
290
     0
  0
SCALE
  5
961D
102
{ACAD_REACTORS
330
9606
102
}
330
9606
100
AcDbScale
 70
     0
300
1/8" = 1'-0"
140
0.125
141
12.0
290
     0
  0
SCALE
  5
961E
102
{ACAD_REACTORS
330
9606
102
}
330
9606
100
AcDbScale
 70
     0
300
3/16" = 1'-0"
140
0.1875
141
12.0
290
     0
  0
SCALE
  5
961F
102
{ACAD_REACTORS
330
9606
102
}
330
9606
100
AcDbScale
 70
     0
300
1/4" = 1'-0"
140
0.25
141
12.0
290
     0
  0
SCALE
  5
9620
102
{ACAD_REACTORS
330
9606
102
}
330
9606
100
AcDbScale
 70
     0
300
3/8" = 1'-0"
140
0.375
141
12.0
290
     0
  0
SCALE
  5
9621
102
{ACAD_REACTORS
330
9606
102
}
330
9606
100
AcDbScale
 70
     0
300
1/2" = 1'-0"
140
0.5
141
12.0
290
     0
  0
SCALE
  5
9622
102
{ACAD_REACTORS
330
9606
102
}
330
9606
100
AcDbScale
 70
     0
300
3/4" = 1'-0"
140
0.75
141
12.0
290
     0
  0
SCALE
  5
9623
102
{ACAD_REACTORS
330
9606
102
}
330
9606
100
AcDbScale
 70
     0
300
1" = 1'-0"
140
1.0
141
12.0
290
     0
  0
SCALE
  5
9624
102
{ACAD_REACTORS
330
9606
102
}
330
9606
100
AcDbScale
 70
     0
300
1-1/2" = 1'-0"
140
1.5
141
12.0
290
     0
  0
SCALE
  5
9625
102
{ACAD_REACTORS
330
9606
102
}
330
9606
100
AcDbScale
 70
     0
300
3" = 1'-0"
140
3.0
141
12.0
290
     0
  0
SCALE
  5
9626
102
{ACAD_REACTORS
330
9606
102
}
330
9606
100
AcDbScale
 70
     0
300
6" = 1'-0"
140
6.0
141
12.0
290
     0
  0
SCALE
  5
9627
102
{ACAD_REACTORS
330
9606
102
}
330
9606
100
AcDbScale
 70
     0
300
1'-0" = 1'-0"
140
12.0
141
12.0
290
     0
  0
TABLESTYLE
  5
9605
102
{ACAD_XDICTIONARY
360
97E3
102
}
102
{ACAD_REACTORS
330
9604
102
}
330
9604
100
AcDbTableStyle
  3
Standard
 70
     0
 71
     0
 40
1.5
 41
1.5
280
     0
281
     0
  7
STANDARD
140
4.5
170
     2
 62
     0
 63
     7
283
     0
274
    -2
284
     1
 64
     0
275
    -2
285
     1
 65
     0
276
    -2
286
     1
 66
     0
277
    -2
287
     1
 67
     0
278
    -2
288
     1
 68
     0
279
    -2
289
     1
 69
     0
  7
STANDARD
140
6.0
170
     5
 62
     0
 63
     7
283
     0
274
    -2
284
     1
 64
     0
275
    -2
285
     1
 65
     0
276
    -2
286
     1
 66
     0
277
    -2
287
     1
 67
     0
278
    -2
288
     1
 68
     0
279
    -2
289
     1
 69
     0
  7
STANDARD
140
4.5
170
     5
 62
     0
 63
     7
283
     0
274
    -2
284
     1
 64
     0
275
    -2
285
     1
 65
     0
276
    -2
286
     1
 66
     0
277
    -2
287
     1
 67
     0
278
    -2
288
     1
 68
     0
279
    -2
289
     1
 69
     0
  0
VISUALSTYLE
  5
95F8
102
{ACAD_REACTORS
330
95F2
102
}
330
95F2
100
AcDbVisualStyle
  2
2dWireframe
 70
     4
 71
     0
 72
     2
 73
     0
 90
        0
 40
-0.6
 41
-30.0
 62
     5
 63
     7
 74
     1
 91
        4
 64
     7
 65
   257
 75
     1
175
     1
 42
1.0
 92
        0
 66
   257
 43
1.0
 76
     1
 77
     6
 78
     2
 67
     7
 79
     5
170
     0
171
     0
290
     0
174
     0
 93
        1
 44
0.0
173
     0
291
     0
 45
0.0
1001
ACAD
1000
AcDbSavedByObjectVersion
1070
     0
  0
VISUALSTYLE
  5
95FA
102
{ACAD_REACTORS
330
95F2
102
}
330
95F2
100
AcDbVisualStyle
  2
3D Hidden
 70
     6
 71
     1
 72
     2
 73
     2
 90
        0
 40
-0.6
 41
-30.0
 62
     5
 63
     7
 74
     2
 91
        2
 64
     7
 65
   257
 75
     2
175
     1
 42
40.0
 92
        0
 66
   257
 43
1.0
 76
     1
 77
     6
 78
     2
 67
     7
 79
     3
170
     0
171
     0
290
     0
174
     0
 93
        1
 44
0.0
173
     0
291
     0
 45
0.0
1001
ACAD
1000
AcDbSavedByObjectVersion
1070
     0
  0
VISUALSTYLE
  5
95F9
102
{ACAD_REACTORS
330
95F2
102
}
330
95F2
100
AcDbVisualStyle
  2
3dWireframe
 70
     5
 71
     0
 72
     2
 73
     0
 90
        0
 40
-0.6
 41
-30.0
 62
     5
 63
     7
 74
     1
 91
        4
 64
     7
 65
   257
 75
     1
175
     1
 42
1.0
 92
        0
 66
   257
 43
1.0
 76
     1
 77
     6
 78
     2
 67
     7
 79
     5
170
     0
171
     0
290
     0
174
     0
 93
        1
 44
0.0
173
     0
291
     0
 45
0.0
1001
ACAD
1000
AcDbSavedByObjectVersion
1070
     0
  0
VISUALSTYLE
  5
95F7
102
{ACAD_REACTORS
330
95F2
102
}
330
95F2
100
AcDbVisualStyle
  2
Basic
 70
     7
 71
     1
 72
     0
 73
     1
 90
        0
 40
-0.6
 41
-30.0
 62
     5
 63
     7
 74
     0
 91
        4
 64
     7
 65
   257
 75
     1
175
     1
 42
1.0
 92
        8
 66
     7
 43
1.0
 76
     1
 77
     6
 78
     2
 67
     7
 79
     5
170
     0
171
     0
290
     0
174
     0
 93
        1
 44
0.0
173
     0
291
     1
 45
0.0
1001
ACAD
1000
AcDbSavedByObjectVersion
1070
     0
  0
VISUALSTYLE
  5
95FE
102
{ACAD_REACTORS
330
95F2
102
}
330
95F2
100
AcDbVisualStyle
  2
Brighten
 70
    12
 71
     2
 72
     2
 73
     0
 90
        0
 40
-0.6
 41
-30.0
 62
     5
 63
     7
 74
     1
 91
        4
 64
     7
 65
   257
 75
     1
175
     1
 42
1.0
 92
        8
 66
     7
 43
1.0
 76
     1
 77
     6
 78
     2
 67
     7
 79
     5
170
     0
171
     0
290
     0
174
     0
 93
        1
 44
50.0
173
     0
291
     1
 45
0.0
1001
ACAD
1000
AcDbSavedByObjectVersion
1070
     0
  0
VISUALSTYLE
  5
9602
102
{ACAD_REACTORS
330
95F2
102
}
330
95F2
100
AcDbVisualStyle
  2
ColorChange
 70
    16
 71
     2
 72
     2
 73
     3
 90
        0
 40
-0.6
 41
-30.0
 62
     5
 63
     8
 74
     1
 91
        4
 64
     7
 65
   257
 75
     1
175
     1
 42
1.0
 92
        8
 66
     8
 43
1.0
 76
     1
 77
     6
 78
     2
 67
     7
 79
     5
170
     0
171
     0
290
     0
174
     0
 93
        1
 44
0.0
173
     0
291
     1
 45
0.0
1001
ACAD
1000
AcDbSavedByObjectVersion
1070
     0
  0
VISUALSTYLE
  5
95FB
102
{ACAD_REACTORS
330
95F2
102
}
330
95F2
100
AcDbVisualStyle
  2
Conceptual
 70
     9
 71
     3
 72
     2
 73
     0
 90
        0
 40
-0.6
 41
-30.0
 62
     5
 63
     7
 74
     2
 91
        2
 64
     7
 65
   257
 75
     1
175
     1
 42
40.0
 92
        8
 66
     7
 43
1.0
 76
     1
 77
     6
 78
     2
 67
     7
 79
     3
170
     0
171
     0
290
     0
174
     0
 93
        1
 44
0.0
173
     0
291
     0
 45
0.0
1001
ACAD
1000
AcDbSavedByObjectVersion
1070
     0
  0
VISUALSTYLE
  5
95FD
102
{ACAD_REACTORS
330
95F2
102
}
330
95F2
100
AcDbVisualStyle
  2
Dim
 70
    11
 71
     2
 72
     2
 73
     0
 90
        0
 40
-0.6
 41
-30.0
 62
     5
 63
     7
 74
     1
 91
        4
 64
     7
 65
   257
 75
     1
175
     1
 42
1.0
 92
        8
 66
     7
 43
1.0
 76
     1
 77
     6
 78
     2
 67
     7
 79
     5
170
     0
171
     0
290
     0
174
     0
 93
        1
 44
-50.0
173
     0
291
     1
 45
0.0
1001
ACAD
1000
AcDbSavedByObjectVersion
1070
     0
  0
VISUALSTYLE
  5
9601
102
{ACAD_REACTORS
330
95F2
102
}
330
95F2
100
AcDbVisualStyle
  2
Facepattern
 70
    15
 71
     2
 72
     2
 73
     0
 90
        0
 40
-0.6
 41
-30.0
 62
     5
 63
     7
 74
     1
 91
        4
 64
     7
 65
   257
 75
     1
175
     1
 42
1.0
 92
        8
 66
     7
 43
1.0
 76
     1
 77
     6
 78
     2
 67
     7
 79
     5
170
     0
171
     0
290
     0
174
     0
 93
        1
 44
0.0
173
     0
291
     1
 45
0.0
1001
ACAD
1000
AcDbSavedByObjectVersion
1070
     0
  0
VISUALSTYLE
  5
95F3
102
{ACAD_REACTORS
330
95F2
102
}
330
95F2
100
AcDbVisualStyle
  2
Flat
 70
     0
 71
     2
 72
     1
 73
     1
 90
        2
 40
-0.6
 41
30.0
 62
     5
 63
     7
 74
     0
 91
        4
 64
     7
 65
   257
 75
     1
175
     1
 42
1.0
 92
        8
 66
     7
 43
1.0
 76
     1
 77
     6
 78
     2
 67
     7
 79
     5
170
     0
171
     0
290
     0
174
     0
 93
       13
 44
0.0
173
     0
291
     1
 45
0.0
1001
ACAD
1000
AcDbSavedByObjectVersion
1070
     0
  0
VISUALSTYLE
  5
95F4
102
{ACAD_REACTORS
330
95F2
102
}
330
95F2
100
AcDbVisualStyle
  2
FlatWithEdges
 70
     1
 71
     2
 72
     1
 73
     1
 90
        2
 40
-0.6
 41
30.0
 62
     5
 63
     7
 74
     1
 91
        4
 64
     7
 65
   257
 75
     1
175
     1
 42
1.0
 92
        0
 66
   257
 43
1.0
 76
     1
 77
     6
 78
     2
 67
     7
 79
     5
170
     0
171
     0
290
     0
174
     0
 93
       13
 44
0.0
173
     0
291
     1
 45
0.0
1001
ACAD
1000
AcDbSavedByObjectVersion
1070
     0
  0
VISUALSTYLE
  5
95F5
102
{ACAD_REACTORS
330
95F2
102
}
330
95F2
100
AcDbVisualStyle
  2
Gouraud
 70
     2
 71
     2
 72
     2
 73
     1
 90
        2
 40
-0.6
 41
30.0
 62
     5
 63
     7
 74
     0
 91
        4
 64
     7
 65
   257
 75
     1
175
     1
 42
1.0
 92
        0
 66
     7
 43
1.0
 76
     1
 77
     6
 78
     2
 67
     7
 79
     5
170
     0
171
     0
290
     0
174
     0
 93
       13
 44
0.0
173
     0
291
     1
 45
0.0
1001
ACAD
1000
AcDbSavedByObjectVersion
1070
     0
  0
VISUALSTYLE
  5
95F6
102
{ACAD_REACTORS
330
95F2
102
}
330
95F2
100
AcDbVisualStyle
  2
GouraudWithEdges
 70
     3
 71
     2
 72
     2
 73
     1
 90
        2
 40
-0.6
 41
30.0
 62
     5
 63
     7
 74
     1
 91
        4
 64
     7
 65
   257
 75
     1
175
     1
 42
1.0
 92
        0
 66
   257
 43
1.0
 76
     1
 77
     6
 78
     2
 67
     7
 79
     5
170
     0
171
     0
290
     0
174
     0
 93
       13
 44
0.0
173
     0
291
     1
 45
0.0
1001
ACAD
1000
AcDbSavedByObjectVersion
1070
     0
  0
VISUALSTYLE
  5
9600
102
{ACAD_REACTORS
330
95F2
102
}
330
95F2
100
AcDbVisualStyle
  2
Linepattern
 70
    14
 71
     2
 72
     2
 73
     0
 90
        0
 40
-0.6
 41
-30.0
 62
     5
 63
     7
 74
     1
 91
        4
 64
     7
 65
   257
 75
     7
175
     7
 42
1.0
 92
        8
 66
     7
 43
1.0
 76
     1
 77
     6
 78
     2
 67
     7
 79
     5
170
     0
171
     0
290
     0
174
     0
 93
        1
 44
0.0
173
     0
291
     1
 45
0.0
1001
ACAD
1000
AcDbSavedByObjectVersion
1070
     0
  0
VISUALSTYLE
  5
95FC
102
{ACAD_REACTORS
330
95F2
102
}
330
95F2
100
AcDbVisualStyle
  2
Realistic
 70
     8
 71
     2
 72
     2
 73
     0
 90
        0
 40
-0.6
 41
-30.0
 62
     5
 63
     7
 74
     1
 91
        0
 64
     7
 65
   257
 75
     1
175
     1
 42
1.0
 92
        8
 66
     8
 43
1.0
 76
     1
 77
     6
 78
     2
 67
     7
 79
     5
170
     0
171
     0
290
     0
174
     0
 93
       13
 44
0.0
173
     0
291
     0
 45
0.0
1001
ACAD
1000
AcDbSavedByObjectVersion
1070
     0
  0
VISUALSTYLE
  5
95FF
102
{ACAD_REACTORS
330
95F2
102
}
330
95F2
100
AcDbVisualStyle
  2
Thicken
 70
    13
 71
     2
 72
     2
 73
     0
 90
        0
 40
-0.6
 41
-30.0
 62
     5
 63
     7
 74
     1
 91
        4
 64
     7
 65
   257
 75
     1
175
     1
 42
1.0
 92
       12
 66
     7
 43
1.0
 76
     1
 77
     6
 78
     2
 67
     7
 79
     5
170
     0
171
     0
290
     0
174
     0
 93
        1
 44
0.0
173
     0
291
     1
 45
0.0
1001
ACAD
1000
AcDbSavedByObjectVersion
1070
     0
  0
DICTIONARYVAR
  5
97E1
102
{ACAD_REACTORS
330
789B
102
}
330
789B
100
DictionaryVariables
280
     0
  1
1:1
  0
DICTIONARYVAR
  5
97E0
102
{ACAD_REACTORS
330
789B
102
}
330
789B
100
DictionaryVariables
280
     0
  1
STANDARD
  0
DICTIONARYVAR
  5
97DF
102
{ACAD_REACTORS
330
789B
102
}
330
789B
100
DictionaryVariables
280
     0
  1
STANDARD
  0
DICTIONARYVAR
  5
956C
102
{ACAD_REACTORS
330
789B
102
}
330
789B
100
DictionaryVariables
280
     0
  1
1
  0
DICTIONARYVAR
  5
97E2
102
{ACAD_REACTORS
330
789B
102
}
330
789B
100
DictionaryVariables
280
     0
  1
0
  0
DICTIONARYVAR
  5
789C
102
{ACAD_REACTORS
330
789B
102
}
330
789B
100
DictionaryVariables
280
     0
  1
96
  0
DICTIONARY
  5
97E9
330
8A6B
100
AcDbDictionary
280
     1
281
     1
  3
ACAD_XREC_ROUNDTRIP
360
97EA
  0
DICTIONARY
  5
97EB
330
8A6C
100
AcDbDictionary
280
     1
281
     1
  3
ACAD_XREC_ROUNDTRIP
360
97EC
  0
DICTIONARY
  5
95E3
330
95E2
100
AcDbDictionary
280
     1
281
     1
  3
ACAD_XREC_ROUNDTRIP
360
97EE
  3
BUMPTILE
360
95E5
  3
DIFFUSETILE
360
95E4
  3
OPACITYTILE
360
95E8
  3
REFLECTIONTILE
360
95E7
  3
REFRACTIONTILE
360
95E9
  3
SPECULARTILE
360
95E6
  0
DICTIONARY
  5
95DB
330
95DA
100
AcDbDictionary
280
     1
281
     1
  3
ACAD_XREC_ROUNDTRIP
360
97ED
  3
BUMPTILE
360
95DD
  3
DIFFUSETILE
360
95DC
  3
OPACITYTILE
360
95E0
  3
REFLECTIONTILE
360
95DF
  3
REFRACTIONTILE
360
95E1
  3
SPECULARTILE
360
95DE
  0
DICTIONARY
  5
95EB
330
95EA
100
AcDbDictionary
280
     1
281
     1
  3
ACAD_XREC_ROUNDTRIP
360
97EF
  3
BUMPTILE
360
95ED
  3
DIFFUSETILE
360
95EC
  3
OPACITYTILE
360
95F0
  3
REFLECTIONTILE
360
95EF
  3
REFRACTIONTILE
360
95F1
  3
SPECULARTILE
360
95EE
  0
DICTIONARY
  5
97E3
330
9605
100
AcDbDictionary
280
     1
281
     1
  3
ACAD_ROUNDTRIP_2008_TABLESTYLE_CELLSTYLEMAP
360
97E4
  3
ACAD_XREC_ROUNDTRIP
360
97F0
  0
XRECORD
  5
97EA
102
{ACAD_REACTORS
330
97E9
102
}
330
97E9
100
AcDbXrecord
280
     1
102
SHADEPLOT
 70
     0
102
SHADEPLOTRESLEVEL
 70
     2
102
SHADEPLOTCUSTOMDPI
 70
   300
  0
XRECORD
  5
97EC
102
{ACAD_REACTORS
330
97EB
102
}
330
97EB
100
AcDbXrecord
280
     1
102
SHADEPLOT
 70
     0
102
SHADEPLOTRESLEVEL
 70
     2
102
SHADEPLOTCUSTOMDPI
 70
   300
  0
XRECORD
  5
97EE
102
{ACAD_REACTORS
330
95E3
102
}
330
95E3
100
AcDbXrecord
280
     1
102
MATERIAL
148
0.0
149
0.0
149
0.0
 93
        0
 94
      127
282
     0
 72
     0
 77
     0
171
     0
175
     0
179
     0
273
     0
  0
XRECORD
  5
95E5
102
{ACAD_REACTORS
330
95E3
102
}
330
95E3
100
AcDbXrecord
280
     1
270
     1
271
     1
  0
XRECORD
  5
95E4
102
{ACAD_REACTORS
330
95E3
102
}
330
95E3
100
AcDbXrecord
280
     1
270
     1
271
     1
  0
XRECORD
  5
95E8
102
{ACAD_REACTORS
330
95E3
102
}
330
95E3
100
AcDbXrecord
280
     1
270
     1
271
     1
  0
XRECORD
  5
95E7
102
{ACAD_REACTORS
330
95E3
102
}
330
95E3
100
AcDbXrecord
280
     1
270
     1
271
     1
  0
XRECORD
  5
95E9
102
{ACAD_REACTORS
330
95E3
102
}
330
95E3
100
AcDbXrecord
280
     1
270
     1
271
     1
  0
XRECORD
  5
95E6
102
{ACAD_REACTORS
330
95E3
102
}
330
95E3
100
AcDbXrecord
280
     1
270
     1
271
     1
  0
XRECORD
  5
97ED
102
{ACAD_REACTORS
330
95DB
102
}
330
95DB
100
AcDbXrecord
280
     1
102
MATERIAL
148
0.0
149
0.0
149
0.0
 93
        0
 94
      127
282
     0
 72
     0
 77
     0
171
     0
175
     0
179
     0
273
     0
  0
XRECORD
  5
95DD
102
{ACAD_REACTORS
330
95DB
102
}
330
95DB
100
AcDbXrecord
280
     1
270
     1
271
     1
  0
XRECORD
  5
95DC
102
{ACAD_REACTORS
330
95DB
102
}
330
95DB
100
AcDbXrecord
280
     1
270
     1
271
     1
  0
XRECORD
  5
95E0
102
{ACAD_REACTORS
330
95DB
102
}
330
95DB
100
AcDbXrecord
280
     1
270
     1
271
     1
  0
XRECORD
  5
95DF
102
{ACAD_REACTORS
330
95DB
102
}
330
95DB
100
AcDbXrecord
280
     1
270
     1
271
     1
  0
XRECORD
  5
95E1
102
{ACAD_REACTORS
330
95DB
102
}
330
95DB
100
AcDbXrecord
280
     1
270
     1
271
     1
  0
XRECORD
  5
95DE
102
{ACAD_REACTORS
330
95DB
102
}
330
95DB
100
AcDbXrecord
280
     1
270
     1
271
     1
  0
XRECORD
  5
97EF
102
{ACAD_REACTORS
330
95EB
102
}
330
95EB
100
AcDbXrecord
280
     1
102
MATERIAL
148
0.0
149
0.0
149
0.0
 93
        0
 94
      127
282
     0
 72
     0
 77
     0
171
     0
175
     0
179
     0
273
     0
  0
XRECORD
  5
95ED
102
{ACAD_REACTORS
330
95EB
102
}
330
95EB
100
AcDbXrecord
280
     1
270
     1
271
     1
  0
XRECORD
  5
95EC
102
{ACAD_REACTORS
330
95EB
102
}
330
95EB
100
AcDbXrecord
280
     1
270
     1
271
     1
  0
XRECORD
  5
95F0
102
{ACAD_REACTORS
330
95EB
102
}
330
95EB
100
AcDbXrecord
280
     1
270
     1
271
     1
  0
XRECORD
  5
95EF
102
{ACAD_REACTORS
330
95EB
102
}
330
95EB
100
AcDbXrecord
280
     1
270
     1
271
     1
  0
XRECORD
  5
95F1
102
{ACAD_REACTORS
330
95EB
102
}
330
95EB
100
AcDbXrecord
280
     1
270
     1
271
     1
  0
XRECORD
  5
95EE
102
{ACAD_REACTORS
330
95EB
102
}
330
95EB
100
AcDbXrecord
280
     1
270
     1
271
     1
  0
CELLSTYLEMAP
  5
97E4
102
{ACAD_REACTORS
330
97E3
102
}
330
97E3
100
AcDbCellStyleMap
 90
        3
300
CELLSTYLE
  1
TABLEFORMAT_BEGIN
 90
        5
170
     1
 91
        0
 92
    32768
 62
   257
 93
        1
300
CONTENTFORMAT
  1
CONTENTFORMAT_BEGIN
 90
        0
 91
        0
 92
      512
 93
        0
300

 40
0.0
140
1.0
 94
        5
 62
     0
340
7475
144
6.0
309
CONTENTFORMAT_END
171
     1
301
MARGIN
  1
CELLMARGIN_BEGIN
 40
1.5
 40
1.5
 40
1.5
 40
1.5
 40
4.5
 40
4.5
309
CELLMARGIN_END
 94
        6
 95
        1
302
GRIDFORMAT
  1
GRIDFORMAT_BEGIN
 90
        0
 91
        1
 62
     0
 92
       -2
340
0
 93
        0
 40
1.125
309
GRIDFORMAT_END
 95
        2
302
GRIDFORMAT
  1
GRIDFORMAT_BEGIN
 90
        0
 91
        1
 62
     0
 92
       -2
340
0
 93
        0
 40
1.125
309
GRIDFORMAT_END
 95
        4
302
GRIDFORMAT
  1
GRIDFORMAT_BEGIN
 90
        0
 91
        1
 62
     0
 92
       -2
340
0
 93
        0
 40
1.125
309
GRIDFORMAT_END
 95
        8
302
GRIDFORMAT
  1
GRIDFORMAT_BEGIN
 90
        0
 91
        1
 62
     0
 92
       -2
340
0
 93
        0
 40
1.125
309
GRIDFORMAT_END
 95
       16
302
GRIDFORMAT
  1
GRIDFORMAT_BEGIN
 90
        0
 91
        1
 62
     0
 92
       -2
340
0
 93
        0
 40
1.125
309
GRIDFORMAT_END
 95
       32
302
GRIDFORMAT
  1
GRIDFORMAT_BEGIN
 90
        0
 91
        1
 62
     0
 92
       -2
340
0
 93
        0
 40
1.125
309
GRIDFORMAT_END
309
TABLEFORMAT_END
  1
CELLSTYLE_BEGIN
 90
        1
 91
        1
300
_TITLE
309
CELLSTYLE_END
300
CELLSTYLE
  1
TABLEFORMAT_BEGIN
 90
        5
170
     1
 91
        0
 92
        0
 62
   257
 93
        1
300
CONTENTFORMAT
  1
CONTENTFORMAT_BEGIN
 90
        0
 91
        0
 92
      512
 93
        0
300

 40
0.0
140
1.0
 94
        5
 62
     0
340
7475
144
4.5
309
CONTENTFORMAT_END
171
     1
301
MARGIN
  1
CELLMARGIN_BEGIN
 40
1.5
 40
1.5
 40
1.5
 40
1.5
 40
4.5
 40
4.5
309
CELLMARGIN_END
 94
        6
 95
        1
302
GRIDFORMAT
  1
GRIDFORMAT_BEGIN
 90
        0
 91
        1
 62
     0
 92
       -2
340
0
 93
        0
 40
1.125
309
GRIDFORMAT_END
 95
        2
302
GRIDFORMAT
  1
GRIDFORMAT_BEGIN
 90
        0
 91
        1
 62
     0
 92
       -2
340
0
 93
        0
 40
1.125
309
GRIDFORMAT_END
 95
        4
302
GRIDFORMAT
  1
GRIDFORMAT_BEGIN
 90
        0
 91
        1
 62
     0
 92
       -2
340
0
 93
        0
 40
1.125
309
GRIDFORMAT_END
 95
        8
302
GRIDFORMAT
  1
GRIDFORMAT_BEGIN
 90
        0
 91
        1
 62
     0
 92
       -2
340
0
 93
        0
 40
1.125
309
GRIDFORMAT_END
 95
       16
302
GRIDFORMAT
  1
GRIDFORMAT_BEGIN
 90
        0
 91
        1
 62
     0
 92
       -2
340
0
 93
        0
 40
1.125
309
GRIDFORMAT_END
 95
       32
302
GRIDFORMAT
  1
GRIDFORMAT_BEGIN
 90
        0
 91
        1
 62
     0
 92
       -2
340
0
 93
        0
 40
1.125
309
GRIDFORMAT_END
309
TABLEFORMAT_END
  1
CELLSTYLE_BEGIN
 90
        2
 91
        1
300
_HEADER
309
CELLSTYLE_END
300
CELLSTYLE
  1
TABLEFORMAT_BEGIN
 90
        5
170
     1
 91
        0
 92
        0
 62
   257
 93
        1
300
CONTENTFORMAT
  1
CONTENTFORMAT_BEGIN
 90
        0
 91
        0
 92
      512
 93
        0
300

 40
0.0
140
1.0
 94
        2
 62
     0
340
7475
144
4.5
309
CONTENTFORMAT_END
171
     1
301
MARGIN
  1
CELLMARGIN_BEGIN
 40
1.5
 40
1.5
 40
1.5
 40
1.5
 40
4.5
 40
4.5
309
CELLMARGIN_END
 94
        6
 95
        1
302
GRIDFORMAT
  1
GRIDFORMAT_BEGIN
 90
        0
 91
        1
 62
     0
 92
       -2
340
0
 93
        0
 40
1.125
309
GRIDFORMAT_END
 95
        2
302
GRIDFORMAT
  1
GRIDFORMAT_BEGIN
 90
        0
 91
        1
 62
     0
 92
       -2
340
0
 93
        0
 40
1.125
309
GRIDFORMAT_END
 95
        4
302
GRIDFORMAT
  1
GRIDFORMAT_BEGIN
 90
        0
 91
        1
 62
     0
 92
       -2
340
0
 93
        0
 40
1.125
309
GRIDFORMAT_END
 95
        8
302
GRIDFORMAT
  1
GRIDFORMAT_BEGIN
 90
        0
 91
        1
 62
     0
 92
       -2
340
0
 93
        0
 40
1.125
309
GRIDFORMAT_END
 95
       16
302
GRIDFORMAT
  1
GRIDFORMAT_BEGIN
 90
        0
 91
        1
 62
     0
 92
       -2
340
0
 93
        0
 40
1.125
309
GRIDFORMAT_END
 95
       32
302
GRIDFORMAT
  1
GRIDFORMAT_BEGIN
 90
        0
 91
        1
 62
     0
 92
       -2
340
0
 93
        0
 40
1.125
309
GRIDFORMAT_END
309
TABLEFORMAT_END
  1
CELLSTYLE_BEGIN
 90
        3
 91
        2
300
_DATA
309
CELLSTYLE_END
  0
XRECORD
  5
97F0
102
{ACAD_REACTORS
330
97E3
102
}
330
97E3
100
AcDbXrecord
280
     1
102
ACAD_ROUNDTRIP_PRE2007_TABLESTYLE
 90
      512
 91
        0
  1

 92
      512
 93
        0
  2

 94
      512
 95
        0
  3

  0
ENDSEC
  0
EOF
