  0
SECTION
  2
HEADER
  9
$ACADVER
  1
AC1015
  9
$ACADMAINTVER
 70
    20
  9
$DWGCODEPAGE
  3
ANSI_932
  9
$INSBASE
 10
0.0
 20
0.0
 30
0.0
  9
$EXTMIN
 10
-0.5342625972298265
 20
-0.137151454206105
 30
-0.0000000000000011
  9
$EXTMAX
 10
4455.676115922837
 20
3150.407983479007
 30
0.0000000000000141
  9
$LIMMIN
 10
0.0
 20
0.0
  9
$LIMMAX
 10
420.0
 20
297.0
  9
$ORTHOMODE
 70
     1
  9
$REGENMODE
 70
     1
  9
$FILLMODE
 70
     1
  9
$QTEXTMODE
 70
     0
  9
$MIRRTEXT
 70
     1
  9
$LTSCALE
 40
0.5
  9
$ATTMODE
 70
     1
  9
$TEXTSIZE
 40
2.799999999999999
  9
$TRACEWID
 40
1.0
  9
$TEXTSTYLE
  7
SANWA
  9
$CLAYER
  8
0
  9
$CELTYPE
  6
BYLAYER
  9
$CECOLOR
 62
   256
  9
$CELTSCALE
 40
15.0
  9
$DISPSILH
 70
     0
  9
$DIMSCALE
 40
15.0
  9
$DIMASZ
 40
1.5
  9
$DIMEXO
 40
1.0
  9
$DIMDLI
 40
5.0
  9
$DIMRND
 40
0.0
  9
$DIMDLE
 40
0.0
  9
$DIMEXE
 40
0.5
  9
$DIMTP
 40
0.0
  9
$DIMTM
 40
0.0
  9
$DIMTXT
 40
2.0
  9
$DIMCEN
 40
0.0
  9
$DIMTSZ
 40
0.0
  9
$DIMTOL
 70
     0
  9
$DIMLIM
 70
     0
  9
$DIMTIH
 70
     0
  9
$DIMTOH
 70
     0
  9
$DIMSE1
 70
     0
  9
$DIMSE2
 70
     0
  9
$DIMTAD
 70
     1
  9
$DIMZIN
 70
     8
  9
$DIMBLK
  1

  9
$DIMASO
 70
     1
  9
$DIMSHO
 70
     1
  9
$DIMPOST
  1

  9
$DIMAPOST
  1

  9
$DIMALT
 70
     0
  9
$DIMALTD
 70
     2
  9
$DIMALTF
 40
0.0394
  9
$DIMLFAC
 40
1.0
  9
$DIMTOFL
 70
     1
  9
$DIMTVP
 40
0.0
  9
$DIMTIX
 70
     1
  9
$DIMSOXD
 70
     0
  9
$DIMSAH
 70
     0
  9
$DIMBLK1
  1

  9
$DIMBLK2
  1

  9
$DIMSTYLE
  2
SANWA
  9
$DIMCLRD
 70
   256
  9
$DIMCLRE
 70
   256
  9
$DIMCLRT
 70
   256
  9
$DIMTFAC
 40
1.0
  9
$DIMGAP
 40
1.0
  9
$DIMJUST
 70
     0
  9
$DIMSD1
 70
     0
  9
$DIMSD2
 70
     0
  9
$DIMTOLJ
 70
     1
  9
$DIMTZIN
 70
     0
  9
$DIMALTZ
 70
     0
  9
$DIMALTTZ
 70
     0
  9
$DIMUPT
 70
     0
  9
$DIMDEC
 70
     4
  9
$DIMTDEC
 70
     4
  9
$DIMALTU
 70
     2
  9
$DIMALTTD
 70
     2
  9
$DIMTXSTY
  7
SANWA
  9
$DIMAUNIT
 70
     0
  9
$DIMADEC
 70
     0
  9
$DIMALTRND
 40
0.0
  9
$DIMAZIN
 70
     0
  9
$DIMDSEP
 70
    46
  9
$DIMATFIT
 70
     3
  9
$DIMFRAC
 70
     0
  9
$DIMLDRBLK
  1

  9
$DIMLUNIT
 70
     2
  9
$DIMLWD
 70
    -2
  9
$DIMLWE
 70
    -2
  9
$DIMTMOVE
 70
     0
  9
$LUNITS
 70
     2
  9
$LUPREC
 70
     4
  9
$SKETCHINC
 40
1.0
  9
$FILLETRAD
 40
10.0
  9
$AUNITS
 70
     0
  9
$AUPREC
 70
     0
  9
$MENU
  1
acad
  9
$ELEVATION
 40
0.0
  9
$PELEVATION
 40
0.0
  9
$THICKNESS
 40
0.0
  9
$LIMCHECK
 70
     0
  9
$CHAMFERA
 40
0.0
  9
$CHAMFERB
 40
0.0
  9
$CHAMFERC
 40
0.0
  9
$CHAMFERD
 40
0.0
  9
$SKPOLY
 70
     1
  9
$TDCREATE
 40
2451898.440750926
  9
$TDUCREATE
 40
2451898.065750926
  9
$TDUPDATE
 40
2455412.405827304
  9
$TDUUPDATE
 40
2455412.030827304
  9
$TDINDWG
 40
0.1239566435
  9
$TDUSRTIMER
 40
0.1239566435
  9
$USRTIMER
 70
     1
  9
$ANGBASE
 50
0.0
  9
$ANGDIR
 70
     0
  9
$PDMODE
 70
     0
  9
$PDSIZE
 40
0.0
  9
$PLINEWID
 40
0.0
  9
$SPLFRAME
 70
     0
  9
$SPLINETYPE
 70
     6
  9
$SPLINESEGS
 70
     8
  9
$HANDSEED
  5
9942
  9
$SURFTAB1
 70
     6
  9
$SURFTAB2
 70
     6
  9
$SURFTYPE
 70
     6
  9
$SURFU
 70
     6
  9
$SURFV
 70
     6
  9
$UCSBASE
  2

  9
$UCSNAME
  2

  9
$UCSORG
 10
0.0
 20
0.0
 30
0.0
  9
$UCSXDIR
 10
1.0
 20
0.0
 30
0.0
  9
$UCSYDIR
 10
0.0
 20
1.0
 30
0.0
  9
$UCSORTHOREF
  2

  9
$UCSORTHOVIEW
 70
     0
  9
$UCSORGTOP
 10
0.0
 20
0.0
 30
0.0
  9
$UCSORGBOTTOM
 10
0.0
 20
0.0
 30
0.0
  9
$UCSORGLEFT
 10
0.0
 20
0.0
 30
0.0
  9
$UCSORGRIGHT
 10
0.0
 20
0.0
 30
0.0
  9
$UCSORGFRONT
 10
0.0
 20
0.0
 30
0.0
  9
$UCSORGBACK
 10
0.0
 20
0.0
 30
0.0
  9
$PUCSBASE
  2

  9
$PUCSNAME
  2

  9
$PUCSORG
 10
0.0
 20
0.0
 30
0.0
  9
$PUCSXDIR
 10
1.0
 20
0.0
 30
0.0
  9
$PUCSYDIR
 10
0.0
 20
1.0
 30
0.0
  9
$PUCSORTHOREF
  2

  9
$PUCSORTHOVIEW
 70
     0
  9
$PUCSORGTOP
 10
0.0
 20
0.0
 30
0.0
  9
$PUCSORGBOTTOM
 10
0.0
 20
0.0
 30
0.0
  9
$PUCSORGLEFT
 10
0.0
 20
0.0
 30
0.0
  9
$PUCSORGRIGHT
 10
0.0
 20
0.0
 30
0.0
  9
$PUCSORGFRONT
 10
0.0
 20
0.0
 30
0.0
  9
$PUCSORGBACK
 10
0.0
 20
0.0
 30
0.0
  9
$USERI1
 70
     0
  9
$USERI2
 70
     0
  9
$USERI3
 70
     0
  9
$USERI4
 70
     0
  9
$USERI5
 70
     0
  9
$USERR1
 40
0.0
  9
$USERR2
 40
0.0
  9
$USERR3
 40
0.0
  9
$USERR4
 40
0.0
  9
$USERR5
 40
0.0
  9
$WORLDVIEW
 70
     1
  9
$SHADEDGE
 70
     3
  9
$SHADEDIF
 70
    70
  9
$TILEMODE
 70
     1
  9
$MAXACTVP
 70
    48
  9
$PINSBASE
 10
0.0
 20
0.0
 30
0.0
  9
$PLIMCHECK
 70
     0
  9
$PEXTMIN
 10
1.000000000000000E+20
 20
1.000000000000000E+20
 30
1.000000000000000E+20
  9
$PEXTMAX
 10
-1.000000000000000E+20
 20
-1.000000000000000E+20
 30
-1.000000000000000E+20
  9
$PLIMMIN
 10
-1793.165461679217
 20
-2015.874158345215
  9
$PLIMMAX
 10
8741.530601758814
 20
5432.968744225195
  9
$UNITMODE
 70
     0
  9
$VISRETAIN
 70
     1
  9
$PLINEGEN
 70
     0
  9
$PSLTSCALE
 70
     1
  9
$TREEDEPTH
 70
  3020
  9
$CMLSTYLE
  2
STANDARD
  9
$CMLJUST
 70
     0
  9
$CMLSCALE
 40
1.0
  9
$PROXYGRAPHICS
 70
     1
  9
$MEASUREMENT
 70
     1
  9
$CELWEIGHT
370
    -1
  9
$ENDCAPS
280
     0
  9
$JOINSTYLE
280
     0
  9
$LWDISPLAY
290
     0
  9
$INSUNITS
 70
     0
  9
$HYPERLINKBASE
  1

  9
$STYLESHEET
  1
sanwa3.ctb
  9
$XEDIT
290
     1
  9
$CEPSNTYPE
380
     0
  9
$PSTYLEMODE
290
     1
  9
$FINGERPRINTGUID
  2
{1B7EB5CE-A23D-4BE4-B487-D56FB2FDFF80}
  9
$VERSIONGUID
  2
{A498DC93-F5BB-481A-819E-C9825AFCE8EA}
  9
$EXTNAMES
290
     1
  9
$PSVPSCALE
 40
0.0
  9
$OLESTARTUP
290
     0
  0
ENDSEC
  0
SECTION
  2
CLASSES
  0
CLASS
  1
DICTIONARYVAR
  2
AcDbDictionaryVar
  3
ObjectDBX Classes
 90
        0
280
     0
281
     0
  0
CLASS
  1
ACDBDICTIONARYWDFLT
  2
AcDbDictionaryWithDefault
  3
ObjectDBX Classes
 90
        0
280
     0
281
     0
  0
CLASS
  1
ACDBPLACEHOLDER
  2
AcDbPlaceHolder
  3
ObjectDBX Classes
 90
        0
280
     0
281
     0
  0
CLASS
  1
LAYOUT
  2
AcDbLayout
  3
ObjectDBX Classes
 90
        0
280
     0
281
     0
  0
CLASS
  1
MATERIAL
  2
AcDbMaterial
  3
ObjectDBX Classes
 90
     1153
280
     0
281
     0
  0
CLASS
  1
VISUALSTYLE
  2
AcDbVisualStyle
  3
ObjectDBX Classes
 90
     4095
280
     0
281
     0
  0
CLASS
  1
TABLESTYLE
  2
AcDbTableStyle
  3
ObjectDBX Classes
 90
     4095
280
     0
281
     0
  0
CLASS
  1
SCALE
  2
AcDbScale
  3
ObjectDBX Classes
 90
     1153
280
     0
281
     0
  0
CLASS
  1
MLEADERSTYLE
  2
AcDbMLeaderStyle
  3
ACDB_MLEADERSTYLE_CLASS
 90
     4095
280
     0
281
     0
  0
CLASS
  1
CELLSTYLEMAP
  2
AcDbCellStyleMap
  3
ObjectDBX Classes
 90
     1152
280
     0
281
     0
  0
ENDSEC
  0
SECTION
  2
TABLES
  0
TABLE
  2
VPORT
  5
746D
330
0
100
AcDbSymbolTable
 70
     1
  0
VPORT
  5
96C8
330
746D
100
AcDbSymbolTableRecord
100
AcDbViewportTableRecord
  2
*Active
 70
     0
 10
0.0
 20
0.0
 11
1.0
 21
1.0
 12
2227.570924714354
 22
1575.135402776737
 13
0.0
 23
0.0
 14
10.0
 24
10.0
 15
10.0
 25
10.0
 16
0.0
 26
0.0
 36
1.0
 17
0.0
 27
0.0
 37
0.0
 40
3607.248714262765
 41
1.353070175438596
 42
50.0
 43
0.0
 44
0.0
 50
0.0
 51
0.0
 71
     0
 72
   100
 73
     1
 74
     0
 75
     0
 76
     0
 77
     0
 78
     0
281
     0
 65
     1
110
0.0
120
0.0
130
0.0
111
1.0
121
0.0
131
0.0
112
0.0
122
1.0
132
0.0
 79
     0
146
0.0
  0
ENDTAB
  0
TABLE
  2
LTYPE
  5
746A
330
0
100
AcDbSymbolTable
 70
     5
  0
LTYPE
  5
7477
330
746A
100
AcDbSymbolTableRecord
100
AcDbLinetypeTableRecord
  2
BYBLOCK
 70
     0
  3

 72
    65
 73
     0
 40
0.0
  0
LTYPE
  5
7478
330
746A
100
AcDbSymbolTableRecord
100
AcDbLinetypeTableRecord
  2
BYLAYER
 70
     0
  3

 72
    65
 73
     0
 40
0.0
  0
LTYPE
  5
7479
330
746A
100
AcDbSymbolTableRecord
100
AcDbLinetypeTableRecord
  2
CONTINUOUS
 70
     0
  3
Solid line
 72
    65
 73
     0
 40
0.0
  0
LTYPE
  5
7D54
330
746A
100
AcDbSymbolTableRecord
100
AcDbLinetypeTableRecord
  2
CENTER2
 70
     0
  3
Center (.5x) ___ _ ___ _ ___ _ ___ _ ___ _ ___
 72
    65
 73
     4
 40
28.575
 49
19.05
 74
     0
 49
-3.174999999999999
 74
     0
 49
3.174999999999999
 74
     0
 49
-3.174999999999999
 74
     0
  0
LTYPE
  5
7D55
330
746A
100
AcDbSymbolTableRecord
100
AcDbLinetypeTableRecord
  2
DOT
 70
     0
  3
Dot . . . . . . . . . . . . . . . . . . . . . .
 72
    65
 73
     2
 40
6.349999999999999
 49
0.0
 74
     0
 49
-6.349999999999999
 74
     0
  0
LTYPE
  5
7D56
330
746A
100
AcDbSymbolTableRecord
100
AcDbLinetypeTableRecord
  2
HIDDEN2
 70
     0
  3
Hidden (.5x) _ _ _ _ _ _ _ _ _ _ _ _ _ _ _ _ _
 72
    65
 73
     2
 40
4.762499999999999
 49
3.174999999999999
 74
     0
 49
-1.587499999999999
 74
     0
  0
LTYPE
  5
7D57
330
746A
100
AcDbSymbolTableRecord
100
AcDbLinetypeTableRecord
  2
PHANTOM2
 70
     0
  3
Phantom (.5x) ___ _ _ ___ _ _ ___ _ _ ___ _ _
 72
    65
 73
     6
 40
31.75
 49
15.875
 74
     0
 49
-3.174999999999999
 74
     0
 49
3.174999999999999
 74
     0
 49
-3.174999999999999
 74
     0
 49
3.174999999999999
 74
     0
 49
-3.174999999999999
 74
     0
  0
ENDTAB
  0
TABLE
  2
LAYER
  5
7467
330
0
100
AcDbSymbolTable
 70
     7
  0
LAYER
  5
7474
102
{ACAD_XDICTIONARY
360
9907
102
}
330
7467
100
AcDbSymbolTableRecord
100
AcDbLayerTableRecord
  2
0
 70
     0
 62
     7
  6
CONTINUOUS
370
    -3
390
88DD
  0
LAYER
  5
7485
330
7467
100
AcDbSymbolTableRecord
100
AcDbLayerTableRecord
  2
DEFPOINTS
 70
     0
 62
     7
  6
CONTINUOUS
290
     0
370
    -3
390
88DD
  0
LAYER
  5
7486
102
{ACAD_XDICTIONARY
360
9909
102
}
330
7467
100
AcDbSymbolTableRecord
100
AcDbLayerTableRecord
  2
OBJECT
 70
     0
 62
     7
  6
CONTINUOUS
370
    -3
390
88DD
  0
LAYER
  5
7950
102
{ACAD_XDICTIONARY
360
990B
102
}
330
7467
100
AcDbSymbolTableRecord
100
AcDbLayerTableRecord
  2
枠
 70
     0
 62
     3
  6
CONTINUOUS
370
    -3
390
88DD
  0
LAYER
  5
7D58
102
{ACAD_XDICTIONARY
360
990D
102
}
330
7467
100
AcDbSymbolTableRecord
100
AcDbLayerTableRecord
  2
寸法引出
 70
     0
 62
     2
  6
CONTINUOUS
370
    -3
390
88DD
  0
LAYER
  5
7D59
102
{ACAD_XDICTIONARY
360
990F
102
}
330
7467
100
AcDbSymbolTableRecord
100
AcDbLayerTableRecord
  2
鉄筋
 70
     0
 62
     4
  6
CONTINUOUS
370
    -3
390
88DD
  0
LAYER
  5
7D5A
102
{ACAD_XDICTIONARY
360
9911
102
}
330
7467
100
AcDbSymbolTableRecord
100
AcDbLayerTableRecord
  2
補助線
 70
     0
 62
     6
  6
CONTINUOUS
370
    -3
390
88DD
  0
ENDTAB
  0
TABLE
  2
STYLE
  5
7468
330
0
100
AcDbSymbolTable
 70
     5
  0
STYLE
  5
7475
330
7468
100
AcDbSymbolTableRecord
100
AcDbTextStyleTableRecord
  2
STANDARD
 70
     0
 40
0.0
 41
1.0
 50
0.0
 71
     0
 42
3.5
  3
txt
  4

  0
STYLE
  5
7481
330
7468
100
AcDbSymbolTableRecord
100
AcDbTextStyleTableRecord
  2
ADESK1
 70
     0
 40
0.0
 41
1.0
 50
0.0
 71
     0
 42
5.0
  3
romans
  4
bigfont
  0
STYLE
  5
7731
330
7468
100
AcDbSymbolTableRecord
100
AcDbTextStyleTableRecord
  2
SANWA
 70
     0
 40
0.0
 41
1.0
 50
0.0
 71
     0
 42
2.799999999999999
  3
MS Mincho.ttf
  4

1001
ACAD
1000
MS Mincho
1071
    32785
  0
STYLE
  5
7D45
330
7468
100
AcDbSymbolTableRecord
100
AcDbTextStyleTableRecord
  2

 70
     1
 40
0.0
 41
1.0
 50
0.0
 71
     0
 42
3.5
  3
ltypeshp.shx
  4

  0
ENDTAB
  0
TABLE
  2
VIEW
  5
746B
330
0
100
AcDbSymbolTable
 70
     0
  0
ENDTAB
  0
TABLE
  2
UCS
  5
746C
330
0
100
AcDbSymbolTable
 70
     0
  0
ENDTAB
  0
TABLE
  2
APPID
  5
746E
330
0
100
AcDbSymbolTable
 70
     3
  0
APPID
  5
7476
330
746E
100
AcDbSymbolTableRecord
100
AcDbRegAppTableRecord
  2
ACAD
 70
     0
  0
APPID
  5
971B
330
746E
100
AcDbSymbolTableRecord
100
AcDbRegAppTableRecord
  2
ACAD_MLEADERVER
 70
     0
  0
APPID
  5
992F
330
746E
100
AcDbSymbolTableRecord
100
AcDbRegAppTableRecord
  2
ACAD_PSEXT
 70
     0
  0
ENDTAB
  0
TABLE
  2
DIMSTYLE
  5
746F
330
0
100
AcDbSymbolTable
 70
     5
100
AcDbDimStyleTable
 71
     1
340
796F
  0
DIMSTYLE
105
7484
330
746F
100
AcDbSymbolTableRecord
100
AcDbDimStyleTableRecord
  2
JIS
 70
     0
 41
2.5
 42
1.0
 43
7.0
 44
1.0
 73
     0
 74
     0
 77
     1
 78
     8
140
2.5
141
0.0
143
0.0394
147
0.0
172
     1
174
     1
176
     2
177
     2
178
     2
340
7731
  0
DIMSTYLE
105
796F
102
{ACAD_REACTORS
330
83D1
330
83D2
330
83DE
330
8454
330
8455
330
845D
330
845E
330
845F
330
8460
330
8461
330
8467
330
846A
330
846B
330
846C
330
846D
330
846E
330
847F
330
8490
330
8495
330
8496
330
8CE6
330
8CE7
330
8D3F
330
8D41
330
8D42
330
8D43
330
8DBB
330
8DBC
330
8DBF
330
8DC1
330
8DC5
330
8DC6
330
8DC7
330
8DC8
330
8DCD
330
8DD5
330
8DD9
330
8DDB
102
}
330
746F
100
AcDbSymbolTableRecord
100
AcDbDimStyleTableRecord
  2
SANWA
 70
     0
 41
2.5
 42
1.0
 43
7.0
 44
1.0
 73
     0
 74
     0
 77
     1
 78
     8
140
2.5
141
0.0
143
0.0394
147
0.0
172
     1
174
     1
176
     2
177
     2
178
     2
340
7731
  0
DIMSTYLE
105
7C9D
330
746F
100
AcDbSymbolTableRecord
100
AcDbDimStyleTableRecord
  2
SANWA$4
 70
     0
 41
2.5
 42
1.0
 43
5.0
 44
1.0
 73
     0
 74
     0
 77
     1
 78
     8
140
2.5
141
0.0
143
0.0394
147
1.0
172
     1
174
     1
176
     2
177
     2
178
     2
289
     2
340
7731
  0
DIMSTYLE
105
7CB5
330
746F
100
AcDbSymbolTableRecord
100
AcDbDimStyleTableRecord
  2
SANWA$3
 70
     0
 41
2.5
 42
1.0
 43
7.0
 44
1.0
 73
     0
 74
     0
 77
     1
 78
     8
140
2.5
141
0.0
143
0.0394
147
0.0
172
     1
174
     1
176
     2
177
     2
178
     2
289
     0
340
7731
  0
ENDTAB
  0
TABLE
  2
BLOCK_RECORD
  5
7466
330
0
100
AcDbSymbolTable
 70
    79
  0
BLOCK_RECORD
  5
747D
330
7466
100
AcDbSymbolTableRecord
100
AcDbBlockTableRecord
  2
*MODEL_SPACE
340
88E0
  0
BLOCK_RECORD
  5
747A
330
7466
100
AcDbSymbolTableRecord
100
AcDbBlockTableRecord
  2
*PAPER_SPACE
340
88E1
  0
BLOCK_RECORD
  5
7493
330
7466
100
AcDbSymbolTableRecord
100
AcDbBlockTableRecord
  2
TITLE_BLOCK
340
0
  0
BLOCK_RECORD
  5
82D5
330
7466
100
AcDbSymbolTableRecord
100
AcDbBlockTableRecord
  2
*D1
340
0
  0
BLOCK_RECORD
  5
82E1
330
7466
100
AcDbSymbolTableRecord
100
AcDbBlockTableRecord
  2
*D2
340
0
  0
BLOCK_RECORD
  5
82EE
330
7466
100
AcDbSymbolTableRecord
100
AcDbBlockTableRecord
  2
*D3
340
0
  0
BLOCK_RECORD
  5
82FC
330
7466
100
AcDbSymbolTableRecord
100
AcDbBlockTableRecord
  2
*D4
340
0
  0
BLOCK_RECORD
  5
830A
330
7466
100
AcDbSymbolTableRecord
100
AcDbBlockTableRecord
  2
*D5
340
0
  0
BLOCK_RECORD
  5
8315
330
7466
100
AcDbSymbolTableRecord
100
AcDbBlockTableRecord
  2
*D6
340
0
  0
BLOCK_RECORD
  5
8322
330
7466
100
AcDbSymbolTableRecord
100
AcDbBlockTableRecord
  2
*D7
340
0
  0
BLOCK_RECORD
  5
832E
330
7466
100
AcDbSymbolTableRecord
100
AcDbBlockTableRecord
  2
*D8
340
0
  0
BLOCK_RECORD
  5
833A
330
7466
100
AcDbSymbolTableRecord
100
AcDbBlockTableRecord
  2
*D9
340
0
  0
BLOCK_RECORD
  5
8348
330
7466
100
AcDbSymbolTableRecord
100
AcDbBlockTableRecord
  2
*D10
340
0
  0
BLOCK_RECORD
  5
8353
330
7466
100
AcDbSymbolTableRecord
100
AcDbBlockTableRecord
  2
*D11
340
0
  0
BLOCK_RECORD
  5
8360
330
7466
100
AcDbSymbolTableRecord
100
AcDbBlockTableRecord
  2
*D12
340
0
  0
BLOCK_RECORD
  5
836C
330
7466
100
AcDbSymbolTableRecord
100
AcDbBlockTableRecord
  2
*D13
340
0
  0
BLOCK_RECORD
  5
8379
330
7466
100
AcDbSymbolTableRecord
100
AcDbBlockTableRecord
  2
*D14
340
0
  0
BLOCK_RECORD
  5
8387
330
7466
100
AcDbSymbolTableRecord
100
AcDbBlockTableRecord
  2
*D15
340
0
  0
BLOCK_RECORD
  5
8392
330
7466
100
AcDbSymbolTableRecord
100
AcDbBlockTableRecord
  2
*D16
340
0
  0
BLOCK_RECORD
  5
839F
330
7466
100
AcDbSymbolTableRecord
100
AcDbBlockTableRecord
  2
*D17
340
0
  0
BLOCK_RECORD
  5
83AB
330
7466
100
AcDbSymbolTableRecord
100
AcDbBlockTableRecord
  2
*D18
340
0
  0
BLOCK_RECORD
  5
83B8
330
7466
100
AcDbSymbolTableRecord
100
AcDbBlockTableRecord
  2
*D19
340
0
  0
BLOCK_RECORD
  5
83C4
330
7466
100
AcDbSymbolTableRecord
100
AcDbBlockTableRecord
  2
*D20
340
0
  0
BLOCK_RECORD
  5
83D0
330
7466
100
AcDbSymbolTableRecord
100
AcDbBlockTableRecord
  2
A$C32BC39A0
340
0
  0
BLOCK_RECORD
  5
8EC3
330
7466
100
AcDbSymbolTableRecord
100
AcDbBlockTableRecord
  2
*D22
340
0
  0
BLOCK_RECORD
  5
8ECF
330
7466
100
AcDbSymbolTableRecord
100
AcDbBlockTableRecord
  2
*D23
340
0
  0
BLOCK_RECORD
  5
8EDA
330
7466
100
AcDbSymbolTableRecord
100
AcDbBlockTableRecord
  2
*D24
340
0
  0
BLOCK_RECORD
  5
8EE7
330
7466
100
AcDbSymbolTableRecord
100
AcDbBlockTableRecord
  2
*D25
340
0
  0
BLOCK_RECORD
  5
8EF2
330
7466
100
AcDbSymbolTableRecord
100
AcDbBlockTableRecord
  2
*D26
340
0
  0
BLOCK_RECORD
  5
8F00
330
7466
100
AcDbSymbolTableRecord
100
AcDbBlockTableRecord
  2
*D27
340
0
  0
BLOCK_RECORD
  5
8F0B
330
7466
100
AcDbSymbolTableRecord
100
AcDbBlockTableRecord
  2
*D28
340
0
  0
BLOCK_RECORD
  5
8F17
330
7466
100
AcDbSymbolTableRecord
100
AcDbBlockTableRecord
  2
*D29
340
0
  0
BLOCK_RECORD
  5
8F22
330
7466
100
AcDbSymbolTableRecord
100
AcDbBlockTableRecord
  2
*D30
340
0
  0
BLOCK_RECORD
  5
8F2E
330
7466
100
AcDbSymbolTableRecord
100
AcDbBlockTableRecord
  2
*D31
340
0
  0
BLOCK_RECORD
  5
8F3A
330
7466
100
AcDbSymbolTableRecord
100
AcDbBlockTableRecord
  2
*D32
340
0
  0
BLOCK_RECORD
  5
8F46
330
7466
100
AcDbSymbolTableRecord
100
AcDbBlockTableRecord
  2
*D33
340
0
  0
BLOCK_RECORD
  5
8F53
330
7466
100
AcDbSymbolTableRecord
100
AcDbBlockTableRecord
  2
*D34
340
0
  0
BLOCK_RECORD
  5
8F5F
330
7466
100
AcDbSymbolTableRecord
100
AcDbBlockTableRecord
  2
*D35
340
0
  0
BLOCK_RECORD
  5
8F6D
330
7466
100
AcDbSymbolTableRecord
100
AcDbBlockTableRecord
  2
*D36
340
0
  0
BLOCK_RECORD
  5
8F78
330
7466
100
AcDbSymbolTableRecord
100
AcDbBlockTableRecord
  2
*D37
340
0
  0
BLOCK_RECORD
  5
8F84
330
7466
100
AcDbSymbolTableRecord
100
AcDbBlockTableRecord
  2
*D38
340
0
  0
BLOCK_RECORD
  5
8F90
330
7466
100
AcDbSymbolTableRecord
100
AcDbBlockTableRecord
  2
*D39
340
0
  0
BLOCK_RECORD
  5
8F9B
330
7466
100
AcDbSymbolTableRecord
100
AcDbBlockTableRecord
  2
*D40
340
0
  0
BLOCK_RECORD
  5
8FA7
330
7466
100
AcDbSymbolTableRecord
100
AcDbBlockTableRecord
  2
*D41
340
0
  0
BLOCK_RECORD
  5
8FB3
330
7466
100
AcDbSymbolTableRecord
100
AcDbBlockTableRecord
  2
*D42
340
0
  0
BLOCK_RECORD
  5
8FBF
330
7466
100
AcDbSymbolTableRecord
100
AcDbBlockTableRecord
  2
*D43
340
0
  0
BLOCK_RECORD
  5
8FCC
330
7466
100
AcDbSymbolTableRecord
100
AcDbBlockTableRecord
  2
*D44
340
0
  0
BLOCK_RECORD
  5
8FDA
330
7466
100
AcDbSymbolTableRecord
100
AcDbBlockTableRecord
  2
*D45
340
0
  0
BLOCK_RECORD
  5
8FE8
330
7466
100
AcDbSymbolTableRecord
100
AcDbBlockTableRecord
  2
*D46
340
0
  0
BLOCK_RECORD
  5
8FF4
330
7466
100
AcDbSymbolTableRecord
100
AcDbBlockTableRecord
  2
*D47
340
0
  0
BLOCK_RECORD
  5
9000
330
7466
100
AcDbSymbolTableRecord
100
AcDbBlockTableRecord
  2
*D48
340
0
  0
BLOCK_RECORD
  5
900C
330
7466
100
AcDbSymbolTableRecord
100
AcDbBlockTableRecord
  2
*D49
340
0
  0
BLOCK_RECORD
  5
9018
330
7466
100
AcDbSymbolTableRecord
100
AcDbBlockTableRecord
  2
*D50
340
0
  0
BLOCK_RECORD
  5
9026
330
7466
100
AcDbSymbolTableRecord
100
AcDbBlockTableRecord
  2
*D51
340
0
  0
BLOCK_RECORD
  5
9033
330
7466
100
AcDbSymbolTableRecord
100
AcDbBlockTableRecord
  2
*D52
340
0
  0
BLOCK_RECORD
  5
903E
330
7466
100
AcDbSymbolTableRecord
100
AcDbBlockTableRecord
  2
*D53
340
0
  0
BLOCK_RECORD
  5
9049
330
7466
100
AcDbSymbolTableRecord
100
AcDbBlockTableRecord
  2
*D54
340
0
  0
BLOCK_RECORD
  5
9055
330
7466
100
AcDbSymbolTableRecord
100
AcDbBlockTableRecord
  2
*D55
340
0
  0
BLOCK_RECORD
  5
9061
330
7466
100
AcDbSymbolTableRecord
100
AcDbBlockTableRecord
  2
*D56
340
0
  0
BLOCK_RECORD
  5
906E
330
7466
100
AcDbSymbolTableRecord
100
AcDbBlockTableRecord
  2
*D57
340
0
  0
BLOCK_RECORD
  5
907A
330
7466
100
AcDbSymbolTableRecord
100
AcDbBlockTableRecord
  2
*D58
340
0
  0
BLOCK_RECORD
  5
9085
330
7466
100
AcDbSymbolTableRecord
100
AcDbBlockTableRecord
  2
*D59
340
0
  0
BLOCK_RECORD
  5
9090
330
7466
100
AcDbSymbolTableRecord
100
AcDbBlockTableRecord
  2
*D60
340
0
  0
BLOCK_RECORD
  5
909C
330
7466
100
AcDbSymbolTableRecord
100
AcDbBlockTableRecord
  2
*D61
340
0
  0
BLOCK_RECORD
  5
90A8
330
7466
100
AcDbSymbolTableRecord
100
AcDbBlockTableRecord
  2
*D62
340
0
  0
BLOCK_RECORD
  5
90B5
330
7466
100
AcDbSymbolTableRecord
100
AcDbBlockTableRecord
  2
*D63
340
0
  0
BLOCK_RECORD
  5
90C2
330
7466
100
AcDbSymbolTableRecord
100
AcDbBlockTableRecord
  2
*D64
340
0
  0
BLOCK_RECORD
  5
93CF
330
7466
100
AcDbSymbolTableRecord
100
AcDbBlockTableRecord
  2
*D65
340
0
  0
BLOCK_RECORD
  5
9418
330
7466
100
AcDbSymbolTableRecord
100
AcDbBlockTableRecord
  2
*D66
340
0
  0
BLOCK_RECORD
  5
9431
330
7466
100
AcDbSymbolTableRecord
100
AcDbBlockTableRecord
  2
*D67
340
0
  0
BLOCK_RECORD
  5
945F
330
7466
100
AcDbSymbolTableRecord
100
AcDbBlockTableRecord
  2
*D68
340
0
  0
BLOCK_RECORD
  5
9485
330
7466
100
AcDbSymbolTableRecord
100
AcDbBlockTableRecord
  2
*D69
340
0
  0
BLOCK_RECORD
  5
957B
330
7466
100
AcDbSymbolTableRecord
100
AcDbBlockTableRecord
  2
*D70
340
0
  0
BLOCK_RECORD
  5
9632
330
7466
100
AcDbSymbolTableRecord
100
AcDbBlockTableRecord
  2
*D71
340
0
  0
BLOCK_RECORD
  5
964B
330
7466
100
AcDbSymbolTableRecord
100
AcDbBlockTableRecord
  2
*D73
340
0
  0
BLOCK_RECORD
  5
96AF
330
7466
100
AcDbSymbolTableRecord
100
AcDbBlockTableRecord
  2
*D76
340
0
  0
BLOCK_RECORD
  5
96BC
330
7466
100
AcDbSymbolTableRecord
100
AcDbBlockTableRecord
  2
*D77
340
0
  0
ENDTAB
  0
ENDSEC
  0
SECTION
  2
BLOCKS
  0
BLOCK
  5
7489
330
747D
100
AcDbEntity
  8
0
100
AcDbBlockBegin
  2
*MODEL_SPACE
 70
     0
 10
0.0
 20
0.0
 30
0.0
  3
*MODEL_SPACE
  1

  0
ENDBLK
  5
748A
330
747D
100
AcDbEntity
  8
0
100
AcDbBlockEnd
  0
BLOCK
  5
7487
330
747A
100
AcDbEntity
 67
     1
  8
0
100
AcDbBlockBegin
  2
*PAPER_SPACE
 70
     2
 10
0.0
 20
0.0
 30
0.0
  3
*PAPER_SPACE
  1

  0
ENDBLK
  5
7488
330
747A
100
AcDbEntity
 67
     1
  8
0
100
AcDbBlockEnd
  0
BLOCK
  5
7494
330
7493
100
AcDbEntity
  8
0
100
AcDbBlockBegin
  2
TITLE_BLOCK
 70
     2
 10
0.0
 20
0.0
 30
0.0
  3
TITLE_BLOCK
  1

  0
LINE
  5
7495
330
7493
100
AcDbEntity
  8
0
 62
     0
100
AcDbLine
 10
402.7943262411347
 20
16.00000000000008
 30
0.0
 11
410.0
 21
16.00000000000008
 31
0.0
  0
LINE
  5
7496
330
7493
100
AcDbEntity
  8
0
 62
     0
100
AcDbLine
 10
410.0
 20
10.0
 30
0.0
 11
410.0
 21
49.00000000000036
 31
0.0
  0
LINE
  5
7497
330
7493
100
AcDbEntity
  8
0
 62
     0
100
AcDbLine
 10
410.0
 20
49.00000000000036
 30
0.0
 11
410.0
 21
10.0
 31
0.0
  0
LINE
  5
7498
330
7493
100
AcDbEntity
  8
0
 62
     0
100
AcDbLine
 10
402.7943262411347
 20
22.00000000000012
 30
0.0
 11
402.7943262411347
 21
10.0
 31
0.0
  0
LINE
  5
7499
330
7493
100
AcDbEntity
  8
0
 62
     0
100
AcDbLine
 10
336.1418439716306
 20
49.00000000000036
 30
0.0
 11
336.1418439716306
 21
22.00000000000012
 31
0.0
  0
LINE
  5
749A
330
7493
100
AcDbEntity
  8
0
 62
     0
100
AcDbLine
 10
325.3333333333326
 20
37.00000000000024
 30
0.0
 11
325.3333333333326
 21
25.00000000000012
 31
0.0
  0
LINE
  5
749B
330
7493
100
AcDbEntity
  8
0
 62
     0
100
AcDbLine
 10
318.1276595744673
 20
49.00000000000036
 30
0.0
 11
318.1276595744673
 21
25.00000000000012
 31
0.0
  0
LINE
  5
749C
330
7493
100
AcDbEntity
  8
0
 62
     0
100
AcDbLine
 10
318.1276595744673
 20
25.00000000000012
 30
0.0
 11
348.7517730496447
 21
25.00000000000012
 31
0.0
  0
LINE
  5
749D
330
7493
100
AcDbEntity
  8
0
 62
     0
100
AcDbLine
 10
280.2978723404242
 20
28.00000000000016
 30
0.0
 11
348.7517730496447
 21
28.00000000000016
 31
0.0
  0
LINE
  5
749E
330
7493
100
AcDbEntity
  8
0
 62
     0
100
AcDbLine
 10
280.2978723404242
 20
31.0000000000002
 30
0.0
 11
348.7517730496447
 21
31.0000000000002
 31
0.0
  0
LINE
  5
749F
330
7493
100
AcDbEntity
  8
0
 62
     0
100
AcDbLine
 10
280.2978723404242
 20
34.00000000000024
 30
0.0
 11
348.7517730496447
 21
34.00000000000024
 31
0.0
  0
LINE
  5
74A0
330
7493
100
AcDbEntity
  8
0
 62
     0
100
AcDbLine
 10
280.2978723404242
 20
19.00000000000008
 30
0.0
 11
318.1276595744673
 21
19.00000000000012
 31
0.0
  0
LINE
  5
74A1
330
7493
100
AcDbEntity
  8
0
 62
     0
100
AcDbLine
 10
280.2978723404242
 20
22.00000000000008
 30
0.0
 11
318.1276595744673
 21
22.00000000000012
 31
0.0
  0
LINE
  5
74A2
330
7493
100
AcDbEntity
  8
0
 62
     0
100
AcDbLine
 10
280.2978723404242
 20
25.00000000000012
 30
0.0
 11
318.1276595744673
 21
25.00000000000012
 31
0.0
  0
TEXT
  5
74A3
330
7493
100
AcDbEntity
  8
0
 62
     0
100
AcDbText
 10
342.2447163844405
 20
10.55220101068186
 30
0.0
 40
1.791674070777747
  1
照査
  7
ADESK1
 72
     1
 11
344.1558353932701
 21
10.55220101068186
 31
0.0
100
AcDbText
  0
TEXT
  5
74A4
330
7493
100
AcDbEntity
  8
0
 62
     0
100
AcDbText
 10
332.2960689314087
 20
10.48329012996929
 30
0.0
 40
1.791674070777747
  1
設計
  7
ADESK1
 72
     1
 11
334.2071879402383
 21
10.48329012996929
 31
0.0
100
AcDbText
  0
TEXT
  5
74A5
330
7493
100
AcDbEntity
  8
0
 62
     0
100
AcDbText
 10
321.7174935280942
 20
10.48329012996929
 30
0.0
 40
1.791674070777747
  1
製図
  7
ADESK1
 72
     1
 11
323.5688900678979
 21
10.48329012996929
 31
0.0
100
AcDbText
  0
LINE
  5
74A6
330
7493
100
AcDbEntity
  8
0
 62
     0
100
AcDbLine
 10
280.2978723404242
 20
10.0
 30
0.0
 11
280.2978723404242
 21
13.00000000000004
 31
0.0
  0
LINE
  5
74A7
330
7493
100
AcDbEntity
  8
0
 62
     0
100
AcDbLine
 10
280.2978723404242
 20
16.00000000000008
 30
0.0
 11
318.1276595744673
 21
16.00000000000008
 31
0.0
  0
LINE
  5
74A8
330
7493
100
AcDbEntity
  8
0
 62
     0
100
AcDbLine
 10
339.4042553191484
 20
22.00000000000008
 30
0.0
 11
339.4042553191484
 21
10.0
 31
0.0
  0
LINE
  5
74A9
330
7493
100
AcDbEntity
  8
0
 62
     0
100
AcDbLine
 10
328.7659574468078
 20
22.00000000000008
 30
0.0
 11
328.7659574468078
 21
10.0
 31
0.0
  0
LINE
  5
74AA
330
7493
100
AcDbEntity
  8
0
 62
     0
100
AcDbLine
 10
348.7517730496447
 20
49.00000000000036
 30
0.0
 11
348.7517730496447
 21
10.0
 31
0.0
  0
LINE
  5
74AB
330
7493
100
AcDbEntity
  8
0
 62
     0
100
AcDbLine
 10
280.2978723404242
 20
49.00000000000036
 30
0.0
 11
280.2978723404242
 21
10.0
 31
0.0
  0
LINE
  5
74AC
330
7493
100
AcDbEntity
  8
0
 62
     0
100
AcDbLine
 10
318.1276595744673
 20
25.00000000000012
 30
0.0
 11
318.1276595744673
 21
10.0
 31
0.0
  0
LINE
  5
74AD
330
7493
100
AcDbEntity
  8
0
 62
     0
100
AcDbLine
 10
312.7234042553184
 20
37.00000000000024
 30
0.0
 11
312.7234042553184
 21
10.0
 31
0.0
  0
LINE
  5
74AE
330
7493
100
AcDbEntity
  8
0
 62
     0
100
AcDbLine
 10
285.7021276595731
 20
37.00000000000024
 30
0.0
 11
285.7021276595731
 21
10.0
 31
0.0
  0
LINE
  5
74AF
330
7493
100
AcDbEntity
  8
0
 62
     0
100
AcDbLine
 10
303.7163120567366
 20
37.00000000000024
 30
0.0
 11
303.7163120567366
 21
10.0
 31
0.0
  0
LINE
  5
74B0
330
7493
100
AcDbEntity
  8
0
 62
     0
100
AcDbLine
 10
410.0
 20
49.00000000000036
 30
0.0
 11
280.2978723404242
 21
49.00000000000036
 31
0.0
  0
LINE
  5
74B1
330
7493
100
AcDbEntity
  8
0
 62
     0
100
AcDbLine
 10
280.2978723404242
 20
10.0
 30
0.0
 11
410.0
 21
10.0
 31
0.0
  0
LINE
  5
74B2
330
7493
100
AcDbEntity
  8
0
 62
     0
100
AcDbLine
 10
318.1276595744673
 20
22.00000000000012
 30
0.0
 11
410.0
 21
22.00000000000012
 31
0.0
  0
LINE
  5
74B3
330
7493
100
AcDbEntity
  8
0
 62
     0
100
AcDbLine
 10
280.2978723404242
 20
37.00000000000024
 30
0.0
 11
410.0
 21
37.00000000000024
 31
0.0
  0
LINE
  5
74B4
330
7493
100
AcDbEntity
  8
0
 62
     0
100
AcDbLine
 10
280.2978723404242
 20
13.00000000000004
 30
0.0
 11
410.0
 21
13.00000000000004
 31
0.0
  0
LINE
  5
74B5
330
7493
100
AcDbEntity
  8
0
 62
     0
100
AcDbLine
 10
280.2978723404242
 20
49.00000000000036
 30
0.0
 11
410.0
 21
49.00000000000036
 31
0.0
  0
TEXT
  5
74B6
330
7493
100
AcDbEntity
  8
0
100
AcDbText
 10
411.3708251683467
 20
33.08333333333334
 30
0.0
 40
3.0
  1
F
  7
ADESK1
 72
     1
 11
412.8708251683468
 21
33.08333333333334
 31
0.0
100
AcDbText
  0
TEXT
  5
74B7
330
7493
100
AcDbEntity
  8
0
100
AcDbText
 10
411.3708251683467
 20
79.25
 30
0.0
 40
3.0
  1
E
  7
ADESK1
 72
     1
 11
412.8708251683468
 21
79.25
 31
0.0
100
AcDbText
  0
TEXT
  5
74B8
330
7493
100
AcDbEntity
  8
0
100
AcDbText
 10
411.2993965969182
 20
125.4166666666666
 30
0.0
 40
3.0
  1
D
  7
ADESK1
 72
     1
 11
412.8708251683468
 21
125.4166666666666
 31
0.0
100
AcDbText
  0
TEXT
  5
74B9
330
7493
100
AcDbEntity
  8
0
100
AcDbText
 10
411.3708251683467
 20
171.5833333333333
 30
0.0
 40
3.0
  1
C
  7
ADESK1
 72
     1
 11
412.8708251683468
 21
171.5833333333333
 31
0.0
100
AcDbText
  0
TEXT
  5
74BA
330
7493
100
AcDbEntity
  8
0
100
AcDbText
 10
411.2993965969182
 20
217.75
 30
0.0
 40
3.0
  1
B
  7
ADESK1
 72
     1
 11
412.8708251683468
 21
217.75
 31
0.0
100
AcDbText
  0
TEXT
  5
74BB
330
7493
100
AcDbEntity
  8
0
100
AcDbText
 10
411.5851108826324
 20
263.9166666666666
 30
0.0
 40
3.0
  1
A
  7
ADESK1
 72
     1
 11
412.8708251683468
 21
263.9166666666666
 31
0.0
100
AcDbText
  0
TEXT
  5
74BC
330
7493
100
AcDbEntity
  8
0
100
AcDbText
 10
384.5089285714286
 20
6.019997240728748
 30
0.0
 40
3.0
  1
8
  7
ADESK1
 72
     1
 11
385.9375
 21
6.019997240728748
 31
0.0
100
AcDbText
  0
TEXT
  5
74BD
330
7493
100
AcDbEntity
  8
0
100
AcDbText
 10
336.3839285714286
 20
6.019997240728748
 30
0.0
 40
3.0
  1
7
  7
ADESK1
 72
     1
 11
337.8125
 21
6.019997240728748
 31
0.0
100
AcDbText
  0
TEXT
  5
74BE
330
7493
100
AcDbEntity
  8
0
100
AcDbText
 10
288.1875
 20
6.019997240728748
 30
0.0
 40
3.0
  1
6
  7
ADESK1
 72
     1
 11
289.6875
 21
6.019997240728748
 31
0.0
100
AcDbText
  0
TEXT
  5
74BF
330
7493
100
AcDbEntity
  8
0
100
AcDbText
 10
240.1339285714286
 20
6.019997240728748
 30
0.0
 40
3.0
  1
5
  7
ADESK1
 72
     1
 11
241.5625
 21
6.019997240728748
 31
0.0
100
AcDbText
  0
TEXT
  5
74C0
330
7493
100
AcDbEntity
  8
0
100
AcDbText
 10
191.9375
 20
6.019997240728748
 30
0.0
 40
3.0
  1
4
  7
ADESK1
 72
     1
 11
193.4375
 21
6.019997240728748
 31
0.0
100
AcDbText
  0
TEXT
  5
74C1
330
7493
100
AcDbEntity
  8
0
100
AcDbText
 10
143.8839285714285
 20
6.019997240728748
 30
0.0
 40
3.0
  1
3
  7
ADESK1
 72
     1
 11
145.3125
 21
6.019997240728748
 31
0.0
100
AcDbText
  0
TEXT
  5
74C2
330
7493
100
AcDbEntity
  8
0
100
AcDbText
 10
95.75892857142857
 20
6.019997240728748
 30
0.0
 40
3.0
  1
2
  7
ADESK1
 72
     1
 11
97.1875
 21
6.019997240728748
 31
0.0
100
AcDbText
  0
TEXT
  5
74C3
330
7493
100
AcDbEntity
  8
0
100
AcDbText
 10
47.84821428571429
 20
6.019997240728748
 30
0.0
 40
3.0
  1
1
  7
ADESK1
 72
     1
 11
49.0625
 21
6.019997240728748
 31
0.0
100
AcDbText
  0
TEXT
  5
74C4
330
7493
100
AcDbEntity
  8
0
100
AcDbText
 10
21.1071613595339
 20
33.08333333333334
 30
0.0
 40
3.0
  1
F
  7
ADESK1
 72
     1
 11
22.6071613595339
 21
33.08333333333334
 31
0.0
100
AcDbText
  0
TEXT
  5
74C5
330
7493
100
AcDbEntity
  8
0
100
AcDbText
 10
21.1071613595339
 20
79.25
 30
0.0
 40
3.0
  1
E
  7
ADESK1
 72
     1
 11
22.6071613595339
 21
79.25
 31
0.0
100
AcDbText
  0
TEXT
  5
74C6
330
7493
100
AcDbEntity
  8
0
100
AcDbText
 10
21.03573278810533
 20
125.4166666666666
 30
0.0
 40
3.0
  1
D
  7
ADESK1
 72
     1
 11
22.6071613595339
 21
125.4166666666666
 31
0.0
100
AcDbText
  0
TEXT
  5
74C7
330
7493
100
AcDbEntity
  8
0
100
AcDbText
 10
21.1071613595339
 20
171.5833333333333
 30
0.0
 40
3.0
  1
C
  7
ADESK1
 72
     1
 11
22.6071613595339
 21
171.5833333333333
 31
0.0
100
AcDbText
  0
TEXT
  5
74C8
330
7493
100
AcDbEntity
  8
0
100
AcDbText
 10
21.03573278810533
 20
217.75
 30
0.0
 40
3.0
  1
B
  7
ADESK1
 72
     1
 11
22.6071613595339
 21
217.75
 31
0.0
100
AcDbText
  0
TEXT
  5
74C9
330
7493
100
AcDbEntity
  8
0
100
AcDbText
 10
384.5089285714286
 20
288.0
 30
0.0
 40
3.0
  1
8
  7
ADESK1
 72
     1
 11
385.9375
 21
288.0
 31
0.0
100
AcDbText
  0
TEXT
  5
74CA
330
7493
100
AcDbEntity
  8
0
100
AcDbText
 10
336.3839285714286
 20
288.0
 30
0.0
 40
3.0
  1
7
  7
ADESK1
 72
     1
 11
337.8125
 21
288.0
 31
0.0
100
AcDbText
  0
TEXT
  5
74CB
330
7493
100
AcDbEntity
  8
0
100
AcDbText
 10
288.1875
 20
288.0
 30
0.0
 40
3.0
  1
6
  7
ADESK1
 72
     1
 11
289.6875
 21
288.0
 31
0.0
100
AcDbText
  0
TEXT
  5
74CC
330
7493
100
AcDbEntity
  8
0
100
AcDbText
 10
240.1339285714286
 20
288.0
 30
0.0
 40
3.0
  1
5
  7
ADESK1
 72
     1
 11
241.5625
 21
288.0
 31
0.0
100
AcDbText
  0
TEXT
  5
74CD
330
7493
100
AcDbEntity
  8
0
100
AcDbText
 10
191.9375
 20
288.0
 30
0.0
 40
3.0
  1
4
  7
ADESK1
 72
     1
 11
193.4375
 21
288.0
 31
0.0
100
AcDbText
  0
TEXT
  5
74CE
330
7493
100
AcDbEntity
  8
0
100
AcDbText
 10
143.8839285714285
 20
288.0
 30
0.0
 40
3.0
  1
3
  7
ADESK1
 72
     1
 11
145.3125
 21
288.0
 31
0.0
100
AcDbText
  0
TEXT
  5
74CF
330
7493
100
AcDbEntity
  8
0
100
AcDbText
 10
95.75892857142857
 20
288.0
 30
0.0
 40
3.0
  1
2
  7
ADESK1
 72
     1
 11
97.1875
 21
288.0
 31
0.0
100
AcDbText
  0
TEXT
  5
74D0
330
7493
100
AcDbEntity
  8
0
100
AcDbText
 10
21.32144707381961
 20
263.9166666666666
 30
0.0
 40
3.0
  1
A
  7
ADESK1
 72
     1
 11
22.6071613595339
 21
263.9166666666666
 31
0.0
100
AcDbText
  0
TEXT
  5
74D1
330
7493
100
AcDbEntity
  8
0
100
AcDbText
 10
47.84821428571429
 20
288.0
 30
0.0
 40
3.0
  1
1
  7
ADESK1
 72
     1
 11
49.0625
 21
288.0
 31
0.0
100
AcDbText
  0
LINE
  5
74D2
330
7493
100
AcDbEntity
  8
0
100
AcDbLine
 10
73.125
 20
287.0
 30
0.0
 11
73.125
 21
292.0
 31
0.0
  0
LINE
  5
74D3
330
7493
100
AcDbEntity
  8
0
100
AcDbLine
 10
121.25
 20
287.0
 30
0.0
 11
121.25
 21
292.0
 31
0.0
  0
LINE
  5
74D4
330
7493
100
AcDbEntity
  8
0
100
AcDbLine
 10
169.375
 20
287.0
 30
0.0
 11
169.375
 21
292.0
 31
0.0
  0
LINE
  5
74D5
330
7493
100
AcDbEntity
  8
0
100
AcDbLine
 10
217.5
 20
287.0
 30
0.0
 11
217.5
 21
292.0
 31
0.0
  0
LINE
  5
74D6
330
7493
100
AcDbEntity
  8
0
100
AcDbLine
 10
265.625
 20
287.0
 30
0.0
 11
265.625
 21
292.0
 31
0.0
  0
LINE
  5
74D7
330
7493
100
AcDbEntity
  8
0
100
AcDbLine
 10
313.75
 20
287.0
 30
0.0
 11
313.75
 21
292.0
 31
0.0
  0
LINE
  5
74D8
330
7493
100
AcDbEntity
  8
0
100
AcDbLine
 10
361.875
 20
287.0
 30
0.0
 11
361.875
 21
292.0
 31
0.0
  0
LINE
  5
74D9
330
7493
100
AcDbEntity
  8
0
100
AcDbLine
 10
361.875
 20
10.0
 30
0.0
 11
361.875
 21
5.0
 31
0.0
  0
LINE
  5
74DA
330
7493
100
AcDbEntity
  8
0
100
AcDbLine
 10
313.75
 20
10.0
 30
0.0
 11
313.75
 21
5.0
 31
0.0
  0
LINE
  5
74DB
330
7493
100
AcDbEntity
  8
0
100
AcDbLine
 10
265.625
 20
10.0
 30
0.0
 11
265.625
 21
5.0
 31
0.0
  0
LINE
  5
74DC
330
7493
100
AcDbEntity
  8
0
100
AcDbLine
 10
217.5
 20
10.0
 30
0.0
 11
217.5
 21
5.0
 31
0.0
  0
LINE
  5
74DD
330
7493
100
AcDbEntity
  8
0
100
AcDbLine
 10
169.375
 20
10.0
 30
0.0
 11
169.375
 21
5.0
 31
0.0
  0
LINE
  5
74DE
330
7493
100
AcDbEntity
  8
0
100
AcDbLine
 10
121.25
 20
10.0
 30
0.0
 11
121.25
 21
5.0
 31
0.0
  0
LINE
  5
74DF
330
7493
100
AcDbEntity
  8
0
100
AcDbLine
 10
73.125
 20
10.0
 30
0.0
 11
73.125
 21
5.0
 31
0.0
  0
LINE
  5
74E0
330
7493
100
AcDbEntity
  8
0
100
AcDbLine
 10
410.0
 20
240.8333333333334
 30
0.0
 11
415.0
 21
240.8333333333334
 31
0.0
  0
LINE
  5
74E1
330
7493
100
AcDbEntity
  8
0
100
AcDbLine
 10
410.0
 20
194.6666666666667
 30
0.0
 11
415.0
 21
194.6666666666667
 31
0.0
  0
LINE
  5
74E2
330
7493
100
AcDbEntity
  8
0
100
AcDbLine
 10
410.0
 20
148.5
 30
0.0
 11
415.0
 21
148.5
 31
0.0
  0
LINE
  5
74E3
330
7493
100
AcDbEntity
  8
0
100
AcDbLine
 10
410.0
 20
102.3333333333333
 30
0.0
 11
415.0
 21
102.3333333333333
 31
0.0
  0
LINE
  5
74E4
330
7493
100
AcDbEntity
  8
0
100
AcDbLine
 10
410.0
 20
56.16666666666668
 30
0.0
 11
415.0
 21
56.16666666666668
 31
0.0
  0
LINE
  5
74E5
330
7493
100
AcDbEntity
  8
0
100
AcDbLine
 10
25.0
 20
56.16666666666667
 30
0.0
 11
20.0
 21
56.16666666666667
 31
0.0
  0
LINE
  5
74E6
330
7493
100
AcDbEntity
  8
0
100
AcDbLine
 10
25.0
 20
102.3333333333333
 30
0.0
 11
20.0
 21
102.3333333333333
 31
0.0
  0
LINE
  5
74E7
330
7493
100
AcDbEntity
  8
0
100
AcDbLine
 10
25.0
 20
148.5
 30
0.0
 11
20.0
 21
148.5
 31
0.0
  0
LINE
  5
74E8
330
7493
100
AcDbEntity
  8
0
100
AcDbLine
 10
25.0
 20
194.6666666666666
 30
0.0
 11
20.0
 21
194.6666666666666
 31
0.0
  0
LINE
  5
74E9
330
7493
100
AcDbEntity
  8
0
100
AcDbLine
 10
25.0
 20
240.8333333333333
 30
0.0
 11
20.0
 21
240.8333333333333
 31
0.0
  0
TEXT
  5
74EA
330
7493
100
AcDbEntity
  8
0
100
AcDbText
 10
1.0
 20
1.0
 30
0.0
 40
3.0
  1
この図枠はサンプルです。社内の規格やプロッタの出力範囲に合わせて適当に変更してご利用ください。
  7
ADESK1
100
AcDbText
  0
LINE
  5
74EB
330
7493
100
AcDbEntity
  8
0
100
AcDbLine
 10
25.0
 20
148.5
 30
0.0
 11
0.0
 21
148.5
 31
0.0
  0
LINE
  5
74EC
330
7493
100
AcDbEntity
  8
0
100
AcDbLine
 10
410.0
 20
148.5
 30
0.0
 11
420.0
 21
148.5
 31
0.0
  0
LINE
  5
74ED
330
7493
100
AcDbEntity
  8
0
100
AcDbLine
 10
217.5
 20
287.0
 30
0.0
 11
217.5
 21
297.0
 31
0.0
  0
LINE
  5
74EE
330
7493
100
AcDbEntity
  8
0
100
AcDbLine
 10
217.5
 20
10.0
 30
0.0
 11
217.5
 21
0.0
 31
0.0
  0
LINE
  5
74EF
330
7493
100
AcDbEntity
  8
OBJECT
100
AcDbLine
 10
130.0
 20
40.0
 30
0.0
 11
130.0
 21
10.0
 31
0.0
  0
LINE
  5
74F0
330
7493
100
AcDbEntity
  8
OBJECT
100
AcDbLine
 10
120.0
 20
10.0
 30
0.0
 11
120.0
 21
40.0
 31
0.0
  0
LINE
  5
74F1
330
7493
100
AcDbEntity
  8
OBJECT
100
AcDbLine
 10
44.5
 20
37.0
 30
0.0
 11
45.49999999999999
 21
37.0
 31
0.0
  0
LINE
  5
74F2
330
7493
100
AcDbEntity
  8
OBJECT
100
AcDbLine
 10
44.5
 20
31.0
 30
0.0
 11
45.49999999999999
 21
31.0
 31
0.0
  0
LINE
  5
74F3
330
7493
100
AcDbEntity
  8
OBJECT
100
AcDbLine
 10
39.5
 20
37.0
 30
0.0
 11
40.49999999999999
 21
37.0
 31
0.0
  0
LINE
  5
74F4
330
7493
100
AcDbEntity
  8
OBJECT
100
AcDbLine
 10
39.5
 20
31.0
 30
0.0
 11
40.49999999999999
 21
31.0
 31
0.0
  0
LINE
  5
74F5
330
7493
100
AcDbEntity
  8
OBJECT
100
AcDbLine
 10
44.5
 20
25.0
 30
0.0
 11
45.49999999999999
 21
25.0
 31
0.0
  0
LINE
  5
74F6
330
7493
100
AcDbEntity
  8
OBJECT
100
AcDbLine
 10
39.5
 20
25.0
 30
0.0
 11
40.49999999999999
 21
25.0
 31
0.0
  0
LINE
  5
74F7
330
7493
100
AcDbEntity
  8
OBJECT
100
AcDbLine
 10
44.5
 20
19.0
 30
0.0
 11
45.49999999999999
 21
19.0
 31
0.0
  0
LINE
  5
74F8
330
7493
100
AcDbEntity
  8
OBJECT
100
AcDbLine
 10
39.5
 20
19.0
 30
0.0
 11
40.49999999999999
 21
19.0
 31
0.0
  0
LINE
  5
74F9
330
7493
100
AcDbEntity
  8
OBJECT
100
AcDbLine
 10
28.0
 20
29.53589800000001
 30
0.0
 11
30.0
 21
33.0
 31
0.0
  0
LINE
  5
74FA
330
7493
100
AcDbEntity
  8
OBJECT
100
AcDbLine
 10
28.0
 20
29.53589800000001
 30
0.0
 11
32.0
 21
29.53589800000001
 31
0.0
  0
LINE
  5
74FB
330
7493
100
AcDbEntity
  8
OBJECT
100
AcDbLine
 10
32.0
 20
29.53589800000001
 30
0.0
 11
30.0
 21
33.0
 31
0.0
  0
LINE
  5
74FC
330
7493
100
AcDbEntity
  8
OBJECT
100
AcDbLine
 10
28.0
 20
35.535898
 30
0.0
 11
32.0
 21
35.535898
 31
0.0
  0
LINE
  5
74FD
330
7493
100
AcDbEntity
  8
OBJECT
100
AcDbLine
 10
32.0
 20
35.535898
 30
0.0
 11
30.0
 21
39.0
 31
0.0
  0
LINE
  5
74FE
330
7493
100
AcDbEntity
  8
OBJECT
100
AcDbLine
 10
28.0
 20
35.535898
 30
0.0
 11
30.0
 21
39.0
 31
0.0
  0
LINE
  5
74FF
330
7493
100
AcDbEntity
  8
OBJECT
100
AcDbLine
 10
28.0
 20
23.535898
 30
0.0
 11
30.0
 21
27.0
 31
0.0
  0
LINE
  5
7500
330
7493
100
AcDbEntity
  8
OBJECT
100
AcDbLine
 10
28.0
 20
23.535898
 30
0.0
 11
32.0
 21
23.535898
 31
0.0
  0
LINE
  5
7501
330
7493
100
AcDbEntity
  8
OBJECT
100
AcDbLine
 10
32.0
 20
23.535898
 30
0.0
 11
30.0
 21
27.0
 31
0.0
  0
LINE
  5
7502
330
7493
100
AcDbEntity
  8
OBJECT
100
AcDbLine
 10
28.0
 20
17.535898
 30
0.0
 11
30.0
 21
21.0
 31
0.0
  0
LINE
  5
7503
330
7493
100
AcDbEntity
  8
OBJECT
100
AcDbLine
 10
28.0
 20
17.535898
 30
0.0
 11
32.0
 21
17.535898
 31
0.0
  0
LINE
  5
7504
330
7493
100
AcDbEntity
  8
OBJECT
100
AcDbLine
 10
32.0
 20
17.535898
 30
0.0
 11
30.0
 21
21.0
 31
0.0
  0
LINE
  5
7505
330
7493
100
AcDbEntity
  8
OBJECT
100
AcDbLine
 10
44.5
 20
13.0
 30
0.0
 11
45.49999999999999
 21
13.0
 31
0.0
  0
LINE
  5
7506
330
7493
100
AcDbEntity
  8
OBJECT
100
AcDbLine
 10
39.5
 20
13.0
 30
0.0
 11
40.49999999999999
 21
13.0
 31
0.0
  0
LINE
  5
7507
330
7493
100
AcDbEntity
  8
OBJECT
100
AcDbLine
 10
28.0
 20
11.535898
 30
0.0
 11
32.0
 21
11.535898
 31
0.0
  0
LINE
  5
7508
330
7493
100
AcDbEntity
  8
OBJECT
100
AcDbLine
 10
80.0
 20
10.0
 30
0.0
 11
80.0
 21
40.0
 31
0.0
  0
LINE
  5
7509
330
7493
100
AcDbEntity
  8
OBJECT
100
AcDbLine
 10
50.0
 20
10.0
 30
0.0
 11
50.0
 21
40.0
 31
0.0
  0
LINE
  5
750A
330
7493
100
AcDbEntity
  8
OBJECT
100
AcDbLine
 10
35.0
 20
10.0
 30
0.0
 11
35.0
 21
40.0
 31
0.0
  0
LINE
  5
750B
330
7493
100
AcDbEntity
  8
OBJECT
100
AcDbLine
 10
32.0
 20
11.535898
 30
0.0
 11
30.0
 21
15.0
 31
0.0
  0
LINE
  5
750C
330
7493
100
AcDbEntity
  8
OBJECT
100
AcDbLine
 10
28.0
 20
11.535898
 30
0.0
 11
30.0
 21
15.0
 31
0.0
  0
LINE
  5
750D
330
7493
100
AcDbEntity
  8
OBJECT
100
AcDbLine
 10
130.0
 20
40.0
 30
0.0
 11
25.0
 21
40.0
 31
0.0
  0
LINE
  5
750E
330
7493
100
AcDbEntity
  8
OBJECT
100
AcDbLine
 10
130.0
 20
34.0
 30
0.0
 11
25.0
 21
34.0
 31
0.0
  0
LINE
  5
750F
330
7493
100
AcDbEntity
  8
OBJECT
100
AcDbLine
 10
130.0
 20
28.0
 30
0.0
 11
25.0
 21
28.0
 31
0.0
  0
LINE
  5
7510
330
7493
100
AcDbEntity
  8
OBJECT
100
AcDbLine
 10
130.0
 20
22.0
 30
0.0
 11
25.0
 21
22.0
 31
0.0
  0
LINE
  5
7511
330
7493
100
AcDbEntity
  8
OBJECT
100
AcDbLine
 10
130.0
 20
16.0
 30
0.0
 11
25.0
 21
16.0
 31
0.0
  0
ATTDEF
  5
7512
330
7493
100
AcDbEntity
  8
0
 62
     0
100
AcDbText
 10
19.0
 20
118.0
 30
0.0
 40
3.0
  1

 50
90.0
  7
ADESK1
100
AcDbAttributeDefinition
  3

  2
FNAME
 70
     8
  0
ATTDEF
  5
7513
330
7493
100
AcDbEntity
  8
0
 62
     0
100
AcDbText
 10
19.0
 20
70.0
 30
0.0
 40
3.0
  1

 50
90.0
  7
ADESK1
100
AcDbAttributeDefinition
  3

  2
REVDATE
 70
     8
  0
ATTDEF
  5
7514
330
7493
100
AcDbEntity
  8
0
 62
     0
100
AcDbText
 10
19.0
 20
10.0
 30
0.0
 40
3.0
  1

 50
90.0
  7
ADESK1
100
AcDbAttributeDefinition
  3

  2
USER
 70
     8
  0
LINE
  5
7515
330
7493
100
AcDbEntity
  8
0
100
AcDbLine
 10
410.0
 20
297.0
 30
0.0
 11
420.0
 21
297.0
 31
0.0
  0
LINE
  5
7516
330
7493
100
AcDbEntity
  8
0
100
AcDbLine
 10
420.0
 20
10.0
 30
0.0
 11
420.0
 21
0.0
 31
0.0
  0
LINE
  5
7517
330
7493
100
AcDbEntity
  8
0
100
AcDbLine
 10
25.0
 20
0.0
 30
0.0
 11
0.0
 21
0.0
 31
0.0
  0
LINE
  5
7518
330
7493
100
AcDbEntity
  8
0
100
AcDbLine
 10
0.0
 20
287.0
 30
0.0
 11
0.0
 21
297.0
 31
0.0
  0
LINE
  5
7519
330
7493
100
AcDbEntity
  8
0
100
AcDbLine
 10
25.0
 20
287.0
 30
0.0
 11
410.0
 21
287.0
 31
0.0
  0
LINE
  5
751A
330
7493
100
AcDbEntity
  8
0
100
AcDbLine
 10
410.0
 20
287.0
 30
0.0
 11
410.0
 21
10.0
 31
0.0
  0
LINE
  5
751B
330
7493
100
AcDbEntity
  8
0
100
AcDbLine
 10
410.0
 20
10.0
 30
0.0
 11
25.0
 21
10.0
 31
0.0
  0
LINE
  5
751C
330
7493
100
AcDbEntity
  8
0
100
AcDbLine
 10
25.0
 20
10.0
 30
0.0
 11
25.0
 21
287.0
 31
0.0
  0
LINE
  5
751D
330
7493
100
AcDbEntity
  8
0
100
AcDbLine
 10
420.0
 20
0.0
 30
0.0
 11
410.0
 21
0.0
 31
0.0
  0
LINE
  5
751E
330
7493
100
AcDbEntity
  8
0
100
AcDbLine
 10
420.0
 20
297.0
 30
0.0
 11
420.0
 21
287.0
 31
0.0
  0
LINE
  5
751F
330
7493
100
AcDbEntity
  8
0
100
AcDbLine
 10
0.0
 20
297.0
 30
0.0
 11
25.0
 21
297.0
 31
0.0
  0
LINE
  5
7520
330
7493
100
AcDbEntity
  8
0
100
AcDbLine
 10
0.0
 20
0.0
 30
0.0
 11
0.0
 21
10.0
 31
0.0
  0
ENDBLK
  5
7521
330
7493
100
AcDbEntity
  8
0
100
AcDbBlockEnd
  0
BLOCK
  5
82DF
330
82D5
100
AcDbEntity
  8
0
 48
15.0
100
AcDbBlockBegin
  2
*D1
 70
     1
 10
0.0
 20
0.0
 30
0.0
  3
*D1
  1

  0
LINE
  5
82D6
330
82D5
100
AcDbEntity
  8
0
  6
ByBlock
 48
15.0
100
AcDbLine
 10
5868.190383268453
 20
-1020.90701398616
 30
0.0
 11
6149.849036117579
 21
-1020.90701398616
 31
0.0
  0
LINE
  5
82D7
330
82D5
100
AcDbEntity
  8
0
  6
ByBlock
 48
15.0
100
AcDbLine
 10
5868.190383268453
 20
-110.9070139861605
 30
0.0
 11
6149.849036117579
 21
-110.9070139861606
 31
0.0
  0
LINE
  5
82D8
330
82D5
100
AcDbEntity
  8
0
  6
ByBlock
 48
15.0
100
AcDbLine
 10
6142.349036117579
 20
-998.4070139861605
 30
0.0
 11
6142.349036117579
 21
-133.4070139861606
 31
0.0
  0
SOLID
  5
82D9
330
82D5
100
AcDbEntity
  8
0
  6
ByBlock
 48
15.0
100
AcDbTrace
 10
6138.599036117579
 20
-998.4070139861605
 30
0.0
 11
6146.099036117579
 21
-998.4070139861605
 31
0.0
 12
6142.349036117579
 22
-1020.90701398616
 32
0.0
 13
6142.349036117579
 23
-1020.90701398616
 33
0.0
  0
SOLID
  5
82DA
330
82D5
100
AcDbEntity
  8
0
  6
ByBlock
 48
15.0
100
AcDbTrace
 10
6138.599036117579
 20
-133.4070139861606
 30
0.0
 11
6146.099036117579
 21
-133.4070139861606
 31
0.0
 12
6142.349036117579
 22
-110.9070139861606
 32
0.0
 13
6142.349036117579
 23
-110.9070139861606
 33
0.0
  0
MTEXT
  5
82DB
330
82D5
100
AcDbEntity
  8
0
  6
ByBlock
 48
15.0
100
AcDbMText
 10
6112.349036117579
 20
-565.9070139861605
 30
0.0
 40
30.0
 41
0.0
 71
     5
 72
     1
  1
\A1;7@130=910
  7
SANWA
 11
0.0000000000000001
 21
1.0
 31
0.0
 73
     1
 44
1.0
1001
ACAD
1000
MTEXTBEGIN
1070
    73
1070
     1
1070
    44
1040
1.0
1070
    74
1070
     0
1000
MTEXTEND
  0
POINT
  5
82DC
330
82D5
100
AcDbEntity
  8
DEFPOINTS
  6
ByBlock
 62
     0
 48
15.0
100
AcDbPoint
 10
5853.190383268453
 20
-1020.90701398616
 30
0.0
  0
POINT
  5
82DD
330
82D5
100
AcDbEntity
  8
DEFPOINTS
  6
ByBlock
 62
     0
 48
15.0
100
AcDbPoint
 10
5853.190383268453
 20
-110.9070139861605
 30
0.0
  0
POINT
  5
82DE
330
82D5
100
AcDbEntity
  8
DEFPOINTS
  6
ByBlock
 62
     0
 48
15.0
100
AcDbPoint
 10
6142.349036117579
 20
-110.9070139861606
 30
0.0
  0
ENDBLK
  5
82E0
330
82D5
100
AcDbEntity
  8
0
 48
15.0
100
AcDbBlockEnd
  0
BLOCK
  5
82EC
330
82E1
100
AcDbEntity
  8
0
 48
15.0
100
AcDbBlockBegin
  2
*D2
 70
     1
 10
0.0
 20
0.0
 30
0.0
  3
*D2
  1

  0
LINE
  5
82E2
330
82E1
100
AcDbEntity
  8
0
  6
ByBlock
 48
15.0
100
AcDbLine
 10
5868.190383268453
 20
-65.90701398616056
 30
0.0
 11
6149.849036117579
 21
-65.90701398616059
 31
0.0
  0
LINE
  5
82E3
330
82E1
100
AcDbEntity
  8
0
  6
ByBlock
 48
15.0
100
AcDbLine
 10
6142.349036117579
 20
-133.4070139861606
 30
0.0
 11
6142.349036117579
 21
-155.9070139861606
 31
0.0
  0
LINE
  5
82E4
330
82E1
100
AcDbEntity
  8
0
  6
ByBlock
 48
15.0
100
AcDbLine
 10
6142.349036117579
 20
-43.4070139861606
 30
0.0
 11
6142.349036117579
 21
-20.9070139861606
 31
0.0
  0
LINE
  5
82E5
330
82E1
100
AcDbEntity
  8
0
  6
ByBlock
 48
15.0
100
AcDbLine
 10
6142.349036117579
 20
-110.9070139861606
 30
0.0
 11
6142.349036117579
 21
-65.90701398616059
 31
0.0
  0
SOLID
  5
82E6
330
82E1
100
AcDbEntity
  8
0
  6
ByBlock
 48
15.0
100
AcDbTrace
 10
6138.599036117579
 20
-133.4070139861606
 30
0.0
 11
6146.099036117579
 21
-133.4070139861606
 31
0.0
 12
6142.349036117579
 22
-110.9070139861606
 32
0.0
 13
6142.349036117579
 23
-110.9070139861606
 33
0.0
  0
SOLID
  5
82E7
330
82E1
100
AcDbEntity
  8
0
  6
ByBlock
 48
15.0
100
AcDbTrace
 10
6138.599036117579
 20
-43.40701398616059
 30
0.0
 11
6146.099036117579
 21
-43.40701398616059
 31
0.0
 12
6142.349036117579
 22
-65.90701398616059
 32
0.0
 13
6142.349036117579
 23
-65.90701398616059
 33
0.0
  0
MTEXT
  5
82E8
330
82E1
100
AcDbEntity
  8
0
  6
ByBlock
 48
15.0
100
AcDbMText
 10
6112.349036117579
 20
-88.4070139861606
 30
0.0
 40
30.0
 41
0.0
 71
     5
 72
     1
  1
\A1;45
  7
SANWA
 11
0.0000000000000001
 21
1.0
 31
0.0
 73
     1
 44
1.0
1001
ACAD
1000
MTEXTBEGIN
1070
    73
1070
     1
1070
    44
1040
1.0
1070
    74
1070
     0
1000
MTEXTEND
  0
POINT
  5
82E9
330
82E1
100
AcDbEntity
  8
DEFPOINTS
  6
ByBlock
 62
     0
 48
15.0
100
AcDbPoint
 10
5853.190383268453
 20
-110.9070139861605
 30
0.0
  0
POINT
  5
82EA
330
82E1
100
AcDbEntity
  8
DEFPOINTS
  6
ByBlock
 62
     0
 48
15.0
100
AcDbPoint
 10
5853.190383268453
 20
-65.90701398616056
 30
0.0
  0
POINT
  5
82EB
330
82E1
100
AcDbEntity
  8
DEFPOINTS
  6
ByBlock
 62
     0
 48
15.0
100
AcDbPoint
 10
6142.349036117579
 20
-65.90701398616059
 30
0.0
  0
ENDBLK
  5
82ED
330
82E1
100
AcDbEntity
  8
0
 48
15.0
100
AcDbBlockEnd
  0
BLOCK
  5
82FA
330
82EE
100
AcDbEntity
  8
0
 48
15.0
100
AcDbBlockBegin
  2
*D3
 70
     1
 10
0.0
 20
0.0
 30
0.0
  3
*D3
  1

  0
LINE
  5
82EF
330
82EE
100
AcDbEntity
  8
0
  6
ByBlock
 48
15.0
100
AcDbLine
 10
5868.190383268453
 20
-1065.90701398616
 30
0.0
 11
6149.849036117579
 21
-1065.90701398616
 31
0.0
  0
LINE
  5
82F0
330
82EE
100
AcDbEntity
  8
0
  6
ByBlock
 48
15.0
100
AcDbLine
 10
5868.190383268453
 20
-1020.90701398616
 30
0.0
 11
6149.849036117579
 21
-1020.90701398616
 31
0.0
  0
LINE
  5
82F1
330
82EE
100
AcDbEntity
  8
0
  6
ByBlock
 48
15.0
100
AcDbLine
 10
6142.349036117579
 20
-1088.40701398616
 30
0.0
 11
6142.349036117579
 21
-1110.90701398616
 31
0.0
  0
LINE
  5
82F2
330
82EE
100
AcDbEntity
  8
0
  6
ByBlock
 48
15.0
100
AcDbLine
 10
6142.349036117579
 20
-998.4070139861605
 30
0.0
 11
6142.349036117579
 21
-975.9070139861606
 31
0.0
  0
LINE
  5
82F3
330
82EE
100
AcDbEntity
  8
0
  6
ByBlock
 48
15.0
100
AcDbLine
 10
6142.349036117579
 20
-1065.90701398616
 30
0.0
 11
6142.349036117579
 21
-1020.90701398616
 31
0.0
  0
SOLID
  5
82F4
330
82EE
100
AcDbEntity
  8
0
  6
ByBlock
 48
15.0
100
AcDbTrace
 10
6138.599036117579
 20
-1088.40701398616
 30
0.0
 11
6146.099036117579
 21
-1088.40701398616
 31
0.0
 12
6142.349036117579
 22
-1065.90701398616
 32
0.0
 13
6142.349036117579
 23
-1065.90701398616
 33
0.0
  0
SOLID
  5
82F5
330
82EE
100
AcDbEntity
  8
0
  6
ByBlock
 48
15.0
100
AcDbTrace
 10
6138.599036117579
 20
-998.4070139861605
 30
0.0
 11
6146.099036117579
 21
-998.4070139861605
 31
0.0
 12
6142.349036117579
 22
-1020.90701398616
 32
0.0
 13
6142.349036117579
 23
-1020.90701398616
 33
0.0
  0
MTEXT
  5
82F6
330
82EE
100
AcDbEntity
  8
0
  6
ByBlock
 48
15.0
100
AcDbMText
 10
6112.349036117579
 20
-1043.40701398616
 30
0.0
 40
30.0
 41
0.0
 71
     5
 72
     1
  1
\A1;45
  7
SANWA
 11
0.0000000000000001
 21
1.0
 31
0.0
 73
     1
 44
1.0
1001
ACAD
1000
MTEXTBEGIN
1070
    73
1070
     1
1070
    44
1040
1.0
1070
    74
1070
     0
1000
MTEXTEND
  0
POINT
  5
82F7
330
82EE
100
AcDbEntity
  8
DEFPOINTS
  6
ByBlock
 62
     0
 48
15.0
100
AcDbPoint
 10
5853.190383268453
 20
-1065.90701398616
 30
0.0
  0
POINT
  5
82F8
330
82EE
100
AcDbEntity
  8
DEFPOINTS
  6
ByBlock
 62
     0
 48
15.0
100
AcDbPoint
 10
5853.190383268453
 20
-1020.90701398616
 30
0.0
  0
POINT
  5
82F9
330
82EE
100
AcDbEntity
  8
DEFPOINTS
  6
ByBlock
 62
     0
 48
15.0
100
AcDbPoint
 10
6142.349036117579
 20
-1020.90701398616
 30
0.0
  0
ENDBLK
  5
82FB
330
82EE
100
AcDbEntity
  8
0
 48
15.0
100
AcDbBlockEnd
  0
BLOCK
  5
8308
330
82FC
100
AcDbEntity
  8
0
 48
15.0
100
AcDbBlockBegin
  2
*D4
 70
     1
 10
0.0
 20
0.0
 30
0.0
  3
*D4
  1

  0
LINE
  5
82FD
330
82FC
100
AcDbEntity
  8
0
  6
ByBlock
 48
15.0
100
AcDbLine
 10
5453.190383268452
 20
-50.90701398616056
 30
0.0
 11
5453.190383268452
 21
31.03649067867991
 31
0.0
  0
LINE
  5
82FE
330
82FC
100
AcDbEntity
  8
0
  6
ByBlock
 48
15.0
100
AcDbLine
 10
5508.190383268454
 20
-50.90701398616056
 30
0.0
 11
5508.190383268454
 21
31.03649067867991
 31
0.0
  0
LINE
  5
82FF
330
82FC
100
AcDbEntity
  8
0
  6
ByBlock
 48
15.0
100
AcDbLine
 10
5430.690383268453
 20
23.53649067867991
 30
0.0
 11
5408.190383268453
 21
23.53649067867991
 31
0.0
  0
LINE
  5
8300
330
82FC
100
AcDbEntity
  8
0
  6
ByBlock
 48
15.0
100
AcDbLine
 10
5530.690383268454
 20
23.53649067867991
 30
0.0
 11
5553.190383268454
 21
23.53649067867991
 31
0.0
  0
LINE
  5
8301
330
82FC
100
AcDbEntity
  8
0
  6
ByBlock
 48
15.0
100
AcDbLine
 10
5453.190383268452
 20
23.53649067867991
 30
0.0
 11
5508.190383268454
 21
23.53649067867991
 31
0.0
  0
SOLID
  5
8302
330
82FC
100
AcDbEntity
  8
0
  6
ByBlock
 48
15.0
100
AcDbTrace
 10
5430.690383268453
 20
27.28649067867991
 30
0.0
 11
5430.690383268453
 21
19.78649067867991
 31
0.0
 12
5453.190383268452
 22
23.53649067867991
 32
0.0
 13
5453.190383268452
 23
23.53649067867991
 33
0.0
  0
SOLID
  5
8303
330
82FC
100
AcDbEntity
  8
0
  6
ByBlock
 48
15.0
100
AcDbTrace
 10
5530.690383268454
 20
27.28649067867991
 30
0.0
 11
5530.690383268454
 21
19.78649067867991
 31
0.0
 12
5508.190383268454
 22
23.53649067867991
 32
0.0
 13
5508.190383268454
 23
23.53649067867991
 33
0.0
  0
MTEXT
  5
8304
330
82FC
100
AcDbEntity
  8
0
  6
ByBlock
 48
15.0
100
AcDbMText
 10
5480.690383268453
 20
53.53649067867991
 30
0.0
 40
30.0
 41
0.0
 71
     5
 72
     1
  1
\A1;55
  7
SANWA
 73
     1
 44
1.0
1001
ACAD
1000
MTEXTBEGIN
1070
    73
1070
     1
1070
    44
1040
1.0
1070
    74
1070
     0
1000
MTEXTEND
  0
POINT
  5
8305
330
82FC
100
AcDbEntity
  8
DEFPOINTS
  6
ByBlock
 62
     0
 48
15.0
100
AcDbPoint
 10
5453.190383268452
 20
-65.90701398616056
 30
0.0
  0
POINT
  5
8306
330
82FC
100
AcDbEntity
  8
DEFPOINTS
  6
ByBlock
 62
     0
 48
15.0
100
AcDbPoint
 10
5508.190383268454
 20
-65.90701398616056
 30
0.0
  0
POINT
  5
8307
330
82FC
100
AcDbEntity
  8
DEFPOINTS
  6
ByBlock
 62
     0
 48
15.0
100
AcDbPoint
 10
5508.190383268454
 20
23.53649067867991
 30
0.0
  0
ENDBLK
  5
8309
330
82FC
100
AcDbEntity
  8
0
 48
15.0
100
AcDbBlockEnd
  0
BLOCK
  5
8313
330
830A
100
AcDbEntity
  8
0
 48
15.0
100
AcDbBlockBegin
  2
*D5
 70
     1
 10
0.0
 20
0.0
 30
0.0
  3
*D5
  1

  0
LINE
  5
830B
330
830A
100
AcDbEntity
  8
0
  6
ByBlock
 48
15.0
100
AcDbLine
 10
5798.190383268454
 20
-50.90701398616056
 30
0.0
 11
5798.190383268454
 21
31.03649067867991
 31
0.0
  0
LINE
  5
830C
330
830A
100
AcDbEntity
  8
0
  6
ByBlock
 48
15.0
100
AcDbLine
 10
5530.690383268454
 20
23.53649067867991
 30
0.0
 11
5775.690383268454
 21
23.53649067867991
 31
0.0
  0
SOLID
  5
830D
330
830A
100
AcDbEntity
  8
0
  6
ByBlock
 48
15.0
100
AcDbTrace
 10
5530.690383268454
 20
27.28649067867991
 30
0.0
 11
5530.690383268454
 21
19.78649067867991
 31
0.0
 12
5508.190383268454
 22
23.53649067867991
 32
0.0
 13
5508.190383268454
 23
23.53649067867991
 33
0.0
  0
SOLID
  5
830E
330
830A
100
AcDbEntity
  8
0
  6
ByBlock
 48
15.0
100
AcDbTrace
 10
5775.690383268454
 20
27.28649067867991
 30
0.0
 11
5775.690383268454
 21
19.78649067867991
 31
0.0
 12
5798.190383268454
 22
23.53649067867991
 32
0.0
 13
5798.190383268454
 23
23.53649067867991
 33
0.0
  0
MTEXT
  5
830F
330
830A
100
AcDbEntity
  8
0
  6
ByBlock
 48
15.0
100
AcDbMText
 10
5653.190383268454
 20
53.53649067867991
 30
0.0
 40
30.0
 41
0.0
 71
     5
 72
     1
  1
\A1;2@145=290
  7
SANWA
 73
     1
 44
1.0
1001
ACAD
1000
MTEXTBEGIN
1070
    73
1070
     1
1070
    44
1040
1.0
1070
    74
1070
     0
1000
MTEXTEND
  0
POINT
  5
8310
330
830A
100
AcDbEntity
  8
DEFPOINTS
  6
ByBlock
 62
     0
 48
15.0
100
AcDbPoint
 10
5508.190383268454
 20
-65.90701398616056
 30
0.0
  0
POINT
  5
8311
330
830A
100
AcDbEntity
  8
DEFPOINTS
  6
ByBlock
 62
     0
 48
15.0
100
AcDbPoint
 10
5798.190383268454
 20
-65.90701398616056
 30
0.0
  0
POINT
  5
8312
330
830A
100
AcDbEntity
  8
DEFPOINTS
  6
ByBlock
 62
     0
 48
15.0
100
AcDbPoint
 10
5798.190383268454
 20
23.53649067867991
 30
0.0
  0
ENDBLK
  5
8314
330
830A
100
AcDbEntity
  8
0
 48
15.0
100
AcDbBlockEnd
  0
BLOCK
  5
8320
330
8315
100
AcDbEntity
  8
0
 48
15.0
100
AcDbBlockBegin
  2
*D6
 70
     1
 10
0.0
 20
0.0
 30
0.0
  3
*D6
  1

  0
LINE
  5
8316
330
8315
100
AcDbEntity
  8
0
  6
ByBlock
 48
15.0
100
AcDbLine
 10
5853.190383268453
 20
-50.90701398616056
 30
0.0
 11
5853.190383268453
 21
31.03649067867991
 31
0.0
  0
LINE
  5
8317
330
8315
100
AcDbEntity
  8
0
  6
ByBlock
 48
15.0
100
AcDbLine
 10
5775.690383268454
 20
23.53649067867991
 30
0.0
 11
5753.190383268454
 21
23.53649067867991
 31
0.0
  0
LINE
  5
8318
330
8315
100
AcDbEntity
  8
0
  6
ByBlock
 48
15.0
100
AcDbLine
 10
5875.690383268453
 20
23.53649067867991
 30
0.0
 11
5898.190383268453
 21
23.53649067867991
 31
0.0
  0
LINE
  5
8319
330
8315
100
AcDbEntity
  8
0
  6
ByBlock
 48
15.0
100
AcDbLine
 10
5798.190383268454
 20
23.53649067867991
 30
0.0
 11
5853.190383268453
 21
23.53649067867991
 31
0.0
  0
SOLID
  5
831A
330
8315
100
AcDbEntity
  8
0
  6
ByBlock
 48
15.0
100
AcDbTrace
 10
5775.690383268454
 20
27.28649067867991
 30
0.0
 11
5775.690383268454
 21
19.78649067867991
 31
0.0
 12
5798.190383268454
 22
23.53649067867991
 32
0.0
 13
5798.190383268454
 23
23.53649067867991
 33
0.0
  0
SOLID
  5
831B
330
8315
100
AcDbEntity
  8
0
  6
ByBlock
 48
15.0
100
AcDbTrace
 10
5875.690383268453
 20
27.28649067867991
 30
0.0
 11
5875.690383268453
 21
19.78649067867991
 31
0.0
 12
5853.190383268453
 22
23.53649067867991
 32
0.0
 13
5853.190383268453
 23
23.53649067867991
 33
0.0
  0
MTEXT
  5
831C
330
8315
100
AcDbEntity
  8
0
  6
ByBlock
 48
15.0
100
AcDbMText
 10
5825.690383268453
 20
53.53649067867991
 30
0.0
 40
30.0
 41
0.0
 71
     5
 72
     1
  1
\A1;55
  7
SANWA
 73
     1
 44
1.0
1001
ACAD
1000
MTEXTBEGIN
1070
    73
1070
     1
1070
    44
1040
1.0
1070
    74
1070
     0
1000
MTEXTEND
  0
POINT
  5
831D
330
8315
100
AcDbEntity
  8
DEFPOINTS
  6
ByBlock
 62
     0
 48
15.0
100
AcDbPoint
 10
5798.190383268454
 20
-65.90701398616056
 30
0.0
  0
POINT
  5
831E
330
8315
100
AcDbEntity
  8
DEFPOINTS
  6
ByBlock
 62
     0
 48
15.0
100
AcDbPoint
 10
5853.190383268453
 20
-65.90701398616056
 30
0.0
  0
POINT
  5
831F
330
8315
100
AcDbEntity
  8
DEFPOINTS
  6
ByBlock
 62
     0
 48
15.0
100
AcDbPoint
 10
5853.190383268453
 20
23.53649067867991
 30
0.0
  0
ENDBLK
  5
8321
330
8315
100
AcDbEntity
  8
0
 48
15.0
100
AcDbBlockEnd
  0
BLOCK
  5
832C
330
8322
100
AcDbEntity
  8
0
 48
15.0
100
AcDbBlockBegin
  2
*D7
 70
     1
 10
0.0
 20
0.0
 30
0.0
  3
*D7
  1

  0
LINE
  5
8323
330
8322
100
AcDbEntity
  8
0
  6
ByBlock
 48
15.0
100
AcDbLine
 10
5453.190383268452
 20
-50.90701398616056
 30
0.0
 11
5453.190383268452
 21
94.8395556133928
 31
0.0
  0
LINE
  5
8324
330
8322
100
AcDbEntity
  8
0
  6
ByBlock
 48
15.0
100
AcDbLine
 10
5853.190383268453
 20
-50.90701398616056
 30
0.0
 11
5853.190383268453
 21
94.8395556133928
 31
0.0
  0
LINE
  5
8325
330
8322
100
AcDbEntity
  8
0
  6
ByBlock
 48
15.0
100
AcDbLine
 10
5475.690383268453
 20
87.3395556133928
 30
0.0
 11
5830.690383268454
 21
87.3395556133928
 31
0.0
  0
SOLID
  5
8326
330
8322
100
AcDbEntity
  8
0
  6
ByBlock
 48
15.0
100
AcDbTrace
 10
5475.690383268453
 20
91.0895556133928
 30
0.0
 11
5475.690383268453
 21
83.5895556133928
 31
0.0
 12
5453.190383268452
 22
87.3395556133928
 32
0.0
 13
5453.190383268452
 23
87.3395556133928
 33
0.0
  0
SOLID
  5
8327
330
8322
100
AcDbEntity
  8
0
  6
ByBlock
 48
15.0
100
AcDbTrace
 10
5830.690383268454
 20
91.0895556133928
 30
0.0
 11
5830.690383268454
 21
83.5895556133928
 31
0.0
 12
5853.190383268453
 22
87.3395556133928
 32
0.0
 13
5853.190383268453
 23
87.3395556133928
 33
0.0
  0
MTEXT
  5
8328
330
8322
100
AcDbEntity
  8
0
  6
ByBlock
 48
15.0
100
AcDbMText
 10
5653.190383268452
 20
117.3395556133928
 30
0.0
 40
30.0
 41
0.0
 71
     5
 72
     1
  1
\A1;400
  7
SANWA
 73
     1
 44
1.0
1001
ACAD
1000
MTEXTBEGIN
1070
    73
1070
     1
1070
    44
1040
1.0
1070
    74
1070
     0
1000
MTEXTEND
  0
POINT
  5
8329
330
8322
100
AcDbEntity
  8
DEFPOINTS
  6
ByBlock
 62
     0
 48
15.0
100
AcDbPoint
 10
5453.190383268452
 20
-65.90701398616056
 30
0.0
  0
POINT
  5
832A
330
8322
100
AcDbEntity
  8
DEFPOINTS
  6
ByBlock
 62
     0
 48
15.0
100
AcDbPoint
 10
5853.190383268453
 20
-65.90701398616056
 30
0.0
  0
POINT
  5
832B
330
8322
100
AcDbEntity
  8
DEFPOINTS
  6
ByBlock
 62
     0
 48
15.0
100
AcDbPoint
 10
5853.190383268453
 20
87.3395556133928
 30
0.0
  0
ENDBLK
  5
832D
330
8322
100
AcDbEntity
  8
0
 48
15.0
100
AcDbBlockEnd
  0
BLOCK
  5
8338
330
832E
100
AcDbEntity
  8
0
 48
15.0
100
AcDbBlockBegin
  2
*D8
 70
     1
 10
0.0
 20
0.0
 30
0.0
  3
*D8
  1

  0
LINE
  5
832F
330
832E
100
AcDbEntity
  8
0
  6
ByBlock
 48
15.0
100
AcDbLine
 10
5868.190383268453
 20
-65.90701398616056
 30
0.0
 11
6218.872496471267
 21
-65.90701398616062
 31
0.0
  0
LINE
  5
8330
330
832E
100
AcDbEntity
  8
0
  6
ByBlock
 48
15.0
100
AcDbLine
 10
5868.190383268453
 20
-1065.90701398616
 30
0.0
 11
6218.872496471267
 21
-1065.90701398616
 31
0.0
  0
LINE
  5
8331
330
832E
100
AcDbEntity
  8
0
  6
ByBlock
 48
15.0
100
AcDbLine
 10
6211.372496471267
 20
-88.40701398616062
 30
0.0
 11
6211.372496471267
 21
-1043.40701398616
 31
0.0
  0
SOLID
  5
8332
330
832E
100
AcDbEntity
  8
0
  6
ByBlock
 48
15.0
100
AcDbTrace
 10
6207.622496471267
 20
-88.40701398616062
 30
0.0
 11
6215.122496471267
 21
-88.40701398616062
 31
0.0
 12
6211.372496471267
 22
-65.90701398616062
 32
0.0
 13
6211.372496471267
 23
-65.90701398616062
 33
0.0
  0
SOLID
  5
8333
330
832E
100
AcDbEntity
  8
0
  6
ByBlock
 48
15.0
100
AcDbTrace
 10
6207.622496471267
 20
-1043.40701398616
 30
0.0
 11
6215.122496471267
 21
-1043.40701398616
 31
0.0
 12
6211.372496471267
 22
-1065.90701398616
 32
0.0
 13
6211.372496471267
 23
-1065.90701398616
 33
0.0
  0
MTEXT
  5
8334
330
832E
100
AcDbEntity
  8
0
  6
ByBlock
 48
15.0
100
AcDbMText
 10
6181.372496471268
 20
-565.9070139861605
 30
0.0
 40
30.0
 41
0.0
 71
     5
 72
     1
  1
\A1;1000
  7
SANWA
 11
0.0000000000000001
 21
1.0
 31
0.0
 73
     1
 44
1.0
1001
ACAD
1000
MTEXTBEGIN
1070
    73
1070
     1
1070
    44
1040
1.0
1070
    74
1070
     0
1000
MTEXTEND
  0
POINT
  5
8335
330
832E
100
AcDbEntity
  8
DEFPOINTS
  6
ByBlock
 62
     0
 48
15.0
100
AcDbPoint
 10
5853.190383268453
 20
-65.90701398616056
 30
0.0
  0
POINT
  5
8336
330
832E
100
AcDbEntity
  8
DEFPOINTS
  6
ByBlock
 62
     0
 48
15.0
100
AcDbPoint
 10
5853.190383268453
 20
-1065.90701398616
 30
0.0
  0
POINT
  5
8337
330
832E
100
AcDbEntity
  8
DEFPOINTS
  6
ByBlock
 62
     0
 48
15.0
100
AcDbPoint
 10
6211.372496471267
 20
-1065.90701398616
 30
0.0
  0
ENDBLK
  5
8339
330
832E
100
AcDbEntity
  8
0
 48
15.0
100
AcDbBlockEnd
  0
BLOCK
  5
8346
330
833A
100
AcDbEntity
  8
0
 48
15.0
100
AcDbBlockBegin
  2
*D9
 70
     1
 10
0.0
 20
0.0
 30
0.0
  3
*D9
  1

  0
LINE
  5
833B
330
833A
100
AcDbEntity
  8
0
  6
ByBlock
 48
15.0
100
AcDbLine
 10
5453.190383268452
 20
462.3048059684811
 30
0.0
 11
5453.190383268452
 21
536.5961995516482
 31
0.0
  0
LINE
  5
833C
330
833A
100
AcDbEntity
  8
0
  6
ByBlock
 48
15.0
100
AcDbLine
 10
5508.190383268454
 20
462.3048059684811
 30
0.0
 11
5508.190383268454
 21
536.5961995516482
 31
0.0
  0
LINE
  5
833D
330
833A
100
AcDbEntity
  8
0
  6
ByBlock
 48
15.0
100
AcDbLine
 10
5430.690383268453
 20
529.0961995516481
 30
0.0
 11
5408.190383268453
 21
529.0961995516481
 31
0.0
  0
LINE
  5
833E
330
833A
100
AcDbEntity
  8
0
  6
ByBlock
 48
15.0
100
AcDbLine
 10
5530.690383268454
 20
529.0961995516481
 30
0.0
 11
5553.190383268454
 21
529.0961995516481
 31
0.0
  0
LINE
  5
833F
330
833A
100
AcDbEntity
  8
0
  6
ByBlock
 48
15.0
100
AcDbLine
 10
5453.190383268452
 20
529.0961995516481
 30
0.0
 11
5508.190383268454
 21
529.0961995516481
 31
0.0
  0
SOLID
  5
8340
330
833A
100
AcDbEntity
  8
0
  6
ByBlock
 48
15.0
100
AcDbTrace
 10
5430.690383268453
 20
532.8461995516481
 30
0.0
 11
5430.690383268453
 21
525.3461995516481
 31
0.0
 12
5453.190383268452
 22
529.0961995516481
 32
0.0
 13
5453.190383268452
 23
529.0961995516481
 33
0.0
  0
SOLID
  5
8341
330
833A
100
AcDbEntity
  8
0
  6
ByBlock
 48
15.0
100
AcDbTrace
 10
5530.690383268454
 20
532.8461995516481
 30
0.0
 11
5530.690383268454
 21
525.3461995516481
 31
0.0
 12
5508.190383268454
 22
529.0961995516481
 32
0.0
 13
5508.190383268454
 23
529.0961995516481
 33
0.0
  0
MTEXT
  5
8342
330
833A
100
AcDbEntity
  8
0
  6
ByBlock
 48
15.0
100
AcDbMText
 10
5480.690383268453
 20
559.0961995516481
 30
0.0
 40
30.0
 41
0.0
 71
     5
 72
     1
  1
\A1;55
  7
SANWA
 73
     1
 44
1.0
1001
ACAD
1000
MTEXTBEGIN
1070
    73
1070
     1
1070
    44
1040
1.0
1070
    74
1070
     0
1000
MTEXTEND
  0
POINT
  5
8343
330
833A
100
AcDbEntity
  8
DEFPOINTS
  6
ByBlock
 62
     0
 48
15.0
100
AcDbPoint
 10
5453.190383268452
 20
447.3048059684811
 30
0.0
  0
POINT
  5
8344
330
833A
100
AcDbEntity
  8
DEFPOINTS
  6
ByBlock
 62
     0
 48
15.0
100
AcDbPoint
 10
5508.190383268454
 20
447.3048059684811
 30
0.0
  0
POINT
  5
8345
330
833A
100
AcDbEntity
  8
DEFPOINTS
  6
ByBlock
 62
     0
 48
15.0
100
AcDbPoint
 10
5508.190383268454
 20
529.0961995516481
 30
0.0
  0
ENDBLK
  5
8347
330
833A
100
AcDbEntity
  8
0
 48
15.0
100
AcDbBlockEnd
  0
BLOCK
  5
8351
330
8348
100
AcDbEntity
  8
0
 48
15.0
100
AcDbBlockBegin
  2
*D10
 70
     1
 10
0.0
 20
0.0
 30
0.0
  3
*D10
  1

  0
LINE
  5
8349
330
8348
100
AcDbEntity
  8
0
  6
ByBlock
 48
15.0
100
AcDbLine
 10
5798.190383268454
 20
462.3048059684811
 30
0.0
 11
5798.190383268454
 21
536.5961995516482
 31
0.0
  0
LINE
  5
834A
330
8348
100
AcDbEntity
  8
0
  6
ByBlock
 48
15.0
100
AcDbLine
 10
5530.690383268454
 20
529.0961995516481
 30
0.0
 11
5775.690383268454
 21
529.0961995516481
 31
0.0
  0
SOLID
  5
834B
330
8348
100
AcDbEntity
  8
0
  6
ByBlock
 48
15.0
100
AcDbTrace
 10
5530.690383268454
 20
532.8461995516481
 30
0.0
 11
5530.690383268454
 21
525.3461995516481
 31
0.0
 12
5508.190383268454
 22
529.0961995516481
 32
0.0
 13
5508.190383268454
 23
529.0961995516481
 33
0.0
  0
SOLID
  5
834C
330
8348
100
AcDbEntity
  8
0
  6
ByBlock
 48
15.0
100
AcDbTrace
 10
5775.690383268454
 20
532.8461995516481
 30
0.0
 11
5775.690383268454
 21
525.3461995516481
 31
0.0
 12
5798.190383268454
 22
529.0961995516481
 32
0.0
 13
5798.190383268454
 23
529.0961995516481
 33
0.0
  0
MTEXT
  5
834D
330
8348
100
AcDbEntity
  8
0
  6
ByBlock
 48
15.0
100
AcDbMText
 10
5653.190383268454
 20
559.0961995516481
 30
0.0
 40
30.0
 41
0.0
 71
     5
 72
     1
  1
\A1;2@145=290
  7
SANWA
 73
     1
 44
1.0
1001
ACAD
1000
MTEXTBEGIN
1070
    73
1070
     1
1070
    44
1040
1.0
1070
    74
1070
     0
1000
MTEXTEND
  0
POINT
  5
834E
330
8348
100
AcDbEntity
  8
DEFPOINTS
  6
ByBlock
 62
     0
 48
15.0
100
AcDbPoint
 10
5508.190383268454
 20
447.3048059684811
 30
0.0
  0
POINT
  5
834F
330
8348
100
AcDbEntity
  8
DEFPOINTS
  6
ByBlock
 62
     0
 48
15.0
100
AcDbPoint
 10
5798.190383268454
 20
447.3048059684811
 30
0.0
  0
POINT
  5
8350
330
8348
100
AcDbEntity
  8
DEFPOINTS
  6
ByBlock
 62
     0
 48
15.0
100
AcDbPoint
 10
5798.190383268454
 20
529.0961995516481
 30
0.0
  0
ENDBLK
  5
8352
330
8348
100
AcDbEntity
  8
0
 48
15.0
100
AcDbBlockEnd
  0
BLOCK
  5
835E
330
8353
100
AcDbEntity
  8
0
 48
15.0
100
AcDbBlockBegin
  2
*D11
 70
     1
 10
0.0
 20
0.0
 30
0.0
  3
*D11
  1

  0
LINE
  5
8354
330
8353
100
AcDbEntity
  8
0
  6
ByBlock
 48
15.0
100
AcDbLine
 10
5853.190383268453
 20
462.3048059684811
 30
0.0
 11
5853.190383268453
 21
536.5961995516482
 31
0.0
  0
LINE
  5
8355
330
8353
100
AcDbEntity
  8
0
  6
ByBlock
 48
15.0
100
AcDbLine
 10
5775.690383268454
 20
529.0961995516481
 30
0.0
 11
5753.190383268454
 21
529.0961995516481
 31
0.0
  0
LINE
  5
8356
330
8353
100
AcDbEntity
  8
0
  6
ByBlock
 48
15.0
100
AcDbLine
 10
5875.690383268453
 20
529.0961995516481
 30
0.0
 11
5898.190383268453
 21
529.0961995516481
 31
0.0
  0
LINE
  5
8357
330
8353
100
AcDbEntity
  8
0
  6
ByBlock
 48
15.0
100
AcDbLine
 10
5798.190383268454
 20
529.0961995516481
 30
0.0
 11
5853.190383268453
 21
529.0961995516481
 31
0.0
  0
SOLID
  5
8358
330
8353
100
AcDbEntity
  8
0
  6
ByBlock
 48
15.0
100
AcDbTrace
 10
5775.690383268454
 20
532.8461995516481
 30
0.0
 11
5775.690383268454
 21
525.3461995516481
 31
0.0
 12
5798.190383268454
 22
529.0961995516481
 32
0.0
 13
5798.190383268454
 23
529.0961995516481
 33
0.0
  0
SOLID
  5
8359
330
8353
100
AcDbEntity
  8
0
  6
ByBlock
 48
15.0
100
AcDbTrace
 10
5875.690383268453
 20
532.8461995516481
 30
0.0
 11
5875.690383268453
 21
525.3461995516481
 31
0.0
 12
5853.190383268453
 22
529.0961995516481
 32
0.0
 13
5853.190383268453
 23
529.0961995516481
 33
0.0
  0
MTEXT
  5
835A
330
8353
100
AcDbEntity
  8
0
  6
ByBlock
 48
15.0
100
AcDbMText
 10
5825.690383268453
 20
559.0961995516481
 30
0.0
 40
30.0
 41
0.0
 71
     5
 72
     1
  1
\A1;55
  7
SANWA
 73
     1
 44
1.0
1001
ACAD
1000
MTEXTBEGIN
1070
    73
1070
     1
1070
    44
1040
1.0
1070
    74
1070
     0
1000
MTEXTEND
  0
POINT
  5
835B
330
8353
100
AcDbEntity
  8
DEFPOINTS
  6
ByBlock
 62
     0
 48
15.0
100
AcDbPoint
 10
5798.190383268454
 20
447.3048059684811
 30
0.0
  0
POINT
  5
835C
330
8353
100
AcDbEntity
  8
DEFPOINTS
  6
ByBlock
 62
     0
 48
15.0
100
AcDbPoint
 10
5853.190383268453
 20
447.3048059684811
 30
0.0
  0
POINT
  5
835D
330
8353
100
AcDbEntity
  8
DEFPOINTS
  6
ByBlock
 62
     0
 48
15.0
100
AcDbPoint
 10
5853.190383268453
 20
529.0961995516481
 30
0.0
  0
ENDBLK
  5
835F
330
8353
100
AcDbEntity
  8
0
 48
15.0
100
AcDbBlockEnd
  0
BLOCK
  5
836A
330
8360
100
AcDbEntity
  8
0
 48
15.0
100
AcDbBlockBegin
  2
*D12
 70
     1
 10
0.0
 20
0.0
 30
0.0
  3
*D12
  1

  0
LINE
  5
8361
330
8360
100
AcDbEntity
  8
0
  6
ByBlock
 48
15.0
100
AcDbLine
 10
5453.190383268452
 20
462.3048059684811
 30
0.0
 11
5453.190383268452
 21
601.2786016039899
 31
0.0
  0
LINE
  5
8362
330
8360
100
AcDbEntity
  8
0
  6
ByBlock
 48
15.0
100
AcDbLine
 10
5853.190383268453
 20
462.3048059684811
 30
0.0
 11
5853.190383268453
 21
601.2786016039899
 31
0.0
  0
LINE
  5
8363
330
8360
100
AcDbEntity
  8
0
  6
ByBlock
 48
15.0
100
AcDbLine
 10
5475.690383268453
 20
593.77860160399
 30
0.0
 11
5830.690383268454
 21
593.77860160399
 31
0.0
  0
SOLID
  5
8364
330
8360
100
AcDbEntity
  8
0
  6
ByBlock
 48
15.0
100
AcDbTrace
 10
5475.690383268453
 20
597.5286016039899
 30
0.0
 11
5475.690383268453
 21
590.0286016039899
 31
0.0
 12
5453.190383268452
 22
593.77860160399
 32
0.0
 13
5453.190383268452
 23
593.77860160399
 33
0.0
  0
SOLID
  5
8365
330
8360
100
AcDbEntity
  8
0
  6
ByBlock
 48
15.0
100
AcDbTrace
 10
5830.690383268454
 20
597.5286016039899
 30
0.0
 11
5830.690383268454
 21
590.0286016039899
 31
0.0
 12
5853.190383268453
 22
593.77860160399
 32
0.0
 13
5853.190383268453
 23
593.77860160399
 33
0.0
  0
MTEXT
  5
8366
330
8360
100
AcDbEntity
  8
0
  6
ByBlock
 48
15.0
100
AcDbMText
 10
5653.190383268452
 20
623.7786016039899
 30
0.0
 40
30.0
 41
0.0
 71
     5
 72
     1
  1
\A1;400
  7
SANWA
 73
     1
 44
1.0
1001
ACAD
1000
MTEXTBEGIN
1070
    73
1070
     1
1070
    44
1040
1.0
1070
    74
1070
     0
1000
MTEXTEND
  0
POINT
  5
8367
330
8360
100
AcDbEntity
  8
DEFPOINTS
  6
ByBlock
 62
     0
 48
15.0
100
AcDbPoint
 10
5453.190383268452
 20
447.3048059684811
 30
0.0
  0
POINT
  5
8368
330
8360
100
AcDbEntity
  8
DEFPOINTS
  6
ByBlock
 62
     0
 48
15.0
100
AcDbPoint
 10
5853.190383268453
 20
447.3048059684811
 30
0.0
  0
POINT
  5
8369
330
8360
100
AcDbEntity
  8
DEFPOINTS
  6
ByBlock
 62
     0
 48
15.0
100
AcDbPoint
 10
5853.190383268453
 20
593.77860160399
 30
0.0
  0
ENDBLK
  5
836B
330
8360
100
AcDbEntity
  8
0
 48
15.0
100
AcDbBlockEnd
  0
BLOCK
  5
8377
330
836C
100
AcDbEntity
  8
0
 48
15.0
100
AcDbBlockBegin
  2
*D13
 70
     1
 10
0.0
 20
0.0
 30
0.0
  3
*D13
  1

  0
LINE
  5
836D
330
836C
100
AcDbEntity
  8
0
  6
ByBlock
 48
15.0
100
AcDbLine
 10
5868.190383268453
 20
447.3048059684811
 30
0.0
 11
5974.747289350037
 21
447.3048059684811
 31
0.0
  0
LINE
  5
836E
330
836C
100
AcDbEntity
  8
0
  6
ByBlock
 48
15.0
100
AcDbLine
 10
5967.247289350038
 20
354.8048059684811
 30
0.0
 11
5967.247289350038
 21
332.3048059684811
 31
0.0
  0
LINE
  5
836F
330
836C
100
AcDbEntity
  8
0
  6
ByBlock
 48
15.0
100
AcDbLine
 10
5967.247289350038
 20
469.804805968481
 30
0.0
 11
5967.247289350038
 21
492.3048059684811
 31
0.0
  0
LINE
  5
8370
330
836C
100
AcDbEntity
  8
0
  6
ByBlock
 48
15.0
100
AcDbLine
 10
5967.247289350038
 20
377.3048059684811
 30
0.0
 11
5967.247289350038
 21
447.3048059684811
 31
0.0
  0
SOLID
  5
8371
330
836C
100
AcDbEntity
  8
0
  6
ByBlock
 48
15.0
100
AcDbTrace
 10
5963.497289350038
 20
354.8048059684811
 30
0.0
 11
5970.997289350037
 21
354.8048059684811
 31
0.0
 12
5967.247289350038
 22
377.3048059684811
 32
0.0
 13
5967.247289350038
 23
377.3048059684811
 33
0.0
  0
SOLID
  5
8372
330
836C
100
AcDbEntity
  8
0
  6
ByBlock
 48
15.0
100
AcDbTrace
 10
5963.497289350038
 20
469.804805968481
 30
0.0
 11
5970.997289350037
 21
469.804805968481
 31
0.0
 12
5967.247289350038
 22
447.3048059684811
 32
0.0
 13
5967.247289350038
 23
447.3048059684811
 33
0.0
  0
MTEXT
  5
8373
330
836C
100
AcDbEntity
  8
0
  6
ByBlock
 48
15.0
100
AcDbMText
 10
5937.247289350038
 20
412.304805968481
 30
0.0
 40
30.0
 41
0.0
 71
     5
 72
     1
  1
\A1;70
  7
SANWA
 11
0.0000000000000001
 21
1.0
 31
0.0
 73
     1
 44
1.0
1001
ACAD
1000
MTEXTBEGIN
1070
    73
1070
     1
1070
    44
1040
1.0
1070
    74
1070
     0
1000
MTEXTEND
  0
POINT
  5
8374
330
836C
100
AcDbEntity
  8
DEFPOINTS
  6
ByBlock
 62
     0
 48
15.0
100
AcDbPoint
 10
5853.190383268453
 20
377.3048059684811
 30
0.0
  0
POINT
  5
8375
330
836C
100
AcDbEntity
  8
DEFPOINTS
  6
ByBlock
 62
     0
 48
15.0
100
AcDbPoint
 10
5853.190383268453
 20
447.3048059684811
 30
0.0
  0
POINT
  5
8376
330
836C
100
AcDbEntity
  8
DEFPOINTS
  6
ByBlock
 62
     0
 48
15.0
100
AcDbPoint
 10
5967.247289350038
 20
447.3048059684811
 30
0.0
  0
ENDBLK
  5
8378
330
836C
100
AcDbEntity
  8
0
 48
15.0
100
AcDbBlockEnd
  0
BLOCK
  5
8385
330
8379
100
AcDbEntity
  8
0
 48
15.0
100
AcDbBlockBegin
  2
*D14
 70
     1
 10
0.0
 20
0.0
 30
0.0
  3
*D14
  1

  0
LINE
  5
837A
330
8379
100
AcDbEntity
  8
0
  6
ByBlock
 48
15.0
100
AcDbLine
 10
6254.85123642764
 20
462.3048059684811
 30
0.0
 11
6254.85123642764
 21
536.5961995516482
 31
0.0
  0
LINE
  5
837B
330
8379
100
AcDbEntity
  8
0
  6
ByBlock
 48
15.0
100
AcDbLine
 10
6299.85123642764
 20
462.3048059684811
 30
0.0
 11
6299.85123642764
 21
536.5961995516482
 31
0.0
  0
LINE
  5
837C
330
8379
100
AcDbEntity
  8
0
  6
ByBlock
 48
15.0
100
AcDbLine
 10
6232.35123642764
 20
529.0961995516481
 30
0.0
 11
6209.85123642764
 21
529.0961995516481
 31
0.0
  0
LINE
  5
837D
330
8379
100
AcDbEntity
  8
0
  6
ByBlock
 48
15.0
100
AcDbLine
 10
6322.35123642764
 20
529.0961995516481
 30
0.0
 11
6344.85123642764
 21
529.0961995516481
 31
0.0
  0
LINE
  5
837E
330
8379
100
AcDbEntity
  8
0
  6
ByBlock
 48
15.0
100
AcDbLine
 10
6254.85123642764
 20
529.0961995516481
 30
0.0
 11
6299.85123642764
 21
529.0961995516481
 31
0.0
  0
SOLID
  5
837F
330
8379
100
AcDbEntity
  8
0
  6
ByBlock
 48
15.0
100
AcDbTrace
 10
6232.35123642764
 20
532.8461995516481
 30
0.0
 11
6232.35123642764
 21
525.3461995516481
 31
0.0
 12
6254.85123642764
 22
529.0961995516481
 32
0.0
 13
6254.85123642764
 23
529.0961995516481
 33
0.0
  0
SOLID
  5
8380
330
8379
100
AcDbEntity
  8
0
  6
ByBlock
 48
15.0
100
AcDbTrace
 10
6322.35123642764
 20
532.8461995516481
 30
0.0
 11
6322.35123642764
 21
525.3461995516481
 31
0.0
 12
6299.85123642764
 22
529.0961995516481
 32
0.0
 13
6299.85123642764
 23
529.0961995516481
 33
0.0
  0
MTEXT
  5
8381
330
8379
100
AcDbEntity
  8
0
  6
ByBlock
 48
15.0
100
AcDbMText
 10
6277.351236427641
 20
559.0961995516481
 30
0.0
 40
30.0
 41
0.0
 71
     5
 72
     1
  1
\A1;45
  7
SANWA
 73
     1
 44
1.0
1001
ACAD
1000
MTEXTBEGIN
1070
    73
1070
     1
1070
    44
1040
1.0
1070
    74
1070
     0
1000
MTEXTEND
  0
POINT
  5
8382
330
8379
100
AcDbEntity
  8
DEFPOINTS
  6
ByBlock
 62
     0
 48
15.0
100
AcDbPoint
 10
6254.85123642764
 20
447.3048059684811
 30
0.0
  0
POINT
  5
8383
330
8379
100
AcDbEntity
  8
DEFPOINTS
  6
ByBlock
 62
     0
 48
15.0
100
AcDbPoint
 10
6299.85123642764
 20
447.3048059684811
 30
0.0
  0
POINT
  5
8384
330
8379
100
AcDbEntity
  8
DEFPOINTS
  6
ByBlock
 62
     0
 48
15.0
100
AcDbPoint
 10
6299.85123642764
 20
529.0961995516481
 30
0.0
  0
ENDBLK
  5
8386
330
8379
100
AcDbEntity
  8
0
 48
15.0
100
AcDbBlockEnd
  0
BLOCK
  5
8390
330
8387
100
AcDbEntity
  8
0
 48
15.0
100
AcDbBlockBegin
  2
*D15
 70
     1
 10
0.0
 20
0.0
 30
0.0
  3
*D15
  1

  0
LINE
  5
8388
330
8387
100
AcDbEntity
  8
0
  6
ByBlock
 48
15.0
100
AcDbLine
 10
7209.85123642764
 20
462.3048059684811
 30
0.0
 11
7209.85123642764
 21
536.5961995516482
 31
0.0
  0
LINE
  5
8389
330
8387
100
AcDbEntity
  8
0
  6
ByBlock
 48
15.0
100
AcDbLine
 10
6322.35123642764
 20
529.0961995516481
 30
0.0
 11
7187.351236427641
 21
529.0961995516481
 31
0.0
  0
SOLID
  5
838A
330
8387
100
AcDbEntity
  8
0
  6
ByBlock
 48
15.0
100
AcDbTrace
 10
6322.35123642764
 20
532.8461995516481
 30
0.0
 11
6322.35123642764
 21
525.3461995516481
 31
0.0
 12
6299.85123642764
 22
529.0961995516481
 32
0.0
 13
6299.85123642764
 23
529.0961995516481
 33
0.0
  0
SOLID
  5
838B
330
8387
100
AcDbEntity
  8
0
  6
ByBlock
 48
15.0
100
AcDbTrace
 10
7187.351236427641
 20
532.8461995516481
 30
0.0
 11
7187.351236427641
 21
525.3461995516481
 31
0.0
 12
7209.85123642764
 22
529.0961995516481
 32
0.0
 13
7209.85123642764
 23
529.0961995516481
 33
0.0
  0
MTEXT
  5
838C
330
8387
100
AcDbEntity
  8
0
  6
ByBlock
 48
15.0
100
AcDbMText
 10
6754.85123642764
 20
559.0961995516481
 30
0.0
 40
30.0
 41
0.0
 71
     5
 72
     1
  1
\A1;7@130=910
  7
SANWA
 73
     1
 44
1.0
1001
ACAD
1000
MTEXTBEGIN
1070
    73
1070
     1
1070
    44
1040
1.0
1070
    74
1070
     0
1000
MTEXTEND
  0
POINT
  5
838D
330
8387
100
AcDbEntity
  8
DEFPOINTS
  6
ByBlock
 62
     0
 48
15.0
100
AcDbPoint
 10
6299.85123642764
 20
447.3048059684811
 30
0.0
  0
POINT
  5
838E
330
8387
100
AcDbEntity
  8
DEFPOINTS
  6
ByBlock
 62
     0
 48
15.0
100
AcDbPoint
 10
7209.85123642764
 20
447.3048059684811
 30
0.0
  0
POINT
  5
838F
330
8387
100
AcDbEntity
  8
DEFPOINTS
  6
ByBlock
 62
     0
 48
15.0
100
AcDbPoint
 10
7209.85123642764
 20
529.0961995516481
 30
0.0
  0
ENDBLK
  5
8391
330
8387
100
AcDbEntity
  8
0
 48
15.0
100
AcDbBlockEnd
  0
BLOCK
  5
839D
330
8392
100
AcDbEntity
  8
0
 48
15.0
100
AcDbBlockBegin
  2
*D16
 70
     1
 10
0.0
 20
0.0
 30
0.0
  3
*D16
  1

  0
LINE
  5
8393
330
8392
100
AcDbEntity
  8
0
  6
ByBlock
 48
15.0
100
AcDbLine
 10
7254.85123642764
 20
462.3048059684811
 30
0.0
 11
7254.85123642764
 21
536.5961995516482
 31
0.0
  0
LINE
  5
8394
330
8392
100
AcDbEntity
  8
0
  6
ByBlock
 48
15.0
100
AcDbLine
 10
7187.351236427641
 20
529.0961995516481
 30
0.0
 11
7164.85123642764
 21
529.0961995516481
 31
0.0
  0
LINE
  5
8395
330
8392
100
AcDbEntity
  8
0
  6
ByBlock
 48
15.0
100
AcDbLine
 10
7277.35123642764
 20
529.0961995516481
 30
0.0
 11
7299.851236427641
 21
529.0961995516481
 31
0.0
  0
LINE
  5
8396
330
8392
100
AcDbEntity
  8
0
  6
ByBlock
 48
15.0
100
AcDbLine
 10
7209.85123642764
 20
529.0961995516481
 30
0.0
 11
7254.85123642764
 21
529.0961995516481
 31
0.0
  0
SOLID
  5
8397
330
8392
100
AcDbEntity
  8
0
  6
ByBlock
 48
15.0
100
AcDbTrace
 10
7187.351236427641
 20
532.8461995516481
 30
0.0
 11
7187.351236427641
 21
525.3461995516481
 31
0.0
 12
7209.85123642764
 22
529.0961995516481
 32
0.0
 13
7209.85123642764
 23
529.0961995516481
 33
0.0
  0
SOLID
  5
8398
330
8392
100
AcDbEntity
  8
0
  6
ByBlock
 48
15.0
100
AcDbTrace
 10
7277.35123642764
 20
532.8461995516481
 30
0.0
 11
7277.35123642764
 21
525.3461995516481
 31
0.0
 12
7254.85123642764
 22
529.0961995516481
 32
0.0
 13
7254.85123642764
 23
529.0961995516481
 33
0.0
  0
MTEXT
  5
8399
330
8392
100
AcDbEntity
  8
0
  6
ByBlock
 48
15.0
100
AcDbMText
 10
7232.351236427641
 20
559.0961995516481
 30
0.0
 40
30.0
 41
0.0
 71
     5
 72
     1
  1
\A1;45
  7
SANWA
 73
     1
 44
1.0
1001
ACAD
1000
MTEXTBEGIN
1070
    73
1070
     1
1070
    44
1040
1.0
1070
    74
1070
     0
1000
MTEXTEND
  0
POINT
  5
839A
330
8392
100
AcDbEntity
  8
DEFPOINTS
  6
ByBlock
 62
     0
 48
15.0
100
AcDbPoint
 10
7209.85123642764
 20
447.3048059684811
 30
0.0
  0
POINT
  5
839B
330
8392
100
AcDbEntity
  8
DEFPOINTS
  6
ByBlock
 62
     0
 48
15.0
100
AcDbPoint
 10
7254.85123642764
 20
447.3048059684811
 30
0.0
  0
POINT
  5
839C
330
8392
100
AcDbEntity
  8
DEFPOINTS
  6
ByBlock
 62
     0
 48
15.0
100
AcDbPoint
 10
7254.85123642764
 20
529.0961995516481
 30
0.0
  0
ENDBLK
  5
839E
330
8392
100
AcDbEntity
  8
0
 48
15.0
100
AcDbBlockEnd
  0
BLOCK
  5
83A9
330
839F
100
AcDbEntity
  8
0
 48
15.0
100
AcDbBlockBegin
  2
*D17
 70
     1
 10
0.0
 20
0.0
 30
0.0
  3
*D17
  1

  0
LINE
  5
83A0
330
839F
100
AcDbEntity
  8
0
  6
ByBlock
 48
15.0
100
AcDbLine
 10
6254.85123642764
 20
462.3048059684811
 30
0.0
 11
6254.85123642764
 21
601.2786016039899
 31
0.0
  0
LINE
  5
83A1
330
839F
100
AcDbEntity
  8
0
  6
ByBlock
 48
15.0
100
AcDbLine
 10
7254.85123642764
 20
462.3048059684811
 30
0.0
 11
7254.85123642764
 21
601.2786016039899
 31
0.0
  0
LINE
  5
83A2
330
839F
100
AcDbEntity
  8
0
  6
ByBlock
 48
15.0
100
AcDbLine
 10
6277.351236427641
 20
593.77860160399
 30
0.0
 11
7232.351236427641
 21
593.77860160399
 31
0.0
  0
SOLID
  5
83A3
330
839F
100
AcDbEntity
  8
0
  6
ByBlock
 48
15.0
100
AcDbTrace
 10
6277.351236427641
 20
597.5286016039899
 30
0.0
 11
6277.351236427641
 21
590.0286016039899
 31
0.0
 12
6254.85123642764
 22
593.77860160399
 32
0.0
 13
6254.85123642764
 23
593.77860160399
 33
0.0
  0
SOLID
  5
83A4
330
839F
100
AcDbEntity
  8
0
  6
ByBlock
 48
15.0
100
AcDbTrace
 10
7232.351236427641
 20
597.5286016039899
 30
0.0
 11
7232.351236427641
 21
590.0286016039899
 31
0.0
 12
7254.85123642764
 22
593.77860160399
 32
0.0
 13
7254.85123642764
 23
593.77860160399
 33
0.0
  0
MTEXT
  5
83A5
330
839F
100
AcDbEntity
  8
0
  6
ByBlock
 48
15.0
100
AcDbMText
 10
6754.85123642764
 20
623.7786016039899
 30
0.0
 40
30.0
 41
0.0
 71
     5
 72
     1
  1
\A1;1000
  7
SANWA
 73
     1
 44
1.0
1001
ACAD
1000
MTEXTBEGIN
1070
    73
1070
     1
1070
    44
1040
1.0
1070
    74
1070
     0
1000
MTEXTEND
  0
POINT
  5
83A6
330
839F
100
AcDbEntity
  8
DEFPOINTS
  6
ByBlock
 62
     0
 48
15.0
100
AcDbPoint
 10
6254.85123642764
 20
447.3048059684811
 30
0.0
  0
POINT
  5
83A7
330
839F
100
AcDbEntity
  8
DEFPOINTS
  6
ByBlock
 62
     0
 48
15.0
100
AcDbPoint
 10
7254.85123642764
 20
447.3048059684811
 30
0.0
  0
POINT
  5
83A8
330
839F
100
AcDbEntity
  8
DEFPOINTS
  6
ByBlock
 62
     0
 48
15.0
100
AcDbPoint
 10
7254.85123642764
 20
593.77860160399
 30
0.0
  0
ENDBLK
  5
83AA
330
839F
100
AcDbEntity
  8
0
 48
15.0
100
AcDbBlockEnd
  0
BLOCK
  5
83B6
330
83AB
100
AcDbEntity
  8
0
 48
15.0
100
AcDbBlockBegin
  2
*D18
 70
     1
 10
0.0
 20
0.0
 30
0.0
  3
*D18
  1

  0
LINE
  5
83AC
330
83AB
100
AcDbEntity
  8
0
  6
ByBlock
 48
15.0
100
AcDbLine
 10
7269.851236427641
 20
447.3048059684811
 30
0.0
 11
7369.28209680537
 21
447.3048059684811
 31
0.0
  0
LINE
  5
83AD
330
83AB
100
AcDbEntity
  8
0
  6
ByBlock
 48
15.0
100
AcDbLine
 10
7361.78209680537
 20
354.8048059684811
 30
0.0
 11
7361.78209680537
 21
332.3048059684811
 31
0.0
  0
LINE
  5
83AE
330
83AB
100
AcDbEntity
  8
0
  6
ByBlock
 48
15.0
100
AcDbLine
 10
7361.78209680537
 20
469.804805968481
 30
0.0
 11
7361.78209680537
 21
492.3048059684811
 31
0.0
  0
LINE
  5
83AF
330
83AB
100
AcDbEntity
  8
0
  6
ByBlock
 48
15.0
100
AcDbLine
 10
7361.78209680537
 20
377.3048059684811
 30
0.0
 11
7361.78209680537
 21
447.3048059684811
 31
0.0
  0
SOLID
  5
83B0
330
83AB
100
AcDbEntity
  8
0
  6
ByBlock
 48
15.0
100
AcDbTrace
 10
7358.032096805371
 20
354.8048059684811
 30
0.0
 11
7365.532096805371
 21
354.8048059684811
 31
0.0
 12
7361.78209680537
 22
377.3048059684811
 32
0.0
 13
7361.78209680537
 23
377.3048059684811
 33
0.0
  0
SOLID
  5
83B1
330
83AB
100
AcDbEntity
  8
0
  6
ByBlock
 48
15.0
100
AcDbTrace
 10
7358.032096805371
 20
469.804805968481
 30
0.0
 11
7365.532096805371
 21
469.804805968481
 31
0.0
 12
7361.78209680537
 22
447.3048059684811
 32
0.0
 13
7361.78209680537
 23
447.3048059684811
 33
0.0
  0
MTEXT
  5
83B2
330
83AB
100
AcDbEntity
  8
0
  6
ByBlock
 48
15.0
100
AcDbMText
 10
7331.782096805371
 20
412.304805968481
 30
0.0
 40
30.0
 41
0.0
 71
     5
 72
     1
  1
\A1;70
  7
SANWA
 11
0.0000000000000001
 21
1.0
 31
0.0
 73
     1
 44
1.0
1001
ACAD
1000
MTEXTBEGIN
1070
    73
1070
     1
1070
    44
1040
1.0
1070
    74
1070
     0
1000
MTEXTEND
  0
POINT
  5
83B3
330
83AB
100
AcDbEntity
  8
DEFPOINTS
  6
ByBlock
 62
     0
 48
15.0
100
AcDbPoint
 10
7254.85123642764
 20
377.3048059684811
 30
0.0
  0
POINT
  5
83B4
330
83AB
100
AcDbEntity
  8
DEFPOINTS
  6
ByBlock
 62
     0
 48
15.0
100
AcDbPoint
 10
7254.85123642764
 20
447.3048059684811
 30
0.0
  0
POINT
  5
83B5
330
83AB
100
AcDbEntity
  8
DEFPOINTS
  6
ByBlock
 62
     0
 48
15.0
100
AcDbPoint
 10
7361.78209680537
 20
447.3048059684811
 30
0.0
  0
ENDBLK
  5
83B7
330
83AB
100
AcDbEntity
  8
0
 48
15.0
100
AcDbBlockEnd
  0
BLOCK
  5
83C2
330
83B8
100
AcDbEntity
  8
0
 48
15.0
100
AcDbBlockBegin
  2
*D19
 70
     1
 10
0.0
 20
0.0
 30
0.0
  3
*D19
  1

  0
LINE
  5
83B9
330
83B8
100
AcDbEntity
  8
0
  6
ByBlock
 48
15.0
100
AcDbLine
 10
7269.851236427641
 20
347.3048059684811
 30
0.0
 11
7439.15259905123
 21
347.3048059684811
 31
0.0
  0
LINE
  5
83BA
330
83B8
100
AcDbEntity
  8
0
  6
ByBlock
 48
15.0
100
AcDbLine
 10
7269.851236427641
 20
447.3048059684811
 30
0.0
 11
7439.15259905123
 21
447.3048059684811
 31
0.0
  0
LINE
  5
83BB
330
83B8
100
AcDbEntity
  8
0
  6
ByBlock
 48
15.0
100
AcDbLine
 10
7431.652599051232
 20
369.8048059684811
 30
0.0
 11
7431.652599051232
 21
424.804805968481
 31
0.0
  0
SOLID
  5
83BC
330
83B8
100
AcDbEntity
  8
0
  6
ByBlock
 48
15.0
100
AcDbTrace
 10
7427.902599051231
 20
369.8048059684811
 30
0.0
 11
7435.402599051231
 21
369.8048059684811
 31
0.0
 12
7431.652599051232
 22
347.3048059684811
 32
0.0
 13
7431.652599051232
 23
347.3048059684811
 33
0.0
  0
SOLID
  5
83BD
330
83B8
100
AcDbEntity
  8
0
  6
ByBlock
 48
15.0
100
AcDbTrace
 10
7427.902599051231
 20
424.804805968481
 30
0.0
 11
7435.402599051231
 21
424.804805968481
 31
0.0
 12
7431.652599051232
 22
447.3048059684811
 32
0.0
 13
7431.652599051232
 23
447.3048059684811
 33
0.0
  0
MTEXT
  5
83BE
330
83B8
100
AcDbEntity
  8
0
  6
ByBlock
 48
15.0
100
AcDbMText
 10
7401.652599051231
 20
397.3048059684811
 30
0.0
 40
30.0
 41
0.0
 71
     5
 72
     1
  1
\A1;100
  7
SANWA
 11
0.0000000000000001
 21
1.0
 31
0.0
 73
     1
 44
1.0
1001
ACAD
1000
MTEXTBEGIN
1070
    73
1070
     1
1070
    44
1040
1.0
1070
    74
1070
     0
1000
MTEXTEND
  0
POINT
  5
83BF
330
83B8
100
AcDbEntity
  8
DEFPOINTS
  6
ByBlock
 62
     0
 48
15.0
100
AcDbPoint
 10
7254.85123642764
 20
347.3048059684811
 30
0.0
  0
POINT
  5
83C0
330
83B8
100
AcDbEntity
  8
DEFPOINTS
  6
ByBlock
 62
     0
 48
15.0
100
AcDbPoint
 10
7254.85123642764
 20
447.3048059684811
 30
0.0
  0
POINT
  5
83C1
330
83B8
100
AcDbEntity
  8
DEFPOINTS
  6
ByBlock
 62
     0
 48
15.0
100
AcDbPoint
 10
7431.652599051232
 20
447.3048059684811
 30
0.0
  0
ENDBLK
  5
83C3
330
83B8
100
AcDbEntity
  8
0
 48
15.0
100
AcDbBlockEnd
  0
BLOCK
  5
83CE
330
83C4
100
AcDbEntity
  8
0
 48
15.0
100
AcDbBlockBegin
  2
*D20
 70
     1
 10
0.0
 20
0.0
 30
0.0
  3
*D20
  1

  0
LINE
  5
83C5
330
83C4
100
AcDbEntity
  8
0
  6
ByBlock
 48
15.0
100
AcDbLine
 10
5868.190383268453
 20
347.3048059684811
 30
0.0
 11
6044.071897282891
 21
347.304805968481
 31
0.0
  0
LINE
  5
83C6
330
83C4
100
AcDbEntity
  8
0
  6
ByBlock
 48
15.0
100
AcDbLine
 10
5868.190383268453
 20
447.3048059684811
 30
0.0
 11
6044.071897282891
 21
447.304805968481
 31
0.0
  0
LINE
  5
83C7
330
83C4
100
AcDbEntity
  8
0
  6
ByBlock
 48
15.0
100
AcDbLine
 10
6036.571897282891
 20
369.804805968481
 30
0.0
 11
6036.571897282891
 21
424.804805968481
 31
0.0
  0
SOLID
  5
83C8
330
83C4
100
AcDbEntity
  8
0
  6
ByBlock
 48
15.0
100
AcDbTrace
 10
6032.82189728289
 20
369.804805968481
 30
0.0
 11
6040.321897282891
 21
369.804805968481
 31
0.0
 12
6036.571897282891
 22
347.304805968481
 32
0.0
 13
6036.571897282891
 23
347.304805968481
 33
0.0
  0
SOLID
  5
83C9
330
83C4
100
AcDbEntity
  8
0
  6
ByBlock
 48
15.0
100
AcDbTrace
 10
6032.82189728289
 20
424.804805968481
 30
0.0
 11
6040.321897282891
 21
424.804805968481
 31
0.0
 12
6036.571897282891
 22
447.304805968481
 32
0.0
 13
6036.571897282891
 23
447.304805968481
 33
0.0
  0
MTEXT
  5
83CA
330
83C4
100
AcDbEntity
  8
0
  6
ByBlock
 48
15.0
100
AcDbMText
 10
6006.571897282891
 20
397.3048059684811
 30
0.0
 40
30.0
 41
0.0
 71
     5
 72
     1
  1
\A1;100
  7
SANWA
 11
0.0000000000000001
 21
1.0
 31
0.0
 73
     1
 44
1.0
1001
ACAD
1000
MTEXTBEGIN
1070
    73
1070
     1
1070
    44
1040
1.0
1070
    74
1070
     0
1000
MTEXTEND
  0
POINT
  5
83CB
330
83C4
100
AcDbEntity
  8
DEFPOINTS
  6
ByBlock
 62
     0
 48
15.0
100
AcDbPoint
 10
5853.190383268453
 20
347.3048059684811
 30
0.0
  0
POINT
  5
83CC
330
83C4
100
AcDbEntity
  8
DEFPOINTS
  6
ByBlock
 62
     0
 48
15.0
100
AcDbPoint
 10
5853.190383268453
 20
447.3048059684811
 30
0.0
  0
POINT
  5
83CD
330
83C4
100
AcDbEntity
  8
DEFPOINTS
  6
ByBlock
 62
     0
 48
15.0
100
AcDbPoint
 10
6036.571897282891
 20
447.304805968481
 30
0.0
  0
ENDBLK
  5
83CF
330
83C4
100
AcDbEntity
  8
0
 48
15.0
100
AcDbBlockEnd
  0
BLOCK
  5
84A9
330
83D0
100
AcDbEntity
  8
0
 48
15.0
100
AcDbBlockBegin
  2
A$C32BC39A0
 70
     0
 10
0.0
 20
0.0
 30
0.0
  3
A$C32BC39A0
  1

  0
DIMENSION
  5
83D1
330
83D0
100
AcDbEntity
  8
寸法引出
 48
15.0
100
AcDbDimension
  2
*D8
 10
2099.561747676162
 20
741.5677515008037
 30
0.0
 11
2069.561747676162
 21
1241.567751500804
 31
0.0
 12
-4111.810748795106
 22
1807.474765486964
 32
0.0
 71
     5
 42
-1.0
  3
SANWA
100
AcDbAlignedDimension
 13
1741.379634473347
 23
1741.567751500804
 33
0.0
 14
1741.379634473347
 24
741.5677515008037
 34
0.0
 50
90.0
100
AcDbRotatedDimension
1001
ACAD
1000
DSTYLE
1002
{
1070
   140
1040
2.0
1070
    40
1040
15.0
1070
   147
1040
1.0
1070
    44
1040
0.5
1070
    43
1040
5.0
1070
   178
1070
   256
1070
   177
1070
   256
1070
   176
1070
   256
1070
    41
1040
1.5
1002
}
  0
DIMENSION
  5
83D2
330
83D0
100
AcDbEntity
  8
寸法引出
 48
15.0
100
AcDbDimension
  2
*D1
 10
2030.538287322474
 20
1696.567751500804
 30
0.0
 11
2000.538287322473
 21
1241.567751500804
 31
0.0
 12
-4111.810748795106
 22
1807.474765486964
 32
0.0
  1
7@130=<>
 71
     5
 42
-1.0
  3
SANWA
100
AcDbAlignedDimension
 13
1741.379634473347
 23
786.5677515008037
 33
0.0
 14
1741.379634473347
 24
1696.567751500804
 34
0.0
 50
90.0
100
AcDbRotatedDimension
1001
ACAD
1000
DSTYLE
1002
{
1070
   140
1040
2.0
1070
    40
1040
15.0
1070
   147
1040
1.0
1070
    44
1040
0.5
1070
    43
1040
5.0
1070
   178
1070
   256
1070
   177
1070
   256
1070
   176
1070
   256
1070
    41
1040
1.5
1002
}
  0
LWPOLYLINE
  5
83D3
330
83D0
100
AcDbEntity
  8
寸法引出
 48
15.0
100
AcDbPolyline
 90
        3
 70
     0
 43
0.0
 10
1450.965200517574
 20
1674.067751500803
 10
1450.965200517574
 20
638.7581343055899
 10
1661.327385450735
 20
638.7581343055899
1001
ACAD
1000
DSTYLE
1002
{
1070
   140
1040
2.0
1070
    40
1040
15.0
1070
   147
1040
1.0
1070
    44
1040
0.5
1070
    43
1040
5.0
1070
   178
1070
   256
1070
   177
1070
   256
1070
   176
1070
   256
1070
    41
1040
1.5
1002
}
  0
LINE
  5
83D4
330
83D0
100
AcDbEntity
  8
鉄筋
 48
15.0
100
AcDbLine
 10
1686.379634473348
 20
1701.567751500803
 30
0.0
 11
1686.379634473347
 21
781.5677515008037
 31
0.0
  0
LINE
  5
83D5
330
83D0
100
AcDbEntity
  8
鉄筋
 48
15.0
100
AcDbLine
 10
1396.379634473348
 20
1701.567751500803
 30
0.0
 11
1396.379634473347
 21
781.5677515008037
 31
0.0
  0
LINE
  5
83D6
330
83D0
100
AcDbEntity
  8
鉄筋
 48
15.0
100
AcDbLine
 10
1541.379634473348
 20
1701.567751500803
 30
0.0
 11
1541.379634473347
 21
781.5677515008037
 31
0.0
  0
LINE
  5
83D7
330
83D0
100
AcDbEntity
  8
枠
100
AcDbLine
 10
4304.999994500241
 20
150.0000038137932
 30
0.0
 11
4304.999994500241
 21
3000.000003813794
 31
0.0
  0
LINE
  5
83D8
330
83D0
100
AcDbEntity
  8
0
 48
15.0
100
AcDbLine
 10
1341.379634473347
 20
1741.567751500804
 30
0.0
 11
1341.379634473347
 21
741.5677515008037
 31
0.0
  0
LINE
  5
83D9
330
83D0
100
AcDbEntity
  8
0
 48
15.0
100
AcDbLine
 10
1741.379634473347
 20
1741.567751500804
 30
0.0
 11
1741.379634473347
 21
741.5677515008037
 31
0.0
  0
LINE
  5
83DA
330
83D0
100
AcDbEntity
  8
枠
100
AcDbLine
 10
374.9999945002419
 20
150.0000038137932
 30
0.0
 11
374.9999945002419
 21
3000.000003813794
 31
0.0
  0
LINE
  5
83DB
330
83D0
100
AcDbEntity
  8
枠
100
AcDbLine
 10
374.9999945002419
 20
150.000003813795
 30
0.0
 11
4304.999994500241
 21
150.000003813795
 31
0.0
  0
LINE
  5
83DC
330
83D0
100
AcDbEntity
  8
0
100
AcDbLine
 10
-0.0000054997581174
 20
0.0000038137932279
 30
0.0
 11
-0.0000054997581174
 21
150.0000038137932
 31
0.0
  0
LINE
  5
83DD
330
83D0
100
AcDbEntity
  8
0
100
AcDbLine
 10
374.9999945002419
 20
0.0000038137932279
 30
0.0
 11
-0.0000054997581174
 21
0.0000038137932279
 31
0.0
  0
DIMENSION
  5
83DE
330
83D0
100
AcDbEntity
  8
寸法引出
 48
15.0
100
AcDbDimension
  2
*D3
 10
2030.538287322474
 20
786.5677515008037
 30
0.0
 11
2000.538287322473
 21
764.0677515008037
 31
0.0
 12
-4111.810748795106
 22
1807.474765486964
 32
0.0
 71
     5
 42
-1.0
  3
SANWA
100
AcDbAlignedDimension
 13
1741.379634473347
 23
741.5677515008037
 33
0.0
 14
1741.379634473347
 24
786.5677515008037
 34
0.0
 50
90.0
100
AcDbRotatedDimension
1001
ACAD
1000
DSTYLE
1002
{
1070
   140
1040
2.0
1070
    40
1040
15.0
1070
   147
1040
1.0
1070
    44
1040
0.5
1070
    43
1040
5.0
1070
   178
1070
   256
1070
   177
1070
   256
1070
   176
1070
   256
1070
    41
1040
1.5
1002
}
  0
LINE
  5
83DF
330
83D0
100
AcDbEntity
  8
0
 48
15.0
100
AcDbLine
 10
1341.379634473347
 20
741.5677515008037
 30
0.0
 11
1741.379634473347
 21
741.5677515008037
 31
0.0
  0
MTEXT
  5
83E0
330
83D0
100
AcDbEntity
  8
寸法引出
  6
ByBlock
 48
15.0
100
AcDbMText
 10
1557.226833787798
 20
662.1969664431162
 30
0.0
 40
30.0
 41
0.0
 71
     5
 72
     1
  1
S1 D13×8
  7
SANWA
 73
     1
 44
1.0
1001
ACAD
1000
MTEXTBEGIN
1070
    73
1070
     1
1070
    44
1040
1.0
1070
    74
1070
     0
1000
MTEXTEND
  0
CIRCLE
  5
83E1
330
83D0
100
AcDbEntity
  8
寸法引出
 48
15.0
100
AcDbCircle
 10
1482.449663842359
 20
660.4757268147932
 30
0.0
 40
24.86816063193874
  0
LINE
  5
83E2
330
83D0
100
AcDbEntity
  8
鉄筋
 48
15.0
100
AcDbLine
 10
1391.379634473347
 20
786.5677515008036
 30
0.0
 11
1691.379634473348
 21
786.5677515008037
 31
0.0
  0
SOLID
  5
83E3
330
83D0
100
AcDbEntity
  8
寸法引出
 48
15.0
100
AcDbTrace
 10
1447.215200517574
 20
764.0677515008037
 30
0.0
 11
1450.965200517574
 21
786.5677515008036
 31
0.0
 12
1454.715200517574
 22
764.0677515008037
 32
0.0
 13
1454.715200517574
 23
764.0677515008037
 33
0.0
1001
ACAD
1000
DSTYLE
1002
{
1070
   140
1040
2.0
1070
    40
1040
15.0
1070
   147
1040
1.0
1070
    44
1040
0.5
1070
    43
1040
5.0
1070
   178
1070
   256
1070
   177
1070
   256
1070
   176
1070
   256
1070
    41
1040
1.5
1002
}
  0
CIRCLE
  5
83E4
330
83D0
100
AcDbEntity
  8
0
 48
15.0
100
AcDbCircle
 10
1366.379634473347
 20
861.5677515008037
 30
0.0
 40
10.0
  0
LINE
  5
83E5
330
83D0
100
AcDbEntity
  8
鉄筋
 48
15.0
100
AcDbLine
 10
1391.379634473347
 20
916.5677515008036
 30
0.0
 11
1691.379634473348
 21
916.5677515008038
 31
0.0
  0
SOLID
  5
83E6
330
83D0
100
AcDbEntity
  8
寸法引出
 48
15.0
100
AcDbTrace
 10
1447.215200517574
 20
894.0677515008037
 30
0.0
 11
1450.965200517574
 21
916.5677515008036
 31
0.0
 12
1454.715200517574
 22
894.0677515008037
 32
0.0
 13
1454.715200517574
 23
894.0677515008037
 33
0.0
1001
ACAD
1000
DSTYLE
1002
{
1070
   140
1040
2.0
1070
    40
1040
15.0
1070
   147
1040
1.0
1070
    44
1040
0.5
1070
    43
1040
5.0
1070
   178
1070
   256
1070
   177
1070
   256
1070
   176
1070
   256
1070
    41
1040
1.5
1002
}
  0
CIRCLE
  5
83E7
330
83D0
100
AcDbEntity
  8
0
 48
15.0
100
AcDbCircle
 10
1716.379634473347
 20
861.5677515008037
 30
0.0
 40
10.0
  0
LINE
  5
83E8
330
83D0
100
AcDbEntity
  8
鉄筋
 48
15.0
100
AcDbLine
 10
1391.379634473347
 20
1046.567751500804
 30
0.0
 11
1691.379634473348
 21
1046.567751500804
 31
0.0
  0
SOLID
  5
83E9
330
83D0
100
AcDbEntity
  8
寸法引出
 48
15.0
100
AcDbTrace
 10
1447.215200517574
 20
1024.067751500804
 30
0.0
 11
1450.965200517574
 21
1046.567751500804
 31
0.0
 12
1454.715200517574
 22
1024.067751500804
 32
0.0
 13
1454.715200517574
 23
1024.067751500804
 33
0.0
1001
ACAD
1000
DSTYLE
1002
{
1070
   140
1040
2.0
1070
    40
1040
15.0
1070
   147
1040
1.0
1070
    44
1040
0.5
1070
    43
1040
5.0
1070
   178
1070
   256
1070
   177
1070
   256
1070
   176
1070
   256
1070
    41
1040
1.5
1002
}
  0
LWPOLYLINE
  5
83EA
330
83D0
100
AcDbEntity
  8
寸法引出
 48
15.0
100
AcDbPolyline
 90
        2
 70
     0
 43
0.0
 10
1418.879634473347
 20
1232.734900165295
 10
1976.498043814317
 20
1232.734900165295
1001
ACAD
1000
DSTYLE
1002
{
1070
   140
1040
2.0
1070
    40
1040
15.0
1070
   147
1040
1.0
1070
    44
1040
0.5
1070
    43
1040
5.0
1070
   178
1070
   256
1070
   177
1070
   256
1070
   176
1070
   256
1070
    41
1040
1.5
1002
}
  0
LINE
  5
83EB
330
83D0
100
AcDbEntity
  8
鉄筋
 48
15.0
100
AcDbLine
 10
1391.379634473347
 20
1176.567751500804
 30
0.0
 11
1691.379634473348
 21
1176.567751500804
 31
0.0
  0
SOLID
  5
83EC
330
83D0
100
AcDbEntity
  8
寸法引出
 48
15.0
100
AcDbTrace
 10
1447.215200517574
 20
1154.067751500804
 30
0.0
 11
1450.965200517574
 21
1176.567751500804
 31
0.0
 12
1454.715200517574
 22
1154.067751500804
 32
0.0
 13
1454.715200517574
 23
1154.067751500804
 33
0.0
1001
ACAD
1000
DSTYLE
1002
{
1070
   140
1040
2.0
1070
    40
1040
15.0
1070
   147
1040
1.0
1070
    44
1040
0.5
1070
    43
1040
5.0
1070
   178
1070
   256
1070
   177
1070
   256
1070
   176
1070
   256
1070
    41
1040
1.5
1002
}
  0
SOLID
  5
83ED
330
83D0
100
AcDbEntity
  8
寸法引出
 48
15.0
100
AcDbTrace
 10
1563.879634473347
 20
1228.984900165295
 30
-0.0000000000000023
 11
1541.379634473347
 21
1232.734900165295
 31
-0.0000000000000023
 12
1563.879634473347
 22
1236.484900165295
 32
-0.0000000000000023
 13
1563.879634473347
 23
1236.484900165295
 33
-0.0000000000000023
1001
ACAD
1000
DSTYLE
1002
{
1070
   140
1040
2.0
1070
    40
1040
15.0
1070
   147
1040
1.0
1070
    44
1040
0.5
1070
    43
1040
5.0
1070
   178
1070
   256
1070
   177
1070
   256
1070
   176
1070
   256
1070
    41
1040
1.5
1002
}
  0
LINE
  5
83EE
330
83D0
100
AcDbEntity
  8
鉄筋
 48
15.0
100
AcDbLine
 10
1391.379634473347
 20
1306.567751500804
 30
0.0
 11
1691.379634473348
 21
1306.567751500804
 31
0.0
  0
SOLID
  5
83EF
330
83D0
100
AcDbEntity
  8
寸法引出
 48
15.0
100
AcDbTrace
 10
1418.879634473347
 20
1228.984900165295
 30
-0.0000000000000023
 11
1396.379634473347
 21
1232.734900165295
 31
-0.0000000000000023
 12
1418.879634473347
 22
1236.484900165295
 32
-0.0000000000000023
 13
1418.879634473347
 23
1236.484900165295
 33
-0.0000000000000023
1001
ACAD
1000
DSTYLE
1002
{
1070
   140
1040
2.0
1070
    40
1040
15.0
1070
   147
1040
1.0
1070
    44
1040
0.5
1070
    43
1040
5.0
1070
   178
1070
   256
1070
   177
1070
   256
1070
   176
1070
   256
1070
    41
1040
1.5
1002
}
  0
SOLID
  5
83F0
330
83D0
100
AcDbEntity
  8
寸法引出
 48
15.0
100
AcDbTrace
 10
1447.215200517574
 20
1284.067751500804
 30
0.0
 11
1450.965200517574
 21
1306.567751500804
 31
0.0
 12
1454.715200517574
 22
1284.067751500804
 32
0.0
 13
1454.715200517574
 23
1284.067751500804
 33
0.0
1001
ACAD
1000
DSTYLE
1002
{
1070
   140
1040
2.0
1070
    40
1040
15.0
1070
   147
1040
1.0
1070
    44
1040
0.5
1070
    43
1040
5.0
1070
   178
1070
   256
1070
   177
1070
   256
1070
   176
1070
   256
1070
    41
1040
1.5
1002
}
  0
SOLID
  5
83F1
330
83D0
100
AcDbEntity
  8
寸法引出
 48
15.0
100
AcDbTrace
 10
1708.879634473347
 20
1228.984900165295
 30
-0.0000000000000023
 11
1686.379634473347
 21
1232.734900165295
 31
-0.0000000000000023
 12
1708.879634473347
 22
1236.484900165295
 32
-0.0000000000000023
 13
1708.879634473347
 23
1236.484900165295
 33
-0.0000000000000023
1001
ACAD
1000
DSTYLE
1002
{
1070
   140
1040
2.0
1070
    40
1040
15.0
1070
   147
1040
1.0
1070
    44
1040
0.5
1070
    43
1040
5.0
1070
   178
1070
   256
1070
   177
1070
   256
1070
   176
1070
   256
1070
    41
1040
1.5
1002
}
  0
LINE
  5
83F2
330
83D0
100
AcDbEntity
  8
鉄筋
 48
15.0
100
AcDbLine
 10
1391.379634473347
 20
1436.567751500804
 30
0.0
 11
1691.379634473348
 21
1436.567751500804
 31
0.0
  0
SOLID
  5
83F3
330
83D0
100
AcDbEntity
  8
寸法引出
 48
15.0
100
AcDbTrace
 10
1447.215200517574
 20
1414.067751500804
 30
0.0
 11
1450.965200517574
 21
1436.567751500804
 31
0.0
 12
1454.715200517574
 22
1414.067751500804
 32
0.0
 13
1454.715200517574
 23
1414.067751500804
 33
0.0
1001
ACAD
1000
DSTYLE
1002
{
1070
   140
1040
2.0
1070
    40
1040
15.0
1070
   147
1040
1.0
1070
    44
1040
0.5
1070
    43
1040
5.0
1070
   178
1070
   256
1070
   177
1070
   256
1070
   176
1070
   256
1070
    41
1040
1.5
1002
}
  0
LINE
  5
83F4
330
83D0
100
AcDbEntity
  8
鉄筋
 48
15.0
100
AcDbLine
 10
1391.379634473347
 20
1566.567751500804
 30
0.0
 11
1691.379634473348
 21
1566.567751500804
 31
0.0
  0
SOLID
  5
83F5
330
83D0
100
AcDbEntity
  8
寸法引出
 48
15.0
100
AcDbTrace
 10
1447.215200517574
 20
1544.067751500804
 30
0.0
 11
1450.965200517574
 21
1566.567751500804
 31
0.0
 12
1454.715200517574
 22
1544.067751500804
 32
0.0
 13
1454.715200517574
 23
1544.067751500804
 33
0.0
1001
ACAD
1000
DSTYLE
1002
{
1070
   140
1040
2.0
1070
    40
1040
15.0
1070
   147
1040
1.0
1070
    44
1040
0.5
1070
    43
1040
5.0
1070
   178
1070
   256
1070
   177
1070
   256
1070
   176
1070
   256
1070
    41
1040
1.5
1002
}
  0
MTEXT
  5
83F6
330
83D0
100
AcDbEntity
  8
寸法引出
  6
ByBlock
 48
15.0
100
AcDbMText
 10
1872.39749215138
 20
1256.173732302821
 30
0.0
 40
30.0
 41
0.0
 71
     5
 72
     1
  1
S2 D10×3
  7
SANWA
 73
     1
 44
1.0
1001
ACAD
1000
MTEXTBEGIN
1070
    73
1070
     1
1070
    44
1040
1.0
1070
    74
1070
     0
1000
MTEXTEND
  0
CIRCLE
  5
83F7
330
83D0
100
AcDbEntity
  8
寸法引出
 48
15.0
100
AcDbCircle
 10
1797.620322205941
 20
1254.452492674498
 30
0.0
 40
24.86816063193874
  0
LINE
  5
83F8
330
83D0
100
AcDbEntity
  8
0
100
AcDbLine
 10
3646.531909393849
 20
306.0000038137946
 30
0.0
 11
3646.531909393849
 21
594.0000038137968
 31
0.0
  0
LINE
  5
83F9
330
83D0
100
AcDbEntity
  8
0
100
AcDbLine
 10
3598.531909393845
 20
150.000003813795
 30
0.0
 11
3598.531909393845
 21
594.0000038137968
 31
0.0
  0
LINE
  5
83FA
330
83D0
100
AcDbEntity
  8
0
100
AcDbLine
 10
3202.531909393851
 20
594.0000038137968
 30
0.0
 11
3202.531909393851
 21
522.000003813796
 31
0.0
  0
LINE
  5
83FB
330
83D0
100
AcDbEntity
  8
0
100
AcDbLine
 10
3202.531909393851
 20
306.0000038137946
 30
0.0
 11
4304.999994500241
 21
306.0000038137946
 31
0.0
  0
TEXT
  5
83FC
330
83D0
100
AcDbEntity
  8
0
100
AcDbText
 10
3766.408307912697
 20
206.7188762244734
 30
0.0
 40
24.0
  1
三和コンクリート工業株式会社
  7
SANWA
100
AcDbText
  0
LINE
  5
83FD
330
83D0
100
AcDbEntity
  8
0
 62
     0
100
AcDbLine
 10
3598.531909393845
 20
498.0000038137973
 30
0.0
 11
4304.999994500241
 21
498.0000038137973
 31
0.0
  0
LINE
  5
83FE
330
83D0
100
AcDbEntity
  8
0
 62
     0
100
AcDbLine
 10
3598.531909393845
 20
402.0000038137959
 30
0.0
 11
4304.999994500241
 21
402.0000038137959
 31
0.0
  0
TEXT
  5
83FF
330
83D0
100
AcDbEntity
  8
0
100
AcDbText
 10
3803.274331835313
 20
534.2681602383773
 30
0.0
 40
24.0
  1
マルチスリット側溝蓋
  7
SANWA
 72
     4
 11
3975.765951947045
 21
546.0000038137963
 31
0.0
100
AcDbText
  0
TEXT
  5
8400
102
{ACAD_REACTORS
330
8403
102
}
330
83D0
100
AcDbEntity
  8
0
 48
2.0
100
AcDbText
 10
3424.249750296739
 20
80.91869764267016
 30
0.0
 40
24.0
  1
大
  7
SANWA
100
AcDbText
  0
CIRCLE
  5
8401
102
{ACAD_REACTORS
330
8403
102
}
330
83D0
100
AcDbEntity
  8
0
100
AcDbCircle
 10
3440.808044469531
 20
72.91680011179505
 30
0.0
 40
47.98512634354756
  0
CIRCLE
  5
8402
102
{ACAD_REACTORS
330
8403
102
}
330
83D0
100
AcDbEntity
  8
0
100
AcDbCircle
 10
3440.808044469531
 20
72.91680011179505
 30
0.0
 40
45.58512634354756
  0
HATCH
  5
8403
330
83D0
100
AcDbEntity
  8
0
100
AcDbHatch
 10
0.0
 20
0.0
 30
0.0
210
0.0
220
0.0
230
1.0
  2
SOLID
 70
     1
 71
     1
 91
        4
 92
        7
 72
     1
 73
     1
 93
        2
 10
3392.822918125983
 20
72.91680011179505
 42
1.000000014053304
 10
3488.793170813079
 20
72.91680011179505
 42
1.000000014053304
 97
        1
330
8401
 92
       22
 72
     1
 73
     1
 93
        2
 10
3486.393170813079
 20
72.91680011179505
 42
-1.0
 10
3395.222918125983
 20
72.91680011179505
 42
-1.0
 97
        1
330
8402
 92
      136
 93
        4
 72
     1
 10
3418.551426274393
 20
71.33210546389932
 11
3464.540253090035
 21
71.33210546389932
 72
     1
 10
3464.540253090035
 20
71.33210546389932
 11
3464.540253090035
 21
115.9801501566366
 72
     1
 10
3464.540253090035
 20
115.9801501566366
 11
3418.551426274393
 21
115.9801501566366
 72
     1
 10
3418.551426274393
 20
115.9801501566366
 11
3418.551426274393
 21
71.33210546389932
 97
        1
330
8400
 92
      136
 93
        4
 72
     1
 10
3418.690966326143
 20
35.65179717096339
 11
3464.746832247931
 21
35.65179717096339
 72
     1
 10
3464.746832247931
 20
35.65179717096339
 11
3464.746832247931
 21
82.51213236649414
 72
     1
 10
3464.746832247931
 20
82.51213236649414
 11
3418.690966326143
 21
82.51213236649414
 72
     1
 10
3418.690966326143
 20
82.51213236649414
 11
3418.690966326143
 21
35.65179717096339
 97
        1
330
8409
 75
     0
 76
     1
 47
0.0602706122334892
 98
        2
 10
3463.798330335834
 20
114.1660512125734
 10
3463.798330335834
 20
114.1660512125734
  0
CIRCLE
  5
8404
102
{ACAD_REACTORS
330
8407
102
}
330
83D0
100
AcDbEntity
  8
0
100
AcDbCircle
 10
3319.41231350403
 20
72.91680011179505
 30
0.0
 40
45.58512634354756
  0
CIRCLE
  5
8405
102
{ACAD_REACTORS
330
8407
102
}
330
83D0
100
AcDbEntity
  8
0
100
AcDbCircle
 10
3319.41231350403
 20
72.91680011179505
 30
0.0
 40
47.98512634354756
  0
TEXT
  5
8406
102
{ACAD_REACTORS
330
8407
102
}
330
83D0
100
AcDbEntity
  8
0
 48
2.0
100
AcDbText
 10
3302.854019331246
 20
79.62983711157789
 30
0.0
 40
24.0
  1
蒔
  7
SANWA
100
AcDbText
  0
HATCH
  5
8407
330
83D0
100
AcDbEntity
  8
0
100
AcDbHatch
 10
0.0
 20
0.0
 30
0.0
210
0.0
220
0.0
230
1.0
  2
SOLID
 70
     1
 71
     1
 91
        4
 92
        7
 72
     1
 73
     1
 93
        2
 10
3271.427187160482
 20
72.91680011179505
 42
1.000000014053304
 10
3367.397439847578
 20
72.91680011179505
 42
1.000000014053304
 97
        1
330
8405
 92
       22
 72
     1
 73
     1
 93
        2
 10
3364.997439847578
 20
72.91680011179505
 42
-1.0
 10
3273.827187160482
 20
72.91680011179505
 42
-1.0
 97
        1
330
8404
 92
      136
 93
        4
 72
     1
 10
3296.719941118955
 20
68.53486504453872
 11
3343.848432739067
 21
68.53486504453872
 72
     1
 10
3343.848432739067
 20
68.53486504453872
 11
3343.848432739067
 21
114.9929656031979
 72
     1
 10
3343.848432739067
 20
114.9929656031979
 11
3296.719941118955
 21
114.9929656031979
 72
     1
 10
3296.719941118955
 20
114.9929656031979
 11
3296.719941118955
 21
68.53486504453872
 97
        1
330
8406
 92
      136
 93
        4
 72
     1
 10
3301.317581729358
 20
32.85783517120149
 11
3339.596911338296
 21
32.85783517120149
 72
     1
 10
3339.596911338296
 20
32.85783517120149
 11
3339.596911338296
 21
74.89135472427415
 72
     1
 10
3339.596911338296
 20
74.89135472427415
 11
3301.317581729358
 21
74.89135472427415
 72
     1
 10
3301.317581729358
 20
74.89135472427415
 11
3301.317581729358
 21
32.85783517120149
 97
        1
330
8408
 75
     0
 76
     1
 47
0.0602706122334892
 98
        2
 10
3342.40259937034
 20
114.1660512125734
 10
3342.40259937034
 20
114.1660512125734
  0
TEXT
  5
8408
102
{ACAD_REACTORS
330
8407
102
}
330
83D0
100
AcDbEntity
  8
0
 48
2.0
100
AcDbText
 10
3302.289648768464
 20
43.08129885835228
 30
0.0
 40
24.0
  1
田
  7
SANWA
100
AcDbText
  0
TEXT
  5
8409
102
{ACAD_REACTORS
330
8403
102
}
330
83D0
100
AcDbEntity
  8
0
 48
2.0
100
AcDbText
 10
3423.685379733965
 20
46.94788655643833
 30
0.0
 40
24.0
  1
嶋
  7
SANWA
100
AcDbText
  0
TEXT
  5
840A
330
83D0
100
AcDbEntity
  8
0
 48
2.0
100
AcDbText
 10
3325.407357335497
 20
557.2772899786196
 30
0.0
 40
24.0
  1
図面
  7
SANWA
100
AcDbText
  0
TEXT
  5
840B
330
83D0
100
AcDbEntity
  8
0
 48
2.0
100
AcDbText
 10
3341.538427974705
 20
378.5853051111444
 30
0.0
 40
24.0
  1
1 : 15
  7
SANWA
100
AcDbText
  0
TEXT
  5
840C
330
83D0
100
AcDbEntity
  8
0
 48
2.0
100
AcDbText
 10
3326.458867659657
 20
434.3839184840085
 30
0.0
 40
24.0
  1
縮    尺
  7
SANWA
100
AcDbText
  0
LINE
  5
840D
330
83D0
100
AcDbEntity
  8
0
 62
     0
100
AcDbLine
 10
3202.531909393851
 20
270.000003813795
 30
0.0
 11
3598.531909393852
 21
270.000003813795
 31
0.0
  0
LINE
  5
840E
330
83D0
100
AcDbEntity
  8
0
 62
     0
100
AcDbLine
 10
3202.531909393851
 20
546.0000038137963
 30
0.0
 11
3598.531909393845
 21
546.0000038137963
 31
0.0
  0
LINE
  5
840F
330
83D0
100
AcDbEntity
  8
0
 62
     0
100
AcDbLine
 10
3202.531909393851
 20
546.0000038137963
 30
0.0
 11
3598.531909393845
 21
546.0000038137963
 31
0.0
  0
LINE
  5
8410
330
83D0
100
AcDbEntity
  8
0
 62
     0
100
AcDbLine
 10
3202.531909393851
 20
342.000003813796
 30
0.0
 11
3598.531909393852
 21
342.000003813796
 31
0.0
  0
LINE
  5
8411
330
83D0
100
AcDbEntity
  8
0
 62
     0
100
AcDbLine
 10
3202.531909393851
 20
474.0000038137968
 30
0.0
 11
3598.531909393845
 21
474.0000038137968
 31
0.0
  0
LINE
  5
8412
330
83D0
100
AcDbEntity
  8
0
 62
     0
100
AcDbLine
 10
3202.531909393851
 20
426.0000038137964
 30
0.0
 11
3598.531909393845
 21
426.0000038137964
 31
0.0
  0
LINE
  5
8413
330
83D0
100
AcDbEntity
  8
0
100
AcDbLine
 10
3202.531909393851
 20
378.0000038137955
 30
0.0
 11
3202.531909393851
 21
299.9351535235592
 31
0.0
  0
LINE
  5
8414
330
83D0
100
AcDbEntity
  8
0
100
AcDbLine
 10
3202.531909393851
 20
342.000003813796
 30
0.0
 11
3202.531909393851
 21
378.0000038137955
 31
0.0
  0
LINE
  5
8415
330
83D0
100
AcDbEntity
  8
0
 62
     0
100
AcDbLine
 10
3202.531909393851
 20
378.0000038137955
 30
0.0
 11
3202.531909393851
 21
150.000003813795
 31
0.0
  0
LINE
  5
8416
330
83D0
100
AcDbEntity
  8
0
100
AcDbLine
 10
3334.531909393847
 20
150.000003813795
 30
0.0
 11
3334.531909393847
 21
342.000003813796
 31
0.0
  0
TEXT
  5
8417
330
83D0
100
AcDbEntity
  8
0
 48
2.0
100
AcDbText
 10
3251.727096117006
 20
210.5983017827955
 30
0.0
 40
24.0
  1
河
  7
SANWA
100
AcDbText
  0
CIRCLE
  5
8418
102
{ACAD_REACTORS
330
841A
102
}
330
83D0
100
AcDbEntity
  8
0
100
AcDbCircle
 10
3268.28539028979
 20
207.4272595232933
 30
0.0
 40
45.58512634354756
  0
CIRCLE
  5
8419
102
{ACAD_REACTORS
330
841A
102
}
330
83D0
100
AcDbEntity
  8
0
100
AcDbCircle
 10
3268.28539028979
 20
207.4272595232933
 30
0.0
 40
47.98512634354756
  0
HATCH
  5
841A
330
83D0
100
AcDbEntity
  8
0
100
AcDbHatch
 10
0.0
 20
0.0
 30
0.0
210
0.0
220
0.0
230
1.0
  2
SOLID
 70
     1
 71
     1
 91
        2
 92
        7
 72
     1
 73
     1
 93
        2
 10
3220.300263946242
 20
207.4272595232933
 42
1.000000014053304
 10
3316.270516633338
 20
207.4272595232933
 42
1.000000014053304
 97
        1
330
8419
 92
       22
 72
     1
 73
     1
 93
        2
 10
3313.870516633337
 20
207.4272595232933
 42
-1.0
 10
3222.700263946242
 20
207.4272595232933
 42
-1.0
 97
        1
330
8418
 75
     0
 76
     1
 47
0.0602706122334892
 98
        2
 10
3291.2756761561
 20
248.6765106240716
 10
3291.2756761561
 20
248.6765106240716
  0
TEXT
  5
841B
330
83D0
100
AcDbEntity
  8
0
 48
2.0
100
AcDbText
 10
3251.162725554231
 20
176.6274906965654
 30
0.0
 40
24.0
  1
口
  7
SANWA
100
AcDbText
  0
LINE
  5
841C
330
83D0
100
AcDbEntity
  8
0
100
AcDbLine
 10
3202.531909393851
 20
342.000003813796
 30
0.0
 11
3202.531909393851
 21
306.0000038137946
 31
0.0
  0
TEXT
  5
841D
330
83D0
100
AcDbEntity
  8
0
 48
2.0
100
AcDbText
 10
3234.749390544604
 20
313.2513828222755
 30
0.0
 40
24.0
  1
製図
  7
SANWA
100
AcDbText
  0
TEXT
  5
841E
330
83D0
100
AcDbEntity
  8
0
 48
2.0
100
AcDbText
 10
3231.216174433374
 20
275.7717989294395
 30
0.0
 40
24.0
  1
検図
  7
SANWA
100
AcDbText
  0
LINE
  5
841F
330
83D0
100
AcDbEntity
  8
0
 62
     0
100
AcDbLine
 10
3202.531909393851
 20
522.000003813796
 30
0.0
 11
3202.531909393851
 21
378.0000038137955
 31
0.0
  0
LINE
  5
8420
330
83D0
100
AcDbEntity
  8
0
100
AcDbLine
 10
3202.531909393851
 20
436.0565714016916
 30
0.0
 11
3202.531909393851
 21
529.2701507558835
 31
0.0
  0
LINE
  5
8421
330
83D0
100
AcDbEntity
  8
0
100
AcDbLine
 10
3202.531909393851
 20
402.0000038137959
 30
0.0
 11
3202.531909393851
 21
436.0565714016916
 31
0.0
  0
TEXT
  5
8422
330
83D0
100
AcDbEntity
  8
0
 48
2.0
100
AcDbText
 10
3609.288062429572
 20
324.941095554733
 30
0.0
 40
16.79999999999999
  1
格
  7
SANWA
100
AcDbText
  0
TEXT
  5
8423
330
83D0
100
AcDbEntity
  8
0
100
AcDbText
 10
3904.369303902353
 20
341.8659256015064
 30
0.0
 40
24.0
  1
３００用
  7
SANWA
 72
     4
 11
3975.765951947045
 21
354.0000038137969
 31
0.0
100
AcDbText
  0
TEXT
  5
8424
330
83D0
100
AcDbEntity
  8
0
100
AcDbText
 10
3666.708997335176
 20
206.7188762244734
 30
0.0
 40
18.0
  1
和
  7
SANWA
100
AcDbText
  0
ARC
  5
8425
102
{ACAD_REACTORS
330
8432
102
}
330
83D0
100
AcDbEntity
  8
0
100
AcDbCircle
 10
3680.136208832041
 20
223.2088196225941
 30
0.0
 40
33.06378893304791
100
AcDbArc
 50
274.1625874111288
 51
40.83741258887306
  0
ARC
  5
8426
102
{ACAD_REACTORS
330
8432
102
}
330
83D0
100
AcDbEntity
  8
0
100
AcDbCircle
 10
3680.136208832041
 20
223.2088196225941
 30
0.0
 40
43.86378893304791
100
AcDbArc
 50
273.1364954470844
 51
41.86350455291712
  0
ARC
  5
8427
102
{ACAD_REACTORS
330
8432
102
}
330
83D0
100
AcDbEntity
  8
0
100
AcDbCircle
 10
3680.136208832041
 20
223.2088196225941
 30
0.0
 40
35.46378893304791
100
AcDbArc
 50
277.7788203119023
 51
37.22117968809818
  0
ARC
  5
8428
102
{ACAD_REACTORS
330
8432
102
}
330
83D0
100
AcDbEntity
  8
0
100
AcDbCircle
 10
3680.136208832041
 20
223.2088196225941
 30
0.0
 40
41.46378893304791
100
AcDbArc
 50
276.6476737862027
 51
38.35232621379853
  0
TEXT
  5
8429
102
{ACAD_REACTORS
330
842C
102
}
330
83D0
100
AcDbEntity
  8
0
 48
2.0
100
AcDbText
 10
3515.556239560524
 20
218.1742794261074
 30
0.0
 40
24.0
  1
中
  7
SANWA
100
AcDbText
  0
CIRCLE
  5
842A
102
{ACAD_REACTORS
330
842C
102
}
330
83D0
100
AcDbEntity
  8
0
100
AcDbCircle
 10
3532.114533733309
 20
210.1723818952323
 30
0.0
 40
47.98512634354756
  0
CIRCLE
  5
842B
102
{ACAD_REACTORS
330
842C
102
}
330
83D0
100
AcDbEntity
  8
0
100
AcDbCircle
 10
3532.114533733309
 20
210.1723818952323
 30
0.0
 40
45.58512634354756
  0
HATCH
  5
842C
330
83D0
100
AcDbEntity
  8
0
100
AcDbHatch
 10
0.0
 20
0.0
 30
0.0
210
0.0
220
0.0
230
1.0
  2
SOLID
 70
     1
 71
     1
 91
        4
 92
        7
 72
     1
 73
     1
 93
        2
 10
3484.129407389762
 20
210.1723818952323
 42
1.000000014053304
 10
3580.099660076857
 20
210.1723818952323
 42
1.000000014053304
 97
        1
330
842A
 92
       22
 72
     1
 73
     1
 93
        2
 10
3577.699660076857
 20
210.1723818952323
 42
-1.0
 10
3486.529407389762
 20
210.1723818952323
 42
-1.0
 97
        1
330
842B
 92
      136
 93
        4
 72
     1
 10
3512.841155761641
 20
206.475955403761
 11
3554.874675314714
 21
206.475955403761
 72
     1
 10
3554.874675314714
 20
206.475955403761
 11
3554.874675314714
 21
253.3362905992917
 72
     1
 10
3554.874675314714
 20
253.3362905992917
 11
3512.841155761641
 21
253.3362905992917
 72
     1
 10
3512.841155761641
 20
253.3362905992917
 11
3512.841155761641
 21
206.475955403761
 97
        1
330
8429
 92
      136
 93
        4
 72
     1
 10
3508.32147793629
 20
174.0470437588699
 11
3553.036561735173
 21
174.0470437588699
 72
     1
 10
3553.036561735173
 20
174.0470437588699
 11
3553.036561735173
 21
218.0917364963002
 72
     1
 10
3553.036561735173
 20
218.0917364963002
 11
3508.32147793629
 21
218.0917364963002
 72
     1
 10
3508.32147793629
 20
218.0917364963002
 11
3508.32147793629
 21
174.0470437588699
 97
        1
330
8433
 75
     0
 76
     1
 47
0.0602706122334892
 98
        2
 10
3555.10481959962
 20
251.4216329960107
 10
3555.10481959962
 20
251.4216329960107
  0
LINE
  5
842D
330
83D0
100
AcDbEntity
  8
0
100
AcDbLine
 10
3466.531909393849
 20
150.000003813795
 30
0.0
 11
3466.531909393849
 21
306.0000038137946
 31
0.0
  0
ARC
  5
842E
102
{ACAD_REACTORS
330
8432
102
}
330
83D0
100
AcDbEntity
  8
0
100
AcDbCircle
 10
3680.136208832041
 20
223.2088196225941
 30
0.0
 40
41.46378893304791
100
AcDbArc
 50
141.6476737862016
 51
263.3523262137983
  0
ARC
  5
842F
102
{ACAD_REACTORS
330
8432
102
}
330
83D0
100
AcDbEntity
  8
0
100
AcDbCircle
 10
3680.136208832041
 20
223.2088196225941
 30
0.0
 40
43.86378893304791
100
AcDbArc
 50
138.1364954470837
 51
266.8635045529165
  0
ARC
  5
8430
102
{ACAD_REACTORS
330
8432
102
}
330
83D0
100
AcDbEntity
  8
0
100
AcDbCircle
 10
3680.136208832041
 20
223.2088196225941
 30
0.0
 40
35.46378893304791
100
AcDbArc
 50
142.7788203119012
 51
262.2211796880999
  0
ARC
  5
8431
102
{ACAD_REACTORS
330
8432
102
}
330
83D0
100
AcDbEntity
  8
0
100
AcDbCircle
 10
3680.136208832041
 20
223.2088196225941
 30
0.0
 40
33.06378893304791
100
AcDbArc
 50
139.1625874111273
 51
265.8374125888725
  0
HATCH
  5
8432
330
83D0
100
AcDbEntity
  8
0
100
AcDbHatch
 10
0.0
 20
0.0
 30
0.0
210
0.0
220
0.0
230
1.0
  2
SOLID
 70
     1
 71
     1
 91
        6
 92
        7
 72
     1
 73
     1
 93
        4
 10
3650.863344380781
 20
255.8757966235532
 42
0.0
 10
3658.515309165074
 20
248.2238318392626
 42
-0.3722683533228704
 10
3701.757108499015
 20
248.2238318392563
 42
0.0
 10
3709.409073283302
 20
255.875796623551
 42
0.3824979940289992
 97
        4
330
8445
330
843B
330
8441
330
8444
 92
       22
 72
     1
 73
     1
 93
        4
 10
3705.864302523326
 20
255.7251384132687
 42
0.0
 10
3701.588024776646
 20
251.4488606665893
 42
0.336742954895075
 10
3658.684392887439
 20
251.4488606665921
 42
0.0
 10
3654.408115140757
 20
255.7251384132708
 42
-0.3477704275230964
 97
        4
330
8442
330
843C
330
843F
330
843D
 92
        7
 72
     1
 73
     1
 93
        4
 10
3705.151221048709
 20
244.8297192895609
 42
-0.6168583269097669
 10
3682.536208832052
 20
190.2322500828575
 42
0.0
 10
3682.536208832046
 20
179.4107377061111
 42
0.629288915937916
 10
3712.803185832998
 20
252.4816840738549
 42
0.0
 97
        4
330
8440
330
8425
330
8435
330
8426
 92
       22
 72
     1
 73
     1
 93
        4
 10
3712.652527622717
 20
248.9369133138778
 42
-0.5873104908888742
 10
3684.936208832044
 20
182.0238005903743
 42
0.0
 10
3684.936208832044
 20
188.0713705762027
 42
0.5741105922167026
 10
3708.376249876037
 20
244.6606355671988
 42
0.0
 97
        4
330
8428
330
8437
330
8427
330
8443
 92
        7
 72
     1
 73
     1
 93
        4
 10
3647.469231831087
 20
252.4816840738586
 42
0.6292889159380126
 10
3677.736208832043
 20
179.4107377061107
 42
0.0
 10
3677.736208832043
 20
190.2322500828563
 42
-0.6168583269100103
 10
3655.121196615378
 20
244.8297192895686
 42
0.0
 97
        4
330
842F
330
8434
330
8431
330
8446
 92
       22
 72
     1
 73
     1
 93
        4
 10
3651.896167788047
 20
244.6606355672023
 42
0.5741105922168146
 10
3675.336208832045
 20
188.0713705762018
 42
0.0
 10
3675.336208832045
 20
182.0238005903732
 42
-0.5873104908889722
 10
3647.619890041368
 20
248.9369133138812
 42
0.0
 97
        4
330
8430
330
8436
330
842E
330
8447
 75
     0
 76
     1
 47
0.0143554168026844
 98
        6
 10
3699.348491284218
 20
260.885329584306
 10
3699.348491284218
 20
260.885329584306
 10
3708.313951847107
 20
246.9318652668567
 10
3708.313951847107
 20
246.9318652668567
 10
3652.969447856282
 20
246.4150699743968
 10
3652.969447856282
 20
246.4150699743968
  0
TEXT
  5
8433
102
{ACAD_REACTORS
330
842C
102
}
330
83D0
100
AcDbEntity
  8
0
 48
2.0
100
AcDbText
 10
3514.991868997742
 20
184.2034683398756
 30
0.0
 40
24.0
  1
川
  7
SANWA
100
AcDbText
  0
LINE
  5
8434
102
{ACAD_REACTORS
330
8432
102
}
330
83D0
100
AcDbEntity
  8
0
100
AcDbLine
 10
3677.736208832043
 20
179.4107377061114
 30
0.0
 11
3677.736208832043
 21
190.2322500828552
 31
0.0
  0
LINE
  5
8435
102
{ACAD_REACTORS
330
8432
102
}
330
83D0
100
AcDbEntity
  8
0
100
AcDbLine
 10
3682.536208832046
 20
179.4107377061114
 30
0.0
 11
3682.536208832052
 21
190.2322500828568
 31
0.0
  0
LINE
  5
8436
102
{ACAD_REACTORS
330
8432
102
}
330
83D0
100
AcDbEntity
  8
0
100
AcDbLine
 10
3675.336208832045
 20
182.0238005903734
 30
0.0
 11
3675.336208832045
 21
188.0713705762014
 31
0.0
  0
LINE
  5
8437
102
{ACAD_REACTORS
330
8432
102
}
330
83D0
100
AcDbEntity
  8
0
100
AcDbLine
 10
3684.936208832044
 20
182.0238005903734
 30
0.0
 11
3684.936208832044
 21
188.0713705762014
 31
0.0
  0
TEXT
  5
8438
330
83D0
100
AcDbEntity
  8
0
 48
2.0
100
AcDbText
 10
3388.97229744964
 20
313.2513828222755
 30
0.0
 40
24.0
  1
2000.12.19
  7
SANWA
100
AcDbText
  0
TEXT
  5
8439
330
83D0
100
AcDbEntity
  8
0
 48
2.0
100
AcDbText
 10
3498.749390544603
 20
277.2513828222759
 30
0.0
 40
24.0
  1
製図
  7
SANWA
100
AcDbText
  0
TEXT
  5
843A
330
83D0
100
AcDbEntity
  8
0
 48
2.0
100
AcDbText
 10
3369.075980325826
 20
277.1357215650896
 30
0.0
 40
24.0
  1
設計
  7
SANWA
100
AcDbText
  0
ARC
  5
843B
102
{ACAD_REACTORS
330
8432
102
}
330
83D0
100
AcDbEntity
  8
0
100
AcDbCircle
 10
3680.136208832041
 20
223.2088196225941
 30
0.0
 40
33.06378893304791
100
AcDbArc
 50
49.16258741112848
 51
130.8374125888727
  0
ARC
  5
843C
102
{ACAD_REACTORS
330
8432
102
}
330
83D0
100
AcDbEntity
  8
0
100
AcDbCircle
 10
3680.136208832041
 20
223.2088196225941
 30
0.0
 40
35.46378893304791
100
AcDbArc
 50
52.77882031190202
 51
127.2211796880981
  0
ARC
  5
843D
102
{ACAD_REACTORS
330
8432
102
}
330
83D0
100
AcDbEntity
  8
0
100
AcDbCircle
 10
3680.136208832041
 20
223.2088196225941
 30
0.0
 40
41.46378893304791
100
AcDbArc
 50
51.64767378620499
 51
128.3523262137973
  0
TEXT
  5
843E
330
83D0
100
AcDbEntity
  8
0
100
AcDbText
 10
3666.708997335176
 20
230.6320954164339
 30
0.0
 40
18.0
  1
三
  7
SANWA
100
AcDbText
  0
LINE
  5
843F
102
{ACAD_REACTORS
330
8432
102
}
330
83D0
100
AcDbEntity
  8
0
100
AcDbLine
 10
3658.684392887441
 20
251.44886066659
 30
0.0
 11
3654.408115140758
 21
255.7251384132696
 31
0.0
  0
LINE
  5
8440
102
{ACAD_REACTORS
330
8432
102
}
330
83D0
100
AcDbEntity
  8
0
100
AcDbLine
 10
3705.151221048712
 20
244.8297192895648
 30
0.0
 11
3712.803185832999
 21
252.481684073856
 31
0.0
  0
LINE
  5
8441
102
{ACAD_REACTORS
330
8432
102
}
330
83D0
100
AcDbEntity
  8
0
100
AcDbLine
 10
3701.757108499018
 20
248.2238318392597
 30
0.0
 11
3709.409073283304
 21
255.8757966235526
 31
0.0
  0
LINE
  5
8442
102
{ACAD_REACTORS
330
8432
102
}
330
83D0
100
AcDbEntity
  8
0
100
AcDbLine
 10
3701.588024776646
 20
251.44886066659
 30
0.0
 11
3705.864302523329
 21
255.7251384132712
 31
0.0
  0
LINE
  5
8443
102
{ACAD_REACTORS
330
8432
102
}
330
83D0
100
AcDbEntity
  8
0
100
AcDbLine
 10
3708.376249876037
 20
244.6606355671986
 30
0.0
 11
3712.652527622719
 21
248.9369133138798
 31
0.0
  0
ARC
  5
8444
102
{ACAD_REACTORS
330
8432
102
}
330
83D0
100
AcDbEntity
  8
0
100
AcDbCircle
 10
3680.136208832041
 20
223.2088196225941
 30
0.0
 40
43.86378893304791
100
AcDbArc
 50
48.13649544708374
 51
131.8635045529165
  0
LINE
  5
8445
102
{ACAD_REACTORS
330
8432
102
}
330
83D0
100
AcDbEntity
  8
0
100
AcDbLine
 10
3658.515309165077
 20
248.2238318392597
 30
0.0
 11
3650.816882503799
 21
255.9222585005352
 31
0.0
  0
LINE
  5
8446
102
{ACAD_REACTORS
330
8432
102
}
330
83D0
100
AcDbEntity
  8
0
100
AcDbLine
 10
3655.121196615382
 20
244.8297192895648
 30
0.0
 11
3647.422769954105
 21
252.5281459508403
 31
0.0
  0
LINE
  5
8447
102
{ACAD_REACTORS
330
8432
102
}
330
83D0
100
AcDbEntity
  8
0
100
AcDbLine
 10
3651.896167788051
 20
244.6606355671986
 30
0.0
 11
3647.619890041369
 21
248.9369133138798
 31
0.0
  0
TEXT
  5
8448
330
83D0
100
AcDbEntity
  8
0
 48
2.0
100
AcDbText
 10
3608.763419808646
 20
466.4348231138615
 30
0.0
 40
16.79999999999999
  1
呼
  7
SANWA
100
AcDbText
  0
TEXT
  5
8449
330
83D0
100
AcDbEntity
  8
0
 48
2.0
100
AcDbText
 10
3608.865360365164
 20
419.9263523685237
 30
0.0
 40
16.79999999999999
  1
名
  7
SANWA
100
AcDbText
  0
TEXT
  5
844A
330
83D0
100
AcDbEntity
  8
0
 48
2.0
100
AcDbText
 10
3609.288062429572
 20
360.6846191266691
 30
0.0
 40
16.79999999999999
  1
規
  7
SANWA
100
AcDbText
  0
TEXT
  5
844B
330
83D0
100
AcDbEntity
  8
0
 48
2.0
100
AcDbText
 10
3608.525129387093
 20
443.4326198145981
 30
0.0
 40
16.79999999999999
  1
び
  7
SANWA
100
AcDbText
  0
TEXT
  5
844C
330
83D0
100
AcDbEntity
  8
0
 48
2.0
100
AcDbText
 10
3392.339279411698
 20
558.6411954563886
 30
0.0
 40
24.0
  1
番号
  7
SANWA
100
AcDbText
  0
TEXT
  5
844D
330
83D0
100
AcDbEntity
  8
0
 48
2.0
100
AcDbText
 10
3609.74309176121
 20
560.3769005008428
 30
0.0
 40
16.79999999999999
  1
品
  7
SANWA
100
AcDbText
  0
TEXT
  5
844E
330
83D0
100
AcDbEntity
  8
0
 48
2.0
100
AcDbText
 10
3608.833033097948
 20
520.9962670583865
 30
0.0
 40
16.79999999999999
  1
名
  7
SANWA
100
AcDbText
  0
TEXT
  5
844F
330
83D0
100
AcDbEntity
  8
0
100
AcDbText
 10
3938.894443567157
 20
436.9944172216178
 30
0.0
 40
24.0
  1
Ｂ型
  7
SANWA
 72
     4
 11
3975.765951947045
 21
450.0000038137966
 31
0.0
100
AcDbText
  0
LINE
  5
8450
330
83D0
100
AcDbEntity
  8
0
100
AcDbLine
 10
4454.999994500242
 20
150.0000038137932
 30
0.0
 11
4454.999994500242
 21
0.0000038137932279
 31
0.0
  0
LINE
  5
8451
330
83D0
100
AcDbEntity
  8
0
100
AcDbLine
 10
4454.999994500242
 20
0.0000038137932279
 30
0.0
 11
4304.999994500241
 21
0.0000038137932279
 31
0.0
  0
LINE
  5
8452
330
83D0
100
AcDbEntity
  8
0
 62
     0
100
AcDbLine
 10
3202.531909393851
 20
594.0000038137968
 30
0.0
 11
4304.999994500241
 21
594.0000038137968
 31
0.0
  0
LINE
  5
8453
330
83D0
100
AcDbEntity
  8
0
100
AcDbLine
 10
3598.531909393845
 20
594.0000038137968
 30
0.0
 11
3621.277266805682
 21
594.0000038137968
 31
0.0
  0
DIMENSION
  5
8454
330
83D0
100
AcDbEntity
  8
寸法引出
 48
15.0
100
AcDbDimension
  2
*D17
 10
3143.040487632535
 20
2401.253367090955
 30
0.0
 11
2643.040487632535
 21
2431.253367090955
 31
0.0
 12
-4111.810748795106
 22
1807.474765486964
 32
0.0
 71
     5
 42
-1.0
  3
SANWA
100
AcDbAlignedDimension
 13
2143.040487632535
 23
2254.779571455445
 33
0.0
 14
3143.040487632535
 24
2254.779571455445
 34
0.0
100
AcDbRotatedDimension
1001
ACAD
1000
DSTYLE
1002
{
1070
   140
1040
2.0
1070
    40
1040
15.0
1070
   147
1040
1.0
1070
    44
1040
0.5
1070
    43
1040
5.0
1070
   178
1070
   256
1070
   177
1070
   256
1070
   176
1070
   256
1070
    41
1040
1.5
1002
}
  0
DIMENSION
  5
8455
330
83D0
100
AcDbEntity
  8
寸法引出
 48
15.0
100
AcDbDimension
  2
*D15
 10
3098.040487632535
 20
2336.570965038613
 30
0.0
 11
2643.040487632535
 21
2366.570965038613
 31
0.0
 12
-4111.810748795106
 22
1807.474765486964
 32
0.0
  1
7@130=<>
 71
     5
 42
-1.0
  3
SANWA
100
AcDbAlignedDimension
 13
2188.040487632535
 23
2254.779571455445
 33
0.0
 14
3098.040487632535
 24
2254.779571455445
 34
0.0
100
AcDbRotatedDimension
1001
ACAD
1000
DSTYLE
1002
{
1070
    40
1040
15.0
1070
    41
1040
1.5
1070
    43
1040
5.0
1070
    44
1040
0.5
1070
    75
1070
     1
1070
   140
1040
2.0
1070
   147
1040
1.0
1070
   176
1070
   256
1070
   177
1070
   256
1070
   178
1070
   256
1070
   279
1070
     1
1002
}
  0
LINE
  5
8456
330
83D0
100
AcDbEntity
  8
鉄筋
 48
15.0
100
AcDbLine
 10
2183.040487632536
 20
2189.779571455446
 30
0.0
 11
3103.040487632535
 21
2189.779571455446
 31
0.0
  0
LINE
  5
8457
330
83D0
100
AcDbEntity
  8
0
 48
15.0
100
AcDbLine
 10
2143.040487632535
 20
2154.779571455446
 30
0.0
 11
3143.040487632535
 21
2154.779571455446
 31
0.0
  0
LINE
  5
8458
330
83D0
100
AcDbEntity
  8
0
 48
15.0
100
AcDbLine
 10
2143.040487632535
 20
2254.779571455445
 30
0.0
 11
3143.040487632535
 21
2254.779571455445
 31
0.0
  0
TEXT
  5
8459
330
83D0
100
AcDbEntity
  8
0
100
AcDbText
 10
1678.542038139113
 20
2723.003631107563
 30
0.0
 40
42.0
  1
マルチスリット側溝蓋 Ｂ型 ３００用 配筋図
  7
SANWA
 72
     4
 11
2294.229188977102
 21
2743.768994236055
 31
0.0
100
AcDbText
  0
LINE
  5
845A
330
83D0
100
AcDbEntity
  8
0
100
AcDbLine
 10
1654.443846158548
 20
2700.000003813793
 30
0.0
 11
2944.640315922164
 21
2700.000003813793
 31
0.0
  0
LINE
  5
845B
330
83D0
100
AcDbEntity
  8
0
100
AcDbLine
 10
1654.443846158548
 20
2688.000003813794
 30
0.0
 11
2944.640315922164
 21
2688.000003813794
 31
0.0
  0
LINE
  5
845C
330
83D0
100
AcDbEntity
  8
枠
100
AcDbLine
 10
374.9999945002419
 20
3000.000003813794
 30
0.0
 11
4304.999994500241
 21
3000.000003813794
 31
0.0
  0
DIMENSION
  5
845D
330
83D0
100
AcDbEntity
  8
寸法引出
 48
15.0
100
AcDbDimension
  2
*D6
 10
1741.379634473347
 20
1831.011256165644
 30
0.0
 11
1713.879634473347
 21
1861.011256165644
 31
0.0
 12
-4111.810748795106
 22
1807.474765486964
 32
0.0
 71
     5
 42
-1.0
  3
SANWA
100
AcDbAlignedDimension
 13
1686.379634473348
 23
1741.567751500804
 33
0.0
 14
1741.379634473347
 24
1741.567751500804
 34
0.0
100
AcDbRotatedDimension
1001
ACAD
1000
DSTYLE
1002
{
1070
    40
1040
15.0
1070
    41
1040
1.5
1070
    43
1040
5.0
1070
    44
1040
0.5
1070
    75
1070
     1
1070
   140
1040
2.0
1070
   147
1040
1.0
1070
   176
1070
   256
1070
   177
1070
   256
1070
   178
1070
   256
1070
   279
1070
     1
1002
}
  0
DIMENSION
  5
845E
330
83D0
100
AcDbEntity
  8
寸法引出
 48
15.0
100
AcDbDimension
  2
*D2
 10
2030.538287322474
 20
1741.567751500804
 30
0.0
 11
2000.538287322473
 21
1719.067751500803
 31
0.0
 12
-4111.810748795106
 22
1807.474765486964
 32
0.0
 71
     5
 42
-1.0
  3
SANWA
100
AcDbAlignedDimension
 13
1741.379634473347
 23
1696.567751500804
 33
0.0
 14
1741.379634473347
 24
1741.567751500804
 34
0.0
 50
90.0
100
AcDbRotatedDimension
1001
ACAD
1000
DSTYLE
1002
{
1070
    40
1040
15.0
1070
    41
1040
1.5
1070
    43
1040
5.0
1070
    44
1040
0.5
1070
    75
1070
     1
1070
   140
1040
2.0
1070
   147
1040
1.0
1070
   176
1070
   256
1070
   177
1070
   256
1070
   178
1070
   256
1070
   279
1070
     1
1002
}
  0
DIMENSION
  5
845F
330
83D0
100
AcDbEntity
  8
寸法引出
 48
15.0
100
AcDbDimension
  2
*D7
 10
1741.379634473347
 20
1894.814321100357
 30
0.0
 11
1541.379634473347
 21
1924.814321100357
 31
0.0
 12
-4111.810748795106
 22
1807.474765486964
 32
0.0
 71
     5
 42
-1.0
  3
SANWA
100
AcDbAlignedDimension
 13
1341.379634473347
 23
1741.567751500804
 33
0.0
 14
1741.379634473347
 24
1741.567751500804
 34
0.0
100
AcDbRotatedDimension
1001
ACAD
1000
DSTYLE
1002
{
1070
   140
1040
2.0
1070
    40
1040
15.0
1070
   147
1040
1.0
1070
    44
1040
0.5
1070
    43
1040
5.0
1070
   178
1070
   256
1070
   177
1070
   256
1070
   176
1070
   256
1070
    41
1040
1.5
1002
}
  0
DIMENSION
  5
8460
330
83D0
100
AcDbEntity
  8
寸法引出
 48
15.0
100
AcDbDimension
  2
*D5
 10
1686.379634473348
 20
1831.011256165644
 30
0.0
 11
1541.379634473348
 21
1861.011256165644
 31
0.0
 12
-4111.810748795106
 22
1807.474765486964
 32
0.0
  1
2@145=<>
 71
     5
 42
-1.0
  3
SANWA
100
AcDbAlignedDimension
 13
1396.379634473348
 23
1741.567751500804
 33
0.0
 14
1686.379634473348
 24
1741.567751500804
 34
0.0
100
AcDbRotatedDimension
1001
ACAD
1000
DSTYLE
1002
{
1070
    40
1040
15.0
1070
    41
1040
1.5
1070
    43
1040
5.0
1070
    44
1040
0.5
1070
    75
1070
     1
1070
   140
1040
2.0
1070
   147
1040
1.0
1070
   176
1070
   256
1070
   177
1070
   256
1070
   178
1070
   256
1070
   279
1070
     1
1002
}
  0
DIMENSION
  5
8461
330
83D0
100
AcDbEntity
  8
寸法引出
 48
15.0
100
AcDbDimension
  2
*D4
 10
1396.379634473348
 20
1831.011256165644
 30
0.0
 11
1368.879634473347
 21
1861.011256165644
 31
0.0
 12
-4111.810748795106
 22
1807.474765486964
 32
0.0
 71
     5
 42
-1.0
  3
SANWA
100
AcDbAlignedDimension
 13
1341.379634473347
 23
1741.567751500804
 33
0.0
 14
1396.379634473348
 24
1741.567751500804
 34
0.0
100
AcDbRotatedDimension
1001
ACAD
1000
DSTYLE
1002
{
1070
   140
1040
2.0
1070
    40
1040
15.0
1070
   147
1040
1.0
1070
    44
1040
0.5
1070
    43
1040
5.0
1070
   178
1070
   256
1070
   177
1070
   256
1070
   176
1070
   256
1070
    41
1040
1.5
1002
}
  0
CIRCLE
  5
8462
330
83D0
100
AcDbEntity
  8
0
 48
15.0
100
AcDbCircle
 10
1366.379634473347
 20
1621.567751500804
 30
0.0
 40
10.0
  0
LINE
  5
8463
330
83D0
100
AcDbEntity
  8
0
 48
15.0
100
AcDbLine
 10
1341.379634473347
 20
1741.567751500804
 30
0.0
 11
1741.379634473347
 21
1741.567751500804
 31
0.0
  0
LINE
  5
8464
330
83D0
100
AcDbEntity
  8
鉄筋
 48
15.0
100
AcDbLine
 10
1391.379634473347
 20
1696.567751500804
 30
0.0
 11
1691.379634473348
 21
1696.567751500804
 31
0.0
  0
SOLID
  5
8465
330
83D0
100
AcDbEntity
  8
寸法引出
 48
15.0
100
AcDbTrace
 10
1447.215200517574
 20
1674.067751500803
 30
0.0
 11
1450.965200517574
 21
1696.567751500804
 31
0.0
 12
1454.715200517574
 22
1674.067751500803
 32
0.0
 13
1454.715200517574
 23
1674.067751500803
 33
0.0
1001
ACAD
1000
DSTYLE
1002
{
1070
   140
1040
2.0
1070
    40
1040
15.0
1070
   147
1040
1.0
1070
    44
1040
0.5
1070
    43
1040
5.0
1070
   178
1070
   256
1070
   177
1070
   256
1070
   176
1070
   256
1070
    41
1040
1.5
1002
}
  0
CIRCLE
  5
8466
330
83D0
100
AcDbEntity
  8
0
 48
15.0
100
AcDbCircle
 10
1716.379634473347
 20
1621.567751500804
 30
0.0
 40
10.0
  0
DIMENSION
  5
8467
330
83D0
100
AcDbEntity
  8
寸法引出
 48
15.0
100
AcDbDimension
  2
*D20
 10
1924.761148487785
 20
2254.779571455445
 30
0.0
 11
1894.761148487785
 21
2204.779571455445
 31
0.0
 12
-4111.810748795106
 22
1807.474765486964
 32
0.0
 71
     5
 42
-1.0
  3
SANWA
100
AcDbAlignedDimension
 13
1741.379634473347
 23
2154.779571455446
 33
0.0
 14
1741.379634473347
 24
2254.779571455445
 34
0.0
 50
90.0
100
AcDbRotatedDimension
1001
ACAD
1000
DSTYLE
1002
{
1070
   140
1040
2.0
1070
    40
1040
15.0
1070
   147
1040
1.0
1070
    44
1040
0.5
1070
    43
1040
5.0
1070
   178
1070
   256
1070
   177
1070
   256
1070
   176
1070
   256
1070
    41
1040
1.5
1002
}
  0
LINE
  5
8468
330
83D0
100
AcDbEntity
  8
寸法引出
  6
ByBlock
 48
15.0
100
AcDbLine
 10
1756.379634473347
 20
2184.779571455445
 30
0.0
 11
1862.936540554932
 21
2184.779571455445
 31
0.0
  0
LINE
  5
8469
330
83D0
100
AcDbEntity
  8
寸法引出
  6
ByBlock
 48
15.0
100
AcDbLine
 10
1756.379634473347
 20
2154.779571455446
 30
0.0
 11
1862.936540554932
 21
2154.779571455446
 31
0.0
  0
DIMENSION
  5
846A
330
83D0
100
AcDbEntity
  8
寸法引出
 48
15.0
100
AcDbDimension
  2
*D13
 10
1855.436540554932
 20
2254.779571455445
 30
0.0
 11
1825.436540554932
 21
2219.779571455446
 31
0.0
 12
-4111.810748795106
 22
1807.474765486964
 32
0.0
 71
     5
 42
-1.0
  3
SANWA
100
AcDbAlignedDimension
 13
1741.379634473347
 23
2184.779571455445
 33
0.0
 14
1741.379634473347
 24
2254.779571455445
 34
0.0
 50
90.0
100
AcDbRotatedDimension
1001
ACAD
1000
DSTYLE
1002
{
1070
    40
1040
15.0
1070
    41
1040
1.5
1070
    43
1040
5.0
1070
    44
1040
0.5
1070
    75
1070
     1
1070
   140
1040
2.0
1070
   147
1040
1.0
1070
   176
1070
   256
1070
   177
1070
   256
1070
   178
1070
   256
1070
   279
1070
     1
1002
}
  0
DIMENSION
  5
846B
330
83D0
100
AcDbEntity
  8
寸法引出
 48
15.0
100
AcDbDimension
  2
*D11
 10
1741.379634473347
 20
2336.570965038613
 30
0.0
 11
1713.879634473347
 21
2366.570965038613
 31
0.0
 12
-4111.810748795106
 22
1807.474765486964
 32
0.0
 71
     5
 42
-1.0
  3
SANWA
100
AcDbAlignedDimension
 13
1686.379634473348
 23
2254.779571455445
 33
0.0
 14
1741.379634473347
 24
2254.779571455445
 34
0.0
100
AcDbRotatedDimension
1001
ACAD
1000
DSTYLE
1002
{
1070
    40
1040
15.0
1070
    41
1040
1.5
1070
    43
1040
5.0
1070
    44
1040
0.5
1070
    75
1070
     1
1070
   140
1040
2.0
1070
   147
1040
1.0
1070
   176
1070
   256
1070
   177
1070
   256
1070
   178
1070
   256
1070
   279
1070
     1
1002
}
  0
DIMENSION
  5
846C
330
83D0
100
AcDbEntity
  8
寸法引出
 48
15.0
100
AcDbDimension
  2
*D12
 10
1741.379634473347
 20
2401.253367090955
 30
0.0
 11
1541.379634473347
 21
2431.253367090955
 31
0.0
 12
-4111.810748795106
 22
1807.474765486964
 32
0.0
 71
     5
 42
-1.0
  3
SANWA
100
AcDbAlignedDimension
 13
1341.379634473347
 23
2254.779571455445
 33
0.0
 14
1741.379634473347
 24
2254.779571455445
 34
0.0
100
AcDbRotatedDimension
1001
ACAD
1000
DSTYLE
1002
{
1070
   140
1040
2.0
1070
    40
1040
15.0
1070
   147
1040
1.0
1070
    44
1040
0.5
1070
    43
1040
5.0
1070
   178
1070
   256
1070
   177
1070
   256
1070
   176
1070
   256
1070
    41
1040
1.5
1002
}
  0
DIMENSION
  5
846D
330
83D0
100
AcDbEntity
  8
寸法引出
 48
15.0
100
AcDbDimension
  2
*D10
 10
1686.379634473348
 20
2336.570965038613
 30
0.0
 11
1541.379634473348
 21
2366.570965038613
 31
0.0
 12
-4111.810748795106
 22
1807.474765486964
 32
0.0
  1
2@145=<>
 71
     5
 42
-1.0
  3
SANWA
100
AcDbAlignedDimension
 13
1396.379634473348
 23
2254.779571455445
 33
0.0
 14
1686.379634473348
 24
2254.779571455445
 34
0.0
100
AcDbRotatedDimension
1001
ACAD
1000
DSTYLE
1002
{
1070
    40
1040
15.0
1070
    41
1040
1.5
1070
    43
1040
5.0
1070
    44
1040
0.5
1070
    75
1070
     1
1070
   140
1040
2.0
1070
   147
1040
1.0
1070
   176
1070
   256
1070
   177
1070
   256
1070
   178
1070
   256
1070
   279
1070
     1
1002
}
  0
DIMENSION
  5
846E
330
83D0
100
AcDbEntity
  8
寸法引出
 48
15.0
100
AcDbDimension
  2
*D9
 10
1396.379634473348
 20
2336.570965038613
 30
0.0
 11
1368.879634473347
 21
2366.570965038613
 31
0.0
 12
-4111.810748795106
 22
1807.474765486964
 32
0.0
 71
     5
 42
-1.0
  3
SANWA
100
AcDbAlignedDimension
 13
1341.379634473347
 23
2254.779571455445
 33
0.0
 14
1396.379634473348
 24
2254.779571455445
 34
0.0
100
AcDbRotatedDimension
1001
ACAD
1000
DSTYLE
1002
{
1070
   140
1040
2.0
1070
    40
1040
15.0
1070
   147
1040
1.0
1070
    44
1040
0.5
1070
    43
1040
5.0
1070
   178
1070
   256
1070
   177
1070
   256
1070
   176
1070
   256
1070
    41
1040
1.5
1002
}
  0
LINE
  5
846F
330
83D0
100
AcDbEntity
  8
0
  6
HIDDEN2
 48
5.0
100
AcDbLine
 10
1356.379634473347
 20
2187.779571455445
 30
0.0
 11
1376.379634473347
 21
2187.779571455445
 31
0.0
  0
LINE
  5
8470
330
83D0
100
AcDbEntity
  8
0
 48
15.0
100
AcDbLine
 10
1341.379634473347
 20
2154.779571455446
 30
0.0
 11
1741.379634473347
 21
2154.779571455446
 31
0.0
  0
LINE
  5
8471
330
83D0
100
AcDbEntity
  8
0
 48
15.0
100
AcDbLine
 10
1341.379634473347
 20
2254.779571455445
 30
0.0
 11
1741.379634473347
 21
2254.779571455445
 31
0.0
  0
LINE
  5
8472
330
83D0
100
AcDbEntity
  8
0
 48
15.0
100
AcDbLine
 10
1341.379634473347
 20
2254.779571455445
 30
0.0
 11
1341.379634473347
 21
2154.779571455446
 31
0.0
  0
LINE
  5
8473
330
83D0
100
AcDbEntity
  8
0
  6
HIDDEN2
 48
5.0
100
AcDbLine
 10
1356.379634473347
 20
2187.779571455445
 30
0.0
 11
1356.379634473347
 21
2154.779571455446
 31
0.0
  0
CIRCLE
  5
8474
330
83D0
100
AcDbEntity
  8
鉄筋
 48
15.0
100
AcDbCircle
 10
1686.379634473348
 20
2189.779571455446
 30
0.0
 40
5.0
  0
CIRCLE
  5
8475
330
83D0
100
AcDbEntity
  8
鉄筋
 48
15.0
100
AcDbCircle
 10
1396.379634473348
 20
2189.779571455446
 30
0.0
 40
5.0
  0
CIRCLE
  5
8476
330
83D0
100
AcDbEntity
  8
鉄筋
 48
15.0
100
AcDbCircle
 10
1541.379634473348
 20
2189.779571455446
 30
0.0
 40
5.0
  0
LINE
  5
8477
330
83D0
100
AcDbEntity
  8
0
 48
15.0
100
AcDbLine
 10
1741.379634473347
 20
2254.779571455445
 30
0.0
 11
1741.379634473347
 21
2154.779571455446
 31
0.0
  0
LINE
  5
8478
330
83D0
100
AcDbEntity
  8
鉄筋
 48
15.0
100
AcDbLine
 10
1391.379634473348
 20
2184.779571455445
 30
0.0
 11
1691.379634473348
 21
2184.779571455445
 31
0.0
  0
LINE
  5
8479
330
83D0
100
AcDbEntity
  8
0
  6
HIDDEN2
 48
5.0
100
AcDbLine
 10
1376.379634473347
 20
2187.779571455445
 30
0.0
 11
1376.379634473347
 21
2154.779571455446
 31
0.0
  0
POINT
  5
847A
330
83D0
100
AcDbEntity
  8
DEFPOINTS
  6
ByBlock
 62
     0
 48
15.0
100
AcDbPoint
 10
1741.379634473347
 20
2184.779571455445
 30
0.0
  0
POINT
  5
847B
330
83D0
100
AcDbEntity
  8
DEFPOINTS
  6
ByBlock
 62
     0
 48
15.0
100
AcDbPoint
 10
1741.379634473347
 20
2154.779571455446
 30
0.0
  0
LINE
  5
847C
330
83D0
100
AcDbEntity
  8
0
  6
HIDDEN2
 48
5.0
100
AcDbLine
 10
1726.379634473347
 20
2187.779571455445
 30
0.0
 11
1726.379634473347
 21
2154.779571455446
 31
0.0
  0
LINE
  5
847D
330
83D0
100
AcDbEntity
  8
0
  6
HIDDEN2
 48
5.0
100
AcDbLine
 10
1706.379634473347
 20
2187.779571455445
 30
0.0
 11
1706.379634473347
 21
2154.779571455446
 31
0.0
  0
LINE
  5
847E
330
83D0
100
AcDbEntity
  8
0
  6
HIDDEN2
 48
5.0
100
AcDbLine
 10
1706.379634473347
 20
2187.779571455445
 30
0.0
 11
1726.379634473347
 21
2187.779571455445
 31
0.0
  0
DIMENSION
  5
847F
330
83D0
100
AcDbEntity
  8
寸法引出
 48
15.0
100
AcDbDimension
  2
*D14
 10
2188.040487632535
 20
2336.570965038613
 30
0.0
 11
2165.540487632535
 21
2366.570965038613
 31
0.0
 12
-4111.810748795106
 22
1807.474765486964
 32
0.0
 71
     5
 42
-1.0
  3
SANWA
100
AcDbAlignedDimension
 13
2143.040487632535
 23
2254.779571455445
 33
0.0
 14
2188.040487632535
 24
2254.779571455445
 34
0.0
100
AcDbRotatedDimension
1001
ACAD
1000
DSTYLE
1002
{
1070
   140
1040
2.0
1070
    40
1040
15.0
1070
   147
1040
1.0
1070
    44
1040
0.5
1070
    43
1040
5.0
1070
   178
1070
   256
1070
   177
1070
   256
1070
   176
1070
   256
1070
    41
1040
1.5
1002
}
  0
SOLID
  5
8480
330
83D0
100
AcDbEntity
  8
寸法引出
  6
ByBlock
 48
15.0
100
AcDbTrace
 10
1851.686540554932
 20
2207.279571455446
 30
0.0
 11
1859.186540554932
 21
2207.279571455446
 31
0.0
 12
1855.436540554932
 22
2184.779571455445
 32
0.0
 13
1855.436540554932
 23
2184.779571455445
 33
0.0
  0
LINE
  5
8481
330
83D0
100
AcDbEntity
  8
0
 48
15.0
100
AcDbLine
 10
2143.040487632535
 20
2254.779571455445
 30
0.0
 11
2143.040487632535
 21
2154.779571455446
 31
0.0
  0
POINT
  5
8482
330
83D0
100
AcDbEntity
  8
寸法引出
  6
ByBlock
 62
     0
 48
15.0
100
AcDbPoint
 10
1855.436540554932
 20
2184.779571455445
 30
0.0
  0
MTEXT
  5
8483
330
83D0
100
AcDbEntity
  8
寸法引出
  6
ByBlock
 48
15.0
100
AcDbMText
 10
1825.436540554932
 20
2134.267659220796
 30
0.0
 40
30.0
 41
0.0
 71
     5
 72
     1
  1
\A1;30
  7
SANWA
 11
0.0000000000000001
 21
1.0
 31
0.0
 73
     1
 44
1.0
1001
ACAD
1000
MTEXTBEGIN
1070
    73
1070
     1
1070
    44
1040
1.0
1070
    74
1070
     0
1000
MTEXTEND
  0
SOLID
  5
8484
330
83D0
100
AcDbEntity
  8
寸法引出
  6
ByBlock
 48
15.0
100
AcDbTrace
 10
1851.686540554932
 20
2132.279571455446
 30
0.0
 11
1859.186540554932
 21
2132.279571455446
 31
0.0
 12
1855.436540554932
 22
2154.779571455446
 32
0.0
 13
1855.436540554932
 23
2154.779571455446
 33
0.0
  0
LINE
  5
8485
330
83D0
100
AcDbEntity
  8
寸法引出
  6
ByBlock
 48
15.0
100
AcDbLine
 10
1855.436540554932
 20
2154.779571455446
 30
0.0
 11
1855.436540554932
 21
2184.779571455445
 31
0.0
  0
LINE
  5
8486
330
83D0
100
AcDbEntity
  8
寸法引出
  6
ByBlock
 48
15.0
100
AcDbLine
 10
1855.436540554932
 20
2132.279571455446
 30
0.0
 11
1855.436540554932
 21
2109.779571455446
 31
0.0
  0
LINE
  5
8487
330
83D0
100
AcDbEntity
  8
寸法引出
  6
ByBlock
 48
15.0
100
AcDbLine
 10
1855.436540554932
 20
2207.279571455446
 30
0.0
 11
1855.436540554932
 21
2229.779571455445
 31
0.0
  0
CIRCLE
  5
8488
330
83D0
100
AcDbEntity
  8
鉄筋
 48
15.0
100
AcDbCircle
 10
2188.040487632535
 20
2184.779571455445
 30
0.0
 40
5.0
  0
CIRCLE
  5
8489
330
83D0
100
AcDbEntity
  8
鉄筋
 48
15.0
100
AcDbCircle
 10
2318.040487632535
 20
2184.779571455445
 30
0.0
 40
5.0
  0
LINE
  5
848A
330
83D0
100
AcDbEntity
  8
0
  6
HIDDEN2
 48
5.0
100
AcDbLine
 10
2273.040487632535
 20
2187.779571455445
 30
0.0
 11
2273.040487632535
 21
2154.779571455446
 31
0.0
  0
LINE
  5
848B
330
83D0
100
AcDbEntity
  8
0
  6
HIDDEN2
 48
5.0
100
AcDbLine
 10
2253.040487632535
 20
2187.779571455445
 30
0.0
 11
2253.040487632535
 21
2154.779571455446
 31
0.0
  0
LINE
  5
848C
330
83D0
100
AcDbEntity
  8
0
  6
HIDDEN2
 48
5.0
100
AcDbLine
 10
2253.040487632535
 20
2187.779571455445
 30
0.0
 11
2273.040487632535
 21
2187.779571455445
 31
0.0
  0
CIRCLE
  5
848D
330
83D0
100
AcDbEntity
  8
鉄筋
 48
15.0
100
AcDbCircle
 10
2448.040487632535
 20
2184.779571455445
 30
0.0
 40
5.0
  0
LINE
  5
848E
330
83D0
100
AcDbEntity
  8
0
100
AcDbLine
 10
-0.0000054997581174
 20
3000.000003813794
 30
0.0
 11
-0.0000054997581174
 21
3150.000003813794
 31
0.0
  0
LINE
  5
848F
330
83D0
100
AcDbEntity
  8
0
100
AcDbLine
 10
-0.0000054997581174
 20
3150.000003813794
 30
0.0
 11
374.9999945002419
 21
3150.000003813794
 31
0.0
  0
DIMENSION
  5
8490
330
83D0
100
AcDbEntity
  8
寸法引出
 48
15.0
100
AcDbDimension
  2
*D16
 10
3143.040487632535
 20
2336.570965038613
 30
0.0
 11
3120.540487632535
 21
2366.570965038613
 31
0.0
 12
-4111.810748795106
 22
1807.474765486964
 32
0.0
 71
     5
 42
-1.0
  3
SANWA
100
AcDbAlignedDimension
 13
3098.040487632535
 23
2254.779571455445
 33
0.0
 14
3143.040487632535
 24
2254.779571455445
 34
0.0
100
AcDbRotatedDimension
1001
ACAD
1000
DSTYLE
1002
{
1070
    40
1040
15.0
1070
    41
1040
1.5
1070
    43
1040
5.0
1070
    44
1040
0.5
1070
    75
1070
     1
1070
   140
1040
2.0
1070
   147
1040
1.0
1070
   176
1070
   256
1070
   177
1070
   256
1070
   178
1070
   256
1070
   279
1070
     1
1002
}
  0
CIRCLE
  5
8491
330
83D0
100
AcDbEntity
  8
鉄筋
 48
15.0
100
AcDbCircle
 10
2578.040487632535
 20
2184.779571455445
 30
0.0
 40
5.0
  0
CIRCLE
  5
8492
330
83D0
100
AcDbEntity
  8
鉄筋
 48
15.0
100
AcDbCircle
 10
2708.040487632535
 20
2184.779571455445
 30
0.0
 40
5.0
  0
CIRCLE
  5
8493
330
83D0
100
AcDbEntity
  8
鉄筋
 48
15.0
100
AcDbCircle
 10
2838.040487632535
 20
2184.779571455445
 30
0.0
 40
5.0
  0
SOLID
  5
8494
330
83D0
100
AcDbEntity
  8
寸法引出
  6
ByBlock
 48
15.0
100
AcDbTrace
 10
3246.221348010266
 20
2207.279571455446
 30
0.0
 11
3253.721348010266
 21
2207.279571455446
 31
0.0
 12
3249.971348010266
 22
2184.779571455445
 32
0.0
 13
3249.971348010266
 23
2184.779571455445
 33
0.0
  0
DIMENSION
  5
8495
330
83D0
100
AcDbEntity
  8
寸法引出
 48
15.0
100
AcDbDimension
  2
*D19
 10
3319.841850256125
 20
2254.779571455445
 30
0.0
 11
3289.841850256126
 21
2204.779571455445
 31
0.0
 12
-4111.810748795106
 22
1807.474765486964
 32
0.0
 71
     5
 42
-1.0
  3
SANWA
100
AcDbAlignedDimension
 13
3143.040487632535
 23
2154.779571455446
 33
0.0
 14
3143.040487632535
 24
2254.779571455445
 34
0.0
 50
90.0
100
AcDbRotatedDimension
1001
ACAD
1000
DSTYLE
1002
{
1070
   140
1040
2.0
1070
    40
1040
15.0
1070
   147
1040
1.0
1070
    44
1040
0.5
1070
    43
1040
5.0
1070
   178
1070
   256
1070
   177
1070
   256
1070
   176
1070
   256
1070
    41
1040
1.5
1002
}
  0
DIMENSION
  5
8496
330
83D0
100
AcDbEntity
  8
寸法引出
 48
15.0
100
AcDbDimension
  2
*D18
 10
3249.971348010266
 20
2254.779571455445
 30
0.0
 11
3219.971348010266
 21
2219.779571455446
 31
0.0
 12
-4111.810748795106
 22
1807.474765486964
 32
0.0
 71
     5
 42
-1.0
  3
SANWA
100
AcDbAlignedDimension
 13
3143.040487632535
 23
2184.779571455445
 33
0.0
 14
3143.040487632535
 24
2254.779571455445
 34
0.0
 50
90.0
100
AcDbRotatedDimension
1001
ACAD
1000
DSTYLE
1002
{
1070
    40
1040
15.0
1070
    41
1040
1.5
1070
    43
1040
5.0
1070
    44
1040
0.5
1070
    75
1070
     1
1070
   140
1040
2.0
1070
   147
1040
1.0
1070
   176
1070
   256
1070
   177
1070
   256
1070
   178
1070
   256
1070
   279
1070
     1
1002
}
  0
LINE
  5
8497
330
83D0
100
AcDbEntity
  8
0
 48
15.0
100
AcDbLine
 10
3143.040487632535
 20
2254.779571455445
 30
0.0
 11
3143.040487632535
 21
2154.779571455446
 31
0.0
  0
POINT
  5
8498
330
83D0
100
AcDbEntity
  8
DEFPOINTS
  6
ByBlock
 62
     0
 48
15.0
100
AcDbPoint
 10
3143.040487632535
 20
2184.779571455445
 30
0.0
  0
POINT
  5
8499
330
83D0
100
AcDbEntity
  8
DEFPOINTS
  6
ByBlock
 62
     0
 48
15.0
100
AcDbPoint
 10
3143.040487632535
 20
2154.779571455446
 30
0.0
  0
CIRCLE
  5
849A
330
83D0
100
AcDbEntity
  8
鉄筋
 48
15.0
100
AcDbCircle
 10
3098.040487632535
 20
2184.779571455445
 30
0.0
 40
5.0
  0
CIRCLE
  5
849B
330
83D0
100
AcDbEntity
  8
鉄筋
 48
15.0
100
AcDbCircle
 10
2968.040487632535
 20
2184.779571455445
 30
0.0
 40
5.0
  0
LINE
  5
849C
330
83D0
100
AcDbEntity
  8
0
  6
HIDDEN2
 48
5.0
100
AcDbLine
 10
3013.040487632535
 20
2187.779571455445
 30
0.0
 11
3033.040487632535
 21
2187.779571455445
 31
0.0
  0
LINE
  5
849D
330
83D0
100
AcDbEntity
  8
0
  6
HIDDEN2
 48
5.0
100
AcDbLine
 10
3013.040487632535
 20
2187.779571455445
 30
0.0
 11
3013.040487632535
 21
2154.779571455446
 31
0.0
  0
LINE
  5
849E
330
83D0
100
AcDbEntity
  8
0
  6
HIDDEN2
 48
5.0
100
AcDbLine
 10
3033.040487632535
 20
2187.779571455445
 30
0.0
 11
3033.040487632535
 21
2154.779571455446
 31
0.0
  0
POINT
  5
849F
330
83D0
100
AcDbEntity
  8
寸法引出
  6
ByBlock
 62
     0
 48
15.0
100
AcDbPoint
 10
3249.971348010266
 20
2184.779571455445
 30
0.0
  0
MTEXT
  5
84A0
330
83D0
100
AcDbEntity
  8
寸法引出
  6
ByBlock
 48
15.0
100
AcDbMText
 10
3219.971348010266
 20
2132.55187695129
 30
0.0
 40
30.0
 41
0.0
 71
     5
 72
     1
  1
\A1;30
  7
SANWA
 11
0.0000000000000001
 21
1.0
 31
0.0
 73
     1
 44
1.0
1001
ACAD
1000
MTEXTBEGIN
1070
    73
1070
     1
1070
    44
1040
1.0
1070
    74
1070
     0
1000
MTEXTEND
  0
SOLID
  5
84A1
330
83D0
100
AcDbEntity
  8
寸法引出
  6
ByBlock
 48
15.0
100
AcDbTrace
 10
3246.221348010266
 20
2132.279571455446
 30
0.0
 11
3253.721348010266
 21
2132.279571455446
 31
0.0
 12
3249.971348010266
 22
2154.779571455446
 32
0.0
 13
3249.971348010266
 23
2154.779571455446
 33
0.0
  0
LINE
  5
84A2
330
83D0
100
AcDbEntity
  8
寸法引出
  6
ByBlock
 48
15.0
100
AcDbLine
 10
3249.971348010266
 20
2154.779571455446
 30
0.0
 11
3249.971348010266
 21
2184.779571455445
 31
0.0
  0
LINE
  5
84A3
330
83D0
100
AcDbEntity
  8
寸法引出
  6
ByBlock
 48
15.0
100
AcDbLine
 10
3249.971348010266
 20
2132.279571455446
 30
0.0
 11
3249.971348010266
 21
2109.779571455446
 31
0.0
  0
LINE
  5
84A4
330
83D0
100
AcDbEntity
  8
寸法引出
  6
ByBlock
 48
15.0
100
AcDbLine
 10
3158.040487632535
 20
2184.779571455445
 30
0.0
 11
3257.471348010266
 21
2184.779571455445
 31
0.0
  0
LINE
  5
84A5
330
83D0
100
AcDbEntity
  8
寸法引出
  6
ByBlock
 48
15.0
100
AcDbLine
 10
3158.040487632535
 20
2154.779571455446
 30
0.0
 11
3257.471348010266
 21
2154.779571455446
 31
0.0
  0
LINE
  5
84A6
330
83D0
100
AcDbEntity
  8
寸法引出
  6
ByBlock
 48
15.0
100
AcDbLine
 10
3249.971348010266
 20
2207.279571455446
 30
0.0
 11
3249.971348010266
 21
2229.779571455445
 31
0.0
  0
LINE
  5
84A7
330
83D0
100
AcDbEntity
  8
0
100
AcDbLine
 10
4454.999994500242
 20
3150.000003813794
 30
0.0
 11
4454.999994500242
 21
3000.000003813794
 31
0.0
  0
LINE
  5
84A8
330
83D0
100
AcDbEntity
  8
0
100
AcDbLine
 10
4304.999994500241
 20
3150.000003813794
 30
0.0
 11
4454.999994500242
 21
3150.000003813794
 31
0.0
  0
ENDBLK
  5
84AA
330
83D0
100
AcDbEntity
  8
0
 48
15.0
100
AcDbBlockEnd
  0
BLOCK
  5
8ECD
330
8EC3
100
AcDbEntity
  8
0
 48
15.0
100
AcDbBlockBegin
  2
*D22
 70
     1
 10
0.0
 20
0.0
 30
0.0
  3
*D22
  1

  0
LINE
  5
9723
330
8EC3
100
AcDbEntity
  8
寸法引出
 48
15.0
370
    -2
100
AcDbLine
 10
1756.379639973106
 20
1741.56774768701
 30
0.0
 11
1866.16383439127
 21
1741.56774768701
 31
0.0
  0
LINE
  5
9724
330
8EC3
100
AcDbEntity
  8
寸法引出
 48
15.0
370
    -2
100
AcDbLine
 10
1756.379639973106
 20
741.5677476870105
 30
0.0
 11
1866.16383439127
 21
741.5677476870103
 31
0.0
  0
LINE
  5
9725
330
8EC3
100
AcDbEntity
  8
寸法引出
 48
15.0
370
    -2
100
AcDbLine
 10
1858.66383439127
 20
1719.067747687011
 30
0.0
 11
1858.66383439127
 21
764.0677476870104
 31
0.0
  0
SOLID
  5
9726
330
8EC3
100
AcDbEntity
  8
寸法引出
 48
15.0
100
AcDbTrace
 10
1854.913834391271
 20
1719.067747687011
 30
0.0
 11
1862.413834391271
 21
1719.067747687011
 31
0.0
 12
1858.66383439127
 22
1741.56774768701
 32
0.0
 13
1858.66383439127
 23
1741.56774768701
 33
0.0
  0
SOLID
  5
9727
330
8EC3
100
AcDbEntity
  8
寸法引出
 48
15.0
100
AcDbTrace
 10
1854.91383439127
 20
764.0677476870104
 30
0.0
 11
1862.41383439127
 21
764.0677476870104
 31
0.0
 12
1858.66383439127
 22
741.5677476870103
 32
0.0
 13
1858.66383439127
 23
741.5677476870103
 33
0.0
  0
MTEXT
  5
9728
330
8EC3
100
AcDbEntity
  8
寸法引出
 48
15.0
100
AcDbMText
 10
1828.66383439127
 20
1241.567747687011
 30
0.0
 40
30.0
 41
0.0
 71
     5
 72
     1
  1
\A1;1000
  7
SANWA
 11
0.0000000000000001
 21
1.0
 31
0.0
 73
     1
 44
1.0
1001
ACAD
1000
MTEXTBEGIN
1070
    73
1070
     1
1070
    44
1040
1.0
1070
    74
1070
     0
1000
MTEXTEND
  0
POINT
  5
9729
330
8EC3
100
AcDbEntity
  8
DEFPOINTS
 62
     0
 48
15.0
100
AcDbPoint
 10
1741.379639973106
 20
1741.56774768701
 30
0.0
  0
POINT
  5
972A
330
8EC3
100
AcDbEntity
  8
DEFPOINTS
 62
     0
 48
15.0
100
AcDbPoint
 10
1741.379639973106
 20
741.5677476870105
 30
0.0
  0
POINT
  5
972B
330
8EC3
100
AcDbEntity
  8
DEFPOINTS
 62
     0
 48
15.0
100
AcDbPoint
 10
1858.66383439127
 20
741.5677476870103
 30
0.0
  0
ENDBLK
  5
8ECE
330
8EC3
100
AcDbEntity
  8
0
 48
15.0
100
AcDbBlockEnd
  0
BLOCK
  5
8ED8
330
8ECF
100
AcDbEntity
  8
0
 48
15.0
100
AcDbBlockBegin
  2
*D23
 70
     1
 10
0.0
 20
0.0
 30
0.0
  3
*D23
  1

  0
LINE
  5
972C
330
8ECF
100
AcDbEntity
  8
寸法引出
 48
15.0
370
    -2
100
AcDbLine
 10
1326.379639973106
 20
861.5677476870105
 30
0.0
 11
1245.078843988344
 21
861.5677476870105
 31
0.0
  0
LINE
  5
972D
330
8ECF
100
AcDbEntity
  8
寸法引出
 48
15.0
370
    -2
100
AcDbLine
 10
1252.578843988344
 20
1599.06774768701
 30
0.0
 11
1252.578843988344
 21
884.0677476870107
 31
0.0
  0
SOLID
  5
972E
330
8ECF
100
AcDbEntity
  8
寸法引出
 48
15.0
100
AcDbTrace
 10
1248.828843988344
 20
1599.06774768701
 30
0.0
 11
1256.328843988344
 21
1599.06774768701
 31
0.0
 12
1252.578843988344
 22
1621.56774768701
 32
0.0
 13
1252.578843988344
 23
1621.56774768701
 33
0.0
  0
SOLID
  5
972F
330
8ECF
100
AcDbEntity
  8
寸法引出
 48
15.0
100
AcDbTrace
 10
1248.828843988344
 20
884.0677476870107
 30
0.0
 11
1256.328843988344
 21
884.0677476870107
 31
0.0
 12
1252.578843988344
 22
861.5677476870105
 32
0.0
 13
1252.578843988344
 23
861.5677476870105
 33
0.0
  0
MTEXT
  5
9730
330
8ECF
100
AcDbEntity
  8
寸法引出
 48
15.0
100
AcDbMText
 10
1222.578843988344
 20
1241.567747687011
 30
0.0
 40
30.0
 41
0.0
 71
     5
 72
     1
  1
\A1;760
  7
SANWA
 11
0.0000000000000001
 21
1.0
 31
0.0
 73
     1
 44
1.0
1001
ACAD
1000
MTEXTBEGIN
1070
    73
1070
     1
1070
    44
1040
1.0
1070
    74
1070
     0
1000
MTEXTEND
  0
POINT
  5
9731
330
8ECF
100
AcDbEntity
  8
DEFPOINTS
 62
     0
 48
15.0
100
AcDbPoint
 10
1341.379639973106
 20
1621.56774768701
 30
0.0
  0
POINT
  5
9732
330
8ECF
100
AcDbEntity
  8
DEFPOINTS
 62
     0
 48
15.0
100
AcDbPoint
 10
1341.379639973106
 20
861.5677476870105
 30
0.0
  0
POINT
  5
9733
330
8ECF
100
AcDbEntity
  8
DEFPOINTS
 62
     0
 48
15.0
100
AcDbPoint
 10
1252.578843988344
 20
861.5677476870105
 30
0.0
  0
ENDBLK
  5
8ED9
330
8ECF
100
AcDbEntity
  8
0
 48
15.0
100
AcDbBlockEnd
  0
BLOCK
  5
8EE5
330
8EDA
100
AcDbEntity
  8
0
 48
15.0
100
AcDbBlockBegin
  2
*D24
 70
     1
 10
0.0
 20
0.0
 30
0.0
  3
*D24
  1

  0
LINE
  5
9734
330
8EDA
100
AcDbEntity
  8
寸法引出
 48
15.0
370
    -2
100
AcDbLine
 10
1741.379639973106
 20
726.5677476870105
 30
0.0
 11
1741.379639973106
 21
615.3193601176026
 31
0.0
  0
LINE
  5
9735
330
8EDA
100
AcDbEntity
  8
寸法引出
 48
15.0
370
    -2
100
AcDbLine
 10
1693.879639973106
 20
622.8193601176026
 30
0.0
 11
1671.379639973106
 21
622.8193601176026
 31
0.0
  0
LINE
  5
9736
330
8EDA
100
AcDbEntity
  8
寸法引出
 48
15.0
370
    -2
100
AcDbLine
 10
1763.879639973106
 20
622.8193601176026
 30
0.0
 11
1786.379639973105
 21
622.8193601176026
 31
0.0
  0
LINE
  5
9737
330
8EDA
100
AcDbEntity
  8
寸法引出
 48
15.0
370
    -2
100
AcDbLine
 10
1716.379639973106
 20
622.8193601176026
 30
0.0
 11
1741.379639973106
 21
622.8193601176026
 31
0.0
  0
SOLID
  5
9738
330
8EDA
100
AcDbEntity
  8
寸法引出
 48
15.0
100
AcDbTrace
 10
1693.879639973106
 20
626.5693601176026
 30
0.0
 11
1693.879639973106
 21
619.0693601176026
 31
0.0
 12
1716.379639973106
 22
622.8193601176026
 32
0.0
 13
1716.379639973106
 23
622.8193601176026
 33
0.0
  0
SOLID
  5
9739
330
8EDA
100
AcDbEntity
  8
寸法引出
 48
15.0
100
AcDbTrace
 10
1763.879639973106
 20
626.5693601176026
 30
0.0
 11
1763.879639973106
 21
619.0693601176026
 31
0.0
 12
1741.379639973106
 22
622.8193601176026
 32
0.0
 13
1741.379639973106
 23
622.8193601176026
 33
0.0
  0
MTEXT
  5
973A
330
8EDA
100
AcDbEntity
  8
寸法引出
 48
15.0
100
AcDbMText
 10
1728.879639973106
 20
652.8193601176026
 30
0.0
 40
30.0
 41
0.0
 71
     5
 72
     1
  1
\A1;25
  7
SANWA
 73
     1
 44
1.0
1001
ACAD
1000
MTEXTBEGIN
1070
    73
1070
     1
1070
    44
1040
1.0
1070
    74
1070
     0
1000
MTEXTEND
  0
POINT
  5
973B
330
8EDA
100
AcDbEntity
  8
DEFPOINTS
 62
     0
 48
15.0
100
AcDbPoint
 10
1716.379639973106
 20
741.5677476870105
 30
0.0
  0
POINT
  5
973C
330
8EDA
100
AcDbEntity
  8
DEFPOINTS
 62
     0
 48
15.0
100
AcDbPoint
 10
1741.379639973106
 20
741.5677476870105
 30
0.0
  0
POINT
  5
973D
330
8EDA
100
AcDbEntity
  8
DEFPOINTS
 62
     0
 48
15.0
100
AcDbPoint
 10
1741.379639973106
 20
622.8193601176026
 30
0.0
  0
ENDBLK
  5
8EE6
330
8EDA
100
AcDbEntity
  8
0
 48
15.0
100
AcDbBlockEnd
  0
BLOCK
  5
8EF0
330
8EE7
100
AcDbEntity
  8
0
 48
15.0
100
AcDbBlockBegin
  2
*D25
 70
     1
 10
0.0
 20
0.0
 30
0.0
  3
*D25
  1

  0
LINE
  5
973E
330
8EE7
100
AcDbEntity
  8
寸法引出
 48
15.0
370
    -2
100
AcDbLine
 10
1326.379639973106
 20
741.5677476870105
 30
0.0
 11
1245.078843988344
 21
741.5677476870106
 31
0.0
  0
LINE
  5
973F
330
8EE7
100
AcDbEntity
  8
寸法引出
 48
15.0
370
    -2
100
AcDbLine
 10
1252.578843988344
 20
839.0677476870106
 30
0.0
 11
1252.578843988344
 21
764.0677476870106
 31
0.0
  0
SOLID
  5
9740
330
8EE7
100
AcDbEntity
  8
寸法引出
 48
15.0
100
AcDbTrace
 10
1248.828843988344
 20
839.0677476870106
 30
0.0
 11
1256.328843988344
 21
839.0677476870106
 31
0.0
 12
1252.578843988344
 22
861.5677476870105
 32
0.0
 13
1252.578843988344
 23
861.5677476870105
 33
0.0
  0
SOLID
  5
9741
330
8EE7
100
AcDbEntity
  8
寸法引出
 48
15.0
100
AcDbTrace
 10
1248.828843988344
 20
764.0677476870106
 30
0.0
 11
1256.328843988344
 21
764.0677476870106
 31
0.0
 12
1252.578843988344
 22
741.5677476870106
 32
0.0
 13
1252.578843988344
 23
741.5677476870106
 33
0.0
  0
MTEXT
  5
9742
330
8EE7
100
AcDbEntity
  8
寸法引出
 48
15.0
100
AcDbMText
 10
1222.578843988344
 20
801.5677476870108
 30
0.0
 40
30.0
 41
0.0
 71
     5
 72
     1
  1
\A1;120
  7
SANWA
 11
0.0000000000000001
 21
1.0
 31
0.0
 73
     1
 44
1.0
1001
ACAD
1000
MTEXTBEGIN
1070
    73
1070
     1
1070
    44
1040
1.0
1070
    74
1070
     0
1000
MTEXTEND
  0
POINT
  5
9743
330
8EE7
100
AcDbEntity
  8
DEFPOINTS
 62
     0
 48
15.0
100
AcDbPoint
 10
1341.379639973106
 20
861.5677476870105
 30
0.0
  0
POINT
  5
9744
330
8EE7
100
AcDbEntity
  8
DEFPOINTS
 62
     0
 48
15.0
100
AcDbPoint
 10
1341.379639973106
 20
741.5677476870105
 30
0.0
  0
POINT
  5
9745
330
8EE7
100
AcDbEntity
  8
DEFPOINTS
 62
     0
 48
15.0
100
AcDbPoint
 10
1252.578843988344
 20
741.5677476870106
 30
0.0
  0
ENDBLK
  5
8EF1
330
8EE7
100
AcDbEntity
  8
0
 48
15.0
100
AcDbBlockEnd
  0
BLOCK
  5
8EFE
330
8EF2
100
AcDbEntity
  8
0
 48
15.0
100
AcDbBlockBegin
  2
*D26
 70
     1
 10
0.0
 20
0.0
 30
0.0
  3
*D26
  1

  0
LINE
  5
9746
330
8EF2
100
AcDbEntity
  8
寸法引出
 48
15.0
370
    -2
100
AcDbLine
 10
1341.379639973106
 20
726.5677476870105
 30
0.0
 11
1341.379639973106
 21
615.3193601176026
 31
0.0
  0
LINE
  5
9747
330
8EF2
100
AcDbEntity
  8
寸法引出
 48
15.0
370
    -2
100
AcDbLine
 10
1366.379639973106
 20
726.5677476870105
 30
0.0
 11
1366.379639973106
 21
615.3193601176026
 31
0.0
  0
LINE
  5
9748
330
8EF2
100
AcDbEntity
  8
寸法引出
 48
15.0
370
    -2
100
AcDbLine
 10
1318.879639973106
 20
622.8193601176026
 30
0.0
 11
1296.379639973106
 21
622.8193601176026
 31
0.0
  0
LINE
  5
9749
330
8EF2
100
AcDbEntity
  8
寸法引出
 48
15.0
370
    -2
100
AcDbLine
 10
1388.879639973106
 20
622.8193601176026
 30
0.0
 11
1411.379639973106
 21
622.8193601176026
 31
0.0
  0
LINE
  5
974A
330
8EF2
100
AcDbEntity
  8
寸法引出
 48
15.0
370
    -2
100
AcDbLine
 10
1341.379639973106
 20
622.8193601176026
 30
0.0
 11
1366.379639973106
 21
622.8193601176026
 31
0.0
  0
SOLID
  5
974B
330
8EF2
100
AcDbEntity
  8
寸法引出
 48
15.0
100
AcDbTrace
 10
1318.879639973106
 20
626.5693601176026
 30
0.0
 11
1318.879639973106
 21
619.0693601176026
 31
0.0
 12
1341.379639973106
 22
622.8193601176026
 32
0.0
 13
1341.379639973106
 23
622.8193601176026
 33
0.0
  0
SOLID
  5
974C
330
8EF2
100
AcDbEntity
  8
寸法引出
 48
15.0
100
AcDbTrace
 10
1388.879639973106
 20
626.5693601176026
 30
0.0
 11
1388.879639973106
 21
619.0693601176026
 31
0.0
 12
1366.379639973106
 22
622.8193601176026
 32
0.0
 13
1366.379639973106
 23
622.8193601176026
 33
0.0
  0
MTEXT
  5
974D
330
8EF2
100
AcDbEntity
  8
寸法引出
 48
15.0
100
AcDbMText
 10
1353.879639973106
 20
652.8193601176026
 30
0.0
 40
30.0
 41
0.0
 71
     5
 72
     1
  1
\A1;25
  7
SANWA
 73
     1
 44
1.0
1001
ACAD
1000
MTEXTBEGIN
1070
    73
1070
     1
1070
    44
1040
1.0
1070
    74
1070
     0
1000
MTEXTEND
  0
POINT
  5
974E
330
8EF2
100
AcDbEntity
  8
DEFPOINTS
 62
     0
 48
15.0
100
AcDbPoint
 10
1341.379639973106
 20
741.5677476870105
 30
0.0
  0
POINT
  5
974F
330
8EF2
100
AcDbEntity
  8
DEFPOINTS
 62
     0
 48
15.0
100
AcDbPoint
 10
1366.379639973106
 20
741.5677476870105
 30
0.0
  0
POINT
  5
9750
330
8EF2
100
AcDbEntity
  8
DEFPOINTS
 62
     0
 48
15.0
100
AcDbPoint
 10
1366.379639973106
 20
622.8193601176026
 30
0.0
  0
ENDBLK
  5
8EFF
330
8EF2
100
AcDbEntity
  8
0
 48
15.0
100
AcDbBlockEnd
  0
BLOCK
  5
8F09
330
8F00
100
AcDbEntity
  8
0
 48
15.0
100
AcDbBlockBegin
  2
*D27
 70
     1
 10
0.0
 20
0.0
 30
0.0
  3
*D27
  1

  0
LINE
  5
9751
330
8F00
100
AcDbEntity
  8
寸法引出
 48
15.0
370
    -2
100
AcDbLine
 10
1716.379639973106
 20
726.5677476870105
 30
0.0
 11
1716.379639973106
 21
615.3193601176026
 31
0.0
  0
LINE
  5
9752
330
8F00
100
AcDbEntity
  8
寸法引出
 48
15.0
370
    -2
100
AcDbLine
 10
1388.879639973106
 20
622.8193601176026
 30
0.0
 11
1693.879639973106
 21
622.8193601176026
 31
0.0
  0
SOLID
  5
9753
330
8F00
100
AcDbEntity
  8
寸法引出
 48
15.0
100
AcDbTrace
 10
1388.879639973106
 20
626.5693601176026
 30
0.0
 11
1388.879639973106
 21
619.0693601176026
 31
0.0
 12
1366.379639973106
 22
622.8193601176026
 32
0.0
 13
1366.379639973106
 23
622.8193601176026
 33
0.0
  0
SOLID
  5
9754
330
8F00
100
AcDbEntity
  8
寸法引出
 48
15.0
100
AcDbTrace
 10
1693.879639973106
 20
626.5693601176026
 30
0.0
 11
1693.879639973106
 21
619.0693601176026
 31
0.0
 12
1716.379639973106
 22
622.8193601176026
 32
0.0
 13
1716.379639973106
 23
622.8193601176026
 33
0.0
  0
MTEXT
  5
9755
330
8F00
100
AcDbEntity
  8
寸法引出
 48
15.0
100
AcDbMText
 10
1541.379639973106
 20
652.8193601176026
 30
0.0
 40
30.0
 41
0.0
 71
     5
 72
     1
  1
\A1;350
  7
SANWA
 73
     1
 44
1.0
1001
ACAD
1000
MTEXTBEGIN
1070
    73
1070
     1
1070
    44
1040
1.0
1070
    74
1070
     0
1000
MTEXTEND
  0
POINT
  5
9756
330
8F00
100
AcDbEntity
  8
DEFPOINTS
 62
     0
 48
15.0
100
AcDbPoint
 10
1366.379639973106
 20
741.5677476870105
 30
0.0
  0
POINT
  5
9757
330
8F00
100
AcDbEntity
  8
DEFPOINTS
 62
     0
 48
15.0
100
AcDbPoint
 10
1716.379639973106
 20
741.5677476870105
 30
0.0
  0
POINT
  5
9758
330
8F00
100
AcDbEntity
  8
DEFPOINTS
 62
     0
 48
15.0
100
AcDbPoint
 10
1716.379639973106
 20
622.8193601176026
 30
0.0
  0
ENDBLK
  5
8F0A
330
8F00
100
AcDbEntity
  8
0
 48
15.0
100
AcDbBlockEnd
  0
BLOCK
  5
8F15
330
8F0B
100
AcDbEntity
  8
0
 48
15.0
100
AcDbBlockBegin
  2
*D28
 70
     1
 10
0.0
 20
0.0
 30
0.0
  3
*D28
  1

  0
LINE
  5
9759
330
8F0B
100
AcDbEntity
  8
寸法引出
 48
15.0
370
    -2
100
AcDbLine
 10
2143.040493132293
 20
2269.779567641652
 30
0.0
 11
2143.040493132293
 21
2357.972677154871
 31
0.0
  0
LINE
  5
975A
330
8F0B
100
AcDbEntity
  8
寸法引出
 48
15.0
370
    -2
100
AcDbLine
 10
3143.040493132293
 20
2269.779567641652
 30
0.0
 11
3143.040493132293
 21
2357.972677154871
 31
0.0
  0
LINE
  5
975B
330
8F0B
100
AcDbEntity
  8
寸法引出
 48
15.0
370
    -2
100
AcDbLine
 10
2165.540493132294
 20
2350.47267715487
 30
0.0
 11
3120.540493132294
 21
2350.47267715487
 31
0.0
  0
SOLID
  5
975C
330
8F0B
100
AcDbEntity
  8
寸法引出
 48
15.0
100
AcDbTrace
 10
2165.540493132294
 20
2354.22267715487
 30
0.0
 11
2165.540493132294
 21
2346.72267715487
 31
0.0
 12
2143.040493132293
 22
2350.47267715487
 32
0.0
 13
2143.040493132293
 23
2350.47267715487
 33
0.0
  0
SOLID
  5
975D
330
8F0B
100
AcDbEntity
  8
寸法引出
 48
15.0
100
AcDbTrace
 10
3120.540493132294
 20
2354.22267715487
 30
0.0
 11
3120.540493132294
 21
2346.72267715487
 31
0.0
 12
3143.040493132293
 22
2350.47267715487
 32
0.0
 13
3143.040493132293
 23
2350.47267715487
 33
0.0
  0
MTEXT
  5
975E
330
8F0B
100
AcDbEntity
  8
寸法引出
 48
15.0
100
AcDbMText
 10
2643.040493132293
 20
2380.47267715487
 30
0.0
 40
30.0
 41
0.0
 71
     5
 72
     1
  1
\A1;1000
  7
SANWA
 73
     1
 44
1.0
1001
ACAD
1000
MTEXTBEGIN
1070
    73
1070
     1
1070
    44
1040
1.0
1070
    74
1070
     0
1000
MTEXTEND
  0
POINT
  5
975F
330
8F0B
100
AcDbEntity
  8
DEFPOINTS
 62
     0
 48
15.0
100
AcDbPoint
 10
2143.040493132293
 20
2254.779567641652
 30
0.0
  0
POINT
  5
9760
330
8F0B
100
AcDbEntity
  8
DEFPOINTS
 62
     0
 48
15.0
100
AcDbPoint
 10
3143.040493132293
 20
2254.779567641652
 30
0.0
  0
POINT
  5
9761
330
8F0B
100
AcDbEntity
  8
DEFPOINTS
 62
     0
 48
15.0
100
AcDbPoint
 10
3143.040493132293
 20
2350.47267715487
 30
0.0
  0
ENDBLK
  5
8F16
330
8F0B
100
AcDbEntity
  8
0
 48
15.0
100
AcDbBlockEnd
  0
BLOCK
  5
8F20
330
8F17
100
AcDbEntity
  8
0
 48
15.0
100
AcDbBlockBegin
  2
*D29
 70
     1
 10
0.0
 20
0.0
 30
0.0
  3
*D29
  1

  0
LINE
  5
9762
330
8F17
100
AcDbEntity
  8
寸法引出
 48
15.0
370
    -2
100
AcDbLine
 10
3023.040493132294
 20
2139.779567641652
 30
0.0
 11
3023.040493132294
 21
2072.642148029828
 31
0.0
  0
LINE
  5
9763
330
8F17
100
AcDbEntity
  8
寸法引出
 48
15.0
370
    -2
100
AcDbLine
 10
2285.540493132293
 20
2080.142148029828
 30
0.0
 11
3000.540493132293
 21
2080.142148029828
 31
0.0
  0
SOLID
  5
9764
330
8F17
100
AcDbEntity
  8
寸法引出
 48
15.0
100
AcDbTrace
 10
2285.540493132293
 20
2083.892148029828
 30
0.0
 11
2285.540493132293
 21
2076.392148029828
 31
0.0
 12
2263.040493132293
 22
2080.142148029828
 32
0.0
 13
2263.040493132293
 23
2080.142148029828
 33
0.0
  0
SOLID
  5
9765
330
8F17
100
AcDbEntity
  8
寸法引出
 48
15.0
100
AcDbTrace
 10
3000.540493132293
 20
2083.892148029828
 30
0.0
 11
3000.540493132293
 21
2076.392148029828
 31
0.0
 12
3023.040493132294
 22
2080.142148029828
 32
0.0
 13
3023.040493132294
 23
2080.142148029828
 33
0.0
  0
MTEXT
  5
9766
330
8F17
100
AcDbEntity
  8
寸法引出
 48
15.0
100
AcDbMText
 10
2643.040493132293
 20
2110.142148029828
 30
0.0
 40
30.0
 41
0.0
 71
     5
 72
     1
  1
\A1;760
  7
SANWA
 73
     1
 44
1.0
1001
ACAD
1000
MTEXTBEGIN
1070
    73
1070
     1
1070
    44
1040
1.0
1070
    74
1070
     0
1000
MTEXTEND
  0
POINT
  5
9767
330
8F17
100
AcDbEntity
  8
DEFPOINTS
 62
     0
 48
15.0
100
AcDbPoint
 10
2263.040493132293
 20
2154.779567641652
 30
0.0
  0
POINT
  5
9768
330
8F17
100
AcDbEntity
  8
DEFPOINTS
 62
     0
 48
15.0
100
AcDbPoint
 10
3023.040493132294
 20
2154.779567641652
 30
0.0
  0
POINT
  5
9769
330
8F17
100
AcDbEntity
  8
DEFPOINTS
 62
     0
 48
15.0
100
AcDbPoint
 10
3023.040493132294
 20
2080.142148029828
 30
0.0
  0
ENDBLK
  5
8F21
330
8F17
100
AcDbEntity
  8
0
 48
15.0
100
AcDbBlockEnd
  0
BLOCK
  5
8F2C
330
8F22
100
AcDbEntity
  8
0
 48
15.0
100
AcDbBlockBegin
  2
*D30
 70
     1
 10
0.0
 20
0.0
 30
0.0
  3
*D30
  1

  0
LINE
  5
976A
330
8F22
100
AcDbEntity
  8
寸法引出
 48
15.0
370
    -2
100
AcDbLine
 10
1341.379639973106
 20
1756.56774768701
 30
0.0
 11
1341.379639973106
 21
1860.093481147321
 31
0.0
  0
LINE
  5
976B
330
8F22
100
AcDbEntity
  8
寸法引出
 48
15.0
370
    -2
100
AcDbLine
 10
1741.379639973106
 20
1756.56774768701
 30
0.0
 11
1741.379639973106
 21
1860.093481147321
 31
0.0
  0
LINE
  5
976C
330
8F22
100
AcDbEntity
  8
寸法引出
 48
15.0
370
    -2
100
AcDbLine
 10
1363.879639973106
 20
1852.593481147321
 30
0.0
 11
1718.879639973106
 21
1852.593481147321
 31
0.0
  0
SOLID
  5
976D
330
8F22
100
AcDbEntity
  8
寸法引出
 48
15.0
100
AcDbTrace
 10
1363.879639973106
 20
1856.343481147322
 30
0.0
 11
1363.879639973106
 21
1848.843481147321
 31
0.0
 12
1341.379639973106
 22
1852.593481147321
 32
0.0
 13
1341.379639973106
 23
1852.593481147321
 33
0.0
  0
SOLID
  5
976E
330
8F22
100
AcDbEntity
  8
寸法引出
 48
15.0
100
AcDbTrace
 10
1718.879639973106
 20
1856.343481147322
 30
0.0
 11
1718.879639973106
 21
1848.843481147321
 31
0.0
 12
1741.379639973106
 22
1852.593481147321
 32
0.0
 13
1741.379639973106
 23
1852.593481147321
 33
0.0
  0
MTEXT
  5
976F
330
8F22
100
AcDbEntity
  8
寸法引出
 48
15.0
100
AcDbMText
 10
1541.379639973106
 20
1882.593481147322
 30
0.0
 40
30.0
 41
0.0
 71
     5
 72
     1
  1
\A1;400
  7
SANWA
 73
     1
 44
1.0
1001
ACAD
1000
MTEXTBEGIN
1070
    73
1070
     1
1070
    44
1040
1.0
1070
    74
1070
     0
1000
MTEXTEND
  0
POINT
  5
9770
330
8F22
100
AcDbEntity
  8
DEFPOINTS
 62
     0
 48
15.0
100
AcDbPoint
 10
1341.379639973106
 20
1741.56774768701
 30
0.0
  0
POINT
  5
9771
330
8F22
100
AcDbEntity
  8
DEFPOINTS
 62
     0
 48
15.0
100
AcDbPoint
 10
1741.379639973106
 20
1741.56774768701
 30
0.0
  0
POINT
  5
9772
330
8F22
100
AcDbEntity
  8
DEFPOINTS
 62
     0
 48
15.0
100
AcDbPoint
 10
1741.379639973106
 20
1852.593481147321
 30
0.0
  0
ENDBLK
  5
8F2D
330
8F22
100
AcDbEntity
  8
0
 48
15.0
100
AcDbBlockEnd
  0
BLOCK
  5
8F38
330
8F2E
100
AcDbEntity
  8
0
 48
15.0
100
AcDbBlockBegin
  2
*D31
 70
     1
 10
0.0
 20
0.0
 30
0.0
  3
*D31
  1

  0
LINE
  5
9773
330
8F2E
100
AcDbEntity
  8
寸法引出
 48
15.0
370
    -2
100
AcDbLine
 10
1326.379639973106
 20
1741.56774768701
 30
0.0
 11
1245.078843988344
 21
1741.56774768701
 31
0.0
  0
LINE
  5
9774
330
8F2E
100
AcDbEntity
  8
寸法引出
 48
15.0
370
    -2
100
AcDbLine
 10
1326.379639973106
 20
1621.56774768701
 30
0.0
 11
1245.078843988344
 21
1621.56774768701
 31
0.0
  0
LINE
  5
9775
330
8F2E
100
AcDbEntity
  8
寸法引出
 48
15.0
370
    -2
100
AcDbLine
 10
1252.578843988344
 20
1719.067747687011
 30
0.0
 11
1252.578843988344
 21
1644.06774768701
 31
0.0
  0
SOLID
  5
9776
330
8F2E
100
AcDbEntity
  8
寸法引出
 48
15.0
100
AcDbTrace
 10
1248.828843988344
 20
1719.067747687011
 30
0.0
 11
1256.328843988344
 21
1719.067747687011
 31
0.0
 12
1252.578843988344
 22
1741.56774768701
 32
0.0
 13
1252.578843988344
 23
1741.56774768701
 33
0.0
  0
SOLID
  5
9777
330
8F2E
100
AcDbEntity
  8
寸法引出
 48
15.0
100
AcDbTrace
 10
1248.828843988344
 20
1644.06774768701
 30
0.0
 11
1256.328843988344
 21
1644.06774768701
 31
0.0
 12
1252.578843988344
 22
1621.56774768701
 32
0.0
 13
1252.578843988344
 23
1621.56774768701
 33
0.0
  0
MTEXT
  5
9778
330
8F2E
100
AcDbEntity
  8
寸法引出
 48
15.0
100
AcDbMText
 10
1222.578843988343
 20
1681.567747687011
 30
0.0
 40
30.0
 41
0.0
 71
     5
 72
     1
  1
\A1;120
  7
SANWA
 11
0.0000000000000001
 21
1.0
 31
0.0
 73
     1
 44
1.0
1001
ACAD
1000
MTEXTBEGIN
1070
    73
1070
     1
1070
    44
1040
1.0
1070
    74
1070
     0
1000
MTEXTEND
  0
POINT
  5
9779
330
8F2E
100
AcDbEntity
  8
DEFPOINTS
 62
     0
 48
15.0
100
AcDbPoint
 10
1341.379639973106
 20
1741.56774768701
 30
0.0
  0
POINT
  5
977A
330
8F2E
100
AcDbEntity
  8
DEFPOINTS
 62
     0
 48
15.0
100
AcDbPoint
 10
1341.379639973106
 20
1621.56774768701
 30
0.0
  0
POINT
  5
977B
330
8F2E
100
AcDbEntity
  8
DEFPOINTS
 62
     0
 48
15.0
100
AcDbPoint
 10
1252.578843988344
 20
1621.56774768701
 30
0.0
  0
ENDBLK
  5
8F39
330
8F2E
100
AcDbEntity
  8
0
 48
15.0
100
AcDbBlockEnd
  0
BLOCK
  5
8F44
330
8F3A
100
AcDbEntity
  8
0
 48
15.0
100
AcDbBlockBegin
  2
*D32
 70
     1
 10
0.0
 20
0.0
 30
0.0
  3
*D32
  1

  0
LINE
  5
977C
330
8F3A
100
AcDbEntity
  8
寸法引出
 48
15.0
370
    -2
100
AcDbLine
 10
1750.90451337318
 20
2254.779567641652
 30
0.0
 11
1864.438707791344
 21
2254.779567641652
 31
0.0
  0
LINE
  5
977D
330
8F3A
100
AcDbEntity
  8
寸法引出
 48
15.0
370
    -2
100
AcDbLine
 10
1750.90451337318
 20
2154.779567641652
 30
0.0
 11
1864.438707791344
 21
2154.779567641652
 31
0.0
  0
LINE
  5
977E
330
8F3A
100
AcDbEntity
  8
寸法引出
 48
15.0
370
    -2
100
AcDbLine
 10
1856.938707791345
 20
2232.279567641652
 30
0.0
 11
1856.938707791345
 21
2177.279567641652
 31
0.0
  0
SOLID
  5
977F
330
8F3A
100
AcDbEntity
  8
寸法引出
 48
15.0
100
AcDbTrace
 10
1853.188707791345
 20
2232.279567641652
 30
0.0
 11
1860.688707791345
 21
2232.279567641652
 31
0.0
 12
1856.938707791345
 22
2254.779567641652
 32
0.0
 13
1856.938707791345
 23
2254.779567641652
 33
0.0
  0
SOLID
  5
9780
330
8F3A
100
AcDbEntity
  8
寸法引出
 48
15.0
100
AcDbTrace
 10
1853.188707791345
 20
2177.279567641652
 30
0.0
 11
1860.688707791345
 21
2177.279567641652
 31
0.0
 12
1856.938707791345
 22
2154.779567641652
 32
0.0
 13
1856.938707791345
 23
2154.779567641652
 33
0.0
  0
MTEXT
  5
9781
330
8F3A
100
AcDbEntity
  8
寸法引出
 48
15.0
100
AcDbMText
 10
1826.938707791344
 20
2204.779567641653
 30
0.0
 40
30.0
 41
0.0
 71
     5
 72
     1
  1
\A1;100
  7
SANWA
 11
0.0000000000000001
 21
1.0
 31
0.0
 73
     1
 44
1.0
1001
ACAD
1000
MTEXTBEGIN
1070
    73
1070
     1
1070
    44
1040
1.0
1070
    74
1070
     0
1000
MTEXTEND
  0
POINT
  5
9782
330
8F3A
100
AcDbEntity
  8
DEFPOINTS
 62
     0
 48
15.0
100
AcDbPoint
 10
1735.90451337318
 20
2254.779567641652
 30
0.0
  0
POINT
  5
9783
330
8F3A
100
AcDbEntity
  8
DEFPOINTS
 62
     0
 48
15.0
100
AcDbPoint
 10
1735.90451337318
 20
2154.779567641652
 30
0.0
  0
POINT
  5
9784
330
8F3A
100
AcDbEntity
  8
DEFPOINTS
 62
     0
 48
15.0
100
AcDbPoint
 10
1856.938707791345
 20
2154.779567641652
 30
0.0
  0
ENDBLK
  5
8F45
330
8F3A
100
AcDbEntity
  8
0
 48
15.0
100
AcDbBlockEnd
  0
BLOCK
  5
8F51
330
8F46
100
AcDbEntity
  8
0
 48
15.0
100
AcDbBlockBegin
  2
*D33
 70
     1
 10
0.0
 20
0.0
 30
0.0
  3
*D33
  1

  0
LINE
  5
9785
330
8F46
100
AcDbEntity
  8
寸法引出
 48
15.0
370
    -2
100
AcDbLine
 10
1735.90451337318
 20
2139.779567641652
 30
0.0
 11
1735.90451337318
 21
2072.642148029828
 31
0.0
  0
LINE
  5
9786
330
8F46
100
AcDbEntity
  8
寸法引出
 48
15.0
370
    -2
100
AcDbLine
 10
1688.40451337318
 20
2080.142148029828
 30
0.0
 11
1665.90451337318
 21
2080.142148029828
 31
0.0
  0
LINE
  5
9787
330
8F46
100
AcDbEntity
  8
寸法引出
 48
15.0
370
    -2
100
AcDbLine
 10
1758.40451337318
 20
2080.142148029828
 30
0.0
 11
1780.90451337318
 21
2080.142148029828
 31
0.0
  0
LINE
  5
9788
330
8F46
100
AcDbEntity
  8
寸法引出
 48
15.0
370
    -2
100
AcDbLine
 10
1710.90451337318
 20
2080.142148029828
 30
0.0
 11
1735.90451337318
 21
2080.142148029828
 31
0.0
  0
SOLID
  5
9789
330
8F46
100
AcDbEntity
  8
寸法引出
 48
15.0
100
AcDbTrace
 10
1688.40451337318
 20
2083.892148029828
 30
0.0
 11
1688.40451337318
 21
2076.392148029828
 31
0.0
 12
1710.90451337318
 22
2080.142148029828
 32
0.0
 13
1710.90451337318
 23
2080.142148029828
 33
0.0
  0
SOLID
  5
978A
330
8F46
100
AcDbEntity
  8
寸法引出
 48
15.0
100
AcDbTrace
 10
1758.40451337318
 20
2083.892148029828
 30
0.0
 11
1758.40451337318
 21
2076.392148029828
 31
0.0
 12
1735.90451337318
 22
2080.142148029828
 32
0.0
 13
1735.90451337318
 23
2080.142148029828
 33
0.0
  0
MTEXT
  5
978B
330
8F46
100
AcDbEntity
  8
寸法引出
 48
15.0
100
AcDbMText
 10
1723.40451337318
 20
2110.142148029828
 30
0.0
 40
30.0
 41
0.0
 71
     5
 72
     1
  1
\A1;25
  7
SANWA
 73
     1
 44
1.0
1001
ACAD
1000
MTEXTBEGIN
1070
    73
1070
     1
1070
    44
1040
1.0
1070
    74
1070
     0
1000
MTEXTEND
  0
POINT
  5
978C
330
8F46
100
AcDbEntity
  8
DEFPOINTS
 62
     0
 48
15.0
100
AcDbPoint
 10
1710.90451337318
 20
2154.779567641652
 30
0.0
  0
POINT
  5
978D
330
8F46
100
AcDbEntity
  8
DEFPOINTS
 62
     0
 48
15.0
100
AcDbPoint
 10
1735.90451337318
 20
2154.779567641652
 30
0.0
  0
POINT
  5
978E
330
8F46
100
AcDbEntity
  8
DEFPOINTS
 62
     0
 48
15.0
100
AcDbPoint
 10
1735.90451337318
 20
2080.142148029828
 30
0.0
  0
ENDBLK
  5
8F52
330
8F46
100
AcDbEntity
  8
0
 48
15.0
100
AcDbBlockEnd
  0
BLOCK
  5
8F5D
330
8F53
100
AcDbEntity
  8
0
 48
15.0
100
AcDbBlockBegin
  2
*D34
 70
     1
 10
0.0
 20
0.0
 30
0.0
  3
*D34
  1

  0
LINE
  5
978F
330
8F53
100
AcDbEntity
  8
寸法引出
 48
15.0
370
    -2
100
AcDbLine
 10
1335.90451337318
 20
2269.779567641652
 30
0.0
 11
1335.90451337318
 21
2357.972677154871
 31
0.0
  0
LINE
  5
9790
330
8F53
100
AcDbEntity
  8
寸法引出
 48
15.0
370
    -2
100
AcDbLine
 10
1735.90451337318
 20
2269.779567641652
 30
0.0
 11
1735.90451337318
 21
2357.972677154871
 31
0.0
  0
LINE
  5
9791
330
8F53
100
AcDbEntity
  8
寸法引出
 48
15.0
370
    -2
100
AcDbLine
 10
1358.40451337318
 20
2350.47267715487
 30
0.0
 11
1713.40451337318
 21
2350.47267715487
 31
0.0
  0
SOLID
  5
9792
330
8F53
100
AcDbEntity
  8
寸法引出
 48
15.0
100
AcDbTrace
 10
1358.40451337318
 20
2354.22267715487
 30
0.0
 11
1358.40451337318
 21
2346.72267715487
 31
0.0
 12
1335.90451337318
 22
2350.47267715487
 32
0.0
 13
1335.90451337318
 23
2350.47267715487
 33
0.0
  0
SOLID
  5
9793
330
8F53
100
AcDbEntity
  8
寸法引出
 48
15.0
100
AcDbTrace
 10
1713.40451337318
 20
2354.22267715487
 30
0.0
 11
1713.40451337318
 21
2346.72267715487
 31
0.0
 12
1735.90451337318
 22
2350.47267715487
 32
0.0
 13
1735.90451337318
 23
2350.47267715487
 33
0.0
  0
MTEXT
  5
9794
330
8F53
100
AcDbEntity
  8
寸法引出
 48
15.0
100
AcDbMText
 10
1535.90451337318
 20
2380.47267715487
 30
0.0
 40
30.0
 41
0.0
 71
     5
 72
     1
  1
\A1;400
  7
SANWA
 73
     1
 44
1.0
1001
ACAD
1000
MTEXTBEGIN
1070
    73
1070
     1
1070
    44
1040
1.0
1070
    74
1070
     0
1000
MTEXTEND
  0
POINT
  5
9795
330
8F53
100
AcDbEntity
  8
DEFPOINTS
 62
     0
 48
15.0
100
AcDbPoint
 10
1335.90451337318
 20
2254.779567641652
 30
0.0
  0
POINT
  5
9796
330
8F53
100
AcDbEntity
  8
DEFPOINTS
 62
     0
 48
15.0
100
AcDbPoint
 10
1735.90451337318
 20
2254.779567641652
 30
0.0
  0
POINT
  5
9797
330
8F53
100
AcDbEntity
  8
DEFPOINTS
 62
     0
 48
15.0
100
AcDbPoint
 10
1735.90451337318
 20
2350.47267715487
 30
0.0
  0
ENDBLK
  5
8F5E
330
8F53
100
AcDbEntity
  8
0
 48
15.0
100
AcDbBlockEnd
  0
BLOCK
  5
8F6B
330
8F5F
100
AcDbEntity
  8
0
 48
15.0
100
AcDbBlockBegin
  2
*D35
 70
     1
 10
0.0
 20
0.0
 30
0.0
  3
*D35
  1

  0
LINE
  5
9798
330
8F5F
100
AcDbEntity
  8
寸法引出
 48
15.0
370
    -2
100
AcDbLine
 10
1335.90451337318
 20
2139.779567641652
 30
0.0
 11
1335.90451337318
 21
2072.642148029828
 31
0.0
  0
LINE
  5
9799
330
8F5F
100
AcDbEntity
  8
寸法引出
 48
15.0
370
    -2
100
AcDbLine
 10
1360.90451337318
 20
2139.779567641652
 30
0.0
 11
1360.90451337318
 21
2072.642148029828
 31
0.0
  0
LINE
  5
979A
330
8F5F
100
AcDbEntity
  8
寸法引出
 48
15.0
370
    -2
100
AcDbLine
 10
1313.40451337318
 20
2080.142148029828
 30
0.0
 11
1290.90451337318
 21
2080.142148029828
 31
0.0
  0
LINE
  5
979B
330
8F5F
100
AcDbEntity
  8
寸法引出
 48
15.0
370
    -2
100
AcDbLine
 10
1383.40451337318
 20
2080.142148029828
 30
0.0
 11
1405.90451337318
 21
2080.142148029828
 31
0.0
  0
LINE
  5
979C
330
8F5F
100
AcDbEntity
  8
寸法引出
 48
15.0
370
    -2
100
AcDbLine
 10
1335.90451337318
 20
2080.142148029828
 30
0.0
 11
1360.90451337318
 21
2080.142148029828
 31
0.0
  0
SOLID
  5
979D
330
8F5F
100
AcDbEntity
  8
寸法引出
 48
15.0
100
AcDbTrace
 10
1313.40451337318
 20
2083.892148029828
 30
0.0
 11
1313.40451337318
 21
2076.392148029828
 31
0.0
 12
1335.90451337318
 22
2080.142148029828
 32
0.0
 13
1335.90451337318
 23
2080.142148029828
 33
0.0
  0
SOLID
  5
979E
330
8F5F
100
AcDbEntity
  8
寸法引出
 48
15.0
100
AcDbTrace
 10
1383.40451337318
 20
2083.892148029828
 30
0.0
 11
1383.40451337318
 21
2076.392148029828
 31
0.0
 12
1360.90451337318
 22
2080.142148029828
 32
0.0
 13
1360.90451337318
 23
2080.142148029828
 33
0.0
  0
MTEXT
  5
979F
330
8F5F
100
AcDbEntity
  8
寸法引出
 48
15.0
100
AcDbMText
 10
1348.40451337318
 20
2110.142148029828
 30
0.0
 40
30.0
 41
0.0
 71
     5
 72
     1
  1
\A1;25
  7
SANWA
 73
     1
 44
1.0
1001
ACAD
1000
MTEXTBEGIN
1070
    73
1070
     1
1070
    44
1040
1.0
1070
    74
1070
     0
1000
MTEXTEND
  0
POINT
  5
97A0
330
8F5F
100
AcDbEntity
  8
DEFPOINTS
 62
     0
 48
15.0
100
AcDbPoint
 10
1335.90451337318
 20
2154.779567641652
 30
0.0
  0
POINT
  5
97A1
330
8F5F
100
AcDbEntity
  8
DEFPOINTS
 62
     0
 48
15.0
100
AcDbPoint
 10
1360.90451337318
 20
2154.779567641652
 30
0.0
  0
POINT
  5
97A2
330
8F5F
100
AcDbEntity
  8
DEFPOINTS
 62
     0
 48
15.0
100
AcDbPoint
 10
1360.90451337318
 20
2080.142148029828
 30
0.0
  0
ENDBLK
  5
8F6C
330
8F5F
100
AcDbEntity
  8
0
 48
15.0
100
AcDbBlockEnd
  0
BLOCK
  5
8F76
330
8F6D
100
AcDbEntity
  8
0
 48
15.0
100
AcDbBlockBegin
  2
*D36
 70
     1
 10
0.0
 20
0.0
 30
0.0
  3
*D36
  1

  0
LINE
  5
97A3
330
8F6D
100
AcDbEntity
  8
寸法引出
 48
15.0
370
    -2
100
AcDbLine
 10
1710.90451337318
 20
2139.779567641652
 30
0.0
 11
1710.90451337318
 21
2072.642148029828
 31
0.0
  0
LINE
  5
97A4
330
8F6D
100
AcDbEntity
  8
寸法引出
 48
15.0
370
    -2
100
AcDbLine
 10
1383.40451337318
 20
2080.142148029828
 30
0.0
 11
1688.40451337318
 21
2080.142148029828
 31
0.0
  0
SOLID
  5
97A5
330
8F6D
100
AcDbEntity
  8
寸法引出
 48
15.0
100
AcDbTrace
 10
1383.40451337318
 20
2083.892148029828
 30
0.0
 11
1383.40451337318
 21
2076.392148029828
 31
0.0
 12
1360.90451337318
 22
2080.142148029828
 32
0.0
 13
1360.90451337318
 23
2080.142148029828
 33
0.0
  0
SOLID
  5
97A6
330
8F6D
100
AcDbEntity
  8
寸法引出
 48
15.0
100
AcDbTrace
 10
1688.40451337318
 20
2083.892148029828
 30
0.0
 11
1688.40451337318
 21
2076.392148029828
 31
0.0
 12
1710.90451337318
 22
2080.142148029828
 32
0.0
 13
1710.90451337318
 23
2080.142148029828
 33
0.0
  0
MTEXT
  5
97A7
330
8F6D
100
AcDbEntity
  8
寸法引出
 48
15.0
100
AcDbMText
 10
1535.90451337318
 20
2110.142148029828
 30
0.0
 40
30.0
 41
0.0
 71
     5
 72
     1
  1
\A1;350
  7
SANWA
 73
     1
 44
1.0
1001
ACAD
1000
MTEXTBEGIN
1070
    73
1070
     1
1070
    44
1040
1.0
1070
    74
1070
     0
1000
MTEXTEND
  0
POINT
  5
97A8
330
8F6D
100
AcDbEntity
  8
DEFPOINTS
 62
     0
 48
15.0
100
AcDbPoint
 10
1360.90451337318
 20
2154.779567641652
 30
0.0
  0
POINT
  5
97A9
330
8F6D
100
AcDbEntity
  8
DEFPOINTS
 62
     0
 48
15.0
100
AcDbPoint
 10
1710.90451337318
 20
2154.779567641652
 30
0.0
  0
POINT
  5
97AA
330
8F6D
100
AcDbEntity
  8
DEFPOINTS
 62
     0
 48
15.0
100
AcDbPoint
 10
1710.90451337318
 20
2080.142148029828
 30
0.0
  0
ENDBLK
  5
8F77
330
8F6D
100
AcDbEntity
  8
0
 48
15.0
100
AcDbBlockEnd
  0
BLOCK
  5
8F82
330
8F78
100
AcDbEntity
  8
0
 48
15.0
100
AcDbBlockBegin
  2
*D37
 70
     1
 10
0.0
 20
0.0
 30
0.0
  3
*D37
  1

  0
LINE
  5
97AB
330
8F78
100
AcDbEntity
  8
寸法引出
 48
15.0
370
    -2
100
AcDbLine
 10
2143.040493132293
 20
2139.779567641652
 30
0.0
 11
2143.040493132293
 21
2072.642148029828
 31
0.0
  0
LINE
  5
97AC
330
8F78
100
AcDbEntity
  8
寸法引出
 48
15.0
370
    -2
100
AcDbLine
 10
2263.040493132293
 20
2139.779567641652
 30
0.0
 11
2263.040493132293
 21
2072.642148029828
 31
0.0
  0
LINE
  5
97AD
330
8F78
100
AcDbEntity
  8
寸法引出
 48
15.0
370
    -2
100
AcDbLine
 10
2165.540493132294
 20
2080.142148029828
 30
0.0
 11
2240.540493132293
 21
2080.142148029828
 31
0.0
  0
SOLID
  5
97AE
330
8F78
100
AcDbEntity
  8
寸法引出
 48
15.0
100
AcDbTrace
 10
2165.540493132294
 20
2083.892148029828
 30
0.0
 11
2165.540493132294
 21
2076.392148029828
 31
0.0
 12
2143.040493132293
 22
2080.142148029828
 32
0.0
 13
2143.040493132293
 23
2080.142148029828
 33
0.0
  0
SOLID
  5
97AF
330
8F78
100
AcDbEntity
  8
寸法引出
 48
15.0
100
AcDbTrace
 10
2240.540493132293
 20
2083.892148029828
 30
0.0
 11
2240.540493132293
 21
2076.392148029828
 31
0.0
 12
2263.040493132293
 22
2080.142148029828
 32
0.0
 13
2263.040493132293
 23
2080.142148029828
 33
0.0
  0
MTEXT
  5
97B0
330
8F78
100
AcDbEntity
  8
寸法引出
 48
15.0
100
AcDbMText
 10
2203.040493132293
 20
2110.142148029828
 30
0.0
 40
30.0
 41
0.0
 71
     5
 72
     1
  1
\A1;120
  7
SANWA
 73
     1
 44
1.0
1001
ACAD
1000
MTEXTBEGIN
1070
    73
1070
     1
1070
    44
1040
1.0
1070
    74
1070
     0
1000
MTEXTEND
  0
POINT
  5
97B1
330
8F78
100
AcDbEntity
  8
DEFPOINTS
 62
     0
 48
15.0
100
AcDbPoint
 10
2143.040493132293
 20
2154.779567641652
 30
0.0
  0
POINT
  5
97B2
330
8F78
100
AcDbEntity
  8
DEFPOINTS
 62
     0
 48
15.0
100
AcDbPoint
 10
2263.040493132293
 20
2154.779567641652
 30
0.0
  0
POINT
  5
97B3
330
8F78
100
AcDbEntity
  8
DEFPOINTS
 62
     0
 48
15.0
100
AcDbPoint
 10
2263.040493132293
 20
2080.142148029828
 30
0.0
  0
ENDBLK
  5
8F83
330
8F78
100
AcDbEntity
  8
0
 48
15.0
100
AcDbBlockEnd
  0
BLOCK
  5
8F8E
330
8F84
100
AcDbEntity
  8
0
 48
15.0
100
AcDbBlockBegin
  2
*D38
 70
     1
 10
0.0
 20
0.0
 30
0.0
  3
*D38
  1

  0
LINE
  5
97B4
330
8F84
100
AcDbEntity
  8
寸法引出
 48
15.0
370
    -2
100
AcDbLine
 10
3158.040493132294
 20
2254.779567641652
 30
0.0
 11
3244.591700953461
 21
2254.779567641652
 31
0.0
  0
LINE
  5
97B5
330
8F84
100
AcDbEntity
  8
寸法引出
 48
15.0
370
    -2
100
AcDbLine
 10
3158.040493132294
 20
2154.779567641652
 30
0.0
 11
3244.591700953461
 21
2154.779567641652
 31
0.0
  0
LINE
  5
97B6
330
8F84
100
AcDbEntity
  8
寸法引出
 48
15.0
370
    -2
100
AcDbLine
 10
3237.091700953461
 20
2232.279567641652
 30
0.0
 11
3237.091700953461
 21
2177.279567641652
 31
0.0
  0
SOLID
  5
97B7
330
8F84
100
AcDbEntity
  8
寸法引出
 48
15.0
100
AcDbTrace
 10
3233.341700953462
 20
2232.279567641652
 30
0.0
 11
3240.841700953461
 21
2232.279567641652
 31
0.0
 12
3237.091700953461
 22
2254.779567641652
 32
0.0
 13
3237.091700953461
 23
2254.779567641652
 33
0.0
  0
SOLID
  5
97B8
330
8F84
100
AcDbEntity
  8
寸法引出
 48
15.0
100
AcDbTrace
 10
3233.341700953462
 20
2177.279567641652
 30
0.0
 11
3240.841700953461
 21
2177.279567641652
 31
0.0
 12
3237.091700953461
 22
2154.779567641652
 32
0.0
 13
3237.091700953461
 23
2154.779567641652
 33
0.0
  0
MTEXT
  5
97B9
330
8F84
100
AcDbEntity
  8
寸法引出
 48
15.0
100
AcDbMText
 10
3207.091700953461
 20
2204.779567641653
 30
0.0
 40
30.0
 41
0.0
 71
     5
 72
     1
  1
\A1;100
  7
SANWA
 11
0.0000000000000001
 21
1.0
 31
0.0
 73
     1
 44
1.0
1001
ACAD
1000
MTEXTBEGIN
1070
    73
1070
     1
1070
    44
1040
1.0
1070
    74
1070
     0
1000
MTEXTEND
  0
POINT
  5
97BA
330
8F84
100
AcDbEntity
  8
DEFPOINTS
 62
     0
 48
15.0
100
AcDbPoint
 10
3143.040493132293
 20
2254.779567641652
 30
0.0
  0
POINT
  5
97BB
330
8F84
100
AcDbEntity
  8
DEFPOINTS
 62
     0
 48
15.0
100
AcDbPoint
 10
3143.040493132293
 20
2154.779567641652
 30
0.0
  0
POINT
  5
97BC
330
8F84
100
AcDbEntity
  8
DEFPOINTS
 62
     0
 48
15.0
100
AcDbPoint
 10
3237.091700953461
 20
2154.779567641652
 30
0.0
  0
ENDBLK
  5
8F8F
330
8F84
100
AcDbEntity
  8
0
 48
15.0
100
AcDbBlockEnd
  0
BLOCK
  5
8F99
330
8F90
100
AcDbEntity
  8
0
 48
15.0
100
AcDbBlockBegin
  2
*D39
 70
     1
 10
0.0
 20
0.0
 30
0.0
  3
*D39
  1

  0
LINE
  5
97BD
330
8F90
100
AcDbEntity
  8
寸法引出
 48
15.0
370
    -2
100
AcDbLine
 10
3143.040493132293
 20
2139.779567641652
 30
0.0
 11
3143.040493132293
 21
2072.642148029828
 31
0.0
  0
LINE
  5
97BE
330
8F90
100
AcDbEntity
  8
寸法引出
 48
15.0
370
    -2
100
AcDbLine
 10
3045.540493132293
 20
2080.142148029828
 30
0.0
 11
3120.540493132294
 21
2080.142148029828
 31
0.0
  0
SOLID
  5
97BF
330
8F90
100
AcDbEntity
  8
寸法引出
 48
15.0
100
AcDbTrace
 10
3045.540493132293
 20
2083.892148029828
 30
0.0
 11
3045.540493132293
 21
2076.392148029828
 31
0.0
 12
3023.040493132294
 22
2080.142148029828
 32
0.0
 13
3023.040493132294
 23
2080.142148029828
 33
0.0
  0
SOLID
  5
97C0
330
8F90
100
AcDbEntity
  8
寸法引出
 48
15.0
100
AcDbTrace
 10
3120.540493132294
 20
2083.892148029828
 30
0.0
 11
3120.540493132294
 21
2076.392148029828
 31
0.0
 12
3143.040493132293
 22
2080.142148029828
 32
0.0
 13
3143.040493132293
 23
2080.142148029828
 33
0.0
  0
MTEXT
  5
97C1
330
8F90
100
AcDbEntity
  8
寸法引出
 48
15.0
100
AcDbMText
 10
3083.040493132294
 20
2110.142148029828
 30
0.0
 40
30.0
 41
0.0
 71
     5
 72
     1
  1
\A1;120
  7
SANWA
 73
     1
 44
1.0
1001
ACAD
1000
MTEXTBEGIN
1070
    73
1070
     1
1070
    44
1040
1.0
1070
    74
1070
     0
1000
MTEXTEND
  0
POINT
  5
97C2
330
8F90
100
AcDbEntity
  8
DEFPOINTS
 62
     0
 48
15.0
100
AcDbPoint
 10
3023.040493132294
 20
2154.779567641652
 30
0.0
  0
POINT
  5
97C3
330
8F90
100
AcDbEntity
  8
DEFPOINTS
 62
     0
 48
15.0
100
AcDbPoint
 10
3143.040493132293
 20
2154.779567641652
 30
0.0
  0
POINT
  5
97C4
330
8F90
100
AcDbEntity
  8
DEFPOINTS
 62
     0
 48
15.0
100
AcDbPoint
 10
3143.040493132293
 20
2080.142148029828
 30
0.0
  0
ENDBLK
  5
8F9A
330
8F90
100
AcDbEntity
  8
0
 48
15.0
100
AcDbBlockEnd
  0
BLOCK
  5
8FA5
330
8F9B
100
AcDbEntity
  8
0
 48
15.0
100
AcDbBlockBegin
  2
*D40
 70
     1
 10
0.0
 20
0.0
 30
0.0
  3
*D40
  1

  0
LINE
  5
97C5
330
8F9B
100
AcDbEntity
  8
寸法引出
 48
15.0
370
    -2
100
AcDbLine
 10
6067.006840264328
 20
776.5677515008037
 30
0.0
 11
5963.987209279451
 21
776.5677515008037
 31
0.0
  0
LINE
  5
97C6
330
8F9B
100
AcDbEntity
  8
寸法引出
 48
15.0
370
    -2
100
AcDbLine
 10
6067.006840264328
 20
1706.567751500803
 30
0.0
 11
5963.987209279451
 21
1706.567751500803
 31
0.0
  0
LINE
  5
97C7
330
8F9B
100
AcDbEntity
  8
寸法引出
 48
15.0
370
    -2
100
AcDbLine
 10
5971.487209279451
 20
799.0677515008037
 30
0.0
 11
5971.487209279451
 21
1684.067751500804
 31
0.0
  0
SOLID
  5
97C8
330
8F9B
100
AcDbEntity
  8
寸法引出
 48
15.0
100
AcDbTrace
 10
5967.737209279451
 20
799.0677515008037
 30
0.0
 11
5975.23720927945
 21
799.0677515008037
 31
0.0
 12
5971.487209279451
 22
776.5677515008037
 32
0.0
 13
5971.487209279451
 23
776.5677515008037
 33
0.0
  0
SOLID
  5
97C9
330
8F9B
100
AcDbEntity
  8
寸法引出
 48
15.0
100
AcDbTrace
 10
5967.737209279451
 20
1684.067751500804
 30
0.0
 11
5975.23720927945
 21
1684.067751500804
 31
0.0
 12
5971.487209279451
 22
1706.567751500803
 32
0.0
 13
5971.487209279451
 23
1706.567751500803
 33
0.0
  0
MTEXT
  5
97CA
330
8F9B
100
AcDbEntity
  8
寸法引出
 48
15.0
100
AcDbMText
 10
5941.487209279451
 20
1241.567751500805
 30
0.0
 40
30.0
 41
0.0
 71
     5
 72
     1
  1
\A1;930
  7
SANWA
 11
0.0000000000000001
 21
1.0
 31
0.0
 73
     1
 44
1.0
1001
ACAD
1000
MTEXTBEGIN
1070
    73
1070
     1
1070
    44
1040
1.0
1070
    74
1070
     0
1000
MTEXTEND
  0
POINT
  5
97CB
330
8F9B
100
AcDbEntity
  8
DEFPOINTS
 62
     0
 48
15.0
100
AcDbPoint
 10
6082.006840264329
 20
776.5677515008037
 30
0.0
  0
POINT
  5
97CC
330
8F9B
100
AcDbEntity
  8
DEFPOINTS
 62
     0
 48
15.0
100
AcDbPoint
 10
6082.006840264329
 20
1706.567751500803
 30
0.0
  0
POINT
  5
97CD
330
8F9B
100
AcDbEntity
  8
DEFPOINTS
 62
     0
 48
15.0
100
AcDbPoint
 10
5971.487209279451
 20
1706.567751500803
 30
0.0
  0
ENDBLK
  5
8FA6
330
8F9B
100
AcDbEntity
  8
0
 48
15.0
100
AcDbBlockEnd
  0
BLOCK
  5
8FB1
330
8FA7
100
AcDbEntity
  8
0
 48
15.0
100
AcDbBlockBegin
  2
*D41
 70
     1
 10
0.0
 20
0.0
 30
0.0
  3
*D41
  1

  0
LINE
  5
97CE
330
8FA7
100
AcDbEntity
  8
寸法引出
 48
15.0
370
    -2
100
AcDbLine
 10
6497.006840264328
 20
786.5677515008037
 30
0.0
 11
6778.665493113455
 21
786.5677515008037
 31
0.0
  0
LINE
  5
97CF
330
8FA7
100
AcDbEntity
  8
寸法引出
 48
15.0
370
    -2
100
AcDbLine
 10
6497.006840264328
 20
1696.567751500804
 30
0.0
 11
6778.665493113455
 21
1696.567751500803
 31
0.0
  0
LINE
  5
97D0
330
8FA7
100
AcDbEntity
  8
寸法引出
 48
15.0
370
    -2
100
AcDbLine
 10
6771.165493113454
 20
809.0677515008037
 30
0.0
 11
6771.165493113454
 21
1674.067751500803
 31
0.0
  0
SOLID
  5
97D1
330
8FA7
100
AcDbEntity
  8
寸法引出
 48
15.0
100
AcDbTrace
 10
6767.415493113455
 20
809.0677515008037
 30
0.0
 11
6774.915493113454
 21
809.0677515008037
 31
0.0
 12
6771.165493113454
 22
786.5677515008037
 32
0.0
 13
6771.165493113454
 23
786.5677515008037
 33
0.0
  0
SOLID
  5
97D2
330
8FA7
100
AcDbEntity
  8
寸法引出
 48
15.0
100
AcDbTrace
 10
6767.415493113455
 20
1674.067751500803
 30
0.0
 11
6774.915493113454
 21
1674.067751500803
 31
0.0
 12
6771.165493113454
 22
1696.567751500803
 32
0.0
 13
6771.165493113454
 23
1696.567751500803
 33
0.0
  0
MTEXT
  5
97D3
330
8FA7
100
AcDbEntity
  8
寸法引出
 48
15.0
100
AcDbMText
 10
6739.27977882774
 20
1241.567751500805
 30
0.0
 40
30.0
 41
0.0
 71
     5
 72
     1
  1
\A1;7@130=910
  7
SANWA
 11
0.0000000000000001
 21
1.0
 31
0.0
 73
     1
 44
1.0
1001
ACAD
1000
MTEXTBEGIN
1070
    73
1070
     1
1070
    44
1040
1.0
1070
    74
1070
     0
1000
MTEXTEND
  0
POINT
  5
97D4
330
8FA7
100
AcDbEntity
  8
DEFPOINTS
 62
     0
 48
15.0
100
AcDbPoint
 10
6482.006840264329
 20
786.5677515008037
 30
0.0
  0
POINT
  5
97D5
330
8FA7
100
AcDbEntity
  8
DEFPOINTS
 62
     0
 48
15.0
100
AcDbPoint
 10
6482.006840264329
 20
1696.567751500804
 30
0.0
  0
POINT
  5
97D6
330
8FA7
100
AcDbEntity
  8
DEFPOINTS
 62
     0
 48
15.0
100
AcDbPoint
 10
6771.165493113454
 20
1696.567751500803
 30
0.0
  0
ENDBLK
  5
8FB2
330
8FA7
100
AcDbEntity
  8
0
 48
15.0
100
AcDbBlockEnd
  0
BLOCK
  5
8FBD
330
8FB3
100
AcDbEntity
  8
0
 48
15.0
100
AcDbBlockBegin
  2
*D42
 70
     1
 10
0.0
 20
0.0
 30
0.0
  3
*D42
  1

  0
LINE
  5
97D7
330
8FB3
100
AcDbEntity
  8
寸法引出
 48
15.0
370
    -2
100
AcDbLine
 10
6497.006840264328
 20
1741.567751500804
 30
0.0
 11
6847.688953467143
 21
1741.567751500803
 31
0.0
  0
LINE
  5
97D8
330
8FB3
100
AcDbEntity
  8
寸法引出
 48
15.0
370
    -2
100
AcDbLine
 10
6497.006840264328
 20
741.5677515008037
 30
0.0
 11
6847.688953467143
 21
741.5677515008037
 31
0.0
  0
LINE
  5
97D9
330
8FB3
100
AcDbEntity
  8
寸法引出
 48
15.0
370
    -2
100
AcDbLine
 10
6840.188953467142
 20
1719.067751500803
 30
0.0
 11
6840.188953467142
 21
764.0677515008037
 31
0.0
  0
SOLID
  5
97DA
330
8FB3
100
AcDbEntity
  8
寸法引出
 48
15.0
100
AcDbTrace
 10
6836.438953467143
 20
1719.067751500803
 30
0.0
 11
6843.938953467143
 21
1719.067751500803
 31
0.0
 12
6840.188953467142
 22
1741.567751500803
 32
0.0
 13
6840.188953467142
 23
1741.567751500803
 33
0.0
  0
SOLID
  5
97DB
330
8FB3
100
AcDbEntity
  8
寸法引出
 48
15.0
100
AcDbTrace
 10
6836.438953467143
 20
764.0677515008037
 30
0.0
 11
6843.938953467143
 21
764.0677515008037
 31
0.0
 12
6840.188953467142
 22
741.5677515008037
 32
0.0
 13
6840.188953467142
 23
741.5677515008037
 33
0.0
  0
MTEXT
  5
97DC
330
8FB3
100
AcDbEntity
  8
寸法引出
 48
15.0
100
AcDbMText
 10
6810.188953467143
 20
1241.567751500805
 30
0.0
 40
30.0
 41
0.0
 71
     5
 72
     1
  1
\A1;1000
  7
SANWA
 11
0.0000000000000001
 21
1.0
 31
0.0
 73
     1
 44
1.0
1001
ACAD
1000
MTEXTBEGIN
1070
    73
1070
     1
1070
    44
1040
1.0
1070
    74
1070
     0
1000
MTEXTEND
  0
POINT
  5
97DD
330
8FB3
100
AcDbEntity
  8
DEFPOINTS
 62
     0
 48
15.0
100
AcDbPoint
 10
6482.006840264329
 20
1741.567751500804
 30
0.0
  0
POINT
  5
97DE
330
8FB3
100
AcDbEntity
  8
DEFPOINTS
 62
     0
 48
15.0
100
AcDbPoint
 10
6482.006840264329
 20
741.5677515008037
 30
0.0
  0
POINT
  5
97DF
330
8FB3
100
AcDbEntity
  8
DEFPOINTS
 62
     0
 48
15.0
100
AcDbPoint
 10
6840.188953467142
 20
741.5677515008037
 30
0.0
  0
ENDBLK
  5
8FBE
330
8FB3
100
AcDbEntity
  8
0
 48
15.0
100
AcDbBlockEnd
  0
BLOCK
  5
8FCA
330
8FBF
100
AcDbEntity
  8
0
 48
15.0
100
AcDbBlockBegin
  2
*D43
 70
     1
 10
0.0
 20
0.0
 30
0.0
  3
*D43
  1

  0
LINE
  5
97E0
330
8FBF
100
AcDbEntity
  8
寸法引出
 48
15.0
370
    -2
100
AcDbLine
 10
6482.006840264329
 20
726.5677515008037
 30
0.0
 11
6482.006840264329
 21
605.5421982024163
 31
0.0
  0
LINE
  5
97E1
330
8FBF
100
AcDbEntity
  8
寸法引出
 48
15.0
370
    -2
100
AcDbLine
 10
6439.506840264328
 20
613.0421982024163
 30
0.0
 11
6417.006840264328
 21
613.0421982024163
 31
0.0
  0
LINE
  5
97E2
330
8FBF
100
AcDbEntity
  8
寸法引出
 48
15.0
370
    -2
100
AcDbLine
 10
6504.506840264328
 20
613.0421982024163
 30
0.0
 11
6527.006840264329
 21
613.0421982024163
 31
0.0
  0
LINE
  5
97E3
330
8FBF
100
AcDbEntity
  8
寸法引出
 48
15.0
370
    -2
100
AcDbLine
 10
6462.006840264328
 20
613.0421982024163
 30
0.0
 11
6482.006840264329
 21
613.0421982024163
 31
0.0
  0
SOLID
  5
97E4
330
8FBF
100
AcDbEntity
  8
寸法引出
 48
15.0
100
AcDbTrace
 10
6439.506840264328
 20
616.7921982024163
 30
0.0
 11
6439.506840264328
 21
609.2921982024163
 31
0.0
 12
6462.006840264328
 22
613.0421982024163
 32
0.0
 13
6462.006840264328
 23
613.0421982024163
 33
0.0
  0
SOLID
  5
97E5
330
8FBF
100
AcDbEntity
  8
寸法引出
 48
15.0
100
AcDbTrace
 10
6504.506840264328
 20
616.7921982024163
 30
0.0
 11
6504.506840264328
 21
609.2921982024163
 31
0.0
 12
6482.006840264329
 22
613.0421982024163
 32
0.0
 13
6482.006840264329
 23
613.0421982024163
 33
0.0
  0
MTEXT
  5
97E6
330
8FBF
100
AcDbEntity
  8
寸法引出
 48
15.0
100
AcDbMText
 10
6472.006840264327
 20
643.0421982024163
 30
0.0
 40
30.0
 41
0.0
 71
     5
 72
     1
  1
\A1;20
  7
SANWA
 73
     1
 44
1.0
1001
ACAD
1000
MTEXTBEGIN
1070
    73
1070
     1
1070
    44
1040
1.0
1070
    74
1070
     0
1000
MTEXTEND
  0
POINT
  5
97E7
330
8FBF
100
AcDbEntity
  8
DEFPOINTS
 62
     0
 48
15.0
100
AcDbPoint
 10
6462.006840264328
 20
741.5677515008037
 30
0.0
  0
POINT
  5
97E8
330
8FBF
100
AcDbEntity
  8
DEFPOINTS
 62
     0
 48
15.0
100
AcDbPoint
 10
6482.006840264329
 20
741.5677515008037
 30
0.0
  0
POINT
  5
97E9
330
8FBF
100
AcDbEntity
  8
DEFPOINTS
 62
     0
 48
15.0
100
AcDbPoint
 10
6482.006840264329
 20
613.0421982024163
 30
0.0
  0
ENDBLK
  5
8FCB
330
8FBF
100
AcDbEntity
  8
0
 48
15.0
100
AcDbBlockEnd
  0
BLOCK
  5
8FD8
330
8FCC
100
AcDbEntity
  8
0
 48
15.0
100
AcDbBlockBegin
  2
*D44
 70
     1
 10
0.0
 20
0.0
 30
0.0
  3
*D44
  1

  0
LINE
  5
97EA
330
8FCC
100
AcDbEntity
  8
寸法引出
 48
15.0
370
    -2
100
AcDbLine
 10
6497.006840264328
 20
741.5677515008037
 30
0.0
 11
6778.665493113455
 21
741.5677515008037
 31
0.0
  0
LINE
  5
97EB
330
8FCC
100
AcDbEntity
  8
寸法引出
 48
15.0
370
    -2
100
AcDbLine
 10
6497.006840264328
 20
786.5677515008037
 30
0.0
 11
6778.665493113455
 21
786.5677515008037
 31
0.0
  0
LINE
  5
97EC
330
8FCC
100
AcDbEntity
  8
寸法引出
 48
15.0
370
    -2
100
AcDbLine
 10
6771.165493113454
 20
719.0677515008037
 30
0.0
 11
6771.165493113454
 21
696.5677515008037
 31
0.0
  0
LINE
  5
97ED
330
8FCC
100
AcDbEntity
  8
寸法引出
 48
15.0
370
    -2
100
AcDbLine
 10
6771.165493113454
 20
809.0677515008037
 30
0.0
 11
6771.165493113454
 21
831.5677515008037
 31
0.0
  0
LINE
  5
97EE
330
8FCC
100
AcDbEntity
  8
寸法引出
 48
15.0
370
    -2
100
AcDbLine
 10
6771.165493113454
 20
741.5677515008037
 30
0.0
 11
6771.165493113454
 21
786.5677515008037
 31
0.0
  0
SOLID
  5
97EF
330
8FCC
100
AcDbEntity
  8
寸法引出
 48
15.0
100
AcDbTrace
 10
6767.415493113455
 20
719.0677515008037
 30
0.0
 11
6774.915493113454
 21
719.0677515008037
 31
0.0
 12
6771.165493113454
 22
741.5677515008037
 32
0.0
 13
6771.165493113454
 23
741.5677515008037
 33
0.0
  0
SOLID
  5
97F0
330
8FCC
100
AcDbEntity
  8
寸法引出
 48
15.0
100
AcDbTrace
 10
6767.415493113455
 20
809.0677515008037
 30
0.0
 11
6774.915493113454
 21
809.0677515008037
 31
0.0
 12
6771.165493113454
 22
786.5677515008037
 32
0.0
 13
6771.165493113454
 23
786.5677515008037
 33
0.0
  0
MTEXT
  5
97F1
330
8FCC
100
AcDbEntity
  8
寸法引出
 48
15.0
100
AcDbMText
 10
6741.165493113455
 20
764.0677515008047
 30
0.0
 40
30.0
 41
0.0
 71
     5
 72
     1
  1
\A1;45
  7
SANWA
 11
0.0000000000000001
 21
1.0
 31
0.0
 73
     1
 44
1.0
1001
ACAD
1000
MTEXTBEGIN
1070
    73
1070
     1
1070
    44
1040
1.0
1070
    74
1070
     0
1000
MTEXTEND
  0
POINT
  5
97F2
330
8FCC
100
AcDbEntity
  8
DEFPOINTS
 62
     0
 48
15.0
100
AcDbPoint
 10
6482.006840264329
 20
741.5677515008037
 30
0.0
  0
POINT
  5
97F3
330
8FCC
100
AcDbEntity
  8
DEFPOINTS
 62
     0
 48
15.0
100
AcDbPoint
 10
6482.006840264329
 20
786.5677515008037
 30
0.0
  0
POINT
  5
97F4
330
8FCC
100
AcDbEntity
  8
DEFPOINTS
 62
     0
 48
15.0
100
AcDbPoint
 10
6771.165493113454
 20
786.5677515008037
 30
0.0
  0
ENDBLK
  5
8FD9
330
8FCC
100
AcDbEntity
  8
0
 48
15.0
100
AcDbBlockEnd
  0
BLOCK
  5
8FE6
330
8FDA
100
AcDbEntity
  8
0
 48
15.0
100
AcDbBlockBegin
  2
*D45
 70
     1
 10
0.0
 20
0.0
 30
0.0
  3
*D45
  1

  0
LINE
  5
97F5
330
8FDA
100
AcDbEntity
  8
寸法引出
 48
15.0
370
    -2
100
AcDbLine
 10
6082.006840264329
 20
726.5677515008037
 30
0.0
 11
6082.006840264329
 21
605.5421982024163
 31
0.0
  0
LINE
  5
97F6
330
8FDA
100
AcDbEntity
  8
寸法引出
 48
15.0
370
    -2
100
AcDbLine
 10
6102.006840264328
 20
726.5677515008037
 30
0.0
 11
6102.006840264328
 21
605.5421982024163
 31
0.0
  0
LINE
  5
97F7
330
8FDA
100
AcDbEntity
  8
寸法引出
 48
15.0
370
    -2
100
AcDbLine
 10
6059.506840264329
 20
613.0421982024163
 30
0.0
 11
6037.006840264329
 21
613.0421982024163
 31
0.0
  0
LINE
  5
97F8
330
8FDA
100
AcDbEntity
  8
寸法引出
 48
15.0
370
    -2
100
AcDbLine
 10
6124.506840264328
 20
613.0421982024163
 30
0.0
 11
6147.006840264328
 21
613.0421982024163
 31
0.0
  0
LINE
  5
97F9
330
8FDA
100
AcDbEntity
  8
寸法引出
 48
15.0
370
    -2
100
AcDbLine
 10
6082.006840264329
 20
613.0421982024163
 30
0.0
 11
6102.006840264328
 21
613.0421982024163
 31
0.0
  0
SOLID
  5
97FA
330
8FDA
100
AcDbEntity
  8
寸法引出
 48
15.0
100
AcDbTrace
 10
6059.506840264329
 20
616.7921982024163
 30
0.0
 11
6059.506840264329
 21
609.2921982024163
 31
0.0
 12
6082.006840264329
 22
613.0421982024163
 32
0.0
 13
6082.006840264329
 23
613.0421982024163
 33
0.0
  0
SOLID
  5
97FB
330
8FDA
100
AcDbEntity
  8
寸法引出
 48
15.0
100
AcDbTrace
 10
6124.506840264328
 20
616.7921982024163
 30
0.0
 11
6124.506840264328
 21
609.2921982024163
 31
0.0
 12
6102.006840264328
 22
613.0421982024163
 32
0.0
 13
6102.006840264328
 23
613.0421982024163
 33
0.0
  0
MTEXT
  5
97FC
330
8FDA
100
AcDbEntity
  8
寸法引出
 48
15.0
100
AcDbMText
 10
6092.006840264328
 20
643.0421982024163
 30
0.0
 40
30.0
 41
0.0
 71
     5
 72
     1
  1
\A1;20
  7
SANWA
 73
     1
 44
1.0
1001
ACAD
1000
MTEXTBEGIN
1070
    73
1070
     1
1070
    44
1040
1.0
1070
    74
1070
     0
1000
MTEXTEND
  0
POINT
  5
97FD
330
8FDA
100
AcDbEntity
  8
DEFPOINTS
 62
     0
 48
15.0
100
AcDbPoint
 10
6082.006840264329
 20
741.5677515008037
 30
0.0
  0
POINT
  5
97FE
330
8FDA
100
AcDbEntity
  8
DEFPOINTS
 62
     0
 48
15.0
100
AcDbPoint
 10
6102.006840264328
 20
741.5677515008037
 30
0.0
  0
POINT
  5
97FF
330
8FDA
100
AcDbEntity
  8
DEFPOINTS
 62
     0
 48
15.0
100
AcDbPoint
 10
6102.006840264328
 20
613.0421982024163
 30
0.0
  0
ENDBLK
  5
8FE7
330
8FDA
100
AcDbEntity
  8
0
 48
15.0
100
AcDbBlockEnd
  0
BLOCK
  5
8FF2
330
8FE8
100
AcDbEntity
  8
0
 48
15.0
100
AcDbBlockBegin
  2
*D46
 70
     1
 10
0.0
 20
0.0
 30
0.0
  3
*D46
  1

  0
LINE
  5
9800
330
8FE8
100
AcDbEntity
  8
寸法引出
 48
15.0
370
    -2
100
AcDbLine
 10
6102.006840264328
 20
726.5677515008037
 30
0.0
 11
6102.006840264328
 21
605.5421982024163
 31
0.0
  0
LINE
  5
9801
330
8FE8
100
AcDbEntity
  8
寸法引出
 48
15.0
370
    -2
100
AcDbLine
 10
6462.006840264328
 20
726.5677515008037
 30
0.0
 11
6462.006840264328
 21
605.5421982024163
 31
0.0
  0
LINE
  5
9802
330
8FE8
100
AcDbEntity
  8
寸法引出
 48
15.0
370
    -2
100
AcDbLine
 10
6124.506840264328
 20
613.0421982024163
 30
0.0
 11
6439.506840264328
 21
613.0421982024163
 31
0.0
  0
SOLID
  5
9803
330
8FE8
100
AcDbEntity
  8
寸法引出
 48
15.0
100
AcDbTrace
 10
6124.506840264328
 20
616.7921982024163
 30
0.0
 11
6124.506840264328
 21
609.2921982024163
 31
0.0
 12
6102.006840264328
 22
613.0421982024163
 32
0.0
 13
6102.006840264328
 23
613.0421982024163
 33
0.0
  0
SOLID
  5
9804
330
8FE8
100
AcDbEntity
  8
寸法引出
 48
15.0
100
AcDbTrace
 10
6439.506840264328
 20
616.7921982024163
 30
0.0
 11
6439.506840264328
 21
609.2921982024163
 31
0.0
 12
6462.006840264328
 22
613.0421982024163
 32
0.0
 13
6462.006840264328
 23
613.0421982024163
 33
0.0
  0
MTEXT
  5
9805
330
8FE8
100
AcDbEntity
  8
寸法引出
 48
15.0
100
AcDbMText
 10
6282.006840264329
 20
643.0421982024163
 30
0.0
 40
30.0
 41
0.0
 71
     5
 72
     1
  1
\A1;360
  7
SANWA
 73
     1
 44
1.0
1001
ACAD
1000
MTEXTBEGIN
1070
    73
1070
     1
1070
    44
1040
1.0
1070
    74
1070
     0
1000
MTEXTEND
  0
POINT
  5
9806
330
8FE8
100
AcDbEntity
  8
DEFPOINTS
 62
     0
 48
15.0
100
AcDbPoint
 10
6102.006840264328
 20
741.5677515008037
 30
0.0
  0
POINT
  5
9807
330
8FE8
100
AcDbEntity
  8
DEFPOINTS
 62
     0
 48
15.0
100
AcDbPoint
 10
6462.006840264328
 20
741.5677515008037
 30
0.0
  0
POINT
  5
9808
330
8FE8
100
AcDbEntity
  8
DEFPOINTS
 62
     0
 48
15.0
100
AcDbPoint
 10
6462.006840264328
 20
613.0421982024163
 30
0.0
  0
ENDBLK
  5
8FF3
330
8FE8
100
AcDbEntity
  8
0
 48
15.0
100
AcDbBlockEnd
  0
BLOCK
  5
8FFE
330
8FF4
100
AcDbEntity
  8
0
 48
15.0
100
AcDbBlockBegin
  2
*D47
 70
     1
 10
0.0
 20
0.0
 30
0.0
  3
*D47
  1

  0
LINE
  5
9809
330
8FF4
100
AcDbEntity
  8
寸法引出
 48
15.0
370
    -2
100
AcDbLine
 10
6928.667693423516
 20
2139.779571455445
 30
0.0
 11
6928.667693423516
 21
2067.168902291049
 31
0.0
  0
LINE
  5
980A
330
8FF4
100
AcDbEntity
  8
寸法引出
 48
15.0
370
    -2
100
AcDbLine
 10
7838.667693423515
 20
2139.779571455445
 30
0.0
 11
7838.667693423515
 21
2067.168902291049
 31
0.0
  0
LINE
  5
980B
330
8FF4
100
AcDbEntity
  8
寸法引出
 48
15.0
370
    -2
100
AcDbLine
 10
6951.167693423517
 20
2074.668902291049
 30
0.0
 11
7816.167693423515
 21
2074.668902291049
 31
0.0
  0
SOLID
  5
980C
330
8FF4
100
AcDbEntity
  8
寸法引出
 48
15.0
100
AcDbTrace
 10
6951.167693423517
 20
2078.418902291049
 30
0.0
 11
6951.167693423517
 21
2070.918902291049
 31
0.0
 12
6928.667693423516
 22
2074.668902291049
 32
0.0
 13
6928.667693423516
 23
2074.668902291049
 33
0.0
  0
SOLID
  5
980D
330
8FF4
100
AcDbEntity
  8
寸法引出
 48
15.0
100
AcDbTrace
 10
7816.167693423515
 20
2078.418902291049
 30
0.0
 11
7816.167693423515
 21
2070.918902291049
 31
0.0
 12
7838.667693423515
 22
2074.668902291049
 32
0.0
 13
7838.667693423515
 23
2074.668902291049
 33
0.0
  0
MTEXT
  5
980E
330
8FF4
100
AcDbEntity
  8
寸法引出
 48
15.0
100
AcDbMText
 10
7383.667693423515
 20
2106.554616576763
 30
0.0
 40
30.0
 41
0.0
 71
     5
 72
     1
  1
\A1;7@130=910
  7
SANWA
 73
     1
 44
1.0
1001
ACAD
1000
MTEXTBEGIN
1070
    73
1070
     1
1070
    44
1040
1.0
1070
    74
1070
     0
1000
MTEXTEND
  0
POINT
  5
980F
330
8FF4
100
AcDbEntity
  8
DEFPOINTS
 62
     0
 48
15.0
100
AcDbPoint
 10
6928.667693423516
 20
2154.779571455446
 30
0.0
  0
POINT
  5
9810
330
8FF4
100
AcDbEntity
  8
DEFPOINTS
 62
     0
 48
15.0
100
AcDbPoint
 10
7838.667693423515
 20
2154.779571455446
 30
0.0
  0
POINT
  5
9811
330
8FF4
100
AcDbEntity
  8
DEFPOINTS
 62
     0
 48
15.0
100
AcDbPoint
 10
7838.667693423515
 20
2074.668902291049
 30
0.0
  0
ENDBLK
  5
8FFF
330
8FF4
100
AcDbEntity
  8
0
 48
15.0
100
AcDbBlockEnd
  0
BLOCK
  5
900A
330
9000
100
AcDbEntity
  8
0
 48
15.0
100
AcDbBlockBegin
  2
*D48
 70
     1
 10
0.0
 20
0.0
 30
0.0
  3
*D48
  1

  0
LINE
  5
9812
330
9000
100
AcDbEntity
  8
寸法引出
 48
15.0
370
    -2
100
AcDbLine
 10
6918.667693423516
 20
2269.779571455446
 30
0.0
 11
6918.667693423516
 21
2350.831866050945
 31
0.0
  0
LINE
  5
9813
330
9000
100
AcDbEntity
  8
寸法引出
 48
15.0
370
    -2
100
AcDbLine
 10
7848.667693423516
 20
2269.779571455446
 30
0.0
 11
7848.667693423516
 21
2350.831866050945
 31
0.0
  0
LINE
  5
9814
330
9000
100
AcDbEntity
  8
寸法引出
 48
15.0
370
    -2
100
AcDbLine
 10
6941.167693423516
 20
2343.331866050945
 30
0.0
 11
7826.167693423517
 21
2343.331866050945
 31
0.0
  0
SOLID
  5
9815
330
9000
100
AcDbEntity
  8
寸法引出
 48
15.0
100
AcDbTrace
 10
6941.167693423516
 20
2347.081866050945
 30
0.0
 11
6941.167693423516
 21
2339.581866050945
 31
0.0
 12
6918.667693423516
 22
2343.331866050945
 32
0.0
 13
6918.667693423516
 23
2343.331866050945
 33
0.0
  0
SOLID
  5
9816
330
9000
100
AcDbEntity
  8
寸法引出
 48
15.0
100
AcDbTrace
 10
7826.167693423517
 20
2347.081866050945
 30
0.0
 11
7826.167693423517
 21
2339.581866050945
 31
0.0
 12
7848.667693423516
 22
2343.331866050945
 32
0.0
 13
7848.667693423516
 23
2343.331866050945
 33
0.0
  0
MTEXT
  5
9817
330
9000
100
AcDbEntity
  8
寸法引出
 48
15.0
100
AcDbMText
 10
7383.667693423517
 20
2373.331866050945
 30
0.0
 40
30.0
 41
0.0
 71
     5
 72
     1
  1
\A1;930
  7
SANWA
 73
     1
 44
1.0
1001
ACAD
1000
MTEXTBEGIN
1070
    73
1070
     1
1070
    44
1040
1.0
1070
    74
1070
     0
1000
MTEXTEND
  0
POINT
  5
9818
330
9000
100
AcDbEntity
  8
DEFPOINTS
 62
     0
 48
15.0
100
AcDbPoint
 10
6918.667693423516
 20
2254.779571455445
 30
0.0
  0
POINT
  5
9819
330
9000
100
AcDbEntity
  8
DEFPOINTS
 62
     0
 48
15.0
100
AcDbPoint
 10
7848.667693423516
 20
2254.779571455445
 30
0.0
  0
POINT
  5
981A
330
9000
100
AcDbEntity
  8
DEFPOINTS
 62
     0
 48
15.0
100
AcDbPoint
 10
7848.667693423516
 20
2343.331866050945
 30
0.0
  0
ENDBLK
  5
900B
330
9000
100
AcDbEntity
  8
0
 48
15.0
100
AcDbBlockEnd
  0
BLOCK
  5
9016
330
900C
100
AcDbEntity
  8
0
 48
15.0
100
AcDbBlockBegin
  2
*D49
 70
     1
 10
0.0
 20
0.0
 30
0.0
  3
*D49
  1

  0
LINE
  5
981B
330
900C
100
AcDbEntity
  8
寸法引出
 48
15.0
370
    -2
100
AcDbLine
 10
6883.667693423517
 20
2269.779571455446
 30
0.0
 11
6883.667693423517
 21
2408.753367090954
 31
0.0
  0
LINE
  5
981C
330
900C
100
AcDbEntity
  8
寸法引出
 48
15.0
370
    -2
100
AcDbLine
 10
7883.667693423515
 20
2269.779571455446
 30
0.0
 11
7883.667693423515
 21
2408.753367090954
 31
0.0
  0
LINE
  5
981D
330
900C
100
AcDbEntity
  8
寸法引出
 48
15.0
370
    -2
100
AcDbLine
 10
6906.167693423516
 20
2401.253367090955
 30
0.0
 11
7861.167693423515
 21
2401.253367090955
 31
0.0
  0
SOLID
  5
981E
330
900C
100
AcDbEntity
  8
寸法引出
 48
15.0
100
AcDbTrace
 10
6906.167693423516
 20
2405.003367090954
 30
0.0
 11
6906.167693423516
 21
2397.503367090954
 31
0.0
 12
6883.667693423517
 22
2401.253367090955
 32
0.0
 13
6883.667693423517
 23
2401.253367090955
 33
0.0
  0
SOLID
  5
981F
330
900C
100
AcDbEntity
  8
寸法引出
 48
15.0
100
AcDbTrace
 10
7861.167693423515
 20
2405.003367090954
 30
0.0
 11
7861.167693423515
 21
2397.503367090954
 31
0.0
 12
7883.667693423515
 22
2401.253367090955
 32
0.0
 13
7883.667693423515
 23
2401.253367090955
 33
0.0
  0
MTEXT
  5
9820
330
900C
100
AcDbEntity
  8
寸法引出
 48
15.0
100
AcDbMText
 10
7383.667693423515
 20
2431.253367090955
 30
0.0
 40
30.0
 41
0.0
 71
     5
 72
     1
  1
\A1;1000
  7
SANWA
 73
     1
 44
1.0
1001
ACAD
1000
MTEXTBEGIN
1070
    73
1070
     1
1070
    44
1040
1.0
1070
    74
1070
     0
1000
MTEXTEND
  0
POINT
  5
9821
330
900C
100
AcDbEntity
  8
DEFPOINTS
 62
     0
 48
15.0
100
AcDbPoint
 10
6883.667693423517
 20
2254.779571455445
 30
0.0
  0
POINT
  5
9822
330
900C
100
AcDbEntity
  8
DEFPOINTS
 62
     0
 48
15.0
100
AcDbPoint
 10
7883.667693423515
 20
2254.779571455445
 30
0.0
  0
POINT
  5
9823
330
900C
100
AcDbEntity
  8
DEFPOINTS
 62
     0
 48
15.0
100
AcDbPoint
 10
7883.667693423515
 20
2401.253367090955
 30
0.0
  0
ENDBLK
  5
9017
330
900C
100
AcDbEntity
  8
0
 48
15.0
100
AcDbBlockEnd
  0
BLOCK
  5
9024
330
9018
100
AcDbEntity
  8
0
 48
15.0
100
AcDbBlockBegin
  2
*D50
 70
     1
 10
0.0
 20
0.0
 30
0.0
  3
*D50
  1

  0
LINE
  5
9824
330
9018
100
AcDbEntity
  8
寸法引出
 48
15.0
370
    -2
100
AcDbLine
 10
6883.667693423517
 20
2139.779571455445
 30
0.0
 11
6883.667693423517
 21
2067.168902291049
 31
0.0
  0
LINE
  5
9825
330
9018
100
AcDbEntity
  8
寸法引出
 48
15.0
370
    -2
100
AcDbLine
 10
6928.667693423516
 20
2139.779571455445
 30
0.0
 11
6928.667693423516
 21
2067.168902291049
 31
0.0
  0
LINE
  5
9826
330
9018
100
AcDbEntity
  8
寸法引出
 48
15.0
370
    -2
100
AcDbLine
 10
6861.167693423516
 20
2074.668902291049
 30
0.0
 11
6838.667693423516
 21
2074.668902291049
 31
0.0
  0
LINE
  5
9827
330
9018
100
AcDbEntity
  8
寸法引出
 48
15.0
370
    -2
100
AcDbLine
 10
6951.167693423517
 20
2074.668902291049
 30
0.0
 11
6973.667693423516
 21
2074.668902291049
 31
0.0
  0
LINE
  5
9828
330
9018
100
AcDbEntity
  8
寸法引出
 48
15.0
370
    -2
100
AcDbLine
 10
6883.667693423517
 20
2074.668902291049
 30
0.0
 11
6928.667693423516
 21
2074.668902291049
 31
0.0
  0
SOLID
  5
9829
330
9018
100
AcDbEntity
  8
寸法引出
 48
15.0
100
AcDbTrace
 10
6861.167693423516
 20
2078.418902291049
 30
0.0
 11
6861.167693423516
 21
2070.918902291049
 31
0.0
 12
6883.667693423517
 22
2074.668902291049
 32
0.0
 13
6883.667693423517
 23
2074.668902291049
 33
0.0
  0
SOLID
  5
982A
330
9018
100
AcDbEntity
  8
寸法引出
 48
15.0
100
AcDbTrace
 10
6951.167693423517
 20
2078.418902291049
 30
0.0
 11
6951.167693423517
 21
2070.918902291049
 31
0.0
 12
6928.667693423516
 22
2074.668902291049
 32
0.0
 13
6928.667693423516
 23
2074.668902291049
 33
0.0
  0
MTEXT
  5
982B
330
9018
100
AcDbEntity
  8
寸法引出
 48
15.0
100
AcDbMText
 10
6906.167693423516
 20
2104.668902291049
 30
0.0
 40
30.0
 41
0.0
 71
     5
 72
     1
  1
\A1;45
  7
SANWA
 73
     1
 44
1.0
1001
ACAD
1000
MTEXTBEGIN
1070
    73
1070
     1
1070
    44
1040
1.0
1070
    74
1070
     0
1000
MTEXTEND
  0
POINT
  5
982C
330
9018
100
AcDbEntity
  8
DEFPOINTS
 62
     0
 48
15.0
100
AcDbPoint
 10
6883.667693423517
 20
2154.779571455446
 30
0.0
  0
POINT
  5
982D
330
9018
100
AcDbEntity
  8
DEFPOINTS
 62
     0
 48
15.0
100
AcDbPoint
 10
6928.667693423516
 20
2154.779571455446
 30
0.0
  0
POINT
  5
982E
330
9018
100
AcDbEntity
  8
DEFPOINTS
 62
     0
 48
15.0
100
AcDbPoint
 10
6928.667693423516
 20
2074.668902291049
 30
0.0
  0
ENDBLK
  5
9025
330
9018
100
AcDbEntity
  8
0
 48
15.0
100
AcDbBlockEnd
  0
BLOCK
  5
9031
330
9026
100
AcDbEntity
  8
0
 48
15.0
100
AcDbBlockBegin
  2
*D51
 70
     1
 10
0.0
 20
0.0
 30
0.0
  3
*D51
  1

  0
LINE
  5
982F
330
9026
100
AcDbEntity
  8
寸法引出
 48
15.0
370
    -2
100
AcDbLine
 10
6497.006840264328
 20
1741.567751500804
 30
0.0
 11
6778.665493113455
 21
1741.567751500803
 31
0.0
  0
LINE
  5
9830
330
9026
100
AcDbEntity
  8
寸法引出
 48
15.0
370
    -2
100
AcDbLine
 10
6771.165493113454
 20
1674.067751500803
 30
0.0
 11
6771.165493113454
 21
1651.567751500803
 31
0.0
  0
LINE
  5
9831
330
9026
100
AcDbEntity
  8
寸法引出
 48
15.0
370
    -2
100
AcDbLine
 10
6771.165493113454
 20
1764.067751500803
 30
0.0
 11
6771.165493113454
 21
1786.567751500803
 31
0.0
  0
LINE
  5
9832
330
9026
100
AcDbEntity
  8
寸法引出
 48
15.0
370
    -2
100
AcDbLine
 10
6771.165493113454
 20
1696.567751500803
 30
0.0
 11
6771.165493113454
 21
1741.567751500803
 31
0.0
  0
SOLID
  5
9833
330
9026
100
AcDbEntity
  8
寸法引出
 48
15.0
100
AcDbTrace
 10
6767.415493113455
 20
1674.067751500803
 30
0.0
 11
6774.915493113454
 21
1674.067751500803
 31
0.0
 12
6771.165493113454
 22
1696.567751500803
 32
0.0
 13
6771.165493113454
 23
1696.567751500803
 33
0.0
  0
SOLID
  5
9834
330
9026
100
AcDbEntity
  8
寸法引出
 48
15.0
100
AcDbTrace
 10
6767.415493113455
 20
1764.067751500803
 30
0.0
 11
6774.915493113454
 21
1764.067751500803
 31
0.0
 12
6771.165493113454
 22
1741.567751500803
 32
0.0
 13
6771.165493113454
 23
1741.567751500803
 33
0.0
  0
MTEXT
  5
9835
330
9026
100
AcDbEntity
  8
寸法引出
 48
15.0
100
AcDbMText
 10
6741.165493113455
 20
1719.067751500805
 30
0.0
 40
30.0
 41
0.0
 71
     5
 72
     1
  1
\A1;45
  7
SANWA
 11
0.0000000000000001
 21
1.0
 31
0.0
 73
     1
 44
1.0
1001
ACAD
1000
MTEXTBEGIN
1070
    73
1070
     1
1070
    44
1040
1.0
1070
    74
1070
     0
1000
MTEXTEND
  0
POINT
  5
9836
330
9026
100
AcDbEntity
  8
DEFPOINTS
 62
     0
 48
15.0
100
AcDbPoint
 10
6482.006840264329
 20
1696.567751500804
 30
0.0
  0
POINT
  5
9837
330
9026
100
AcDbEntity
  8
DEFPOINTS
 62
     0
 48
15.0
100
AcDbPoint
 10
6482.006840264329
 20
1741.567751500804
 30
0.0
  0
POINT
  5
9838
330
9026
100
AcDbEntity
  8
DEFPOINTS
 62
     0
 48
15.0
100
AcDbPoint
 10
6771.165493113454
 20
1741.567751500803
 30
0.0
  0
ENDBLK
  5
9032
330
9026
100
AcDbEntity
  8
0
 48
15.0
100
AcDbBlockEnd
  0
BLOCK
  5
903C
330
9033
100
AcDbEntity
  8
0
 48
15.0
100
AcDbBlockBegin
  2
*D52
 70
     1
 10
0.0
 20
0.0
 30
0.0
  3
*D52
  1

  0
LINE
  5
9839
330
9033
100
AcDbEntity
  8
寸法引出
 48
15.0
370
    -2
100
AcDbLine
 10
6482.006840264329
 20
1756.567751500804
 30
0.0
 11
6482.006840264329
 21
1838.511256165644
 31
0.0
  0
LINE
  5
983A
330
9033
100
AcDbEntity
  8
寸法引出
 48
15.0
370
    -2
100
AcDbLine
 10
6419.50684026433
 20
1831.011256165644
 30
0.0
 11
6459.506840264328
 21
1831.011256165644
 31
0.0
  0
SOLID
  5
983B
330
9033
100
AcDbEntity
  8
寸法引出
 48
15.0
100
AcDbTrace
 10
6419.50684026433
 20
1834.761256165644
 30
0.0
 11
6419.50684026433
 21
1827.261256165644
 31
0.0
 12
6397.00684026433
 22
1831.011256165644
 32
0.0
 13
6397.00684026433
 23
1831.011256165644
 33
0.0
  0
SOLID
  5
983C
330
9033
100
AcDbEntity
  8
寸法引出
 48
15.0
100
AcDbTrace
 10
6459.506840264328
 20
1834.761256165644
 30
0.0
 11
6459.506840264328
 21
1827.261256165644
 31
0.0
 12
6482.006840264329
 22
1831.011256165644
 32
0.0
 13
6482.006840264329
 23
1831.011256165644
 33
0.0
  0
MTEXT
  5
983D
330
9033
100
AcDbEntity
  8
寸法引出
 48
15.0
100
AcDbMText
 10
6439.506840264328
 20
1861.011256165644
 30
0.0
 40
30.0
 41
0.0
 71
     5
 72
     1
  1
\A1;85
  7
SANWA
 73
     1
 44
1.0
1001
ACAD
1000
MTEXTBEGIN
1070
    73
1070
     1
1070
    44
1040
1.0
1070
    74
1070
     0
1000
MTEXTEND
  0
POINT
  5
983E
330
9033
100
AcDbEntity
  8
DEFPOINTS
 62
     0
 48
15.0
100
AcDbPoint
 10
6397.00684026433
 20
1741.567751500804
 30
0.0
  0
POINT
  5
983F
330
9033
100
AcDbEntity
  8
DEFPOINTS
 62
     0
 48
15.0
100
AcDbPoint
 10
6482.006840264329
 20
1741.567751500804
 30
0.0
  0
POINT
  5
9840
330
9033
100
AcDbEntity
  8
DEFPOINTS
 62
     0
 48
15.0
100
AcDbPoint
 10
6482.006840264329
 20
1831.011256165644
 30
0.0
  0
ENDBLK
  5
903D
330
9033
100
AcDbEntity
  8
0
 48
15.0
100
AcDbBlockEnd
  0
BLOCK
  5
9047
330
903E
100
AcDbEntity
  8
0
 48
15.0
100
AcDbBlockBegin
  2
*D53
 70
     1
 10
0.0
 20
0.0
 30
0.0
  3
*D53
  1

  0
LINE
  5
9841
330
903E
100
AcDbEntity
  8
寸法引出
 48
15.0
370
    -2
100
AcDbLine
 10
6397.00684026433
 20
1756.567751500804
 30
0.0
 11
6397.00684026433
 21
1838.511256165644
 31
0.0
  0
LINE
  5
9842
330
903E
100
AcDbEntity
  8
寸法引出
 48
15.0
370
    -2
100
AcDbLine
 10
6189.50684026433
 20
1831.011256165644
 30
0.0
 11
6374.506840264331
 21
1831.011256165644
 31
0.0
  0
SOLID
  5
9843
330
903E
100
AcDbEntity
  8
寸法引出
 48
15.0
100
AcDbTrace
 10
6189.50684026433
 20
1834.761256165644
 30
0.0
 11
6189.50684026433
 21
1827.261256165644
 31
0.0
 12
6167.00684026433
 22
1831.011256165644
 32
0.0
 13
6167.00684026433
 23
1831.011256165644
 33
0.0
  0
SOLID
  5
9844
330
903E
100
AcDbEntity
  8
寸法引出
 48
15.0
100
AcDbTrace
 10
6374.506840264331
 20
1834.761256165644
 30
0.0
 11
6374.506840264331
 21
1827.261256165644
 31
0.0
 12
6397.00684026433
 22
1831.011256165644
 32
0.0
 13
6397.00684026433
 23
1831.011256165644
 33
0.0
  0
MTEXT
  5
9845
330
903E
100
AcDbEntity
  8
寸法引出
 48
15.0
100
AcDbMText
 10
6282.00684026433
 20
1862.896970451359
 30
0.0
 40
30.0
 41
0.0
 71
     5
 72
     1
  1
\A1;2@115=230
  7
SANWA
 73
     1
 44
1.0
1001
ACAD
1000
MTEXTBEGIN
1070
    73
1070
     1
1070
    44
1040
1.0
1070
    74
1070
     0
1000
MTEXTEND
  0
POINT
  5
9846
330
903E
100
AcDbEntity
  8
DEFPOINTS
 62
     0
 48
15.0
100
AcDbPoint
 10
6167.00684026433
 20
1741.567751500804
 30
0.0
  0
POINT
  5
9847
330
903E
100
AcDbEntity
  8
DEFPOINTS
 62
     0
 48
15.0
100
AcDbPoint
 10
6397.00684026433
 20
1741.567751500804
 30
0.0
  0
POINT
  5
9848
330
903E
100
AcDbEntity
  8
DEFPOINTS
 62
     0
 48
15.0
100
AcDbPoint
 10
6397.00684026433
 20
1831.011256165644
 30
0.0
  0
ENDBLK
  5
9048
330
903E
100
AcDbEntity
  8
0
 48
15.0
100
AcDbBlockEnd
  0
BLOCK
  5
9053
330
9049
100
AcDbEntity
  8
0
 48
15.0
100
AcDbBlockBegin
  2
*D54
 70
     1
 10
0.0
 20
0.0
 30
0.0
  3
*D54
  1

  0
LINE
  5
9849
330
9049
100
AcDbEntity
  8
寸法引出
 48
15.0
370
    -2
100
AcDbLine
 10
6082.006840264329
 20
1756.567751500804
 30
0.0
 11
6082.006840264329
 21
1838.511256165644
 31
0.0
  0
LINE
  5
984A
330
9049
100
AcDbEntity
  8
寸法引出
 48
15.0
370
    -2
100
AcDbLine
 10
6167.00684026433
 20
1756.567751500804
 30
0.0
 11
6167.00684026433
 21
1838.511256165644
 31
0.0
  0
LINE
  5
984B
330
9049
100
AcDbEntity
  8
寸法引出
 48
15.0
370
    -2
100
AcDbLine
 10
6104.506840264328
 20
1831.011256165644
 30
0.0
 11
6144.50684026433
 21
1831.011256165644
 31
0.0
  0
SOLID
  5
984C
330
9049
100
AcDbEntity
  8
寸法引出
 48
15.0
100
AcDbTrace
 10
6104.506840264328
 20
1834.761256165644
 30
0.0
 11
6104.506840264328
 21
1827.261256165644
 31
0.0
 12
6082.006840264329
 22
1831.011256165644
 32
0.0
 13
6082.006840264329
 23
1831.011256165644
 33
0.0
  0
SOLID
  5
984D
330
9049
100
AcDbEntity
  8
寸法引出
 48
15.0
100
AcDbTrace
 10
6144.50684026433
 20
1834.761256165644
 30
0.0
 11
6144.50684026433
 21
1827.261256165644
 31
0.0
 12
6167.00684026433
 22
1831.011256165644
 32
0.0
 13
6167.00684026433
 23
1831.011256165644
 33
0.0
  0
MTEXT
  5
984E
330
9049
100
AcDbEntity
  8
寸法引出
 48
15.0
100
AcDbMText
 10
6124.506840264329
 20
1861.011256165644
 30
0.0
 40
30.0
 41
0.0
 71
     5
 72
     1
  1
\A1;85
  7
SANWA
 73
     1
 44
1.0
1001
ACAD
1000
MTEXTBEGIN
1070
    73
1070
     1
1070
    44
1040
1.0
1070
    74
1070
     0
1000
MTEXTEND
  0
POINT
  5
984F
330
9049
100
AcDbEntity
  8
DEFPOINTS
 62
     0
 48
15.0
100
AcDbPoint
 10
6082.006840264329
 20
1741.567751500804
 30
0.0
  0
POINT
  5
9850
330
9049
100
AcDbEntity
  8
DEFPOINTS
 62
     0
 48
15.0
100
AcDbPoint
 10
6167.00684026433
 20
1741.567751500804
 30
0.0
  0
POINT
  5
9851
330
9049
100
AcDbEntity
  8
DEFPOINTS
 62
     0
 48
15.0
100
AcDbPoint
 10
6167.00684026433
 20
1831.011256165644
 30
0.0
  0
ENDBLK
  5
9054
330
9049
100
AcDbEntity
  8
0
 48
15.0
100
AcDbBlockEnd
  0
BLOCK
  5
905F
330
9055
100
AcDbEntity
  8
0
 48
15.0
100
AcDbBlockBegin
  2
*D55
 70
     1
 10
0.0
 20
0.0
 30
0.0
  3
*D55
  1

  0
LINE
  5
9852
330
9055
100
AcDbEntity
  8
寸法引出
 48
15.0
370
    -2
100
AcDbLine
 10
6082.006840264329
 20
1756.567751500804
 30
0.0
 11
6082.006840264329
 21
1902.314321100357
 31
0.0
  0
LINE
  5
9853
330
9055
100
AcDbEntity
  8
寸法引出
 48
15.0
370
    -2
100
AcDbLine
 10
6482.006840264329
 20
1756.567751500804
 30
0.0
 11
6482.006840264329
 21
1902.314321100357
 31
0.0
  0
LINE
  5
9854
330
9055
100
AcDbEntity
  8
寸法引出
 48
15.0
370
    -2
100
AcDbLine
 10
6104.506840264328
 20
1894.814321100357
 30
0.0
 11
6459.506840264328
 21
1894.814321100357
 31
0.0
  0
SOLID
  5
9855
330
9055
100
AcDbEntity
  8
寸法引出
 48
15.0
100
AcDbTrace
 10
6104.506840264328
 20
1898.564321100357
 30
0.0
 11
6104.506840264328
 21
1891.064321100357
 31
0.0
 12
6082.006840264329
 22
1894.814321100357
 32
0.0
 13
6082.006840264329
 23
1894.814321100357
 33
0.0
  0
SOLID
  5
9856
330
9055
100
AcDbEntity
  8
寸法引出
 48
15.0
100
AcDbTrace
 10
6459.506840264328
 20
1898.564321100357
 30
0.0
 11
6459.506840264328
 21
1891.064321100357
 31
0.0
 12
6482.006840264329
 22
1894.814321100357
 32
0.0
 13
6482.006840264329
 23
1894.814321100357
 33
0.0
  0
MTEXT
  5
9857
330
9055
100
AcDbEntity
  8
寸法引出
 48
15.0
100
AcDbMText
 10
6282.006840264329
 20
1924.814321100357
 30
0.0
 40
30.0
 41
0.0
 71
     5
 72
     1
  1
\A1;400
  7
SANWA
 73
     1
 44
1.0
1001
ACAD
1000
MTEXTBEGIN
1070
    73
1070
     1
1070
    44
1040
1.0
1070
    74
1070
     0
1000
MTEXTEND
  0
POINT
  5
9858
330
9055
100
AcDbEntity
  8
DEFPOINTS
 62
     0
 48
15.0
100
AcDbPoint
 10
6082.006840264329
 20
1741.567751500804
 30
0.0
  0
POINT
  5
9859
330
9055
100
AcDbEntity
  8
DEFPOINTS
 62
     0
 48
15.0
100
AcDbPoint
 10
6482.006840264329
 20
1741.567751500804
 30
0.0
  0
POINT
  5
985A
330
9055
100
AcDbEntity
  8
DEFPOINTS
 62
     0
 48
15.0
100
AcDbPoint
 10
6482.006840264329
 20
1894.814321100357
 30
0.0
  0
ENDBLK
  5
9060
330
9055
100
AcDbEntity
  8
0
 48
15.0
100
AcDbBlockEnd
  0
BLOCK
  5
906C
330
9061
100
AcDbEntity
  8
0
 48
15.0
100
AcDbBlockBegin
  2
*D56
 70
     1
 10
0.0
 20
0.0
 30
0.0
  3
*D56
  1

  0
LINE
  5
985B
330
9061
100
AcDbEntity
  8
寸法引出
 48
15.0
370
    -2
100
AcDbLine
 10
6497.006840264328
 20
2254.779571455445
 30
0.0
 11
6603.563746345914
 21
2254.779571455445
 31
0.0
  0
LINE
  5
985C
330
9061
100
AcDbEntity
  8
寸法引出
 48
15.0
370
    -2
100
AcDbLine
 10
6596.063746345913
 20
2162.279571455445
 30
0.0
 11
6596.063746345913
 21
2139.779571455445
 31
0.0
  0
LINE
  5
985D
330
9061
100
AcDbEntity
  8
寸法引出
 48
15.0
370
    -2
100
AcDbLine
 10
6596.063746345913
 20
2277.279571455446
 30
0.0
 11
6596.063746345913
 21
2299.779571455445
 31
0.0
  0
LINE
  5
985E
330
9061
100
AcDbEntity
  8
寸法引出
 48
15.0
370
    -2
100
AcDbLine
 10
6596.063746345913
 20
2184.779571455445
 30
0.0
 11
6596.063746345913
 21
2254.779571455445
 31
0.0
  0
SOLID
  5
985F
330
9061
100
AcDbEntity
  8
寸法引出
 48
15.0
100
AcDbTrace
 10
6592.313746345914
 20
2162.279571455445
 30
0.0
 11
6599.813746345913
 21
2162.279571455445
 31
0.0
 12
6596.063746345913
 22
2184.779571455445
 32
0.0
 13
6596.063746345913
 23
2184.779571455445
 33
0.0
  0
SOLID
  5
9860
330
9061
100
AcDbEntity
  8
寸法引出
 48
15.0
100
AcDbTrace
 10
6592.313746345914
 20
2277.279571455446
 30
0.0
 11
6599.813746345913
 21
2277.279571455446
 31
0.0
 12
6596.063746345913
 22
2254.779571455445
 32
0.0
 13
6596.063746345913
 23
2254.779571455445
 33
0.0
  0
MTEXT
  5
9861
330
9061
100
AcDbEntity
  8
寸法引出
 48
15.0
100
AcDbMText
 10
6566.063746345912
 20
2219.779571455446
 30
0.0
 40
30.0
 41
0.0
 71
     5
 72
     1
  1
\A1;70
  7
SANWA
 11
0.0000000000000001
 21
1.0
 31
0.0
 73
     1
 44
1.0
1001
ACAD
1000
MTEXTBEGIN
1070
    73
1070
     1
1070
    44
1040
1.0
1070
    74
1070
     0
1000
MTEXTEND
  0
POINT
  5
9862
330
9061
100
AcDbEntity
  8
DEFPOINTS
 62
     0
 48
15.0
100
AcDbPoint
 10
6482.006840264329
 20
2184.779571455445
 30
0.0
  0
POINT
  5
9863
330
9061
100
AcDbEntity
  8
DEFPOINTS
 62
     0
 48
15.0
100
AcDbPoint
 10
6482.006840264329
 20
2254.779571455445
 30
0.0
  0
POINT
  5
9864
330
9061
100
AcDbEntity
  8
DEFPOINTS
 62
     0
 48
15.0
100
AcDbPoint
 10
6596.063746345913
 20
2254.779571455445
 30
0.0
  0
ENDBLK
  5
906D
330
9061
100
AcDbEntity
  8
0
 48
15.0
100
AcDbBlockEnd
  0
BLOCK
  5
9078
330
906E
100
AcDbEntity
  8
0
 48
15.0
100
AcDbBlockBegin
  2
*D57
 70
     1
 10
0.0
 20
0.0
 30
0.0
  3
*D57
  1

  0
LINE
  5
9865
330
906E
100
AcDbEntity
  8
寸法引出
 48
15.0
370
    -2
100
AcDbLine
 10
6497.006840264328
 20
2154.779571455446
 30
0.0
 11
6672.888354278765
 21
2154.779571455446
 31
0.0
  0
LINE
  5
9866
330
906E
100
AcDbEntity
  8
寸法引出
 48
15.0
370
    -2
100
AcDbLine
 10
6497.006840264328
 20
2254.779571455445
 30
0.0
 11
6672.888354278765
 21
2254.779571455445
 31
0.0
  0
LINE
  5
9867
330
906E
100
AcDbEntity
  8
寸法引出
 48
15.0
370
    -2
100
AcDbLine
 10
6665.388354278767
 20
2177.279571455446
 30
0.0
 11
6665.388354278767
 21
2232.279571455446
 31
0.0
  0
SOLID
  5
9868
330
906E
100
AcDbEntity
  8
寸法引出
 48
15.0
100
AcDbTrace
 10
6661.638354278766
 20
2177.279571455446
 30
0.0
 11
6669.138354278766
 21
2177.279571455446
 31
0.0
 12
6665.388354278767
 22
2154.779571455446
 32
0.0
 13
6665.388354278767
 23
2154.779571455446
 33
0.0
  0
SOLID
  5
9869
330
906E
100
AcDbEntity
  8
寸法引出
 48
15.0
100
AcDbTrace
 10
6661.638354278766
 20
2232.279571455446
 30
0.0
 11
6669.138354278766
 21
2232.279571455446
 31
0.0
 12
6665.388354278767
 22
2254.779571455445
 32
0.0
 13
6665.388354278767
 23
2254.779571455445
 33
0.0
  0
MTEXT
  5
986A
330
906E
100
AcDbEntity
  8
寸法引出
 48
15.0
100
AcDbMText
 10
6635.388354278766
 20
2204.779571455446
 30
0.0
 40
30.0
 41
0.0
 71
     5
 72
     1
  1
\A1;100
  7
SANWA
 11
0.0000000000000001
 21
1.0
 31
0.0
 73
     1
 44
1.0
1001
ACAD
1000
MTEXTBEGIN
1070
    73
1070
     1
1070
    44
1040
1.0
1070
    74
1070
     0
1000
MTEXTEND
  0
POINT
  5
986B
330
906E
100
AcDbEntity
  8
DEFPOINTS
 62
     0
 48
15.0
100
AcDbPoint
 10
6482.006840264329
 20
2154.779571455446
 30
0.0
  0
POINT
  5
986C
330
906E
100
AcDbEntity
  8
DEFPOINTS
 62
     0
 48
15.0
100
AcDbPoint
 10
6482.006840264329
 20
2254.779571455445
 30
0.0
  0
POINT
  5
986D
330
906E
100
AcDbEntity
  8
DEFPOINTS
 62
     0
 48
15.0
100
AcDbPoint
 10
6665.388354278767
 20
2254.779571455445
 30
0.0
  0
ENDBLK
  5
9079
330
906E
100
AcDbEntity
  8
0
 48
15.0
100
AcDbBlockEnd
  0
BLOCK
  5
9083
330
907A
100
AcDbEntity
  8
0
 48
15.0
100
AcDbBlockBegin
  2
*D58
 70
     1
 10
0.0
 20
0.0
 30
0.0
  3
*D58
  1

  0
LINE
  5
986E
330
907A
100
AcDbEntity
  8
寸法引出
 48
15.0
370
    -2
100
AcDbLine
 10
6482.006840264329
 20
2269.779571455446
 30
0.0
 11
6482.006840264329
 21
2344.070965038612
 31
0.0
  0
LINE
  5
986F
330
907A
100
AcDbEntity
  8
寸法引出
 48
15.0
370
    -2
100
AcDbLine
 10
6419.50684026433
 20
2336.570965038613
 30
0.0
 11
6459.506840264328
 21
2336.570965038613
 31
0.0
  0
SOLID
  5
9870
330
907A
100
AcDbEntity
  8
寸法引出
 48
15.0
100
AcDbTrace
 10
6419.50684026433
 20
2340.320965038612
 30
0.0
 11
6419.50684026433
 21
2332.820965038612
 31
0.0
 12
6397.00684026433
 22
2336.570965038613
 32
0.0
 13
6397.00684026433
 23
2336.570965038613
 33
0.0
  0
SOLID
  5
9871
330
907A
100
AcDbEntity
  8
寸法引出
 48
15.0
100
AcDbTrace
 10
6459.506840264328
 20
2340.320965038612
 30
0.0
 11
6459.506840264328
 21
2332.820965038612
 31
0.0
 12
6482.006840264329
 22
2336.570965038613
 32
0.0
 13
6482.006840264329
 23
2336.570965038613
 33
0.0
  0
MTEXT
  5
9872
330
907A
100
AcDbEntity
  8
寸法引出
 48
15.0
100
AcDbMText
 10
6439.506840264328
 20
2366.570965038613
 30
0.0
 40
30.0
 41
0.0
 71
     5
 72
     1
  1
\A1;85
  7
SANWA
 73
     1
 44
1.0
1001
ACAD
1000
MTEXTBEGIN
1070
    73
1070
     1
1070
    44
1040
1.0
1070
    74
1070
     0
1000
MTEXTEND
  0
POINT
  5
9873
330
907A
100
AcDbEntity
  8
DEFPOINTS
 62
     0
 48
15.0
100
AcDbPoint
 10
6397.00684026433
 20
2254.779571455445
 30
0.0
  0
POINT
  5
9874
330
907A
100
AcDbEntity
  8
DEFPOINTS
 62
     0
 48
15.0
100
AcDbPoint
 10
6482.006840264329
 20
2254.779571455445
 30
0.0
  0
POINT
  5
9875
330
907A
100
AcDbEntity
  8
DEFPOINTS
 62
     0
 48
15.0
100
AcDbPoint
 10
6482.006840264329
 20
2336.570965038613
 30
0.0
  0
ENDBLK
  5
9084
330
907A
100
AcDbEntity
  8
0
 48
15.0
100
AcDbBlockEnd
  0
BLOCK
  5
908E
330
9085
100
AcDbEntity
  8
0
 48
15.0
100
AcDbBlockBegin
  2
*D59
 70
     1
 10
0.0
 20
0.0
 30
0.0
  3
*D59
  1

  0
LINE
  5
9876
330
9085
100
AcDbEntity
  8
寸法引出
 48
15.0
370
    -2
100
AcDbLine
 10
6397.00684026433
 20
2269.779571455446
 30
0.0
 11
6397.00684026433
 21
2344.070965038612
 31
0.0
  0
LINE
  5
9877
330
9085
100
AcDbEntity
  8
寸法引出
 48
15.0
370
    -2
100
AcDbLine
 10
6189.50684026433
 20
2336.570965038613
 30
0.0
 11
6374.506840264331
 21
2336.570965038613
 31
0.0
  0
SOLID
  5
9878
330
9085
100
AcDbEntity
  8
寸法引出
 48
15.0
100
AcDbTrace
 10
6189.50684026433
 20
2340.320965038612
 30
0.0
 11
6189.50684026433
 21
2332.820965038612
 31
0.0
 12
6167.00684026433
 22
2336.570965038613
 32
0.0
 13
6167.00684026433
 23
2336.570965038613
 33
0.0
  0
SOLID
  5
9879
330
9085
100
AcDbEntity
  8
寸法引出
 48
15.0
100
AcDbTrace
 10
6374.506840264331
 20
2340.320965038612
 30
0.0
 11
6374.506840264331
 21
2332.820965038612
 31
0.0
 12
6397.00684026433
 22
2336.570965038613
 32
0.0
 13
6397.00684026433
 23
2336.570965038613
 33
0.0
  0
MTEXT
  5
987A
330
9085
100
AcDbEntity
  8
寸法引出
 48
15.0
100
AcDbMText
 10
6282.00684026433
 20
2368.456679324327
 30
0.0
 40
30.0
 41
0.0
 71
     5
 72
     1
  1
\A1;2@115=230
  7
SANWA
 73
     1
 44
1.0
1001
ACAD
1000
MTEXTBEGIN
1070
    73
1070
     1
1070
    44
1040
1.0
1070
    74
1070
     0
1000
MTEXTEND
  0
POINT
  5
987B
330
9085
100
AcDbEntity
  8
DEFPOINTS
 62
     0
 48
15.0
100
AcDbPoint
 10
6167.00684026433
 20
2254.779571455445
 30
0.0
  0
POINT
  5
987C
330
9085
100
AcDbEntity
  8
DEFPOINTS
 62
     0
 48
15.0
100
AcDbPoint
 10
6397.00684026433
 20
2254.779571455445
 30
0.0
  0
POINT
  5
987D
330
9085
100
AcDbEntity
  8
DEFPOINTS
 62
     0
 48
15.0
100
AcDbPoint
 10
6397.00684026433
 20
2336.570965038613
 30
0.0
  0
ENDBLK
  5
908F
330
9085
100
AcDbEntity
  8
0
 48
15.0
100
AcDbBlockEnd
  0
BLOCK
  5
909A
330
9090
100
AcDbEntity
  8
0
 48
15.0
100
AcDbBlockBegin
  2
*D60
 70
     1
 10
0.0
 20
0.0
 30
0.0
  3
*D60
  1

  0
LINE
  5
987E
330
9090
100
AcDbEntity
  8
寸法引出
 48
15.0
370
    -2
100
AcDbLine
 10
6082.006840264329
 20
2269.779571455446
 30
0.0
 11
6082.006840264329
 21
2344.070965038612
 31
0.0
  0
LINE
  5
987F
330
9090
100
AcDbEntity
  8
寸法引出
 48
15.0
370
    -2
100
AcDbLine
 10
6167.00684026433
 20
2269.779571455446
 30
0.0
 11
6167.00684026433
 21
2344.070965038612
 31
0.0
  0
LINE
  5
9880
330
9090
100
AcDbEntity
  8
寸法引出
 48
15.0
370
    -2
100
AcDbLine
 10
6104.506840264328
 20
2336.570965038613
 30
0.0
 11
6144.50684026433
 21
2336.570965038613
 31
0.0
  0
SOLID
  5
9881
330
9090
100
AcDbEntity
  8
寸法引出
 48
15.0
100
AcDbTrace
 10
6104.506840264328
 20
2340.320965038612
 30
0.0
 11
6104.506840264328
 21
2332.820965038612
 31
0.0
 12
6082.006840264329
 22
2336.570965038613
 32
0.0
 13
6082.006840264329
 23
2336.570965038613
 33
0.0
  0
SOLID
  5
9882
330
9090
100
AcDbEntity
  8
寸法引出
 48
15.0
100
AcDbTrace
 10
6144.50684026433
 20
2340.320965038612
 30
0.0
 11
6144.50684026433
 21
2332.820965038612
 31
0.0
 12
6167.00684026433
 22
2336.570965038613
 32
0.0
 13
6167.00684026433
 23
2336.570965038613
 33
0.0
  0
MTEXT
  5
9883
330
9090
100
AcDbEntity
  8
寸法引出
 48
15.0
100
AcDbMText
 10
6124.506840264329
 20
2366.570965038613
 30
0.0
 40
30.0
 41
0.0
 71
     5
 72
     1
  1
\A1;85
  7
SANWA
 73
     1
 44
1.0
1001
ACAD
1000
MTEXTBEGIN
1070
    73
1070
     1
1070
    44
1040
1.0
1070
    74
1070
     0
1000
MTEXTEND
  0
POINT
  5
9884
330
9090
100
AcDbEntity
  8
DEFPOINTS
 62
     0
 48
15.0
100
AcDbPoint
 10
6082.006840264329
 20
2254.779571455445
 30
0.0
  0
POINT
  5
9885
330
9090
100
AcDbEntity
  8
DEFPOINTS
 62
     0
 48
15.0
100
AcDbPoint
 10
6167.00684026433
 20
2254.779571455445
 30
0.0
  0
POINT
  5
9886
330
9090
100
AcDbEntity
  8
DEFPOINTS
 62
     0
 48
15.0
100
AcDbPoint
 10
6167.00684026433
 20
2336.570965038613
 30
0.0
  0
ENDBLK
  5
909B
330
9090
100
AcDbEntity
  8
0
 48
15.0
100
AcDbBlockEnd
  0
BLOCK
  5
90A6
330
909C
100
AcDbEntity
  8
0
 48
15.0
100
AcDbBlockBegin
  2
*D61
 70
     1
 10
0.0
 20
0.0
 30
0.0
  3
*D61
  1

  0
LINE
  5
9887
330
909C
100
AcDbEntity
  8
寸法引出
 48
15.0
370
    -2
100
AcDbLine
 10
6082.006840264329
 20
2269.779571455446
 30
0.0
 11
6082.006840264329
 21
2408.753367090954
 31
0.0
  0
LINE
  5
9888
330
909C
100
AcDbEntity
  8
寸法引出
 48
15.0
370
    -2
100
AcDbLine
 10
6482.006840264329
 20
2269.779571455446
 30
0.0
 11
6482.006840264329
 21
2408.753367090954
 31
0.0
  0
LINE
  5
9889
330
909C
100
AcDbEntity
  8
寸法引出
 48
15.0
370
    -2
100
AcDbLine
 10
6104.506840264328
 20
2401.253367090955
 30
0.0
 11
6459.506840264328
 21
2401.253367090955
 31
0.0
  0
SOLID
  5
988A
330
909C
100
AcDbEntity
  8
寸法引出
 48
15.0
100
AcDbTrace
 10
6104.506840264328
 20
2405.003367090954
 30
0.0
 11
6104.506840264328
 21
2397.503367090954
 31
0.0
 12
6082.006840264329
 22
2401.253367090955
 32
0.0
 13
6082.006840264329
 23
2401.253367090955
 33
0.0
  0
SOLID
  5
988B
330
909C
100
AcDbEntity
  8
寸法引出
 48
15.0
100
AcDbTrace
 10
6459.506840264328
 20
2405.003367090954
 30
0.0
 11
6459.506840264328
 21
2397.503367090954
 31
0.0
 12
6482.006840264329
 22
2401.253367090955
 32
0.0
 13
6482.006840264329
 23
2401.253367090955
 33
0.0
  0
MTEXT
  5
988C
330
909C
100
AcDbEntity
  8
寸法引出
 48
15.0
100
AcDbMText
 10
6282.006840264329
 20
2431.253367090955
 30
0.0
 40
30.0
 41
0.0
 71
     5
 72
     1
  1
\A1;400
  7
SANWA
 73
     1
 44
1.0
1001
ACAD
1000
MTEXTBEGIN
1070
    73
1070
     1
1070
    44
1040
1.0
1070
    74
1070
     0
1000
MTEXTEND
  0
POINT
  5
988D
330
909C
100
AcDbEntity
  8
DEFPOINTS
 62
     0
 48
15.0
100
AcDbPoint
 10
6082.006840264329
 20
2254.779571455445
 30
0.0
  0
POINT
  5
988E
330
909C
100
AcDbEntity
  8
DEFPOINTS
 62
     0
 48
15.0
100
AcDbPoint
 10
6482.006840264329
 20
2254.779571455445
 30
0.0
  0
POINT
  5
988F
330
909C
100
AcDbEntity
  8
DEFPOINTS
 62
     0
 48
15.0
100
AcDbPoint
 10
6482.006840264329
 20
2401.253367090955
 30
0.0
  0
ENDBLK
  5
90A7
330
909C
100
AcDbEntity
  8
0
 48
15.0
100
AcDbBlockEnd
  0
BLOCK
  5
90B3
330
90A8
100
AcDbEntity
  8
0
 48
15.0
100
AcDbBlockBegin
  2
*D62
 70
     1
 10
0.0
 20
0.0
 30
0.0
  3
*D62
  1

  0
LINE
  5
9890
330
90A8
100
AcDbEntity
  8
寸法引出
 48
15.0
370
    -2
100
AcDbLine
 10
7883.667693423515
 20
2139.779571455445
 30
0.0
 11
7883.667693423515
 21
2067.168902291049
 31
0.0
  0
LINE
  5
9891
330
90A8
100
AcDbEntity
  8
寸法引出
 48
15.0
370
    -2
100
AcDbLine
 10
7816.167693423515
 20
2074.668902291049
 30
0.0
 11
7793.667693423515
 21
2074.668902291049
 31
0.0
  0
LINE
  5
9892
330
90A8
100
AcDbEntity
  8
寸法引出
 48
15.0
370
    -2
100
AcDbLine
 10
7906.167693423515
 20
2074.668902291049
 30
0.0
 11
7928.667693423514
 21
2074.668902291049
 31
0.0
  0
LINE
  5
9893
330
90A8
100
AcDbEntity
  8
寸法引出
 48
15.0
370
    -2
100
AcDbLine
 10
7838.667693423515
 20
2074.668902291049
 30
0.0
 11
7883.667693423515
 21
2074.668902291049
 31
0.0
  0
SOLID
  5
9894
330
90A8
100
AcDbEntity
  8
寸法引出
 48
15.0
100
AcDbTrace
 10
7816.167693423515
 20
2078.418902291049
 30
0.0
 11
7816.167693423515
 21
2070.918902291049
 31
0.0
 12
7838.667693423515
 22
2074.668902291049
 32
0.0
 13
7838.667693423515
 23
2074.668902291049
 33
0.0
  0
SOLID
  5
9895
330
90A8
100
AcDbEntity
  8
寸法引出
 48
15.0
100
AcDbTrace
 10
7906.167693423515
 20
2078.418902291049
 30
0.0
 11
7906.167693423515
 21
2070.918902291049
 31
0.0
 12
7883.667693423515
 22
2074.668902291049
 32
0.0
 13
7883.667693423515
 23
2074.668902291049
 33
0.0
  0
MTEXT
  5
9896
330
90A8
100
AcDbEntity
  8
寸法引出
 48
15.0
100
AcDbMText
 10
7861.167693423515
 20
2104.668902291049
 30
0.0
 40
30.0
 41
0.0
 71
     5
 72
     1
  1
\A1;45
  7
SANWA
 73
     1
 44
1.0
1001
ACAD
1000
MTEXTBEGIN
1070
    73
1070
     1
1070
    44
1040
1.0
1070
    74
1070
     0
1000
MTEXTEND
  0
POINT
  5
9897
330
90A8
100
AcDbEntity
  8
DEFPOINTS
 62
     0
 48
15.0
100
AcDbPoint
 10
7838.667693423515
 20
2154.779571455446
 30
0.0
  0
POINT
  5
9898
330
90A8
100
AcDbEntity
  8
DEFPOINTS
 62
     0
 48
15.0
100
AcDbPoint
 10
7883.667693423515
 20
2154.779571455446
 30
0.0
  0
POINT
  5
9899
330
90A8
100
AcDbEntity
  8
DEFPOINTS
 62
     0
 48
15.0
100
AcDbPoint
 10
7883.667693423515
 20
2074.668902291049
 30
0.0
  0
ENDBLK
  5
90B4
330
90A8
100
AcDbEntity
  8
0
 48
15.0
100
AcDbBlockEnd
  0
BLOCK
  5
90C0
330
90B5
100
AcDbEntity
  8
0
 48
15.0
100
AcDbBlockBegin
  2
*D63
 70
     1
 10
0.0
 20
0.0
 30
0.0
  3
*D63
  1

  0
LINE
  5
989A
330
90B5
100
AcDbEntity
  8
寸法引出
 48
15.0
370
    -2
100
AcDbLine
 10
7898.667693423515
 20
2254.779571455445
 30
0.0
 11
7998.098553801246
 21
2254.779571455445
 31
0.0
  0
LINE
  5
989B
330
90B5
100
AcDbEntity
  8
寸法引出
 48
15.0
370
    -2
100
AcDbLine
 10
7990.598553801247
 20
2162.279571455445
 30
0.0
 11
7990.598553801247
 21
2139.779571455445
 31
0.0
  0
LINE
  5
989C
330
90B5
100
AcDbEntity
  8
寸法引出
 48
15.0
370
    -2
100
AcDbLine
 10
7990.598553801247
 20
2277.279571455446
 30
0.0
 11
7990.598553801247
 21
2299.779571455445
 31
0.0
  0
LINE
  5
989D
330
90B5
100
AcDbEntity
  8
寸法引出
 48
15.0
370
    -2
100
AcDbLine
 10
7990.598553801247
 20
2184.779571455445
 30
0.0
 11
7990.598553801247
 21
2254.779571455445
 31
0.0
  0
SOLID
  5
989E
330
90B5
100
AcDbEntity
  8
寸法引出
 48
15.0
100
AcDbTrace
 10
7986.848553801246
 20
2162.279571455445
 30
0.0
 11
7994.348553801247
 21
2162.279571455445
 31
0.0
 12
7990.598553801247
 22
2184.779571455445
 32
0.0
 13
7990.598553801247
 23
2184.779571455445
 33
0.0
  0
SOLID
  5
989F
330
90B5
100
AcDbEntity
  8
寸法引出
 48
15.0
100
AcDbTrace
 10
7986.848553801246
 20
2277.279571455446
 30
0.0
 11
7994.348553801247
 21
2277.279571455446
 31
0.0
 12
7990.598553801247
 22
2254.779571455445
 32
0.0
 13
7990.598553801247
 23
2254.779571455445
 33
0.0
  0
MTEXT
  5
98A0
330
90B5
100
AcDbEntity
  8
寸法引出
 48
15.0
100
AcDbMText
 10
7960.598553801246
 20
2219.779571455447
 30
0.0
 40
30.0
 41
0.0
 71
     5
 72
     1
  1
\A1;70
  7
SANWA
 11
0.0000000000000001
 21
1.0
 31
0.0
 73
     1
 44
1.0
1001
ACAD
1000
MTEXTBEGIN
1070
    73
1070
     1
1070
    44
1040
1.0
1070
    74
1070
     0
1000
MTEXTEND
  0
POINT
  5
98A1
330
90B5
100
AcDbEntity
  8
DEFPOINTS
 62
     0
 48
15.0
100
AcDbPoint
 10
7883.667693423515
 20
2184.779571455445
 30
0.0
  0
POINT
  5
98A2
330
90B5
100
AcDbEntity
  8
DEFPOINTS
 62
     0
 48
15.0
100
AcDbPoint
 10
7883.667693423515
 20
2254.779571455445
 30
0.0
  0
POINT
  5
98A3
330
90B5
100
AcDbEntity
  8
DEFPOINTS
 62
     0
 48
15.0
100
AcDbPoint
 10
7990.598553801247
 20
2254.779571455445
 30
0.0
  0
ENDBLK
  5
90C1
330
90B5
100
AcDbEntity
  8
0
 48
15.0
100
AcDbBlockEnd
  0
BLOCK
  5
90CC
330
90C2
100
AcDbEntity
  8
0
 48
15.0
100
AcDbBlockBegin
  2
*D64
 70
     1
 10
0.0
 20
0.0
 30
0.0
  3
*D64
  1

  0
LINE
  5
98A4
330
90C2
100
AcDbEntity
  8
寸法引出
 48
15.0
370
    -2
100
AcDbLine
 10
7898.667693423515
 20
2154.779571455446
 30
0.0
 11
8067.969056047106
 21
2154.779571455446
 31
0.0
  0
LINE
  5
98A5
330
90C2
100
AcDbEntity
  8
寸法引出
 48
15.0
370
    -2
100
AcDbLine
 10
7898.667693423515
 20
2254.779571455445
 30
0.0
 11
8067.969056047106
 21
2254.779571455445
 31
0.0
  0
LINE
  5
98A6
330
90C2
100
AcDbEntity
  8
寸法引出
 48
15.0
370
    -2
100
AcDbLine
 10
8060.469056047107
 20
2177.279571455446
 30
0.0
 11
8060.469056047107
 21
2232.279571455446
 31
0.0
  0
SOLID
  5
98A7
330
90C2
100
AcDbEntity
  8
寸法引出
 48
15.0
100
AcDbTrace
 10
8056.719056047105
 20
2177.279571455446
 30
0.0
 11
8064.219056047106
 21
2177.279571455446
 31
0.0
 12
8060.469056047107
 22
2154.779571455446
 32
0.0
 13
8060.469056047107
 23
2154.779571455446
 33
0.0
  0
SOLID
  5
98A8
330
90C2
100
AcDbEntity
  8
寸法引出
 48
15.0
100
AcDbTrace
 10
8056.719056047105
 20
2232.279571455446
 30
0.0
 11
8064.219056047106
 21
2232.279571455446
 31
0.0
 12
8060.469056047107
 22
2254.779571455445
 32
0.0
 13
8060.469056047107
 23
2254.779571455445
 33
0.0
  0
MTEXT
  5
98A9
330
90C2
100
AcDbEntity
  8
寸法引出
 48
15.0
100
AcDbMText
 10
8030.469056047106
 20
2204.779571455447
 30
0.0
 40
30.0
 41
0.0
 71
     5
 72
     1
  1
\A1;100
  7
SANWA
 11
0.0000000000000001
 21
1.0
 31
0.0
 73
     1
 44
1.0
1001
ACAD
1000
MTEXTBEGIN
1070
    73
1070
     1
1070
    44
1040
1.0
1070
    74
1070
     0
1000
MTEXTEND
  0
POINT
  5
98AA
330
90C2
100
AcDbEntity
  8
DEFPOINTS
 62
     0
 48
15.0
100
AcDbPoint
 10
7883.667693423515
 20
2154.779571455446
 30
0.0
  0
POINT
  5
98AB
330
90C2
100
AcDbEntity
  8
DEFPOINTS
 62
     0
 48
15.0
100
AcDbPoint
 10
7883.667693423515
 20
2254.779571455445
 30
0.0
  0
POINT
  5
98AC
330
90C2
100
AcDbEntity
  8
DEFPOINTS
 62
     0
 48
15.0
100
AcDbPoint
 10
8060.469056047107
 20
2254.779571455445
 30
0.0
  0
ENDBLK
  5
90CD
330
90C2
100
AcDbEntity
  8
0
 48
15.0
100
AcDbBlockEnd
  0
BLOCK
  5
93D9
330
93CF
100
AcDbEntity
  8
0
 48
15.0
100
AcDbBlockBegin
  2
*D65
 70
     1
 10
0.0
 20
0.0
 30
0.0
  3
*D65
  1

  0
LINE
  5
98AD
330
93CF
100
AcDbEntity
  8
寸法引出
 48
15.0
370
    -2
100
AcDbLine
 10
6883.667693423517
 20
5668.07212374869
 30
0.0
 11
6883.667693423517
 21
5807.0459193842
 31
0.0
  0
LINE
  5
98AE
330
93CF
100
AcDbEntity
  8
寸法引出
 48
15.0
370
    -2
100
AcDbLine
 10
7883.667693423515
 20
5668.07212374869
 30
0.0
 11
7883.667693423515
 21
5807.0459193842
 31
0.0
  0
LINE
  5
98AF
330
93CF
100
AcDbEntity
  8
寸法引出
 48
15.0
370
    -2
100
AcDbLine
 10
6906.167693423516
 20
5799.5459193842
 30
0.0
 11
7861.167693423515
 21
5799.5459193842
 31
0.0
  0
SOLID
  5
98B0
330
93CF
100
AcDbEntity
  8
寸法引出
 48
15.0
100
AcDbTrace
 10
6906.167693423516
 20
5803.2959193842
 30
0.0
 11
6906.167693423516
 21
5795.7959193842
 31
0.0
 12
6883.667693423517
 22
5799.5459193842
 32
0.0
 13
6883.667693423517
 23
5799.5459193842
 33
0.0
  0
SOLID
  5
98B1
330
93CF
100
AcDbEntity
  8
寸法引出
 48
15.0
100
AcDbTrace
 10
7861.167693423515
 20
5803.2959193842
 30
0.0
 11
7861.167693423515
 21
5795.7959193842
 31
0.0
 12
7883.667693423515
 22
5799.5459193842
 32
0.0
 13
7883.667693423515
 23
5799.5459193842
 33
0.0
  0
MTEXT
  5
98B2
330
93CF
100
AcDbEntity
  8
寸法引出
 48
15.0
100
AcDbMText
 10
7383.667693423515
 20
5829.5459193842
 30
0.0
 40
30.0
 41
0.0
 71
     5
 72
     1
  1
\A1;1000
  7
SANWA
 73
     1
 44
1.0
1001
ACAD
1000
MTEXTBEGIN
1070
    73
1070
     1
1070
    44
1040
1.0
1070
    74
1070
     0
1000
MTEXTEND
  0
POINT
  5
98B3
330
93CF
100
AcDbEntity
  8
DEFPOINTS
 62
     0
 48
15.0
100
AcDbPoint
 10
6883.667693423517
 20
5653.072123748691
 30
0.0
  0
POINT
  5
98B4
330
93CF
100
AcDbEntity
  8
DEFPOINTS
 62
     0
 48
15.0
100
AcDbPoint
 10
7883.667693423515
 20
5653.072123748691
 30
0.0
  0
POINT
  5
98B5
330
93CF
100
AcDbEntity
  8
DEFPOINTS
 62
     0
 48
15.0
100
AcDbPoint
 10
7883.667693423515
 20
5799.5459193842
 30
0.0
  0
ENDBLK
  5
93DA
330
93CF
100
AcDbEntity
  8
0
 48
15.0
100
AcDbBlockEnd
  0
BLOCK
  5
9422
330
9418
100
AcDbEntity
  8
0
 48
15.0
100
AcDbBlockBegin
  2
*D66
 70
     1
 10
0.0
 20
0.0
 30
0.0
  3
*D66
  1

  0
LINE
  5
98B6
330
9418
100
AcDbEntity
  8
寸法引出
 48
15.0
370
    -2
100
AcDbLine
 10
6082.006840264329
 20
5154.860303794049
 30
0.0
 11
6082.006840264329
 21
5300.606873393602
 31
0.0
  0
LINE
  5
98B7
330
9418
100
AcDbEntity
  8
寸法引出
 48
15.0
370
    -2
100
AcDbLine
 10
6482.006840264329
 20
5154.860303794049
 30
0.0
 11
6482.006840264329
 21
5300.606873393602
 31
0.0
  0
LINE
  5
98B8
330
9418
100
AcDbEntity
  8
寸法引出
 48
15.0
370
    -2
100
AcDbLine
 10
6104.506840264328
 20
5293.106873393603
 30
0.0
 11
6459.506840264328
 21
5293.106873393603
 31
0.0
  0
SOLID
  5
98B9
330
9418
100
AcDbEntity
  8
寸法引出
 48
15.0
100
AcDbTrace
 10
6104.506840264328
 20
5296.856873393602
 30
0.0
 11
6104.506840264328
 21
5289.356873393603
 31
0.0
 12
6082.006840264329
 22
5293.106873393603
 32
0.0
 13
6082.006840264329
 23
5293.106873393603
 33
0.0
  0
SOLID
  5
98BA
330
9418
100
AcDbEntity
  8
寸法引出
 48
15.0
100
AcDbTrace
 10
6459.506840264328
 20
5296.856873393602
 30
0.0
 11
6459.506840264328
 21
5289.356873393603
 31
0.0
 12
6482.006840264329
 22
5293.106873393603
 32
0.0
 13
6482.006840264329
 23
5293.106873393603
 33
0.0
  0
MTEXT
  5
98BB
330
9418
100
AcDbEntity
  8
寸法引出
 48
15.0
100
AcDbMText
 10
6282.006840264329
 20
5323.106873393602
 30
0.0
 40
30.0
 41
0.0
 71
     5
 72
     1
  1
\A1;400
  7
SANWA
 73
     1
 44
1.0
1001
ACAD
1000
MTEXTBEGIN
1070
    73
1070
     1
1070
    44
1040
1.0
1070
    74
1070
     0
1000
MTEXTEND
  0
POINT
  5
98BC
330
9418
100
AcDbEntity
  8
DEFPOINTS
 62
     0
 48
15.0
100
AcDbPoint
 10
6082.006840264329
 20
5139.86030379405
 30
0.0
  0
POINT
  5
98BD
330
9418
100
AcDbEntity
  8
DEFPOINTS
 62
     0
 48
15.0
100
AcDbPoint
 10
6482.006840264329
 20
5139.86030379405
 30
0.0
  0
POINT
  5
98BE
330
9418
100
AcDbEntity
  8
DEFPOINTS
 62
     0
 48
15.0
100
AcDbPoint
 10
6482.006840264329
 20
5293.106873393603
 30
0.0
  0
ENDBLK
  5
9423
330
9418
100
AcDbEntity
  8
0
 48
15.0
100
AcDbBlockEnd
  0
BLOCK
  5
943B
330
9431
100
AcDbEntity
  8
0
 48
15.0
100
AcDbBlockBegin
  2
*D67
 70
     1
 10
0.0
 20
0.0
 30
0.0
  3
*D67
  1

  0
LINE
  5
98BF
330
9431
100
AcDbEntity
  8
寸法引出
 48
15.0
370
    -2
100
AcDbLine
 10
6497.006840264328
 20
5553.072123748691
 30
0.0
 11
6607.772007717176
 21
5553.072123748691
 31
0.0
  0
LINE
  5
98C0
330
9431
100
AcDbEntity
  8
寸法引出
 48
15.0
370
    -2
100
AcDbLine
 10
6497.006840264328
 20
5653.072123748691
 30
0.0
 11
6607.772007717176
 21
5653.072123748691
 31
0.0
  0
LINE
  5
98C1
330
9431
100
AcDbEntity
  8
寸法引出
 48
15.0
370
    -2
100
AcDbLine
 10
6600.272007717176
 20
5575.572123748691
 30
0.0
 11
6600.272007717176
 21
5630.572123748691
 31
0.0
  0
SOLID
  5
98C2
330
9431
100
AcDbEntity
  8
寸法引出
 48
15.0
100
AcDbTrace
 10
6596.522007717176
 20
5575.572123748691
 30
0.0
 11
6604.022007717176
 21
5575.572123748691
 31
0.0
 12
6600.272007717176
 22
5553.072123748691
 32
0.0
 13
6600.272007717176
 23
5553.072123748691
 33
0.0
  0
SOLID
  5
98C3
330
9431
100
AcDbEntity
  8
寸法引出
 48
15.0
100
AcDbTrace
 10
6596.522007717176
 20
5630.572123748691
 30
0.0
 11
6604.022007717176
 21
5630.572123748691
 31
0.0
 12
6600.272007717176
 22
5653.072123748691
 32
0.0
 13
6600.272007717176
 23
5653.072123748691
 33
0.0
  0
MTEXT
  5
98C4
330
9431
100
AcDbEntity
  8
寸法引出
 48
15.0
100
AcDbMText
 10
6570.272007717175
 20
5603.072123748692
 30
0.0
 40
30.0
 41
0.0
 71
     5
 72
     1
  1
\A1;100
  7
SANWA
 11
0.0000000000000001
 21
1.0
 31
0.0
 73
     1
 44
1.0
1001
ACAD
1000
MTEXTBEGIN
1070
    73
1070
     1
1070
    44
1040
1.0
1070
    74
1070
     0
1000
MTEXTEND
  0
POINT
  5
98C5
330
9431
100
AcDbEntity
  8
DEFPOINTS
 62
     0
 48
15.0
100
AcDbPoint
 10
6482.006840264329
 20
5553.072123748691
 30
0.0
  0
POINT
  5
98C6
330
9431
100
AcDbEntity
  8
DEFPOINTS
 62
     0
 48
15.0
100
AcDbPoint
 10
6482.006840264329
 20
5653.072123748691
 30
0.0
  0
POINT
  5
98C7
330
9431
100
AcDbEntity
  8
DEFPOINTS
 62
     0
 48
15.0
100
AcDbPoint
 10
6600.272007717176
 20
5653.072123748691
 30
0.0
  0
ENDBLK
  5
943C
330
9431
100
AcDbEntity
  8
0
 48
15.0
100
AcDbBlockEnd
  0
BLOCK
  5
9469
330
945F
100
AcDbEntity
  8
0
 48
15.0
100
AcDbBlockBegin
  2
*D68
 70
     1
 10
0.0
 20
0.0
 30
0.0
  3
*D68
  1

  0
LINE
  5
98C8
330
945F
100
AcDbEntity
  8
寸法引出
 48
15.0
370
    -2
100
AcDbLine
 10
6082.006840264329
 20
5668.07212374869
 30
0.0
 11
6082.006840264329
 21
5773.383086912399
 31
0.0
  0
LINE
  5
98C9
330
945F
100
AcDbEntity
  8
寸法引出
 48
15.0
370
    -2
100
AcDbLine
 10
6482.006840264329
 20
5668.07212374869
 30
0.0
 11
6482.006840264329
 21
5773.383086912399
 31
0.0
  0
LINE
  5
98CA
330
945F
100
AcDbEntity
  8
寸法引出
 48
15.0
370
    -2
100
AcDbLine
 10
6104.506840264328
 20
5765.883086912399
 30
0.0
 11
6459.506840264328
 21
5765.883086912399
 31
0.0
  0
SOLID
  5
98CB
330
945F
100
AcDbEntity
  8
寸法引出
 48
15.0
100
AcDbTrace
 10
6104.506840264328
 20
5769.633086912399
 30
0.0
 11
6104.506840264328
 21
5762.133086912399
 31
0.0
 12
6082.006840264329
 22
5765.883086912399
 32
0.0
 13
6082.006840264329
 23
5765.883086912399
 33
0.0
  0
SOLID
  5
98CC
330
945F
100
AcDbEntity
  8
寸法引出
 48
15.0
100
AcDbTrace
 10
6459.506840264328
 20
5769.633086912399
 30
0.0
 11
6459.506840264328
 21
5762.133086912399
 31
0.0
 12
6482.006840264329
 22
5765.883086912399
 32
0.0
 13
6482.006840264329
 23
5765.883086912399
 33
0.0
  0
MTEXT
  5
98CD
330
945F
100
AcDbEntity
  8
寸法引出
 48
15.0
100
AcDbMText
 10
6282.006840264329
 20
5795.883086912399
 30
0.0
 40
30.0
 41
0.0
 71
     5
 72
     1
  1
\A1;400
  7
SANWA
 73
     1
 44
1.0
1001
ACAD
1000
MTEXTBEGIN
1070
    73
1070
     1
1070
    44
1040
1.0
1070
    74
1070
     0
1000
MTEXTEND
  0
POINT
  5
98CE
330
945F
100
AcDbEntity
  8
DEFPOINTS
 62
     0
 48
15.0
100
AcDbPoint
 10
6082.006840264329
 20
5653.072123748691
 30
0.0
  0
POINT
  5
98CF
330
945F
100
AcDbEntity
  8
DEFPOINTS
 62
     0
 48
15.0
100
AcDbPoint
 10
6482.006840264329
 20
5653.072123748691
 30
0.0
  0
POINT
  5
98D0
330
945F
100
AcDbEntity
  8
DEFPOINTS
 62
     0
 48
15.0
100
AcDbPoint
 10
6482.006840264329
 20
5765.883086912399
 30
0.0
  0
ENDBLK
  5
946A
330
945F
100
AcDbEntity
  8
0
 48
15.0
100
AcDbBlockEnd
  0
BLOCK
  5
948F
330
9485
100
AcDbEntity
  8
0
 48
15.0
100
AcDbBlockBegin
  2
*D69
 70
     1
 10
0.0
 20
0.0
 30
0.0
  3
*D69
  1

  0
LINE
  5
98D1
330
9485
100
AcDbEntity
  8
寸法引出
 48
15.0
370
    -2
100
AcDbLine
 10
7898.667693423515
 20
5553.072123748691
 30
0.0
 11
8009.588886693681
 21
5553.072123748691
 31
0.0
  0
LINE
  5
98D2
330
9485
100
AcDbEntity
  8
寸法引出
 48
15.0
370
    -2
100
AcDbLine
 10
7898.667693423515
 20
5653.072123748691
 30
0.0
 11
8009.588886693681
 21
5653.072123748691
 31
0.0
  0
LINE
  5
98D3
330
9485
100
AcDbEntity
  8
寸法引出
 48
15.0
370
    -2
100
AcDbLine
 10
8002.08888669368
 20
5575.572123748691
 30
0.0
 11
8002.08888669368
 21
5630.572123748691
 31
0.0
  0
SOLID
  5
98D4
330
9485
100
AcDbEntity
  8
寸法引出
 48
15.0
100
AcDbTrace
 10
7998.33888669368
 20
5575.572123748691
 30
0.0
 11
8005.83888669368
 21
5575.572123748691
 31
0.0
 12
8002.08888669368
 22
5553.072123748691
 32
0.0
 13
8002.08888669368
 23
5553.072123748691
 33
0.0
  0
SOLID
  5
98D5
330
9485
100
AcDbEntity
  8
寸法引出
 48
15.0
100
AcDbTrace
 10
7998.33888669368
 20
5630.572123748691
 30
0.0
 11
8005.83888669368
 21
5630.572123748691
 31
0.0
 12
8002.08888669368
 22
5653.072123748691
 32
0.0
 13
8002.08888669368
 23
5653.072123748691
 33
0.0
  0
MTEXT
  5
98D6
330
9485
100
AcDbEntity
  8
寸法引出
 48
15.0
100
AcDbMText
 10
7972.088886693679
 20
5603.072123748692
 30
0.0
 40
30.0
 41
0.0
 71
     5
 72
     1
  1
\A1;100
  7
SANWA
 11
0.0000000000000001
 21
1.0
 31
0.0
 73
     1
 44
1.0
1001
ACAD
1000
MTEXTBEGIN
1070
    73
1070
     1
1070
    44
1040
1.0
1070
    74
1070
     0
1000
MTEXTEND
  0
POINT
  5
98D7
330
9485
100
AcDbEntity
  8
DEFPOINTS
 62
     0
 48
15.0
100
AcDbPoint
 10
7883.667693423515
 20
5553.072123748691
 30
0.0
  0
POINT
  5
98D8
330
9485
100
AcDbEntity
  8
DEFPOINTS
 62
     0
 48
15.0
100
AcDbPoint
 10
7883.667693423515
 20
5653.072123748691
 30
0.0
  0
POINT
  5
98D9
330
9485
100
AcDbEntity
  8
DEFPOINTS
 62
     0
 48
15.0
100
AcDbPoint
 10
8002.08888669368
 20
5653.072123748691
 30
0.0
  0
ENDBLK
  5
9490
330
9485
100
AcDbEntity
  8
0
 48
15.0
100
AcDbBlockEnd
  0
BLOCK
  5
9585
330
957B
100
AcDbEntity
  8
0
 48
15.0
100
AcDbBlockBegin
  2
*D70
 70
     1
 10
0.0
 20
0.0
 30
0.0
  3
*D70
  1

  0
LINE
  5
98DA
330
957B
100
AcDbEntity
  8
寸法引出
 48
15.0
370
    -2
100
AcDbLine
 10
6067.006840264328
 20
5139.86030379405
 30
0.0
 11
5937.532030135677
 21
5139.86030379405
 31
0.0
  0
LINE
  5
98DB
330
957B
100
AcDbEntity
  8
寸法引出
 48
15.0
370
    -2
100
AcDbLine
 10
6067.006840264328
 20
4139.86030379405
 30
0.0
 11
5937.532030135677
 21
4139.86030379405
 31
0.0
  0
LINE
  5
98DC
330
957B
100
AcDbEntity
  8
寸法引出
 48
15.0
370
    -2
100
AcDbLine
 10
5945.032030135677
 20
5117.36030379405
 30
0.0
 11
5945.032030135677
 21
4162.360303794049
 31
0.0
  0
SOLID
  5
98DD
330
957B
100
AcDbEntity
  8
寸法引出
 48
15.0
100
AcDbTrace
 10
5941.282030135677
 20
5117.36030379405
 30
0.0
 11
5948.782030135677
 21
5117.36030379405
 31
0.0
 12
5945.032030135677
 22
5139.86030379405
 32
0.0
 13
5945.032030135677
 23
5139.86030379405
 33
0.0
  0
SOLID
  5
98DE
330
957B
100
AcDbEntity
  8
寸法引出
 48
15.0
100
AcDbTrace
 10
5941.282030135677
 20
4162.360303794049
 30
0.0
 11
5948.782030135677
 21
4162.360303794049
 31
0.0
 12
5945.032030135677
 22
4139.86030379405
 32
0.0
 13
5945.032030135677
 23
4139.86030379405
 33
0.0
  0
MTEXT
  5
98DF
330
957B
100
AcDbEntity
  8
寸法引出
 48
15.0
100
AcDbMText
 10
5915.032030135677
 20
4639.86030379405
 30
0.0
 40
30.0
 41
0.0
 71
     5
 72
     1
  1
\A1;1000
  7
SANWA
 11
0.0000000000000001
 21
1.0
 31
0.0
 73
     1
 44
1.0
1001
ACAD
1000
MTEXTBEGIN
1070
    73
1070
     1
1070
    44
1040
1.0
1070
    74
1070
     0
1000
MTEXTEND
  0
POINT
  5
98E0
330
957B
100
AcDbEntity
  8
DEFPOINTS
 62
     0
 48
15.0
100
AcDbPoint
 10
6082.006840264329
 20
5139.86030379405
 30
0.0
  0
POINT
  5
98E1
330
957B
100
AcDbEntity
  8
DEFPOINTS
 62
     0
 48
15.0
100
AcDbPoint
 10
6082.006840264329
 20
4139.86030379405
 30
0.0
  0
POINT
  5
98E2
330
957B
100
AcDbEntity
  8
DEFPOINTS
 62
     0
 48
15.0
100
AcDbPoint
 10
5945.032030135677
 20
4139.86030379405
 30
0.0
  0
ENDBLK
  5
9586
330
957B
100
AcDbEntity
  8
0
 48
15.0
100
AcDbBlockEnd
  0
BLOCK
  5
963C
330
9632
100
AcDbEntity
  8
0
 48
15.0
100
AcDbBlockBegin
  2
*D71
 70
     1
 10
0.0
 20
0.0
 30
0.0
  3
*D71
  1

  0
LINE
  5
98EC
330
9632
100
AcDbEntity
  8
寸法引出
 48
15.0
370
    -2
100
AcDbLine
 10
1750.90451337318
 20
3610.070767337608
 30
0.0
 11
1864.438707791345
 21
3610.070767337608
 31
0.0
  0
LINE
  5
98ED
330
9632
100
AcDbEntity
  8
寸法引出
 48
15.0
370
    -2
100
AcDbLine
 10
1750.90451337318
 20
3510.070767337608
 30
0.0
 11
1864.438707791344
 21
3510.070767337608
 31
0.0
  0
LINE
  5
98EE
330
9632
100
AcDbEntity
  8
寸法引出
 48
15.0
370
    -2
100
AcDbLine
 10
1856.938707791345
 20
3587.570767337608
 30
0.0
 11
1856.938707791345
 21
3532.570767337608
 31
0.0
  0
SOLID
  5
98EF
330
9632
100
AcDbEntity
  8
寸法引出
 48
15.0
100
AcDbTrace
 10
1853.188707791345
 20
3587.570767337608
 30
0.0
 11
1860.688707791345
 21
3587.570767337608
 31
0.0
 12
1856.938707791345
 22
3610.070767337608
 32
0.0
 13
1856.938707791345
 23
3610.070767337608
 33
0.0
  0
SOLID
  5
98F0
330
9632
100
AcDbEntity
  8
寸法引出
 48
15.0
100
AcDbTrace
 10
1853.188707791345
 20
3532.570767337608
 30
0.0
 11
1860.688707791345
 21
3532.570767337608
 31
0.0
 12
1856.938707791345
 22
3510.070767337608
 32
0.0
 13
1856.938707791345
 23
3510.070767337608
 33
0.0
  0
MTEXT
  5
98F1
330
9632
100
AcDbEntity
  8
寸法引出
 48
15.0
100
AcDbMText
 10
1826.938707791344
 20
3560.070767337609
 30
0.0
 40
30.0
 41
0.0
 71
     5
 72
     1
  1
\A1;100
  7
SANWA
 11
0.0000000000000001
 21
1.0
 31
0.0
 73
     1
 44
1.0
1001
ACAD
1000
MTEXTBEGIN
1070
    73
1070
     1
1070
    44
1040
1.0
1070
    74
1070
     0
1000
MTEXTEND
  0
POINT
  5
98F2
330
9632
100
AcDbEntity
  8
DEFPOINTS
 62
     0
 48
15.0
100
AcDbPoint
 10
1735.90451337318
 20
3610.070767337608
 30
0.0
  0
POINT
  5
98F3
330
9632
100
AcDbEntity
  8
DEFPOINTS
 62
     0
 48
15.0
100
AcDbPoint
 10
1735.90451337318
 20
3510.070767337608
 30
0.0
  0
POINT
  5
98F4
330
9632
100
AcDbEntity
  8
DEFPOINTS
 62
     0
 48
15.0
100
AcDbPoint
 10
1856.938707791345
 20
3510.070767337608
 30
0.0
  0
ENDBLK
  5
963D
330
9632
100
AcDbEntity
  8
0
 48
15.0
100
AcDbBlockEnd
  0
BLOCK
  5
9655
330
964B
100
AcDbEntity
  8
0
 48
15.0
100
AcDbBlockBegin
  2
*D73
 70
     1
 10
0.0
 20
0.0
 30
0.0
  3
*D73
  1

  0
LINE
  5
98E3
330
964B
100
AcDbEntity
  8
寸法引出
 48
15.0
370
    -2
100
AcDbLine
 10
1335.90451337318
 20
3625.070767337608
 30
0.0
 11
1335.90451337318
 21
3713.263876850826
 31
0.0
  0
LINE
  5
98E4
330
964B
100
AcDbEntity
  8
寸法引出
 48
15.0
370
    -2
100
AcDbLine
 10
1735.90451337318
 20
3625.070767337608
 30
0.0
 11
1735.90451337318
 21
3713.263876850826
 31
0.0
  0
LINE
  5
98E5
330
964B
100
AcDbEntity
  8
寸法引出
 48
15.0
370
    -2
100
AcDbLine
 10
1358.40451337318
 20
3705.763876850826
 30
0.0
 11
1713.40451337318
 21
3705.763876850826
 31
0.0
  0
SOLID
  5
98E6
330
964B
100
AcDbEntity
  8
寸法引出
 48
15.0
100
AcDbTrace
 10
1358.40451337318
 20
3709.513876850826
 30
0.0
 11
1358.40451337318
 21
3702.013876850826
 31
0.0
 12
1335.90451337318
 22
3705.763876850826
 32
0.0
 13
1335.90451337318
 23
3705.763876850826
 33
0.0
  0
SOLID
  5
98E7
330
964B
100
AcDbEntity
  8
寸法引出
 48
15.0
100
AcDbTrace
 10
1713.40451337318
 20
3709.513876850826
 30
0.0
 11
1713.40451337318
 21
3702.013876850826
 31
0.0
 12
1735.90451337318
 22
3705.763876850826
 32
0.0
 13
1735.90451337318
 23
3705.763876850826
 33
0.0
  0
MTEXT
  5
98E8
330
964B
100
AcDbEntity
  8
寸法引出
 48
15.0
100
AcDbMText
 10
1535.90451337318
 20
3735.763876850826
 30
0.0
 40
30.0
 41
0.0
 71
     5
 72
     1
  1
\A1;400
  7
SANWA
 73
     1
 44
1.0
1001
ACAD
1000
MTEXTBEGIN
1070
    73
1070
     1
1070
    44
1040
1.0
1070
    74
1070
     0
1000
MTEXTEND
  0
POINT
  5
98E9
330
964B
100
AcDbEntity
  8
DEFPOINTS
 62
     0
 48
15.0
100
AcDbPoint
 10
1335.90451337318
 20
3610.070767337608
 30
0.0
  0
POINT
  5
98EA
330
964B
100
AcDbEntity
  8
DEFPOINTS
 62
     0
 48
15.0
100
AcDbPoint
 10
1735.90451337318
 20
3610.070767337608
 30
0.0
  0
POINT
  5
98EB
330
964B
100
AcDbEntity
  8
DEFPOINTS
 62
     0
 48
15.0
100
AcDbPoint
 10
1735.90451337318
 20
3705.763876850826
 30
0.0
  0
ENDBLK
  5
9656
330
964B
100
AcDbEntity
  8
0
 48
15.0
100
AcDbBlockEnd
  0
BLOCK
  5
96B9
330
96AF
100
AcDbEntity
  8
0
 48
15.0
100
AcDbBlockBegin
  2
*D76
 70
     1
 10
0.0
 20
0.0
 30
0.0
  3
*D76
  1

  0
LINE
  5
98F5
330
96AF
100
AcDbEntity
  8
0
 48
15.0
370
    -2
100
AcDbLine
 10
1735.90451337318
 20
3625.070767337608
 30
0.0
 11
1735.90451337318
 21
3793.796832894937
 31
0.0
  0
LINE
  5
98F6
330
96AF
100
AcDbEntity
  8
0
 48
15.0
370
    -2
100
AcDbLine
 10
1600.904513373181
 20
3625.070767337608
 30
0.0
 11
1600.904513373181
 21
3793.796832894937
 31
0.0
  0
LINE
  5
98F7
330
96AF
100
AcDbEntity
  8
0
 48
15.0
370
    -2
100
AcDbLine
 10
1713.40451337318
 20
3786.296832894937
 30
0.0
 11
1623.404513373181
 21
3786.296832894937
 31
0.0
  0
SOLID
  5
98F8
330
96AF
100
AcDbEntity
  8
0
 48
15.0
100
AcDbTrace
 10
1713.40451337318
 20
3790.046832894937
 30
0.0
 11
1713.40451337318
 21
3782.546832894938
 31
0.0
 12
1735.90451337318
 22
3786.296832894937
 32
0.0
 13
1735.90451337318
 23
3786.296832894937
 33
0.0
  0
SOLID
  5
98F9
330
96AF
100
AcDbEntity
  8
0
 48
15.0
100
AcDbTrace
 10
1623.404513373181
 20
3790.046832894937
 30
0.0
 11
1623.404513373181
 21
3782.546832894938
 31
0.0
 12
1600.904513373181
 22
3786.296832894937
 32
0.0
 13
1600.904513373181
 23
3786.296832894937
 33
0.0
  0
MTEXT
  5
98FA
330
96AF
100
AcDbEntity
  8
0
 48
15.0
100
AcDbMText
 10
1668.40451337318
 20
3816.296832894938
 30
0.0
 40
30.0
 41
0.0
 71
     5
 72
     1
  1
\A1;135
  7
SANWA
 73
     1
 44
1.0
1001
ACAD
1000
MTEXTBEGIN
1070
    73
1070
     1
1070
    44
1040
1.0
1070
    74
1070
     0
1000
MTEXTEND
  0
POINT
  5
98FB
330
96AF
100
AcDbEntity
  8
DEFPOINTS
 62
     0
 48
15.0
100
AcDbPoint
 10
1735.90451337318
 20
3610.070767337608
 30
0.0
  0
POINT
  5
98FC
330
96AF
100
AcDbEntity
  8
DEFPOINTS
 62
     0
 48
15.0
100
AcDbPoint
 10
1600.904513373181
 20
3610.070767337608
 30
0.0
  0
POINT
  5
98FD
330
96AF
100
AcDbEntity
  8
DEFPOINTS
 62
     0
 48
15.0
100
AcDbPoint
 10
1600.904513373181
 20
3786.296832894937
 30
0.0
  0
ENDBLK
  5
96BA
330
96AF
100
AcDbEntity
  8
0
 48
15.0
100
AcDbBlockEnd
  0
BLOCK
  5
96C6
330
96BC
100
AcDbEntity
  8
0
 48
15.0
100
AcDbBlockBegin
  2
*D77
 70
     1
 10
0.0
 20
0.0
 30
0.0
  3
*D77
  1

  0
LINE
  5
98FE
330
96BC
100
AcDbEntity
  8
0
 48
15.0
370
    -2
100
AcDbLine
 10
1735.90451337318
 20
3625.070767337608
 30
0.0
 11
1735.90451337318
 21
3854.75073732369
 31
0.0
  0
LINE
  5
98FF
330
96BC
100
AcDbEntity
  8
0
 48
15.0
370
    -2
100
AcDbLine
 10
1535.90451337318
 20
3625.070767337608
 30
0.0
 11
1535.90451337318
 21
3854.75073732369
 31
0.0
  0
LINE
  5
9900
330
96BC
100
AcDbEntity
  8
0
 48
15.0
370
    -2
100
AcDbLine
 10
1713.40451337318
 20
3847.250737323689
 30
0.0
 11
1558.40451337318
 21
3847.250737323689
 31
0.0
  0
SOLID
  5
9901
330
96BC
100
AcDbEntity
  8
0
 48
15.0
100
AcDbTrace
 10
1713.40451337318
 20
3851.00073732369
 30
0.0
 11
1713.40451337318
 21
3843.500737323689
 31
0.0
 12
1735.90451337318
 22
3847.250737323689
 32
0.0
 13
1735.90451337318
 23
3847.250737323689
 33
0.0
  0
SOLID
  5
9902
330
96BC
100
AcDbEntity
  8
0
 48
15.0
100
AcDbTrace
 10
1558.40451337318
 20
3851.00073732369
 30
0.0
 11
1558.40451337318
 21
3843.500737323689
 31
0.0
 12
1535.90451337318
 22
3847.250737323689
 32
0.0
 13
1535.90451337318
 23
3847.250737323689
 33
0.0
  0
MTEXT
  5
9903
330
96BC
100
AcDbEntity
  8
0
 48
15.0
100
AcDbMText
 10
1635.90451337318
 20
3877.25073732369
 30
0.0
 40
30.0
 41
0.0
 71
     5
 72
     1
  1
\A1;200
  7
SANWA
 73
     1
 44
1.0
1001
ACAD
1000
MTEXTBEGIN
1070
    73
1070
     1
1070
    44
1040
1.0
1070
    74
1070
     0
1000
MTEXTEND
  0
POINT
  5
9904
330
96BC
100
AcDbEntity
  8
DEFPOINTS
 62
     0
 48
15.0
100
AcDbPoint
 10
1735.90451337318
 20
3610.070767337608
 30
0.0
  0
POINT
  5
9905
330
96BC
100
AcDbEntity
  8
DEFPOINTS
 62
     0
 48
15.0
100
AcDbPoint
 10
1535.90451337318
 20
3610.070767337608
 30
0.0
  0
POINT
  5
9906
330
96BC
100
AcDbEntity
  8
DEFPOINTS
 62
     0
 48
15.0
100
AcDbPoint
 10
1535.90451337318
 20
3847.250737323689
 30
0.0
  0
ENDBLK
  5
96C7
330
96BC
100
AcDbEntity
  8
0
 48
15.0
100
AcDbBlockEnd
  0
ENDSEC
  0
SECTION
  2
ENTITIES
  0
LINE
  5
8CDD
330
747D
100
AcDbEntity
  8
0
 62
     0
100
AcDbLine
 10
3598.531914893604
 20
402.0000000000027
 30
0.0
 11
4305.0
 21
402.0000000000027
 31
0.0
  0
LINE
  5
8CDE
330
747D
100
AcDbEntity
  8
0
 62
     0
100
AcDbLine
 10
3598.531914893604
 20
498.0000000000041
 30
0.0
 11
4305.0
 21
498.0000000000041
 31
0.0
  0
TEXT
  5
8CDF
330
747D
100
AcDbEntity
  8
0
100
AcDbText
 10
3766.408313412455
 20
206.7188724106802
 30
0.0
 40
24.0
  1
三和コンクリート工業株式会社
  7
SANWA
100
AcDbText
  0
TEXT
  5
8CE0
330
747D
100
AcDbEntity
  8
0
100
AcDbText
 10
3800.223100303947
 20
534.0000000000031
 30
0.0
 40
24.0
  1
マルチスリット側溝蓋
  7
SANWA
 72
     4
 11
3975.765957446805
 21
546.0000000000031
 31
0.0
100
AcDbText
  0
LINE
  5
8CE1
330
747D
100
AcDbEntity
  8
0
100
AcDbLine
 10
3202.531914893609
 20
306.0000000000014
 30
0.0
 11
4305.0
 21
306.0000000000014
 31
0.0
  0
LINE
  5
8CE2
330
747D
100
AcDbEntity
  8
0
 62
     0
100
AcDbLine
 10
3202.531914893609
 20
594.0000000000036
 30
0.0
 11
4305.0
 21
594.0000000000036
 31
0.0
  0
LINE
  5
8CE3
330
747D
100
AcDbEntity
  8
枠
100
AcDbLine
 10
375.0
 20
150.0000000000018
 30
0.0
 11
4305.0
 21
150.0000000000018
 31
0.0
  0
LINE
  5
8CE4
330
747D
100
AcDbEntity
  8
枠
100
AcDbLine
 10
375.0
 20
3000.0
 30
0.0
 11
4305.0
 21
3000.0
 31
0.0
  0
LINE
  5
8CE5
330
747D
100
AcDbEntity
  8
枠
100
AcDbLine
 10
375.0
 20
150.0
 30
0.0
 11
375.0
 21
3000.0
 31
0.0
  0
DIMENSION
  5
8CE6
330
747D
100
AcDbEntity
  8
寸法引出
 48
15.0
100
AcDbDimension
  2
*D22
 10
1858.66383439127
 20
741.5677476870103
 30
0.0
 11
1828.66383439127
 21
1241.567747687011
 31
0.0
 70
    32
 71
     5
 42
1000.0
  3
SANWA
100
AcDbAlignedDimension
 13
1741.379639973106
 23
1741.56774768701
 33
0.0
 14
1741.379639973106
 24
741.5677476870105
 34
0.0
 50
90.0
100
AcDbRotatedDimension
1001
ACAD
1000
DSTYLE
1002
{
1070
   140
1040
2.0
1070
    40
1040
15.0
1070
   147
1040
1.0
1070
    44
1040
0.5
1070
    43
1040
5.0
1070
   178
1070
   256
1070
   177
1070
   256
1070
   176
1070
   256
1070
    41
1040
1.5
1002
}
  0
DIMENSION
  5
8CE7
330
747D
100
AcDbEntity
  8
寸法引出
 48
15.0
100
AcDbDimension
  2
*D23
 10
1252.578843988344
 20
861.5677476870105
 30
0.0
 11
1222.578843988344
 21
1241.567747687011
 31
0.0
 70
    32
 71
     5
 42
759.9999999999998
  3
SANWA
100
AcDbAlignedDimension
 13
1341.379639973106
 23
1621.56774768701
 33
0.0
 14
1341.379639973106
 24
861.5677476870105
 34
0.0
 50
90.0
100
AcDbRotatedDimension
1001
ACAD
1000
DSTYLE
1002
{
1070
    40
1040
15.0
1070
    41
1040
1.5
1070
    43
1040
5.0
1070
    44
1040
0.5
1070
    75
1070
     1
1070
   140
1040
2.0
1070
   147
1040
1.0
1070
   176
1070
   256
1070
   177
1070
   256
1070
   178
1070
   256
1070
   279
1070
     1
1002
}
  0
LINE
  5
8CE8
330
747D
100
AcDbEntity
  8
0
 48
15.0
100
AcDbLine
 10
1741.379639973106
 20
1741.56774768701
 30
0.0
 11
1741.379639973106
 21
741.5677476870105
 31
0.0
  0
LINE
  5
8CE9
330
747D
100
AcDbEntity
  8
0
 48
15.0
100
AcDbLine
 10
1341.379639973106
 20
1741.56774768701
 30
0.0
 11
1341.379639973106
 21
741.5677476870105
 31
0.0
  0
LINE
  5
8CEA
330
747D
100
AcDbEntity
  8
0
100
AcDbLine
 10
0.0
 20
0.0
 30
0.0
 11
0.0
 21
150.0
 31
0.0
  0
LINE
  5
8CEB
330
747D
100
AcDbEntity
  8
0
100
AcDbLine
 10
375.0
 20
0.0
 30
0.0
 11
0.0
 21
0.0
 31
0.0
  0
LINE
  5
8CEC
330
747D
100
AcDbEntity
  8
0
100
AcDbLine
 10
3598.531914893604
 20
150.0000000000018
 30
0.0
 11
3598.531914893604
 21
594.0000000000036
 31
0.0
  0
LINE
  5
8CED
330
747D
100
AcDbEntity
  8
0
100
AcDbLine
 10
3646.531914893607
 20
306.0000000000014
 30
0.0
 11
3646.531914893607
 21
594.0000000000036
 31
0.0
  0
LINE
  5
8CEE
330
747D
100
AcDbEntity
  8
0
100
AcDbLine
 10
3202.531914893609
 20
594.0000000000036
 30
0.0
 11
3202.531914893609
 21
522.0000000000027
 31
0.0
  0
TEXT
  5
8CEF
102
{ACAD_REACTORS
330
8CF6
102
}
330
747D
100
AcDbEntity
  8
0
 48
2.0
100
AcDbText
 10
3424.249755796497
 20
80.91869382887693
 30
0.0
 40
24.0
  1
大
  7
SANWA
100
AcDbText
  0
TEXT
  5
8CF0
102
{ACAD_REACTORS
330
8CF3
102
}
330
747D
100
AcDbEntity
  8
0
 48
2.0
100
AcDbText
 10
3302.854024831005
 20
79.62983329778467
 30
0.0
 40
24.0
  1
蒔
  7
SANWA
100
AcDbText
  0
CIRCLE
  5
8CF1
102
{ACAD_REACTORS
330
8CF3
102
}
330
747D
100
AcDbEntity
  8
0
100
AcDbCircle
 10
3319.412319003788
 20
72.91679629800182
 30
0.0
 40
47.98512634354756
  0
CIRCLE
  5
8CF2
102
{ACAD_REACTORS
330
8CF3
102
}
330
747D
100
AcDbEntity
  8
0
100
AcDbCircle
 10
3319.412319003788
 20
72.91679629800182
 30
0.0
 40
45.58512634354756
  0
HATCH
  5
8CF3
330
747D
100
AcDbEntity
  8
0
100
AcDbHatch
 10
0.0
 20
0.0
 30
0.0
210
0.0
220
0.0
230
1.0
  2
SOLID
 70
     1
 71
     1
 91
        4
 92
        7
 72
     1
 73
     1
 93
        2
 10
3367.397445347336
 20
72.91679629800182
 42
1.0
 10
3271.427192660241
 20
72.91679629800182
 42
1.0
 97
        1
330
8CF1
 92
       22
 72
     1
 73
     1
 93
        2
 10
3364.997445347337
 20
72.91679629800182
 42
1.0
 10
3273.827192660241
 20
72.91679629800182
 42
1.0
 97
        1
330
8CF2
 92
      136
 93
        4
 72
     1
 10
3294.934024831004
 20
68.28126186921323
 11
3345.882596259575
 21
68.28126186921323
 72
     1
 10
3345.882596259575
 20
68.28126186921323
 11
3345.882596259575
 21
115.8012618692132
 72
     1
 10
3345.882596259575
 20
115.8012618692132
 11
3294.934024831004
 21
115.8012618692132
 72
     1
 10
3294.934024831004
 20
115.8012618692132
 11
3294.934024831004
 21
68.28126186921323
 97
        1
330
8CF0
 92
       24
 93
        4
 72
     1
 10
3295.123939982508
 20
32.6241521874162
 11
3344.563939982509
 21
32.6241521874162
 72
     1
 10
3344.563939982509
 20
32.6241521874162
 11
3344.563939982509
 21
75.61843790170191
 72
     1
 10
3344.563939982509
 20
75.61843790170191
 11
3295.123939982508
 21
75.61843790170191
 72
     1
 10
3295.123939982508
 20
75.61843790170191
 11
3295.123939982508
 21
32.6241521874162
 97
        1
330
8CF7
 75
     0
 76
     1
 47
0.0602706122334892
 98
        2
 10
3342.402604870099
 20
114.1660473987801
 10
3342.402604870099
 20
114.1660473987801
  0
CIRCLE
  5
8CF4
102
{ACAD_REACTORS
330
8CF6
102
}
330
747D
100
AcDbEntity
  8
0
100
AcDbCircle
 10
3440.80804996929
 20
72.91679629800182
 30
0.0
 40
45.58512634354756
  0
CIRCLE
  5
8CF5
102
{ACAD_REACTORS
330
8CF6
102
}
330
747D
100
AcDbEntity
  8
0
100
AcDbCircle
 10
3440.80804996929
 20
72.91679629800182
 30
0.0
 40
47.98512634354756
  0
HATCH
  5
8CF6
330
747D
100
AcDbEntity
  8
0
100
AcDbHatch
 10
0.0
 20
0.0
 30
0.0
210
0.0
220
0.0
230
1.0
  2
SOLID
 70
     1
 71
     1
 91
        4
 92
        7
 72
     1
 73
     1
 93
        2
 10
3488.793176312837
 20
72.91679629800182
 42
1.0
 10
3392.822923625742
 20
72.91679629800182
 42
1.0
 97
        1
330
8CF5
 92
       22
 72
     1
 73
     1
 93
        2
 10
3486.393176312837
 20
72.91679629800182
 42
1.0
 10
3395.222923625742
 20
72.91679629800182
 42
1.0
 97
        1
330
8CF4
 92
      136
 93
        4
 72
     1
 10
3416.638327225069
 20
71.11297954316265
 11
3466.969755796498
 21
71.11297954316265
 72
     1
 10
3466.969755796498
 20
71.11297954316265
 11
3466.969755796498
 21
116.7815509717341
 72
     1
 10
3466.969755796498
 20
116.7815509717341
 11
3416.638327225069
 21
116.7815509717341
 72
     1
 10
3416.638327225069
 20
116.7815509717341
 11
3416.638327225069
 21
71.11297954316265
 97
        1
330
8CEF
 92
      136
 93
        4
 72
     1
 10
3415.696813805152
 20
35.3935970283594
 11
3466.782528090866
 21
35.3935970283594
 72
     1
 10
3466.782528090866
 20
35.3935970283594
 11
3466.782528090866
 21
83.32502559978797
 72
     1
 10
3466.782528090866
 20
83.32502559978797
 11
3415.696813805152
 21
83.32502559978797
 72
     1
 10
3415.696813805152
 20
83.32502559978797
 11
3415.696813805152
 21
35.3935970283594
 97
        1
330
8CF8
 75
     0
 76
     1
 47
0.0602706122334892
 98
        2
 10
3463.798335835593
 20
114.1660473987801
 10
3463.798335835593
 20
114.1660473987801
  0
TEXT
  5
8CF7
102
{ACAD_REACTORS
330
8CF3
102
}
330
747D
100
AcDbEntity
  8
0
 48
2.0
100
AcDbText
 10
3302.289654268223
 20
43.08129504455905
 30
0.0
 40
24.0
  1
田
  7
SANWA
100
AcDbText
  0
TEXT
  5
8CF8
102
{ACAD_REACTORS
330
8CF6
102
}
330
747D
100
AcDbEntity
  8
0
 48
2.0
100
AcDbText
 10
3423.685385233723
 20
46.9478827426451
 30
0.0
 40
24.0
  1
嶋
  7
SANWA
100
AcDbText
  0
TEXT
  5
8CF9
330
747D
100
AcDbEntity
  8
0
 48
2.0
100
AcDbText
 10
3325.407362835256
 20
557.2772861648263
 30
0.0
 40
24.0
  1
図面
  7
SANWA
100
AcDbText
  0
LINE
  5
8CFA
330
747D
100
AcDbEntity
  8
0
 62
     0
100
AcDbLine
 10
3202.531914893609
 20
270.0000000000018
 30
0.0
 11
3598.531914893611
 21
270.0000000000018
 31
0.0
  0
LINE
  5
8CFB
330
747D
100
AcDbEntity
  8
0
 62
     0
100
AcDbLine
 10
3202.531914893609
 20
426.0000000000031
 30
0.0
 11
3598.531914893604
 21
426.0000000000031
 31
0.0
  0
LINE
  5
8CFC
330
747D
100
AcDbEntity
  8
0
 62
     0
100
AcDbLine
 10
3202.531914893609
 20
474.0000000000036
 30
0.0
 11
3598.531914893604
 21
474.0000000000036
 31
0.0
  0
LINE
  5
8CFD
330
747D
100
AcDbEntity
  8
0
 62
     0
100
AcDbLine
 10
3202.531914893609
 20
342.0000000000027
 30
0.0
 11
3598.531914893611
 21
342.0000000000027
 31
0.0
  0
LINE
  5
8CFE
330
747D
100
AcDbEntity
  8
0
 62
     0
100
AcDbLine
 10
3202.531914893609
 20
546.0000000000031
 30
0.0
 11
3598.531914893604
 21
546.0000000000031
 31
0.0
  0
LINE
  5
8CFF
330
747D
100
AcDbEntity
  8
0
 62
     0
100
AcDbLine
 10
3202.531914893609
 20
546.0000000000031
 30
0.0
 11
3598.531914893604
 21
546.0000000000031
 31
0.0
  0
LINE
  5
8D00
330
747D
100
AcDbEntity
  8
0
100
AcDbLine
 10
3202.531914893609
 20
342.0000000000027
 30
0.0
 11
3202.531914893609
 21
378.0000000000023
 31
0.0
  0
LINE
  5
8D01
330
747D
100
AcDbEntity
  8
0
100
AcDbLine
 10
3202.531914893609
 20
378.0000000000023
 30
0.0
 11
3202.531914893609
 21
299.9351497097659
 31
0.0
  0
LINE
  5
8D02
330
747D
100
AcDbEntity
  8
0
 62
     0
100
AcDbLine
 10
3202.531914893609
 20
378.0000000000023
 30
0.0
 11
3202.531914893609
 21
150.0000000000018
 31
0.0
  0
TEXT
  5
8D03
330
747D
100
AcDbEntity
  8
0
 48
2.0
100
AcDbText
 10
3251.727101616764
 20
210.5982979690022
 30
0.0
 40
24.0
  1
河
  7
SANWA
100
AcDbText
  0
CIRCLE
  5
8D04
102
{ACAD_REACTORS
330
8D06
102
}
330
747D
100
AcDbEntity
  8
0
100
AcDbCircle
 10
3268.285395789548
 20
207.4272557095
 30
0.0
 40
47.98512634354756
  0
CIRCLE
  5
8D05
102
{ACAD_REACTORS
330
8D06
102
}
330
747D
100
AcDbEntity
  8
0
100
AcDbCircle
 10
3268.285395789548
 20
207.4272557095
 30
0.0
 40
45.58512634354756
  0
HATCH
  5
8D06
330
747D
100
AcDbEntity
  8
0
100
AcDbHatch
 10
0.0
 20
0.0
 30
0.0
210
0.0
220
0.0
230
1.0
  2
SOLID
 70
     1
 71
     1
 91
        2
 92
        7
 72
     1
 73
     1
 93
        2
 10
3316.270522133096
 20
207.4272557095
 42
1.0
 10
3220.300269446001
 20
207.4272557095
 42
1.0
 97
        1
330
8D04
 92
       22
 72
     1
 73
     1
 93
        2
 10
3313.870522133096
 20
207.4272557095
 42
1.0
 10
3222.700269446001
 20
207.4272557095
 42
1.0
 97
        1
330
8D05
 75
     0
 76
     1
 47
0.0602706122334892
 98
        2
 10
3291.275681655859
 20
248.6765068102784
 10
3291.275681655859
 20
248.6765068102784
  0
TEXT
  5
8D07
330
747D
100
AcDbEntity
  8
0
 48
2.0
100
AcDbText
 10
3251.16273105399
 20
176.6274868827722
 30
0.0
 40
24.0
  1
口
  7
SANWA
100
AcDbText
  0
TEXT
  5
8D08
330
747D
100
AcDbEntity
  8
0
 48
2.0
100
AcDbText
 10
3231.216179933133
 20
275.7717951156462
 30
0.0
 40
24.0
  1
検図
  7
SANWA
100
AcDbText
  0
TEXT
  5
8D09
330
747D
100
AcDbEntity
  8
0
 48
2.0
100
AcDbText
 10
3234.749396044363
 20
313.2513790084822
 30
0.0
 40
24.0
  1
製図
  7
SANWA
100
AcDbText
  0
LINE
  5
8D0A
330
747D
100
AcDbEntity
  8
0
100
AcDbLine
 10
3202.531914893609
 20
342.0000000000027
 30
0.0
 11
3202.531914893609
 21
306.0000000000014
 31
0.0
  0
LINE
  5
8D0B
330
747D
100
AcDbEntity
  8
0
100
AcDbLine
 10
3202.531914893609
 20
436.0565675878984
 30
0.0
 11
3202.531914893609
 21
529.2701469420904
 31
0.0
  0
LINE
  5
8D0C
330
747D
100
AcDbEntity
  8
0
 62
     0
100
AcDbLine
 10
3202.531914893609
 20
522.0000000000027
 30
0.0
 11
3202.531914893609
 21
378.0000000000023
 31
0.0
  0
LINE
  5
8D0D
330
747D
100
AcDbEntity
  8
0
100
AcDbLine
 10
3202.531914893609
 20
402.0000000000027
 30
0.0
 11
3202.531914893609
 21
436.0565675878984
 31
0.0
  0
TEXT
  5
8D0E
330
747D
100
AcDbEntity
  8
0
 48
2.0
100
AcDbText
 10
3609.288067929331
 20
324.9410917409398
 30
0.0
 40
16.79999999999999
  1
格
  7
SANWA
100
AcDbText
  0
TEXT
  5
8D0F
330
747D
100
AcDbEntity
  8
0
100
AcDbText
 10
3905.548814589661
 20
341.588571428575
 30
0.0
 40
24.0
  1
３００用
  7
SANWA
 72
     4
 11
3975.765957446805
 21
354.0000000000036
 31
0.0
100
AcDbText
  0
ARC
  5
8D10
330
747D
100
AcDbEntity
  8
0
100
AcDbCircle
 10
3680.136214331799
 20
223.2088158088008
 30
0.0
 40
41.46378893304791
100
AcDbArc
 50
276.6476737861997
 51
38.35232621379633
  0
ARC
  5
8D11
330
747D
100
AcDbEntity
  8
0
100
AcDbCircle
 10
3680.136214331799
 20
223.2088158088008
 30
0.0
 40
43.86378893304791
100
AcDbArc
 50
273.1364954470882
 51
41.86350455291399
  0
ARC
  5
8D12
330
747D
100
AcDbEntity
  8
0
100
AcDbCircle
 10
3680.136214331799
 20
223.2088158088008
 30
0.0
 40
35.46378893304791
100
AcDbArc
 50
277.7788203118981
 51
37.22117968809597
  0
HATCH
  5
8D13
330
747D
100
AcDbEntity
  8
0
100
AcDbHatch
 10
0.0
 20
0.0
 30
0.0
210
0.0
220
0.0
230
1.0
  2
SOLID
 70
     1
 71
     0
 91
        6
 92
        7
 72
     1
 73
     1
 93
        4
 10
3650.86334988054
 20
255.87579280976
 42
0.0
 10
3658.515314664832
 20
248.2238280254696
 42
-0.3722683533228755
 10
3701.757113998773
 20
248.2238280254633
 42
0.0
 10
3709.409078783061
 20
255.8757928097575
 42
0.3824979940290032
 97
        0
 92
       22
 72
     1
 73
     1
 93
        4
 10
3705.864308023084
 20
255.7251345994753
 42
0.0
 10
3701.588030276404
 20
251.4488568527961
 42
0.3367429548950839
 10
3658.684398387197
 20
251.4488568527988
 42
0.0
 10
3654.408120640516
 20
255.7251345994775
 42
-0.3477704275231004
 97
        0
 92
        7
 72
     1
 73
     1
 93
        4
 10
3705.151226548468
 20
244.8297154757679
 42
-0.6168583269097676
 10
3682.53621433181
 20
190.2322462690642
 42
0.0
 10
3682.536214331804
 20
179.4107338923179
 42
0.629288915937916
 10
3712.803191332756
 20
252.4816802600617
 42
0.0
 97
        0
 92
       22
 72
     1
 73
     1
 93
        4
 10
3712.652533122476
 20
248.9369095000845
 42
-0.5873104908888777
 10
3684.936214331802
 20
182.0237967765809
 42
0.0
 10
3684.936214331802
 20
188.0713667624095
 42
0.5741105922167029
 10
3708.376255375795
 20
244.6606317534056
 42
0.0
 97
        0
 92
        7
 72
     1
 73
     1
 93
        4
 10
3647.469237330845
 20
252.4816802600653
 42
0.6292889159380128
 10
3677.736214331801
 20
179.4107338923175
 42
0.0
 10
3677.736214331801
 20
190.2322462690631
 42
-0.6168583269100097
 10
3655.121202115136
 20
244.8297154757752
 42
0.0
 97
        0
 92
       22
 72
     1
 73
     1
 93
        4
 10
3651.896173287806
 20
244.660631753409
 42
0.5741105922168146
 10
3675.336214331804
 20
188.0713667624086
 42
0.0
 10
3675.336214331804
 20
182.0237967765799
 42
-0.5873104908889749
 10
3647.619895541126
 20
248.9369095000879
 42
0.0
 97
        0
 75
     0
 76
     1
 47
0.0143554168026844
 98
        6
 10
3699.348496783976
 20
260.8853257705127
 10
3699.348496783976
 20
260.8853257705127
 10
3708.313957346866
 20
246.9318614530635
 10
3708.313957346866
 20
246.9318614530635
 10
3652.96945335604
 20
246.4150661606036
 10
3652.96945335604
 20
246.4150661606036
  0
ARC
  5
8D14
330
747D
100
AcDbEntity
  8
0
100
AcDbCircle
 10
3680.136214331799
 20
223.2088158088008
 30
0.0
 40
33.06378893304791
100
AcDbArc
 50
274.1625874111327
 51
40.83741258886724
  0
LINE
  5
8D15
330
747D
100
AcDbEntity
  8
0
100
AcDbLine
 10
3466.531914893607
 20
150.0000000000018
 30
0.0
 11
3466.531914893607
 21
306.0000000000014
 31
0.0
  0
ARC
  5
8D16
330
747D
100
AcDbEntity
  8
0
100
AcDbCircle
 10
3680.136214331799
 20
223.2088158088008
 30
0.0
 40
33.06378893304791
100
AcDbArc
 50
139.1625874111327
 51
265.8374125888673
  0
ARC
  5
8D17
330
747D
100
AcDbEntity
  8
0
100
AcDbCircle
 10
3680.136214331799
 20
223.2088158088008
 30
0.0
 40
35.46378893304791
100
AcDbArc
 50
142.778820311904
 51
262.2211796881019
  0
ARC
  5
8D18
330
747D
100
AcDbEntity
  8
0
100
AcDbCircle
 10
3680.136214331799
 20
223.2088158088008
 30
0.0
 40
43.86378893304791
100
AcDbArc
 50
138.136495447086
 51
266.8635045529118
  0
ARC
  5
8D19
330
747D
100
AcDbEntity
  8
0
100
AcDbCircle
 10
3680.136214331799
 20
223.2088158088008
 30
0.0
 40
41.46378893304791
100
AcDbArc
 50
141.6476737862037
 51
263.3523262138003
  0
TEXT
  5
8D1A
330
747D
100
AcDbEntity
  8
0
100
AcDbText
 10
3666.709002834934
 20
206.7188724106802
 30
0.0
 40
18.0
  1
和
  7
SANWA
100
AcDbText
  0
TEXT
  5
8D1B
102
{ACAD_REACTORS
330
8D1E
102
}
330
747D
100
AcDbEntity
  8
0
 48
2.0
100
AcDbText
 10
3515.556245060282
 20
218.1742756123142
 30
0.0
 40
24.0
  1
中
  7
SANWA
100
AcDbText
  0
CIRCLE
  5
8D1C
102
{ACAD_REACTORS
330
8D1E
102
}
330
747D
100
AcDbEntity
  8
0
100
AcDbCircle
 10
3532.114539233068
 20
210.1723780814391
 30
0.0
 40
47.98512634354756
  0
CIRCLE
  5
8D1D
102
{ACAD_REACTORS
330
8D1E
102
}
330
747D
100
AcDbEntity
  8
0
100
AcDbCircle
 10
3532.114539233068
 20
210.1723780814391
 30
0.0
 40
45.58512634354756
  0
HATCH
  5
8D1E
330
747D
100
AcDbEntity
  8
0
100
AcDbHatch
 10
0.0
 20
0.0
 30
0.0
210
0.0
220
0.0
230
1.0
  2
SOLID
 70
     1
 71
     1
 91
        4
 92
        7
 72
     1
 73
     1
 93
        2
 10
3580.099665576616
 20
210.1723780814391
 42
1.0
 10
3484.12941288952
 20
210.1723780814391
 42
1.0
 97
        1
330
8D1C
 92
       22
 72
     1
 73
     1
 93
        2
 10
3577.699665576616
 20
210.1723780814391
 42
1.0
 10
3486.52941288952
 20
210.1723780814391
 42
1.0
 97
        1
330
8D1D
 92
      136
 93
        4
 72
     1
 10
3507.567673631712
 20
206.2085613265999
 11
3558.653387917426
 21
206.2085613265999
 72
     1
 10
3558.653387917426
 20
206.2085613265999
 11
3558.653387917426
 21
254.1399898980285
 72
     1
 10
3558.653387917426
 20
254.1399898980285
 11
3507.567673631712
 21
254.1399898980285
 72
     1
 10
3507.567673631712
 20
254.1399898980285
 11
3507.567673631712
 21
206.2085613265999
 97
        1
330
8D1B
 92
      136
 93
        4
 72
     1
 10
3507.483303068929
 20
173.8148930975109
 11
3557.609017354644
 21
173.8148930975109
 72
     1
 10
3557.609017354644
 20
173.8148930975109
 11
3557.609017354644
 21
218.8663216689395
 72
     1
 10
3557.609017354644
 20
218.8663216689395
 11
3507.483303068929
 21
218.8663216689395
 72
     1
 10
3507.483303068929
 20
218.8663216689395
 11
3507.483303068929
 21
173.8148930975109
 97
        1
330
8D20
 75
     0
 76
     1
 47
0.0602706122334892
 98
        2
 10
3555.104825099378
 20
251.4216291822174
 10
3555.104825099378
 20
251.4216291822174
  0
LINE
  5
8D1F
330
747D
100
AcDbEntity
  8
0
100
AcDbLine
 10
3334.531914893606
 20
150.0000000000018
 30
0.0
 11
3334.531914893606
 21
342.0000000000027
 31
0.0
  0
TEXT
  5
8D20
102
{ACAD_REACTORS
330
8D1E
102
}
330
747D
100
AcDbEntity
  8
0
 48
2.0
100
AcDbText
 10
3514.991874497501
 20
184.2034645260824
 30
0.0
 40
24.0
  1
川
  7
SANWA
100
AcDbText
  0
LINE
  5
8D21
330
747D
100
AcDbEntity
  8
0
100
AcDbLine
 10
3675.336214331804
 20
182.0237967765802
 30
0.0
 11
3675.336214331804
 21
188.0713667624081
 31
0.0
  0
LINE
  5
8D22
330
747D
100
AcDbEntity
  8
0
100
AcDbLine
 10
3684.936214331802
 20
182.0237967765802
 30
0.0
 11
3684.936214331802
 21
188.0713667624081
 31
0.0
  0
LINE
  5
8D23
330
747D
100
AcDbEntity
  8
0
100
AcDbLine
 10
3682.536214331804
 20
179.4107338923181
 30
0.0
 11
3682.53621433181
 21
190.2322462690636
 31
0.0
  0
LINE
  5
8D24
330
747D
100
AcDbEntity
  8
0
100
AcDbLine
 10
3677.736214331801
 20
179.4107338923181
 30
0.0
 11
3677.736214331801
 21
190.232246269062
 31
0.0
  0
TEXT
  5
8D25
330
747D
100
AcDbEntity
  8
0
 48
2.0
100
AcDbText
 10
3498.749396044362
 20
277.2513790084827
 30
0.0
 40
24.0
  1
製図
  7
SANWA
100
AcDbText
  0
TEXT
  5
8D26
330
747D
100
AcDbEntity
  8
0
 48
2.0
100
AcDbText
 10
3388.972302949399
 20
313.2513790084822
 30
0.0
 40
24.0
  1
2000.12.19
  7
SANWA
100
AcDbText
  0
TEXT
  5
8D27
330
747D
100
AcDbEntity
  8
0
 48
2.0
100
AcDbText
 10
3369.075985825585
 20
277.1357177512964
 30
0.0
 40
24.0
  1
設計
  7
SANWA
100
AcDbText
  0
LINE
  5
8D28
330
747D
100
AcDbEntity
  8
0
100
AcDbLine
 10
3708.376255375795
 20
244.6606317534054
 30
0.0
 11
3712.652533122477
 21
248.9369095000866
 31
0.0
  0
LINE
  5
8D29
330
747D
100
AcDbEntity
  8
0
100
AcDbLine
 10
3701.588030276405
 20
251.4488568527968
 30
0.0
 11
3705.864308023087
 21
255.725134599478
 31
0.0
  0
LINE
  5
8D2A
330
747D
100
AcDbEntity
  8
0
100
AcDbLine
 10
3701.757113998777
 20
248.2238280254664
 30
0.0
 11
3709.409078783063
 21
255.8757928097593
 31
0.0
  0
LINE
  5
8D2B
330
747D
100
AcDbEntity
  8
0
100
AcDbLine
 10
3705.151226548471
 20
244.8297154757715
 30
0.0
 11
3712.803191332758
 21
252.4816802600629
 31
0.0
  0
LINE
  5
8D2C
330
747D
100
AcDbEntity
  8
0
100
AcDbLine
 10
3658.6843983872
 20
251.4488568527968
 30
0.0
 11
3654.408120640517
 21
255.7251345994764
 31
0.0
  0
LINE
  5
8D2D
330
747D
100
AcDbEntity
  8
0
100
AcDbLine
 10
3651.896173287809
 20
244.6606317534054
 30
0.0
 11
3647.619895541127
 21
248.9369095000866
 31
0.0
  0
LINE
  5
8D2E
330
747D
100
AcDbEntity
  8
0
100
AcDbLine
 10
3655.12120211514
 20
244.8297154757715
 30
0.0
 11
3647.422775453863
 21
252.5281421370471
 31
0.0
  0
LINE
  5
8D2F
330
747D
100
AcDbEntity
  8
0
100
AcDbLine
 10
3658.515314664835
 20
248.2238280254664
 30
0.0
 11
3650.816888003558
 21
255.922254686742
 31
0.0
  0
TEXT
  5
8D30
330
747D
100
AcDbEntity
  8
0
100
AcDbText
 10
3666.709002834934
 20
230.6320916026407
 30
0.0
 40
18.0
  1
三
  7
SANWA
100
AcDbText
  0
ARC
  5
8D31
330
747D
100
AcDbEntity
  8
0
100
AcDbCircle
 10
3680.136214331799
 20
223.2088158088008
 30
0.0
 40
43.86378893304791
100
AcDbArc
 50
48.13649544708948
 51
131.8635045529105
  0
ARC
  5
8D32
330
747D
100
AcDbEntity
  8
0
100
AcDbCircle
 10
3680.136214331799
 20
223.2088158088008
 30
0.0
 40
41.46378893304791
100
AcDbArc
 50
51.64767378620982
 51
128.3523262137984
  0
ARC
  5
8D33
330
747D
100
AcDbEntity
  8
0
100
AcDbCircle
 10
3680.136214331799
 20
223.2088158088008
 30
0.0
 40
35.46378893304791
100
AcDbArc
 50
52.77882031190353
 51
127.2211796880964
  0
ARC
  5
8D34
330
747D
100
AcDbEntity
  8
0
100
AcDbCircle
 10
3680.136214331799
 20
223.2088158088008
 30
0.0
 40
33.06378893304791
100
AcDbArc
 50
49.16258741113152
 51
130.8374125888685
  0
TEXT
  5
8D35
330
747D
100
AcDbEntity
  8
0
 48
2.0
100
AcDbText
 10
3608.763425308405
 20
466.4348193000683
 30
0.0
 40
16.79999999999999
  1
呼
  7
SANWA
100
AcDbText
  0
TEXT
  5
8D36
330
747D
100
AcDbEntity
  8
0
 48
2.0
100
AcDbText
 10
3341.538433474464
 20
378.5853012973512
 30
0.0
 40
24.0
  1
1 : 15
  7
SANWA
100
AcDbText
  0
TEXT
  5
8D37
330
747D
100
AcDbEntity
  8
0
 48
2.0
100
AcDbText
 10
3326.458873159416
 20
434.3839146702152
 30
0.0
 40
24.0
  1
縮    尺
  7
SANWA
100
AcDbText
  0
TEXT
  5
8D38
330
747D
100
AcDbEntity
  8
0
 48
2.0
100
AcDbText
 10
3609.288067929331
 20
360.6846153128759
 30
0.0
 40
16.79999999999999
  1
規
  7
SANWA
100
AcDbText
  0
TEXT
  5
8D39
330
747D
100
AcDbEntity
  8
0
 48
2.0
100
AcDbText
 10
3608.865365864922
 20
419.9263485547305
 30
0.0
 40
16.79999999999999
  1
名
  7
SANWA
100
AcDbText
  0
TEXT
  5
8D3A
330
747D
100
AcDbEntity
  8
0
 48
2.0
100
AcDbText
 10
3608.525134886852
 20
443.4326160008049
 30
0.0
 40
16.79999999999999
  1
び
  7
SANWA
100
AcDbText
  0
TEXT
  5
8D3B
330
747D
100
AcDbEntity
  8
0
 48
2.0
100
AcDbText
 10
3392.339284911456
 20
558.6411916425954
 30
0.0
 40
24.0
  1
番号
  7
SANWA
100
AcDbText
  0
TEXT
  5
8D3C
330
747D
100
AcDbEntity
  8
0
 48
2.0
100
AcDbText
 10
3608.833038597707
 20
520.9962632445933
 30
0.0
 40
16.79999999999999
  1
名
  7
SANWA
100
AcDbText
  0
TEXT
  5
8D3D
330
747D
100
AcDbEntity
  8
0
 48
2.0
100
AcDbText
 10
3609.743097260969
 20
560.3768966870496
 30
0.0
 40
16.79999999999999
  1
品
  7
SANWA
100
AcDbText
  0
TEXT
  5
8D3E
330
747D
100
AcDbEntity
  8
0
100
AcDbText
 10
3940.657386018233
 20
436.6971428571463
 30
0.0
 40
24.0
  1
Ｂ型
  7
SANWA
 72
     4
 11
3975.765957446805
 21
450.0000000000034
 31
0.0
100
AcDbText
  0
DIMENSION
  5
8D3F
330
747D
100
AcDbEntity
  8
寸法引出
 48
15.0
100
AcDbDimension
  2
*D24
 10
1741.379639973106
 20
622.8193601176026
 30
0.0
 11
1728.879639973106
 21
652.8193601176026
 31
0.0
 70
    32
 71
     5
 42
25.0
  3
SANWA
100
AcDbAlignedDimension
 13
1716.379639973106
 23
741.5677476870105
 33
0.0
 14
1741.379639973106
 24
741.5677476870105
 34
0.0
100
AcDbRotatedDimension
1001
ACAD
1000
DSTYLE
1002
{
1070
    40
1040
15.0
1070
    41
1040
1.5
1070
    43
1040
5.0
1070
    44
1040
0.5
1070
    75
1070
     1
1070
   140
1040
2.0
1070
   147
1040
1.0
1070
   176
1070
   256
1070
   177
1070
   256
1070
   178
1070
   256
1070
   279
1070
     1
1002
}
  0
LINE
  5
8D40
330
747D
100
AcDbEntity
  8
0
 48
15.0
100
AcDbLine
 10
1341.379639973106
 20
741.5677476870105
 30
0.0
 11
1741.379639973106
 21
741.5677476870105
 31
0.0
  0
DIMENSION
  5
8D41
330
747D
100
AcDbEntity
  8
寸法引出
 48
15.0
100
AcDbDimension
  2
*D25
 10
1252.578843988344
 20
741.5677476870106
 30
0.0
 11
1222.578843988344
 21
801.5677476870108
 31
0.0
 70
    32
 71
     5
 42
120.0
  3
SANWA
100
AcDbAlignedDimension
 13
1341.379639973106
 23
861.5677476870105
 33
0.0
 14
1341.379639973106
 24
741.5677476870105
 34
0.0
 50
90.0
100
AcDbRotatedDimension
1001
ACAD
1000
DSTYLE
1002
{
1070
    40
1040
15.0
1070
    41
1040
1.5
1070
    43
1040
5.0
1070
    44
1040
0.5
1070
    75
1070
     1
1070
   140
1040
2.0
1070
   147
1040
1.0
1070
   176
1070
   256
1070
   177
1070
   256
1070
   178
1070
   256
1070
   279
1070
     1
1002
}
  0
DIMENSION
  5
8D42
330
747D
100
AcDbEntity
  8
寸法引出
 48
15.0
100
AcDbDimension
  2
*D26
 10
1366.379639973106
 20
622.8193601176026
 30
0.0
 11
1353.879639973106
 21
652.8193601176026
 31
0.0
 70
    32
 71
     5
 42
25.0
  3
SANWA
100
AcDbAlignedDimension
 13
1341.379639973106
 23
741.5677476870105
 33
0.0
 14
1366.379639973106
 24
741.5677476870105
 34
0.0
100
AcDbRotatedDimension
1001
ACAD
1000
DSTYLE
1002
{
1070
   140
1040
2.0
1070
    40
1040
15.0
1070
   147
1040
1.0
1070
    44
1040
0.5
1070
    43
1040
5.0
1070
   178
1070
   256
1070
   177
1070
   256
1070
   176
1070
   256
1070
    41
1040
1.5
1002
}
  0
DIMENSION
  5
8D43
330
747D
100
AcDbEntity
  8
寸法引出
 48
15.0
100
AcDbDimension
  2
*D27
 10
1716.379639973106
 20
622.8193601176026
 30
0.0
 11
1541.379639973106
 21
652.8193601176026
 31
0.0
 70
    32
 71
     5
 42
350.0
  3
SANWA
100
AcDbAlignedDimension
 13
1366.379639973106
 23
741.5677476870105
 33
0.0
 14
1716.379639973106
 24
741.5677476870105
 34
0.0
100
AcDbRotatedDimension
1001
ACAD
1000
DSTYLE
1002
{
1070
    40
1040
15.0
1070
    41
1040
1.5
1070
    43
1040
5.0
1070
    44
1040
0.5
1070
    75
1070
     1
1070
   140
1040
2.0
1070
   147
1040
1.0
1070
   176
1070
   256
1070
   177
1070
   256
1070
   178
1070
   256
1070
   279
1070
     1
1002
}
  0
CIRCLE
  5
8D44
330
747D
100
AcDbEntity
  8
0
 48
15.0
100
AcDbCircle
 10
1366.379639973106
 20
861.5677476870105
 30
0.0
 40
10.0
  0
CIRCLE
  5
8D45
330
747D
100
AcDbEntity
  8
0
 48
15.0
100
AcDbCircle
 10
1716.379639973106
 20
861.5677476870105
 30
0.0
 40
10.0
  0
LINE
  5
8D46
330
747D
100
AcDbEntity
  8
0
100
AcDbLine
 10
3598.531914893604
 20
594.0000000000036
 30
0.0
 11
3621.27727230544
 21
594.0000000000036
 31
0.0
  0
LEADER
  5
8D47
330
747D
100
AcDbEntity
  8
寸法引出
 48
15.0
100
AcDbLeader
  3
SANWA
 76
     3
 10
1366.379639973106
 20
1631.56774768701
 30
0.0
 10
1235.954146316785
 20
1840.972053562269
 30
0.0
 10
945.2881716599845
 20
1840.972053562269
 30
0.0
1001
ACAD
1000
DSTYLE
1002
{
1070
   140
1040
2.0
1070
    40
1040
15.0
1070
   147
1040
1.0
1070
    44
1040
0.5
1070
    43
1040
5.0
1070
   178
1070
   256
1070
   177
1070
   256
1070
   176
1070
   256
1070
    41
1040
1.5
1002
}
  0
LINE
  5
8DB9
330
747D
100
AcDbEntity
  8
0
100
AcDbLine
 10
0.0
 20
3000.0
 30
0.0
 11
0.0
 21
3150.0
 31
0.0
  0
LINE
  5
8DBA
330
747D
100
AcDbEntity
  8
0
100
AcDbLine
 10
0.0
 20
3150.0
 30
0.0
 11
375.0
 21
3150.0
 31
0.0
  0
DIMENSION
  5
8DBB
330
747D
100
AcDbEntity
  8
寸法引出
 48
15.0
100
AcDbDimension
  2
*D28
 10
3143.040493132293
 20
2350.47267715487
 30
0.0
 11
2643.040493132293
 21
2380.47267715487
 31
0.0
 70
    32
 71
     5
 42
1000.0
  3
SANWA
100
AcDbAlignedDimension
 13
2143.040493132293
 23
2254.779567641652
 33
0.0
 14
3143.040493132293
 24
2254.779567641652
 34
0.0
100
AcDbRotatedDimension
1001
ACAD
1000
DSTYLE
1002
{
1070
   140
1040
2.0
1070
    40
1040
15.0
1070
   147
1040
1.0
1070
    44
1040
0.5
1070
    43
1040
5.0
1070
   178
1070
   256
1070
   177
1070
   256
1070
   176
1070
   256
1070
    41
1040
1.5
1002
}
  0
DIMENSION
  5
8DBC
330
747D
100
AcDbEntity
  8
寸法引出
 48
15.0
100
AcDbDimension
  2
*D29
 10
3023.040493132294
 20
2080.142148029828
 30
0.0
 11
2643.040493132293
 21
2110.142148029828
 31
0.0
 70
    32
 71
     5
 42
760.0
  3
SANWA
100
AcDbAlignedDimension
 13
2263.040493132293
 23
2154.779567641652
 33
0.0
 14
3023.040493132294
 24
2154.779567641652
 34
0.0
100
AcDbRotatedDimension
1001
ACAD
1000
DSTYLE
1002
{
1070
    40
1040
15.0
1070
    41
1040
1.5
1070
    43
1040
5.0
1070
    44
1040
0.5
1070
    75
1070
     1
1070
   140
1040
2.0
1070
   147
1040
1.0
1070
   176
1070
   256
1070
   177
1070
   256
1070
   178
1070
   256
1070
   279
1070
     1
1002
}
  0
LINE
  5
8DBD
330
747D
100
AcDbEntity
  8
0
 48
15.0
100
AcDbLine
 10
2143.040493132293
 20
2154.779567641652
 30
0.0
 11
3143.040493132293
 21
2154.779567641652
 31
0.0
  0
LINE
  5
8DBE
330
747D
100
AcDbEntity
  8
0
 48
15.0
100
AcDbLine
 10
2143.040493132293
 20
2254.779567641652
 30
0.0
 11
3143.040493132293
 21
2254.779567641652
 31
0.0
  0
DIMENSION
  5
8DBF
330
747D
100
AcDbEntity
  8
寸法引出
 48
15.0
100
AcDbDimension
  2
*D30
 10
1741.379639973106
 20
1852.593481147321
 30
0.0
 11
1541.379639973106
 21
1882.593481147322
 31
0.0
 70
    32
 71
     5
 42
400.0
  3
SANWA
100
AcDbAlignedDimension
 13
1341.379639973106
 23
1741.56774768701
 33
0.0
 14
1741.379639973106
 24
1741.56774768701
 34
0.0
100
AcDbRotatedDimension
1001
ACAD
1000
DSTYLE
1002
{
1070
   140
1040
2.0
1070
    40
1040
15.0
1070
   147
1040
1.0
1070
    44
1040
0.5
1070
    43
1040
5.0
1070
   178
1070
   256
1070
   177
1070
   256
1070
   176
1070
   256
1070
    41
1040
1.5
1002
}
  0
LINE
  5
8DC0
330
747D
100
AcDbEntity
  8
0
 48
15.0
100
AcDbLine
 10
1341.379639973106
 20
1741.56774768701
 30
0.0
 11
1741.379639973106
 21
1741.56774768701
 31
0.0
  0
DIMENSION
  5
8DC1
330
747D
100
AcDbEntity
  8
寸法引出
 48
15.0
100
AcDbDimension
  2
*D31
 10
1252.578843988344
 20
1621.56774768701
 30
0.0
 11
1222.578843988343
 21
1681.567747687011
 31
0.0
 70
    32
 71
     5
 42
120.0
  3
SANWA
100
AcDbAlignedDimension
 13
1341.379639973106
 23
1741.56774768701
 33
0.0
 14
1341.379639973106
 24
1621.56774768701
 34
0.0
 50
90.0
100
AcDbRotatedDimension
1001
ACAD
1000
DSTYLE
1002
{
1070
   140
1040
2.0
1070
    40
1040
15.0
1070
   147
1040
1.0
1070
    44
1040
0.5
1070
    43
1040
5.0
1070
   178
1070
   256
1070
   177
1070
   256
1070
   176
1070
   256
1070
    41
1040
1.5
1002
}
  0
CIRCLE
  5
8DC2
330
747D
100
AcDbEntity
  8
0
 48
15.0
100
AcDbCircle
 10
1366.379639973106
 20
1621.56774768701
 30
0.0
 40
10.0
  0
CIRCLE
  5
8DC3
330
747D
100
AcDbEntity
  8
0
 48
15.0
100
AcDbCircle
 10
1716.379639973106
 20
1621.56774768701
 30
0.0
 40
10.0
  0
MTEXT
  5
8DC4
330
747D
100
AcDbEntity
  8
寸法引出
  6
ByBlock
 48
15.0
100
AcDbMText
 10
1092.233982444892
 20
1864.128347401751
 30
0.0
 40
30.0
 41
0.0
 71
     5
 72
     1
  1
ﾛｯｸﾋﾟﾝ用ｲﾝｻｰﾄ
  7
SANWA
 73
     1
 44
1.0
1001
ACAD
1000
MTEXTBEGIN
1070
    73
1070
     1
1070
    44
1040
1.0
1070
    74
1070
     0
1000
MTEXTEND
  0
DIMENSION
  5
8DC5
330
747D
100
AcDbEntity
  8
寸法引出
 48
15.0
100
AcDbDimension
  2
*D32
 10
1856.938707791345
 20
2154.779567641652
 30
0.0
 11
1826.938707791344
 21
2204.779567641653
 31
0.0
 70
    32
 71
     5
 42
100.0
  3
SANWA
100
AcDbAlignedDimension
 13
1735.90451337318
 23
2254.779567641652
 33
0.0
 14
1735.90451337318
 24
2154.779567641652
 34
0.0
 50
90.0
100
AcDbRotatedDimension
1001
ACAD
1000
DSTYLE
1002
{
1070
   140
1040
2.0
1070
    40
1040
15.0
1070
   147
1040
1.0
1070
    44
1040
0.5
1070
    43
1040
5.0
1070
   178
1070
   256
1070
   177
1070
   256
1070
   176
1070
   256
1070
    41
1040
1.5
1002
}
  0
DIMENSION
  5
8DC6
330
747D
100
AcDbEntity
  8
寸法引出
 48
15.0
100
AcDbDimension
  2
*D33
 10
1735.90451337318
 20
2080.142148029828
 30
0.0
 11
1723.40451337318
 21
2110.142148029828
 31
0.0
 70
    32
 71
     5
 42
25.0
  3
SANWA
100
AcDbAlignedDimension
 13
1710.90451337318
 23
2154.779567641652
 33
0.0
 14
1735.90451337318
 24
2154.779567641652
 34
0.0
100
AcDbRotatedDimension
1001
ACAD
1000
DSTYLE
1002
{
1070
    40
1040
15.0
1070
    41
1040
1.5
1070
    43
1040
5.0
1070
    44
1040
0.5
1070
    75
1070
     1
1070
   140
1040
2.0
1070
   147
1040
1.0
1070
   176
1070
   256
1070
   177
1070
   256
1070
   178
1070
   256
1070
   279
1070
     1
1002
}
  0
DIMENSION
  5
8DC7
330
747D
100
AcDbEntity
  8
寸法引出
 48
15.0
100
AcDbDimension
  2
*D34
 10
1735.90451337318
 20
2350.47267715487
 30
0.0
 11
1535.90451337318
 21
2380.47267715487
 31
0.0
 70
    32
 71
     5
 42
400.0
  3
SANWA
100
AcDbAlignedDimension
 13
1335.90451337318
 23
2254.779567641652
 33
0.0
 14
1735.90451337318
 24
2254.779567641652
 34
0.0
100
AcDbRotatedDimension
1001
ACAD
1000
DSTYLE
1002
{
1070
   140
1040
2.0
1070
    40
1040
15.0
1070
   147
1040
1.0
1070
    44
1040
0.5
1070
    43
1040
5.0
1070
   178
1070
   256
1070
   177
1070
   256
1070
   176
1070
   256
1070
    41
1040
1.5
1002
}
  0
DIMENSION
  5
8DC8
330
747D
100
AcDbEntity
  8
寸法引出
 48
15.0
100
AcDbDimension
  2
*D35
 10
1360.90451337318
 20
2080.142148029828
 30
0.0
 11
1348.40451337318
 21
2110.142148029828
 31
0.0
 70
    32
 71
     5
 42
25.0
  3
SANWA
100
AcDbAlignedDimension
 13
1335.90451337318
 23
2154.779567641652
 33
0.0
 14
1360.90451337318
 24
2154.779567641652
 34
0.0
100
AcDbRotatedDimension
1001
ACAD
1000
DSTYLE
1002
{
1070
   140
1040
2.0
1070
    40
1040
15.0
1070
   147
1040
1.0
1070
    44
1040
0.5
1070
    43
1040
5.0
1070
   178
1070
   256
1070
   177
1070
   256
1070
   176
1070
   256
1070
    41
1040
1.5
1002
}
  0
LINE
  5
8DC9
330
747D
100
AcDbEntity
  8
0
 48
15.0
100
AcDbLine
 10
1335.90451337318
 20
2154.779567641652
 30
0.0
 11
1735.90451337318
 21
2154.779567641652
 31
0.0
  0
LINE
  5
8DCA
330
747D
100
AcDbEntity
  8
0
 48
15.0
100
AcDbLine
 10
1335.90451337318
 20
2254.779567641652
 30
0.0
 11
1735.90451337318
 21
2254.779567641652
 31
0.0
  0
LINE
  5
8DCB
330
747D
100
AcDbEntity
  8
0
 48
15.0
100
AcDbLine
 10
1335.90451337318
 20
2254.779567641652
 30
0.0
 11
1335.90451337318
 21
2154.779567641652
 31
0.0
  0
LINE
  5
8DCC
330
747D
100
AcDbEntity
  8
0
 48
15.0
100
AcDbLine
 10
1735.90451337318
 20
2254.779567641652
 30
0.0
 11
1735.90451337318
 21
2154.779567641652
 31
0.0
  0
DIMENSION
  5
8DCD
330
747D
100
AcDbEntity
  8
寸法引出
 48
15.0
100
AcDbDimension
  2
*D36
 10
1710.90451337318
 20
2080.142148029828
 30
0.0
 11
1535.90451337318
 21
2110.142148029828
 31
0.0
 70
    32
 71
     5
 42
350.0
  3
SANWA
100
AcDbAlignedDimension
 13
1360.90451337318
 23
2154.779567641652
 33
0.0
 14
1710.90451337318
 24
2154.779567641652
 34
0.0
100
AcDbRotatedDimension
1001
ACAD
1000
DSTYLE
1002
{
1070
    40
1040
15.0
1070
    41
1040
1.5
1070
    43
1040
5.0
1070
    44
1040
0.5
1070
    75
1070
     1
1070
   140
1040
2.0
1070
   147
1040
1.0
1070
   176
1070
   256
1070
   177
1070
   256
1070
   178
1070
   256
1070
   279
1070
     1
1002
}
  0
LINE
  5
8DCE
330
747D
100
AcDbEntity
  8
0
  6
HIDDEN2
 48
5.0
100
AcDbLine
 10
1350.90451337318
 20
2187.779567641652
 30
0.0
 11
1370.90451337318
 21
2187.779567641652
 31
0.0
  0
LINE
  5
8DCF
330
747D
100
AcDbEntity
  8
0
  6
HIDDEN2
 48
5.0
100
AcDbLine
 10
1370.90451337318
 20
2187.779567641652
 30
0.0
 11
1370.90451337318
 21
2154.779567641652
 31
0.0
  0
LINE
  5
8DD0
330
747D
100
AcDbEntity
  8
0
  6
HIDDEN2
 48
5.0
100
AcDbLine
 10
1350.90451337318
 20
2187.779567641652
 30
0.0
 11
1350.90451337318
 21
2154.779567641652
 31
0.0
  0
LINE
  5
8DD1
330
747D
100
AcDbEntity
  8
0
  6
HIDDEN2
 48
5.0
100
AcDbLine
 10
1700.90451337318
 20
2187.779567641652
 30
0.0
 11
1720.90451337318
 21
2187.779567641652
 31
0.0
  0
LINE
  5
8DD2
330
747D
100
AcDbEntity
  8
0
  6
HIDDEN2
 48
5.0
100
AcDbLine
 10
1720.90451337318
 20
2187.779567641652
 30
0.0
 11
1720.90451337318
 21
2154.779567641652
 31
0.0
  0
LINE
  5
8DD3
330
747D
100
AcDbEntity
  8
0
  6
HIDDEN2
 48
5.0
100
AcDbLine
 10
1700.90451337318
 20
2187.779567641652
 30
0.0
 11
1700.90451337318
 21
2154.779567641652
 31
0.0
  0
LINE
  5
8DD4
330
747D
100
AcDbEntity
  8
0
 48
15.0
100
AcDbLine
 10
2143.040493132293
 20
2254.779567641652
 30
0.0
 11
2143.040493132293
 21
2154.779567641652
 31
0.0
  0
DIMENSION
  5
8DD5
330
747D
100
AcDbEntity
  8
寸法引出
 48
15.0
100
AcDbDimension
  2
*D37
 10
2263.040493132293
 20
2080.142148029828
 30
0.0
 11
2203.040493132293
 21
2110.142148029828
 31
0.0
 70
    32
 71
     5
 42
120.0
  3
SANWA
100
AcDbAlignedDimension
 13
2143.040493132293
 23
2154.779567641652
 33
0.0
 14
2263.040493132293
 24
2154.779567641652
 34
0.0
100
AcDbRotatedDimension
1001
ACAD
1000
DSTYLE
1002
{
1070
   140
1040
2.0
1070
    40
1040
15.0
1070
   147
1040
1.0
1070
    44
1040
0.5
1070
    43
1040
5.0
1070
   178
1070
   256
1070
   177
1070
   256
1070
   176
1070
   256
1070
    41
1040
1.5
1002
}
  0
LINE
  5
8DD6
330
747D
100
AcDbEntity
  8
0
  6
HIDDEN2
 48
5.0
100
AcDbLine
 10
2273.040493132294
 20
2187.779567641652
 30
0.0
 11
2273.040493132294
 21
2154.779567641652
 31
0.0
  0
LINE
  5
8DD7
330
747D
100
AcDbEntity
  8
0
  6
HIDDEN2
 48
5.0
100
AcDbLine
 10
2253.040493132294
 20
2187.779567641652
 30
0.0
 11
2253.040493132294
 21
2154.779567641652
 31
0.0
  0
LINE
  5
8DD8
330
747D
100
AcDbEntity
  8
0
  6
HIDDEN2
 48
5.0
100
AcDbLine
 10
2253.040493132294
 20
2187.779567641652
 30
0.0
 11
2273.040493132294
 21
2187.779567641652
 31
0.0
  0
DIMENSION
  5
8DD9
330
747D
100
AcDbEntity
  8
寸法引出
 48
15.0
100
AcDbDimension
  2
*D38
 10
3237.091700953461
 20
2154.779567641652
 30
0.0
 11
3207.091700953461
 21
2204.779567641653
 31
0.0
 70
    32
 71
     5
 42
100.0
  3
SANWA
100
AcDbAlignedDimension
 13
3143.040493132293
 23
2254.779567641652
 33
0.0
 14
3143.040493132293
 24
2154.779567641652
 34
0.0
 50
90.0
100
AcDbRotatedDimension
1001
ACAD
1000
DSTYLE
1002
{
1070
   140
1040
2.0
1070
    40
1040
15.0
1070
   147
1040
1.0
1070
    44
1040
0.5
1070
    43
1040
5.0
1070
   178
1070
   256
1070
   177
1070
   256
1070
   176
1070
   256
1070
    41
1040
1.5
1002
}
  0
LINE
  5
8DDA
330
747D
100
AcDbEntity
  8
0
 48
15.0
100
AcDbLine
 10
3143.040493132293
 20
2254.779567641652
 30
0.0
 11
3143.040493132293
 21
2154.779567641652
 31
0.0
  0
DIMENSION
  5
8DDB
330
747D
100
AcDbEntity
  8
寸法引出
 48
15.0
100
AcDbDimension
  2
*D39
 10
3143.040493132293
 20
2080.142148029828
 30
0.0
 11
3083.040493132294
 21
2110.142148029828
 31
0.0
 70
    32
 71
     5
 42
120.0
  3
SANWA
100
AcDbAlignedDimension
 13
3023.040493132294
 23
2154.779567641652
 33
0.0
 14
3143.040493132293
 24
2154.779567641652
 34
0.0
100
AcDbRotatedDimension
1001
ACAD
1000
DSTYLE
1002
{
1070
    40
1040
15.0
1070
    41
1040
1.5
1070
    43
1040
5.0
1070
    44
1040
0.5
1070
    75
1070
     1
1070
   140
1040
2.0
1070
   147
1040
1.0
1070
   176
1070
   256
1070
   177
1070
   256
1070
   178
1070
   256
1070
   279
1070
     1
1002
}
  0
LINE
  5
8DDC
330
747D
100
AcDbEntity
  8
0
  6
HIDDEN2
 48
5.0
100
AcDbLine
 10
3013.040493132293
 20
2187.779567641652
 30
0.0
 11
3033.040493132293
 21
2187.779567641652
 31
0.0
  0
LINE
  5
8DDD
330
747D
100
AcDbEntity
  8
0
  6
HIDDEN2
 48
5.0
100
AcDbLine
 10
3013.040493132293
 20
2187.779567641652
 30
0.0
 11
3013.040493132293
 21
2154.779567641652
 31
0.0
  0
LINE
  5
8DDE
330
747D
100
AcDbEntity
  8
0
  6
HIDDEN2
 48
5.0
100
AcDbLine
 10
3033.040493132293
 20
2187.779567641652
 30
0.0
 11
3033.040493132293
 21
2154.779567641652
 31
0.0
  0
LINE
  5
8DDF
330
747D
100
AcDbEntity
  8
0
100
AcDbLine
 10
1578.978726667996
 20
2688.000000000001
 30
0.0
 11
2942.400196294205
 21
2688.000000000001
 31
0.0
  0
LINE
  5
8DE0
330
747D
100
AcDbEntity
  8
0
100
AcDbLine
 10
1578.978726667996
 20
2700.0
 30
0.0
 11
2942.400196294205
 21
2700.0
 31
0.0
  0
TEXT
  5
8DE1
330
747D
100
AcDbEntity
  8
0
100
AcDbText
 10
1621.440635305502
 20
2722.768990422261
 30
0.0
 40
42.0
  1
マルチスリット側溝蓋 Ｂ型 ３００用
  7
SANWA
 72
     4
 11
2143.680635305502
 21
2743.768990422261
 31
0.0
100
AcDbText
  0
TEXT
  5
8DE2
330
747D
100
AcDbEntity
  8
0
100
AcDbText
 10
2728.533788237559
 20
2729.629251340877
 30
0.0
 40
36.0
  1
W=107㎏
  7
SANWA
 72
     4
 11
2820.693788237559
 21
2746.703537055163
 31
0.0
100
AcDbText
  0
LINE
  5
8DEE
330
747D
100
AcDbEntity
  8
枠
100
AcDbLine
 10
4305.0
 20
150.0
 30
0.0
 11
4305.0
 21
3000.0
 31
0.0
  0
LINE
  5
8DF1
330
747D
100
AcDbEntity
  8
0
100
AcDbLine
 10
4455.0
 20
150.0
 30
0.0
 11
4455.0
 21
0.0
 31
0.0
  0
LINE
  5
8DF3
330
747D
100
AcDbEntity
  8
0
100
AcDbLine
 10
4455.0
 20
0.0
 30
0.0
 11
4305.0
 21
0.0
 31
0.0
  0
LINE
  5
8EA7
330
747D
100
AcDbEntity
  8
0
100
AcDbLine
 10
4455.0
 20
3150.0
 30
0.0
 11
4455.0
 21
3000.0
 31
0.0
  0
LINE
  5
8EA9
330
747D
100
AcDbEntity
  8
0
100
AcDbLine
 10
4305.0
 20
3150.0
 30
0.0
 11
4455.0
 21
3150.0
 31
0.0
  0
VIEWPORT
  5
7540
102
{ACAD_XDICTIONARY
360
9938
102
}
330
747A
100
AcDbEntity
 67
     1
  8
0
100
AcDbViewport
 10
3474.182570039799
 20
1708.547292939991
 30
0.0
 40
10620.53491531423
 41
7817.291685965982
 68
     1
 69
     1
 12
3474.182570039799
 22
1708.547292939991
 13
0.0
 23
0.0
 14
10.0
 24
10.0
 15
10.0
 25
10.0
 16
0.0
 26
0.0
 36
1.0
 17
0.0
 27
0.0
 37
0.0
 42
50.0
 43
0.0
 44
0.0
 45
7817.291685965982
 50
0.0
 51
0.0
 72
   100
 90
    32800
  1

281
     0
 71
     1
 74
     0
110
0.0
120
0.0
130
0.0
111
1.0
121
0.0
131
0.0
112
0.0
122
1.0
132
0.0
 79
     0
146
0.0
  0
TEXT
  5
7737
330
747A
100
AcDbEntity
 67
     1
  8
0
 48
2.0
100
AcDbText
 10
331.871196811185
 20
20.60428158404022
 30
0.0
 40
2.0
  1

  7
SANWA
100
AcDbText
  0
ENDSEC
  0
SECTION
  2
OBJECTS
  0
DICTIONARY
  5
7471
330
0
100
AcDbDictionary
281
     1
  3
ACAD_COLOR
350
96F4
  3
ACAD_GROUP
350
7472
  3
ACAD_LAYOUT
350
88DE
  3
ACAD_MATERIAL
350
96CA
  3
ACAD_MLEADERSTYLE
350
9719
  3
ACAD_MLINESTYLE
350
7473
  3
ACAD_PLOTSETTINGS
350
88DF
  3
ACAD_PLOTSTYLENAME
350
88DC
  3
ACAD_SCALELIST
350
96F7
  3
ACAD_TABLESTYLE
350
96F5
  3
ACAD_VISUALSTYLE
350
96E3
  3
ACDB_RECOMPOSE_DATA
350
9936
  3
ACDBVARIABLEDICTIONARY
350
789B
  3
DWGPROPS
350
9937
  0
DICTIONARY
  5
9907
330
7474
100
AcDbDictionary
280
     1
281
     1
  3
ADSK_XREC_LAYER_RECONCILED
360
9908
  0
DICTIONARY
  5
9909
330
7486
100
AcDbDictionary
280
     1
281
     1
  3
ADSK_XREC_LAYER_RECONCILED
360
990A
  0
DICTIONARY
  5
990B
330
7950
100
AcDbDictionary
280
     1
281
     1
  3
ADSK_XREC_LAYER_RECONCILED
360
990C
  0
DICTIONARY
  5
990D
330
7D58
100
AcDbDictionary
280
     1
281
     1
  3
ADSK_XREC_LAYER_RECONCILED
360
990E
  0
DICTIONARY
  5
990F
330
7D59
100
AcDbDictionary
280
     1
281
     1
  3
ADSK_XREC_LAYER_RECONCILED
360
9910
  0
DICTIONARY
  5
9911
330
7D5A
100
AcDbDictionary
280
     1
281
     1
  3
ADSK_XREC_LAYER_RECONCILED
360
9912
  0
DICTIONARY
  5
9938
330
7540
100
AcDbDictionary
280
     1
281
     1
  3
ACAD_XREC_ROUNDTRIP
360
9939
  0
DICTIONARY
  5
96F4
102
{ACAD_REACTORS
330
7471
102
}
330
7471
100
AcDbDictionary
281
     1
  0
DICTIONARY
  5
7472
102
{ACAD_REACTORS
330
7471
102
}
330
0
100
AcDbDictionary
281
     1
  0
DICTIONARY
  5
88DE
102
{ACAD_REACTORS
330
7471
102
}
330
7471
100
AcDbDictionary
281
     1
  3
Model
350
88E0
  3
ﾚｲｱｳﾄ1
350
88E1
  0
DICTIONARY
  5
96CA
102
{ACAD_REACTORS
330
7471
102
}
330
7471
100
AcDbDictionary
281
     1
  3
ByBlock
350
96D3
  3
ByLayer
350
96CB
  3
Global
350
96DB
  0
DICTIONARY
  5
9719
102
{ACAD_REACTORS
330
7471
102
}
330
7471
100
AcDbDictionary
281
     1
  3
Standard
350
971A
  0
DICTIONARY
  5
7473
102
{ACAD_REACTORS
330
7471
102
}
330
0
100
AcDbDictionary
281
     1
  3
STANDARD
350
7480
  0
DICTIONARY
  5
88DF
102
{ACAD_REACTORS
330
7471
102
}
330
7471
100
AcDbDictionary
281
     1
  0
ACDBDICTIONARYWDFLT
  5
88DC
102
{ACAD_REACTORS
330
7471
102
}
330
7471
100
AcDbDictionary
281
     1
  3
Normal
350
88DD
100
AcDbDictionaryWithDefault
340
88DD
  0
DICTIONARY
  5
96F7
102
{ACAD_REACTORS
330
7471
102
}
330
7471
100
AcDbDictionary
281
     1
  3
A0
350
96F8
  3
A1
350
96F9
  3
A2
350
96FA
  3
A3
350
96FB
  3
A4
350
96FC
  3
A5
350
96FD
  3
A6
350
96FE
  3
A7
350
96FF
  3
A8
350
9700
  3
A9
350
9701
  3
B0
350
9702
  3
B1
350
9703
  3
B2
350
9704
  3
B3
350
9705
  3
B4
350
9706
  3
B5
350
9707
  3
B6
350
9708
  3
B7
350
9709
  3
B8
350
970A
  3
B9
350
970B
  3
C0
350
970C
  3
C1
350
970D
  3
C2
350
970E
  3
C3
350
970F
  3
C4
350
9710
  3
C5
350
9711
  3
C6
350
9712
  3
C7
350
9713
  3
C8
350
9714
  3
C9
350
9715
  3
D0
350
9716
  3
D1
350
9717
  3
D2
350
9718
  0
DICTIONARY
  5
96F5
102
{ACAD_REACTORS
330
7471
102
}
330
7471
100
AcDbDictionary
281
     1
  3
Standard
350
96F6
  0
DICTIONARY
  5
96E3
102
{ACAD_REACTORS
330
7471
102
}
330
7471
100
AcDbDictionary
281
     1
  3
2dWireframe
350
96E9
  3
3D Hidden
350
96EB
  3
3dWireframe
350
96EA
  3
Basic
350
96E8
  3
Brighten
350
96EF
  3
ColorChange
350
96F3
  3
Conceptual
350
96EC
  3
Dim
350
96EE
  3
Facepattern
350
96F2
  3
Flat
350
96E4
  3
FlatWithEdges
350
96E5
  3
Gouraud
350
96E6
  3
GouraudWithEdges
350
96E7
  3
Linepattern
350
96F1
  3
Realistic
350
96ED
  3
Thicken
350
96F0
  0
XRECORD
  5
9936
102
{ACAD_REACTORS
330
7471
102
}
330
7471
100
AcDbXrecord
280
     1
 90
        1
330
96F6
  0
DICTIONARY
  5
789B
102
{ACAD_REACTORS
330
7471
102
}
330
7471
100
AcDbDictionary
281
     1
  3
CANNOSCALE
350
9932
  3
CMLEADERSTYLE
350
9931
  3
CTABLESTYLE
350
9930
  3
DIMASSOC
350
925A
  3
INDEXCTL
350
9933
  3
SORTENTS
350
789C
  0
XRECORD
  5
9937
102
{ACAD_REACTORS
330
7471
102
}
330
7471
100
AcDbXrecord
280
     1
  1
DWGPROPS COOKIE
  2

  3

  4

  6

  7

  8
ooshima
  9

300
=
301
=
302
=
303
=
304
=
305
=
306
=
307
=
308
=
309
=
 40
0.1239564583333333
 41
2451898.440750926
 42
2455412.405827304
  1

 90
        0
  0
XRECORD
  5
9908
102
{ACAD_REACTORS
330
9907
102
}
330
9907
100
AcDbXrecord
280
     1
290
     1
  0
XRECORD
  5
990A
102
{ACAD_REACTORS
330
9909
102
}
330
9909
100
AcDbXrecord
280
     1
290
     1
  0
XRECORD
  5
990C
102
{ACAD_REACTORS
330
990B
102
}
330
990B
100
AcDbXrecord
280
     1
290
     1
  0
XRECORD
  5
990E
102
{ACAD_REACTORS
330
990D
102
}
330
990D
100
AcDbXrecord
280
     1
290
     1
  0
XRECORD
  5
9910
102
{ACAD_REACTORS
330
990F
102
}
330
990F
100
AcDbXrecord
280
     1
290
     1
  0
XRECORD
  5
9912
102
{ACAD_REACTORS
330
9911
102
}
330
9911
100
AcDbXrecord
280
     1
290
     1
  0
XRECORD
  5
9939
102
{ACAD_REACTORS
330
9938
102
}
330
9938
100
AcDbXrecord
280
     1
102
SHADEPLOT
 70
     0
  0
LAYOUT
  5
88E0
102
{ACAD_XDICTIONARY
360
993A
102
}
102
{ACAD_REACTORS
330
88DE
102
}
330
88DE
100
AcDbPlotSettings
  1

  2
DocuWorks Printer
  4
A4
  6

 40
5.408082962036132
 41
5.408079147338867
 42
5.4080810546875
 43
5.4080810546875
 44
210.0156707763672
 45
297.0106506347656
 46
4.599753379821777
 47
12.09724521636963
 48
375.0
 49
150.0
140
4305.0
141
3000.0
142
1.0
143
15.0
 70
 11940
 72
     1
 73
     1
 74
     4
  7
sanwa3.ctb
 75
     0
147
0.0666666666666667
148
-375.0
149
-150.0
100
AcDbLayout
  1
Model
 70
     1
 71
     0
 10
0.0
 20
0.0
 11
12.0
 21
9.0
 12
0.0
 22
0.0
 32
0.0
 14
0.0
 24
0.0
 34
0.0
 15
0.0
 25
0.0
 35
0.0
146
0.0
 13
0.0
 23
0.0
 33
0.0
 16
1.0
 26
0.0
 36
0.0
 17
0.0
 27
1.0
 37
0.0
 76
     0
330
747D
331
96C8
1001
ACAD_PSEXT
1000
DocuWorks Printer
1000
DocuWorks Printer Driver
1000
DocuWorks Port
1000

1070
     0
  0
LAYOUT
  5
88E1
102
{ACAD_XDICTIONARY
360
993C
102
}
102
{ACAD_REACTORS
330
88DE
102
}
330
88DE
100
AcDbPlotSettings
  1

  2
RICOH NX-510
  4
A4
  6

 40
5.873749732971191
 41
4.92125654220581
 42
7.588241577148437
 43
5.81024169921875
 44
209.9944915771484
 45
296.989501953125
 46
0.0
 47
0.0
 48
0.0
 49
0.0
140
0.0
141
0.0
142
1.0
143
35.47161092953637
 70
   688
 72
     1
 73
     1
 74
     1
  7

 75
     0
147
0.0281915586519733
148
1587.066828717961
149
1807.522793119792
100
AcDbLayout
  1
ﾚｲｱｳﾄ1
 70
     1
 71
     1
 10
-1793.165461679217
 20
-2015.874158345215
 11
8741.530601758814
 21
5432.968744225195
 12
0.0
 22
0.0
 32
0.0
 14
1.000000000000000E+20
 24
1.000000000000000E+20
 34
1.000000000000000E+20
 15
-1.000000000000000E+20
 25
-1.000000000000000E+20
 35
-1.000000000000000E+20
146
0.0
 13
0.0
 23
0.0
 33
0.0
 16
1.0
 26
0.0
 36
0.0
 17
0.0
 27
1.0
 37
0.0
 76
     0
330
747A
331
7540
  0
MATERIAL
  5
96D3
102
{ACAD_XDICTIONARY
360
96D4
102
}
102
{ACAD_REACTORS
330
96CA
102
}
330
96CA
100
AcDbMaterial
  1
ByBlock
 72
     0
 43
0.0208333333333333
 43
0.0
 43
0.0
 43
0.0
 43
0.0
 43
0.0208333333333333
 43
0.0
 43
0.0
 43
0.0
 43
0.0
 43
1.0
 43
0.0
 43
0.0
 43
0.0
 43
0.0
 43
1.0
 77
     0
 47
0.0208333333333333
 47
0.0
 47
0.0
 47
0.0
 47
0.0
 47
0.0208333333333333
 47
0.0
 47
0.0
 47
0.0
 47
0.0
 47
1.0
 47
0.0
 47
0.0
 47
0.0
 47
0.0
 47
1.0
171
     0
 49
0.0208333333333333
 49
0.0
 49
0.0
 49
0.0
 49
0.0
 49
0.0208333333333333
 49
0.0
 49
0.0
 49
0.0
 49
0.0
 49
1.0
 49
0.0
 49
0.0
 49
0.0
 49
0.0
 49
1.0
175
     0
142
0.0208333333333333
142
0.0
142
0.0
142
0.0
142
0.0
142
0.0208333333333333
142
0.0
142
0.0
142
0.0
142
0.0
142
1.0
142
0.0
142
0.0
142
0.0
142
0.0
142
1.0
179
     0
144
0.0208333333333333
144
0.0
144
0.0
144
0.0
144
0.0
144
0.0208333333333333
144
0.0
144
0.0
144
0.0
144
0.0
144
1.0
144
0.0
144
0.0
144
0.0
144
0.0
144
1.0
147
0.0208333333333333
147
0.0
147
0.0
147
0.0
147
0.0
147
0.0208333333333333
147
0.0
147
0.0
147
0.0
147
0.0
147
1.0
147
0.0
147
0.0
147
0.0
147
0.0
147
1.0
  0
MATERIAL
  5
96CB
102
{ACAD_XDICTIONARY
360
96CC
102
}
102
{ACAD_REACTORS
330
96CA
102
}
330
96CA
100
AcDbMaterial
  1
ByLayer
 72
     0
 43
0.0208333333333333
 43
0.0
 43
0.0
 43
0.0
 43
0.0
 43
0.0208333333333333
 43
0.0
 43
0.0
 43
0.0
 43
0.0
 43
1.0
 43
0.0
 43
0.0
 43
0.0
 43
0.0
 43
1.0
 77
     0
 47
0.0208333333333333
 47
0.0
 47
0.0
 47
0.0
 47
0.0
 47
0.0208333333333333
 47
0.0
 47
0.0
 47
0.0
 47
0.0
 47
1.0
 47
0.0
 47
0.0
 47
0.0
 47
0.0
 47
1.0
171
     0
 49
0.0208333333333333
 49
0.0
 49
0.0
 49
0.0
 49
0.0
 49
0.0208333333333333
 49
0.0
 49
0.0
 49
0.0
 49
0.0
 49
1.0
 49
0.0
 49
0.0
 49
0.0
 49
0.0
 49
1.0
175
     0
142
0.0208333333333333
142
0.0
142
0.0
142
0.0
142
0.0
142
0.0208333333333333
142
0.0
142
0.0
142
0.0
142
0.0
142
1.0
142
0.0
142
0.0
142
0.0
142
0.0
142
1.0
179
     0
144
0.0208333333333333
144
0.0
144
0.0
144
0.0
144
0.0
144
0.0208333333333333
144
0.0
144
0.0
144
0.0
144
0.0
144
1.0
144
0.0
144
0.0
144
0.0
144
0.0
144
1.0
147
0.0208333333333333
147
0.0
147
0.0
147
0.0
147
0.0
147
0.0208333333333333
147
0.0
147
0.0
147
0.0
147
0.0
147
1.0
147
0.0
147
0.0
147
0.0
147
0.0
147
1.0
  0
MATERIAL
  5
96DB
102
{ACAD_XDICTIONARY
360
96DC
102
}
102
{ACAD_REACTORS
330
96CA
102
}
330
96CA
100
AcDbMaterial
  1
Global
 72
     0
 43
0.0208333333333333
 43
0.0
 43
0.0
 43
0.0
 43
0.0
 43
0.0208333333333333
 43
0.0
 43
0.0
 43
0.0
 43
0.0
 43
1.0
 43
0.0
 43
0.0
 43
0.0
 43
0.0
 43
1.0
 77
     0
 47
0.0208333333333333
 47
0.0
 47
0.0
 47
0.0
 47
0.0
 47
0.0208333333333333
 47
0.0
 47
0.0
 47
0.0
 47
0.0
 47
1.0
 47
0.0
 47
0.0
 47
0.0
 47
0.0
 47
1.0
171
     0
 49
0.0208333333333333
 49
0.0
 49
0.0
 49
0.0
 49
0.0
 49
0.0208333333333333
 49
0.0
 49
0.0
 49
0.0
 49
0.0
 49
1.0
 49
0.0
 49
0.0
 49
0.0
 49
0.0
 49
1.0
175
     0
142
0.0208333333333333
142
0.0
142
0.0
142
0.0
142
0.0
142
0.0208333333333333
142
0.0
142
0.0
142
0.0
142
0.0
142
1.0
142
0.0
142
0.0
142
0.0
142
0.0
142
1.0
179
     0
144
0.0208333333333333
144
0.0
144
0.0
144
0.0
144
0.0
144
0.0208333333333333
144
0.0
144
0.0
144
0.0
144
0.0
144
1.0
144
0.0
144
0.0
144
0.0
144
0.0
144
1.0
147
0.0208333333333333
147
0.0
147
0.0
147
0.0
147
0.0
147
0.0208333333333333
147
0.0
147
0.0
147
0.0
147
0.0
147
1.0
147
0.0
147
0.0
147
0.0
147
0.0
147
1.0
  0
MLEADERSTYLE
  5
971A
102
{ACAD_REACTORS
330
9719
102
}
330
9719
100
AcDbMLeaderStyle
170
     2
171
     1
172
     0
 90
        2
 40
0.0
 41
0.0
173
     1
 91
-1056964608
340
7477
 92
       -2
290
     1
 42
2.0
291
     1
 43
0.36
  3
Standard
 44
4.0
300

342
7475
174
     1
178
     6
175
     1
176
     0
 93
-1056964608
 45
4.0
292
     0
297
     0
 46
4.0
 94
-1056964608
 47
1.0
 49
1.0
140
1.0
293
     1
141
0.0
294
     1
177
     0
142
1.0
295
     0
296
     0
143
0.125
1001
ACAD_MLEADERVER
1070
     2
  0
MLINESTYLE
  5
7480
102
{ACAD_REACTORS
330
7473
102
}
330
0
100
AcDbMlineStyle
  2
STANDARD
 70
     0
  3

 62
     0
 51
90.0
 52
90.0
 71
     2
 49
0.5
 62
   256
  6
BYLAYER
 49
-0.5
 62
   256
  6
BYLAYER
  0
ACDBPLACEHOLDER
  5
88DD
102
{ACAD_REACTORS
330
88DC
102
}
330
88DC
  0
SCALE
  5
96F8
102
{ACAD_REACTORS
330
96F7
102
}
330
96F7
100
AcDbScale
 70
     0
300
1:1
140
1.0
141
1.0
290
     1
  0
SCALE
  5
96F9
102
{ACAD_REACTORS
330
96F7
102
}
330
96F7
100
AcDbScale
 70
     0
300
1:2
140
1.0
141
2.0
290
     0
  0
SCALE
  5
96FA
102
{ACAD_REACTORS
330
96F7
102
}
330
96F7
100
AcDbScale
 70
     0
300
1:4
140
1.0
141
4.0
290
     0
  0
SCALE
  5
96FB
102
{ACAD_REACTORS
330
96F7
102
}
330
96F7
100
AcDbScale
 70
     0
300
1:5
140
1.0
141
5.0
290
     0
  0
SCALE
  5
96FC
102
{ACAD_REACTORS
330
96F7
102
}
330
96F7
100
AcDbScale
 70
     0
300
1:8
140
1.0
141
8.0
290
     0
  0
SCALE
  5
96FD
102
{ACAD_REACTORS
330
96F7
102
}
330
96F7
100
AcDbScale
 70
     0
300
1:10
140
1.0
141
10.0
290
     0
  0
SCALE
  5
96FE
102
{ACAD_REACTORS
330
96F7
102
}
330
96F7
100
AcDbScale
 70
     0
300
1:16
140
1.0
141
16.0
290
     0
  0
SCALE
  5
96FF
102
{ACAD_REACTORS
330
96F7
102
}
330
96F7
100
AcDbScale
 70
     0
300
1:20
140
1.0
141
20.0
290
     0
  0
SCALE
  5
9700
102
{ACAD_REACTORS
330
96F7
102
}
330
96F7
100
AcDbScale
 70
     0
300
1:30
140
1.0
141
30.0
290
     0
  0
SCALE
  5
9701
102
{ACAD_REACTORS
330
96F7
102
}
330
96F7
100
AcDbScale
 70
     0
300
1:40
140
1.0
141
40.0
290
     0
  0
SCALE
  5
9702
102
{ACAD_REACTORS
330
96F7
102
}
330
96F7
100
AcDbScale
 70
     0
300
1:50
140
1.0
141
50.0
290
     0
  0
SCALE
  5
9703
102
{ACAD_REACTORS
330
96F7
102
}
330
96F7
100
AcDbScale
 70
     0
300
1:100
140
1.0
141
100.0
290
     0
  0
SCALE
  5
9704
102
{ACAD_REACTORS
330
96F7
102
}
330
96F7
100
AcDbScale
 70
     0
300
2:1
140
2.0
141
1.0
290
     0
  0
SCALE
  5
9705
102
{ACAD_REACTORS
330
96F7
102
}
330
96F7
100
AcDbScale
 70
     0
300
4:1
140
4.0
141
1.0
290
     0
  0
SCALE
  5
9706
102
{ACAD_REACTORS
330
96F7
102
}
330
96F7
100
AcDbScale
 70
     0
300
8:1
140
8.0
141
1.0
290
     0
  0
SCALE
  5
9707
102
{ACAD_REACTORS
330
96F7
102
}
330
96F7
100
AcDbScale
 70
     0
300
10:1
140
10.0
141
1.0
290
     0
  0
SCALE
  5
9708
102
{ACAD_REACTORS
330
96F7
102
}
330
96F7
100
AcDbScale
 70
     0
300
100:1
140
100.0
141
1.0
290
     0
  0
SCALE
  5
9709
102
{ACAD_REACTORS
330
96F7
102
}
330
96F7
100
AcDbScale
 70
     0
300
1/128" = 1'-0"
140
0.0078125
141
12.0
290
     0
  0
SCALE
  5
970A
102
{ACAD_REACTORS
330
96F7
102
}
330
96F7
100
AcDbScale
 70
     0
300
1/64" = 1'-0"
140
0.015625
141
12.0
290
     0
  0
SCALE
  5
970B
102
{ACAD_REACTORS
330
96F7
102
}
330
96F7
100
AcDbScale
 70
     0
300
1/32" = 1'-0"
140
0.03125
141
12.0
290
     0
  0
SCALE
  5
970C
102
{ACAD_REACTORS
330
96F7
102
}
330
96F7
100
AcDbScale
 70
     0
300
1/16" = 1'-0"
140
0.0625
141
12.0
290
     0
  0
SCALE
  5
970D
102
{ACAD_REACTORS
330
96F7
102
}
330
96F7
100
AcDbScale
 70
     0
300
3/32" = 1'-0"
140
0.09375
141
12.0
290
     0
  0
SCALE
  5
970E
102
{ACAD_REACTORS
330
96F7
102
}
330
96F7
100
AcDbScale
 70
     0
300
1/8" = 1'-0"
140
0.125
141
12.0
290
     0
  0
SCALE
  5
970F
102
{ACAD_REACTORS
330
96F7
102
}
330
96F7
100
AcDbScale
 70
     0
300
3/16" = 1'-0"
140
0.1875
141
12.0
290
     0
  0
SCALE
  5
9710
102
{ACAD_REACTORS
330
96F7
102
}
330
96F7
100
AcDbScale
 70
     0
300
1/4" = 1'-0"
140
0.25
141
12.0
290
     0
  0
SCALE
  5
9711
102
{ACAD_REACTORS
330
96F7
102
}
330
96F7
100
AcDbScale
 70
     0
300
3/8" = 1'-0"
140
0.375
141
12.0
290
     0
  0
SCALE
  5
9712
102
{ACAD_REACTORS
330
96F7
102
}
330
96F7
100
AcDbScale
 70
     0
300
1/2" = 1'-0"
140
0.5
141
12.0
290
     0
  0
SCALE
  5
9713
102
{ACAD_REACTORS
330
96F7
102
}
330
96F7
100
AcDbScale
 70
     0
300
3/4" = 1'-0"
140
0.75
141
12.0
290
     0
  0
SCALE
  5
9714
102
{ACAD_REACTORS
330
96F7
102
}
330
96F7
100
AcDbScale
 70
     0
300
1" = 1'-0"
140
1.0
141
12.0
290
     0
  0
SCALE
  5
9715
102
{ACAD_REACTORS
330
96F7
102
}
330
96F7
100
AcDbScale
 70
     0
300
1-1/2" = 1'-0"
140
1.5
141
12.0
290
     0
  0
SCALE
  5
9716
102
{ACAD_REACTORS
330
96F7
102
}
330
96F7
100
AcDbScale
 70
     0
300
3" = 1'-0"
140
3.0
141
12.0
290
     0
  0
SCALE
  5
9717
102
{ACAD_REACTORS
330
96F7
102
}
330
96F7
100
AcDbScale
 70
     0
300
6" = 1'-0"
140
6.0
141
12.0
290
     0
  0
SCALE
  5
9718
102
{ACAD_REACTORS
330
96F7
102
}
330
96F7
100
AcDbScale
 70
     0
300
1'-0" = 1'-0"
140
12.0
141
12.0
290
     0
  0
TABLESTYLE
  5
96F6
102
{ACAD_XDICTIONARY
360
9934
102
}
102
{ACAD_REACTORS
330
96F5
102
}
330
96F5
100
AcDbTableStyle
  3
Standard
 70
     0
 71
     0
 40
1.5
 41
1.5
280
     0
281
     0
  7
STANDARD
140
4.5
170
     2
 62
     0
 63
     7
283
     0
274
    -2
284
     1
 64
     0
275
    -2
285
     1
 65
     0
276
    -2
286
     1
 66
     0
277
    -2
287
     1
 67
     0
278
    -2
288
     1
 68
     0
279
    -2
289
     1
 69
     0
  7
STANDARD
140
6.0
170
     5
 62
     0
 63
     7
283
     0
274
    -2
284
     1
 64
     0
275
    -2
285
     1
 65
     0
276
    -2
286
     1
 66
     0
277
    -2
287
     1
 67
     0
278
    -2
288
     1
 68
     0
279
    -2
289
     1
 69
     0
  7
STANDARD
140
4.5
170
     5
 62
     0
 63
     7
283
     0
274
    -2
284
     1
 64
     0
275
    -2
285
     1
 65
     0
276
    -2
286
     1
 66
     0
277
    -2
287
     1
 67
     0
278
    -2
288
     1
 68
     0
279
    -2
289
     1
 69
     0
  0
VISUALSTYLE
  5
96E9
102
{ACAD_REACTORS
330
96E3
102
}
330
96E3
100
AcDbVisualStyle
  2
2dWireframe
 70
     4
 71
     0
 72
     2
 73
     0
 90
        0
 40
-0.6
 41
-30.0
 62
     5
 63
     7
 74
     1
 91
        4
 64
     7
 65
   257
 75
     1
175
     1
 42
1.0
 92
        0
 66
   257
 43
1.0
 76
     1
 77
     6
 78
     2
 67
     7
 79
     5
170
     0
171
     0
290
     0
174
     0
 93
        1
 44
0.0
173
     0
291
     0
 45
0.0
1001
ACAD
1000
AcDbSavedByObjectVersion
1070
     0
  0
VISUALSTYLE
  5
96EB
102
{ACAD_REACTORS
330
96E3
102
}
330
96E3
100
AcDbVisualStyle
  2
3D Hidden
 70
     6
 71
     1
 72
     2
 73
     2
 90
        0
 40
-0.6
 41
-30.0
 62
     5
 63
     7
 74
     2
 91
        2
 64
     7
 65
   257
 75
     2
175
     1
 42
40.0
 92
        0
 66
   257
 43
1.0
 76
     1
 77
     6
 78
     2
 67
     7
 79
     3
170
     0
171
     0
290
     0
174
     0
 93
        1
 44
0.0
173
     0
291
     0
 45
0.0
1001
ACAD
1000
AcDbSavedByObjectVersion
1070
     0
  0
VISUALSTYLE
  5
96EA
102
{ACAD_REACTORS
330
96E3
102
}
330
96E3
100
AcDbVisualStyle
  2
3dWireframe
 70
     5
 71
     0
 72
     2
 73
     0
 90
        0
 40
-0.6
 41
-30.0
 62
     5
 63
     7
 74
     1
 91
        4
 64
     7
 65
   257
 75
     1
175
     1
 42
1.0
 92
        0
 66
   257
 43
1.0
 76
     1
 77
     6
 78
     2
 67
     7
 79
     5
170
     0
171
     0
290
     0
174
     0
 93
        1
 44
0.0
173
     0
291
     0
 45
0.0
1001
ACAD
1000
AcDbSavedByObjectVersion
1070
     0
  0
VISUALSTYLE
  5
96E8
102
{ACAD_REACTORS
330
96E3
102
}
330
96E3
100
AcDbVisualStyle
  2
Basic
 70
     7
 71
     1
 72
     0
 73
     1
 90
        0
 40
-0.6
 41
-30.0
 62
     5
 63
     7
 74
     0
 91
        4
 64
     7
 65
   257
 75
     1
175
     1
 42
1.0
 92
        8
 66
     7
 43
1.0
 76
     1
 77
     6
 78
     2
 67
     7
 79
     5
170
     0
171
     0
290
     0
174
     0
 93
        1
 44
0.0
173
     0
291
     1
 45
0.0
1001
ACAD
1000
AcDbSavedByObjectVersion
1070
     0
  0
VISUALSTYLE
  5
96EF
102
{ACAD_REACTORS
330
96E3
102
}
330
96E3
100
AcDbVisualStyle
  2
Brighten
 70
    12
 71
     2
 72
     2
 73
     0
 90
        0
 40
-0.6
 41
-30.0
 62
     5
 63
     7
 74
     1
 91
        4
 64
     7
 65
   257
 75
     1
175
     1
 42
1.0
 92
        8
 66
     7
 43
1.0
 76
     1
 77
     6
 78
     2
 67
     7
 79
     5
170
     0
171
     0
290
     0
174
     0
 93
        1
 44
50.0
173
     0
291
     1
 45
0.0
1001
ACAD
1000
AcDbSavedByObjectVersion
1070
     0
  0
VISUALSTYLE
  5
96F3
102
{ACAD_REACTORS
330
96E3
102
}
330
96E3
100
AcDbVisualStyle
  2
ColorChange
 70
    16
 71
     2
 72
     2
 73
     3
 90
        0
 40
-0.6
 41
-30.0
 62
     5
 63
     8
 74
     1
 91
        4
 64
     7
 65
   257
 75
     1
175
     1
 42
1.0
 92
        8
 66
     8
 43
1.0
 76
     1
 77
     6
 78
     2
 67
     7
 79
     5
170
     0
171
     0
290
     0
174
     0
 93
        1
 44
0.0
173
     0
291
     1
 45
0.0
1001
ACAD
1000
AcDbSavedByObjectVersion
1070
     0
  0
VISUALSTYLE
  5
96EC
102
{ACAD_REACTORS
330
96E3
102
}
330
96E3
100
AcDbVisualStyle
  2
Conceptual
 70
     9
 71
     3
 72
     2
 73
     0
 90
        0
 40
-0.6
 41
-30.0
 62
     5
 63
     7
 74
     2
 91
        2
 64
     7
 65
   257
 75
     1
175
     1
 42
40.0
 92
        8
 66
     7
 43
1.0
 76
     1
 77
     6
 78
     2
 67
     7
 79
     3
170
     0
171
     0
290
     0
174
     0
 93
        1
 44
0.0
173
     0
291
     0
 45
0.0
1001
ACAD
1000
AcDbSavedByObjectVersion
1070
     0
  0
VISUALSTYLE
  5
96EE
102
{ACAD_REACTORS
330
96E3
102
}
330
96E3
100
AcDbVisualStyle
  2
Dim
 70
    11
 71
     2
 72
     2
 73
     0
 90
        0
 40
-0.6
 41
-30.0
 62
     5
 63
     7
 74
     1
 91
        4
 64
     7
 65
   257
 75
     1
175
     1
 42
1.0
 92
        8
 66
     7
 43
1.0
 76
     1
 77
     6
 78
     2
 67
     7
 79
     5
170
     0
171
     0
290
     0
174
     0
 93
        1
 44
-50.0
173
     0
291
     1
 45
0.0
1001
ACAD
1000
AcDbSavedByObjectVersion
1070
     0
  0
VISUALSTYLE
  5
96F2
102
{ACAD_REACTORS
330
96E3
102
}
330
96E3
100
AcDbVisualStyle
  2
Facepattern
 70
    15
 71
     2
 72
     2
 73
     0
 90
        0
 40
-0.6
 41
-30.0
 62
     5
 63
     7
 74
     1
 91
        4
 64
     7
 65
   257
 75
     1
175
     1
 42
1.0
 92
        8
 66
     7
 43
1.0
 76
     1
 77
     6
 78
     2
 67
     7
 79
     5
170
     0
171
     0
290
     0
174
     0
 93
        1
 44
0.0
173
     0
291
     1
 45
0.0
1001
ACAD
1000
AcDbSavedByObjectVersion
1070
     0
  0
VISUALSTYLE
  5
96E4
102
{ACAD_REACTORS
330
96E3
102
}
330
96E3
100
AcDbVisualStyle
  2
Flat
 70
     0
 71
     2
 72
     1
 73
     1
 90
        2
 40
-0.6
 41
30.0
 62
     5
 63
     7
 74
     0
 91
        4
 64
     7
 65
   257
 75
     1
175
     1
 42
1.0
 92
        8
 66
     7
 43
1.0
 76
     1
 77
     6
 78
     2
 67
     7
 79
     5
170
     0
171
     0
290
     0
174
     0
 93
       13
 44
0.0
173
     0
291
     1
 45
0.0
1001
ACAD
1000
AcDbSavedByObjectVersion
1070
     0
  0
VISUALSTYLE
  5
96E5
102
{ACAD_REACTORS
330
96E3
102
}
330
96E3
100
AcDbVisualStyle
  2
FlatWithEdges
 70
     1
 71
     2
 72
     1
 73
     1
 90
        2
 40
-0.6
 41
30.0
 62
     5
 63
     7
 74
     1
 91
        4
 64
     7
 65
   257
 75
     1
175
     1
 42
1.0
 92
        0
 66
   257
 43
1.0
 76
     1
 77
     6
 78
     2
 67
     7
 79
     5
170
     0
171
     0
290
     0
174
     0
 93
       13
 44
0.0
173
     0
291
     1
 45
0.0
1001
ACAD
1000
AcDbSavedByObjectVersion
1070
     0
  0
VISUALSTYLE
  5
96E6
102
{ACAD_REACTORS
330
96E3
102
}
330
96E3
100
AcDbVisualStyle
  2
Gouraud
 70
     2
 71
     2
 72
     2
 73
     1
 90
        2
 40
-0.6
 41
30.0
 62
     5
 63
     7
 74
     0
 91
        4
 64
     7
 65
   257
 75
     1
175
     1
 42
1.0
 92
        0
 66
     7
 43
1.0
 76
     1
 77
     6
 78
     2
 67
     7
 79
     5
170
     0
171
     0
290
     0
174
     0
 93
       13
 44
0.0
173
     0
291
     1
 45
0.0
1001
ACAD
1000
AcDbSavedByObjectVersion
1070
     0
  0
VISUALSTYLE
  5
96E7
102
{ACAD_REACTORS
330
96E3
102
}
330
96E3
100
AcDbVisualStyle
  2
GouraudWithEdges
 70
     3
 71
     2
 72
     2
 73
     1
 90
        2
 40
-0.6
 41
30.0
 62
     5
 63
     7
 74
     1
 91
        4
 64
     7
 65
   257
 75
     1
175
     1
 42
1.0
 92
        0
 66
   257
 43
1.0
 76
     1
 77
     6
 78
     2
 67
     7
 79
     5
170
     0
171
     0
290
     0
174
     0
 93
       13
 44
0.0
173
     0
291
     1
 45
0.0
1001
ACAD
1000
AcDbSavedByObjectVersion
1070
     0
  0
VISUALSTYLE
  5
96F1
102
{ACAD_REACTORS
330
96E3
102
}
330
96E3
100
AcDbVisualStyle
  2
Linepattern
 70
    14
 71
     2
 72
     2
 73
     0
 90
        0
 40
-0.6
 41
-30.0
 62
     5
 63
     7
 74
     1
 91
        4
 64
     7
 65
   257
 75
     7
175
     7
 42
1.0
 92
        8
 66
     7
 43
1.0
 76
     1
 77
     6
 78
     2
 67
     7
 79
     5
170
     0
171
     0
290
     0
174
     0
 93
        1
 44
0.0
173
     0
291
     1
 45
0.0
1001
ACAD
1000
AcDbSavedByObjectVersion
1070
     0
  0
VISUALSTYLE
  5
96ED
102
{ACAD_REACTORS
330
96E3
102
}
330
96E3
100
AcDbVisualStyle
  2
Realistic
 70
     8
 71
     2
 72
     2
 73
     0
 90
        0
 40
-0.6
 41
-30.0
 62
     5
 63
     7
 74
     1
 91
        0
 64
     7
 65
   257
 75
     1
175
     1
 42
1.0
 92
        8
 66
     8
 43
1.0
 76
     1
 77
     6
 78
     2
 67
     7
 79
     5
170
     0
171
     0
290
     0
174
     0
 93
       13
 44
0.0
173
     0
291
     0
 45
0.0
1001
ACAD
1000
AcDbSavedByObjectVersion
1070
     0
  0
VISUALSTYLE
  5
96F0
102
{ACAD_REACTORS
330
96E3
102
}
330
96E3
100
AcDbVisualStyle
  2
Thicken
 70
    13
 71
     2
 72
     2
 73
     0
 90
        0
 40
-0.6
 41
-30.0
 62
     5
 63
     7
 74
     1
 91
        4
 64
     7
 65
   257
 75
     1
175
     1
 42
1.0
 92
       12
 66
     7
 43
1.0
 76
     1
 77
     6
 78
     2
 67
     7
 79
     5
170
     0
171
     0
290
     0
174
     0
 93
        1
 44
0.0
173
     0
291
     1
 45
0.0
1001
ACAD
1000
AcDbSavedByObjectVersion
1070
     0
  0
DICTIONARYVAR
  5
9932
102
{ACAD_REACTORS
330
789B
102
}
330
789B
100
DictionaryVariables
280
     0
  1
1:1
  0
DICTIONARYVAR
  5
9931
102
{ACAD_REACTORS
330
789B
102
}
330
789B
100
DictionaryVariables
280
     0
  1
STANDARD
  0
DICTIONARYVAR
  5
9930
102
{ACAD_REACTORS
330
789B
102
}
330
789B
100
DictionaryVariables
280
     0
  1
STANDARD
  0
DICTIONARYVAR
  5
925A
102
{ACAD_REACTORS
330
789B
102
}
330
789B
100
DictionaryVariables
280
     0
  1
1
  0
DICTIONARYVAR
  5
9933
102
{ACAD_REACTORS
330
789B
102
}
330
789B
100
DictionaryVariables
280
     0
  1
0
  0
DICTIONARYVAR
  5
789C
102
{ACAD_REACTORS
330
789B
102
}
330
789B
100
DictionaryVariables
280
     0
  1
96
  0
DICTIONARY
  5
993A
330
88E0
100
AcDbDictionary
280
     1
281
     1
  3
ACAD_XREC_ROUNDTRIP
360
993B
  0
DICTIONARY
  5
993C
330
88E1
100
AcDbDictionary
280
     1
281
     1
  3
ACAD_XREC_ROUNDTRIP
360
993D
  0
DICTIONARY
  5
96D4
330
96D3
100
AcDbDictionary
280
     1
281
     1
  3
ACAD_XREC_ROUNDTRIP
360
993F
  3
BUMPTILE
360
96D6
  3
DIFFUSETILE
360
96D5
  3
OPACITYTILE
360
96D9
  3
REFLECTIONTILE
360
96D8
  3
REFRACTIONTILE
360
96DA
  3
SPECULARTILE
360
96D7
  0
DICTIONARY
  5
96CC
330
96CB
100
AcDbDictionary
280
     1
281
     1
  3
ACAD_XREC_ROUNDTRIP
360
993E
  3
BUMPTILE
360
96CE
  3
DIFFUSETILE
360
96CD
  3
OPACITYTILE
360
96D1
  3
REFLECTIONTILE
360
96D0
  3
REFRACTIONTILE
360
96D2
  3
SPECULARTILE
360
96CF
  0
DICTIONARY
  5
96DC
330
96DB
100
AcDbDictionary
280
     1
281
     1
  3
ACAD_XREC_ROUNDTRIP
360
9940
  3
BUMPTILE
360
96DE
  3
DIFFUSETILE
360
96DD
  3
OPACITYTILE
360
96E1
  3
REFLECTIONTILE
360
96E0
  3
REFRACTIONTILE
360
96E2
  3
SPECULARTILE
360
96DF
  0
DICTIONARY
  5
9934
330
96F6
100
AcDbDictionary
280
     1
281
     1
  3
ACAD_ROUNDTRIP_2008_TABLESTYLE_CELLSTYLEMAP
360
9935
  3
ACAD_XREC_ROUNDTRIP
360
9941
  0
XRECORD
  5
993B
102
{ACAD_REACTORS
330
993A
102
}
330
993A
100
AcDbXrecord
280
     1
102
SHADEPLOT
 70
     0
102
SHADEPLOTRESLEVEL
 70
     2
102
SHADEPLOTCUSTOMDPI
 70
   300
  0
XRECORD
  5
993D
102
{ACAD_REACTORS
330
993C
102
}
330
993C
100
AcDbXrecord
280
     1
102
SHADEPLOT
 70
     0
102
SHADEPLOTRESLEVEL
 70
     2
102
SHADEPLOTCUSTOMDPI
 70
   300
  0
XRECORD
  5
993F
102
{ACAD_REACTORS
330
96D4
102
}
330
96D4
100
AcDbXrecord
280
     1
102
MATERIAL
148
0.0
149
0.0
149
0.0
 93
        0
 94
      127
282
     0
 72
     0
 77
     0
171
     0
175
     0
179
     0
273
     0
  0
XRECORD
  5
96D6
102
{ACAD_REACTORS
330
96D4
102
}
330
96D4
100
AcDbXrecord
280
     1
270
     1
271
     1
  0
XRECORD
  5
96D5
102
{ACAD_REACTORS
330
96D4
102
}
330
96D4
100
AcDbXrecord
280
     1
270
     1
271
     1
  0
XRECORD
  5
96D9
102
{ACAD_REACTORS
330
96D4
102
}
330
96D4
100
AcDbXrecord
280
     1
270
     1
271
     1
  0
XRECORD
  5
96D8
102
{ACAD_REACTORS
330
96D4
102
}
330
96D4
100
AcDbXrecord
280
     1
270
     1
271
     1
  0
XRECORD
  5
96DA
102
{ACAD_REACTORS
330
96D4
102
}
330
96D4
100
AcDbXrecord
280
     1
270
     1
271
     1
  0
XRECORD
  5
96D7
102
{ACAD_REACTORS
330
96D4
102
}
330
96D4
100
AcDbXrecord
280
     1
270
     1
271
     1
  0
XRECORD
  5
993E
102
{ACAD_REACTORS
330
96CC
102
}
330
96CC
100
AcDbXrecord
280
     1
102
MATERIAL
148
0.0
149
0.0
149
0.0
 93
        0
 94
      127
282
     0
 72
     0
 77
     0
171
     0
175
     0
179
     0
273
     0
  0
XRECORD
  5
96CE
102
{ACAD_REACTORS
330
96CC
102
}
330
96CC
100
AcDbXrecord
280
     1
270
     1
271
     1
  0
XRECORD
  5
96CD
102
{ACAD_REACTORS
330
96CC
102
}
330
96CC
100
AcDbXrecord
280
     1
270
     1
271
     1
  0
XRECORD
  5
96D1
102
{ACAD_REACTORS
330
96CC
102
}
330
96CC
100
AcDbXrecord
280
     1
270
     1
271
     1
  0
XRECORD
  5
96D0
102
{ACAD_REACTORS
330
96CC
102
}
330
96CC
100
AcDbXrecord
280
     1
270
     1
271
     1
  0
XRECORD
  5
96D2
102
{ACAD_REACTORS
330
96CC
102
}
330
96CC
100
AcDbXrecord
280
     1
270
     1
271
     1
  0
XRECORD
  5
96CF
102
{ACAD_REACTORS
330
96CC
102
}
330
96CC
100
AcDbXrecord
280
     1
270
     1
271
     1
  0
XRECORD
  5
9940
102
{ACAD_REACTORS
330
96DC
102
}
330
96DC
100
AcDbXrecord
280
     1
102
MATERIAL
148
0.0
149
0.0
149
0.0
 93
        0
 94
      127
282
     0
 72
     0
 77
     0
171
     0
175
     0
179
     0
273
     0
  0
XRECORD
  5
96DE
102
{ACAD_REACTORS
330
96DC
102
}
330
96DC
100
AcDbXrecord
280
     1
270
     1
271
     1
  0
XRECORD
  5
96DD
102
{ACAD_REACTORS
330
96DC
102
}
330
96DC
100
AcDbXrecord
280
     1
270
     1
271
     1
  0
XRECORD
  5
96E1
102
{ACAD_REACTORS
330
96DC
102
}
330
96DC
100
AcDbXrecord
280
     1
270
     1
271
     1
  0
XRECORD
  5
96E0
102
{ACAD_REACTORS
330
96DC
102
}
330
96DC
100
AcDbXrecord
280
     1
270
     1
271
     1
  0
XRECORD
  5
96E2
102
{ACAD_REACTORS
330
96DC
102
}
330
96DC
100
AcDbXrecord
280
     1
270
     1
271
     1
  0
XRECORD
  5
96DF
102
{ACAD_REACTORS
330
96DC
102
}
330
96DC
100
AcDbXrecord
280
     1
270
     1
271
     1
  0
CELLSTYLEMAP
  5
9935
102
{ACAD_REACTORS
330
9934
102
}
330
9934
100
AcDbCellStyleMap
 90
        3
300
CELLSTYLE
  1
TABLEFORMAT_BEGIN
 90
        5
170
     1
 91
        0
 92
    32768
 62
   257
 93
        1
300
CONTENTFORMAT
  1
CONTENTFORMAT_BEGIN
 90
        0
 91
        0
 92
      512
 93
        0
300

 40
0.0
140
1.0
 94
        5
 62
     0
340
7475
144
6.0
309
CONTENTFORMAT_END
171
     1
301
MARGIN
  1
CELLMARGIN_BEGIN
 40
1.5
 40
1.5
 40
1.5
 40
1.5
 40
4.5
 40
4.5
309
CELLMARGIN_END
 94
        6
 95
        1
302
GRIDFORMAT
  1
GRIDFORMAT_BEGIN
 90
        0
 91
        1
 62
     0
 92
       -2
340
0
 93
        0
 40
1.125
309
GRIDFORMAT_END
 95
        2
302
GRIDFORMAT
  1
GRIDFORMAT_BEGIN
 90
        0
 91
        1
 62
     0
 92
       -2
340
0
 93
        0
 40
1.125
309
GRIDFORMAT_END
 95
        4
302
GRIDFORMAT
  1
GRIDFORMAT_BEGIN
 90
        0
 91
        1
 62
     0
 92
       -2
340
0
 93
        0
 40
1.125
309
GRIDFORMAT_END
 95
        8
302
GRIDFORMAT
  1
GRIDFORMAT_BEGIN
 90
        0
 91
        1
 62
     0
 92
       -2
340
0
 93
        0
 40
1.125
309
GRIDFORMAT_END
 95
       16
302
GRIDFORMAT
  1
GRIDFORMAT_BEGIN
 90
        0
 91
        1
 62
     0
 92
       -2
340
0
 93
        0
 40
1.125
309
GRIDFORMAT_END
 95
       32
302
GRIDFORMAT
  1
GRIDFORMAT_BEGIN
 90
        0
 91
        1
 62
     0
 92
       -2
340
0
 93
        0
 40
1.125
309
GRIDFORMAT_END
309
TABLEFORMAT_END
  1
CELLSTYLE_BEGIN
 90
        1
 91
        1
300
_TITLE
309
CELLSTYLE_END
300
CELLSTYLE
  1
TABLEFORMAT_BEGIN
 90
        5
170
     1
 91
        0
 92
        0
 62
   257
 93
        1
300
CONTENTFORMAT
  1
CONTENTFORMAT_BEGIN
 90
        0
 91
        0
 92
      512
 93
        0
300

 40
0.0
140
1.0
 94
        5
 62
     0
340
7475
144
4.5
309
CONTENTFORMAT_END
171
     1
301
MARGIN
  1
CELLMARGIN_BEGIN
 40
1.5
 40
1.5
 40
1.5
 40
1.5
 40
4.5
 40
4.5
309
CELLMARGIN_END
 94
        6
 95
        1
302
GRIDFORMAT
  1
GRIDFORMAT_BEGIN
 90
        0
 91
        1
 62
     0
 92
       -2
340
0
 93
        0
 40
1.125
309
GRIDFORMAT_END
 95
        2
302
GRIDFORMAT
  1
GRIDFORMAT_BEGIN
 90
        0
 91
        1
 62
     0
 92
       -2
340
0
 93
        0
 40
1.125
309
GRIDFORMAT_END
 95
        4
302
GRIDFORMAT
  1
GRIDFORMAT_BEGIN
 90
        0
 91
        1
 62
     0
 92
       -2
340
0
 93
        0
 40
1.125
309
GRIDFORMAT_END
 95
        8
302
GRIDFORMAT
  1
GRIDFORMAT_BEGIN
 90
        0
 91
        1
 62
     0
 92
       -2
340
0
 93
        0
 40
1.125
309
GRIDFORMAT_END
 95
       16
302
GRIDFORMAT
  1
GRIDFORMAT_BEGIN
 90
        0
 91
        1
 62
     0
 92
       -2
340
0
 93
        0
 40
1.125
309
GRIDFORMAT_END
 95
       32
302
GRIDFORMAT
  1
GRIDFORMAT_BEGIN
 90
        0
 91
        1
 62
     0
 92
       -2
340
0
 93
        0
 40
1.125
309
GRIDFORMAT_END
309
TABLEFORMAT_END
  1
CELLSTYLE_BEGIN
 90
        2
 91
        1
300
_HEADER
309
CELLSTYLE_END
300
CELLSTYLE
  1
TABLEFORMAT_BEGIN
 90
        5
170
     1
 91
        0
 92
        0
 62
   257
 93
        1
300
CONTENTFORMAT
  1
CONTENTFORMAT_BEGIN
 90
        0
 91
        0
 92
      512
 93
        0
300

 40
0.0
140
1.0
 94
        2
 62
     0
340
7475
144
4.5
309
CONTENTFORMAT_END
171
     1
301
MARGIN
  1
CELLMARGIN_BEGIN
 40
1.5
 40
1.5
 40
1.5
 40
1.5
 40
4.5
 40
4.5
309
CELLMARGIN_END
 94
        6
 95
        1
302
GRIDFORMAT
  1
GRIDFORMAT_BEGIN
 90
        0
 91
        1
 62
     0
 92
       -2
340
0
 93
        0
 40
1.125
309
GRIDFORMAT_END
 95
        2
302
GRIDFORMAT
  1
GRIDFORMAT_BEGIN
 90
        0
 91
        1
 62
     0
 92
       -2
340
0
 93
        0
 40
1.125
309
GRIDFORMAT_END
 95
        4
302
GRIDFORMAT
  1
GRIDFORMAT_BEGIN
 90
        0
 91
        1
 62
     0
 92
       -2
340
0
 93
        0
 40
1.125
309
GRIDFORMAT_END
 95
        8
302
GRIDFORMAT
  1
GRIDFORMAT_BEGIN
 90
        0
 91
        1
 62
     0
 92
       -2
340
0
 93
        0
 40
1.125
309
GRIDFORMAT_END
 95
       16
302
GRIDFORMAT
  1
GRIDFORMAT_BEGIN
 90
        0
 91
        1
 62
     0
 92
       -2
340
0
 93
        0
 40
1.125
309
GRIDFORMAT_END
 95
       32
302
GRIDFORMAT
  1
GRIDFORMAT_BEGIN
 90
        0
 91
        1
 62
     0
 92
       -2
340
0
 93
        0
 40
1.125
309
GRIDFORMAT_END
309
TABLEFORMAT_END
  1
CELLSTYLE_BEGIN
 90
        3
 91
        2
300
_DATA
309
CELLSTYLE_END
  0
XRECORD
  5
9941
102
{ACAD_REACTORS
330
9934
102
}
330
9934
100
AcDbXrecord
280
     1
102
ACAD_ROUNDTRIP_PRE2007_TABLESTYLE
 90
      512
 91
        0
  1

 92
      512
 93
        0
  2

 94
      512
 95
        0
  3

  0
ENDSEC
  0
EOF
