  0
SECTION
  2
HEADER
  9
$ACADVER
  1
AC1015
  9
$ACADMAINTVER
 70
    20
  9
$DWGCODEPAGE
  3
ANSI_932
  9
$INSBASE
 10
0.0
 20
0.0
 30
0.0
  9
$EXTMIN
 10
-0.6197056849596266
 20
-0.1922519410982204
 30
-0.0000000000000011
  9
$EXTMAX
 10
4455.540107897326
 20
3150.192283432989
 30
0.0000000000000141
  9
$LIMMIN
 10
0.0
 20
0.0
  9
$LIMMAX
 10
420.0
 20
297.0
  9
$ORTHOMODE
 70
     1
  9
$REGENMODE
 70
     1
  9
$FILLMODE
 70
     1
  9
$QTEXTMODE
 70
     0
  9
$MIRRTEXT
 70
     1
  9
$LTSCALE
 40
0.5
  9
$ATTMODE
 70
     1
  9
$TEXTSIZE
 40
2.799999999999999
  9
$TRACEWID
 40
1.0
  9
$TEXTSTYLE
  7
SANWA
  9
$CLAYER
  8
0
  9
$CELTYPE
  6
BYLAYER
  9
$CECOLOR
 62
   256
  9
$CELTSCALE
 40
15.0
  9
$DISPSILH
 70
     0
  9
$DIMSCALE
 40
15.0
  9
$DIMASZ
 40
1.5
  9
$DIMEXO
 40
1.0
  9
$DIMDLI
 40
5.0
  9
$DIMRND
 40
0.0
  9
$DIMDLE
 40
0.0
  9
$DIMEXE
 40
0.5
  9
$DIMTP
 40
0.0
  9
$DIMTM
 40
0.0
  9
$DIMTXT
 40
2.0
  9
$DIMCEN
 40
0.0
  9
$DIMTSZ
 40
0.0
  9
$DIMTOL
 70
     0
  9
$DIMLIM
 70
     0
  9
$DIMTIH
 70
     0
  9
$DIMTOH
 70
     0
  9
$DIMSE1
 70
     0
  9
$DIMSE2
 70
     0
  9
$DIMTAD
 70
     1
  9
$DIMZIN
 70
     8
  9
$DIMBLK
  1

  9
$DIMASO
 70
     1
  9
$DIMSHO
 70
     1
  9
$DIMPOST
  1

  9
$DIMAPOST
  1

  9
$DIMALT
 70
     0
  9
$DIMALTD
 70
     2
  9
$DIMALTF
 40
0.0394
  9
$DIMLFAC
 40
1.0
  9
$DIMTOFL
 70
     1
  9
$DIMTVP
 40
0.0
  9
$DIMTIX
 70
     1
  9
$DIMSOXD
 70
     0
  9
$DIMSAH
 70
     0
  9
$DIMBLK1
  1

  9
$DIMBLK2
  1

  9
$DIMSTYLE
  2
SANWA
  9
$DIMCLRD
 70
   256
  9
$DIMCLRE
 70
   256
  9
$DIMCLRT
 70
   256
  9
$DIMTFAC
 40
1.0
  9
$DIMGAP
 40
1.0
  9
$DIMJUST
 70
     0
  9
$DIMSD1
 70
     0
  9
$DIMSD2
 70
     0
  9
$DIMTOLJ
 70
     1
  9
$DIMTZIN
 70
     0
  9
$DIMALTZ
 70
     0
  9
$DIMALTTZ
 70
     0
  9
$DIMUPT
 70
     0
  9
$DIMDEC
 70
     4
  9
$DIMTDEC
 70
     4
  9
$DIMALTU
 70
     2
  9
$DIMALTTD
 70
     2
  9
$DIMTXSTY
  7
SANWA
  9
$DIMAUNIT
 70
     0
  9
$DIMADEC
 70
     0
  9
$DIMALTRND
 40
0.0
  9
$DIMAZIN
 70
     0
  9
$DIMDSEP
 70
    46
  9
$DIMATFIT
 70
     3
  9
$DIMFRAC
 70
     0
  9
$DIMLDRBLK
  1

  9
$DIMLUNIT
 70
     2
  9
$DIMLWD
 70
    -2
  9
$DIMLWE
 70
    -2
  9
$DIMTMOVE
 70
     0
  9
$LUNITS
 70
     2
  9
$LUPREC
 70
     4
  9
$SKETCHINC
 40
1.0
  9
$FILLETRAD
 40
10.0
  9
$AUNITS
 70
     0
  9
$AUPREC
 70
     0
  9
$MENU
  1
acad
  9
$ELEVATION
 40
0.0
  9
$PELEVATION
 40
0.0
  9
$THICKNESS
 40
0.0
  9
$LIMCHECK
 70
     0
  9
$CHAMFERA
 40
0.0
  9
$CHAMFERB
 40
0.0
  9
$CHAMFERC
 40
0.0
  9
$CHAMFERD
 40
0.0
  9
$SKPOLY
 70
     1
  9
$TDCREATE
 40
2451898.440750926
  9
$TDUCREATE
 40
2451898.065750926
  9
$TDUPDATE
 40
2455412.404948865
  9
$TDUUPDATE
 40
2455412.029948865
  9
$TDINDWG
 40
0.1958542708
  9
$TDUSRTIMER
 40
0.1958542708
  9
$USRTIMER
 70
     1
  9
$ANGBASE
 50
0.0
  9
$ANGDIR
 70
     0
  9
$PDMODE
 70
     0
  9
$PDSIZE
 40
0.0
  9
$PLINEWID
 40
0.0
  9
$SPLFRAME
 70
     0
  9
$SPLINETYPE
 70
     6
  9
$SPLINESEGS
 70
     8
  9
$HANDSEED
  5
9202
  9
$SURFTAB1
 70
     6
  9
$SURFTAB2
 70
     6
  9
$SURFTYPE
 70
     6
  9
$SURFU
 70
     6
  9
$SURFV
 70
     6
  9
$UCSBASE
  2

  9
$UCSNAME
  2

  9
$UCSORG
 10
0.0
 20
0.0
 30
0.0
  9
$UCSXDIR
 10
1.0
 20
0.0
 30
0.0
  9
$UCSYDIR
 10
0.0
 20
1.0
 30
0.0
  9
$UCSORTHOREF
  2

  9
$UCSORTHOVIEW
 70
     0
  9
$UCSORGTOP
 10
0.0
 20
0.0
 30
0.0
  9
$UCSORGBOTTOM
 10
0.0
 20
0.0
 30
0.0
  9
$UCSORGLEFT
 10
0.0
 20
0.0
 30
0.0
  9
$UCSORGRIGHT
 10
0.0
 20
0.0
 30
0.0
  9
$UCSORGFRONT
 10
0.0
 20
0.0
 30
0.0
  9
$UCSORGBACK
 10
0.0
 20
0.0
 30
0.0
  9
$PUCSBASE
  2

  9
$PUCSNAME
  2

  9
$PUCSORG
 10
0.0
 20
0.0
 30
0.0
  9
$PUCSXDIR
 10
1.0
 20
0.0
 30
0.0
  9
$PUCSYDIR
 10
0.0
 20
1.0
 30
0.0
  9
$PUCSORTHOREF
  2

  9
$PUCSORTHOVIEW
 70
     0
  9
$PUCSORGTOP
 10
0.0
 20
0.0
 30
0.0
  9
$PUCSORGBOTTOM
 10
0.0
 20
0.0
 30
0.0
  9
$PUCSORGLEFT
 10
0.0
 20
0.0
 30
0.0
  9
$PUCSORGRIGHT
 10
0.0
 20
0.0
 30
0.0
  9
$PUCSORGFRONT
 10
0.0
 20
0.0
 30
0.0
  9
$PUCSORGBACK
 10
0.0
 20
0.0
 30
0.0
  9
$USERI1
 70
     0
  9
$USERI2
 70
     0
  9
$USERI3
 70
     0
  9
$USERI4
 70
     0
  9
$USERI5
 70
     0
  9
$USERR1
 40
0.0
  9
$USERR2
 40
0.0
  9
$USERR3
 40
0.0
  9
$USERR4
 40
0.0
  9
$USERR5
 40
0.0
  9
$WORLDVIEW
 70
     1
  9
$SHADEDGE
 70
     3
  9
$SHADEDIF
 70
    70
  9
$TILEMODE
 70
     1
  9
$MAXACTVP
 70
    48
  9
$PINSBASE
 10
0.0
 20
0.0
 30
0.0
  9
$PLIMCHECK
 70
     0
  9
$PEXTMIN
 10
1.000000000000000E+20
 20
1.000000000000000E+20
 30
1.000000000000000E+20
  9
$PEXTMAX
 10
-1.000000000000000E+20
 20
-1.000000000000000E+20
 30
-1.000000000000000E+20
  9
$PLIMMIN
 10
-1793.326771393131
 20
-2015.928609785936
  9
$PLIMMAX
 10
8741.690859843995
 20
5433.141666028426
  9
$UNITMODE
 70
     0
  9
$VISRETAIN
 70
     1
  9
$PLINEGEN
 70
     0
  9
$PSLTSCALE
 70
     1
  9
$TREEDEPTH
 70
  3020
  9
$CMLSTYLE
  2
STANDARD
  9
$CMLJUST
 70
     0
  9
$CMLSCALE
 40
1.0
  9
$PROXYGRAPHICS
 70
     1
  9
$MEASUREMENT
 70
     1
  9
$CELWEIGHT
370
    -1
  9
$ENDCAPS
280
     0
  9
$JOINSTYLE
280
     0
  9
$LWDISPLAY
290
     0
  9
$INSUNITS
 70
     0
  9
$HYPERLINKBASE
  1

  9
$STYLESHEET
  1
sanwa3.ctb
  9
$XEDIT
290
     1
  9
$CEPSNTYPE
380
     0
  9
$PSTYLEMODE
290
     1
  9
$FINGERPRINTGUID
  2
{125C5007-2E42-4099-B9EE-4E9FAE137986}
  9
$VERSIONGUID
  2
{A2265F2A-797B-4E41-B536-30A066CADD82}
  9
$EXTNAMES
290
     1
  9
$PSVPSCALE
 40
0.0
  9
$OLESTARTUP
290
     0
  0
ENDSEC
  0
SECTION
  2
CLASSES
  0
CLASS
  1
DICTIONARYVAR
  2
AcDbDictionaryVar
  3
ObjectDBX Classes
 90
        0
280
     0
281
     0
  0
CLASS
  1
ACDBDICTIONARYWDFLT
  2
AcDbDictionaryWithDefault
  3
ObjectDBX Classes
 90
        0
280
     0
281
     0
  0
CLASS
  1
ACDBPLACEHOLDER
  2
AcDbPlaceHolder
  3
ObjectDBX Classes
 90
        0
280
     0
281
     0
  0
CLASS
  1
LAYOUT
  2
AcDbLayout
  3
ObjectDBX Classes
 90
        0
280
     0
281
     0
  0
CLASS
  1
MATERIAL
  2
AcDbMaterial
  3
ObjectDBX Classes
 90
     1153
280
     0
281
     0
  0
CLASS
  1
VISUALSTYLE
  2
AcDbVisualStyle
  3
ObjectDBX Classes
 90
     4095
280
     0
281
     0
  0
CLASS
  1
TABLESTYLE
  2
AcDbTableStyle
  3
ObjectDBX Classes
 90
     4095
280
     0
281
     0
  0
CLASS
  1
SCALE
  2
AcDbScale
  3
ObjectDBX Classes
 90
     1153
280
     0
281
     0
  0
CLASS
  1
MLEADERSTYLE
  2
AcDbMLeaderStyle
  3
ACDB_MLEADERSTYLE_CLASS
 90
     4095
280
     0
281
     0
  0
CLASS
  1
CELLSTYLEMAP
  2
AcDbCellStyleMap
  3
ObjectDBX Classes
 90
     1152
280
     0
281
     0
  0
ENDSEC
  0
SECTION
  2
TABLES
  0
TABLE
  2
VPORT
  5
746D
330
0
100
AcDbSymbolTable
 70
     1
  0
VPORT
  5
8FDF
330
746D
100
AcDbSymbolTableRecord
100
AcDbViewportTableRecord
  2
*Active
 70
     0
 10
0.0
 20
0.0
 11
1.0
 21
1.0
 12
2227.460204188068
 22
1575.00000839242
 13
0.0
 23
0.0
 14
10.0
 24
10.0
 15
10.0
 25
10.0
 16
0.0
 26
0.0
 36
1.0
 17
0.0
 27
0.0
 37
0.0
 40
3574.114120816768
 41
1.353070175438596
 42
50.0
 43
0.0
 44
0.0
 50
0.0
 51
0.0
 71
     0
 72
   100
 73
     1
 74
     0
 75
     0
 76
     0
 77
     0
 78
     0
281
     0
 65
     1
110
0.0
120
0.0
130
0.0
111
1.0
121
0.0
131
0.0
112
0.0
122
1.0
132
0.0
 79
     0
146
0.0
  0
ENDTAB
  0
TABLE
  2
LTYPE
  5
746A
330
0
100
AcDbSymbolTable
 70
     5
  0
LTYPE
  5
7477
330
746A
100
AcDbSymbolTableRecord
100
AcDbLinetypeTableRecord
  2
BYBLOCK
 70
     0
  3

 72
    65
 73
     0
 40
0.0
  0
LTYPE
  5
7478
330
746A
100
AcDbSymbolTableRecord
100
AcDbLinetypeTableRecord
  2
BYLAYER
 70
     0
  3

 72
    65
 73
     0
 40
0.0
  0
LTYPE
  5
7479
330
746A
100
AcDbSymbolTableRecord
100
AcDbLinetypeTableRecord
  2
CONTINUOUS
 70
     0
  3
Solid line
 72
    65
 73
     0
 40
0.0
  0
LTYPE
  5
7D54
330
746A
100
AcDbSymbolTableRecord
100
AcDbLinetypeTableRecord
  2
CENTER2
 70
     0
  3
Center (.5x) ___ _ ___ _ ___ _ ___ _ ___ _ ___
 72
    65
 73
     4
 40
28.575
 49
19.05
 74
     0
 49
-3.174999999999999
 74
     0
 49
3.174999999999999
 74
     0
 49
-3.174999999999999
 74
     0
  0
LTYPE
  5
7D55
330
746A
100
AcDbSymbolTableRecord
100
AcDbLinetypeTableRecord
  2
DOT
 70
     0
  3
Dot . . . . . . . . . . . . . . . . . . . . . .
 72
    65
 73
     2
 40
6.349999999999999
 49
0.0
 74
     0
 49
-6.349999999999999
 74
     0
  0
LTYPE
  5
7D56
330
746A
100
AcDbSymbolTableRecord
100
AcDbLinetypeTableRecord
  2
HIDDEN2
 70
     0
  3
Hidden (.5x) _ _ _ _ _ _ _ _ _ _ _ _ _ _ _ _ _
 72
    65
 73
     2
 40
4.762499999999999
 49
3.174999999999999
 74
     0
 49
-1.587499999999999
 74
     0
  0
LTYPE
  5
7D57
330
746A
100
AcDbSymbolTableRecord
100
AcDbLinetypeTableRecord
  2
PHANTOM2
 70
     0
  3
Phantom (.5x) ___ _ _ ___ _ _ ___ _ _ ___ _ _
 72
    65
 73
     6
 40
31.75
 49
15.875
 74
     0
 49
-3.174999999999999
 74
     0
 49
3.174999999999999
 74
     0
 49
-3.174999999999999
 74
     0
 49
3.174999999999999
 74
     0
 49
-3.174999999999999
 74
     0
  0
ENDTAB
  0
TABLE
  2
LAYER
  5
7467
330
0
100
AcDbSymbolTable
 70
     7
  0
LAYER
  5
7474
102
{ACAD_XDICTIONARY
360
91C7
102
}
330
7467
100
AcDbSymbolTableRecord
100
AcDbLayerTableRecord
  2
0
 70
     0
 62
     7
  6
CONTINUOUS
370
    -3
390
865E
  0
LAYER
  5
7485
330
7467
100
AcDbSymbolTableRecord
100
AcDbLayerTableRecord
  2
DEFPOINTS
 70
     0
 62
     7
  6
CONTINUOUS
290
     0
370
    -3
390
865E
  0
LAYER
  5
7486
102
{ACAD_XDICTIONARY
360
91C9
102
}
330
7467
100
AcDbSymbolTableRecord
100
AcDbLayerTableRecord
  2
OBJECT
 70
     0
 62
     7
  6
CONTINUOUS
370
    -3
390
865E
  0
LAYER
  5
7950
102
{ACAD_XDICTIONARY
360
91CB
102
}
330
7467
100
AcDbSymbolTableRecord
100
AcDbLayerTableRecord
  2
枠
 70
     0
 62
     3
  6
CONTINUOUS
370
    -3
390
865E
  0
LAYER
  5
7D58
102
{ACAD_XDICTIONARY
360
91CD
102
}
330
7467
100
AcDbSymbolTableRecord
100
AcDbLayerTableRecord
  2
寸法引出
 70
     0
 62
     2
  6
CONTINUOUS
370
    -3
390
865E
  0
LAYER
  5
7D59
102
{ACAD_XDICTIONARY
360
91CF
102
}
330
7467
100
AcDbSymbolTableRecord
100
AcDbLayerTableRecord
  2
鉄筋
 70
     0
 62
     4
  6
CONTINUOUS
370
    -3
390
865E
  0
LAYER
  5
7D5A
102
{ACAD_XDICTIONARY
360
91D1
102
}
330
7467
100
AcDbSymbolTableRecord
100
AcDbLayerTableRecord
  2
補助線
 70
     0
 62
     6
  6
CONTINUOUS
370
    -3
390
865E
  0
ENDTAB
  0
TABLE
  2
STYLE
  5
7468
330
0
100
AcDbSymbolTable
 70
     5
  0
STYLE
  5
7475
330
7468
100
AcDbSymbolTableRecord
100
AcDbTextStyleTableRecord
  2
STANDARD
 70
     0
 40
0.0
 41
1.0
 50
0.0
 71
     0
 42
3.5
  3
txt
  4

  0
STYLE
  5
7481
330
7468
100
AcDbSymbolTableRecord
100
AcDbTextStyleTableRecord
  2
ADESK1
 70
     0
 40
0.0
 41
1.0
 50
0.0
 71
     0
 42
5.0
  3
romans
  4
bigfont
  0
STYLE
  5
7731
330
7468
100
AcDbSymbolTableRecord
100
AcDbTextStyleTableRecord
  2
SANWA
 70
     0
 40
0.0
 41
1.0
 50
0.0
 71
     0
 42
2.799999999999999
  3
MS Mincho.ttf
  4

1001
ACAD
1000
MS Mincho
1071
    32785
  0
STYLE
  5
7D45
330
7468
100
AcDbSymbolTableRecord
100
AcDbTextStyleTableRecord
  2

 70
     1
 40
0.0
 41
1.0
 50
0.0
 71
     0
 42
3.5
  3
ltypeshp.shx
  4

  0
ENDTAB
  0
TABLE
  2
VIEW
  5
746B
330
0
100
AcDbSymbolTable
 70
     0
  0
ENDTAB
  0
TABLE
  2
UCS
  5
746C
330
0
100
AcDbSymbolTable
 70
     0
  0
ENDTAB
  0
TABLE
  2
APPID
  5
746E
330
0
100
AcDbSymbolTable
 70
     3
  0
APPID
  5
7476
330
746E
100
AcDbSymbolTableRecord
100
AcDbRegAppTableRecord
  2
ACAD
 70
     0
  0
APPID
  5
9033
330
746E
100
AcDbSymbolTableRecord
100
AcDbRegAppTableRecord
  2
ACAD_MLEADERVER
 70
     0
  0
APPID
  5
91E7
330
746E
100
AcDbSymbolTableRecord
100
AcDbRegAppTableRecord
  2
ACAD_PSEXT
 70
     0
  0
ENDTAB
  0
TABLE
  2
DIMSTYLE
  5
746F
330
0
100
AcDbSymbolTable
 70
     5
100
AcDbDimStyleTable
 71
     1
340
796F
  0
DIMSTYLE
105
7484
330
746F
100
AcDbSymbolTableRecord
100
AcDbDimStyleTableRecord
  2
JIS
 70
     0
 41
2.5
 42
1.0
 43
7.0
 44
1.0
 73
     0
 74
     0
 77
     1
 78
     8
140
2.5
141
0.0
143
0.0394
147
0.0
172
     1
174
     1
176
     2
177
     2
178
     2
340
7731
  0
DIMSTYLE
105
796F
102
{ACAD_REACTORS
330
8B3D
330
8B3E
330
8B41
330
8B43
330
8B48
330
8B49
330
8B4A
330
8B4B
330
8B4E
330
8B58
330
8B5C
330
8B5E
330
8A69
330
8A6A
330
8AC2
330
8AC3
330
8AC4
330
8AC5
102
}
330
746F
100
AcDbSymbolTableRecord
100
AcDbDimStyleTableRecord
  2
SANWA
 70
     0
 41
2.5
 42
1.0
 43
7.0
 44
1.0
 73
     0
 74
     0
 77
     1
 78
     8
140
2.5
141
0.0
143
0.0394
147
0.0
172
     1
174
     1
176
     2
177
     2
178
     2
340
7731
  0
DIMSTYLE
105
7C9D
330
746F
100
AcDbSymbolTableRecord
100
AcDbDimStyleTableRecord
  2
SANWA$4
 70
     0
 41
2.5
 42
1.0
 43
5.0
 44
1.0
 73
     0
 74
     0
 77
     1
 78
     8
140
2.5
141
0.0
143
0.0394
147
1.0
172
     1
174
     1
176
     2
177
     2
178
     2
289
     2
340
7731
  0
DIMSTYLE
105
7CB5
330
746F
100
AcDbSymbolTableRecord
100
AcDbDimStyleTableRecord
  2
SANWA$3
 70
     0
 41
2.5
 42
1.0
 43
7.0
 44
1.0
 73
     0
 74
     0
 77
     1
 78
     8
140
2.5
141
0.0
143
0.0394
147
0.0
172
     1
174
     1
176
     2
177
     2
178
     2
289
     0
340
7731
  0
ENDTAB
  0
TABLE
  2
BLOCK_RECORD
  5
7466
330
0
100
AcDbSymbolTable
 70
   131
  0
BLOCK_RECORD
  5
747D
330
7466
100
AcDbSymbolTableRecord
100
AcDbBlockTableRecord
  2
*MODEL_SPACE
340
8661
  0
BLOCK_RECORD
  5
747A
330
7466
100
AcDbSymbolTableRecord
100
AcDbBlockTableRecord
  2
*PAPER_SPACE
340
8662
  0
BLOCK_RECORD
  5
7493
330
7466
100
AcDbSymbolTableRecord
100
AcDbBlockTableRecord
  2
TITLE_BLOCK
340
0
  0
BLOCK_RECORD
  5
8C46
330
7466
100
AcDbSymbolTableRecord
100
AcDbBlockTableRecord
  2
*D87
340
0
  0
BLOCK_RECORD
  5
8C52
330
7466
100
AcDbSymbolTableRecord
100
AcDbBlockTableRecord
  2
*D88
340
0
  0
BLOCK_RECORD
  5
8C5D
330
7466
100
AcDbSymbolTableRecord
100
AcDbBlockTableRecord
  2
*D89
340
0
  0
BLOCK_RECORD
  5
8C69
330
7466
100
AcDbSymbolTableRecord
100
AcDbBlockTableRecord
  2
*D90
340
0
  0
BLOCK_RECORD
  5
8C75
330
7466
100
AcDbSymbolTableRecord
100
AcDbBlockTableRecord
  2
*D91
340
0
  0
BLOCK_RECORD
  5
8C81
330
7466
100
AcDbSymbolTableRecord
100
AcDbBlockTableRecord
  2
*D92
340
0
  0
BLOCK_RECORD
  5
8C8E
330
7466
100
AcDbSymbolTableRecord
100
AcDbBlockTableRecord
  2
*D93
340
0
  0
BLOCK_RECORD
  5
8C9A
330
7466
100
AcDbSymbolTableRecord
100
AcDbBlockTableRecord
  2
*D94
340
0
  0
BLOCK_RECORD
  5
8CA8
330
7466
100
AcDbSymbolTableRecord
100
AcDbBlockTableRecord
  2
*D95
340
0
  0
BLOCK_RECORD
  5
8CB3
330
7466
100
AcDbSymbolTableRecord
100
AcDbBlockTableRecord
  2
*D96
340
0
  0
BLOCK_RECORD
  5
8CBF
330
7466
100
AcDbSymbolTableRecord
100
AcDbBlockTableRecord
  2
*D97
340
0
  0
BLOCK_RECORD
  5
8CCB
330
7466
100
AcDbSymbolTableRecord
100
AcDbBlockTableRecord
  2
*D98
340
0
  0
BLOCK_RECORD
  5
8CD6
330
7466
100
AcDbSymbolTableRecord
100
AcDbBlockTableRecord
  2
*D99
340
0
  0
BLOCK_RECORD
  5
8CE2
330
7466
100
AcDbSymbolTableRecord
100
AcDbBlockTableRecord
  2
*D100
340
0
  0
BLOCK_RECORD
  5
8CEE
330
7466
100
AcDbSymbolTableRecord
100
AcDbBlockTableRecord
  2
*D101
340
0
  0
BLOCK_RECORD
  5
8CFA
330
7466
100
AcDbSymbolTableRecord
100
AcDbBlockTableRecord
  2
*D102
340
0
  0
BLOCK_RECORD
  5
8D07
330
7466
100
AcDbSymbolTableRecord
100
AcDbBlockTableRecord
  2
*D103
340
0
  0
BLOCK_RECORD
  5
8D15
330
7466
100
AcDbSymbolTableRecord
100
AcDbBlockTableRecord
  2
*D104
340
0
  0
BLOCK_RECORD
  5
8D23
330
7466
100
AcDbSymbolTableRecord
100
AcDbBlockTableRecord
  2
*D105
340
0
  0
BLOCK_RECORD
  5
8D2E
330
7466
100
AcDbSymbolTableRecord
100
AcDbBlockTableRecord
  2
*D106
340
0
  0
BLOCK_RECORD
  5
8D3A
330
7466
100
AcDbSymbolTableRecord
100
AcDbBlockTableRecord
  2
*D107
340
0
  0
BLOCK_RECORD
  5
8D45
330
7466
100
AcDbSymbolTableRecord
100
AcDbBlockTableRecord
  2
*D108
340
0
  0
BLOCK_RECORD
  5
8D51
330
7466
100
AcDbSymbolTableRecord
100
AcDbBlockTableRecord
  2
*D109
340
0
  0
BLOCK_RECORD
  5
8D5F
330
7466
100
AcDbSymbolTableRecord
100
AcDbBlockTableRecord
  2
*D110
340
0
  0
BLOCK_RECORD
  5
8D6C
330
7466
100
AcDbSymbolTableRecord
100
AcDbBlockTableRecord
  2
*D111
340
0
  0
BLOCK_RECORD
  5
8D77
330
7466
100
AcDbSymbolTableRecord
100
AcDbBlockTableRecord
  2
*D112
340
0
  0
BLOCK_RECORD
  5
8D84
330
7466
100
AcDbSymbolTableRecord
100
AcDbBlockTableRecord
  2
*D113
340
0
  0
BLOCK_RECORD
  5
8D90
330
7466
100
AcDbSymbolTableRecord
100
AcDbBlockTableRecord
  2
*D114
340
0
  0
BLOCK_RECORD
  5
8D9C
330
7466
100
AcDbSymbolTableRecord
100
AcDbBlockTableRecord
  2
*D115
340
0
  0
BLOCK_RECORD
  5
8DA8
330
7466
100
AcDbSymbolTableRecord
100
AcDbBlockTableRecord
  2
*D116
340
0
  0
BLOCK_RECORD
  5
8DB5
330
7466
100
AcDbSymbolTableRecord
100
AcDbBlockTableRecord
  2
*D117
340
0
  0
BLOCK_RECORD
  5
8DC0
330
7466
100
AcDbSymbolTableRecord
100
AcDbBlockTableRecord
  2
*D118
340
0
  0
BLOCK_RECORD
  5
8DCD
330
7466
100
AcDbSymbolTableRecord
100
AcDbBlockTableRecord
  2
*D119
340
0
  0
BLOCK_RECORD
  5
8DD9
330
7466
100
AcDbSymbolTableRecord
100
AcDbBlockTableRecord
  2
*D120
340
0
  0
BLOCK_RECORD
  5
8DE5
330
7466
100
AcDbSymbolTableRecord
100
AcDbBlockTableRecord
  2
*D121
340
0
  0
BLOCK_RECORD
  5
8DF2
330
7466
100
AcDbSymbolTableRecord
100
AcDbBlockTableRecord
  2
*D122
340
0
  0
BLOCK_RECORD
  5
8DFE
330
7466
100
AcDbSymbolTableRecord
100
AcDbBlockTableRecord
  2
*D123
340
0
  0
BLOCK_RECORD
  5
8E0B
330
7466
100
AcDbSymbolTableRecord
100
AcDbBlockTableRecord
  2
*D124
340
0
  0
BLOCK_RECORD
  5
8E17
330
7466
100
AcDbSymbolTableRecord
100
AcDbBlockTableRecord
  2
*D125
340
0
  0
BLOCK_RECORD
  5
8E22
330
7466
100
AcDbSymbolTableRecord
100
AcDbBlockTableRecord
  2
*D126
340
0
  0
BLOCK_RECORD
  5
8E2F
330
7466
100
AcDbSymbolTableRecord
100
AcDbBlockTableRecord
  2
*D127
340
0
  0
BLOCK_RECORD
  5
8E3A
330
7466
100
AcDbSymbolTableRecord
100
AcDbBlockTableRecord
  2
*D128
340
0
  0
BLOCK_RECORD
  5
8E48
330
7466
100
AcDbSymbolTableRecord
100
AcDbBlockTableRecord
  2
*D129
340
0
  0
ENDTAB
  0
ENDSEC
  0
SECTION
  2
BLOCKS
  0
BLOCK
  5
7489
330
747D
100
AcDbEntity
  8
0
100
AcDbBlockBegin
  2
*MODEL_SPACE
 70
     0
 10
0.0
 20
0.0
 30
0.0
  3
*MODEL_SPACE
  1

  0
ENDBLK
  5
748A
330
747D
100
AcDbEntity
  8
0
100
AcDbBlockEnd
  0
BLOCK
  5
7487
330
747A
100
AcDbEntity
 67
     1
  8
0
100
AcDbBlockBegin
  2
*PAPER_SPACE
 70
     2
 10
0.0
 20
0.0
 30
0.0
  3
*PAPER_SPACE
  1

  0
ENDBLK
  5
7488
330
747A
100
AcDbEntity
 67
     1
  8
0
100
AcDbBlockEnd
  0
BLOCK
  5
7494
330
7493
100
AcDbEntity
  8
0
100
AcDbBlockBegin
  2
TITLE_BLOCK
 70
     2
 10
0.0
 20
0.0
 30
0.0
  3
TITLE_BLOCK
  1

  0
LINE
  5
7495
330
7493
100
AcDbEntity
  8
0
 62
     0
100
AcDbLine
 10
402.7943262411347
 20
16.00000000000008
 30
0.0
 11
410.0
 21
16.00000000000008
 31
0.0
  0
LINE
  5
7496
330
7493
100
AcDbEntity
  8
0
 62
     0
100
AcDbLine
 10
410.0
 20
10.0
 30
0.0
 11
410.0
 21
49.00000000000036
 31
0.0
  0
LINE
  5
7497
330
7493
100
AcDbEntity
  8
0
 62
     0
100
AcDbLine
 10
410.0
 20
49.00000000000036
 30
0.0
 11
410.0
 21
10.0
 31
0.0
  0
LINE
  5
7498
330
7493
100
AcDbEntity
  8
0
 62
     0
100
AcDbLine
 10
402.7943262411347
 20
22.00000000000012
 30
0.0
 11
402.7943262411347
 21
10.0
 31
0.0
  0
LINE
  5
7499
330
7493
100
AcDbEntity
  8
0
 62
     0
100
AcDbLine
 10
336.1418439716306
 20
49.00000000000036
 30
0.0
 11
336.1418439716306
 21
22.00000000000012
 31
0.0
  0
LINE
  5
749A
330
7493
100
AcDbEntity
  8
0
 62
     0
100
AcDbLine
 10
325.3333333333326
 20
37.00000000000024
 30
0.0
 11
325.3333333333326
 21
25.00000000000012
 31
0.0
  0
LINE
  5
749B
330
7493
100
AcDbEntity
  8
0
 62
     0
100
AcDbLine
 10
318.1276595744673
 20
49.00000000000036
 30
0.0
 11
318.1276595744673
 21
25.00000000000012
 31
0.0
  0
LINE
  5
749C
330
7493
100
AcDbEntity
  8
0
 62
     0
100
AcDbLine
 10
318.1276595744673
 20
25.00000000000012
 30
0.0
 11
348.7517730496447
 21
25.00000000000012
 31
0.0
  0
LINE
  5
749D
330
7493
100
AcDbEntity
  8
0
 62
     0
100
AcDbLine
 10
280.2978723404242
 20
28.00000000000016
 30
0.0
 11
348.7517730496447
 21
28.00000000000016
 31
0.0
  0
LINE
  5
749E
330
7493
100
AcDbEntity
  8
0
 62
     0
100
AcDbLine
 10
280.2978723404242
 20
31.0000000000002
 30
0.0
 11
348.7517730496447
 21
31.0000000000002
 31
0.0
  0
LINE
  5
749F
330
7493
100
AcDbEntity
  8
0
 62
     0
100
AcDbLine
 10
280.2978723404242
 20
34.00000000000024
 30
0.0
 11
348.7517730496447
 21
34.00000000000024
 31
0.0
  0
LINE
  5
74A0
330
7493
100
AcDbEntity
  8
0
 62
     0
100
AcDbLine
 10
280.2978723404242
 20
19.00000000000008
 30
0.0
 11
318.1276595744673
 21
19.00000000000012
 31
0.0
  0
LINE
  5
74A1
330
7493
100
AcDbEntity
  8
0
 62
     0
100
AcDbLine
 10
280.2978723404242
 20
22.00000000000008
 30
0.0
 11
318.1276595744673
 21
22.00000000000012
 31
0.0
  0
LINE
  5
74A2
330
7493
100
AcDbEntity
  8
0
 62
     0
100
AcDbLine
 10
280.2978723404242
 20
25.00000000000012
 30
0.0
 11
318.1276595744673
 21
25.00000000000012
 31
0.0
  0
TEXT
  5
74A3
330
7493
100
AcDbEntity
  8
0
 62
     0
100
AcDbText
 10
342.2447163844405
 20
10.55220101068186
 30
0.0
 40
1.791674070777747
  1
照査
  7
ADESK1
 72
     1
 11
344.1558353932701
 21
10.55220101068186
 31
0.0
100
AcDbText
  0
TEXT
  5
74A4
330
7493
100
AcDbEntity
  8
0
 62
     0
100
AcDbText
 10
332.2960689314087
 20
10.48329012996929
 30
0.0
 40
1.791674070777747
  1
設計
  7
ADESK1
 72
     1
 11
334.2071879402383
 21
10.48329012996929
 31
0.0
100
AcDbText
  0
TEXT
  5
74A5
330
7493
100
AcDbEntity
  8
0
 62
     0
100
AcDbText
 10
321.7174935280942
 20
10.48329012996929
 30
0.0
 40
1.791674070777747
  1
製図
  7
ADESK1
 72
     1
 11
323.5688900678979
 21
10.48329012996929
 31
0.0
100
AcDbText
  0
LINE
  5
74A6
330
7493
100
AcDbEntity
  8
0
 62
     0
100
AcDbLine
 10
280.2978723404242
 20
10.0
 30
0.0
 11
280.2978723404242
 21
13.00000000000004
 31
0.0
  0
LINE
  5
74A7
330
7493
100
AcDbEntity
  8
0
 62
     0
100
AcDbLine
 10
280.2978723404242
 20
16.00000000000008
 30
0.0
 11
318.1276595744673
 21
16.00000000000008
 31
0.0
  0
LINE
  5
74A8
330
7493
100
AcDbEntity
  8
0
 62
     0
100
AcDbLine
 10
339.4042553191484
 20
22.00000000000008
 30
0.0
 11
339.4042553191484
 21
10.0
 31
0.0
  0
LINE
  5
74A9
330
7493
100
AcDbEntity
  8
0
 62
     0
100
AcDbLine
 10
328.7659574468078
 20
22.00000000000008
 30
0.0
 11
328.7659574468078
 21
10.0
 31
0.0
  0
LINE
  5
74AA
330
7493
100
AcDbEntity
  8
0
 62
     0
100
AcDbLine
 10
348.7517730496447
 20
49.00000000000036
 30
0.0
 11
348.7517730496447
 21
10.0
 31
0.0
  0
LINE
  5
74AB
330
7493
100
AcDbEntity
  8
0
 62
     0
100
AcDbLine
 10
280.2978723404242
 20
49.00000000000036
 30
0.0
 11
280.2978723404242
 21
10.0
 31
0.0
  0
LINE
  5
74AC
330
7493
100
AcDbEntity
  8
0
 62
     0
100
AcDbLine
 10
318.1276595744673
 20
25.00000000000012
 30
0.0
 11
318.1276595744673
 21
10.0
 31
0.0
  0
LINE
  5
74AD
330
7493
100
AcDbEntity
  8
0
 62
     0
100
AcDbLine
 10
312.7234042553184
 20
37.00000000000024
 30
0.0
 11
312.7234042553184
 21
10.0
 31
0.0
  0
LINE
  5
74AE
330
7493
100
AcDbEntity
  8
0
 62
     0
100
AcDbLine
 10
285.7021276595731
 20
37.00000000000024
 30
0.0
 11
285.7021276595731
 21
10.0
 31
0.0
  0
LINE
  5
74AF
330
7493
100
AcDbEntity
  8
0
 62
     0
100
AcDbLine
 10
303.7163120567366
 20
37.00000000000024
 30
0.0
 11
303.7163120567366
 21
10.0
 31
0.0
  0
LINE
  5
74B0
330
7493
100
AcDbEntity
  8
0
 62
     0
100
AcDbLine
 10
410.0
 20
49.00000000000036
 30
0.0
 11
280.2978723404242
 21
49.00000000000036
 31
0.0
  0
LINE
  5
74B1
330
7493
100
AcDbEntity
  8
0
 62
     0
100
AcDbLine
 10
280.2978723404242
 20
10.0
 30
0.0
 11
410.0
 21
10.0
 31
0.0
  0
LINE
  5
74B2
330
7493
100
AcDbEntity
  8
0
 62
     0
100
AcDbLine
 10
318.1276595744673
 20
22.00000000000012
 30
0.0
 11
410.0
 21
22.00000000000012
 31
0.0
  0
LINE
  5
74B3
330
7493
100
AcDbEntity
  8
0
 62
     0
100
AcDbLine
 10
280.2978723404242
 20
37.00000000000024
 30
0.0
 11
410.0
 21
37.00000000000024
 31
0.0
  0
LINE
  5
74B4
330
7493
100
AcDbEntity
  8
0
 62
     0
100
AcDbLine
 10
280.2978723404242
 20
13.00000000000004
 30
0.0
 11
410.0
 21
13.00000000000004
 31
0.0
  0
LINE
  5
74B5
330
7493
100
AcDbEntity
  8
0
 62
     0
100
AcDbLine
 10
280.2978723404242
 20
49.00000000000036
 30
0.0
 11
410.0
 21
49.00000000000036
 31
0.0
  0
TEXT
  5
74B6
330
7493
100
AcDbEntity
  8
0
100
AcDbText
 10
411.3708251683467
 20
33.08333333333334
 30
0.0
 40
3.0
  1
F
  7
ADESK1
 72
     1
 11
412.8708251683468
 21
33.08333333333334
 31
0.0
100
AcDbText
  0
TEXT
  5
74B7
330
7493
100
AcDbEntity
  8
0
100
AcDbText
 10
411.3708251683467
 20
79.25
 30
0.0
 40
3.0
  1
E
  7
ADESK1
 72
     1
 11
412.8708251683468
 21
79.25
 31
0.0
100
AcDbText
  0
TEXT
  5
74B8
330
7493
100
AcDbEntity
  8
0
100
AcDbText
 10
411.2993965969182
 20
125.4166666666666
 30
0.0
 40
3.0
  1
D
  7
ADESK1
 72
     1
 11
412.8708251683468
 21
125.4166666666666
 31
0.0
100
AcDbText
  0
TEXT
  5
74B9
330
7493
100
AcDbEntity
  8
0
100
AcDbText
 10
411.3708251683467
 20
171.5833333333333
 30
0.0
 40
3.0
  1
C
  7
ADESK1
 72
     1
 11
412.8708251683468
 21
171.5833333333333
 31
0.0
100
AcDbText
  0
TEXT
  5
74BA
330
7493
100
AcDbEntity
  8
0
100
AcDbText
 10
411.2993965969182
 20
217.75
 30
0.0
 40
3.0
  1
B
  7
ADESK1
 72
     1
 11
412.8708251683468
 21
217.75
 31
0.0
100
AcDbText
  0
TEXT
  5
74BB
330
7493
100
AcDbEntity
  8
0
100
AcDbText
 10
411.5851108826324
 20
263.9166666666666
 30
0.0
 40
3.0
  1
A
  7
ADESK1
 72
     1
 11
412.8708251683468
 21
263.9166666666666
 31
0.0
100
AcDbText
  0
TEXT
  5
74BC
330
7493
100
AcDbEntity
  8
0
100
AcDbText
 10
384.5089285714286
 20
6.019997240728748
 30
0.0
 40
3.0
  1
8
  7
ADESK1
 72
     1
 11
385.9375
 21
6.019997240728748
 31
0.0
100
AcDbText
  0
TEXT
  5
74BD
330
7493
100
AcDbEntity
  8
0
100
AcDbText
 10
336.3839285714286
 20
6.019997240728748
 30
0.0
 40
3.0
  1
7
  7
ADESK1
 72
     1
 11
337.8125
 21
6.019997240728748
 31
0.0
100
AcDbText
  0
TEXT
  5
74BE
330
7493
100
AcDbEntity
  8
0
100
AcDbText
 10
288.1875
 20
6.019997240728748
 30
0.0
 40
3.0
  1
6
  7
ADESK1
 72
     1
 11
289.6875
 21
6.019997240728748
 31
0.0
100
AcDbText
  0
TEXT
  5
74BF
330
7493
100
AcDbEntity
  8
0
100
AcDbText
 10
240.1339285714286
 20
6.019997240728748
 30
0.0
 40
3.0
  1
5
  7
ADESK1
 72
     1
 11
241.5625
 21
6.019997240728748
 31
0.0
100
AcDbText
  0
TEXT
  5
74C0
330
7493
100
AcDbEntity
  8
0
100
AcDbText
 10
191.9375
 20
6.019997240728748
 30
0.0
 40
3.0
  1
4
  7
ADESK1
 72
     1
 11
193.4375
 21
6.019997240728748
 31
0.0
100
AcDbText
  0
TEXT
  5
74C1
330
7493
100
AcDbEntity
  8
0
100
AcDbText
 10
143.8839285714285
 20
6.019997240728748
 30
0.0
 40
3.0
  1
3
  7
ADESK1
 72
     1
 11
145.3125
 21
6.019997240728748
 31
0.0
100
AcDbText
  0
TEXT
  5
74C2
330
7493
100
AcDbEntity
  8
0
100
AcDbText
 10
95.75892857142857
 20
6.019997240728748
 30
0.0
 40
3.0
  1
2
  7
ADESK1
 72
     1
 11
97.1875
 21
6.019997240728748
 31
0.0
100
AcDbText
  0
TEXT
  5
74C3
330
7493
100
AcDbEntity
  8
0
100
AcDbText
 10
47.84821428571429
 20
6.019997240728748
 30
0.0
 40
3.0
  1
1
  7
ADESK1
 72
     1
 11
49.0625
 21
6.019997240728748
 31
0.0
100
AcDbText
  0
TEXT
  5
74C4
330
7493
100
AcDbEntity
  8
0
100
AcDbText
 10
21.1071613595339
 20
33.08333333333334
 30
0.0
 40
3.0
  1
F
  7
ADESK1
 72
     1
 11
22.6071613595339
 21
33.08333333333334
 31
0.0
100
AcDbText
  0
TEXT
  5
74C5
330
7493
100
AcDbEntity
  8
0
100
AcDbText
 10
21.1071613595339
 20
79.25
 30
0.0
 40
3.0
  1
E
  7
ADESK1
 72
     1
 11
22.6071613595339
 21
79.25
 31
0.0
100
AcDbText
  0
TEXT
  5
74C6
330
7493
100
AcDbEntity
  8
0
100
AcDbText
 10
21.03573278810533
 20
125.4166666666666
 30
0.0
 40
3.0
  1
D
  7
ADESK1
 72
     1
 11
22.6071613595339
 21
125.4166666666666
 31
0.0
100
AcDbText
  0
TEXT
  5
74C7
330
7493
100
AcDbEntity
  8
0
100
AcDbText
 10
21.1071613595339
 20
171.5833333333333
 30
0.0
 40
3.0
  1
C
  7
ADESK1
 72
     1
 11
22.6071613595339
 21
171.5833333333333
 31
0.0
100
AcDbText
  0
TEXT
  5
74C8
330
7493
100
AcDbEntity
  8
0
100
AcDbText
 10
21.03573278810533
 20
217.75
 30
0.0
 40
3.0
  1
B
  7
ADESK1
 72
     1
 11
22.6071613595339
 21
217.75
 31
0.0
100
AcDbText
  0
TEXT
  5
74C9
330
7493
100
AcDbEntity
  8
0
100
AcDbText
 10
384.5089285714286
 20
288.0
 30
0.0
 40
3.0
  1
8
  7
ADESK1
 72
     1
 11
385.9375
 21
288.0
 31
0.0
100
AcDbText
  0
TEXT
  5
74CA
330
7493
100
AcDbEntity
  8
0
100
AcDbText
 10
336.3839285714286
 20
288.0
 30
0.0
 40
3.0
  1
7
  7
ADESK1
 72
     1
 11
337.8125
 21
288.0
 31
0.0
100
AcDbText
  0
TEXT
  5
74CB
330
7493
100
AcDbEntity
  8
0
100
AcDbText
 10
288.1875
 20
288.0
 30
0.0
 40
3.0
  1
6
  7
ADESK1
 72
     1
 11
289.6875
 21
288.0
 31
0.0
100
AcDbText
  0
TEXT
  5
74CC
330
7493
100
AcDbEntity
  8
0
100
AcDbText
 10
240.1339285714286
 20
288.0
 30
0.0
 40
3.0
  1
5
  7
ADESK1
 72
     1
 11
241.5625
 21
288.0
 31
0.0
100
AcDbText
  0
TEXT
  5
74CD
330
7493
100
AcDbEntity
  8
0
100
AcDbText
 10
191.9375
 20
288.0
 30
0.0
 40
3.0
  1
4
  7
ADESK1
 72
     1
 11
193.4375
 21
288.0
 31
0.0
100
AcDbText
  0
TEXT
  5
74CE
330
7493
100
AcDbEntity
  8
0
100
AcDbText
 10
143.8839285714285
 20
288.0
 30
0.0
 40
3.0
  1
3
  7
ADESK1
 72
     1
 11
145.3125
 21
288.0
 31
0.0
100
AcDbText
  0
TEXT
  5
74CF
330
7493
100
AcDbEntity
  8
0
100
AcDbText
 10
95.75892857142857
 20
288.0
 30
0.0
 40
3.0
  1
2
  7
ADESK1
 72
     1
 11
97.1875
 21
288.0
 31
0.0
100
AcDbText
  0
TEXT
  5
74D0
330
7493
100
AcDbEntity
  8
0
100
AcDbText
 10
21.32144707381961
 20
263.9166666666666
 30
0.0
 40
3.0
  1
A
  7
ADESK1
 72
     1
 11
22.6071613595339
 21
263.9166666666666
 31
0.0
100
AcDbText
  0
TEXT
  5
74D1
330
7493
100
AcDbEntity
  8
0
100
AcDbText
 10
47.84821428571429
 20
288.0
 30
0.0
 40
3.0
  1
1
  7
ADESK1
 72
     1
 11
49.0625
 21
288.0
 31
0.0
100
AcDbText
  0
LINE
  5
74D2
330
7493
100
AcDbEntity
  8
0
100
AcDbLine
 10
73.125
 20
287.0
 30
0.0
 11
73.125
 21
292.0
 31
0.0
  0
LINE
  5
74D3
330
7493
100
AcDbEntity
  8
0
100
AcDbLine
 10
121.25
 20
287.0
 30
0.0
 11
121.25
 21
292.0
 31
0.0
  0
LINE
  5
74D4
330
7493
100
AcDbEntity
  8
0
100
AcDbLine
 10
169.375
 20
287.0
 30
0.0
 11
169.375
 21
292.0
 31
0.0
  0
LINE
  5
74D5
330
7493
100
AcDbEntity
  8
0
100
AcDbLine
 10
217.5
 20
287.0
 30
0.0
 11
217.5
 21
292.0
 31
0.0
  0
LINE
  5
74D6
330
7493
100
AcDbEntity
  8
0
100
AcDbLine
 10
265.625
 20
287.0
 30
0.0
 11
265.625
 21
292.0
 31
0.0
  0
LINE
  5
74D7
330
7493
100
AcDbEntity
  8
0
100
AcDbLine
 10
313.75
 20
287.0
 30
0.0
 11
313.75
 21
292.0
 31
0.0
  0
LINE
  5
74D8
330
7493
100
AcDbEntity
  8
0
100
AcDbLine
 10
361.875
 20
287.0
 30
0.0
 11
361.875
 21
292.0
 31
0.0
  0
LINE
  5
74D9
330
7493
100
AcDbEntity
  8
0
100
AcDbLine
 10
361.875
 20
10.0
 30
0.0
 11
361.875
 21
5.0
 31
0.0
  0
LINE
  5
74DA
330
7493
100
AcDbEntity
  8
0
100
AcDbLine
 10
313.75
 20
10.0
 30
0.0
 11
313.75
 21
5.0
 31
0.0
  0
LINE
  5
74DB
330
7493
100
AcDbEntity
  8
0
100
AcDbLine
 10
265.625
 20
10.0
 30
0.0
 11
265.625
 21
5.0
 31
0.0
  0
LINE
  5
74DC
330
7493
100
AcDbEntity
  8
0
100
AcDbLine
 10
217.5
 20
10.0
 30
0.0
 11
217.5
 21
5.0
 31
0.0
  0
LINE
  5
74DD
330
7493
100
AcDbEntity
  8
0
100
AcDbLine
 10
169.375
 20
10.0
 30
0.0
 11
169.375
 21
5.0
 31
0.0
  0
LINE
  5
74DE
330
7493
100
AcDbEntity
  8
0
100
AcDbLine
 10
121.25
 20
10.0
 30
0.0
 11
121.25
 21
5.0
 31
0.0
  0
LINE
  5
74DF
330
7493
100
AcDbEntity
  8
0
100
AcDbLine
 10
73.125
 20
10.0
 30
0.0
 11
73.125
 21
5.0
 31
0.0
  0
LINE
  5
74E0
330
7493
100
AcDbEntity
  8
0
100
AcDbLine
 10
410.0
 20
240.8333333333334
 30
0.0
 11
415.0
 21
240.8333333333334
 31
0.0
  0
LINE
  5
74E1
330
7493
100
AcDbEntity
  8
0
100
AcDbLine
 10
410.0
 20
194.6666666666667
 30
0.0
 11
415.0
 21
194.6666666666667
 31
0.0
  0
LINE
  5
74E2
330
7493
100
AcDbEntity
  8
0
100
AcDbLine
 10
410.0
 20
148.5
 30
0.0
 11
415.0
 21
148.5
 31
0.0
  0
LINE
  5
74E3
330
7493
100
AcDbEntity
  8
0
100
AcDbLine
 10
410.0
 20
102.3333333333333
 30
0.0
 11
415.0
 21
102.3333333333333
 31
0.0
  0
LINE
  5
74E4
330
7493
100
AcDbEntity
  8
0
100
AcDbLine
 10
410.0
 20
56.16666666666668
 30
0.0
 11
415.0
 21
56.16666666666668
 31
0.0
  0
LINE
  5
74E5
330
7493
100
AcDbEntity
  8
0
100
AcDbLine
 10
25.0
 20
56.16666666666667
 30
0.0
 11
20.0
 21
56.16666666666667
 31
0.0
  0
LINE
  5
74E6
330
7493
100
AcDbEntity
  8
0
100
AcDbLine
 10
25.0
 20
102.3333333333333
 30
0.0
 11
20.0
 21
102.3333333333333
 31
0.0
  0
LINE
  5
74E7
330
7493
100
AcDbEntity
  8
0
100
AcDbLine
 10
25.0
 20
148.5
 30
0.0
 11
20.0
 21
148.5
 31
0.0
  0
LINE
  5
74E8
330
7493
100
AcDbEntity
  8
0
100
AcDbLine
 10
25.0
 20
194.6666666666666
 30
0.0
 11
20.0
 21
194.6666666666666
 31
0.0
  0
LINE
  5
74E9
330
7493
100
AcDbEntity
  8
0
100
AcDbLine
 10
25.0
 20
240.8333333333333
 30
0.0
 11
20.0
 21
240.8333333333333
 31
0.0
  0
TEXT
  5
74EA
330
7493
100
AcDbEntity
  8
0
100
AcDbText
 10
1.0
 20
1.0
 30
0.0
 40
3.0
  1
この図枠はサンプルです。社内の規格やプロッタの出力範囲に合わせて適当に変更してご利用ください。
  7
ADESK1
100
AcDbText
  0
LINE
  5
74EB
330
7493
100
AcDbEntity
  8
0
100
AcDbLine
 10
25.0
 20
148.5
 30
0.0
 11
0.0
 21
148.5
 31
0.0
  0
LINE
  5
74EC
330
7493
100
AcDbEntity
  8
0
100
AcDbLine
 10
410.0
 20
148.5
 30
0.0
 11
420.0
 21
148.5
 31
0.0
  0
LINE
  5
74ED
330
7493
100
AcDbEntity
  8
0
100
AcDbLine
 10
217.5
 20
287.0
 30
0.0
 11
217.5
 21
297.0
 31
0.0
  0
LINE
  5
74EE
330
7493
100
AcDbEntity
  8
0
100
AcDbLine
 10
217.5
 20
10.0
 30
0.0
 11
217.5
 21
0.0
 31
0.0
  0
LINE
  5
74EF
330
7493
100
AcDbEntity
  8
OBJECT
100
AcDbLine
 10
130.0
 20
40.0
 30
0.0
 11
130.0
 21
10.0
 31
0.0
  0
LINE
  5
74F0
330
7493
100
AcDbEntity
  8
OBJECT
100
AcDbLine
 10
120.0
 20
10.0
 30
0.0
 11
120.0
 21
40.0
 31
0.0
  0
LINE
  5
74F1
330
7493
100
AcDbEntity
  8
OBJECT
100
AcDbLine
 10
44.5
 20
37.0
 30
0.0
 11
45.49999999999999
 21
37.0
 31
0.0
  0
LINE
  5
74F2
330
7493
100
AcDbEntity
  8
OBJECT
100
AcDbLine
 10
44.5
 20
31.0
 30
0.0
 11
45.49999999999999
 21
31.0
 31
0.0
  0
LINE
  5
74F3
330
7493
100
AcDbEntity
  8
OBJECT
100
AcDbLine
 10
39.5
 20
37.0
 30
0.0
 11
40.49999999999999
 21
37.0
 31
0.0
  0
LINE
  5
74F4
330
7493
100
AcDbEntity
  8
OBJECT
100
AcDbLine
 10
39.5
 20
31.0
 30
0.0
 11
40.49999999999999
 21
31.0
 31
0.0
  0
LINE
  5
74F5
330
7493
100
AcDbEntity
  8
OBJECT
100
AcDbLine
 10
44.5
 20
25.0
 30
0.0
 11
45.49999999999999
 21
25.0
 31
0.0
  0
LINE
  5
74F6
330
7493
100
AcDbEntity
  8
OBJECT
100
AcDbLine
 10
39.5
 20
25.0
 30
0.0
 11
40.49999999999999
 21
25.0
 31
0.0
  0
LINE
  5
74F7
330
7493
100
AcDbEntity
  8
OBJECT
100
AcDbLine
 10
44.5
 20
19.0
 30
0.0
 11
45.49999999999999
 21
19.0
 31
0.0
  0
LINE
  5
74F8
330
7493
100
AcDbEntity
  8
OBJECT
100
AcDbLine
 10
39.5
 20
19.0
 30
0.0
 11
40.49999999999999
 21
19.0
 31
0.0
  0
LINE
  5
74F9
330
7493
100
AcDbEntity
  8
OBJECT
100
AcDbLine
 10
28.0
 20
29.53589800000001
 30
0.0
 11
30.0
 21
33.0
 31
0.0
  0
LINE
  5
74FA
330
7493
100
AcDbEntity
  8
OBJECT
100
AcDbLine
 10
28.0
 20
29.53589800000001
 30
0.0
 11
32.0
 21
29.53589800000001
 31
0.0
  0
LINE
  5
74FB
330
7493
100
AcDbEntity
  8
OBJECT
100
AcDbLine
 10
32.0
 20
29.53589800000001
 30
0.0
 11
30.0
 21
33.0
 31
0.0
  0
LINE
  5
74FC
330
7493
100
AcDbEntity
  8
OBJECT
100
AcDbLine
 10
28.0
 20
35.535898
 30
0.0
 11
32.0
 21
35.535898
 31
0.0
  0
LINE
  5
74FD
330
7493
100
AcDbEntity
  8
OBJECT
100
AcDbLine
 10
32.0
 20
35.535898
 30
0.0
 11
30.0
 21
39.0
 31
0.0
  0
LINE
  5
74FE
330
7493
100
AcDbEntity
  8
OBJECT
100
AcDbLine
 10
28.0
 20
35.535898
 30
0.0
 11
30.0
 21
39.0
 31
0.0
  0
LINE
  5
74FF
330
7493
100
AcDbEntity
  8
OBJECT
100
AcDbLine
 10
28.0
 20
23.535898
 30
0.0
 11
30.0
 21
27.0
 31
0.0
  0
LINE
  5
7500
330
7493
100
AcDbEntity
  8
OBJECT
100
AcDbLine
 10
28.0
 20
23.535898
 30
0.0
 11
32.0
 21
23.535898
 31
0.0
  0
LINE
  5
7501
330
7493
100
AcDbEntity
  8
OBJECT
100
AcDbLine
 10
32.0
 20
23.535898
 30
0.0
 11
30.0
 21
27.0
 31
0.0
  0
LINE
  5
7502
330
7493
100
AcDbEntity
  8
OBJECT
100
AcDbLine
 10
28.0
 20
17.535898
 30
0.0
 11
30.0
 21
21.0
 31
0.0
  0
LINE
  5
7503
330
7493
100
AcDbEntity
  8
OBJECT
100
AcDbLine
 10
28.0
 20
17.535898
 30
0.0
 11
32.0
 21
17.535898
 31
0.0
  0
LINE
  5
7504
330
7493
100
AcDbEntity
  8
OBJECT
100
AcDbLine
 10
32.0
 20
17.535898
 30
0.0
 11
30.0
 21
21.0
 31
0.0
  0
LINE
  5
7505
330
7493
100
AcDbEntity
  8
OBJECT
100
AcDbLine
 10
44.5
 20
13.0
 30
0.0
 11
45.49999999999999
 21
13.0
 31
0.0
  0
LINE
  5
7506
330
7493
100
AcDbEntity
  8
OBJECT
100
AcDbLine
 10
39.5
 20
13.0
 30
0.0
 11
40.49999999999999
 21
13.0
 31
0.0
  0
LINE
  5
7507
330
7493
100
AcDbEntity
  8
OBJECT
100
AcDbLine
 10
28.0
 20
11.535898
 30
0.0
 11
32.0
 21
11.535898
 31
0.0
  0
LINE
  5
7508
330
7493
100
AcDbEntity
  8
OBJECT
100
AcDbLine
 10
80.0
 20
10.0
 30
0.0
 11
80.0
 21
40.0
 31
0.0
  0
LINE
  5
7509
330
7493
100
AcDbEntity
  8
OBJECT
100
AcDbLine
 10
50.0
 20
10.0
 30
0.0
 11
50.0
 21
40.0
 31
0.0
  0
LINE
  5
750A
330
7493
100
AcDbEntity
  8
OBJECT
100
AcDbLine
 10
35.0
 20
10.0
 30
0.0
 11
35.0
 21
40.0
 31
0.0
  0
LINE
  5
750B
330
7493
100
AcDbEntity
  8
OBJECT
100
AcDbLine
 10
32.0
 20
11.535898
 30
0.0
 11
30.0
 21
15.0
 31
0.0
  0
LINE
  5
750C
330
7493
100
AcDbEntity
  8
OBJECT
100
AcDbLine
 10
28.0
 20
11.535898
 30
0.0
 11
30.0
 21
15.0
 31
0.0
  0
LINE
  5
750D
330
7493
100
AcDbEntity
  8
OBJECT
100
AcDbLine
 10
130.0
 20
40.0
 30
0.0
 11
25.0
 21
40.0
 31
0.0
  0
LINE
  5
750E
330
7493
100
AcDbEntity
  8
OBJECT
100
AcDbLine
 10
130.0
 20
34.0
 30
0.0
 11
25.0
 21
34.0
 31
0.0
  0
LINE
  5
750F
330
7493
100
AcDbEntity
  8
OBJECT
100
AcDbLine
 10
130.0
 20
28.0
 30
0.0
 11
25.0
 21
28.0
 31
0.0
  0
LINE
  5
7510
330
7493
100
AcDbEntity
  8
OBJECT
100
AcDbLine
 10
130.0
 20
22.0
 30
0.0
 11
25.0
 21
22.0
 31
0.0
  0
LINE
  5
7511
330
7493
100
AcDbEntity
  8
OBJECT
100
AcDbLine
 10
130.0
 20
16.0
 30
0.0
 11
25.0
 21
16.0
 31
0.0
  0
ATTDEF
  5
7512
330
7493
100
AcDbEntity
  8
0
 62
     0
100
AcDbText
 10
19.0
 20
118.0
 30
0.0
 40
3.0
  1

 50
90.0
  7
ADESK1
100
AcDbAttributeDefinition
  3

  2
FNAME
 70
     8
  0
ATTDEF
  5
7513
330
7493
100
AcDbEntity
  8
0
 62
     0
100
AcDbText
 10
19.0
 20
70.0
 30
0.0
 40
3.0
  1

 50
90.0
  7
ADESK1
100
AcDbAttributeDefinition
  3

  2
REVDATE
 70
     8
  0
ATTDEF
  5
7514
330
7493
100
AcDbEntity
  8
0
 62
     0
100
AcDbText
 10
19.0
 20
10.0
 30
0.0
 40
3.0
  1

 50
90.0
  7
ADESK1
100
AcDbAttributeDefinition
  3

  2
USER
 70
     8
  0
LINE
  5
7515
330
7493
100
AcDbEntity
  8
0
100
AcDbLine
 10
410.0
 20
297.0
 30
0.0
 11
420.0
 21
297.0
 31
0.0
  0
LINE
  5
7516
330
7493
100
AcDbEntity
  8
0
100
AcDbLine
 10
420.0
 20
10.0
 30
0.0
 11
420.0
 21
0.0
 31
0.0
  0
LINE
  5
7517
330
7493
100
AcDbEntity
  8
0
100
AcDbLine
 10
25.0
 20
0.0
 30
0.0
 11
0.0
 21
0.0
 31
0.0
  0
LINE
  5
7518
330
7493
100
AcDbEntity
  8
0
100
AcDbLine
 10
0.0
 20
287.0
 30
0.0
 11
0.0
 21
297.0
 31
0.0
  0
LINE
  5
7519
330
7493
100
AcDbEntity
  8
0
100
AcDbLine
 10
25.0
 20
287.0
 30
0.0
 11
410.0
 21
287.0
 31
0.0
  0
LINE
  5
751A
330
7493
100
AcDbEntity
  8
0
100
AcDbLine
 10
410.0
 20
287.0
 30
0.0
 11
410.0
 21
10.0
 31
0.0
  0
LINE
  5
751B
330
7493
100
AcDbEntity
  8
0
100
AcDbLine
 10
410.0
 20
10.0
 30
0.0
 11
25.0
 21
10.0
 31
0.0
  0
LINE
  5
751C
330
7493
100
AcDbEntity
  8
0
100
AcDbLine
 10
25.0
 20
10.0
 30
0.0
 11
25.0
 21
287.0
 31
0.0
  0
LINE
  5
751D
330
7493
100
AcDbEntity
  8
0
100
AcDbLine
 10
420.0
 20
0.0
 30
0.0
 11
410.0
 21
0.0
 31
0.0
  0
LINE
  5
751E
330
7493
100
AcDbEntity
  8
0
100
AcDbLine
 10
420.0
 20
297.0
 30
0.0
 11
420.0
 21
287.0
 31
0.0
  0
LINE
  5
751F
330
7493
100
AcDbEntity
  8
0
100
AcDbLine
 10
0.0
 20
297.0
 30
0.0
 11
25.0
 21
297.0
 31
0.0
  0
LINE
  5
7520
330
7493
100
AcDbEntity
  8
0
100
AcDbLine
 10
0.0
 20
0.0
 30
0.0
 11
0.0
 21
10.0
 31
0.0
  0
ENDBLK
  5
7521
330
7493
100
AcDbEntity
  8
0
100
AcDbBlockEnd
  0
BLOCK
  5
8C50
330
8C46
100
AcDbEntity
  8
0
 48
15.0
100
AcDbBlockBegin
  2
*D87
 70
     1
 10
0.0
 20
0.0
 30
0.0
  3
*D87
  1

  0
LINE
  5
9071
330
8C46
100
AcDbEntity
  8
寸法引出
 48
15.0
370
    -2
100
AcDbLine
 10
2143.040493132293
 20
2269.779567641652
 30
0.0
 11
2143.040493132293
 21
2357.972677154871
 31
0.0
  0
LINE
  5
9072
330
8C46
100
AcDbEntity
  8
寸法引出
 48
15.0
370
    -2
100
AcDbLine
 10
3143.040493132293
 20
2269.779567641652
 30
0.0
 11
3143.040493132293
 21
2357.972677154871
 31
0.0
  0
LINE
  5
9073
330
8C46
100
AcDbEntity
  8
寸法引出
 48
15.0
370
    -2
100
AcDbLine
 10
2165.540493132294
 20
2350.47267715487
 30
0.0
 11
3120.540493132294
 21
2350.47267715487
 31
0.0
  0
SOLID
  5
9074
330
8C46
100
AcDbEntity
  8
寸法引出
 48
15.0
100
AcDbTrace
 10
2165.540493132294
 20
2354.22267715487
 30
0.0
 11
2165.540493132294
 21
2346.72267715487
 31
0.0
 12
2143.040493132293
 22
2350.47267715487
 32
0.0
 13
2143.040493132293
 23
2350.47267715487
 33
0.0
  0
SOLID
  5
9075
330
8C46
100
AcDbEntity
  8
寸法引出
 48
15.0
100
AcDbTrace
 10
3120.540493132294
 20
2354.22267715487
 30
0.0
 11
3120.540493132294
 21
2346.72267715487
 31
0.0
 12
3143.040493132293
 22
2350.47267715487
 32
0.0
 13
3143.040493132293
 23
2350.47267715487
 33
0.0
  0
MTEXT
  5
9076
330
8C46
100
AcDbEntity
  8
寸法引出
 48
15.0
100
AcDbMText
 10
2643.040493132293
 20
2380.47267715487
 30
0.0
 40
30.0
 41
0.0
 71
     5
 72
     1
  1
\A1;1000
  7
SANWA
 73
     1
 44
1.0
1001
ACAD
1000
MTEXTBEGIN
1070
    73
1070
     1
1070
    44
1040
1.0
1070
    74
1070
     0
1000
MTEXTEND
  0
POINT
  5
9077
330
8C46
100
AcDbEntity
  8
DEFPOINTS
 62
     0
 48
15.0
100
AcDbPoint
 10
2143.040493132293
 20
2254.779567641652
 30
0.0
  0
POINT
  5
9078
330
8C46
100
AcDbEntity
  8
DEFPOINTS
 62
     0
 48
15.0
100
AcDbPoint
 10
3143.040493132293
 20
2254.779567641652
 30
0.0
  0
POINT
  5
9079
330
8C46
100
AcDbEntity
  8
DEFPOINTS
 62
     0
 48
15.0
100
AcDbPoint
 10
3143.040493132293
 20
2350.47267715487
 30
0.0
  0
ENDBLK
  5
8C51
330
8C46
100
AcDbEntity
  8
0
 48
15.0
100
AcDbBlockEnd
  0
BLOCK
  5
8C5B
330
8C52
100
AcDbEntity
  8
0
 48
15.0
100
AcDbBlockBegin
  2
*D88
 70
     1
 10
0.0
 20
0.0
 30
0.0
  3
*D88
  1

  0
LINE
  5
907A
330
8C52
100
AcDbEntity
  8
寸法引出
 48
15.0
370
    -2
100
AcDbLine
 10
3023.040493132294
 20
2139.779567641652
 30
0.0
 11
3023.040493132294
 21
2072.642148029828
 31
0.0
  0
LINE
  5
907B
330
8C52
100
AcDbEntity
  8
寸法引出
 48
15.0
370
    -2
100
AcDbLine
 10
2285.540493132293
 20
2080.142148029828
 30
0.0
 11
3000.540493132293
 21
2080.142148029828
 31
0.0
  0
SOLID
  5
907C
330
8C52
100
AcDbEntity
  8
寸法引出
 48
15.0
100
AcDbTrace
 10
2285.540493132293
 20
2083.892148029828
 30
0.0
 11
2285.540493132293
 21
2076.392148029828
 31
0.0
 12
2263.040493132293
 22
2080.142148029828
 32
0.0
 13
2263.040493132293
 23
2080.142148029828
 33
0.0
  0
SOLID
  5
907D
330
8C52
100
AcDbEntity
  8
寸法引出
 48
15.0
100
AcDbTrace
 10
3000.540493132293
 20
2083.892148029828
 30
0.0
 11
3000.540493132293
 21
2076.392148029828
 31
0.0
 12
3023.040493132294
 22
2080.142148029828
 32
0.0
 13
3023.040493132294
 23
2080.142148029828
 33
0.0
  0
MTEXT
  5
907E
330
8C52
100
AcDbEntity
  8
寸法引出
 48
15.0
100
AcDbMText
 10
2643.040493132293
 20
2110.142148029828
 30
0.0
 40
30.0
 41
0.0
 71
     5
 72
     1
  1
\A1;760
  7
SANWA
 73
     1
 44
1.0
1001
ACAD
1000
MTEXTBEGIN
1070
    73
1070
     1
1070
    44
1040
1.0
1070
    74
1070
     0
1000
MTEXTEND
  0
POINT
  5
907F
330
8C52
100
AcDbEntity
  8
DEFPOINTS
 62
     0
 48
15.0
100
AcDbPoint
 10
2263.040493132293
 20
2154.779567641652
 30
0.0
  0
POINT
  5
9080
330
8C52
100
AcDbEntity
  8
DEFPOINTS
 62
     0
 48
15.0
100
AcDbPoint
 10
3023.040493132294
 20
2154.779567641652
 30
0.0
  0
POINT
  5
9081
330
8C52
100
AcDbEntity
  8
DEFPOINTS
 62
     0
 48
15.0
100
AcDbPoint
 10
3023.040493132294
 20
2080.142148029828
 30
0.0
  0
ENDBLK
  5
8C5C
330
8C52
100
AcDbEntity
  8
0
 48
15.0
100
AcDbBlockEnd
  0
BLOCK
  5
8C67
330
8C5D
100
AcDbEntity
  8
0
 48
15.0
100
AcDbBlockBegin
  2
*D89
 70
     1
 10
0.0
 20
0.0
 30
0.0
  3
*D89
  1

  0
LINE
  5
9082
330
8C5D
100
AcDbEntity
  8
寸法引出
 48
15.0
370
    -2
100
AcDbLine
 10
1366.379639973106
 20
1756.56774768701
 30
0.0
 11
1366.379639973106
 21
1855.881124981412
 31
0.0
  0
LINE
  5
9083
330
8C5D
100
AcDbEntity
  8
寸法引出
 48
15.0
370
    -2
100
AcDbLine
 10
1716.379639973106
 20
1756.56774768701
 30
0.0
 11
1716.379639973106
 21
1855.881124981412
 31
0.0
  0
LINE
  5
9084
330
8C5D
100
AcDbEntity
  8
寸法引出
 48
15.0
370
    -2
100
AcDbLine
 10
1388.879639973106
 20
1848.381124981411
 30
0.0
 11
1693.879639973106
 21
1848.381124981411
 31
0.0
  0
SOLID
  5
9085
330
8C5D
100
AcDbEntity
  8
寸法引出
 48
15.0
100
AcDbTrace
 10
1388.879639973106
 20
1852.131124981411
 30
0.0
 11
1388.879639973106
 21
1844.631124981411
 31
0.0
 12
1366.379639973106
 22
1848.381124981411
 32
0.0
 13
1366.379639973106
 23
1848.381124981411
 33
0.0
  0
SOLID
  5
9086
330
8C5D
100
AcDbEntity
  8
寸法引出
 48
15.0
100
AcDbTrace
 10
1693.879639973106
 20
1852.131124981411
 30
0.0
 11
1693.879639973106
 21
1844.631124981411
 31
0.0
 12
1716.379639973106
 22
1848.381124981411
 32
0.0
 13
1716.379639973106
 23
1848.381124981411
 33
0.0
  0
MTEXT
  5
9087
330
8C5D
100
AcDbEntity
  8
寸法引出
 48
15.0
100
AcDbMText
 10
1541.379639973106
 20
1878.381124981412
 30
0.0
 40
30.0
 41
0.0
 71
     5
 72
     1
  1
\A1;350
  7
SANWA
 73
     1
 44
1.0
1001
ACAD
1000
MTEXTBEGIN
1070
    73
1070
     1
1070
    44
1040
1.0
1070
    74
1070
     0
1000
MTEXTEND
  0
POINT
  5
9088
330
8C5D
100
AcDbEntity
  8
DEFPOINTS
 62
     0
 48
15.0
100
AcDbPoint
 10
1366.379639973106
 20
1741.56774768701
 30
0.0
  0
POINT
  5
9089
330
8C5D
100
AcDbEntity
  8
DEFPOINTS
 62
     0
 48
15.0
100
AcDbPoint
 10
1716.379639973106
 20
1741.56774768701
 30
0.0
  0
POINT
  5
908A
330
8C5D
100
AcDbEntity
  8
DEFPOINTS
 62
     0
 48
15.0
100
AcDbPoint
 10
1716.379639973106
 20
1848.381124981411
 30
0.0
  0
ENDBLK
  5
8C68
330
8C5D
100
AcDbEntity
  8
0
 48
15.0
100
AcDbBlockEnd
  0
BLOCK
  5
8C73
330
8C69
100
AcDbEntity
  8
0
 48
15.0
100
AcDbBlockBegin
  2
*D90
 70
     1
 10
0.0
 20
0.0
 30
0.0
  3
*D90
  1

  0
LINE
  5
908B
330
8C69
100
AcDbEntity
  8
寸法引出
 48
15.0
370
    -2
100
AcDbLine
 10
1351.379639973106
 20
1741.56774768701
 30
0.0
 11
1270.078843988344
 21
1741.56774768701
 31
0.0
  0
LINE
  5
908C
330
8C69
100
AcDbEntity
  8
寸法引出
 48
15.0
370
    -2
100
AcDbLine
 10
1351.379639973106
 20
1621.56774768701
 30
0.0
 11
1270.078843988344
 21
1621.56774768701
 31
0.0
  0
LINE
  5
908D
330
8C69
100
AcDbEntity
  8
寸法引出
 48
15.0
370
    -2
100
AcDbLine
 10
1277.578843988344
 20
1719.067747687011
 30
0.0
 11
1277.578843988344
 21
1644.06774768701
 31
0.0
  0
SOLID
  5
908E
330
8C69
100
AcDbEntity
  8
寸法引出
 48
15.0
100
AcDbTrace
 10
1273.828843988344
 20
1719.067747687011
 30
0.0
 11
1281.328843988344
 21
1719.067747687011
 31
0.0
 12
1277.578843988344
 22
1741.56774768701
 32
0.0
 13
1277.578843988344
 23
1741.56774768701
 33
0.0
  0
SOLID
  5
908F
330
8C69
100
AcDbEntity
  8
寸法引出
 48
15.0
100
AcDbTrace
 10
1273.828843988344
 20
1644.06774768701
 30
0.0
 11
1281.328843988344
 21
1644.06774768701
 31
0.0
 12
1277.578843988344
 22
1621.56774768701
 32
0.0
 13
1277.578843988344
 23
1621.56774768701
 33
0.0
  0
MTEXT
  5
9090
330
8C69
100
AcDbEntity
  8
寸法引出
 48
15.0
100
AcDbMText
 10
1247.578843988343
 20
1681.567747687011
 30
0.0
 40
30.0
 41
0.0
 71
     5
 72
     1
  1
\A1;120
  7
SANWA
 11
0.0000000000000001
 21
1.0
 31
0.0
 73
     1
 44
1.0
1001
ACAD
1000
MTEXTBEGIN
1070
    73
1070
     1
1070
    44
1040
1.0
1070
    74
1070
     0
1000
MTEXTEND
  0
POINT
  5
9091
330
8C69
100
AcDbEntity
  8
DEFPOINTS
 62
     0
 48
15.0
100
AcDbPoint
 10
1366.379639973106
 20
1741.56774768701
 30
0.0
  0
POINT
  5
9092
330
8C69
100
AcDbEntity
  8
DEFPOINTS
 62
     0
 48
15.0
100
AcDbPoint
 10
1366.379639973106
 20
1621.56774768701
 30
0.0
  0
POINT
  5
9093
330
8C69
100
AcDbEntity
  8
DEFPOINTS
 62
     0
 48
15.0
100
AcDbPoint
 10
1277.578843988344
 20
1621.56774768701
 30
0.0
  0
ENDBLK
  5
8C74
330
8C69
100
AcDbEntity
  8
0
 48
15.0
100
AcDbBlockEnd
  0
BLOCK
  5
8C7F
330
8C75
100
AcDbEntity
  8
0
 48
15.0
100
AcDbBlockBegin
  2
*D91
 70
     1
 10
0.0
 20
0.0
 30
0.0
  3
*D91
  1

  0
LINE
  5
9094
330
8C75
100
AcDbEntity
  8
寸法引出
 48
15.0
370
    -2
100
AcDbLine
 10
1725.90451337318
 20
2254.779567641652
 30
0.0
 11
1839.438707791344
 21
2254.779567641652
 31
0.0
  0
LINE
  5
9095
330
8C75
100
AcDbEntity
  8
寸法引出
 48
15.0
370
    -2
100
AcDbLine
 10
1725.90451337318
 20
2154.779567641652
 30
0.0
 11
1839.438707791344
 21
2154.779567641652
 31
0.0
  0
LINE
  5
9096
330
8C75
100
AcDbEntity
  8
寸法引出
 48
15.0
370
    -2
100
AcDbLine
 10
1831.938707791344
 20
2232.279567641652
 30
0.0
 11
1831.938707791344
 21
2177.279567641652
 31
0.0
  0
SOLID
  5
9097
330
8C75
100
AcDbEntity
  8
寸法引出
 48
15.0
100
AcDbTrace
 10
1828.188707791345
 20
2232.279567641652
 30
0.0
 11
1835.688707791345
 21
2232.279567641652
 31
0.0
 12
1831.938707791344
 22
2254.779567641652
 32
0.0
 13
1831.938707791344
 23
2254.779567641652
 33
0.0
  0
SOLID
  5
9098
330
8C75
100
AcDbEntity
  8
寸法引出
 48
15.0
100
AcDbTrace
 10
1828.188707791345
 20
2177.279567641652
 30
0.0
 11
1835.688707791345
 21
2177.279567641652
 31
0.0
 12
1831.938707791344
 22
2154.779567641652
 32
0.0
 13
1831.938707791344
 23
2154.779567641652
 33
0.0
  0
MTEXT
  5
9099
330
8C75
100
AcDbEntity
  8
寸法引出
 48
15.0
100
AcDbMText
 10
1801.938707791344
 20
2204.779567641653
 30
0.0
 40
30.0
 41
0.0
 71
     5
 72
     1
  1
\A1;100
  7
SANWA
 11
0.0000000000000001
 21
1.0
 31
0.0
 73
     1
 44
1.0
1001
ACAD
1000
MTEXTBEGIN
1070
    73
1070
     1
1070
    44
1040
1.0
1070
    74
1070
     0
1000
MTEXTEND
  0
POINT
  5
909A
330
8C75
100
AcDbEntity
  8
DEFPOINTS
 62
     0
 48
15.0
100
AcDbPoint
 10
1710.90451337318
 20
2254.779567641652
 30
0.0
  0
POINT
  5
909B
330
8C75
100
AcDbEntity
  8
DEFPOINTS
 62
     0
 48
15.0
100
AcDbPoint
 10
1710.90451337318
 20
2154.779567641652
 30
0.0
  0
POINT
  5
909C
330
8C75
100
AcDbEntity
  8
DEFPOINTS
 62
     0
 48
15.0
100
AcDbPoint
 10
1831.938707791344
 20
2154.779567641652
 30
0.0
  0
ENDBLK
  5
8C80
330
8C75
100
AcDbEntity
  8
0
 48
15.0
100
AcDbBlockEnd
  0
BLOCK
  5
8C8C
330
8C81
100
AcDbEntity
  8
0
 48
15.0
100
AcDbBlockBegin
  2
*D92
 70
     1
 10
0.0
 20
0.0
 30
0.0
  3
*D92
  1

  0
LINE
  5
909D
330
8C81
100
AcDbEntity
  8
寸法引出
 48
15.0
370
    -2
100
AcDbLine
 10
1710.90451337318
 20
2139.779567641652
 30
0.0
 11
1710.90451337318
 21
2072.642148029828
 31
0.0
  0
LINE
  5
909E
330
8C81
100
AcDbEntity
  8
寸法引出
 48
15.0
370
    -2
100
AcDbLine
 10
1663.40451337318
 20
2080.142148029828
 30
0.0
 11
1640.90451337318
 21
2080.142148029828
 31
0.0
  0
LINE
  5
909F
330
8C81
100
AcDbEntity
  8
寸法引出
 48
15.0
370
    -2
100
AcDbLine
 10
1733.40451337318
 20
2080.142148029828
 30
0.0
 11
1755.90451337318
 21
2080.142148029828
 31
0.0
  0
LINE
  5
90A0
330
8C81
100
AcDbEntity
  8
寸法引出
 48
15.0
370
    -2
100
AcDbLine
 10
1685.90451337318
 20
2080.142148029828
 30
0.0
 11
1710.90451337318
 21
2080.142148029828
 31
0.0
  0
SOLID
  5
90A1
330
8C81
100
AcDbEntity
  8
寸法引出
 48
15.0
100
AcDbTrace
 10
1663.40451337318
 20
2083.892148029828
 30
0.0
 11
1663.40451337318
 21
2076.392148029828
 31
0.0
 12
1685.90451337318
 22
2080.142148029828
 32
0.0
 13
1685.90451337318
 23
2080.142148029828
 33
0.0
  0
SOLID
  5
90A2
330
8C81
100
AcDbEntity
  8
寸法引出
 48
15.0
100
AcDbTrace
 10
1733.40451337318
 20
2083.892148029828
 30
0.0
 11
1733.40451337318
 21
2076.392148029828
 31
0.0
 12
1710.90451337318
 22
2080.142148029828
 32
0.0
 13
1710.90451337318
 23
2080.142148029828
 33
0.0
  0
MTEXT
  5
90A3
330
8C81
100
AcDbEntity
  8
寸法引出
 48
15.0
100
AcDbMText
 10
1698.40451337318
 20
2110.142148029828
 30
0.0
 40
30.0
 41
0.0
 71
     5
 72
     1
  1
\A1;25
  7
SANWA
 73
     1
 44
1.0
1001
ACAD
1000
MTEXTBEGIN
1070
    73
1070
     1
1070
    44
1040
1.0
1070
    74
1070
     0
1000
MTEXTEND
  0
POINT
  5
90A4
330
8C81
100
AcDbEntity
  8
DEFPOINTS
 62
     0
 48
15.0
100
AcDbPoint
 10
1685.90451337318
 20
2154.779567641652
 30
0.0
  0
POINT
  5
90A5
330
8C81
100
AcDbEntity
  8
DEFPOINTS
 62
     0
 48
15.0
100
AcDbPoint
 10
1710.90451337318
 20
2154.779567641652
 30
0.0
  0
POINT
  5
90A6
330
8C81
100
AcDbEntity
  8
DEFPOINTS
 62
     0
 48
15.0
100
AcDbPoint
 10
1710.90451337318
 20
2080.142148029828
 30
0.0
  0
ENDBLK
  5
8C8D
330
8C81
100
AcDbEntity
  8
0
 48
15.0
100
AcDbBlockEnd
  0
BLOCK
  5
8C98
330
8C8E
100
AcDbEntity
  8
0
 48
15.0
100
AcDbBlockBegin
  2
*D93
 70
     1
 10
0.0
 20
0.0
 30
0.0
  3
*D93
  1

  0
LINE
  5
90A7
330
8C8E
100
AcDbEntity
  8
寸法引出
 48
15.0
370
    -2
100
AcDbLine
 10
1360.90451337318
 20
2269.779567641652
 30
0.0
 11
1360.90451337318
 21
2357.972677154871
 31
0.0
  0
LINE
  5
90A8
330
8C8E
100
AcDbEntity
  8
寸法引出
 48
15.0
370
    -2
100
AcDbLine
 10
1710.90451337318
 20
2269.779567641652
 30
0.0
 11
1710.90451337318
 21
2357.972677154871
 31
0.0
  0
LINE
  5
90A9
330
8C8E
100
AcDbEntity
  8
寸法引出
 48
15.0
370
    -2
100
AcDbLine
 10
1383.40451337318
 20
2350.47267715487
 30
0.0
 11
1688.40451337318
 21
2350.47267715487
 31
0.0
  0
SOLID
  5
90AA
330
8C8E
100
AcDbEntity
  8
寸法引出
 48
15.0
100
AcDbTrace
 10
1383.40451337318
 20
2354.22267715487
 30
0.0
 11
1383.40451337318
 21
2346.72267715487
 31
0.0
 12
1360.90451337318
 22
2350.47267715487
 32
0.0
 13
1360.90451337318
 23
2350.47267715487
 33
0.0
  0
SOLID
  5
90AB
330
8C8E
100
AcDbEntity
  8
寸法引出
 48
15.0
100
AcDbTrace
 10
1688.40451337318
 20
2354.22267715487
 30
0.0
 11
1688.40451337318
 21
2346.72267715487
 31
0.0
 12
1710.90451337318
 22
2350.47267715487
 32
0.0
 13
1710.90451337318
 23
2350.47267715487
 33
0.0
  0
MTEXT
  5
90AC
330
8C8E
100
AcDbEntity
  8
寸法引出
 48
15.0
100
AcDbMText
 10
1535.90451337318
 20
2380.47267715487
 30
0.0
 40
30.0
 41
0.0
 71
     5
 72
     1
  1
\A1;350
  7
SANWA
 73
     1
 44
1.0
1001
ACAD
1000
MTEXTBEGIN
1070
    73
1070
     1
1070
    44
1040
1.0
1070
    74
1070
     0
1000
MTEXTEND
  0
POINT
  5
90AD
330
8C8E
100
AcDbEntity
  8
DEFPOINTS
 62
     0
 48
15.0
100
AcDbPoint
 10
1360.90451337318
 20
2254.779567641652
 30
0.0
  0
POINT
  5
90AE
330
8C8E
100
AcDbEntity
  8
DEFPOINTS
 62
     0
 48
15.0
100
AcDbPoint
 10
1710.90451337318
 20
2254.779567641652
 30
0.0
  0
POINT
  5
90AF
330
8C8E
100
AcDbEntity
  8
DEFPOINTS
 62
     0
 48
15.0
100
AcDbPoint
 10
1710.90451337318
 20
2350.47267715487
 30
0.0
  0
ENDBLK
  5
8C99
330
8C8E
100
AcDbEntity
  8
0
 48
15.0
100
AcDbBlockEnd
  0
BLOCK
  5
8CA6
330
8C9A
100
AcDbEntity
  8
0
 48
15.0
100
AcDbBlockBegin
  2
*D94
 70
     1
 10
0.0
 20
0.0
 30
0.0
  3
*D94
  1

  0
LINE
  5
90B0
330
8C9A
100
AcDbEntity
  8
寸法引出
 48
15.0
370
    -2
100
AcDbLine
 10
1360.90451337318
 20
2139.779567641652
 30
0.0
 11
1360.90451337318
 21
2072.642148029828
 31
0.0
  0
LINE
  5
90B1
330
8C9A
100
AcDbEntity
  8
寸法引出
 48
15.0
370
    -2
100
AcDbLine
 10
1385.90451337318
 20
2139.779567641652
 30
0.0
 11
1385.90451337318
 21
2072.642148029828
 31
0.0
  0
LINE
  5
90B2
330
8C9A
100
AcDbEntity
  8
寸法引出
 48
15.0
370
    -2
100
AcDbLine
 10
1338.40451337318
 20
2080.142148029828
 30
0.0
 11
1315.90451337318
 21
2080.142148029828
 31
0.0
  0
LINE
  5
90B3
330
8C9A
100
AcDbEntity
  8
寸法引出
 48
15.0
370
    -2
100
AcDbLine
 10
1408.40451337318
 20
2080.142148029828
 30
0.0
 11
1430.90451337318
 21
2080.142148029828
 31
0.0
  0
LINE
  5
90B4
330
8C9A
100
AcDbEntity
  8
寸法引出
 48
15.0
370
    -2
100
AcDbLine
 10
1360.90451337318
 20
2080.142148029828
 30
0.0
 11
1385.90451337318
 21
2080.142148029828
 31
0.0
  0
SOLID
  5
90B5
330
8C9A
100
AcDbEntity
  8
寸法引出
 48
15.0
100
AcDbTrace
 10
1338.40451337318
 20
2083.892148029828
 30
0.0
 11
1338.40451337318
 21
2076.392148029828
 31
0.0
 12
1360.90451337318
 22
2080.142148029828
 32
0.0
 13
1360.90451337318
 23
2080.142148029828
 33
0.0
  0
SOLID
  5
90B6
330
8C9A
100
AcDbEntity
  8
寸法引出
 48
15.0
100
AcDbTrace
 10
1408.40451337318
 20
2083.892148029828
 30
0.0
 11
1408.40451337318
 21
2076.392148029828
 31
0.0
 12
1385.90451337318
 22
2080.142148029828
 32
0.0
 13
1385.90451337318
 23
2080.142148029828
 33
0.0
  0
MTEXT
  5
90B7
330
8C9A
100
AcDbEntity
  8
寸法引出
 48
15.0
100
AcDbMText
 10
1373.40451337318
 20
2110.142148029828
 30
0.0
 40
30.0
 41
0.0
 71
     5
 72
     1
  1
\A1;25
  7
SANWA
 73
     1
 44
1.0
1001
ACAD
1000
MTEXTBEGIN
1070
    73
1070
     1
1070
    44
1040
1.0
1070
    74
1070
     0
1000
MTEXTEND
  0
POINT
  5
90B8
330
8C9A
100
AcDbEntity
  8
DEFPOINTS
 62
     0
 48
15.0
100
AcDbPoint
 10
1360.90451337318
 20
2154.779567641652
 30
0.0
  0
POINT
  5
90B9
330
8C9A
100
AcDbEntity
  8
DEFPOINTS
 62
     0
 48
15.0
100
AcDbPoint
 10
1385.90451337318
 20
2154.779567641652
 30
0.0
  0
POINT
  5
90BA
330
8C9A
100
AcDbEntity
  8
DEFPOINTS
 62
     0
 48
15.0
100
AcDbPoint
 10
1385.90451337318
 20
2080.142148029828
 30
0.0
  0
ENDBLK
  5
8CA7
330
8C9A
100
AcDbEntity
  8
0
 48
15.0
100
AcDbBlockEnd
  0
BLOCK
  5
8CB1
330
8CA8
100
AcDbEntity
  8
0
 48
15.0
100
AcDbBlockBegin
  2
*D95
 70
     1
 10
0.0
 20
0.0
 30
0.0
  3
*D95
  1

  0
LINE
  5
90BB
330
8CA8
100
AcDbEntity
  8
寸法引出
 48
15.0
370
    -2
100
AcDbLine
 10
1685.90451337318
 20
2139.779567641652
 30
0.0
 11
1685.90451337318
 21
2072.642148029828
 31
0.0
  0
LINE
  5
90BC
330
8CA8
100
AcDbEntity
  8
寸法引出
 48
15.0
370
    -2
100
AcDbLine
 10
1408.40451337318
 20
2080.142148029828
 30
0.0
 11
1663.40451337318
 21
2080.142148029828
 31
0.0
  0
SOLID
  5
90BD
330
8CA8
100
AcDbEntity
  8
寸法引出
 48
15.0
100
AcDbTrace
 10
1408.40451337318
 20
2083.892148029828
 30
0.0
 11
1408.40451337318
 21
2076.392148029828
 31
0.0
 12
1385.90451337318
 22
2080.142148029828
 32
0.0
 13
1385.90451337318
 23
2080.142148029828
 33
0.0
  0
SOLID
  5
90BE
330
8CA8
100
AcDbEntity
  8
寸法引出
 48
15.0
100
AcDbTrace
 10
1663.40451337318
 20
2083.892148029828
 30
0.0
 11
1663.40451337318
 21
2076.392148029828
 31
0.0
 12
1685.90451337318
 22
2080.142148029828
 32
0.0
 13
1685.90451337318
 23
2080.142148029828
 33
0.0
  0
MTEXT
  5
90BF
330
8CA8
100
AcDbEntity
  8
寸法引出
 48
15.0
100
AcDbMText
 10
1535.90451337318
 20
2110.142148029828
 30
0.0
 40
30.0
 41
0.0
 71
     5
 72
     1
  1
\A1;300
  7
SANWA
 73
     1
 44
1.0
1001
ACAD
1000
MTEXTBEGIN
1070
    73
1070
     1
1070
    44
1040
1.0
1070
    74
1070
     0
1000
MTEXTEND
  0
POINT
  5
90C0
330
8CA8
100
AcDbEntity
  8
DEFPOINTS
 62
     0
 48
15.0
100
AcDbPoint
 10
1385.90451337318
 20
2154.779567641652
 30
0.0
  0
POINT
  5
90C1
330
8CA8
100
AcDbEntity
  8
DEFPOINTS
 62
     0
 48
15.0
100
AcDbPoint
 10
1685.90451337318
 20
2154.779567641652
 30
0.0
  0
POINT
  5
90C2
330
8CA8
100
AcDbEntity
  8
DEFPOINTS
 62
     0
 48
15.0
100
AcDbPoint
 10
1685.90451337318
 20
2080.142148029828
 30
0.0
  0
ENDBLK
  5
8CB2
330
8CA8
100
AcDbEntity
  8
0
 48
15.0
100
AcDbBlockEnd
  0
BLOCK
  5
8CBD
330
8CB3
100
AcDbEntity
  8
0
 48
15.0
100
AcDbBlockBegin
  2
*D96
 70
     1
 10
0.0
 20
0.0
 30
0.0
  3
*D96
  1

  0
LINE
  5
90C3
330
8CB3
100
AcDbEntity
  8
寸法引出
 48
15.0
370
    -2
100
AcDbLine
 10
2143.040493132293
 20
2139.779567641652
 30
0.0
 11
2143.040493132293
 21
2072.642148029828
 31
0.0
  0
LINE
  5
90C4
330
8CB3
100
AcDbEntity
  8
寸法引出
 48
15.0
370
    -2
100
AcDbLine
 10
2263.040493132293
 20
2139.779567641652
 30
0.0
 11
2263.040493132293
 21
2072.642148029828
 31
0.0
  0
LINE
  5
90C5
330
8CB3
100
AcDbEntity
  8
寸法引出
 48
15.0
370
    -2
100
AcDbLine
 10
2165.540493132294
 20
2080.142148029828
 30
0.0
 11
2240.540493132293
 21
2080.142148029828
 31
0.0
  0
SOLID
  5
90C6
330
8CB3
100
AcDbEntity
  8
寸法引出
 48
15.0
100
AcDbTrace
 10
2165.540493132294
 20
2083.892148029828
 30
0.0
 11
2165.540493132294
 21
2076.392148029828
 31
0.0
 12
2143.040493132293
 22
2080.142148029828
 32
0.0
 13
2143.040493132293
 23
2080.142148029828
 33
0.0
  0
SOLID
  5
90C7
330
8CB3
100
AcDbEntity
  8
寸法引出
 48
15.0
100
AcDbTrace
 10
2240.540493132293
 20
2083.892148029828
 30
0.0
 11
2240.540493132293
 21
2076.392148029828
 31
0.0
 12
2263.040493132293
 22
2080.142148029828
 32
0.0
 13
2263.040493132293
 23
2080.142148029828
 33
0.0
  0
MTEXT
  5
90C8
330
8CB3
100
AcDbEntity
  8
寸法引出
 48
15.0
100
AcDbMText
 10
2203.040493132293
 20
2110.142148029828
 30
0.0
 40
30.0
 41
0.0
 71
     5
 72
     1
  1
\A1;120
  7
SANWA
 73
     1
 44
1.0
1001
ACAD
1000
MTEXTBEGIN
1070
    73
1070
     1
1070
    44
1040
1.0
1070
    74
1070
     0
1000
MTEXTEND
  0
POINT
  5
90C9
330
8CB3
100
AcDbEntity
  8
DEFPOINTS
 62
     0
 48
15.0
100
AcDbPoint
 10
2143.040493132293
 20
2154.779567641652
 30
0.0
  0
POINT
  5
90CA
330
8CB3
100
AcDbEntity
  8
DEFPOINTS
 62
     0
 48
15.0
100
AcDbPoint
 10
2263.040493132293
 20
2154.779567641652
 30
0.0
  0
POINT
  5
90CB
330
8CB3
100
AcDbEntity
  8
DEFPOINTS
 62
     0
 48
15.0
100
AcDbPoint
 10
2263.040493132293
 20
2080.142148029828
 30
0.0
  0
ENDBLK
  5
8CBE
330
8CB3
100
AcDbEntity
  8
0
 48
15.0
100
AcDbBlockEnd
  0
BLOCK
  5
8CC9
330
8CBF
100
AcDbEntity
  8
0
 48
15.0
100
AcDbBlockBegin
  2
*D97
 70
     1
 10
0.0
 20
0.0
 30
0.0
  3
*D97
  1

  0
LINE
  5
90CC
330
8CBF
100
AcDbEntity
  8
寸法引出
 48
15.0
370
    -2
100
AcDbLine
 10
3158.040493132294
 20
2254.779567641652
 30
0.0
 11
3244.591700953461
 21
2254.779567641652
 31
0.0
  0
LINE
  5
90CD
330
8CBF
100
AcDbEntity
  8
寸法引出
 48
15.0
370
    -2
100
AcDbLine
 10
3158.040493132294
 20
2154.779567641652
 30
0.0
 11
3244.591700953461
 21
2154.779567641652
 31
0.0
  0
LINE
  5
90CE
330
8CBF
100
AcDbEntity
  8
寸法引出
 48
15.0
370
    -2
100
AcDbLine
 10
3237.091700953461
 20
2232.279567641652
 30
0.0
 11
3237.091700953461
 21
2177.279567641652
 31
0.0
  0
SOLID
  5
90CF
330
8CBF
100
AcDbEntity
  8
寸法引出
 48
15.0
100
AcDbTrace
 10
3233.341700953462
 20
2232.279567641652
 30
0.0
 11
3240.841700953461
 21
2232.279567641652
 31
0.0
 12
3237.091700953461
 22
2254.779567641652
 32
0.0
 13
3237.091700953461
 23
2254.779567641652
 33
0.0
  0
SOLID
  5
90D0
330
8CBF
100
AcDbEntity
  8
寸法引出
 48
15.0
100
AcDbTrace
 10
3233.341700953462
 20
2177.279567641652
 30
0.0
 11
3240.841700953461
 21
2177.279567641652
 31
0.0
 12
3237.091700953461
 22
2154.779567641652
 32
0.0
 13
3237.091700953461
 23
2154.779567641652
 33
0.0
  0
MTEXT
  5
90D1
330
8CBF
100
AcDbEntity
  8
寸法引出
 48
15.0
100
AcDbMText
 10
3207.091700953461
 20
2204.779567641653
 30
0.0
 40
30.0
 41
0.0
 71
     5
 72
     1
  1
\A1;100
  7
SANWA
 11
0.0000000000000001
 21
1.0
 31
0.0
 73
     1
 44
1.0
1001
ACAD
1000
MTEXTBEGIN
1070
    73
1070
     1
1070
    44
1040
1.0
1070
    74
1070
     0
1000
MTEXTEND
  0
POINT
  5
90D2
330
8CBF
100
AcDbEntity
  8
DEFPOINTS
 62
     0
 48
15.0
100
AcDbPoint
 10
3143.040493132293
 20
2254.779567641652
 30
0.0
  0
POINT
  5
90D3
330
8CBF
100
AcDbEntity
  8
DEFPOINTS
 62
     0
 48
15.0
100
AcDbPoint
 10
3143.040493132293
 20
2154.779567641652
 30
0.0
  0
POINT
  5
90D4
330
8CBF
100
AcDbEntity
  8
DEFPOINTS
 62
     0
 48
15.0
100
AcDbPoint
 10
3237.091700953461
 20
2154.779567641652
 30
0.0
  0
ENDBLK
  5
8CCA
330
8CBF
100
AcDbEntity
  8
0
 48
15.0
100
AcDbBlockEnd
  0
BLOCK
  5
8CD4
330
8CCB
100
AcDbEntity
  8
0
 48
15.0
100
AcDbBlockBegin
  2
*D98
 70
     1
 10
0.0
 20
0.0
 30
0.0
  3
*D98
  1

  0
LINE
  5
90D5
330
8CCB
100
AcDbEntity
  8
寸法引出
 48
15.0
370
    -2
100
AcDbLine
 10
3143.040493132293
 20
2139.779567641652
 30
0.0
 11
3143.040493132293
 21
2072.642148029828
 31
0.0
  0
LINE
  5
90D6
330
8CCB
100
AcDbEntity
  8
寸法引出
 48
15.0
370
    -2
100
AcDbLine
 10
3045.540493132293
 20
2080.142148029828
 30
0.0
 11
3120.540493132294
 21
2080.142148029828
 31
0.0
  0
SOLID
  5
90D7
330
8CCB
100
AcDbEntity
  8
寸法引出
 48
15.0
100
AcDbTrace
 10
3045.540493132293
 20
2083.892148029828
 30
0.0
 11
3045.540493132293
 21
2076.392148029828
 31
0.0
 12
3023.040493132294
 22
2080.142148029828
 32
0.0
 13
3023.040493132294
 23
2080.142148029828
 33
0.0
  0
SOLID
  5
90D8
330
8CCB
100
AcDbEntity
  8
寸法引出
 48
15.0
100
AcDbTrace
 10
3120.540493132294
 20
2083.892148029828
 30
0.0
 11
3120.540493132294
 21
2076.392148029828
 31
0.0
 12
3143.040493132293
 22
2080.142148029828
 32
0.0
 13
3143.040493132293
 23
2080.142148029828
 33
0.0
  0
MTEXT
  5
90D9
330
8CCB
100
AcDbEntity
  8
寸法引出
 48
15.0
100
AcDbMText
 10
3083.040493132294
 20
2110.142148029828
 30
0.0
 40
30.0
 41
0.0
 71
     5
 72
     1
  1
\A1;120
  7
SANWA
 73
     1
 44
1.0
1001
ACAD
1000
MTEXTBEGIN
1070
    73
1070
     1
1070
    44
1040
1.0
1070
    74
1070
     0
1000
MTEXTEND
  0
POINT
  5
90DA
330
8CCB
100
AcDbEntity
  8
DEFPOINTS
 62
     0
 48
15.0
100
AcDbPoint
 10
3023.040493132294
 20
2154.779567641652
 30
0.0
  0
POINT
  5
90DB
330
8CCB
100
AcDbEntity
  8
DEFPOINTS
 62
     0
 48
15.0
100
AcDbPoint
 10
3143.040493132293
 20
2154.779567641652
 30
0.0
  0
POINT
  5
90DC
330
8CCB
100
AcDbEntity
  8
DEFPOINTS
 62
     0
 48
15.0
100
AcDbPoint
 10
3143.040493132293
 20
2080.142148029828
 30
0.0
  0
ENDBLK
  5
8CD5
330
8CCB
100
AcDbEntity
  8
0
 48
15.0
100
AcDbBlockEnd
  0
BLOCK
  5
8CE0
330
8CD6
100
AcDbEntity
  8
0
 48
15.0
100
AcDbBlockBegin
  2
*D99
 70
     1
 10
0.0
 20
0.0
 30
0.0
  3
*D99
  1

  0
LINE
  5
90DD
330
8CD6
100
AcDbEntity
  8
寸法引出
 48
15.0
370
    -2
100
AcDbLine
 10
6092.006845764086
 20
1706.56774768701
 30
0.0
 11
5999.646838784782
 21
1706.56774768701
 31
0.0
  0
LINE
  5
90DE
330
8CD6
100
AcDbEntity
  8
寸法引出
 48
15.0
370
    -2
100
AcDbLine
 10
6092.006845764086
 20
776.5677476870105
 30
0.0
 11
5999.646838784782
 21
776.5677476870105
 31
0.0
  0
LINE
  5
90DF
330
8CD6
100
AcDbEntity
  8
寸法引出
 48
15.0
370
    -2
100
AcDbLine
 10
6007.146838784781
 20
1684.06774768701
 30
0.0
 11
6007.146838784781
 21
799.0677476870104
 31
0.0
  0
SOLID
  5
90E0
330
8CD6
100
AcDbEntity
  8
寸法引出
 48
15.0
100
AcDbTrace
 10
6003.396838784782
 20
1684.06774768701
 30
0.0
 11
6010.896838784781
 21
1684.06774768701
 31
0.0
 12
6007.146838784781
 22
1706.56774768701
 32
0.0
 13
6007.146838784781
 23
1706.56774768701
 33
0.0
  0
SOLID
  5
90E1
330
8CD6
100
AcDbEntity
  8
寸法引出
 48
15.0
100
AcDbTrace
 10
6003.396838784782
 20
799.0677476870104
 30
0.0
 11
6010.896838784781
 21
799.0677476870104
 31
0.0
 12
6007.146838784781
 22
776.5677476870105
 32
0.0
 13
6007.146838784781
 23
776.5677476870105
 33
0.0
  0
MTEXT
  5
90E2
330
8CD6
100
AcDbEntity
  8
寸法引出
 48
15.0
100
AcDbMText
 10
5977.146838784782
 20
1241.567747687011
 30
0.0
 40
30.0
 41
0.0
 71
     5
 72
     1
  1
\A1;930
  7
SANWA
 11
0.0000000000000001
 21
1.0
 31
0.0
 73
     1
 44
1.0
1001
ACAD
1000
MTEXTBEGIN
1070
    73
1070
     1
1070
    44
1040
1.0
1070
    74
1070
     0
1000
MTEXTEND
  0
POINT
  5
90E3
330
8CD6
100
AcDbEntity
  8
DEFPOINTS
 62
     0
 48
15.0
100
AcDbPoint
 10
6107.006845764086
 20
1706.56774768701
 30
0.0
  0
POINT
  5
90E4
330
8CD6
100
AcDbEntity
  8
DEFPOINTS
 62
     0
 48
15.0
100
AcDbPoint
 10
6107.006845764086
 20
776.5677476870105
 30
0.0
  0
POINT
  5
90E5
330
8CD6
100
AcDbEntity
  8
DEFPOINTS
 62
     0
 48
15.0
100
AcDbPoint
 10
6007.146838784781
 20
776.5677476870105
 30
0.0
  0
ENDBLK
  5
8CE1
330
8CD6
100
AcDbEntity
  8
0
 48
15.0
100
AcDbBlockEnd
  0
BLOCK
  5
8CEC
330
8CE2
100
AcDbEntity
  8
0
 48
15.0
100
AcDbBlockBegin
  2
*D100
 70
     1
 10
0.0
 20
0.0
 30
0.0
  3
*D100
  1

  0
LINE
  5
90E6
330
8CE2
100
AcDbEntity
  8
寸法引出
 48
15.0
370
    -2
100
AcDbLine
 10
6472.006845764086
 20
1741.56774768701
 30
0.0
 11
6753.623661951242
 21
1741.56774768701
 31
0.0
  0
LINE
  5
90E7
330
8CE2
100
AcDbEntity
  8
寸法引出
 48
15.0
370
    -2
100
AcDbLine
 10
6472.006845764086
 20
741.5677476870105
 30
0.0
 11
6753.623661951242
 21
741.5677476870105
 31
0.0
  0
LINE
  5
90E8
330
8CE2
100
AcDbEntity
  8
寸法引出
 48
15.0
370
    -2
100
AcDbLine
 10
6746.123661951242
 20
1719.06774768701
 30
0.0
 11
6746.123661951242
 21
764.0677476870105
 31
0.0
  0
SOLID
  5
90E9
330
8CE2
100
AcDbEntity
  8
寸法引出
 48
15.0
100
AcDbTrace
 10
6742.373661951242
 20
1719.06774768701
 30
0.0
 11
6749.873661951241
 21
1719.06774768701
 31
0.0
 12
6746.123661951242
 22
1741.56774768701
 32
0.0
 13
6746.123661951242
 23
1741.56774768701
 33
0.0
  0
SOLID
  5
90EA
330
8CE2
100
AcDbEntity
  8
寸法引出
 48
15.0
100
AcDbTrace
 10
6742.373661951242
 20
764.0677476870105
 30
0.0
 11
6749.873661951241
 21
764.0677476870105
 31
0.0
 12
6746.123661951242
 22
741.5677476870105
 32
0.0
 13
6746.123661951242
 23
741.5677476870105
 33
0.0
  0
MTEXT
  5
90EB
330
8CE2
100
AcDbEntity
  8
寸法引出
 48
15.0
100
AcDbMText
 10
6716.123661951242
 20
1241.567747687011
 30
0.0
 40
30.0
 41
0.0
 71
     5
 72
     1
  1
\A1;1000
  7
SANWA
 11
0.0000000000000001
 21
1.0
 31
0.0
 73
     1
 44
1.0
1001
ACAD
1000
MTEXTBEGIN
1070
    73
1070
     1
1070
    44
1040
1.0
1070
    74
1070
     0
1000
MTEXTEND
  0
POINT
  5
90EC
330
8CE2
100
AcDbEntity
  8
DEFPOINTS
 62
     0
 48
15.0
100
AcDbPoint
 10
6457.006845764087
 20
1741.56774768701
 30
0.0
  0
POINT
  5
90ED
330
8CE2
100
AcDbEntity
  8
DEFPOINTS
 62
     0
 48
15.0
100
AcDbPoint
 10
6457.006845764087
 20
741.5677476870105
 30
0.0
  0
POINT
  5
90EE
330
8CE2
100
AcDbEntity
  8
DEFPOINTS
 62
     0
 48
15.0
100
AcDbPoint
 10
6746.123661951242
 20
741.5677476870105
 30
0.0
  0
ENDBLK
  5
8CED
330
8CE2
100
AcDbEntity
  8
0
 48
15.0
100
AcDbBlockEnd
  0
BLOCK
  5
8CF8
330
8CEE
100
AcDbEntity
  8
0
 48
15.0
100
AcDbBlockBegin
  2
*D101
 70
     1
 10
0.0
 20
0.0
 30
0.0
  3
*D101
  1

  0
LINE
  5
90EF
330
8CEE
100
AcDbEntity
  8
寸法引出
 48
15.0
370
    -2
100
AcDbLine
 10
6472.006845764086
 20
786.5677476870104
 30
0.0
 11
6684.600201597554
 21
786.5677476870104
 31
0.0
  0
LINE
  5
90F0
330
8CEE
100
AcDbEntity
  8
寸法引出
 48
15.0
370
    -2
100
AcDbLine
 10
6472.006845764086
 20
1696.56774768701
 30
0.0
 11
6684.600201597554
 21
1696.56774768701
 31
0.0
  0
LINE
  5
90F1
330
8CEE
100
AcDbEntity
  8
寸法引出
 48
15.0
370
    -2
100
AcDbLine
 10
6677.100201597554
 20
809.0677476870105
 30
0.0
 11
6677.100201597554
 21
1674.06774768701
 31
0.0
  0
SOLID
  5
90F2
330
8CEE
100
AcDbEntity
  8
寸法引出
 48
15.0
100
AcDbTrace
 10
6673.350201597553
 20
809.0677476870105
 30
0.0
 11
6680.850201597554
 21
809.0677476870105
 31
0.0
 12
6677.100201597554
 22
786.5677476870104
 32
0.0
 13
6677.100201597554
 23
786.5677476870104
 33
0.0
  0
SOLID
  5
90F3
330
8CEE
100
AcDbEntity
  8
寸法引出
 48
15.0
100
AcDbTrace
 10
6673.350201597553
 20
1674.06774768701
 30
0.0
 11
6680.850201597554
 21
1674.06774768701
 31
0.0
 12
6677.100201597554
 22
1696.56774768701
 32
0.0
 13
6677.100201597554
 23
1696.56774768701
 33
0.0
  0
MTEXT
  5
90F4
330
8CEE
100
AcDbEntity
  8
寸法引出
 48
15.0
100
AcDbMText
 10
6645.214487311839
 20
1241.567747687011
 30
0.0
 40
30.0
 41
0.0
 71
     5
 72
     1
  1
\A1;7@130=910
  7
SANWA
 11
0.0000000000000001
 21
1.0
 31
0.0
 73
     1
 44
1.0
1001
ACAD
1000
MTEXTBEGIN
1070
    73
1070
     1
1070
    44
1040
1.0
1070
    74
1070
     0
1000
MTEXTEND
  0
POINT
  5
90F5
330
8CEE
100
AcDbEntity
  8
DEFPOINTS
 62
     0
 48
15.0
100
AcDbPoint
 10
6457.006845764087
 20
786.5677476870104
 30
0.0
  0
POINT
  5
90F6
330
8CEE
100
AcDbEntity
  8
DEFPOINTS
 62
     0
 48
15.0
100
AcDbPoint
 10
6457.006845764087
 20
1696.56774768701
 30
0.0
  0
POINT
  5
90F7
330
8CEE
100
AcDbEntity
  8
DEFPOINTS
 62
     0
 48
15.0
100
AcDbPoint
 10
6677.100201597554
 20
1696.56774768701
 30
0.0
  0
ENDBLK
  5
8CF9
330
8CEE
100
AcDbEntity
  8
0
 48
15.0
100
AcDbBlockEnd
  0
BLOCK
  5
8D05
330
8CFA
100
AcDbEntity
  8
0
 48
15.0
100
AcDbBlockBegin
  2
*D102
 70
     1
 10
0.0
 20
0.0
 30
0.0
  3
*D102
  1

  0
LINE
  5
90F8
330
8CFA
100
AcDbEntity
  8
寸法引出
 48
15.0
370
    -2
100
AcDbLine
 10
6457.006845764087
 20
726.5677476870105
 30
0.0
 11
6457.006845764087
 21
594.5822962158363
 31
0.0
  0
LINE
  5
90F9
330
8CFA
100
AcDbEntity
  8
寸法引出
 48
15.0
370
    -2
100
AcDbLine
 10
6414.506845764089
 20
602.0822962158363
 30
0.0
 11
6392.006845764088
 21
602.0822962158363
 31
0.0
  0
LINE
  5
90FA
330
8CFA
100
AcDbEntity
  8
寸法引出
 48
15.0
370
    -2
100
AcDbLine
 10
6479.506845764086
 20
602.0822962158363
 30
0.0
 11
6502.006845764086
 21
602.0822962158363
 31
0.0
  0
LINE
  5
90FB
330
8CFA
100
AcDbEntity
  8
寸法引出
 48
15.0
370
    -2
100
AcDbLine
 10
6437.006845764088
 20
602.0822962158363
 30
0.0
 11
6457.006845764087
 21
602.0822962158363
 31
0.0
  0
SOLID
  5
90FC
330
8CFA
100
AcDbEntity
  8
寸法引出
 48
15.0
100
AcDbTrace
 10
6414.506845764089
 20
605.8322962158363
 30
0.0
 11
6414.506845764089
 21
598.3322962158363
 31
0.0
 12
6437.006845764088
 22
602.0822962158363
 32
0.0
 13
6437.006845764088
 23
602.0822962158363
 33
0.0
  0
SOLID
  5
90FD
330
8CFA
100
AcDbEntity
  8
寸法引出
 48
15.0
100
AcDbTrace
 10
6479.506845764086
 20
605.8322962158363
 30
0.0
 11
6479.506845764086
 21
598.3322962158363
 31
0.0
 12
6457.006845764087
 22
602.0822962158363
 32
0.0
 13
6457.006845764087
 23
602.0822962158363
 33
0.0
  0
MTEXT
  5
90FE
330
8CFA
100
AcDbEntity
  8
寸法引出
 48
15.0
100
AcDbMText
 10
6447.006845764088
 20
632.0822962158363
 30
0.0
 40
30.0
 41
0.0
 71
     5
 72
     1
  1
\A1;20
  7
SANWA
 73
     1
 44
1.0
1001
ACAD
1000
MTEXTBEGIN
1070
    73
1070
     1
1070
    44
1040
1.0
1070
    74
1070
     0
1000
MTEXTEND
  0
POINT
  5
90FF
330
8CFA
100
AcDbEntity
  8
DEFPOINTS
 62
     0
 48
15.0
100
AcDbPoint
 10
6437.006845764088
 20
741.5677476870105
 30
0.0
  0
POINT
  5
9100
330
8CFA
100
AcDbEntity
  8
DEFPOINTS
 62
     0
 48
15.0
100
AcDbPoint
 10
6457.006845764087
 20
741.5677476870105
 30
0.0
  0
POINT
  5
9101
330
8CFA
100
AcDbEntity
  8
DEFPOINTS
 62
     0
 48
15.0
100
AcDbPoint
 10
6457.006845764087
 20
602.0822962158363
 30
0.0
  0
ENDBLK
  5
8D06
330
8CFA
100
AcDbEntity
  8
0
 48
15.0
100
AcDbBlockEnd
  0
BLOCK
  5
8D13
330
8D07
100
AcDbEntity
  8
0
 48
15.0
100
AcDbBlockBegin
  2
*D103
 70
     1
 10
0.0
 20
0.0
 30
0.0
  3
*D103
  1

  0
LINE
  5
9102
330
8D07
100
AcDbEntity
  8
寸法引出
 48
15.0
370
    -2
100
AcDbLine
 10
6472.006845764086
 20
741.5677476870105
 30
0.0
 11
6684.600201597554
 21
741.5677476870105
 31
0.0
  0
LINE
  5
9103
330
8D07
100
AcDbEntity
  8
寸法引出
 48
15.0
370
    -2
100
AcDbLine
 10
6472.006845764086
 20
786.5677476870104
 30
0.0
 11
6684.600201597554
 21
786.5677476870104
 31
0.0
  0
LINE
  5
9104
330
8D07
100
AcDbEntity
  8
寸法引出
 48
15.0
370
    -2
100
AcDbLine
 10
6677.100201597554
 20
719.0677476870105
 30
0.0
 11
6677.100201597554
 21
696.5677476870105
 31
0.0
  0
LINE
  5
9105
330
8D07
100
AcDbEntity
  8
寸法引出
 48
15.0
370
    -2
100
AcDbLine
 10
6677.100201597554
 20
809.0677476870105
 30
0.0
 11
6677.100201597554
 21
831.5677476870105
 31
0.0
  0
LINE
  5
9106
330
8D07
100
AcDbEntity
  8
寸法引出
 48
15.0
370
    -2
100
AcDbLine
 10
6677.100201597554
 20
741.5677476870105
 30
0.0
 11
6677.100201597554
 21
786.5677476870104
 31
0.0
  0
SOLID
  5
9107
330
8D07
100
AcDbEntity
  8
寸法引出
 48
15.0
100
AcDbTrace
 10
6673.350201597553
 20
719.0677476870105
 30
0.0
 11
6680.850201597554
 21
719.0677476870105
 31
0.0
 12
6677.100201597554
 22
741.5677476870105
 32
0.0
 13
6677.100201597554
 23
741.5677476870105
 33
0.0
  0
SOLID
  5
9108
330
8D07
100
AcDbEntity
  8
寸法引出
 48
15.0
100
AcDbTrace
 10
6673.350201597553
 20
809.0677476870105
 30
0.0
 11
6680.850201597554
 21
809.0677476870105
 31
0.0
 12
6677.100201597554
 22
786.5677476870104
 32
0.0
 13
6677.100201597554
 23
786.5677476870104
 33
0.0
  0
MTEXT
  5
9109
330
8D07
100
AcDbEntity
  8
寸法引出
 48
15.0
100
AcDbMText
 10
6647.100201597554
 20
764.0677476870116
 30
0.0
 40
30.0
 41
0.0
 71
     5
 72
     1
  1
\A1;45
  7
SANWA
 11
0.0000000000000001
 21
1.0
 31
0.0
 73
     1
 44
1.0
1001
ACAD
1000
MTEXTBEGIN
1070
    73
1070
     1
1070
    44
1040
1.0
1070
    74
1070
     0
1000
MTEXTEND
  0
POINT
  5
910A
330
8D07
100
AcDbEntity
  8
DEFPOINTS
 62
     0
 48
15.0
100
AcDbPoint
 10
6457.006845764087
 20
741.5677476870105
 30
0.0
  0
POINT
  5
910B
330
8D07
100
AcDbEntity
  8
DEFPOINTS
 62
     0
 48
15.0
100
AcDbPoint
 10
6457.006845764087
 20
786.5677476870104
 30
0.0
  0
POINT
  5
910C
330
8D07
100
AcDbEntity
  8
DEFPOINTS
 62
     0
 48
15.0
100
AcDbPoint
 10
6677.100201597554
 20
786.5677476870104
 30
0.0
  0
ENDBLK
  5
8D14
330
8D07
100
AcDbEntity
  8
0
 48
15.0
100
AcDbBlockEnd
  0
BLOCK
  5
8D21
330
8D15
100
AcDbEntity
  8
0
 48
15.0
100
AcDbBlockBegin
  2
*D104
 70
     1
 10
0.0
 20
0.0
 30
0.0
  3
*D104
  1

  0
LINE
  5
910D
330
8D15
100
AcDbEntity
  8
寸法引出
 48
15.0
370
    -2
100
AcDbLine
 10
6107.006845764086
 20
726.5677476870105
 30
0.0
 11
6107.006845764086
 21
594.5822962158363
 31
0.0
  0
LINE
  5
910E
330
8D15
100
AcDbEntity
  8
寸法引出
 48
15.0
370
    -2
100
AcDbLine
 10
6127.006845764086
 20
726.5677476870105
 30
0.0
 11
6127.006845764086
 21
594.5822962158363
 31
0.0
  0
LINE
  5
910F
330
8D15
100
AcDbEntity
  8
寸法引出
 48
15.0
370
    -2
100
AcDbLine
 10
6084.506845764086
 20
602.0822962158363
 30
0.0
 11
6062.006845764086
 21
602.0822962158363
 31
0.0
  0
LINE
  5
9110
330
8D15
100
AcDbEntity
  8
寸法引出
 48
15.0
370
    -2
100
AcDbLine
 10
6149.506845764086
 20
602.0822962158363
 30
0.0
 11
6172.006845764086
 21
602.0822962158363
 31
0.0
  0
LINE
  5
9111
330
8D15
100
AcDbEntity
  8
寸法引出
 48
15.0
370
    -2
100
AcDbLine
 10
6107.006845764086
 20
602.0822962158363
 30
0.0
 11
6127.006845764086
 21
602.0822962158363
 31
0.0
  0
SOLID
  5
9112
330
8D15
100
AcDbEntity
  8
寸法引出
 48
15.0
100
AcDbTrace
 10
6084.506845764086
 20
605.8322962158363
 30
0.0
 11
6084.506845764086
 21
598.3322962158363
 31
0.0
 12
6107.006845764086
 22
602.0822962158363
 32
0.0
 13
6107.006845764086
 23
602.0822962158363
 33
0.0
  0
SOLID
  5
9113
330
8D15
100
AcDbEntity
  8
寸法引出
 48
15.0
100
AcDbTrace
 10
6149.506845764086
 20
605.8322962158363
 30
0.0
 11
6149.506845764086
 21
598.3322962158363
 31
0.0
 12
6127.006845764086
 22
602.0822962158363
 32
0.0
 13
6127.006845764086
 23
602.0822962158363
 33
0.0
  0
MTEXT
  5
9114
330
8D15
100
AcDbEntity
  8
寸法引出
 48
15.0
100
AcDbMText
 10
6117.006845764087
 20
632.0822962158363
 30
0.0
 40
30.0
 41
0.0
 71
     5
 72
     1
  1
\A1;20
  7
SANWA
 73
     1
 44
1.0
1001
ACAD
1000
MTEXTBEGIN
1070
    73
1070
     1
1070
    44
1040
1.0
1070
    74
1070
     0
1000
MTEXTEND
  0
POINT
  5
9115
330
8D15
100
AcDbEntity
  8
DEFPOINTS
 62
     0
 48
15.0
100
AcDbPoint
 10
6107.006845764086
 20
741.5677476870105
 30
0.0
  0
POINT
  5
9116
330
8D15
100
AcDbEntity
  8
DEFPOINTS
 62
     0
 48
15.0
100
AcDbPoint
 10
6127.006845764086
 20
741.5677476870105
 30
0.0
  0
POINT
  5
9117
330
8D15
100
AcDbEntity
  8
DEFPOINTS
 62
     0
 48
15.0
100
AcDbPoint
 10
6127.006845764086
 20
602.0822962158363
 30
0.0
  0
ENDBLK
  5
8D22
330
8D15
100
AcDbEntity
  8
0
 48
15.0
100
AcDbBlockEnd
  0
BLOCK
  5
8D2C
330
8D23
100
AcDbEntity
  8
0
 48
15.0
100
AcDbBlockBegin
  2
*D105
 70
     1
 10
0.0
 20
0.0
 30
0.0
  3
*D105
  1

  0
LINE
  5
9118
330
8D23
100
AcDbEntity
  8
寸法引出
 48
15.0
370
    -2
100
AcDbLine
 10
6437.006845764088
 20
726.5677476870105
 30
0.0
 11
6437.006845764088
 21
594.5822962158363
 31
0.0
  0
LINE
  5
9119
330
8D23
100
AcDbEntity
  8
寸法引出
 48
15.0
370
    -2
100
AcDbLine
 10
6149.506845764086
 20
602.0822962158363
 30
0.0
 11
6414.506845764089
 21
602.0822962158363
 31
0.0
  0
SOLID
  5
911A
330
8D23
100
AcDbEntity
  8
寸法引出
 48
15.0
100
AcDbTrace
 10
6149.506845764086
 20
605.8322962158363
 30
0.0
 11
6149.506845764086
 21
598.3322962158363
 31
0.0
 12
6127.006845764086
 22
602.0822962158363
 32
0.0
 13
6127.006845764086
 23
602.0822962158363
 33
0.0
  0
SOLID
  5
911B
330
8D23
100
AcDbEntity
  8
寸法引出
 48
15.0
100
AcDbTrace
 10
6414.506845764089
 20
605.8322962158363
 30
0.0
 11
6414.506845764089
 21
598.3322962158363
 31
0.0
 12
6437.006845764088
 22
602.0822962158363
 32
0.0
 13
6437.006845764088
 23
602.0822962158363
 33
0.0
  0
MTEXT
  5
911C
330
8D23
100
AcDbEntity
  8
寸法引出
 48
15.0
100
AcDbMText
 10
6282.006845764087
 20
632.0822962158363
 30
0.0
 40
30.0
 41
0.0
 71
     5
 72
     1
  1
\A1;310
  7
SANWA
 73
     1
 44
1.0
1001
ACAD
1000
MTEXTBEGIN
1070
    73
1070
     1
1070
    44
1040
1.0
1070
    74
1070
     0
1000
MTEXTEND
  0
POINT
  5
911D
330
8D23
100
AcDbEntity
  8
DEFPOINTS
 62
     0
 48
15.0
100
AcDbPoint
 10
6127.006845764086
 20
741.5677476870105
 30
0.0
  0
POINT
  5
911E
330
8D23
100
AcDbEntity
  8
DEFPOINTS
 62
     0
 48
15.0
100
AcDbPoint
 10
6437.006845764088
 20
741.5677476870105
 30
0.0
  0
POINT
  5
911F
330
8D23
100
AcDbEntity
  8
DEFPOINTS
 62
     0
 48
15.0
100
AcDbPoint
 10
6437.006845764088
 20
602.0822962158363
 30
0.0
  0
ENDBLK
  5
8D2D
330
8D23
100
AcDbEntity
  8
0
 48
15.0
100
AcDbBlockEnd
  0
BLOCK
  5
8D38
330
8D2E
100
AcDbEntity
  8
0
 48
15.0
100
AcDbBlockBegin
  2
*D106
 70
     1
 10
0.0
 20
0.0
 30
0.0
  3
*D106
  1

  0
LINE
  5
9120
330
8D2E
100
AcDbEntity
  8
寸法引出
 48
15.0
370
    -2
100
AcDbLine
 10
6918.667698923275
 20
2269.779567641652
 30
0.0
 11
6918.667698923275
 21
2348.295897905531
 31
0.0
  0
LINE
  5
9121
330
8D2E
100
AcDbEntity
  8
寸法引出
 48
15.0
370
    -2
100
AcDbLine
 10
7848.667698923273
 20
2269.779567641652
 30
0.0
 11
7848.667698923273
 21
2348.295897905531
 31
0.0
  0
LINE
  5
9122
330
8D2E
100
AcDbEntity
  8
寸法引出
 48
15.0
370
    -2
100
AcDbLine
 10
6941.167698923274
 20
2340.795897905531
 30
0.0
 11
7826.167698923272
 21
2340.795897905531
 31
0.0
  0
SOLID
  5
9123
330
8D2E
100
AcDbEntity
  8
寸法引出
 48
15.0
100
AcDbTrace
 10
6941.167698923274
 20
2344.545897905531
 30
0.0
 11
6941.167698923274
 21
2337.045897905531
 31
0.0
 12
6918.667698923275
 22
2340.795897905531
 32
0.0
 13
6918.667698923275
 23
2340.795897905531
 33
0.0
  0
SOLID
  5
9124
330
8D2E
100
AcDbEntity
  8
寸法引出
 48
15.0
100
AcDbTrace
 10
7826.167698923272
 20
2344.545897905531
 30
0.0
 11
7826.167698923272
 21
2337.045897905531
 31
0.0
 12
7848.667698923273
 22
2340.795897905531
 32
0.0
 13
7848.667698923273
 23
2340.795897905531
 33
0.0
  0
MTEXT
  5
9125
330
8D2E
100
AcDbEntity
  8
寸法引出
 48
15.0
100
AcDbMText
 10
7383.667698923274
 20
2370.795897905531
 30
0.0
 40
30.0
 41
0.0
 71
     5
 72
     1
  1
\A1;930
  7
SANWA
 73
     1
 44
1.0
1001
ACAD
1000
MTEXTBEGIN
1070
    73
1070
     1
1070
    44
1040
1.0
1070
    74
1070
     0
1000
MTEXTEND
  0
POINT
  5
9126
330
8D2E
100
AcDbEntity
  8
DEFPOINTS
 62
     0
 48
15.0
100
AcDbPoint
 10
6918.667698923275
 20
2254.779567641652
 30
0.0
  0
POINT
  5
9127
330
8D2E
100
AcDbEntity
  8
DEFPOINTS
 62
     0
 48
15.0
100
AcDbPoint
 10
7848.667698923273
 20
2254.779567641652
 30
0.0
  0
POINT
  5
9128
330
8D2E
100
AcDbEntity
  8
DEFPOINTS
 62
     0
 48
15.0
100
AcDbPoint
 10
7848.667698923273
 20
2340.795897905531
 30
0.0
  0
ENDBLK
  5
8D39
330
8D2E
100
AcDbEntity
  8
0
 48
15.0
100
AcDbBlockEnd
  0
BLOCK
  5
8D43
330
8D3A
100
AcDbEntity
  8
0
 48
15.0
100
AcDbBlockBegin
  2
*D107
 70
     1
 10
0.0
 20
0.0
 30
0.0
  3
*D107
  1

  0
LINE
  5
9129
330
8D3A
100
AcDbEntity
  8
寸法引出
 48
15.0
370
    -2
100
AcDbLine
 10
7838.667698923273
 20
2139.779567641652
 30
0.0
 11
7838.667698923273
 21
2049.847819776818
 31
0.0
  0
LINE
  5
912A
330
8D3A
100
AcDbEntity
  8
寸法引出
 48
15.0
370
    -2
100
AcDbLine
 10
6951.167698923275
 20
2057.347819776818
 30
0.0
 11
7816.167698923273
 21
2057.347819776818
 31
0.0
  0
SOLID
  5
912B
330
8D3A
100
AcDbEntity
  8
寸法引出
 48
15.0
100
AcDbTrace
 10
6951.167698923275
 20
2061.097819776819
 30
0.0
 11
6951.167698923275
 21
2053.597819776818
 31
0.0
 12
6928.667698923274
 22
2057.347819776818
 32
0.0
 13
6928.667698923274
 23
2057.347819776818
 33
0.0
  0
SOLID
  5
912C
330
8D3A
100
AcDbEntity
  8
寸法引出
 48
15.0
100
AcDbTrace
 10
7816.167698923273
 20
2061.097819776819
 30
0.0
 11
7816.167698923273
 21
2053.597819776818
 31
0.0
 12
7838.667698923273
 22
2057.347819776818
 32
0.0
 13
7838.667698923273
 23
2057.347819776818
 33
0.0
  0
MTEXT
  5
912D
330
8D3A
100
AcDbEntity
  8
寸法引出
 48
15.0
100
AcDbMText
 10
7383.667698923274
 20
2089.233534062532
 30
0.0
 40
30.0
 41
0.0
 71
     5
 72
     1
  1
\A1;7@130=910
  7
SANWA
 73
     1
 44
1.0
1001
ACAD
1000
MTEXTBEGIN
1070
    73
1070
     1
1070
    44
1040
1.0
1070
    74
1070
     0
1000
MTEXTEND
  0
POINT
  5
912E
330
8D3A
100
AcDbEntity
  8
DEFPOINTS
 62
     0
 48
15.0
100
AcDbPoint
 10
6928.667698923274
 20
2154.779567641652
 30
0.0
  0
POINT
  5
912F
330
8D3A
100
AcDbEntity
  8
DEFPOINTS
 62
     0
 48
15.0
100
AcDbPoint
 10
7838.667698923273
 20
2154.779567641652
 30
0.0
  0
POINT
  5
9130
330
8D3A
100
AcDbEntity
  8
DEFPOINTS
 62
     0
 48
15.0
100
AcDbPoint
 10
7838.667698923273
 20
2057.347819776818
 30
0.0
  0
ENDBLK
  5
8D44
330
8D3A
100
AcDbEntity
  8
0
 48
15.0
100
AcDbBlockEnd
  0
BLOCK
  5
8D4F
330
8D45
100
AcDbEntity
  8
0
 48
15.0
100
AcDbBlockBegin
  2
*D108
 70
     1
 10
0.0
 20
0.0
 30
0.0
  3
*D108
  1

  0
LINE
  5
9131
330
8D45
100
AcDbEntity
  8
寸法引出
 48
15.0
370
    -2
100
AcDbLine
 10
6883.667698923274
 20
2269.779567641652
 30
0.0
 11
6883.667698923274
 21
2408.753363277161
 31
0.0
  0
LINE
  5
9132
330
8D45
100
AcDbEntity
  8
寸法引出
 48
15.0
370
    -2
100
AcDbLine
 10
7883.667698923273
 20
2269.779567641652
 30
0.0
 11
7883.667698923273
 21
2408.753363277161
 31
0.0
  0
LINE
  5
9133
330
8D45
100
AcDbEntity
  8
寸法引出
 48
15.0
370
    -2
100
AcDbLine
 10
6906.167698923275
 20
2401.253363277161
 30
0.0
 11
7861.167698923273
 21
2401.253363277161
 31
0.0
  0
SOLID
  5
9134
330
8D45
100
AcDbEntity
  8
寸法引出
 48
15.0
100
AcDbTrace
 10
6906.167698923275
 20
2405.003363277161
 30
0.0
 11
6906.167698923275
 21
2397.503363277161
 31
0.0
 12
6883.667698923274
 22
2401.253363277161
 32
0.0
 13
6883.667698923274
 23
2401.253363277161
 33
0.0
  0
SOLID
  5
9135
330
8D45
100
AcDbEntity
  8
寸法引出
 48
15.0
100
AcDbTrace
 10
7861.167698923273
 20
2405.003363277161
 30
0.0
 11
7861.167698923273
 21
2397.503363277161
 31
0.0
 12
7883.667698923273
 22
2401.253363277161
 32
0.0
 13
7883.667698923273
 23
2401.253363277161
 33
0.0
  0
MTEXT
  5
9136
330
8D45
100
AcDbEntity
  8
寸法引出
 48
15.0
100
AcDbMText
 10
7383.667698923274
 20
2431.253363277161
 30
0.0
 40
30.0
 41
0.0
 71
     5
 72
     1
  1
\A1;1000
  7
SANWA
 73
     1
 44
1.0
1001
ACAD
1000
MTEXTBEGIN
1070
    73
1070
     1
1070
    44
1040
1.0
1070
    74
1070
     0
1000
MTEXTEND
  0
POINT
  5
9137
330
8D45
100
AcDbEntity
  8
DEFPOINTS
 62
     0
 48
15.0
100
AcDbPoint
 10
6883.667698923274
 20
2254.779567641652
 30
0.0
  0
POINT
  5
9138
330
8D45
100
AcDbEntity
  8
DEFPOINTS
 62
     0
 48
15.0
100
AcDbPoint
 10
7883.667698923273
 20
2254.779567641652
 30
0.0
  0
POINT
  5
9139
330
8D45
100
AcDbEntity
  8
DEFPOINTS
 62
     0
 48
15.0
100
AcDbPoint
 10
7883.667698923273
 20
2401.253363277161
 30
0.0
  0
ENDBLK
  5
8D50
330
8D45
100
AcDbEntity
  8
0
 48
15.0
100
AcDbBlockEnd
  0
BLOCK
  5
8D5D
330
8D51
100
AcDbEntity
  8
0
 48
15.0
100
AcDbBlockBegin
  2
*D109
 70
     1
 10
0.0
 20
0.0
 30
0.0
  3
*D109
  1

  0
LINE
  5
913A
330
8D51
100
AcDbEntity
  8
寸法引出
 48
15.0
370
    -2
100
AcDbLine
 10
6883.667698923274
 20
2139.779567641652
 30
0.0
 11
6883.667698923274
 21
2049.847819776818
 31
0.0
  0
LINE
  5
913B
330
8D51
100
AcDbEntity
  8
寸法引出
 48
15.0
370
    -2
100
AcDbLine
 10
6928.667698923274
 20
2139.779567641652
 30
0.0
 11
6928.667698923274
 21
2049.847819776818
 31
0.0
  0
LINE
  5
913C
330
8D51
100
AcDbEntity
  8
寸法引出
 48
15.0
370
    -2
100
AcDbLine
 10
6861.167698923274
 20
2057.347819776818
 30
0.0
 11
6838.667698923275
 21
2057.347819776818
 31
0.0
  0
LINE
  5
913D
330
8D51
100
AcDbEntity
  8
寸法引出
 48
15.0
370
    -2
100
AcDbLine
 10
6951.167698923275
 20
2057.347819776818
 30
0.0
 11
6973.667698923275
 21
2057.347819776818
 31
0.0
  0
LINE
  5
913E
330
8D51
100
AcDbEntity
  8
寸法引出
 48
15.0
370
    -2
100
AcDbLine
 10
6883.667698923274
 20
2057.347819776818
 30
0.0
 11
6928.667698923274
 21
2057.347819776818
 31
0.0
  0
SOLID
  5
913F
330
8D51
100
AcDbEntity
  8
寸法引出
 48
15.0
100
AcDbTrace
 10
6861.167698923274
 20
2061.097819776819
 30
0.0
 11
6861.167698923274
 21
2053.597819776818
 31
0.0
 12
6883.667698923274
 22
2057.347819776818
 32
0.0
 13
6883.667698923274
 23
2057.347819776818
 33
0.0
  0
SOLID
  5
9140
330
8D51
100
AcDbEntity
  8
寸法引出
 48
15.0
100
AcDbTrace
 10
6951.167698923275
 20
2061.097819776819
 30
0.0
 11
6951.167698923275
 21
2053.597819776818
 31
0.0
 12
6928.667698923274
 22
2057.347819776818
 32
0.0
 13
6928.667698923274
 23
2057.347819776818
 33
0.0
  0
MTEXT
  5
9141
330
8D51
100
AcDbEntity
  8
寸法引出
 48
15.0
100
AcDbMText
 10
6906.167698923275
 20
2087.347819776818
 30
0.0
 40
30.0
 41
0.0
 71
     5
 72
     1
  1
\A1;45
  7
SANWA
 73
     1
 44
1.0
1001
ACAD
1000
MTEXTBEGIN
1070
    73
1070
     1
1070
    44
1040
1.0
1070
    74
1070
     0
1000
MTEXTEND
  0
POINT
  5
9142
330
8D51
100
AcDbEntity
  8
DEFPOINTS
 62
     0
 48
15.0
100
AcDbPoint
 10
6883.667698923274
 20
2154.779567641652
 30
0.0
  0
POINT
  5
9143
330
8D51
100
AcDbEntity
  8
DEFPOINTS
 62
     0
 48
15.0
100
AcDbPoint
 10
6928.667698923274
 20
2154.779567641652
 30
0.0
  0
POINT
  5
9144
330
8D51
100
AcDbEntity
  8
DEFPOINTS
 62
     0
 48
15.0
100
AcDbPoint
 10
6928.667698923274
 20
2057.347819776818
 30
0.0
  0
ENDBLK
  5
8D5E
330
8D51
100
AcDbEntity
  8
0
 48
15.0
100
AcDbBlockEnd
  0
BLOCK
  5
8D6A
330
8D5F
100
AcDbEntity
  8
0
 48
15.0
100
AcDbBlockBegin
  2
*D110
 70
     1
 10
0.0
 20
0.0
 30
0.0
  3
*D110
  1

  0
LINE
  5
9145
330
8D5F
100
AcDbEntity
  8
寸法引出
 48
15.0
370
    -2
100
AcDbLine
 10
6472.006845764086
 20
1741.56774768701
 30
0.0
 11
6684.600201597554
 21
1741.56774768701
 31
0.0
  0
LINE
  5
9146
330
8D5F
100
AcDbEntity
  8
寸法引出
 48
15.0
370
    -2
100
AcDbLine
 10
6677.100201597554
 20
1674.06774768701
 30
0.0
 11
6677.100201597554
 21
1651.56774768701
 31
0.0
  0
LINE
  5
9147
330
8D5F
100
AcDbEntity
  8
寸法引出
 48
15.0
370
    -2
100
AcDbLine
 10
6677.100201597554
 20
1764.06774768701
 30
0.0
 11
6677.100201597554
 21
1786.56774768701
 31
0.0
  0
LINE
  5
9148
330
8D5F
100
AcDbEntity
  8
寸法引出
 48
15.0
370
    -2
100
AcDbLine
 10
6677.100201597554
 20
1696.56774768701
 30
0.0
 11
6677.100201597554
 21
1741.56774768701
 31
0.0
  0
SOLID
  5
9149
330
8D5F
100
AcDbEntity
  8
寸法引出
 48
15.0
100
AcDbTrace
 10
6673.350201597553
 20
1674.06774768701
 30
0.0
 11
6680.850201597554
 21
1674.06774768701
 31
0.0
 12
6677.100201597554
 22
1696.56774768701
 32
0.0
 13
6677.100201597554
 23
1696.56774768701
 33
0.0
  0
SOLID
  5
914A
330
8D5F
100
AcDbEntity
  8
寸法引出
 48
15.0
100
AcDbTrace
 10
6673.350201597553
 20
1764.06774768701
 30
0.0
 11
6680.850201597554
 21
1764.06774768701
 31
0.0
 12
6677.100201597554
 22
1741.56774768701
 32
0.0
 13
6677.100201597554
 23
1741.56774768701
 33
0.0
  0
MTEXT
  5
914B
330
8D5F
100
AcDbEntity
  8
寸法引出
 48
15.0
100
AcDbMText
 10
6647.100201597554
 20
1719.067747687011
 30
0.0
 40
30.0
 41
0.0
 71
     5
 72
     1
  1
\A1;45
  7
SANWA
 11
0.0000000000000001
 21
1.0
 31
0.0
 73
     1
 44
1.0
1001
ACAD
1000
MTEXTBEGIN
1070
    73
1070
     1
1070
    44
1040
1.0
1070
    74
1070
     0
1000
MTEXTEND
  0
POINT
  5
914C
330
8D5F
100
AcDbEntity
  8
DEFPOINTS
 62
     0
 48
15.0
100
AcDbPoint
 10
6457.006845764087
 20
1696.56774768701
 30
0.0
  0
POINT
  5
914D
330
8D5F
100
AcDbEntity
  8
DEFPOINTS
 62
     0
 48
15.0
100
AcDbPoint
 10
6457.006845764087
 20
1741.56774768701
 30
0.0
  0
POINT
  5
914E
330
8D5F
100
AcDbEntity
  8
DEFPOINTS
 62
     0
 48
15.0
100
AcDbPoint
 10
6677.100201597554
 20
1741.56774768701
 30
0.0
  0
ENDBLK
  5
8D6B
330
8D5F
100
AcDbEntity
  8
0
 48
15.0
100
AcDbBlockEnd
  0
BLOCK
  5
8D75
330
8D6C
100
AcDbEntity
  8
0
 48
15.0
100
AcDbBlockBegin
  2
*D111
 70
     1
 10
0.0
 20
0.0
 30
0.0
  3
*D111
  1

  0
LINE
  5
914F
330
8D6C
100
AcDbEntity
  8
寸法引出
 48
15.0
370
    -2
100
AcDbLine
 10
6457.006845764087
 20
1756.56774768701
 30
0.0
 11
6457.006845764087
 21
1838.511252351851
 31
0.0
  0
LINE
  5
9150
330
8D6C
100
AcDbEntity
  8
寸法引出
 48
15.0
370
    -2
100
AcDbLine
 10
6394.506845764088
 20
1831.011252351851
 30
0.0
 11
6434.506845764087
 21
1831.011252351851
 31
0.0
  0
SOLID
  5
9151
330
8D6C
100
AcDbEntity
  8
寸法引出
 48
15.0
100
AcDbTrace
 10
6394.506845764088
 20
1834.761252351851
 30
0.0
 11
6394.506845764088
 21
1827.261252351851
 31
0.0
 12
6372.006845764088
 22
1831.011252351851
 32
0.0
 13
6372.006845764088
 23
1831.011252351851
 33
0.0
  0
SOLID
  5
9152
330
8D6C
100
AcDbEntity
  8
寸法引出
 48
15.0
100
AcDbTrace
 10
6434.506845764087
 20
1834.761252351851
 30
0.0
 11
6434.506845764087
 21
1827.261252351851
 31
0.0
 12
6457.006845764087
 22
1831.011252351851
 32
0.0
 13
6457.006845764087
 23
1831.011252351851
 33
0.0
  0
MTEXT
  5
9153
330
8D6C
100
AcDbEntity
  8
寸法引出
 48
15.0
100
AcDbMText
 10
6414.506845764087
 20
1861.011252351851
 30
0.0
 40
30.0
 41
0.0
 71
     5
 72
     1
  1
\A1;85
  7
SANWA
 73
     1
 44
1.0
1001
ACAD
1000
MTEXTBEGIN
1070
    73
1070
     1
1070
    44
1040
1.0
1070
    74
1070
     0
1000
MTEXTEND
  0
POINT
  5
9154
330
8D6C
100
AcDbEntity
  8
DEFPOINTS
 62
     0
 48
15.0
100
AcDbPoint
 10
6372.006845764088
 20
1741.56774768701
 30
0.0
  0
POINT
  5
9155
330
8D6C
100
AcDbEntity
  8
DEFPOINTS
 62
     0
 48
15.0
100
AcDbPoint
 10
6457.006845764087
 20
1741.56774768701
 30
0.0
  0
POINT
  5
9156
330
8D6C
100
AcDbEntity
  8
DEFPOINTS
 62
     0
 48
15.0
100
AcDbPoint
 10
6457.006845764087
 20
1831.011252351851
 30
0.0
  0
ENDBLK
  5
8D76
330
8D6C
100
AcDbEntity
  8
0
 48
15.0
100
AcDbBlockEnd
  0
BLOCK
  5
8D82
330
8D77
100
AcDbEntity
  8
0
 48
15.0
100
AcDbBlockBegin
  2
*D112
 70
     1
 10
0.0
 20
0.0
 30
0.0
  3
*D112
  1

  0
LINE
  5
9157
330
8D77
100
AcDbEntity
  8
寸法引出
 48
15.0
370
    -2
100
AcDbLine
 10
6372.006845764088
 20
1756.56774768701
 30
0.0
 11
6372.006845764088
 21
1838.511252351851
 31
0.0
  0
LINE
  5
9158
330
8D77
100
AcDbEntity
  8
寸法引出
 48
15.0
370
    -2
100
AcDbLine
 10
6169.506845764089
 20
1831.011252351851
 30
0.0
 11
6147.006845764089
 21
1831.011252351851
 31
0.0
  0
LINE
  5
9159
330
8D77
100
AcDbEntity
  8
寸法引出
 48
15.0
370
    -2
100
AcDbLine
 10
6394.506845764088
 20
1831.011252351851
 30
0.0
 11
6417.006845764088
 21
1831.011252351851
 31
0.0
  0
LINE
  5
915A
330
8D77
100
AcDbEntity
  8
寸法引出
 48
15.0
370
    -2
100
AcDbLine
 10
6192.006845764088
 20
1831.011252351851
 30
0.0
 11
6372.006845764088
 21
1831.011252351851
 31
0.0
  0
SOLID
  5
915B
330
8D77
100
AcDbEntity
  8
寸法引出
 48
15.0
100
AcDbTrace
 10
6169.506845764089
 20
1834.761252351851
 30
0.0
 11
6169.506845764089
 21
1827.261252351851
 31
0.0
 12
6192.006845764088
 22
1831.011252351851
 32
0.0
 13
6192.006845764088
 23
1831.011252351851
 33
0.0
  0
SOLID
  5
915C
330
8D77
100
AcDbEntity
  8
寸法引出
 48
15.0
100
AcDbTrace
 10
6394.506845764088
 20
1834.761252351851
 30
0.0
 11
6394.506845764088
 21
1827.261252351851
 31
0.0
 12
6372.006845764088
 22
1831.011252351851
 32
0.0
 13
6372.006845764088
 23
1831.011252351851
 33
0.0
  0
MTEXT
  5
915D
330
8D77
100
AcDbEntity
  8
寸法引出
 48
15.0
100
AcDbMText
 10
6282.006845764088
 20
1862.896966637565
 30
0.0
 40
30.0
 41
0.0
 71
     5
 72
     1
  1
\A1;2@90=180
  7
SANWA
 73
     1
 44
1.0
1001
ACAD
1000
MTEXTBEGIN
1070
    73
1070
     1
1070
    44
1040
1.0
1070
    74
1070
     0
1000
MTEXTEND
  0
POINT
  5
915E
330
8D77
100
AcDbEntity
  8
DEFPOINTS
 62
     0
 48
15.0
100
AcDbPoint
 10
6192.006845764088
 20
1741.56774768701
 30
0.0
  0
POINT
  5
915F
330
8D77
100
AcDbEntity
  8
DEFPOINTS
 62
     0
 48
15.0
100
AcDbPoint
 10
6372.006845764088
 20
1741.56774768701
 30
0.0
  0
POINT
  5
9160
330
8D77
100
AcDbEntity
  8
DEFPOINTS
 62
     0
 48
15.0
100
AcDbPoint
 10
6372.006845764088
 20
1831.011252351851
 30
0.0
  0
ENDBLK
  5
8D83
330
8D77
100
AcDbEntity
  8
0
 48
15.0
100
AcDbBlockEnd
  0
BLOCK
  5
8D8E
330
8D84
100
AcDbEntity
  8
0
 48
15.0
100
AcDbBlockBegin
  2
*D113
 70
     1
 10
0.0
 20
0.0
 30
0.0
  3
*D113
  1

  0
LINE
  5
9161
330
8D84
100
AcDbEntity
  8
寸法引出
 48
15.0
370
    -2
100
AcDbLine
 10
6107.006845764086
 20
1756.56774768701
 30
0.0
 11
6107.006845764086
 21
1838.511252351851
 31
0.0
  0
LINE
  5
9162
330
8D84
100
AcDbEntity
  8
寸法引出
 48
15.0
370
    -2
100
AcDbLine
 10
6192.006845764088
 20
1756.56774768701
 30
0.0
 11
6192.006845764088
 21
1838.511252351851
 31
0.0
  0
LINE
  5
9163
330
8D84
100
AcDbEntity
  8
寸法引出
 48
15.0
370
    -2
100
AcDbLine
 10
6129.506845764087
 20
1831.011252351851
 30
0.0
 11
6169.506845764089
 21
1831.011252351851
 31
0.0
  0
SOLID
  5
9164
330
8D84
100
AcDbEntity
  8
寸法引出
 48
15.0
100
AcDbTrace
 10
6129.506845764087
 20
1834.761252351851
 30
0.0
 11
6129.506845764087
 21
1827.261252351851
 31
0.0
 12
6107.006845764086
 22
1831.011252351851
 32
0.0
 13
6107.006845764086
 23
1831.011252351851
 33
0.0
  0
SOLID
  5
9165
330
8D84
100
AcDbEntity
  8
寸法引出
 48
15.0
100
AcDbTrace
 10
6169.506845764089
 20
1834.761252351851
 30
0.0
 11
6169.506845764089
 21
1827.261252351851
 31
0.0
 12
6192.006845764088
 22
1831.011252351851
 32
0.0
 13
6192.006845764088
 23
1831.011252351851
 33
0.0
  0
MTEXT
  5
9166
330
8D84
100
AcDbEntity
  8
寸法引出
 48
15.0
100
AcDbMText
 10
6149.506845764087
 20
1861.011252351851
 30
0.0
 40
30.0
 41
0.0
 71
     5
 72
     1
  1
\A1;85
  7
SANWA
 73
     1
 44
1.0
1001
ACAD
1000
MTEXTBEGIN
1070
    73
1070
     1
1070
    44
1040
1.0
1070
    74
1070
     0
1000
MTEXTEND
  0
POINT
  5
9167
330
8D84
100
AcDbEntity
  8
DEFPOINTS
 62
     0
 48
15.0
100
AcDbPoint
 10
6107.006845764086
 20
1741.56774768701
 30
0.0
  0
POINT
  5
9168
330
8D84
100
AcDbEntity
  8
DEFPOINTS
 62
     0
 48
15.0
100
AcDbPoint
 10
6192.006845764088
 20
1741.56774768701
 30
0.0
  0
POINT
  5
9169
330
8D84
100
AcDbEntity
  8
DEFPOINTS
 62
     0
 48
15.0
100
AcDbPoint
 10
6192.006845764088
 20
1831.011252351851
 30
0.0
  0
ENDBLK
  5
8D8F
330
8D84
100
AcDbEntity
  8
0
 48
15.0
100
AcDbBlockEnd
  0
BLOCK
  5
8D9A
330
8D90
100
AcDbEntity
  8
0
 48
15.0
100
AcDbBlockBegin
  2
*D114
 70
     1
 10
0.0
 20
0.0
 30
0.0
  3
*D114
  1

  0
LINE
  5
916A
330
8D90
100
AcDbEntity
  8
寸法引出
 48
15.0
370
    -2
100
AcDbLine
 10
6107.006845764086
 20
1756.56774768701
 30
0.0
 11
6107.006845764086
 21
1902.314317286564
 31
0.0
  0
LINE
  5
916B
330
8D90
100
AcDbEntity
  8
寸法引出
 48
15.0
370
    -2
100
AcDbLine
 10
6457.006845764087
 20
1756.56774768701
 30
0.0
 11
6457.006845764087
 21
1902.314317286564
 31
0.0
  0
LINE
  5
916C
330
8D90
100
AcDbEntity
  8
寸法引出
 48
15.0
370
    -2
100
AcDbLine
 10
6129.506845764087
 20
1894.814317286564
 30
0.0
 11
6434.506845764087
 21
1894.814317286564
 31
0.0
  0
SOLID
  5
916D
330
8D90
100
AcDbEntity
  8
寸法引出
 48
15.0
100
AcDbTrace
 10
6129.506845764087
 20
1898.564317286564
 30
0.0
 11
6129.506845764087
 21
1891.064317286564
 31
0.0
 12
6107.006845764086
 22
1894.814317286564
 32
0.0
 13
6107.006845764086
 23
1894.814317286564
 33
0.0
  0
SOLID
  5
916E
330
8D90
100
AcDbEntity
  8
寸法引出
 48
15.0
100
AcDbTrace
 10
6434.506845764087
 20
1898.564317286564
 30
0.0
 11
6434.506845764087
 21
1891.064317286564
 31
0.0
 12
6457.006845764087
 22
1894.814317286564
 32
0.0
 13
6457.006845764087
 23
1894.814317286564
 33
0.0
  0
MTEXT
  5
916F
330
8D90
100
AcDbEntity
  8
寸法引出
 48
15.0
100
AcDbMText
 10
6282.006845764087
 20
1924.814317286564
 30
0.0
 40
30.0
 41
0.0
 71
     5
 72
     1
  1
\A1;350
  7
SANWA
 73
     1
 44
1.0
1001
ACAD
1000
MTEXTBEGIN
1070
    73
1070
     1
1070
    44
1040
1.0
1070
    74
1070
     0
1000
MTEXTEND
  0
POINT
  5
9170
330
8D90
100
AcDbEntity
  8
DEFPOINTS
 62
     0
 48
15.0
100
AcDbPoint
 10
6107.006845764086
 20
1741.56774768701
 30
0.0
  0
POINT
  5
9171
330
8D90
100
AcDbEntity
  8
DEFPOINTS
 62
     0
 48
15.0
100
AcDbPoint
 10
6457.006845764087
 20
1741.56774768701
 30
0.0
  0
POINT
  5
9172
330
8D90
100
AcDbEntity
  8
DEFPOINTS
 62
     0
 48
15.0
100
AcDbPoint
 10
6457.006845764087
 20
1894.814317286564
 30
0.0
  0
ENDBLK
  5
8D9B
330
8D90
100
AcDbEntity
  8
0
 48
15.0
100
AcDbBlockEnd
  0
BLOCK
  5
8DA6
330
8D9C
100
AcDbEntity
  8
0
 48
15.0
100
AcDbBlockBegin
  2
*D115
 70
     1
 10
0.0
 20
0.0
 30
0.0
  3
*D115
  1

  0
LINE
  5
9173
330
8D9C
100
AcDbEntity
  8
寸法引出
 48
15.0
370
    -2
100
AcDbLine
 10
6472.006845764086
 20
2154.779567641652
 30
0.0
 11
6647.888359778524
 21
2154.779567641652
 31
0.0
  0
LINE
  5
9174
330
8D9C
100
AcDbEntity
  8
寸法引出
 48
15.0
370
    -2
100
AcDbLine
 10
6472.006845764086
 20
2254.779567641652
 30
0.0
 11
6647.888359778524
 21
2254.779567641652
 31
0.0
  0
LINE
  5
9175
330
8D9C
100
AcDbEntity
  8
寸法引出
 48
15.0
370
    -2
100
AcDbLine
 10
6640.388359778524
 20
2177.279567641652
 30
0.0
 11
6640.388359778524
 21
2232.279567641652
 31
0.0
  0
SOLID
  5
9176
330
8D9C
100
AcDbEntity
  8
寸法引出
 48
15.0
100
AcDbTrace
 10
6636.638359778524
 20
2177.279567641652
 30
0.0
 11
6644.138359778525
 21
2177.279567641652
 31
0.0
 12
6640.388359778524
 22
2154.779567641652
 32
0.0
 13
6640.388359778524
 23
2154.779567641652
 33
0.0
  0
SOLID
  5
9177
330
8D9C
100
AcDbEntity
  8
寸法引出
 48
15.0
100
AcDbTrace
 10
6636.638359778524
 20
2232.279567641652
 30
0.0
 11
6644.138359778525
 21
2232.279567641652
 31
0.0
 12
6640.388359778524
 22
2254.779567641652
 32
0.0
 13
6640.388359778524
 23
2254.779567641652
 33
0.0
  0
MTEXT
  5
9178
330
8D9C
100
AcDbEntity
  8
寸法引出
 48
15.0
100
AcDbMText
 10
6610.388359778524
 20
2204.779567641653
 30
0.0
 40
30.0
 41
0.0
 71
     5
 72
     1
  1
\A1;100
  7
SANWA
 11
0.0000000000000001
 21
1.0
 31
0.0
 73
     1
 44
1.0
1001
ACAD
1000
MTEXTBEGIN
1070
    73
1070
     1
1070
    44
1040
1.0
1070
    74
1070
     0
1000
MTEXTEND
  0
POINT
  5
9179
330
8D9C
100
AcDbEntity
  8
DEFPOINTS
 62
     0
 48
15.0
100
AcDbPoint
 10
6457.006845764087
 20
2154.779567641652
 30
0.0
  0
POINT
  5
917A
330
8D9C
100
AcDbEntity
  8
DEFPOINTS
 62
     0
 48
15.0
100
AcDbPoint
 10
6457.006845764087
 20
2254.779567641652
 30
0.0
  0
POINT
  5
917B
330
8D9C
100
AcDbEntity
  8
DEFPOINTS
 62
     0
 48
15.0
100
AcDbPoint
 10
6640.388359778524
 20
2254.779567641652
 30
0.0
  0
ENDBLK
  5
8DA7
330
8D9C
100
AcDbEntity
  8
0
 48
15.0
100
AcDbBlockEnd
  0
BLOCK
  5
8DB3
330
8DA8
100
AcDbEntity
  8
0
 48
15.0
100
AcDbBlockBegin
  2
*D116
 70
     1
 10
0.0
 20
0.0
 30
0.0
  3
*D116
  1

  0
LINE
  5
917C
330
8DA8
100
AcDbEntity
  8
寸法引出
 48
15.0
370
    -2
100
AcDbLine
 10
6472.006845764086
 20
2254.779567641652
 30
0.0
 11
6578.56375184567
 21
2254.779567641652
 31
0.0
  0
LINE
  5
917D
330
8DA8
100
AcDbEntity
  8
寸法引出
 48
15.0
370
    -2
100
AcDbLine
 10
6571.063751845672
 20
2162.279567641652
 30
0.0
 11
6571.063751845672
 21
2139.779567641652
 31
0.0
  0
LINE
  5
917E
330
8DA8
100
AcDbEntity
  8
寸法引出
 48
15.0
370
    -2
100
AcDbLine
 10
6571.063751845672
 20
2277.279567641652
 30
0.0
 11
6571.063751845672
 21
2299.779567641652
 31
0.0
  0
LINE
  5
917F
330
8DA8
100
AcDbEntity
  8
寸法引出
 48
15.0
370
    -2
100
AcDbLine
 10
6571.063751845672
 20
2184.779567641652
 30
0.0
 11
6571.063751845672
 21
2254.779567641652
 31
0.0
  0
SOLID
  5
9180
330
8DA8
100
AcDbEntity
  8
寸法引出
 48
15.0
100
AcDbTrace
 10
6567.313751845671
 20
2162.279567641652
 30
0.0
 11
6574.813751845671
 21
2162.279567641652
 31
0.0
 12
6571.063751845672
 22
2184.779567641652
 32
0.0
 13
6571.063751845672
 23
2184.779567641652
 33
0.0
  0
SOLID
  5
9181
330
8DA8
100
AcDbEntity
  8
寸法引出
 48
15.0
100
AcDbTrace
 10
6567.313751845671
 20
2277.279567641652
 30
0.0
 11
6574.813751845671
 21
2277.279567641652
 31
0.0
 12
6571.063751845672
 22
2254.779567641652
 32
0.0
 13
6571.063751845672
 23
2254.779567641652
 33
0.0
  0
MTEXT
  5
9182
330
8DA8
100
AcDbEntity
  8
寸法引出
 48
15.0
100
AcDbMText
 10
6541.063751845671
 20
2219.779567641653
 30
0.0
 40
30.0
 41
0.0
 71
     5
 72
     1
  1
\A1;70
  7
SANWA
 11
0.0000000000000001
 21
1.0
 31
0.0
 73
     1
 44
1.0
1001
ACAD
1000
MTEXTBEGIN
1070
    73
1070
     1
1070
    44
1040
1.0
1070
    74
1070
     0
1000
MTEXTEND
  0
POINT
  5
9183
330
8DA8
100
AcDbEntity
  8
DEFPOINTS
 62
     0
 48
15.0
100
AcDbPoint
 10
6457.006845764087
 20
2184.779567641652
 30
0.0
  0
POINT
  5
9184
330
8DA8
100
AcDbEntity
  8
DEFPOINTS
 62
     0
 48
15.0
100
AcDbPoint
 10
6457.006845764087
 20
2254.779567641652
 30
0.0
  0
POINT
  5
9185
330
8DA8
100
AcDbEntity
  8
DEFPOINTS
 62
     0
 48
15.0
100
AcDbPoint
 10
6571.063751845672
 20
2254.779567641652
 30
0.0
  0
ENDBLK
  5
8DB4
330
8DA8
100
AcDbEntity
  8
0
 48
15.0
100
AcDbBlockEnd
  0
BLOCK
  5
8DBE
330
8DB5
100
AcDbEntity
  8
0
 48
15.0
100
AcDbBlockBegin
  2
*D117
 70
     1
 10
0.0
 20
0.0
 30
0.0
  3
*D117
  1

  0
LINE
  5
9186
330
8DB5
100
AcDbEntity
  8
寸法引出
 48
15.0
370
    -2
100
AcDbLine
 10
6457.006845764087
 20
2269.779567641652
 30
0.0
 11
6457.006845764087
 21
2344.070961224819
 31
0.0
  0
LINE
  5
9187
330
8DB5
100
AcDbEntity
  8
寸法引出
 48
15.0
370
    -2
100
AcDbLine
 10
6394.506845764088
 20
2336.570961224819
 30
0.0
 11
6434.506845764087
 21
2336.570961224819
 31
0.0
  0
SOLID
  5
9188
330
8DB5
100
AcDbEntity
  8
寸法引出
 48
15.0
100
AcDbTrace
 10
6394.506845764088
 20
2340.320961224819
 30
0.0
 11
6394.506845764088
 21
2332.82096122482
 31
0.0
 12
6372.006845764088
 22
2336.570961224819
 32
0.0
 13
6372.006845764088
 23
2336.570961224819
 33
0.0
  0
SOLID
  5
9189
330
8DB5
100
AcDbEntity
  8
寸法引出
 48
15.0
100
AcDbTrace
 10
6434.506845764087
 20
2340.320961224819
 30
0.0
 11
6434.506845764087
 21
2332.82096122482
 31
0.0
 12
6457.006845764087
 22
2336.570961224819
 32
0.0
 13
6457.006845764087
 23
2336.570961224819
 33
0.0
  0
MTEXT
  5
918A
330
8DB5
100
AcDbEntity
  8
寸法引出
 48
15.0
100
AcDbMText
 10
6414.506845764087
 20
2366.57096122482
 30
0.0
 40
30.0
 41
0.0
 71
     5
 72
     1
  1
\A1;85
  7
SANWA
 73
     1
 44
1.0
1001
ACAD
1000
MTEXTBEGIN
1070
    73
1070
     1
1070
    44
1040
1.0
1070
    74
1070
     0
1000
MTEXTEND
  0
POINT
  5
918B
330
8DB5
100
AcDbEntity
  8
DEFPOINTS
 62
     0
 48
15.0
100
AcDbPoint
 10
6372.006845764088
 20
2254.779567641652
 30
0.0
  0
POINT
  5
918C
330
8DB5
100
AcDbEntity
  8
DEFPOINTS
 62
     0
 48
15.0
100
AcDbPoint
 10
6457.006845764087
 20
2254.779567641652
 30
0.0
  0
POINT
  5
918D
330
8DB5
100
AcDbEntity
  8
DEFPOINTS
 62
     0
 48
15.0
100
AcDbPoint
 10
6457.006845764087
 20
2336.570961224819
 30
0.0
  0
ENDBLK
  5
8DBF
330
8DB5
100
AcDbEntity
  8
0
 48
15.0
100
AcDbBlockEnd
  0
BLOCK
  5
8DCB
330
8DC0
100
AcDbEntity
  8
0
 48
15.0
100
AcDbBlockBegin
  2
*D118
 70
     1
 10
0.0
 20
0.0
 30
0.0
  3
*D118
  1

  0
LINE
  5
918E
330
8DC0
100
AcDbEntity
  8
寸法引出
 48
15.0
370
    -2
100
AcDbLine
 10
6372.006845764088
 20
2269.779567641652
 30
0.0
 11
6372.006845764088
 21
2344.070961224819
 31
0.0
  0
LINE
  5
918F
330
8DC0
100
AcDbEntity
  8
寸法引出
 48
15.0
370
    -2
100
AcDbLine
 10
6169.506845764089
 20
2336.570961224819
 30
0.0
 11
6147.006845764089
 21
2336.570961224819
 31
0.0
  0
LINE
  5
9190
330
8DC0
100
AcDbEntity
  8
寸法引出
 48
15.0
370
    -2
100
AcDbLine
 10
6394.506845764088
 20
2336.570961224819
 30
0.0
 11
6417.006845764088
 21
2336.570961224819
 31
0.0
  0
LINE
  5
9191
330
8DC0
100
AcDbEntity
  8
寸法引出
 48
15.0
370
    -2
100
AcDbLine
 10
6192.006845764088
 20
2336.570961224819
 30
0.0
 11
6372.006845764088
 21
2336.570961224819
 31
0.0
  0
SOLID
  5
9192
330
8DC0
100
AcDbEntity
  8
寸法引出
 48
15.0
100
AcDbTrace
 10
6169.506845764089
 20
2340.320961224819
 30
0.0
 11
6169.506845764089
 21
2332.82096122482
 31
0.0
 12
6192.006845764088
 22
2336.570961224819
 32
0.0
 13
6192.006845764088
 23
2336.570961224819
 33
0.0
  0
SOLID
  5
9193
330
8DC0
100
AcDbEntity
  8
寸法引出
 48
15.0
100
AcDbTrace
 10
6394.506845764088
 20
2340.320961224819
 30
0.0
 11
6394.506845764088
 21
2332.82096122482
 31
0.0
 12
6372.006845764088
 22
2336.570961224819
 32
0.0
 13
6372.006845764088
 23
2336.570961224819
 33
0.0
  0
MTEXT
  5
9194
330
8DC0
100
AcDbEntity
  8
寸法引出
 48
15.0
100
AcDbMText
 10
6282.006845764088
 20
2368.456675510533
 30
0.0
 40
30.0
 41
0.0
 71
     5
 72
     1
  1
\A1;2@90=180
  7
SANWA
 73
     1
 44
1.0
1001
ACAD
1000
MTEXTBEGIN
1070
    73
1070
     1
1070
    44
1040
1.0
1070
    74
1070
     0
1000
MTEXTEND
  0
POINT
  5
9195
330
8DC0
100
AcDbEntity
  8
DEFPOINTS
 62
     0
 48
15.0
100
AcDbPoint
 10
6192.006845764088
 20
2254.779567641652
 30
0.0
  0
POINT
  5
9196
330
8DC0
100
AcDbEntity
  8
DEFPOINTS
 62
     0
 48
15.0
100
AcDbPoint
 10
6372.006845764088
 20
2254.779567641652
 30
0.0
  0
POINT
  5
9197
330
8DC0
100
AcDbEntity
  8
DEFPOINTS
 62
     0
 48
15.0
100
AcDbPoint
 10
6372.006845764088
 20
2336.570961224819
 30
0.0
  0
ENDBLK
  5
8DCC
330
8DC0
100
AcDbEntity
  8
0
 48
15.0
100
AcDbBlockEnd
  0
BLOCK
  5
8DD7
330
8DCD
100
AcDbEntity
  8
0
 48
15.0
100
AcDbBlockBegin
  2
*D119
 70
     1
 10
0.0
 20
0.0
 30
0.0
  3
*D119
  1

  0
LINE
  5
9198
330
8DCD
100
AcDbEntity
  8
寸法引出
 48
15.0
370
    -2
100
AcDbLine
 10
6107.006845764086
 20
2269.779567641652
 30
0.0
 11
6107.006845764086
 21
2344.070961224819
 31
0.0
  0
LINE
  5
9199
330
8DCD
100
AcDbEntity
  8
寸法引出
 48
15.0
370
    -2
100
AcDbLine
 10
6192.006845764088
 20
2269.779567641652
 30
0.0
 11
6192.006845764088
 21
2344.070961224819
 31
0.0
  0
LINE
  5
919A
330
8DCD
100
AcDbEntity
  8
寸法引出
 48
15.0
370
    -2
100
AcDbLine
 10
6129.506845764087
 20
2336.570961224819
 30
0.0
 11
6169.506845764089
 21
2336.570961224819
 31
0.0
  0
SOLID
  5
919B
330
8DCD
100
AcDbEntity
  8
寸法引出
 48
15.0
100
AcDbTrace
 10
6129.506845764087
 20
2340.320961224819
 30
0.0
 11
6129.506845764087
 21
2332.82096122482
 31
0.0
 12
6107.006845764086
 22
2336.570961224819
 32
0.0
 13
6107.006845764086
 23
2336.570961224819
 33
0.0
  0
SOLID
  5
919C
330
8DCD
100
AcDbEntity
  8
寸法引出
 48
15.0
100
AcDbTrace
 10
6169.506845764089
 20
2340.320961224819
 30
0.0
 11
6169.506845764089
 21
2332.82096122482
 31
0.0
 12
6192.006845764088
 22
2336.570961224819
 32
0.0
 13
6192.006845764088
 23
2336.570961224819
 33
0.0
  0
MTEXT
  5
919D
330
8DCD
100
AcDbEntity
  8
寸法引出
 48
15.0
100
AcDbMText
 10
6149.506845764087
 20
2366.57096122482
 30
0.0
 40
30.0
 41
0.0
 71
     5
 72
     1
  1
\A1;85
  7
SANWA
 73
     1
 44
1.0
1001
ACAD
1000
MTEXTBEGIN
1070
    73
1070
     1
1070
    44
1040
1.0
1070
    74
1070
     0
1000
MTEXTEND
  0
POINT
  5
919E
330
8DCD
100
AcDbEntity
  8
DEFPOINTS
 62
     0
 48
15.0
100
AcDbPoint
 10
6107.006845764086
 20
2254.779567641652
 30
0.0
  0
POINT
  5
919F
330
8DCD
100
AcDbEntity
  8
DEFPOINTS
 62
     0
 48
15.0
100
AcDbPoint
 10
6192.006845764088
 20
2254.779567641652
 30
0.0
  0
POINT
  5
91A0
330
8DCD
100
AcDbEntity
  8
DEFPOINTS
 62
     0
 48
15.0
100
AcDbPoint
 10
6192.006845764088
 20
2336.570961224819
 30
0.0
  0
ENDBLK
  5
8DD8
330
8DCD
100
AcDbEntity
  8
0
 48
15.0
100
AcDbBlockEnd
  0
BLOCK
  5
8DE3
330
8DD9
100
AcDbEntity
  8
0
 48
15.0
100
AcDbBlockBegin
  2
*D120
 70
     1
 10
0.0
 20
0.0
 30
0.0
  3
*D120
  1

  0
LINE
  5
91A1
330
8DD9
100
AcDbEntity
  8
寸法引出
 48
15.0
370
    -2
100
AcDbLine
 10
6107.006845764086
 20
2269.779567641652
 30
0.0
 11
6107.006845764086
 21
2408.753363277161
 31
0.0
  0
LINE
  5
91A2
330
8DD9
100
AcDbEntity
  8
寸法引出
 48
15.0
370
    -2
100
AcDbLine
 10
6457.006845764087
 20
2269.779567641652
 30
0.0
 11
6457.006845764087
 21
2408.753363277161
 31
0.0
  0
LINE
  5
91A3
330
8DD9
100
AcDbEntity
  8
寸法引出
 48
15.0
370
    -2
100
AcDbLine
 10
6129.506845764087
 20
2401.253363277161
 30
0.0
 11
6434.506845764087
 21
2401.253363277161
 31
0.0
  0
SOLID
  5
91A4
330
8DD9
100
AcDbEntity
  8
寸法引出
 48
15.0
100
AcDbTrace
 10
6129.506845764087
 20
2405.003363277161
 30
0.0
 11
6129.506845764087
 21
2397.503363277161
 31
0.0
 12
6107.006845764086
 22
2401.253363277161
 32
0.0
 13
6107.006845764086
 23
2401.253363277161
 33
0.0
  0
SOLID
  5
91A5
330
8DD9
100
AcDbEntity
  8
寸法引出
 48
15.0
100
AcDbTrace
 10
6434.506845764087
 20
2405.003363277161
 30
0.0
 11
6434.506845764087
 21
2397.503363277161
 31
0.0
 12
6457.006845764087
 22
2401.253363277161
 32
0.0
 13
6457.006845764087
 23
2401.253363277161
 33
0.0
  0
MTEXT
  5
91A6
330
8DD9
100
AcDbEntity
  8
寸法引出
 48
15.0
100
AcDbMText
 10
6282.006845764087
 20
2431.253363277161
 30
0.0
 40
30.0
 41
0.0
 71
     5
 72
     1
  1
\A1;350
  7
SANWA
 73
     1
 44
1.0
1001
ACAD
1000
MTEXTBEGIN
1070
    73
1070
     1
1070
    44
1040
1.0
1070
    74
1070
     0
1000
MTEXTEND
  0
POINT
  5
91A7
330
8DD9
100
AcDbEntity
  8
DEFPOINTS
 62
     0
 48
15.0
100
AcDbPoint
 10
6107.006845764086
 20
2254.779567641652
 30
0.0
  0
POINT
  5
91A8
330
8DD9
100
AcDbEntity
  8
DEFPOINTS
 62
     0
 48
15.0
100
AcDbPoint
 10
6457.006845764087
 20
2254.779567641652
 30
0.0
  0
POINT
  5
91A9
330
8DD9
100
AcDbEntity
  8
DEFPOINTS
 62
     0
 48
15.0
100
AcDbPoint
 10
6457.006845764087
 20
2401.253363277161
 30
0.0
  0
ENDBLK
  5
8DE4
330
8DD9
100
AcDbEntity
  8
0
 48
15.0
100
AcDbBlockEnd
  0
BLOCK
  5
8DF0
330
8DE5
100
AcDbEntity
  8
0
 48
15.0
100
AcDbBlockBegin
  2
*D121
 70
     1
 10
0.0
 20
0.0
 30
0.0
  3
*D121
  1

  0
LINE
  5
91AA
330
8DE5
100
AcDbEntity
  8
寸法引出
 48
15.0
370
    -2
100
AcDbLine
 10
7883.667698923273
 20
2139.779567641652
 30
0.0
 11
7883.667698923273
 21
2049.847819776818
 31
0.0
  0
LINE
  5
91AB
330
8DE5
100
AcDbEntity
  8
寸法引出
 48
15.0
370
    -2
100
AcDbLine
 10
7816.167698923273
 20
2057.347819776818
 30
0.0
 11
7793.667698923274
 21
2057.347819776818
 31
0.0
  0
LINE
  5
91AC
330
8DE5
100
AcDbEntity
  8
寸法引出
 48
15.0
370
    -2
100
AcDbLine
 10
7906.167698923273
 20
2057.347819776818
 30
0.0
 11
7928.667698923273
 21
2057.347819776818
 31
0.0
  0
LINE
  5
91AD
330
8DE5
100
AcDbEntity
  8
寸法引出
 48
15.0
370
    -2
100
AcDbLine
 10
7838.667698923273
 20
2057.347819776818
 30
0.0
 11
7883.667698923273
 21
2057.347819776818
 31
0.0
  0
SOLID
  5
91AE
330
8DE5
100
AcDbEntity
  8
寸法引出
 48
15.0
100
AcDbTrace
 10
7816.167698923273
 20
2061.097819776819
 30
0.0
 11
7816.167698923273
 21
2053.597819776818
 31
0.0
 12
7838.667698923273
 22
2057.347819776818
 32
0.0
 13
7838.667698923273
 23
2057.347819776818
 33
0.0
  0
SOLID
  5
91AF
330
8DE5
100
AcDbEntity
  8
寸法引出
 48
15.0
100
AcDbTrace
 10
7906.167698923273
 20
2061.097819776819
 30
0.0
 11
7906.167698923273
 21
2053.597819776818
 31
0.0
 12
7883.667698923273
 22
2057.347819776818
 32
0.0
 13
7883.667698923273
 23
2057.347819776818
 33
0.0
  0
MTEXT
  5
91B0
330
8DE5
100
AcDbEntity
  8
寸法引出
 48
15.0
100
AcDbMText
 10
7861.167698923273
 20
2087.347819776818
 30
0.0
 40
30.0
 41
0.0
 71
     5
 72
     1
  1
\A1;45
  7
SANWA
 73
     1
 44
1.0
1001
ACAD
1000
MTEXTBEGIN
1070
    73
1070
     1
1070
    44
1040
1.0
1070
    74
1070
     0
1000
MTEXTEND
  0
POINT
  5
91B1
330
8DE5
100
AcDbEntity
  8
DEFPOINTS
 62
     0
 48
15.0
100
AcDbPoint
 10
7838.667698923273
 20
2154.779567641652
 30
0.0
  0
POINT
  5
91B2
330
8DE5
100
AcDbEntity
  8
DEFPOINTS
 62
     0
 48
15.0
100
AcDbPoint
 10
7883.667698923273
 20
2154.779567641652
 30
0.0
  0
POINT
  5
91B3
330
8DE5
100
AcDbEntity
  8
DEFPOINTS
 62
     0
 48
15.0
100
AcDbPoint
 10
7883.667698923273
 20
2057.347819776818
 30
0.0
  0
ENDBLK
  5
8DF1
330
8DE5
100
AcDbEntity
  8
0
 48
15.0
100
AcDbBlockEnd
  0
BLOCK
  5
8DFC
330
8DF2
100
AcDbEntity
  8
0
 48
15.0
100
AcDbBlockBegin
  2
*D122
 70
     1
 10
0.0
 20
0.0
 30
0.0
  3
*D122
  1

  0
LINE
  5
91B4
330
8DF2
100
AcDbEntity
  8
寸法引出
 48
15.0
370
    -2
100
AcDbLine
 10
7898.667698923273
 20
2154.779567641652
 30
0.0
 11
8067.969061546865
 21
2154.779567641652
 31
0.0
  0
LINE
  5
91B5
330
8DF2
100
AcDbEntity
  8
寸法引出
 48
15.0
370
    -2
100
AcDbLine
 10
7898.667698923273
 20
2254.779567641652
 30
0.0
 11
8067.969061546865
 21
2254.779567641652
 31
0.0
  0
LINE
  5
91B6
330
8DF2
100
AcDbEntity
  8
寸法引出
 48
15.0
370
    -2
100
AcDbLine
 10
8060.469061546864
 20
2177.279567641652
 30
0.0
 11
8060.469061546864
 21
2232.279567641652
 31
0.0
  0
SOLID
  5
91B7
330
8DF2
100
AcDbEntity
  8
寸法引出
 48
15.0
100
AcDbTrace
 10
8056.719061546864
 20
2177.279567641652
 30
0.0
 11
8064.219061546864
 21
2177.279567641652
 31
0.0
 12
8060.469061546864
 22
2154.779567641652
 32
0.0
 13
8060.469061546864
 23
2154.779567641652
 33
0.0
  0
SOLID
  5
91B8
330
8DF2
100
AcDbEntity
  8
寸法引出
 48
15.0
100
AcDbTrace
 10
8056.719061546864
 20
2232.279567641652
 30
0.0
 11
8064.219061546864
 21
2232.279567641652
 31
0.0
 12
8060.469061546864
 22
2254.779567641652
 32
0.0
 13
8060.469061546864
 23
2254.779567641652
 33
0.0
  0
MTEXT
  5
91B9
330
8DF2
100
AcDbEntity
  8
寸法引出
 48
15.0
100
AcDbMText
 10
8030.469061546863
 20
2204.779567641654
 30
0.0
 40
30.0
 41
0.0
 71
     5
 72
     1
  1
\A1;100
  7
SANWA
 11
0.0000000000000001
 21
1.0
 31
0.0
 73
     1
 44
1.0
1001
ACAD
1000
MTEXTBEGIN
1070
    73
1070
     1
1070
    44
1040
1.0
1070
    74
1070
     0
1000
MTEXTEND
  0
POINT
  5
91BA
330
8DF2
100
AcDbEntity
  8
DEFPOINTS
 62
     0
 48
15.0
100
AcDbPoint
 10
7883.667698923273
 20
2154.779567641652
 30
0.0
  0
POINT
  5
91BB
330
8DF2
100
AcDbEntity
  8
DEFPOINTS
 62
     0
 48
15.0
100
AcDbPoint
 10
7883.667698923273
 20
2254.779567641652
 30
0.0
  0
POINT
  5
91BC
330
8DF2
100
AcDbEntity
  8
DEFPOINTS
 62
     0
 48
15.0
100
AcDbPoint
 10
8060.469061546864
 20
2254.779567641652
 30
0.0
  0
ENDBLK
  5
8DFD
330
8DF2
100
AcDbEntity
  8
0
 48
15.0
100
AcDbBlockEnd
  0
BLOCK
  5
8E09
330
8DFE
100
AcDbEntity
  8
0
 48
15.0
100
AcDbBlockBegin
  2
*D123
 70
     1
 10
0.0
 20
0.0
 30
0.0
  3
*D123
  1

  0
LINE
  5
91BD
330
8DFE
100
AcDbEntity
  8
寸法引出
 48
15.0
370
    -2
100
AcDbLine
 10
7898.667698923273
 20
2254.779567641652
 30
0.0
 11
7998.098559301005
 21
2254.779567641652
 31
0.0
  0
LINE
  5
91BE
330
8DFE
100
AcDbEntity
  8
寸法引出
 48
15.0
370
    -2
100
AcDbLine
 10
7990.598559301004
 20
2162.279567641652
 30
0.0
 11
7990.598559301004
 21
2139.779567641652
 31
0.0
  0
LINE
  5
91BF
330
8DFE
100
AcDbEntity
  8
寸法引出
 48
15.0
370
    -2
100
AcDbLine
 10
7990.598559301004
 20
2277.279567641652
 30
0.0
 11
7990.598559301004
 21
2299.779567641652
 31
0.0
  0
LINE
  5
91C0
330
8DFE
100
AcDbEntity
  8
寸法引出
 48
15.0
370
    -2
100
AcDbLine
 10
7990.598559301004
 20
2184.779567641652
 30
0.0
 11
7990.598559301004
 21
2254.779567641652
 31
0.0
  0
SOLID
  5
91C1
330
8DFE
100
AcDbEntity
  8
寸法引出
 48
15.0
100
AcDbTrace
 10
7986.848559301005
 20
2162.279567641652
 30
0.0
 11
7994.348559301005
 21
2162.279567641652
 31
0.0
 12
7990.598559301004
 22
2184.779567641652
 32
0.0
 13
7990.598559301004
 23
2184.779567641652
 33
0.0
  0
SOLID
  5
91C2
330
8DFE
100
AcDbEntity
  8
寸法引出
 48
15.0
100
AcDbTrace
 10
7986.848559301005
 20
2277.279567641652
 30
0.0
 11
7994.348559301005
 21
2277.279567641652
 31
0.0
 12
7990.598559301004
 22
2254.779567641652
 32
0.0
 13
7990.598559301004
 23
2254.779567641652
 33
0.0
  0
MTEXT
  5
91C3
330
8DFE
100
AcDbEntity
  8
寸法引出
 48
15.0
100
AcDbMText
 10
7960.598559301003
 20
2219.779567641654
 30
0.0
 40
30.0
 41
0.0
 71
     5
 72
     1
  1
\A1;70
  7
SANWA
 11
0.0000000000000001
 21
1.0
 31
0.0
 73
     1
 44
1.0
1001
ACAD
1000
MTEXTBEGIN
1070
    73
1070
     1
1070
    44
1040
1.0
1070
    74
1070
     0
1000
MTEXTEND
  0
POINT
  5
91C4
330
8DFE
100
AcDbEntity
  8
DEFPOINTS
 62
     0
 48
15.0
100
AcDbPoint
 10
7883.667698923273
 20
2184.779567641652
 30
0.0
  0
POINT
  5
91C5
330
8DFE
100
AcDbEntity
  8
DEFPOINTS
 62
     0
 48
15.0
100
AcDbPoint
 10
7883.667698923273
 20
2254.779567641652
 30
0.0
  0
POINT
  5
91C6
330
8DFE
100
AcDbEntity
  8
DEFPOINTS
 62
     0
 48
15.0
100
AcDbPoint
 10
7990.598559301004
 20
2254.779567641652
 30
0.0
  0
ENDBLK
  5
8E0A
330
8DFE
100
AcDbEntity
  8
0
 48
15.0
100
AcDbBlockEnd
  0
BLOCK
  5
8E15
330
8E0B
100
AcDbEntity
  8
0
 48
15.0
100
AcDbBlockBegin
  2
*D124
 70
     1
 10
0.0
 20
0.0
 30
0.0
  3
*D124
  1

  0
LINE
  5
903B
330
8E0B
100
AcDbEntity
  8
寸法引出
 48
15.0
370
    -2
100
AcDbLine
 10
1731.379639973106
 20
1741.56774768701
 30
0.0
 11
1841.16383439127
 21
1741.56774768701
 31
0.0
  0
LINE
  5
903C
330
8E0B
100
AcDbEntity
  8
寸法引出
 48
15.0
370
    -2
100
AcDbLine
 10
1731.379639973106
 20
741.5677476870105
 30
0.0
 11
1841.16383439127
 21
741.5677476870103
 31
0.0
  0
LINE
  5
903D
330
8E0B
100
AcDbEntity
  8
寸法引出
 48
15.0
370
    -2
100
AcDbLine
 10
1833.663834391271
 20
1719.067747687011
 30
0.0
 11
1833.663834391271
 21
764.0677476870104
 31
0.0
  0
SOLID
  5
903E
330
8E0B
100
AcDbEntity
  8
寸法引出
 48
15.0
100
AcDbTrace
 10
1829.913834391271
 20
1719.067747687011
 30
0.0
 11
1837.413834391271
 21
1719.067747687011
 31
0.0
 12
1833.663834391271
 22
1741.56774768701
 32
0.0
 13
1833.663834391271
 23
1741.56774768701
 33
0.0
  0
SOLID
  5
903F
330
8E0B
100
AcDbEntity
  8
寸法引出
 48
15.0
100
AcDbTrace
 10
1829.91383439127
 20
764.0677476870104
 30
0.0
 11
1837.41383439127
 21
764.0677476870104
 31
0.0
 12
1833.663834391271
 22
741.5677476870103
 32
0.0
 13
1833.663834391271
 23
741.5677476870103
 33
0.0
  0
MTEXT
  5
9040
330
8E0B
100
AcDbEntity
  8
寸法引出
 48
15.0
100
AcDbMText
 10
1803.66383439127
 20
1241.567747687011
 30
0.0
 40
30.0
 41
0.0
 71
     5
 72
     1
  1
\A1;1000
  7
SANWA
 11
0.0000000000000001
 21
1.0
 31
0.0
 73
     1
 44
1.0
1001
ACAD
1000
MTEXTBEGIN
1070
    73
1070
     1
1070
    44
1040
1.0
1070
    74
1070
     0
1000
MTEXTEND
  0
POINT
  5
9041
330
8E0B
100
AcDbEntity
  8
DEFPOINTS
 62
     0
 48
15.0
100
AcDbPoint
 10
1716.379639973106
 20
1741.56774768701
 30
0.0
  0
POINT
  5
9042
330
8E0B
100
AcDbEntity
  8
DEFPOINTS
 62
     0
 48
15.0
100
AcDbPoint
 10
1716.379639973106
 20
741.5677476870105
 30
0.0
  0
POINT
  5
9043
330
8E0B
100
AcDbEntity
  8
DEFPOINTS
 62
     0
 48
15.0
100
AcDbPoint
 10
1833.663834391271
 20
741.5677476870103
 30
0.0
  0
ENDBLK
  5
8E16
330
8E0B
100
AcDbEntity
  8
0
 48
15.0
100
AcDbBlockEnd
  0
BLOCK
  5
8E20
330
8E17
100
AcDbEntity
  8
0
 48
15.0
100
AcDbBlockBegin
  2
*D125
 70
     1
 10
0.0
 20
0.0
 30
0.0
  3
*D125
  1

  0
LINE
  5
9044
330
8E17
100
AcDbEntity
  8
寸法引出
 48
15.0
370
    -2
100
AcDbLine
 10
1351.379639973106
 20
861.5677476870105
 30
0.0
 11
1270.078843988344
 21
861.5677476870105
 31
0.0
  0
LINE
  5
9045
330
8E17
100
AcDbEntity
  8
寸法引出
 48
15.0
370
    -2
100
AcDbLine
 10
1277.578843988344
 20
1599.06774768701
 30
0.0
 11
1277.578843988344
 21
884.0677476870107
 31
0.0
  0
SOLID
  5
9046
330
8E17
100
AcDbEntity
  8
寸法引出
 48
15.0
100
AcDbTrace
 10
1273.828843988344
 20
1599.06774768701
 30
0.0
 11
1281.328843988344
 21
1599.06774768701
 31
0.0
 12
1277.578843988344
 22
1621.56774768701
 32
0.0
 13
1277.578843988344
 23
1621.56774768701
 33
0.0
  0
SOLID
  5
9047
330
8E17
100
AcDbEntity
  8
寸法引出
 48
15.0
100
AcDbTrace
 10
1273.828843988344
 20
884.0677476870107
 30
0.0
 11
1281.328843988344
 21
884.0677476870105
 31
0.0
 12
1277.578843988344
 22
861.5677476870105
 32
0.0
 13
1277.578843988344
 23
861.5677476870105
 33
0.0
  0
MTEXT
  5
9048
330
8E17
100
AcDbEntity
  8
寸法引出
 48
15.0
100
AcDbMText
 10
1247.578843988344
 20
1241.567747687011
 30
0.0
 40
30.0
 41
0.0
 71
     5
 72
     1
  1
\A1;760
  7
SANWA
 11
0.0000000000000001
 21
1.0
 31
0.0
 73
     1
 44
1.0
1001
ACAD
1000
MTEXTBEGIN
1070
    73
1070
     1
1070
    44
1040
1.0
1070
    74
1070
     0
1000
MTEXTEND
  0
POINT
  5
9049
330
8E17
100
AcDbEntity
  8
DEFPOINTS
 62
     0
 48
15.0
100
AcDbPoint
 10
1366.379639973106
 20
1621.56774768701
 30
0.0
  0
POINT
  5
904A
330
8E17
100
AcDbEntity
  8
DEFPOINTS
 62
     0
 48
15.0
100
AcDbPoint
 10
1366.379639973106
 20
861.5677476870105
 30
0.0
  0
POINT
  5
904B
330
8E17
100
AcDbEntity
  8
DEFPOINTS
 62
     0
 48
15.0
100
AcDbPoint
 10
1277.578843988344
 20
861.5677476870105
 30
0.0
  0
ENDBLK
  5
8E21
330
8E17
100
AcDbEntity
  8
0
 48
15.0
100
AcDbBlockEnd
  0
BLOCK
  5
8E2D
330
8E22
100
AcDbEntity
  8
0
 48
15.0
100
AcDbBlockBegin
  2
*D126
 70
     1
 10
0.0
 20
0.0
 30
0.0
  3
*D126
  1

  0
LINE
  5
904C
330
8E22
100
AcDbEntity
  8
寸法引出
 48
15.0
370
    -2
100
AcDbLine
 10
1716.379639973106
 20
726.5677476870105
 30
0.0
 11
1716.379639973106
 21
628.4586029631955
 31
0.0
  0
LINE
  5
904D
330
8E22
100
AcDbEntity
  8
寸法引出
 48
15.0
370
    -2
100
AcDbLine
 10
1668.879639973106
 20
635.9586029631955
 30
0.0
 11
1646.379639973106
 21
635.9586029631955
 31
0.0
  0
LINE
  5
904E
330
8E22
100
AcDbEntity
  8
寸法引出
 48
15.0
370
    -2
100
AcDbLine
 10
1738.879639973106
 20
635.9586029631955
 30
0.0
 11
1761.379639973106
 21
635.9586029631955
 31
0.0
  0
LINE
  5
904F
330
8E22
100
AcDbEntity
  8
寸法引出
 48
15.0
370
    -2
100
AcDbLine
 10
1691.379639973106
 20
635.9586029631955
 30
0.0
 11
1716.379639973106
 21
635.9586029631955
 31
0.0
  0
SOLID
  5
9050
330
8E22
100
AcDbEntity
  8
寸法引出
 48
15.0
100
AcDbTrace
 10
1668.879639973106
 20
639.7086029631955
 30
0.0
 11
1668.879639973106
 21
632.2086029631955
 31
0.0
 12
1691.379639973106
 22
635.9586029631955
 32
0.0
 13
1691.379639973106
 23
635.9586029631955
 33
0.0
  0
SOLID
  5
9051
330
8E22
100
AcDbEntity
  8
寸法引出
 48
15.0
100
AcDbTrace
 10
1738.879639973106
 20
639.7086029631955
 30
0.0
 11
1738.879639973106
 21
632.2086029631955
 31
0.0
 12
1716.379639973106
 22
635.9586029631955
 32
0.0
 13
1716.379639973106
 23
635.9586029631955
 33
0.0
  0
MTEXT
  5
9052
330
8E22
100
AcDbEntity
  8
寸法引出
 48
15.0
100
AcDbMText
 10
1703.879639973106
 20
665.9586029631955
 30
0.0
 40
30.0
 41
0.0
 71
     5
 72
     1
  1
\A1;25
  7
SANWA
 73
     1
 44
1.0
1001
ACAD
1000
MTEXTBEGIN
1070
    73
1070
     1
1070
    44
1040
1.0
1070
    74
1070
     0
1000
MTEXTEND
  0
POINT
  5
9053
330
8E22
100
AcDbEntity
  8
DEFPOINTS
 62
     0
 48
15.0
100
AcDbPoint
 10
1691.379639973106
 20
741.5677476870105
 30
0.0
  0
POINT
  5
9054
330
8E22
100
AcDbEntity
  8
DEFPOINTS
 62
     0
 48
15.0
100
AcDbPoint
 10
1716.379639973106
 20
741.5677476870105
 30
0.0
  0
POINT
  5
9055
330
8E22
100
AcDbEntity
  8
DEFPOINTS
 62
     0
 48
15.0
100
AcDbPoint
 10
1716.379639973106
 20
635.9586029631955
 30
0.0
  0
ENDBLK
  5
8E2E
330
8E22
100
AcDbEntity
  8
0
 48
15.0
100
AcDbBlockEnd
  0
BLOCK
  5
8E38
330
8E2F
100
AcDbEntity
  8
0
 48
15.0
100
AcDbBlockBegin
  2
*D127
 70
     1
 10
0.0
 20
0.0
 30
0.0
  3
*D127
  1

  0
LINE
  5
9056
330
8E2F
100
AcDbEntity
  8
寸法引出
 48
15.0
370
    -2
100
AcDbLine
 10
1351.379639973106
 20
741.5677476870105
 30
0.0
 11
1270.078843988344
 21
741.5677476870106
 31
0.0
  0
LINE
  5
9057
330
8E2F
100
AcDbEntity
  8
寸法引出
 48
15.0
370
    -2
100
AcDbLine
 10
1277.578843988344
 20
839.0677476870106
 30
0.0
 11
1277.578843988344
 21
764.0677476870106
 31
0.0
  0
SOLID
  5
9058
330
8E2F
100
AcDbEntity
  8
寸法引出
 48
15.0
100
AcDbTrace
 10
1273.828843988344
 20
839.0677476870106
 30
0.0
 11
1281.328843988344
 21
839.0677476870106
 31
0.0
 12
1277.578843988344
 22
861.5677476870105
 32
0.0
 13
1277.578843988344
 23
861.5677476870105
 33
0.0
  0
SOLID
  5
9059
330
8E2F
100
AcDbEntity
  8
寸法引出
 48
15.0
100
AcDbTrace
 10
1273.828843988344
 20
764.0677476870106
 30
0.0
 11
1281.328843988344
 21
764.0677476870105
 31
0.0
 12
1277.578843988344
 22
741.5677476870106
 32
0.0
 13
1277.578843988344
 23
741.5677476870106
 33
0.0
  0
MTEXT
  5
905A
330
8E2F
100
AcDbEntity
  8
寸法引出
 48
15.0
100
AcDbMText
 10
1247.578843988344
 20
801.5677476870108
 30
0.0
 40
30.0
 41
0.0
 71
     5
 72
     1
  1
\A1;120
  7
SANWA
 11
0.0000000000000001
 21
1.0
 31
0.0
 73
     1
 44
1.0
1001
ACAD
1000
MTEXTBEGIN
1070
    73
1070
     1
1070
    44
1040
1.0
1070
    74
1070
     0
1000
MTEXTEND
  0
POINT
  5
905B
330
8E2F
100
AcDbEntity
  8
DEFPOINTS
 62
     0
 48
15.0
100
AcDbPoint
 10
1366.379639973106
 20
861.5677476870105
 30
0.0
  0
POINT
  5
905C
330
8E2F
100
AcDbEntity
  8
DEFPOINTS
 62
     0
 48
15.0
100
AcDbPoint
 10
1366.379639973106
 20
741.5677476870105
 30
0.0
  0
POINT
  5
905D
330
8E2F
100
AcDbEntity
  8
DEFPOINTS
 62
     0
 48
15.0
100
AcDbPoint
 10
1277.578843988344
 20
741.5677476870106
 30
0.0
  0
ENDBLK
  5
8E39
330
8E2F
100
AcDbEntity
  8
0
 48
15.0
100
AcDbBlockEnd
  0
BLOCK
  5
8E46
330
8E3A
100
AcDbEntity
  8
0
 48
15.0
100
AcDbBlockBegin
  2
*D128
 70
     1
 10
0.0
 20
0.0
 30
0.0
  3
*D128
  1

  0
LINE
  5
905E
330
8E3A
100
AcDbEntity
  8
寸法引出
 48
15.0
370
    -2
100
AcDbLine
 10
1366.379639973106
 20
726.5677476870105
 30
0.0
 11
1366.379639973106
 21
628.4586029631955
 31
0.0
  0
LINE
  5
905F
330
8E3A
100
AcDbEntity
  8
寸法引出
 48
15.0
370
    -2
100
AcDbLine
 10
1391.379639973106
 20
726.5677476870105
 30
0.0
 11
1391.379639973106
 21
628.4586029631955
 31
0.0
  0
LINE
  5
9060
330
8E3A
100
AcDbEntity
  8
寸法引出
 48
15.0
370
    -2
100
AcDbLine
 10
1343.879639973106
 20
635.9586029631955
 30
0.0
 11
1321.379639973106
 21
635.9586029631955
 31
0.0
  0
LINE
  5
9061
330
8E3A
100
AcDbEntity
  8
寸法引出
 48
15.0
370
    -2
100
AcDbLine
 10
1413.879639973106
 20
635.9586029631955
 30
0.0
 11
1436.379639973106
 21
635.9586029631955
 31
0.0
  0
LINE
  5
9062
330
8E3A
100
AcDbEntity
  8
寸法引出
 48
15.0
370
    -2
100
AcDbLine
 10
1366.379639973106
 20
635.9586029631955
 30
0.0
 11
1391.379639973106
 21
635.9586029631955
 31
0.0
  0
SOLID
  5
9063
330
8E3A
100
AcDbEntity
  8
寸法引出
 48
15.0
100
AcDbTrace
 10
1343.879639973106
 20
639.7086029631955
 30
0.0
 11
1343.879639973106
 21
632.2086029631955
 31
0.0
 12
1366.379639973106
 22
635.9586029631955
 32
0.0
 13
1366.379639973106
 23
635.9586029631955
 33
0.0
  0
SOLID
  5
9064
330
8E3A
100
AcDbEntity
  8
寸法引出
 48
15.0
100
AcDbTrace
 10
1413.879639973106
 20
639.7086029631955
 30
0.0
 11
1413.879639973106
 21
632.2086029631955
 31
0.0
 12
1391.379639973106
 22
635.9586029631955
 32
0.0
 13
1391.379639973106
 23
635.9586029631955
 33
0.0
  0
MTEXT
  5
9065
330
8E3A
100
AcDbEntity
  8
寸法引出
 48
15.0
100
AcDbMText
 10
1378.879639973106
 20
665.9586029631955
 30
0.0
 40
30.0
 41
0.0
 71
     5
 72
     1
  1
\A1;25
  7
SANWA
 73
     1
 44
1.0
1001
ACAD
1000
MTEXTBEGIN
1070
    73
1070
     1
1070
    44
1040
1.0
1070
    74
1070
     0
1000
MTEXTEND
  0
POINT
  5
9066
330
8E3A
100
AcDbEntity
  8
DEFPOINTS
 62
     0
 48
15.0
100
AcDbPoint
 10
1366.379639973106
 20
741.5677476870105
 30
0.0
  0
POINT
  5
9067
330
8E3A
100
AcDbEntity
  8
DEFPOINTS
 62
     0
 48
15.0
100
AcDbPoint
 10
1391.379639973106
 20
741.5677476870105
 30
0.0
  0
POINT
  5
9068
330
8E3A
100
AcDbEntity
  8
DEFPOINTS
 62
     0
 48
15.0
100
AcDbPoint
 10
1391.379639973106
 20
635.9586029631955
 30
0.0
  0
ENDBLK
  5
8E47
330
8E3A
100
AcDbEntity
  8
0
 48
15.0
100
AcDbBlockEnd
  0
BLOCK
  5
8E51
330
8E48
100
AcDbEntity
  8
0
 48
15.0
100
AcDbBlockBegin
  2
*D129
 70
     1
 10
0.0
 20
0.0
 30
0.0
  3
*D129
  1

  0
LINE
  5
9069
330
8E48
100
AcDbEntity
  8
寸法引出
 48
15.0
370
    -2
100
AcDbLine
 10
1691.379639973106
 20
726.5677476870105
 30
0.0
 11
1691.379639973106
 21
628.4586029631955
 31
0.0
  0
LINE
  5
906A
330
8E48
100
AcDbEntity
  8
寸法引出
 48
15.0
370
    -2
100
AcDbLine
 10
1413.879639973106
 20
635.9586029631955
 30
0.0
 11
1668.879639973106
 21
635.9586029631955
 31
0.0
  0
SOLID
  5
906B
330
8E48
100
AcDbEntity
  8
寸法引出
 48
15.0
100
AcDbTrace
 10
1413.879639973106
 20
639.7086029631955
 30
0.0
 11
1413.879639973106
 21
632.2086029631955
 31
0.0
 12
1391.379639973106
 22
635.9586029631955
 32
0.0
 13
1391.379639973106
 23
635.9586029631955
 33
0.0
  0
SOLID
  5
906C
330
8E48
100
AcDbEntity
  8
寸法引出
 48
15.0
100
AcDbTrace
 10
1668.879639973106
 20
639.7086029631955
 30
0.0
 11
1668.879639973106
 21
632.2086029631955
 31
0.0
 12
1691.379639973106
 22
635.9586029631955
 32
0.0
 13
1691.379639973106
 23
635.9586029631955
 33
0.0
  0
MTEXT
  5
906D
330
8E48
100
AcDbEntity
  8
寸法引出
 48
15.0
100
AcDbMText
 10
1541.379639973106
 20
665.9586029631955
 30
0.0
 40
30.0
 41
0.0
 71
     5
 72
     1
  1
\A1;300
  7
SANWA
 73
     1
 44
1.0
1001
ACAD
1000
MTEXTBEGIN
1070
    73
1070
     1
1070
    44
1040
1.0
1070
    74
1070
     0
1000
MTEXTEND
  0
POINT
  5
906E
330
8E48
100
AcDbEntity
  8
DEFPOINTS
 62
     0
 48
15.0
100
AcDbPoint
 10
1391.379639973106
 20
741.5677476870105
 30
0.0
  0
POINT
  5
906F
330
8E48
100
AcDbEntity
  8
DEFPOINTS
 62
     0
 48
15.0
100
AcDbPoint
 10
1691.379639973106
 20
741.5677476870105
 30
0.0
  0
POINT
  5
9070
330
8E48
100
AcDbEntity
  8
DEFPOINTS
 62
     0
 48
15.0
100
AcDbPoint
 10
1691.379639973106
 20
635.9586029631955
 30
0.0
  0
ENDBLK
  5
8E52
330
8E48
100
AcDbEntity
  8
0
 48
15.0
100
AcDbBlockEnd
  0
ENDSEC
  0
SECTION
  2
ENTITIES
  0
LINE
  5
8A60
330
747D
100
AcDbEntity
  8
0
 62
     0
100
AcDbLine
 10
3598.531914893604
 20
402.0000000000027
 30
0.0
 11
4305.0
 21
402.0000000000027
 31
0.0
  0
LINE
  5
8A61
330
747D
100
AcDbEntity
  8
0
 62
     0
100
AcDbLine
 10
3598.531914893604
 20
498.0000000000041
 30
0.0
 11
4305.0
 21
498.0000000000041
 31
0.0
  0
TEXT
  5
8A62
330
747D
100
AcDbEntity
  8
0
100
AcDbText
 10
3766.408313412455
 20
206.7188724106802
 30
0.0
 40
24.0
  1
三和コンクリート工業株式会社
  7
SANWA
100
AcDbText
  0
TEXT
  5
8A63
330
747D
100
AcDbEntity
  8
0
100
AcDbText
 10
3800.223100303947
 20
534.0000000000031
 30
0.0
 40
24.0
  1
マルチスリット側溝蓋
  7
SANWA
 72
     4
 11
3975.765957446805
 21
546.0000000000031
 31
0.0
100
AcDbText
  0
LINE
  5
8A64
330
747D
100
AcDbEntity
  8
0
100
AcDbLine
 10
3202.531914893609
 20
306.0000000000014
 30
0.0
 11
4305.0
 21
306.0000000000014
 31
0.0
  0
LINE
  5
8A65
330
747D
100
AcDbEntity
  8
0
 62
     0
100
AcDbLine
 10
3202.531914893609
 20
594.0000000000036
 30
0.0
 11
4305.0
 21
594.0000000000036
 31
0.0
  0
LINE
  5
8A66
330
747D
100
AcDbEntity
  8
枠
100
AcDbLine
 10
375.0
 20
150.0000000000018
 30
0.0
 11
4305.0
 21
150.0000000000018
 31
0.0
  0
LINE
  5
8A67
330
747D
100
AcDbEntity
  8
枠
100
AcDbLine
 10
375.0
 20
3000.0
 30
0.0
 11
4305.0
 21
3000.0
 31
0.0
  0
LINE
  5
8A68
330
747D
100
AcDbEntity
  8
枠
100
AcDbLine
 10
375.0
 20
150.0
 30
0.0
 11
375.0
 21
3000.0
 31
0.0
  0
DIMENSION
  5
8A69
330
747D
100
AcDbEntity
  8
寸法引出
 48
15.0
100
AcDbDimension
  2
*D124
 10
1833.663834391271
 20
741.5677476870103
 30
0.0
 11
1803.66383439127
 21
1241.567747687011
 31
0.0
 70
    32
 71
     5
 42
1000.0
  3
SANWA
100
AcDbAlignedDimension
 13
1716.379639973106
 23
1741.56774768701
 33
0.0
 14
1716.379639973106
 24
741.5677476870105
 34
0.0
 50
90.0
100
AcDbRotatedDimension
1001
ACAD
1000
DSTYLE
1002
{
1070
   140
1040
2.0
1070
    40
1040
15.0
1070
   147
1040
1.0
1070
    44
1040
0.5
1070
    43
1040
5.0
1070
   178
1070
   256
1070
   177
1070
   256
1070
   176
1070
   256
1070
    41
1040
1.5
1002
}
  0
DIMENSION
  5
8A6A
330
747D
100
AcDbEntity
  8
寸法引出
 48
15.0
100
AcDbDimension
  2
*D125
 10
1277.578843988344
 20
861.5677476870105
 30
0.0
 11
1247.578843988344
 21
1241.567747687011
 31
0.0
 70
    32
 71
     5
 42
759.9999999999998
  3
SANWA
100
AcDbAlignedDimension
 13
1366.379639973106
 23
1621.56774768701
 33
0.0
 14
1366.379639973106
 24
861.5677476870105
 34
0.0
 50
90.0
100
AcDbRotatedDimension
1001
ACAD
1000
DSTYLE
1002
{
1070
    40
1040
15.0
1070
    41
1040
1.5
1070
    43
1040
5.0
1070
    44
1040
0.5
1070
    75
1070
     1
1070
   140
1040
2.0
1070
   147
1040
1.0
1070
   176
1070
   256
1070
   177
1070
   256
1070
   178
1070
   256
1070
   279
1070
     1
1002
}
  0
LINE
  5
8A6B
330
747D
100
AcDbEntity
  8
0
 48
15.0
100
AcDbLine
 10
1716.379639973106
 20
1741.56774768701
 30
0.0
 11
1716.379639973106
 21
741.5677476870105
 31
0.0
  0
LINE
  5
8A6C
330
747D
100
AcDbEntity
  8
0
 48
15.0
100
AcDbLine
 10
1366.379639973106
 20
1741.56774768701
 30
0.0
 11
1366.379639973106
 21
741.5677476870105
 31
0.0
  0
LINE
  5
8A6D
330
747D
100
AcDbEntity
  8
0
100
AcDbLine
 10
0.0
 20
0.0
 30
0.0
 11
0.0
 21
150.0
 31
0.0
  0
LINE
  5
8A6E
330
747D
100
AcDbEntity
  8
0
100
AcDbLine
 10
375.0
 20
0.0
 30
0.0
 11
0.0
 21
0.0
 31
0.0
  0
LINE
  5
8A6F
330
747D
100
AcDbEntity
  8
0
100
AcDbLine
 10
3598.531914893604
 20
150.0000000000018
 30
0.0
 11
3598.531914893604
 21
594.0000000000036
 31
0.0
  0
LINE
  5
8A70
330
747D
100
AcDbEntity
  8
0
100
AcDbLine
 10
3646.531914893607
 20
306.0000000000014
 30
0.0
 11
3646.531914893607
 21
594.0000000000036
 31
0.0
  0
LINE
  5
8A71
330
747D
100
AcDbEntity
  8
0
100
AcDbLine
 10
3202.531914893609
 20
594.0000000000036
 30
0.0
 11
3202.531914893609
 21
522.0000000000027
 31
0.0
  0
TEXT
  5
8A72
102
{ACAD_REACTORS
330
8A79
102
}
330
747D
100
AcDbEntity
  8
0
 48
2.0
100
AcDbText
 10
3424.249755796497
 20
80.91869382887693
 30
0.0
 40
24.0
  1
大
  7
SANWA
100
AcDbText
  0
TEXT
  5
8A73
102
{ACAD_REACTORS
330
8A76
102
}
330
747D
100
AcDbEntity
  8
0
 48
2.0
100
AcDbText
 10
3302.854024831005
 20
79.62983329778467
 30
0.0
 40
24.0
  1
蒔
  7
SANWA
100
AcDbText
  0
CIRCLE
  5
8A74
102
{ACAD_REACTORS
330
8A76
102
}
330
747D
100
AcDbEntity
  8
0
100
AcDbCircle
 10
3319.412319003788
 20
72.91679629800182
 30
0.0
 40
47.98512634354756
  0
CIRCLE
  5
8A75
102
{ACAD_REACTORS
330
8A76
102
}
330
747D
100
AcDbEntity
  8
0
100
AcDbCircle
 10
3319.412319003788
 20
72.91679629800182
 30
0.0
 40
45.58512634354756
  0
HATCH
  5
8A76
330
747D
100
AcDbEntity
  8
0
100
AcDbHatch
 10
0.0
 20
0.0
 30
0.0
210
0.0
220
0.0
230
1.0
  2
SOLID
 70
     1
 71
     1
 91
        4
 92
        7
 72
     1
 73
     1
 93
        2
 10
3367.397445347336
 20
72.91679629800182
 42
1.0
 10
3271.427192660241
 20
72.91679629800182
 42
1.0
 97
        1
330
8A74
 92
       22
 72
     1
 73
     1
 93
        2
 10
3364.997445347337
 20
72.91679629800182
 42
1.0
 10
3273.827192660241
 20
72.91679629800182
 42
1.0
 97
        1
330
8A75
 92
      136
 93
        4
 72
     1
 10
3294.934024831004
 20
68.28126186921323
 11
3345.882596259575
 21
68.28126186921323
 72
     1
 10
3345.882596259575
 20
68.28126186921323
 11
3345.882596259575
 21
115.8012618692132
 72
     1
 10
3345.882596259575
 20
115.8012618692132
 11
3294.934024831004
 21
115.8012618692132
 72
     1
 10
3294.934024831004
 20
115.8012618692132
 11
3294.934024831004
 21
68.28126186921323
 97
        1
330
8A73
 92
       24
 93
        4
 72
     1
 10
3295.123939982508
 20
32.6241521874162
 11
3344.563939982509
 21
32.6241521874162
 72
     1
 10
3344.563939982509
 20
32.6241521874162
 11
3344.563939982509
 21
75.61843790170191
 72
     1
 10
3344.563939982509
 20
75.61843790170191
 11
3295.123939982508
 21
75.61843790170191
 72
     1
 10
3295.123939982508
 20
75.61843790170191
 11
3295.123939982508
 21
32.6241521874162
 97
        1
330
8A7A
 75
     0
 76
     1
 47
0.0602706122334892
 98
        2
 10
3342.402604870099
 20
114.1660473987801
 10
3342.402604870099
 20
114.1660473987801
  0
CIRCLE
  5
8A77
102
{ACAD_REACTORS
330
8A79
102
}
330
747D
100
AcDbEntity
  8
0
100
AcDbCircle
 10
3440.80804996929
 20
72.91679629800182
 30
0.0
 40
45.58512634354756
  0
CIRCLE
  5
8A78
102
{ACAD_REACTORS
330
8A79
102
}
330
747D
100
AcDbEntity
  8
0
100
AcDbCircle
 10
3440.80804996929
 20
72.91679629800182
 30
0.0
 40
47.98512634354756
  0
HATCH
  5
8A79
330
747D
100
AcDbEntity
  8
0
100
AcDbHatch
 10
0.0
 20
0.0
 30
0.0
210
0.0
220
0.0
230
1.0
  2
SOLID
 70
     1
 71
     1
 91
        4
 92
        7
 72
     1
 73
     1
 93
        2
 10
3488.793176312837
 20
72.91679629800182
 42
1.0
 10
3392.822923625742
 20
72.91679629800182
 42
1.0
 97
        1
330
8A78
 92
       22
 72
     1
 73
     1
 93
        2
 10
3486.393176312837
 20
72.91679629800182
 42
1.0
 10
3395.222923625742
 20
72.91679629800182
 42
1.0
 97
        1
330
8A77
 92
      136
 93
        4
 72
     1
 10
3416.638327225069
 20
71.11297954316265
 11
3466.969755796498
 21
71.11297954316265
 72
     1
 10
3466.969755796498
 20
71.11297954316265
 11
3466.969755796498
 21
116.7815509717341
 72
     1
 10
3466.969755796498
 20
116.7815509717341
 11
3416.638327225069
 21
116.7815509717341
 72
     1
 10
3416.638327225069
 20
116.7815509717341
 11
3416.638327225069
 21
71.11297954316265
 97
        1
330
8A72
 92
      136
 93
        4
 72
     1
 10
3415.696813805152
 20
35.3935970283594
 11
3466.782528090866
 21
35.3935970283594
 72
     1
 10
3466.782528090866
 20
35.3935970283594
 11
3466.782528090866
 21
83.32502559978797
 72
     1
 10
3466.782528090866
 20
83.32502559978797
 11
3415.696813805152
 21
83.32502559978797
 72
     1
 10
3415.696813805152
 20
83.32502559978797
 11
3415.696813805152
 21
35.3935970283594
 97
        1
330
8A7B
 75
     0
 76
     1
 47
0.0602706122334892
 98
        2
 10
3463.798335835593
 20
114.1660473987801
 10
3463.798335835593
 20
114.1660473987801
  0
TEXT
  5
8A7A
102
{ACAD_REACTORS
330
8A76
102
}
330
747D
100
AcDbEntity
  8
0
 48
2.0
100
AcDbText
 10
3302.289654268223
 20
43.08129504455905
 30
0.0
 40
24.0
  1
田
  7
SANWA
100
AcDbText
  0
TEXT
  5
8A7B
102
{ACAD_REACTORS
330
8A79
102
}
330
747D
100
AcDbEntity
  8
0
 48
2.0
100
AcDbText
 10
3423.685385233723
 20
46.9478827426451
 30
0.0
 40
24.0
  1
嶋
  7
SANWA
100
AcDbText
  0
TEXT
  5
8A7C
330
747D
100
AcDbEntity
  8
0
 48
2.0
100
AcDbText
 10
3325.407362835256
 20
557.2772861648263
 30
0.0
 40
24.0
  1
図面
  7
SANWA
100
AcDbText
  0
LINE
  5
8A7D
330
747D
100
AcDbEntity
  8
0
 62
     0
100
AcDbLine
 10
3202.531914893609
 20
270.0000000000018
 30
0.0
 11
3598.531914893611
 21
270.0000000000018
 31
0.0
  0
LINE
  5
8A7E
330
747D
100
AcDbEntity
  8
0
 62
     0
100
AcDbLine
 10
3202.531914893609
 20
426.0000000000031
 30
0.0
 11
3598.531914893604
 21
426.0000000000031
 31
0.0
  0
LINE
  5
8A7F
330
747D
100
AcDbEntity
  8
0
 62
     0
100
AcDbLine
 10
3202.531914893609
 20
474.0000000000036
 30
0.0
 11
3598.531914893604
 21
474.0000000000036
 31
0.0
  0
LINE
  5
8A80
330
747D
100
AcDbEntity
  8
0
 62
     0
100
AcDbLine
 10
3202.531914893609
 20
342.0000000000027
 30
0.0
 11
3598.531914893611
 21
342.0000000000027
 31
0.0
  0
LINE
  5
8A81
330
747D
100
AcDbEntity
  8
0
 62
     0
100
AcDbLine
 10
3202.531914893609
 20
546.0000000000031
 30
0.0
 11
3598.531914893604
 21
546.0000000000031
 31
0.0
  0
LINE
  5
8A82
330
747D
100
AcDbEntity
  8
0
 62
     0
100
AcDbLine
 10
3202.531914893609
 20
546.0000000000031
 30
0.0
 11
3598.531914893604
 21
546.0000000000031
 31
0.0
  0
LINE
  5
8A83
330
747D
100
AcDbEntity
  8
0
100
AcDbLine
 10
3202.531914893609
 20
342.0000000000027
 30
0.0
 11
3202.531914893609
 21
378.0000000000023
 31
0.0
  0
LINE
  5
8A84
330
747D
100
AcDbEntity
  8
0
100
AcDbLine
 10
3202.531914893609
 20
378.0000000000023
 30
0.0
 11
3202.531914893609
 21
299.9351497097659
 31
0.0
  0
LINE
  5
8A85
330
747D
100
AcDbEntity
  8
0
 62
     0
100
AcDbLine
 10
3202.531914893609
 20
378.0000000000023
 30
0.0
 11
3202.531914893609
 21
150.0000000000018
 31
0.0
  0
TEXT
  5
8A86
330
747D
100
AcDbEntity
  8
0
 48
2.0
100
AcDbText
 10
3251.727101616764
 20
210.5982979690022
 30
0.0
 40
24.0
  1
河
  7
SANWA
100
AcDbText
  0
CIRCLE
  5
8A87
102
{ACAD_REACTORS
330
8A89
102
}
330
747D
100
AcDbEntity
  8
0
100
AcDbCircle
 10
3268.285395789548
 20
207.4272557095
 30
0.0
 40
47.98512634354756
  0
CIRCLE
  5
8A88
102
{ACAD_REACTORS
330
8A89
102
}
330
747D
100
AcDbEntity
  8
0
100
AcDbCircle
 10
3268.285395789548
 20
207.4272557095
 30
0.0
 40
45.58512634354756
  0
HATCH
  5
8A89
330
747D
100
AcDbEntity
  8
0
100
AcDbHatch
 10
0.0
 20
0.0
 30
0.0
210
0.0
220
0.0
230
1.0
  2
SOLID
 70
     1
 71
     1
 91
        2
 92
        7
 72
     1
 73
     1
 93
        2
 10
3316.270522133096
 20
207.4272557095
 42
1.0
 10
3220.300269446001
 20
207.4272557095
 42
1.0
 97
        1
330
8A87
 92
       22
 72
     1
 73
     1
 93
        2
 10
3313.870522133096
 20
207.4272557095
 42
1.0
 10
3222.700269446001
 20
207.4272557095
 42
1.0
 97
        1
330
8A88
 75
     0
 76
     1
 47
0.0602706122334892
 98
        2
 10
3291.275681655859
 20
248.6765068102784
 10
3291.275681655859
 20
248.6765068102784
  0
TEXT
  5
8A8A
330
747D
100
AcDbEntity
  8
0
 48
2.0
100
AcDbText
 10
3251.16273105399
 20
176.6274868827722
 30
0.0
 40
24.0
  1
口
  7
SANWA
100
AcDbText
  0
TEXT
  5
8A8B
330
747D
100
AcDbEntity
  8
0
 48
2.0
100
AcDbText
 10
3231.216179933133
 20
275.7717951156462
 30
0.0
 40
24.0
  1
検図
  7
SANWA
100
AcDbText
  0
TEXT
  5
8A8C
330
747D
100
AcDbEntity
  8
0
 48
2.0
100
AcDbText
 10
3234.749396044363
 20
313.2513790084822
 30
0.0
 40
24.0
  1
製図
  7
SANWA
100
AcDbText
  0
LINE
  5
8A8D
330
747D
100
AcDbEntity
  8
0
100
AcDbLine
 10
3202.531914893609
 20
342.0000000000027
 30
0.0
 11
3202.531914893609
 21
306.0000000000014
 31
0.0
  0
LINE
  5
8A8E
330
747D
100
AcDbEntity
  8
0
100
AcDbLine
 10
3202.531914893609
 20
436.0565675878984
 30
0.0
 11
3202.531914893609
 21
529.2701469420904
 31
0.0
  0
LINE
  5
8A8F
330
747D
100
AcDbEntity
  8
0
 62
     0
100
AcDbLine
 10
3202.531914893609
 20
522.0000000000027
 30
0.0
 11
3202.531914893609
 21
378.0000000000023
 31
0.0
  0
LINE
  5
8A90
330
747D
100
AcDbEntity
  8
0
100
AcDbLine
 10
3202.531914893609
 20
402.0000000000027
 30
0.0
 11
3202.531914893609
 21
436.0565675878984
 31
0.0
  0
TEXT
  5
8A91
330
747D
100
AcDbEntity
  8
0
 48
2.0
100
AcDbText
 10
3609.288067929331
 20
324.9410917409398
 30
0.0
 40
16.79999999999999
  1
格
  7
SANWA
100
AcDbText
  0
TEXT
  5
8A92
330
747D
100
AcDbEntity
  8
0
100
AcDbText
 10
3905.548814589661
 20
341.588571428575
 30
0.0
 40
24.0
  1
２５０用
  7
SANWA
 72
     4
 11
3975.765957446805
 21
354.0000000000036
 31
0.0
100
AcDbText
  0
ARC
  5
8A93
102
{ACAD_REACTORS
330
8A96
102
}
330
747D
100
AcDbEntity
  8
0
100
AcDbCircle
 10
3680.136214331799
 20
223.2088158088008
 30
0.0
 40
41.46378893304791
100
AcDbArc
 50
276.6476737861997
 51
38.35232621379633
  0
ARC
  5
8A94
102
{ACAD_REACTORS
330
8A96
102
}
330
747D
100
AcDbEntity
  8
0
100
AcDbCircle
 10
3680.136214331799
 20
223.2088158088008
 30
0.0
 40
43.86378893304791
100
AcDbArc
 50
273.1364954470882
 51
41.86350455291399
  0
ARC
  5
8A95
102
{ACAD_REACTORS
330
8A96
102
}
330
747D
100
AcDbEntity
  8
0
100
AcDbCircle
 10
3680.136214331799
 20
223.2088158088008
 30
0.0
 40
35.46378893304791
100
AcDbArc
 50
277.7788203118981
 51
37.22117968809597
  0
HATCH
  5
8A96
330
747D
100
AcDbEntity
  8
0
100
AcDbHatch
 10
0.0
 20
0.0
 30
0.0
210
0.0
220
0.0
230
1.0
  2
SOLID
 70
     1
 71
     1
 91
        3
 92
        7
 72
     1
 73
     1
 93
        4
 10
3650.86334988054
 20
255.87579280976
 42
0.0
 10
3658.515314664835
 20
248.2238280254664
 42
-0.3722683533228759
 10
3701.757113998777
 20
248.2238280254664
 42
0.0
 10
3709.409078783063
 20
255.8757928097593
 42
0.3824979940290205
 97
        4
330
8AB2
330
8AB7
330
8AAD
330
8AB4
 92
        7
 72
     1
 73
     1
 93
        4
 10
3712.803191332758
 20
252.4816802600629
 42
0.0
 10
3705.151226548471
 20
244.8297154757715
 42
-0.6168583269098917
 10
3682.53621433181
 20
190.2322462690636
 42
0.0
 10
3682.536214331804
 20
179.4107338923181
 42
0.629288915937938
 97
        4
330
8AAE
330
8A97
330
8AA6
330
8A94
 92
        7
 72
     1
 73
     1
 93
        4
 10
3677.736214331801
 20
179.4107338923181
 42
0.0
 10
3677.736214331801
 20
190.232246269062
 42
-0.6168583269099262
 10
3655.12120211514
 20
244.8297154757715
 42
0.0
 10
3647.469237330844
 20
252.4816802600654
 42
0.6292889159380039
 97
        4
330
8A9B
330
8AA7
330
8A99
330
8AB1
 75
     0
 76
     1
 47
0.0143554168026844
 98
        4
 10
3699.348496783976
 20
260.8853257705127
 10
3708.313957346866
 20
246.9318614530635
 10
3708.313957346866
 20
246.9318614530635
 10
3652.96945335604
 20
246.4150661606036
  0
ARC
  5
8A97
102
{ACAD_REACTORS
330
8A96
102
}
330
747D
100
AcDbEntity
  8
0
100
AcDbCircle
 10
3680.136214331799
 20
223.2088158088008
 30
0.0
 40
33.06378893304791
100
AcDbArc
 50
274.1625874111327
 51
40.83741258886724
  0
LINE
  5
8A98
330
747D
100
AcDbEntity
  8
0
100
AcDbLine
 10
3466.531914893607
 20
150.0000000000018
 30
0.0
 11
3466.531914893607
 21
306.0000000000014
 31
0.0
  0
ARC
  5
8A99
102
{ACAD_REACTORS
330
8A96
102
}
330
747D
100
AcDbEntity
  8
0
100
AcDbCircle
 10
3680.136214331799
 20
223.2088158088008
 30
0.0
 40
33.06378893304791
100
AcDbArc
 50
139.1625874111327
 51
265.8374125888673
  0
ARC
  5
8A9A
102
{ACAD_REACTORS
330
8A96
102
}
330
747D
100
AcDbEntity
  8
0
100
AcDbCircle
 10
3680.136214331799
 20
223.2088158088008
 30
0.0
 40
35.46378893304791
100
AcDbArc
 50
142.778820311904
 51
262.2211796881019
  0
ARC
  5
8A9B
102
{ACAD_REACTORS
330
8A96
102
}
330
747D
100
AcDbEntity
  8
0
100
AcDbCircle
 10
3680.136214331799
 20
223.2088158088008
 30
0.0
 40
43.86378893304791
100
AcDbArc
 50
138.136495447086
 51
266.8635045529118
  0
ARC
  5
8A9C
102
{ACAD_REACTORS
330
8A96
102
}
330
747D
100
AcDbEntity
  8
0
100
AcDbCircle
 10
3680.136214331799
 20
223.2088158088008
 30
0.0
 40
41.46378893304791
100
AcDbArc
 50
141.6476737862037
 51
263.3523262138003
  0
TEXT
  5
8A9D
330
747D
100
AcDbEntity
  8
0
100
AcDbText
 10
3666.709002834934
 20
206.7188724106802
 30
0.0
 40
18.0
  1
和
  7
SANWA
100
AcDbText
  0
TEXT
  5
8A9E
102
{ACAD_REACTORS
330
8AA1
102
}
330
747D
100
AcDbEntity
  8
0
 48
2.0
100
AcDbText
 10
3515.556245060282
 20
218.1742756123142
 30
0.0
 40
24.0
  1
中
  7
SANWA
100
AcDbText
  0
CIRCLE
  5
8A9F
102
{ACAD_REACTORS
330
8AA1
102
}
330
747D
100
AcDbEntity
  8
0
100
AcDbCircle
 10
3532.114539233068
 20
210.1723780814391
 30
0.0
 40
47.98512634354756
  0
CIRCLE
  5
8AA0
102
{ACAD_REACTORS
330
8AA1
102
}
330
747D
100
AcDbEntity
  8
0
100
AcDbCircle
 10
3532.114539233068
 20
210.1723780814391
 30
0.0
 40
45.58512634354756
  0
HATCH
  5
8AA1
330
747D
100
AcDbEntity
  8
0
100
AcDbHatch
 10
0.0
 20
0.0
 30
0.0
210
0.0
220
0.0
230
1.0
  2
SOLID
 70
     1
 71
     1
 91
        4
 92
        7
 72
     1
 73
     1
 93
        2
 10
3580.099665576616
 20
210.1723780814391
 42
1.0
 10
3484.12941288952
 20
210.1723780814391
 42
1.0
 97
        1
330
8A9F
 92
       22
 72
     1
 73
     1
 93
        2
 10
3577.699665576616
 20
210.1723780814391
 42
1.0
 10
3486.52941288952
 20
210.1723780814391
 42
1.0
 97
        1
330
8AA0
 92
      136
 93
        4
 72
     1
 10
3507.567673631712
 20
206.2085613265999
 11
3558.653387917426
 21
206.2085613265999
 72
     1
 10
3558.653387917426
 20
206.2085613265999
 11
3558.653387917426
 21
254.1399898980285
 72
     1
 10
3558.653387917426
 20
254.1399898980285
 11
3507.567673631712
 21
254.1399898980285
 72
     1
 10
3507.567673631712
 20
254.1399898980285
 11
3507.567673631712
 21
206.2085613265999
 97
        1
330
8A9E
 92
      136
 93
        4
 72
     1
 10
3507.483303068929
 20
173.8148930975109
 11
3557.609017354644
 21
173.8148930975109
 72
     1
 10
3557.609017354644
 20
173.8148930975109
 11
3557.609017354644
 21
218.8663216689395
 72
     1
 10
3557.609017354644
 20
218.8663216689395
 11
3507.483303068929
 21
218.8663216689395
 72
     1
 10
3507.483303068929
 20
218.8663216689395
 11
3507.483303068929
 21
173.8148930975109
 97
        1
330
8AA3
 75
     0
 76
     1
 47
0.0602706122334892
 98
        2
 10
3555.104825099378
 20
251.4216291822174
 10
3555.104825099378
 20
251.4216291822174
  0
LINE
  5
8AA2
330
747D
100
AcDbEntity
  8
0
100
AcDbLine
 10
3334.531914893606
 20
150.0000000000018
 30
0.0
 11
3334.531914893606
 21
342.0000000000027
 31
0.0
  0
TEXT
  5
8AA3
102
{ACAD_REACTORS
330
8AA1
102
}
330
747D
100
AcDbEntity
  8
0
 48
2.0
100
AcDbText
 10
3514.991874497501
 20
184.2034645260824
 30
0.0
 40
24.0
  1
川
  7
SANWA
100
AcDbText
  0
LINE
  5
8AA4
102
{ACAD_REACTORS
330
8A96
102
}
330
747D
100
AcDbEntity
  8
0
100
AcDbLine
 10
3675.336214331804
 20
182.0237967765802
 30
0.0
 11
3675.336214331804
 21
188.0713667624081
 31
0.0
  0
LINE
  5
8AA5
102
{ACAD_REACTORS
330
8A96
102
}
330
747D
100
AcDbEntity
  8
0
100
AcDbLine
 10
3684.936214331802
 20
182.0237967765802
 30
0.0
 11
3684.936214331802
 21
188.0713667624081
 31
0.0
  0
LINE
  5
8AA6
102
{ACAD_REACTORS
330
8A96
102
}
330
747D
100
AcDbEntity
  8
0
100
AcDbLine
 10
3682.536214331804
 20
179.4107338923181
 30
0.0
 11
3682.53621433181
 21
190.2322462690636
 31
0.0
  0
LINE
  5
8AA7
102
{ACAD_REACTORS
330
8A96
102
}
330
747D
100
AcDbEntity
  8
0
100
AcDbLine
 10
3677.736214331801
 20
179.4107338923181
 30
0.0
 11
3677.736214331801
 21
190.232246269062
 31
0.0
  0
TEXT
  5
8AA8
330
747D
100
AcDbEntity
  8
0
 48
2.0
100
AcDbText
 10
3498.749396044362
 20
277.2513790084827
 30
0.0
 40
24.0
  1
製図
  7
SANWA
100
AcDbText
  0
TEXT
  5
8AA9
330
747D
100
AcDbEntity
  8
0
 48
2.0
100
AcDbText
 10
3388.972302949399
 20
313.2513790084822
 30
0.0
 40
24.0
  1
2000.12.19
  7
SANWA
100
AcDbText
  0
TEXT
  5
8AAA
330
747D
100
AcDbEntity
  8
0
 48
2.0
100
AcDbText
 10
3369.075985825585
 20
277.1357177512964
 30
0.0
 40
24.0
  1
設計
  7
SANWA
100
AcDbText
  0
LINE
  5
8AAB
102
{ACAD_REACTORS
330
8A96
102
}
330
747D
100
AcDbEntity
  8
0
100
AcDbLine
 10
3708.376255375795
 20
244.6606317534054
 30
0.0
 11
3712.652533122477
 21
248.9369095000866
 31
0.0
  0
LINE
  5
8AAC
102
{ACAD_REACTORS
330
8A96
102
}
330
747D
100
AcDbEntity
  8
0
100
AcDbLine
 10
3701.588030276405
 20
251.4488568527968
 30
0.0
 11
3705.864308023087
 21
255.725134599478
 31
0.0
  0
LINE
  5
8AAD
102
{ACAD_REACTORS
330
8A96
102
}
330
747D
100
AcDbEntity
  8
0
100
AcDbLine
 10
3701.757113998777
 20
248.2238280254664
 30
0.0
 11
3709.409078783063
 21
255.8757928097593
 31
0.0
  0
LINE
  5
8AAE
102
{ACAD_REACTORS
330
8A96
102
}
330
747D
100
AcDbEntity
  8
0
100
AcDbLine
 10
3705.151226548471
 20
244.8297154757715
 30
0.0
 11
3712.803191332758
 21
252.4816802600629
 31
0.0
  0
LINE
  5
8AAF
102
{ACAD_REACTORS
330
8A96
102
}
330
747D
100
AcDbEntity
  8
0
100
AcDbLine
 10
3658.6843983872
 20
251.4488568527968
 30
0.0
 11
3654.408120640517
 21
255.7251345994764
 31
0.0
  0
LINE
  5
8AB0
102
{ACAD_REACTORS
330
8A96
102
}
330
747D
100
AcDbEntity
  8
0
100
AcDbLine
 10
3651.896173287809
 20
244.6606317534054
 30
0.0
 11
3647.619895541127
 21
248.9369095000866
 31
0.0
  0
LINE
  5
8AB1
102
{ACAD_REACTORS
330
8A96
102
}
330
747D
100
AcDbEntity
  8
0
100
AcDbLine
 10
3655.12120211514
 20
244.8297154757715
 30
0.0
 11
3647.422775453863
 21
252.5281421370471
 31
0.0
  0
LINE
  5
8AB2
102
{ACAD_REACTORS
330
8A96
102
}
330
747D
100
AcDbEntity
  8
0
100
AcDbLine
 10
3658.515314664835
 20
248.2238280254664
 30
0.0
 11
3650.816888003558
 21
255.922254686742
 31
0.0
  0
TEXT
  5
8AB3
330
747D
100
AcDbEntity
  8
0
100
AcDbText
 10
3666.709002834934
 20
230.6320916026407
 30
0.0
 40
18.0
  1
三
  7
SANWA
100
AcDbText
  0
ARC
  5
8AB4
102
{ACAD_REACTORS
330
8A96
102
}
330
747D
100
AcDbEntity
  8
0
100
AcDbCircle
 10
3680.136214331799
 20
223.2088158088008
 30
0.0
 40
43.86378893304791
100
AcDbArc
 50
48.13649544708948
 51
131.8635045529105
  0
ARC
  5
8AB5
102
{ACAD_REACTORS
330
8A96
102
}
330
747D
100
AcDbEntity
  8
0
100
AcDbCircle
 10
3680.136214331799
 20
223.2088158088008
 30
0.0
 40
41.46378893304791
100
AcDbArc
 50
51.64767378620982
 51
128.3523262137984
  0
ARC
  5
8AB6
102
{ACAD_REACTORS
330
8A96
102
}
330
747D
100
AcDbEntity
  8
0
100
AcDbCircle
 10
3680.136214331799
 20
223.2088158088008
 30
0.0
 40
35.46378893304791
100
AcDbArc
 50
52.77882031190353
 51
127.2211796880964
  0
ARC
  5
8AB7
102
{ACAD_REACTORS
330
8A96
102
}
330
747D
100
AcDbEntity
  8
0
100
AcDbCircle
 10
3680.136214331799
 20
223.2088158088008
 30
0.0
 40
33.06378893304791
100
AcDbArc
 50
49.16258741113152
 51
130.8374125888685
  0
TEXT
  5
8AB8
330
747D
100
AcDbEntity
  8
0
 48
2.0
100
AcDbText
 10
3608.763425308405
 20
466.4348193000683
 30
0.0
 40
16.79999999999999
  1
呼
  7
SANWA
100
AcDbText
  0
TEXT
  5
8AB9
330
747D
100
AcDbEntity
  8
0
 48
2.0
100
AcDbText
 10
3341.538433474464
 20
378.5853012973512
 30
0.0
 40
24.0
  1
1 : 15
  7
SANWA
100
AcDbText
  0
TEXT
  5
8ABA
330
747D
100
AcDbEntity
  8
0
 48
2.0
100
AcDbText
 10
3326.458873159416
 20
434.3839146702152
 30
0.0
 40
24.0
  1
縮    尺
  7
SANWA
100
AcDbText
  0
TEXT
  5
8ABB
330
747D
100
AcDbEntity
  8
0
 48
2.0
100
AcDbText
 10
3609.288067929331
 20
360.6846153128759
 30
0.0
 40
16.79999999999999
  1
規
  7
SANWA
100
AcDbText
  0
TEXT
  5
8ABC
330
747D
100
AcDbEntity
  8
0
 48
2.0
100
AcDbText
 10
3608.865365864922
 20
419.9263485547305
 30
0.0
 40
16.79999999999999
  1
名
  7
SANWA
100
AcDbText
  0
TEXT
  5
8ABD
330
747D
100
AcDbEntity
  8
0
 48
2.0
100
AcDbText
 10
3608.525134886852
 20
443.4326160008049
 30
0.0
 40
16.79999999999999
  1
び
  7
SANWA
100
AcDbText
  0
TEXT
  5
8ABE
330
747D
100
AcDbEntity
  8
0
 48
2.0
100
AcDbText
 10
3392.339284911456
 20
558.6411916425954
 30
0.0
 40
24.0
  1
番号
  7
SANWA
100
AcDbText
  0
TEXT
  5
8ABF
330
747D
100
AcDbEntity
  8
0
 48
2.0
100
AcDbText
 10
3608.833038597707
 20
520.9962632445933
 30
0.0
 40
16.79999999999999
  1
名
  7
SANWA
100
AcDbText
  0
TEXT
  5
8AC0
330
747D
100
AcDbEntity
  8
0
 48
2.0
100
AcDbText
 10
3609.743097260969
 20
560.3768966870496
 30
0.0
 40
16.79999999999999
  1
品
  7
SANWA
100
AcDbText
  0
TEXT
  5
8AC1
330
747D
100
AcDbEntity
  8
0
100
AcDbText
 10
3940.657386018233
 20
436.6971428571463
 30
0.0
 40
24.0
  1
Ｂ型
  7
SANWA
 72
     4
 11
3975.765957446805
 21
450.0000000000034
 31
0.0
100
AcDbText
  0
DIMENSION
  5
8AC2
330
747D
100
AcDbEntity
  8
寸法引出
 48
15.0
100
AcDbDimension
  2
*D126
 10
1716.379639973106
 20
635.9586029631955
 30
0.0
 11
1703.879639973106
 21
665.9586029631955
 31
0.0
 70
    32
 71
     5
 42
25.0
  3
SANWA
100
AcDbAlignedDimension
 13
1691.379639973106
 23
741.5677476870105
 33
0.0
 14
1716.379639973106
 24
741.5677476870105
 34
0.0
100
AcDbRotatedDimension
1001
ACAD
1000
DSTYLE
1002
{
1070
    40
1040
15.0
1070
    41
1040
1.5
1070
    43
1040
5.0
1070
    44
1040
0.5
1070
    75
1070
     1
1070
   140
1040
2.0
1070
   147
1040
1.0
1070
   176
1070
   256
1070
   177
1070
   256
1070
   178
1070
   256
1070
   279
1070
     1
1002
}
  0
DIMENSION
  5
8AC3
330
747D
100
AcDbEntity
  8
寸法引出
 48
15.0
100
AcDbDimension
  2
*D127
 10
1277.578843988344
 20
741.5677476870106
 30
0.0
 11
1247.578843988344
 21
801.5677476870108
 31
0.0
 70
    32
 71
     5
 42
120.0
  3
SANWA
100
AcDbAlignedDimension
 13
1366.379639973106
 23
861.5677476870105
 33
0.0
 14
1366.379639973106
 24
741.5677476870105
 34
0.0
 50
90.0
100
AcDbRotatedDimension
1001
ACAD
1000
DSTYLE
1002
{
1070
    40
1040
15.0
1070
    41
1040
1.5
1070
    43
1040
5.0
1070
    44
1040
0.5
1070
    75
1070
     1
1070
   140
1040
2.0
1070
   147
1040
1.0
1070
   176
1070
   256
1070
   177
1070
   256
1070
   178
1070
   256
1070
   279
1070
     1
1002
}
  0
DIMENSION
  5
8AC4
330
747D
100
AcDbEntity
  8
寸法引出
 48
15.0
100
AcDbDimension
  2
*D128
 10
1391.379639973106
 20
635.9586029631955
 30
0.0
 11
1378.879639973106
 21
665.9586029631955
 31
0.0
 70
    32
 71
     5
 42
25.0
  3
SANWA
100
AcDbAlignedDimension
 13
1366.379639973106
 23
741.5677476870105
 33
0.0
 14
1391.379639973106
 24
741.5677476870105
 34
0.0
100
AcDbRotatedDimension
1001
ACAD
1000
DSTYLE
1002
{
1070
   140
1040
2.0
1070
    40
1040
15.0
1070
   147
1040
1.0
1070
    44
1040
0.5
1070
    43
1040
5.0
1070
   178
1070
   256
1070
   177
1070
   256
1070
   176
1070
   256
1070
    41
1040
1.5
1002
}
  0
DIMENSION
  5
8AC5
330
747D
100
AcDbEntity
  8
寸法引出
 48
15.0
100
AcDbDimension
  2
*D129
 10
1691.379639973106
 20
635.9586029631955
 30
0.0
 11
1541.379639973106
 21
665.9586029631955
 31
0.0
 70
    32
 71
     5
 42
300.0
  3
SANWA
100
AcDbAlignedDimension
 13
1391.379639973106
 23
741.5677476870105
 33
0.0
 14
1691.379639973106
 24
741.5677476870105
 34
0.0
100
AcDbRotatedDimension
1001
ACAD
1000
DSTYLE
1002
{
1070
    40
1040
15.0
1070
    41
1040
1.5
1070
    43
1040
5.0
1070
    44
1040
0.5
1070
    75
1070
     1
1070
   140
1040
2.0
1070
   147
1040
1.0
1070
   176
1070
   256
1070
   177
1070
   256
1070
   178
1070
   256
1070
   279
1070
     1
1002
}
  0
LINE
  5
8AC6
330
747D
100
AcDbEntity
  8
0
 48
15.0
100
AcDbLine
 10
1366.379639973106
 20
741.5677476870105
 30
0.0
 11
1716.379639973106
 21
741.5677476870105
 31
0.0
  0
CIRCLE
  5
8AC7
330
747D
100
AcDbEntity
  8
0
 48
15.0
100
AcDbCircle
 10
1391.379639973106
 20
861.5677476870105
 30
0.0
 40
10.0
  0
CIRCLE
  5
8AC8
330
747D
100
AcDbEntity
  8
0
 48
15.0
100
AcDbCircle
 10
1691.379639973106
 20
861.5677476870105
 30
0.0
 40
10.0
  0
LINE
  5
8AC9
330
747D
100
AcDbEntity
  8
0
100
AcDbLine
 10
3598.531914893604
 20
594.0000000000036
 30
0.0
 11
3621.27727230544
 21
594.0000000000036
 31
0.0
  0
LINE
  5
8B3B
330
747D
100
AcDbEntity
  8
0
100
AcDbLine
 10
0.0
 20
3000.0
 30
0.0
 11
0.0
 21
3150.0
 31
0.0
  0
LINE
  5
8B3C
330
747D
100
AcDbEntity
  8
0
100
AcDbLine
 10
0.0
 20
3150.0
 30
0.0
 11
375.0
 21
3150.0
 31
0.0
  0
DIMENSION
  5
8B3D
330
747D
100
AcDbEntity
  8
寸法引出
 48
15.0
100
AcDbDimension
  2
*D87
 10
3143.040493132293
 20
2350.47267715487
 30
0.0
 11
2643.040493132293
 21
2380.47267715487
 31
0.0
 70
    32
 71
     5
 42
1000.0
  3
SANWA
100
AcDbAlignedDimension
 13
2143.040493132293
 23
2254.779567641652
 33
0.0
 14
3143.040493132293
 24
2254.779567641652
 34
0.0
100
AcDbRotatedDimension
1001
ACAD
1000
DSTYLE
1002
{
1070
   140
1040
2.0
1070
    40
1040
15.0
1070
   147
1040
1.0
1070
    44
1040
0.5
1070
    43
1040
5.0
1070
   178
1070
   256
1070
   177
1070
   256
1070
   176
1070
   256
1070
    41
1040
1.5
1002
}
  0
DIMENSION
  5
8B3E
330
747D
100
AcDbEntity
  8
寸法引出
 48
15.0
100
AcDbDimension
  2
*D88
 10
3023.040493132294
 20
2080.142148029828
 30
0.0
 11
2643.040493132293
 21
2110.142148029828
 31
0.0
 70
    32
 71
     5
 42
760.0
  3
SANWA
100
AcDbAlignedDimension
 13
2263.040493132293
 23
2154.779567641652
 33
0.0
 14
3023.040493132294
 24
2154.779567641652
 34
0.0
100
AcDbRotatedDimension
1001
ACAD
1000
DSTYLE
1002
{
1070
    40
1040
15.0
1070
    41
1040
1.5
1070
    43
1040
5.0
1070
    44
1040
0.5
1070
    75
1070
     1
1070
   140
1040
2.0
1070
   147
1040
1.0
1070
   176
1070
   256
1070
   177
1070
   256
1070
   178
1070
   256
1070
   279
1070
     1
1002
}
  0
LINE
  5
8B3F
330
747D
100
AcDbEntity
  8
0
 48
15.0
100
AcDbLine
 10
2143.040493132293
 20
2154.779567641652
 30
0.0
 11
3143.040493132293
 21
2154.779567641652
 31
0.0
  0
LINE
  5
8B40
330
747D
100
AcDbEntity
  8
0
 48
15.0
100
AcDbLine
 10
2143.040493132293
 20
2254.779567641652
 30
0.0
 11
3143.040493132293
 21
2254.779567641652
 31
0.0
  0
DIMENSION
  5
8B41
330
747D
100
AcDbEntity
  8
寸法引出
 48
15.0
100
AcDbDimension
  2
*D89
 10
1716.379639973106
 20
1848.381124981411
 30
0.0
 11
1541.379639973106
 21
1878.381124981412
 31
0.0
 70
    32
 71
     5
 42
350.0
  3
SANWA
100
AcDbAlignedDimension
 13
1366.379639973106
 23
1741.56774768701
 33
0.0
 14
1716.379639973106
 24
1741.56774768701
 34
0.0
100
AcDbRotatedDimension
1001
ACAD
1000
DSTYLE
1002
{
1070
   140
1040
2.0
1070
    40
1040
15.0
1070
   147
1040
1.0
1070
    44
1040
0.5
1070
    43
1040
5.0
1070
   178
1070
   256
1070
   177
1070
   256
1070
   176
1070
   256
1070
    41
1040
1.5
1002
}
  0
LEADER
  5
8B42
330
747D
100
AcDbEntity
  8
寸法引出
 48
15.0
100
AcDbLeader
  3
SANWA
 76
     3
 10
1391.379639973106
 20
1631.56774768701
 30
0.0
 10
1250.543454799503
 20
1816.202507901939
 30
0.0
 10
954.6130536763525
 20
1816.202507901939
 30
0.0
1001
ACAD
1000
DSTYLE
1002
{
1070
   140
1040
2.0
1070
    40
1040
15.0
1070
   147
1040
1.0
1070
    44
1040
0.5
1070
    43
1040
5.0
1070
   178
1070
   256
1070
   177
1070
   256
1070
   176
1070
   256
1070
    41
1040
1.5
1002
}
  0
DIMENSION
  5
8B43
330
747D
100
AcDbEntity
  8
寸法引出
 48
15.0
100
AcDbDimension
  2
*D90
 10
1277.578843988344
 20
1621.56774768701
 30
0.0
 11
1247.578843988343
 21
1681.567747687011
 31
0.0
 70
    32
 71
     5
 42
120.0
  3
SANWA
100
AcDbAlignedDimension
 13
1366.379639973106
 23
1741.56774768701
 33
0.0
 14
1366.379639973106
 24
1621.56774768701
 34
0.0
 50
90.0
100
AcDbRotatedDimension
1001
ACAD
1000
DSTYLE
1002
{
1070
   140
1040
2.0
1070
    40
1040
15.0
1070
   147
1040
1.0
1070
    44
1040
0.5
1070
    43
1040
5.0
1070
   178
1070
   256
1070
   177
1070
   256
1070
   176
1070
   256
1070
    41
1040
1.5
1002
}
  0
CIRCLE
  5
8B44
330
747D
100
AcDbEntity
  8
0
 48
15.0
100
AcDbCircle
 10
1391.379639973106
 20
1621.56774768701
 30
0.0
 40
10.0
  0
CIRCLE
  5
8B45
330
747D
100
AcDbEntity
  8
0
 48
15.0
100
AcDbCircle
 10
1691.379639973106
 20
1621.56774768701
 30
0.0
 40
10.0
  0
LINE
  5
8B46
330
747D
100
AcDbEntity
  8
0
 48
15.0
100
AcDbLine
 10
1366.379639973106
 20
1741.56774768701
 30
0.0
 11
1716.379639973106
 21
1741.56774768701
 31
0.0
  0
MTEXT
  5
8B47
330
747D
100
AcDbEntity
  8
寸法引出
  6
ByBlock
 48
15.0
100
AcDbMText
 10
1104.487482785708
 20
1844.295150363174
 30
0.0
 40
30.0
 41
0.0
 71
     5
 72
     1
  1
ﾛｯｸﾋﾟﾝ用ｲﾝｻｰﾄ
  7
SANWA
 73
     1
 44
1.0
1001
ACAD
1000
MTEXTBEGIN
1070
    73
1070
     1
1070
    44
1040
1.0
1070
    74
1070
     0
1000
MTEXTEND
  0
DIMENSION
  5
8B48
330
747D
100
AcDbEntity
  8
寸法引出
 48
15.0
100
AcDbDimension
  2
*D91
 10
1831.938707791344
 20
2154.779567641652
 30
0.0
 11
1801.938707791344
 21
2204.779567641653
 31
0.0
 70
    32
 71
     5
 42
100.0
  3
SANWA
100
AcDbAlignedDimension
 13
1710.90451337318
 23
2254.779567641652
 33
0.0
 14
1710.90451337318
 24
2154.779567641652
 34
0.0
 50
90.0
100
AcDbRotatedDimension
1001
ACAD
1000
DSTYLE
1002
{
1070
   140
1040
2.0
1070
    40
1040
15.0
1070
   147
1040
1.0
1070
    44
1040
0.5
1070
    43
1040
5.0
1070
   178
1070
   256
1070
   177
1070
   256
1070
   176
1070
   256
1070
    41
1040
1.5
1002
}
  0
DIMENSION
  5
8B49
330
747D
100
AcDbEntity
  8
寸法引出
 48
15.0
100
AcDbDimension
  2
*D92
 10
1710.90451337318
 20
2080.142148029828
 30
0.0
 11
1698.40451337318
 21
2110.142148029828
 31
0.0
 70
    32
 71
     5
 42
25.0
  3
SANWA
100
AcDbAlignedDimension
 13
1685.90451337318
 23
2154.779567641652
 33
0.0
 14
1710.90451337318
 24
2154.779567641652
 34
0.0
100
AcDbRotatedDimension
1001
ACAD
1000
DSTYLE
1002
{
1070
    40
1040
15.0
1070
    41
1040
1.5
1070
    43
1040
5.0
1070
    44
1040
0.5
1070
    75
1070
     1
1070
   140
1040
2.0
1070
   147
1040
1.0
1070
   176
1070
   256
1070
   177
1070
   256
1070
   178
1070
   256
1070
   279
1070
     1
1002
}
  0
DIMENSION
  5
8B4A
330
747D
100
AcDbEntity
  8
寸法引出
 48
15.0
100
AcDbDimension
  2
*D93
 10
1710.90451337318
 20
2350.47267715487
 30
0.0
 11
1535.90451337318
 21
2380.47267715487
 31
0.0
 70
    32
 71
     5
 42
350.0
  3
SANWA
100
AcDbAlignedDimension
 13
1360.90451337318
 23
2254.779567641652
 33
0.0
 14
1710.90451337318
 24
2254.779567641652
 34
0.0
100
AcDbRotatedDimension
1001
ACAD
1000
DSTYLE
1002
{
1070
   140
1040
2.0
1070
    40
1040
15.0
1070
   147
1040
1.0
1070
    44
1040
0.5
1070
    43
1040
5.0
1070
   178
1070
   256
1070
   177
1070
   256
1070
   176
1070
   256
1070
    41
1040
1.5
1002
}
  0
DIMENSION
  5
8B4B
330
747D
100
AcDbEntity
  8
寸法引出
 48
15.0
100
AcDbDimension
  2
*D94
 10
1385.90451337318
 20
2080.142148029828
 30
0.0
 11
1373.40451337318
 21
2110.142148029828
 31
0.0
 70
    32
 71
     5
 42
25.0
  3
SANWA
100
AcDbAlignedDimension
 13
1360.90451337318
 23
2154.779567641652
 33
0.0
 14
1385.90451337318
 24
2154.779567641652
 34
0.0
100
AcDbRotatedDimension
1001
ACAD
1000
DSTYLE
1002
{
1070
   140
1040
2.0
1070
    40
1040
15.0
1070
   147
1040
1.0
1070
    44
1040
0.5
1070
    43
1040
5.0
1070
   178
1070
   256
1070
   177
1070
   256
1070
   176
1070
   256
1070
    41
1040
1.5
1002
}
  0
LINE
  5
8B4C
330
747D
100
AcDbEntity
  8
0
 48
15.0
100
AcDbLine
 10
1710.90451337318
 20
2254.779567641652
 30
0.0
 11
1710.90451337318
 21
2154.779567641652
 31
0.0
  0
LINE
  5
8B4D
330
747D
100
AcDbEntity
  8
0
 48
15.0
100
AcDbLine
 10
1360.90451337318
 20
2254.779567641652
 30
0.0
 11
1360.90451337318
 21
2154.779567641652
 31
0.0
  0
DIMENSION
  5
8B4E
330
747D
100
AcDbEntity
  8
寸法引出
 48
15.0
100
AcDbDimension
  2
*D95
 10
1685.90451337318
 20
2080.142148029828
 30
0.0
 11
1535.90451337318
 21
2110.142148029828
 31
0.0
 70
    32
 71
     5
 42
300.0
  3
SANWA
100
AcDbAlignedDimension
 13
1385.90451337318
 23
2154.779567641652
 33
0.0
 14
1685.90451337318
 24
2154.779567641652
 34
0.0
100
AcDbRotatedDimension
1001
ACAD
1000
DSTYLE
1002
{
1070
    40
1040
15.0
1070
    41
1040
1.5
1070
    43
1040
5.0
1070
    44
1040
0.5
1070
    75
1070
     1
1070
   140
1040
2.0
1070
   147
1040
1.0
1070
   176
1070
   256
1070
   177
1070
   256
1070
   178
1070
   256
1070
   279
1070
     1
1002
}
  0
LINE
  5
8B4F
330
747D
100
AcDbEntity
  8
0
 48
15.0
100
AcDbLine
 10
1360.90451337318
 20
2154.779567641652
 30
0.0
 11
1710.90451337318
 21
2154.779567641652
 31
0.0
  0
LINE
  5
8B50
330
747D
100
AcDbEntity
  8
0
  6
HIDDEN2
 48
5.0
100
AcDbLine
 10
1375.90451337318
 20
2187.779567641652
 30
0.0
 11
1395.90451337318
 21
2187.779567641652
 31
0.0
  0
LINE
  5
8B51
330
747D
100
AcDbEntity
  8
0
  6
HIDDEN2
 48
5.0
100
AcDbLine
 10
1395.90451337318
 20
2187.779567641652
 30
0.0
 11
1395.90451337318
 21
2154.779567641652
 31
0.0
  0
LINE
  5
8B52
330
747D
100
AcDbEntity
  8
0
  6
HIDDEN2
 48
5.0
100
AcDbLine
 10
1375.90451337318
 20
2187.779567641652
 30
0.0
 11
1375.90451337318
 21
2154.779567641652
 31
0.0
  0
LINE
  5
8B53
330
747D
100
AcDbEntity
  8
0
  6
HIDDEN2
 48
5.0
100
AcDbLine
 10
1675.90451337318
 20
2187.779567641652
 30
0.0
 11
1695.90451337318
 21
2187.779567641652
 31
0.0
  0
LINE
  5
8B54
330
747D
100
AcDbEntity
  8
0
  6
HIDDEN2
 48
5.0
100
AcDbLine
 10
1695.90451337318
 20
2187.779567641652
 30
0.0
 11
1695.90451337318
 21
2154.779567641652
 31
0.0
  0
LINE
  5
8B55
330
747D
100
AcDbEntity
  8
0
  6
HIDDEN2
 48
5.0
100
AcDbLine
 10
1675.90451337318
 20
2187.779567641652
 30
0.0
 11
1675.90451337318
 21
2154.779567641652
 31
0.0
  0
LINE
  5
8B56
330
747D
100
AcDbEntity
  8
0
 48
15.0
100
AcDbLine
 10
1360.90451337318
 20
2254.779567641652
 30
0.0
 11
1710.90451337318
 21
2254.779567641652
 31
0.0
  0
LINE
  5
8B57
330
747D
100
AcDbEntity
  8
0
 48
15.0
100
AcDbLine
 10
2143.040493132293
 20
2254.779567641652
 30
0.0
 11
2143.040493132293
 21
2154.779567641652
 31
0.0
  0
DIMENSION
  5
8B58
330
747D
100
AcDbEntity
  8
寸法引出
 48
15.0
100
AcDbDimension
  2
*D96
 10
2263.040493132293
 20
2080.142148029828
 30
0.0
 11
2203.040493132293
 21
2110.142148029828
 31
0.0
 70
    32
 71
     5
 42
120.0
  3
SANWA
100
AcDbAlignedDimension
 13
2143.040493132293
 23
2154.779567641652
 33
0.0
 14
2263.040493132293
 24
2154.779567641652
 34
0.0
100
AcDbRotatedDimension
1001
ACAD
1000
DSTYLE
1002
{
1070
   140
1040
2.0
1070
    40
1040
15.0
1070
   147
1040
1.0
1070
    44
1040
0.5
1070
    43
1040
5.0
1070
   178
1070
   256
1070
   177
1070
   256
1070
   176
1070
   256
1070
    41
1040
1.5
1002
}
  0
LINE
  5
8B59
330
747D
100
AcDbEntity
  8
0
  6
HIDDEN2
 48
5.0
100
AcDbLine
 10
2273.040493132294
 20
2187.779567641652
 30
0.0
 11
2273.040493132294
 21
2154.779567641652
 31
0.0
  0
LINE
  5
8B5A
330
747D
100
AcDbEntity
  8
0
  6
HIDDEN2
 48
5.0
100
AcDbLine
 10
2253.040493132294
 20
2187.779567641652
 30
0.0
 11
2253.040493132294
 21
2154.779567641652
 31
0.0
  0
LINE
  5
8B5B
330
747D
100
AcDbEntity
  8
0
  6
HIDDEN2
 48
5.0
100
AcDbLine
 10
2253.040493132294
 20
2187.779567641652
 30
0.0
 11
2273.040493132294
 21
2187.779567641652
 31
0.0
  0
DIMENSION
  5
8B5C
330
747D
100
AcDbEntity
  8
寸法引出
 48
15.0
100
AcDbDimension
  2
*D97
 10
3237.091700953461
 20
2154.779567641652
 30
0.0
 11
3207.091700953461
 21
2204.779567641653
 31
0.0
 70
    32
 71
     5
 42
100.0
  3
SANWA
100
AcDbAlignedDimension
 13
3143.040493132293
 23
2254.779567641652
 33
0.0
 14
3143.040493132293
 24
2154.779567641652
 34
0.0
 50
90.0
100
AcDbRotatedDimension
1001
ACAD
1000
DSTYLE
1002
{
1070
   140
1040
2.0
1070
    40
1040
15.0
1070
   147
1040
1.0
1070
    44
1040
0.5
1070
    43
1040
5.0
1070
   178
1070
   256
1070
   177
1070
   256
1070
   176
1070
   256
1070
    41
1040
1.5
1002
}
  0
LINE
  5
8B5D
330
747D
100
AcDbEntity
  8
0
 48
15.0
100
AcDbLine
 10
3143.040493132293
 20
2254.779567641652
 30
0.0
 11
3143.040493132293
 21
2154.779567641652
 31
0.0
  0
DIMENSION
  5
8B5E
330
747D
100
AcDbEntity
  8
寸法引出
 48
15.0
100
AcDbDimension
  2
*D98
 10
3143.040493132293
 20
2080.142148029828
 30
0.0
 11
3083.040493132294
 21
2110.142148029828
 31
0.0
 70
    32
 71
     5
 42
120.0
  3
SANWA
100
AcDbAlignedDimension
 13
3023.040493132294
 23
2154.779567641652
 33
0.0
 14
3143.040493132293
 24
2154.779567641652
 34
0.0
100
AcDbRotatedDimension
1001
ACAD
1000
DSTYLE
1002
{
1070
    40
1040
15.0
1070
    41
1040
1.5
1070
    43
1040
5.0
1070
    44
1040
0.5
1070
    75
1070
     1
1070
   140
1040
2.0
1070
   147
1040
1.0
1070
   176
1070
   256
1070
   177
1070
   256
1070
   178
1070
   256
1070
   279
1070
     1
1002
}
  0
LINE
  5
8B5F
330
747D
100
AcDbEntity
  8
0
  6
HIDDEN2
 48
5.0
100
AcDbLine
 10
3013.040493132293
 20
2187.779567641652
 30
0.0
 11
3033.040493132293
 21
2187.779567641652
 31
0.0
  0
LINE
  5
8B60
330
747D
100
AcDbEntity
  8
0
  6
HIDDEN2
 48
5.0
100
AcDbLine
 10
3013.040493132293
 20
2187.779567641652
 30
0.0
 11
3013.040493132293
 21
2154.779567641652
 31
0.0
  0
LINE
  5
8B61
330
747D
100
AcDbEntity
  8
0
  6
HIDDEN2
 48
5.0
100
AcDbLine
 10
3033.040493132293
 20
2187.779567641652
 30
0.0
 11
3033.040493132293
 21
2154.779567641652
 31
0.0
  0
LINE
  5
8B62
330
747D
100
AcDbEntity
  8
0
100
AcDbLine
 10
1578.978726667996
 20
2688.000000000001
 30
0.0
 11
2942.400196294205
 21
2688.000000000001
 31
0.0
  0
LINE
  5
8B63
330
747D
100
AcDbEntity
  8
0
100
AcDbLine
 10
1578.978726667996
 20
2700.0
 30
0.0
 11
2942.400196294205
 21
2700.0
 31
0.0
  0
TEXT
  5
8B64
330
747D
100
AcDbEntity
  8
0
100
AcDbText
 10
1621.440635305502
 20
2722.768990422261
 30
0.0
 40
42.0
  1
マルチスリット側溝蓋 Ｂ型 ２５０用
  7
SANWA
 72
     4
 11
2143.680635305502
 21
2743.768990422261
 31
0.0
100
AcDbText
  0
TEXT
  5
8B65
330
747D
100
AcDbEntity
  8
0
100
AcDbText
 10
2741.699502523274
 20
2729.629251340877
 30
0.0
 40
36.0
  1
W=90㎏
  7
SANWA
 72
     4
 11
2820.693788237559
 21
2746.703537055163
 31
0.0
100
AcDbText
  0
LINE
  5
8B71
330
747D
100
AcDbEntity
  8
枠
100
AcDbLine
 10
4305.0
 20
150.0
 30
0.0
 11
4305.0
 21
3000.0
 31
0.0
  0
LINE
  5
8B74
330
747D
100
AcDbEntity
  8
0
100
AcDbLine
 10
4455.0
 20
150.0
 30
0.0
 11
4455.0
 21
0.0
 31
0.0
  0
LINE
  5
8B76
330
747D
100
AcDbEntity
  8
0
100
AcDbLine
 10
4455.0
 20
0.0
 30
0.0
 11
4305.0
 21
0.0
 31
0.0
  0
LINE
  5
8C2A
330
747D
100
AcDbEntity
  8
0
100
AcDbLine
 10
4455.0
 20
3150.0
 30
0.0
 11
4455.0
 21
3000.0
 31
0.0
  0
LINE
  5
8C2C
330
747D
100
AcDbEntity
  8
0
100
AcDbLine
 10
4305.0
 20
3150.0
 30
0.0
 11
4455.0
 21
3150.0
 31
0.0
  0
VIEWPORT
  5
7540
102
{ACAD_XDICTIONARY
360
91F8
102
}
330
747A
100
AcDbEntity
 67
     1
  8
0
100
AcDbViewport
 10
3474.182044225432
 20
1708.606528121244
 30
0.0
 40
10622.39592615113
 41
7547.491842265279
 68
     1
 69
     1
 12
3474.182044225432
 22
1708.606528121244
 13
0.0
 23
0.0
 14
10.0
 24
10.0
 15
10.0
 25
10.0
 16
0.0
 26
0.0
 36
1.0
 17
0.0
 27
0.0
 37
0.0
 42
50.0
 43
0.0
 44
0.0
 45
7547.491842265279
 50
0.0
 51
0.0
 72
   100
 90
    32800
  1

281
     0
 71
     1
 74
     0
110
0.0
120
0.0
130
0.0
111
1.0
121
0.0
131
0.0
112
0.0
122
1.0
132
0.0
 79
     0
146
0.0
  0
TEXT
  5
7737
330
747A
100
AcDbEntity
 67
     1
  8
0
 48
2.0
100
AcDbText
 10
331.871196811185
 20
20.60428158404022
 30
0.0
 40
2.0
  1

  7
SANWA
100
AcDbText
  0
ENDSEC
  0
SECTION
  2
OBJECTS
  0
DICTIONARY
  5
7471
330
0
100
AcDbDictionary
281
     1
  3
ACAD_COLOR
350
900C
  3
ACAD_GROUP
350
7472
  3
ACAD_LAYOUT
350
865F
  3
ACAD_MATERIAL
350
8FE2
  3
ACAD_MLEADERSTYLE
350
9031
  3
ACAD_MLINESTYLE
350
7473
  3
ACAD_PLOTSETTINGS
350
8660
  3
ACAD_PLOTSTYLENAME
350
865D
  3
ACAD_SCALELIST
350
900F
  3
ACAD_TABLESTYLE
350
900D
  3
ACAD_VISUALSTYLE
350
8FFB
  3
ACDB_RECOMPOSE_DATA
350
91F6
  3
ACDBVARIABLEDICTIONARY
350
789B
  3
DWGPROPS
350
91F7
  0
DICTIONARY
  5
91C7
330
7474
100
AcDbDictionary
280
     1
281
     1
  3
ADSK_XREC_LAYER_RECONCILED
360
91C8
  0
DICTIONARY
  5
91C9
330
7486
100
AcDbDictionary
280
     1
281
     1
  3
ADSK_XREC_LAYER_RECONCILED
360
91CA
  0
DICTIONARY
  5
91CB
330
7950
100
AcDbDictionary
280
     1
281
     1
  3
ADSK_XREC_LAYER_RECONCILED
360
91CC
  0
DICTIONARY
  5
91CD
330
7D58
100
AcDbDictionary
280
     1
281
     1
  3
ADSK_XREC_LAYER_RECONCILED
360
91CE
  0
DICTIONARY
  5
91CF
330
7D59
100
AcDbDictionary
280
     1
281
     1
  3
ADSK_XREC_LAYER_RECONCILED
360
91D0
  0
DICTIONARY
  5
91D1
330
7D5A
100
AcDbDictionary
280
     1
281
     1
  3
ADSK_XREC_LAYER_RECONCILED
360
91D2
  0
DICTIONARY
  5
91F8
330
7540
100
AcDbDictionary
280
     1
281
     1
  3
ACAD_XREC_ROUNDTRIP
360
91F9
  0
DICTIONARY
  5
900C
102
{ACAD_REACTORS
330
7471
102
}
330
7471
100
AcDbDictionary
281
     1
  0
DICTIONARY
  5
7472
102
{ACAD_REACTORS
330
7471
102
}
330
0
100
AcDbDictionary
281
     1
  0
DICTIONARY
  5
865F
102
{ACAD_REACTORS
330
7471
102
}
330
7471
100
AcDbDictionary
281
     1
  3
Model
350
8661
  3
ﾚｲｱｳﾄ1
350
8662
  0
DICTIONARY
  5
8FE2
102
{ACAD_REACTORS
330
7471
102
}
330
7471
100
AcDbDictionary
281
     1
  3
ByBlock
350
8FEB
  3
ByLayer
350
8FE3
  3
Global
350
8FF3
  0
DICTIONARY
  5
9031
102
{ACAD_REACTORS
330
7471
102
}
330
7471
100
AcDbDictionary
281
     1
  3
Standard
350
9032
  0
DICTIONARY
  5
7473
102
{ACAD_REACTORS
330
7471
102
}
330
0
100
AcDbDictionary
281
     1
  3
STANDARD
350
7480
  0
DICTIONARY
  5
8660
102
{ACAD_REACTORS
330
7471
102
}
330
7471
100
AcDbDictionary
281
     1
  0
ACDBDICTIONARYWDFLT
  5
865D
102
{ACAD_REACTORS
330
7471
102
}
330
7471
100
AcDbDictionary
281
     1
  3
Normal
350
865E
100
AcDbDictionaryWithDefault
340
865E
  0
DICTIONARY
  5
900F
102
{ACAD_REACTORS
330
7471
102
}
330
7471
100
AcDbDictionary
281
     1
  3
A0
350
9010
  3
A1
350
9011
  3
A2
350
9012
  3
A3
350
9013
  3
A4
350
9014
  3
A5
350
9015
  3
A6
350
9016
  3
A7
350
9017
  3
A8
350
9018
  3
A9
350
9019
  3
B0
350
901A
  3
B1
350
901B
  3
B2
350
901C
  3
B3
350
901D
  3
B4
350
901E
  3
B5
350
901F
  3
B6
350
9020
  3
B7
350
9021
  3
B8
350
9022
  3
B9
350
9023
  3
C0
350
9024
  3
C1
350
9025
  3
C2
350
9026
  3
C3
350
9027
  3
C4
350
9028
  3
C5
350
9029
  3
C6
350
902A
  3
C7
350
902B
  3
C8
350
902C
  3
C9
350
902D
  3
D0
350
902E
  3
D1
350
902F
  3
D2
350
9030
  0
DICTIONARY
  5
900D
102
{ACAD_REACTORS
330
7471
102
}
330
7471
100
AcDbDictionary
281
     1
  3
Standard
350
900E
  0
DICTIONARY
  5
8FFB
102
{ACAD_REACTORS
330
7471
102
}
330
7471
100
AcDbDictionary
281
     1
  3
2dWireframe
350
9001
  3
3D Hidden
350
9003
  3
3dWireframe
350
9002
  3
Basic
350
9000
  3
Brighten
350
9007
  3
ColorChange
350
900B
  3
Conceptual
350
9004
  3
Dim
350
9006
  3
Facepattern
350
900A
  3
Flat
350
8FFC
  3
FlatWithEdges
350
8FFD
  3
Gouraud
350
8FFE
  3
GouraudWithEdges
350
8FFF
  3
Linepattern
350
9009
  3
Realistic
350
9005
  3
Thicken
350
9008
  0
XRECORD
  5
91F6
102
{ACAD_REACTORS
330
7471
102
}
330
7471
100
AcDbXrecord
280
     1
 90
        1
330
900E
  0
DICTIONARY
  5
789B
102
{ACAD_REACTORS
330
7471
102
}
330
7471
100
AcDbDictionary
281
     1
  3
CANNOSCALE
350
91F2
  3
CMLEADERSTYLE
350
91F1
  3
CTABLESTYLE
350
91F0
  3
DIMASSOC
350
8FE0
  3
INDEXCTL
350
91F3
  3
SORTENTS
350
789C
  0
XRECORD
  5
91F7
102
{ACAD_REACTORS
330
7471
102
}
330
7471
100
AcDbXrecord
280
     1
  1
DWGPROPS COOKIE
  2

  3

  4

  6

  7

  8
ooshima
  9

300
=
301
=
302
=
303
=
304
=
305
=
306
=
307
=
308
=
309
=
 40
0.1958540856481481
 41
2451898.440750926
 42
2455412.404948865
  1

 90
        0
  0
XRECORD
  5
91C8
102
{ACAD_REACTORS
330
91C7
102
}
330
91C7
100
AcDbXrecord
280
     1
290
     1
  0
XRECORD
  5
91CA
102
{ACAD_REACTORS
330
91C9
102
}
330
91C9
100
AcDbXrecord
280
     1
290
     1
  0
XRECORD
  5
91CC
102
{ACAD_REACTORS
330
91CB
102
}
330
91CB
100
AcDbXrecord
280
     1
290
     1
  0
XRECORD
  5
91CE
102
{ACAD_REACTORS
330
91CD
102
}
330
91CD
100
AcDbXrecord
280
     1
290
     1
  0
XRECORD
  5
91D0
102
{ACAD_REACTORS
330
91CF
102
}
330
91CF
100
AcDbXrecord
280
     1
290
     1
  0
XRECORD
  5
91D2
102
{ACAD_REACTORS
330
91D1
102
}
330
91D1
100
AcDbXrecord
280
     1
290
     1
  0
XRECORD
  5
91F9
102
{ACAD_REACTORS
330
91F8
102
}
330
91F8
100
AcDbXrecord
280
     1
102
SHADEPLOT
 70
     0
  0
LAYOUT
  5
8661
102
{ACAD_XDICTIONARY
360
91FA
102
}
102
{ACAD_REACTORS
330
865F
102
}
330
865F
100
AcDbPlotSettings
  1

  2
DocuWorks Printer
  4
A4
  6

 40
5.408082962036132
 41
5.408079147338867
 42
5.4080810546875
 43
5.4080810546875
 44
210.0156707763672
 45
297.0106506347656
 46
4.599753379821777
 47
12.09724521636963
 48
375.0
 49
150.0
140
4305.0
141
3000.0
142
1.0
143
15.0
 70
 11940
 72
     1
 73
     1
 74
     4
  7
sanwa3.ctb
 75
     0
147
0.0698945637753135
148
-375.0
149
-150.0
100
AcDbLayout
  1
Model
 70
     1
 71
     0
 10
0.0
 20
0.0
 11
12.0
 21
9.0
 12
0.0
 22
0.0
 32
0.0
 14
0.0
 24
0.0
 34
0.0
 15
0.0
 25
0.0
 35
0.0
146
0.0
 13
0.0
 23
0.0
 33
0.0
 16
1.0
 26
0.0
 36
0.0
 17
0.0
 27
1.0
 37
0.0
 76
     0
330
747D
331
8FDF
1001
ACAD_PSEXT
1000
DocuWorks Printer
1000
DocuWorks Printer Driver
1000
DocuWorks Port
1000

1070
     0
  0
LAYOUT
  5
8662
102
{ACAD_XDICTIONARY
360
91FC
102
}
102
{ACAD_REACTORS
330
865F
102
}
330
865F
100
AcDbPlotSettings
  1

  2
RICOH NX-510
  4
A4
  6

 40
5.873749732971191
 41
4.92125654220581
 42
7.588241577148437
 43
5.81024169921875
 44
209.9944915771484
 45
296.989501953125
 46
0.0
 47
0.0
 48
0.0
 49
0.0
140
0.0
141
0.0
142
1.0
143
35.47269368767085
 70
   688
 72
     1
 73
     1
 74
     1
  7
sanwa3.ctb
 75
     0
147
0.0281906981410766
148
1587.221847345412
149
1807.57088471021
100
AcDbLayout
  1
ﾚｲｱｳﾄ1
 70
     1
 71
     1
 10
-1793.326771393131
 20
-2015.928609785936
 11
8741.690859843995
 21
5433.141666028426
 12
0.0
 22
0.0
 32
0.0
 14
1.000000000000000E+20
 24
1.000000000000000E+20
 34
1.000000000000000E+20
 15
-1.000000000000000E+20
 25
-1.000000000000000E+20
 35
-1.000000000000000E+20
146
0.0
 13
0.0
 23
0.0
 33
0.0
 16
1.0
 26
0.0
 36
0.0
 17
0.0
 27
1.0
 37
0.0
 76
     0
330
747A
331
7540
  0
MATERIAL
  5
8FEB
102
{ACAD_XDICTIONARY
360
8FEC
102
}
102
{ACAD_REACTORS
330
8FE2
102
}
330
8FE2
100
AcDbMaterial
  1
ByBlock
 72
     0
 43
0.0208333333333333
 43
0.0
 43
0.0
 43
0.0
 43
0.0
 43
0.0208333333333333
 43
0.0
 43
0.0
 43
0.0
 43
0.0
 43
1.0
 43
0.0
 43
0.0
 43
0.0
 43
0.0
 43
1.0
 77
     0
 47
0.0208333333333333
 47
0.0
 47
0.0
 47
0.0
 47
0.0
 47
0.0208333333333333
 47
0.0
 47
0.0
 47
0.0
 47
0.0
 47
1.0
 47
0.0
 47
0.0
 47
0.0
 47
0.0
 47
1.0
171
     0
 49
0.0208333333333333
 49
0.0
 49
0.0
 49
0.0
 49
0.0
 49
0.0208333333333333
 49
0.0
 49
0.0
 49
0.0
 49
0.0
 49
1.0
 49
0.0
 49
0.0
 49
0.0
 49
0.0
 49
1.0
175
     0
142
0.0208333333333333
142
0.0
142
0.0
142
0.0
142
0.0
142
0.0208333333333333
142
0.0
142
0.0
142
0.0
142
0.0
142
1.0
142
0.0
142
0.0
142
0.0
142
0.0
142
1.0
179
     0
144
0.0208333333333333
144
0.0
144
0.0
144
0.0
144
0.0
144
0.0208333333333333
144
0.0
144
0.0
144
0.0
144
0.0
144
1.0
144
0.0
144
0.0
144
0.0
144
0.0
144
1.0
147
0.0208333333333333
147
0.0
147
0.0
147
0.0
147
0.0
147
0.0208333333333333
147
0.0
147
0.0
147
0.0
147
0.0
147
1.0
147
0.0
147
0.0
147
0.0
147
0.0
147
1.0
  0
MATERIAL
  5
8FE3
102
{ACAD_XDICTIONARY
360
8FE4
102
}
102
{ACAD_REACTORS
330
8FE2
102
}
330
8FE2
100
AcDbMaterial
  1
ByLayer
 72
     0
 43
0.0208333333333333
 43
0.0
 43
0.0
 43
0.0
 43
0.0
 43
0.0208333333333333
 43
0.0
 43
0.0
 43
0.0
 43
0.0
 43
1.0
 43
0.0
 43
0.0
 43
0.0
 43
0.0
 43
1.0
 77
     0
 47
0.0208333333333333
 47
0.0
 47
0.0
 47
0.0
 47
0.0
 47
0.0208333333333333
 47
0.0
 47
0.0
 47
0.0
 47
0.0
 47
1.0
 47
0.0
 47
0.0
 47
0.0
 47
0.0
 47
1.0
171
     0
 49
0.0208333333333333
 49
0.0
 49
0.0
 49
0.0
 49
0.0
 49
0.0208333333333333
 49
0.0
 49
0.0
 49
0.0
 49
0.0
 49
1.0
 49
0.0
 49
0.0
 49
0.0
 49
0.0
 49
1.0
175
     0
142
0.0208333333333333
142
0.0
142
0.0
142
0.0
142
0.0
142
0.0208333333333333
142
0.0
142
0.0
142
0.0
142
0.0
142
1.0
142
0.0
142
0.0
142
0.0
142
0.0
142
1.0
179
     0
144
0.0208333333333333
144
0.0
144
0.0
144
0.0
144
0.0
144
0.0208333333333333
144
0.0
144
0.0
144
0.0
144
0.0
144
1.0
144
0.0
144
0.0
144
0.0
144
0.0
144
1.0
147
0.0208333333333333
147
0.0
147
0.0
147
0.0
147
0.0
147
0.0208333333333333
147
0.0
147
0.0
147
0.0
147
0.0
147
1.0
147
0.0
147
0.0
147
0.0
147
0.0
147
1.0
  0
MATERIAL
  5
8FF3
102
{ACAD_XDICTIONARY
360
8FF4
102
}
102
{ACAD_REACTORS
330
8FE2
102
}
330
8FE2
100
AcDbMaterial
  1
Global
 72
     0
 43
0.0208333333333333
 43
0.0
 43
0.0
 43
0.0
 43
0.0
 43
0.0208333333333333
 43
0.0
 43
0.0
 43
0.0
 43
0.0
 43
1.0
 43
0.0
 43
0.0
 43
0.0
 43
0.0
 43
1.0
 77
     0
 47
0.0208333333333333
 47
0.0
 47
0.0
 47
0.0
 47
0.0
 47
0.0208333333333333
 47
0.0
 47
0.0
 47
0.0
 47
0.0
 47
1.0
 47
0.0
 47
0.0
 47
0.0
 47
0.0
 47
1.0
171
     0
 49
0.0208333333333333
 49
0.0
 49
0.0
 49
0.0
 49
0.0
 49
0.0208333333333333
 49
0.0
 49
0.0
 49
0.0
 49
0.0
 49
1.0
 49
0.0
 49
0.0
 49
0.0
 49
0.0
 49
1.0
175
     0
142
0.0208333333333333
142
0.0
142
0.0
142
0.0
142
0.0
142
0.0208333333333333
142
0.0
142
0.0
142
0.0
142
0.0
142
1.0
142
0.0
142
0.0
142
0.0
142
0.0
142
1.0
179
     0
144
0.0208333333333333
144
0.0
144
0.0
144
0.0
144
0.0
144
0.0208333333333333
144
0.0
144
0.0
144
0.0
144
0.0
144
1.0
144
0.0
144
0.0
144
0.0
144
0.0
144
1.0
147
0.0208333333333333
147
0.0
147
0.0
147
0.0
147
0.0
147
0.0208333333333333
147
0.0
147
0.0
147
0.0
147
0.0
147
1.0
147
0.0
147
0.0
147
0.0
147
0.0
147
1.0
  0
MLEADERSTYLE
  5
9032
102
{ACAD_REACTORS
330
9031
102
}
330
9031
100
AcDbMLeaderStyle
170
     2
171
     1
172
     0
 90
        2
 40
0.0
 41
0.0
173
     1
 91
-1056964608
340
7477
 92
       -2
290
     1
 42
2.0
291
     1
 43
0.36
  3
Standard
 44
4.0
300

342
7475
174
     1
178
     6
175
     1
176
     0
 93
-1056964608
 45
4.0
292
     0
297
     0
 46
4.0
 94
-1056964608
 47
1.0
 49
1.0
140
1.0
293
     1
141
0.0
294
     1
177
     0
142
1.0
295
     0
296
     0
143
0.125
1001
ACAD_MLEADERVER
1070
     2
  0
MLINESTYLE
  5
7480
102
{ACAD_REACTORS
330
7473
102
}
330
0
100
AcDbMlineStyle
  2
STANDARD
 70
     0
  3

 62
     0
 51
90.0
 52
90.0
 71
     2
 49
0.5
 62
   256
  6
BYLAYER
 49
-0.5
 62
   256
  6
BYLAYER
  0
ACDBPLACEHOLDER
  5
865E
102
{ACAD_REACTORS
330
865D
102
}
330
865D
  0
SCALE
  5
9010
102
{ACAD_REACTORS
330
900F
102
}
330
900F
100
AcDbScale
 70
     0
300
1:1
140
1.0
141
1.0
290
     1
  0
SCALE
  5
9011
102
{ACAD_REACTORS
330
900F
102
}
330
900F
100
AcDbScale
 70
     0
300
1:2
140
1.0
141
2.0
290
     0
  0
SCALE
  5
9012
102
{ACAD_REACTORS
330
900F
102
}
330
900F
100
AcDbScale
 70
     0
300
1:4
140
1.0
141
4.0
290
     0
  0
SCALE
  5
9013
102
{ACAD_REACTORS
330
900F
102
}
330
900F
100
AcDbScale
 70
     0
300
1:5
140
1.0
141
5.0
290
     0
  0
SCALE
  5
9014
102
{ACAD_REACTORS
330
900F
102
}
330
900F
100
AcDbScale
 70
     0
300
1:8
140
1.0
141
8.0
290
     0
  0
SCALE
  5
9015
102
{ACAD_REACTORS
330
900F
102
}
330
900F
100
AcDbScale
 70
     0
300
1:10
140
1.0
141
10.0
290
     0
  0
SCALE
  5
9016
102
{ACAD_REACTORS
330
900F
102
}
330
900F
100
AcDbScale
 70
     0
300
1:16
140
1.0
141
16.0
290
     0
  0
SCALE
  5
9017
102
{ACAD_REACTORS
330
900F
102
}
330
900F
100
AcDbScale
 70
     0
300
1:20
140
1.0
141
20.0
290
     0
  0
SCALE
  5
9018
102
{ACAD_REACTORS
330
900F
102
}
330
900F
100
AcDbScale
 70
     0
300
1:30
140
1.0
141
30.0
290
     0
  0
SCALE
  5
9019
102
{ACAD_REACTORS
330
900F
102
}
330
900F
100
AcDbScale
 70
     0
300
1:40
140
1.0
141
40.0
290
     0
  0
SCALE
  5
901A
102
{ACAD_REACTORS
330
900F
102
}
330
900F
100
AcDbScale
 70
     0
300
1:50
140
1.0
141
50.0
290
     0
  0
SCALE
  5
901B
102
{ACAD_REACTORS
330
900F
102
}
330
900F
100
AcDbScale
 70
     0
300
1:100
140
1.0
141
100.0
290
     0
  0
SCALE
  5
901C
102
{ACAD_REACTORS
330
900F
102
}
330
900F
100
AcDbScale
 70
     0
300
2:1
140
2.0
141
1.0
290
     0
  0
SCALE
  5
901D
102
{ACAD_REACTORS
330
900F
102
}
330
900F
100
AcDbScale
 70
     0
300
4:1
140
4.0
141
1.0
290
     0
  0
SCALE
  5
901E
102
{ACAD_REACTORS
330
900F
102
}
330
900F
100
AcDbScale
 70
     0
300
8:1
140
8.0
141
1.0
290
     0
  0
SCALE
  5
901F
102
{ACAD_REACTORS
330
900F
102
}
330
900F
100
AcDbScale
 70
     0
300
10:1
140
10.0
141
1.0
290
     0
  0
SCALE
  5
9020
102
{ACAD_REACTORS
330
900F
102
}
330
900F
100
AcDbScale
 70
     0
300
100:1
140
100.0
141
1.0
290
     0
  0
SCALE
  5
9021
102
{ACAD_REACTORS
330
900F
102
}
330
900F
100
AcDbScale
 70
     0
300
1/128" = 1'-0"
140
0.0078125
141
12.0
290
     0
  0
SCALE
  5
9022
102
{ACAD_REACTORS
330
900F
102
}
330
900F
100
AcDbScale
 70
     0
300
1/64" = 1'-0"
140
0.015625
141
12.0
290
     0
  0
SCALE
  5
9023
102
{ACAD_REACTORS
330
900F
102
}
330
900F
100
AcDbScale
 70
     0
300
1/32" = 1'-0"
140
0.03125
141
12.0
290
     0
  0
SCALE
  5
9024
102
{ACAD_REACTORS
330
900F
102
}
330
900F
100
AcDbScale
 70
     0
300
1/16" = 1'-0"
140
0.0625
141
12.0
290
     0
  0
SCALE
  5
9025
102
{ACAD_REACTORS
330
900F
102
}
330
900F
100
AcDbScale
 70
     0
300
3/32" = 1'-0"
140
0.09375
141
12.0
290
     0
  0
SCALE
  5
9026
102
{ACAD_REACTORS
330
900F
102
}
330
900F
100
AcDbScale
 70
     0
300
1/8" = 1'-0"
140
0.125
141
12.0
290
     0
  0
SCALE
  5
9027
102
{ACAD_REACTORS
330
900F
102
}
330
900F
100
AcDbScale
 70
     0
300
3/16" = 1'-0"
140
0.1875
141
12.0
290
     0
  0
SCALE
  5
9028
102
{ACAD_REACTORS
330
900F
102
}
330
900F
100
AcDbScale
 70
     0
300
1/4" = 1'-0"
140
0.25
141
12.0
290
     0
  0
SCALE
  5
9029
102
{ACAD_REACTORS
330
900F
102
}
330
900F
100
AcDbScale
 70
     0
300
3/8" = 1'-0"
140
0.375
141
12.0
290
     0
  0
SCALE
  5
902A
102
{ACAD_REACTORS
330
900F
102
}
330
900F
100
AcDbScale
 70
     0
300
1/2" = 1'-0"
140
0.5
141
12.0
290
     0
  0
SCALE
  5
902B
102
{ACAD_REACTORS
330
900F
102
}
330
900F
100
AcDbScale
 70
     0
300
3/4" = 1'-0"
140
0.75
141
12.0
290
     0
  0
SCALE
  5
902C
102
{ACAD_REACTORS
330
900F
102
}
330
900F
100
AcDbScale
 70
     0
300
1" = 1'-0"
140
1.0
141
12.0
290
     0
  0
SCALE
  5
902D
102
{ACAD_REACTORS
330
900F
102
}
330
900F
100
AcDbScale
 70
     0
300
1-1/2" = 1'-0"
140
1.5
141
12.0
290
     0
  0
SCALE
  5
902E
102
{ACAD_REACTORS
330
900F
102
}
330
900F
100
AcDbScale
 70
     0
300
3" = 1'-0"
140
3.0
141
12.0
290
     0
  0
SCALE
  5
902F
102
{ACAD_REACTORS
330
900F
102
}
330
900F
100
AcDbScale
 70
     0
300
6" = 1'-0"
140
6.0
141
12.0
290
     0
  0
SCALE
  5
9030
102
{ACAD_REACTORS
330
900F
102
}
330
900F
100
AcDbScale
 70
     0
300
1'-0" = 1'-0"
140
12.0
141
12.0
290
     0
  0
TABLESTYLE
  5
900E
102
{ACAD_XDICTIONARY
360
91F4
102
}
102
{ACAD_REACTORS
330
900D
102
}
330
900D
100
AcDbTableStyle
  3
Standard
 70
     0
 71
     0
 40
1.5
 41
1.5
280
     0
281
     0
  7
STANDARD
140
4.5
170
     2
 62
     0
 63
     7
283
     0
274
    -2
284
     1
 64
     0
275
    -2
285
     1
 65
     0
276
    -2
286
     1
 66
     0
277
    -2
287
     1
 67
     0
278
    -2
288
     1
 68
     0
279
    -2
289
     1
 69
     0
  7
STANDARD
140
6.0
170
     5
 62
     0
 63
     7
283
     0
274
    -2
284
     1
 64
     0
275
    -2
285
     1
 65
     0
276
    -2
286
     1
 66
     0
277
    -2
287
     1
 67
     0
278
    -2
288
     1
 68
     0
279
    -2
289
     1
 69
     0
  7
STANDARD
140
4.5
170
     5
 62
     0
 63
     7
283
     0
274
    -2
284
     1
 64
     0
275
    -2
285
     1
 65
     0
276
    -2
286
     1
 66
     0
277
    -2
287
     1
 67
     0
278
    -2
288
     1
 68
     0
279
    -2
289
     1
 69
     0
  0
VISUALSTYLE
  5
9001
102
{ACAD_REACTORS
330
8FFB
102
}
330
8FFB
100
AcDbVisualStyle
  2
2dWireframe
 70
     4
 71
     0
 72
     2
 73
     0
 90
        0
 40
-0.6
 41
-30.0
 62
     5
 63
     7
 74
     1
 91
        4
 64
     7
 65
   257
 75
     1
175
     1
 42
1.0
 92
        0
 66
   257
 43
1.0
 76
     1
 77
     6
 78
     2
 67
     7
 79
     5
170
     0
171
     0
290
     0
174
     0
 93
        1
 44
0.0
173
     0
291
     0
 45
0.0
1001
ACAD
1000
AcDbSavedByObjectVersion
1070
     0
  0
VISUALSTYLE
  5
9003
102
{ACAD_REACTORS
330
8FFB
102
}
330
8FFB
100
AcDbVisualStyle
  2
3D Hidden
 70
     6
 71
     1
 72
     2
 73
     2
 90
        0
 40
-0.6
 41
-30.0
 62
     5
 63
     7
 74
     2
 91
        2
 64
     7
 65
   257
 75
     2
175
     1
 42
40.0
 92
        0
 66
   257
 43
1.0
 76
     1
 77
     6
 78
     2
 67
     7
 79
     3
170
     0
171
     0
290
     0
174
     0
 93
        1
 44
0.0
173
     0
291
     0
 45
0.0
1001
ACAD
1000
AcDbSavedByObjectVersion
1070
     0
  0
VISUALSTYLE
  5
9002
102
{ACAD_REACTORS
330
8FFB
102
}
330
8FFB
100
AcDbVisualStyle
  2
3dWireframe
 70
     5
 71
     0
 72
     2
 73
     0
 90
        0
 40
-0.6
 41
-30.0
 62
     5
 63
     7
 74
     1
 91
        4
 64
     7
 65
   257
 75
     1
175
     1
 42
1.0
 92
        0
 66
   257
 43
1.0
 76
     1
 77
     6
 78
     2
 67
     7
 79
     5
170
     0
171
     0
290
     0
174
     0
 93
        1
 44
0.0
173
     0
291
     0
 45
0.0
1001
ACAD
1000
AcDbSavedByObjectVersion
1070
     0
  0
VISUALSTYLE
  5
9000
102
{ACAD_REACTORS
330
8FFB
102
}
330
8FFB
100
AcDbVisualStyle
  2
Basic
 70
     7
 71
     1
 72
     0
 73
     1
 90
        0
 40
-0.6
 41
-30.0
 62
     5
 63
     7
 74
     0
 91
        4
 64
     7
 65
   257
 75
     1
175
     1
 42
1.0
 92
        8
 66
     7
 43
1.0
 76
     1
 77
     6
 78
     2
 67
     7
 79
     5
170
     0
171
     0
290
     0
174
     0
 93
        1
 44
0.0
173
     0
291
     1
 45
0.0
1001
ACAD
1000
AcDbSavedByObjectVersion
1070
     0
  0
VISUALSTYLE
  5
9007
102
{ACAD_REACTORS
330
8FFB
102
}
330
8FFB
100
AcDbVisualStyle
  2
Brighten
 70
    12
 71
     2
 72
     2
 73
     0
 90
        0
 40
-0.6
 41
-30.0
 62
     5
 63
     7
 74
     1
 91
        4
 64
     7
 65
   257
 75
     1
175
     1
 42
1.0
 92
        8
 66
     7
 43
1.0
 76
     1
 77
     6
 78
     2
 67
     7
 79
     5
170
     0
171
     0
290
     0
174
     0
 93
        1
 44
50.0
173
     0
291
     1
 45
0.0
1001
ACAD
1000
AcDbSavedByObjectVersion
1070
     0
  0
VISUALSTYLE
  5
900B
102
{ACAD_REACTORS
330
8FFB
102
}
330
8FFB
100
AcDbVisualStyle
  2
ColorChange
 70
    16
 71
     2
 72
     2
 73
     3
 90
        0
 40
-0.6
 41
-30.0
 62
     5
 63
     8
 74
     1
 91
        4
 64
     7
 65
   257
 75
     1
175
     1
 42
1.0
 92
        8
 66
     8
 43
1.0
 76
     1
 77
     6
 78
     2
 67
     7
 79
     5
170
     0
171
     0
290
     0
174
     0
 93
        1
 44
0.0
173
     0
291
     1
 45
0.0
1001
ACAD
1000
AcDbSavedByObjectVersion
1070
     0
  0
VISUALSTYLE
  5
9004
102
{ACAD_REACTORS
330
8FFB
102
}
330
8FFB
100
AcDbVisualStyle
  2
Conceptual
 70
     9
 71
     3
 72
     2
 73
     0
 90
        0
 40
-0.6
 41
-30.0
 62
     5
 63
     7
 74
     2
 91
        2
 64
     7
 65
   257
 75
     1
175
     1
 42
40.0
 92
        8
 66
     7
 43
1.0
 76
     1
 77
     6
 78
     2
 67
     7
 79
     3
170
     0
171
     0
290
     0
174
     0
 93
        1
 44
0.0
173
     0
291
     0
 45
0.0
1001
ACAD
1000
AcDbSavedByObjectVersion
1070
     0
  0
VISUALSTYLE
  5
9006
102
{ACAD_REACTORS
330
8FFB
102
}
330
8FFB
100
AcDbVisualStyle
  2
Dim
 70
    11
 71
     2
 72
     2
 73
     0
 90
        0
 40
-0.6
 41
-30.0
 62
     5
 63
     7
 74
     1
 91
        4
 64
     7
 65
   257
 75
     1
175
     1
 42
1.0
 92
        8
 66
     7
 43
1.0
 76
     1
 77
     6
 78
     2
 67
     7
 79
     5
170
     0
171
     0
290
     0
174
     0
 93
        1
 44
-50.0
173
     0
291
     1
 45
0.0
1001
ACAD
1000
AcDbSavedByObjectVersion
1070
     0
  0
VISUALSTYLE
  5
900A
102
{ACAD_REACTORS
330
8FFB
102
}
330
8FFB
100
AcDbVisualStyle
  2
Facepattern
 70
    15
 71
     2
 72
     2
 73
     0
 90
        0
 40
-0.6
 41
-30.0
 62
     5
 63
     7
 74
     1
 91
        4
 64
     7
 65
   257
 75
     1
175
     1
 42
1.0
 92
        8
 66
     7
 43
1.0
 76
     1
 77
     6
 78
     2
 67
     7
 79
     5
170
     0
171
     0
290
     0
174
     0
 93
        1
 44
0.0
173
     0
291
     1
 45
0.0
1001
ACAD
1000
AcDbSavedByObjectVersion
1070
     0
  0
VISUALSTYLE
  5
8FFC
102
{ACAD_REACTORS
330
8FFB
102
}
330
8FFB
100
AcDbVisualStyle
  2
Flat
 70
     0
 71
     2
 72
     1
 73
     1
 90
        2
 40
-0.6
 41
30.0
 62
     5
 63
     7
 74
     0
 91
        4
 64
     7
 65
   257
 75
     1
175
     1
 42
1.0
 92
        8
 66
     7
 43
1.0
 76
     1
 77
     6
 78
     2
 67
     7
 79
     5
170
     0
171
     0
290
     0
174
     0
 93
       13
 44
0.0
173
     0
291
     1
 45
0.0
1001
ACAD
1000
AcDbSavedByObjectVersion
1070
     0
  0
VISUALSTYLE
  5
8FFD
102
{ACAD_REACTORS
330
8FFB
102
}
330
8FFB
100
AcDbVisualStyle
  2
FlatWithEdges
 70
     1
 71
     2
 72
     1
 73
     1
 90
        2
 40
-0.6
 41
30.0
 62
     5
 63
     7
 74
     1
 91
        4
 64
     7
 65
   257
 75
     1
175
     1
 42
1.0
 92
        0
 66
   257
 43
1.0
 76
     1
 77
     6
 78
     2
 67
     7
 79
     5
170
     0
171
     0
290
     0
174
     0
 93
       13
 44
0.0
173
     0
291
     1
 45
0.0
1001
ACAD
1000
AcDbSavedByObjectVersion
1070
     0
  0
VISUALSTYLE
  5
8FFE
102
{ACAD_REACTORS
330
8FFB
102
}
330
8FFB
100
AcDbVisualStyle
  2
Gouraud
 70
     2
 71
     2
 72
     2
 73
     1
 90
        2
 40
-0.6
 41
30.0
 62
     5
 63
     7
 74
     0
 91
        4
 64
     7
 65
   257
 75
     1
175
     1
 42
1.0
 92
        0
 66
     7
 43
1.0
 76
     1
 77
     6
 78
     2
 67
     7
 79
     5
170
     0
171
     0
290
     0
174
     0
 93
       13
 44
0.0
173
     0
291
     1
 45
0.0
1001
ACAD
1000
AcDbSavedByObjectVersion
1070
     0
  0
VISUALSTYLE
  5
8FFF
102
{ACAD_REACTORS
330
8FFB
102
}
330
8FFB
100
AcDbVisualStyle
  2
GouraudWithEdges
 70
     3
 71
     2
 72
     2
 73
     1
 90
        2
 40
-0.6
 41
30.0
 62
     5
 63
     7
 74
     1
 91
        4
 64
     7
 65
   257
 75
     1
175
     1
 42
1.0
 92
        0
 66
   257
 43
1.0
 76
     1
 77
     6
 78
     2
 67
     7
 79
     5
170
     0
171
     0
290
     0
174
     0
 93
       13
 44
0.0
173
     0
291
     1
 45
0.0
1001
ACAD
1000
AcDbSavedByObjectVersion
1070
     0
  0
VISUALSTYLE
  5
9009
102
{ACAD_REACTORS
330
8FFB
102
}
330
8FFB
100
AcDbVisualStyle
  2
Linepattern
 70
    14
 71
     2
 72
     2
 73
     0
 90
        0
 40
-0.6
 41
-30.0
 62
     5
 63
     7
 74
     1
 91
        4
 64
     7
 65
   257
 75
     7
175
     7
 42
1.0
 92
        8
 66
     7
 43
1.0
 76
     1
 77
     6
 78
     2
 67
     7
 79
     5
170
     0
171
     0
290
     0
174
     0
 93
        1
 44
0.0
173
     0
291
     1
 45
0.0
1001
ACAD
1000
AcDbSavedByObjectVersion
1070
     0
  0
VISUALSTYLE
  5
9005
102
{ACAD_REACTORS
330
8FFB
102
}
330
8FFB
100
AcDbVisualStyle
  2
Realistic
 70
     8
 71
     2
 72
     2
 73
     0
 90
        0
 40
-0.6
 41
-30.0
 62
     5
 63
     7
 74
     1
 91
        0
 64
     7
 65
   257
 75
     1
175
     1
 42
1.0
 92
        8
 66
     8
 43
1.0
 76
     1
 77
     6
 78
     2
 67
     7
 79
     5
170
     0
171
     0
290
     0
174
     0
 93
       13
 44
0.0
173
     0
291
     0
 45
0.0
1001
ACAD
1000
AcDbSavedByObjectVersion
1070
     0
  0
VISUALSTYLE
  5
9008
102
{ACAD_REACTORS
330
8FFB
102
}
330
8FFB
100
AcDbVisualStyle
  2
Thicken
 70
    13
 71
     2
 72
     2
 73
     0
 90
        0
 40
-0.6
 41
-30.0
 62
     5
 63
     7
 74
     1
 91
        4
 64
     7
 65
   257
 75
     1
175
     1
 42
1.0
 92
       12
 66
     7
 43
1.0
 76
     1
 77
     6
 78
     2
 67
     7
 79
     5
170
     0
171
     0
290
     0
174
     0
 93
        1
 44
0.0
173
     0
291
     1
 45
0.0
1001
ACAD
1000
AcDbSavedByObjectVersion
1070
     0
  0
DICTIONARYVAR
  5
91F2
102
{ACAD_REACTORS
330
789B
102
}
330
789B
100
DictionaryVariables
280
     0
  1
1:1
  0
DICTIONARYVAR
  5
91F1
102
{ACAD_REACTORS
330
789B
102
}
330
789B
100
DictionaryVariables
280
     0
  1
STANDARD
  0
DICTIONARYVAR
  5
91F0
102
{ACAD_REACTORS
330
789B
102
}
330
789B
100
DictionaryVariables
280
     0
  1
STANDARD
  0
DICTIONARYVAR
  5
8FE0
102
{ACAD_REACTORS
330
789B
102
}
330
789B
100
DictionaryVariables
280
     0
  1
1
  0
DICTIONARYVAR
  5
91F3
102
{ACAD_REACTORS
330
789B
102
}
330
789B
100
DictionaryVariables
280
     0
  1
0
  0
DICTIONARYVAR
  5
789C
102
{ACAD_REACTORS
330
789B
102
}
330
789B
100
DictionaryVariables
280
     0
  1
96
  0
DICTIONARY
  5
91FA
330
8661
100
AcDbDictionary
280
     1
281
     1
  3
ACAD_XREC_ROUNDTRIP
360
91FB
  0
DICTIONARY
  5
91FC
330
8662
100
AcDbDictionary
280
     1
281
     1
  3
ACAD_XREC_ROUNDTRIP
360
91FD
  0
DICTIONARY
  5
8FEC
330
8FEB
100
AcDbDictionary
280
     1
281
     1
  3
ACAD_XREC_ROUNDTRIP
360
91FF
  3
BUMPTILE
360
8FEE
  3
DIFFUSETILE
360
8FED
  3
OPACITYTILE
360
8FF1
  3
REFLECTIONTILE
360
8FF0
  3
REFRACTIONTILE
360
8FF2
  3
SPECULARTILE
360
8FEF
  0
DICTIONARY
  5
8FE4
330
8FE3
100
AcDbDictionary
280
     1
281
     1
  3
ACAD_XREC_ROUNDTRIP
360
91FE
  3
BUMPTILE
360
8FE6
  3
DIFFUSETILE
360
8FE5
  3
OPACITYTILE
360
8FE9
  3
REFLECTIONTILE
360
8FE8
  3
REFRACTIONTILE
360
8FEA
  3
SPECULARTILE
360
8FE7
  0
DICTIONARY
  5
8FF4
330
8FF3
100
AcDbDictionary
280
     1
281
     1
  3
ACAD_XREC_ROUNDTRIP
360
9200
  3
BUMPTILE
360
8FF6
  3
DIFFUSETILE
360
8FF5
  3
OPACITYTILE
360
8FF9
  3
REFLECTIONTILE
360
8FF8
  3
REFRACTIONTILE
360
8FFA
  3
SPECULARTILE
360
8FF7
  0
DICTIONARY
  5
91F4
330
900E
100
AcDbDictionary
280
     1
281
     1
  3
ACAD_ROUNDTRIP_2008_TABLESTYLE_CELLSTYLEMAP
360
91F5
  3
ACAD_XREC_ROUNDTRIP
360
9201
  0
XRECORD
  5
91FB
102
{ACAD_REACTORS
330
91FA
102
}
330
91FA
100
AcDbXrecord
280
     1
102
SHADEPLOT
 70
     0
102
SHADEPLOTRESLEVEL
 70
     2
102
SHADEPLOTCUSTOMDPI
 70
   300
  0
XRECORD
  5
91FD
102
{ACAD_REACTORS
330
91FC
102
}
330
91FC
100
AcDbXrecord
280
     1
102
SHADEPLOT
 70
     0
102
SHADEPLOTRESLEVEL
 70
     2
102
SHADEPLOTCUSTOMDPI
 70
   300
  0
XRECORD
  5
91FF
102
{ACAD_REACTORS
330
8FEC
102
}
330
8FEC
100
AcDbXrecord
280
     1
102
MATERIAL
148
0.0
149
0.0
149
0.0
 93
        0
 94
      127
282
     0
 72
     0
 77
     0
171
     0
175
     0
179
     0
273
     0
  0
XRECORD
  5
8FEE
102
{ACAD_REACTORS
330
8FEC
102
}
330
8FEC
100
AcDbXrecord
280
     1
270
     1
271
     1
  0
XRECORD
  5
8FED
102
{ACAD_REACTORS
330
8FEC
102
}
330
8FEC
100
AcDbXrecord
280
     1
270
     1
271
     1
  0
XRECORD
  5
8FF1
102
{ACAD_REACTORS
330
8FEC
102
}
330
8FEC
100
AcDbXrecord
280
     1
270
     1
271
     1
  0
XRECORD
  5
8FF0
102
{ACAD_REACTORS
330
8FEC
102
}
330
8FEC
100
AcDbXrecord
280
     1
270
     1
271
     1
  0
XRECORD
  5
8FF2
102
{ACAD_REACTORS
330
8FEC
102
}
330
8FEC
100
AcDbXrecord
280
     1
270
     1
271
     1
  0
XRECORD
  5
8FEF
102
{ACAD_REACTORS
330
8FEC
102
}
330
8FEC
100
AcDbXrecord
280
     1
270
     1
271
     1
  0
XRECORD
  5
91FE
102
{ACAD_REACTORS
330
8FE4
102
}
330
8FE4
100
AcDbXrecord
280
     1
102
MATERIAL
148
0.0
149
0.0
149
0.0
 93
        0
 94
      127
282
     0
 72
     0
 77
     0
171
     0
175
     0
179
     0
273
     0
  0
XRECORD
  5
8FE6
102
{ACAD_REACTORS
330
8FE4
102
}
330
8FE4
100
AcDbXrecord
280
     1
270
     1
271
     1
  0
XRECORD
  5
8FE5
102
{ACAD_REACTORS
330
8FE4
102
}
330
8FE4
100
AcDbXrecord
280
     1
270
     1
271
     1
  0
XRECORD
  5
8FE9
102
{ACAD_REACTORS
330
8FE4
102
}
330
8FE4
100
AcDbXrecord
280
     1
270
     1
271
     1
  0
XRECORD
  5
8FE8
102
{ACAD_REACTORS
330
8FE4
102
}
330
8FE4
100
AcDbXrecord
280
     1
270
     1
271
     1
  0
XRECORD
  5
8FEA
102
{ACAD_REACTORS
330
8FE4
102
}
330
8FE4
100
AcDbXrecord
280
     1
270
     1
271
     1
  0
XRECORD
  5
8FE7
102
{ACAD_REACTORS
330
8FE4
102
}
330
8FE4
100
AcDbXrecord
280
     1
270
     1
271
     1
  0
XRECORD
  5
9200
102
{ACAD_REACTORS
330
8FF4
102
}
330
8FF4
100
AcDbXrecord
280
     1
102
MATERIAL
148
0.0
149
0.0
149
0.0
 93
        0
 94
      127
282
     0
 72
     0
 77
     0
171
     0
175
     0
179
     0
273
     0
  0
XRECORD
  5
8FF6
102
{ACAD_REACTORS
330
8FF4
102
}
330
8FF4
100
AcDbXrecord
280
     1
270
     1
271
     1
  0
XRECORD
  5
8FF5
102
{ACAD_REACTORS
330
8FF4
102
}
330
8FF4
100
AcDbXrecord
280
     1
270
     1
271
     1
  0
XRECORD
  5
8FF9
102
{ACAD_REACTORS
330
8FF4
102
}
330
8FF4
100
AcDbXrecord
280
     1
270
     1
271
     1
  0
XRECORD
  5
8FF8
102
{ACAD_REACTORS
330
8FF4
102
}
330
8FF4
100
AcDbXrecord
280
     1
270
     1
271
     1
  0
XRECORD
  5
8FFA
102
{ACAD_REACTORS
330
8FF4
102
}
330
8FF4
100
AcDbXrecord
280
     1
270
     1
271
     1
  0
XRECORD
  5
8FF7
102
{ACAD_REACTORS
330
8FF4
102
}
330
8FF4
100
AcDbXrecord
280
     1
270
     1
271
     1
  0
CELLSTYLEMAP
  5
91F5
102
{ACAD_REACTORS
330
91F4
102
}
330
91F4
100
AcDbCellStyleMap
 90
        3
300
CELLSTYLE
  1
TABLEFORMAT_BEGIN
 90
        5
170
     1
 91
        0
 92
    32768
 62
   257
 93
        1
300
CONTENTFORMAT
  1
CONTENTFORMAT_BEGIN
 90
        0
 91
        0
 92
      512
 93
        0
300

 40
0.0
140
1.0
 94
        5
 62
     0
340
7475
144
6.0
309
CONTENTFORMAT_END
171
     1
301
MARGIN
  1
CELLMARGIN_BEGIN
 40
1.5
 40
1.5
 40
1.5
 40
1.5
 40
4.5
 40
4.5
309
CELLMARGIN_END
 94
        6
 95
        1
302
GRIDFORMAT
  1
GRIDFORMAT_BEGIN
 90
        0
 91
        1
 62
     0
 92
       -2
340
0
 93
        0
 40
1.125
309
GRIDFORMAT_END
 95
        2
302
GRIDFORMAT
  1
GRIDFORMAT_BEGIN
 90
        0
 91
        1
 62
     0
 92
       -2
340
0
 93
        0
 40
1.125
309
GRIDFORMAT_END
 95
        4
302
GRIDFORMAT
  1
GRIDFORMAT_BEGIN
 90
        0
 91
        1
 62
     0
 92
       -2
340
0
 93
        0
 40
1.125
309
GRIDFORMAT_END
 95
        8
302
GRIDFORMAT
  1
GRIDFORMAT_BEGIN
 90
        0
 91
        1
 62
     0
 92
       -2
340
0
 93
        0
 40
1.125
309
GRIDFORMAT_END
 95
       16
302
GRIDFORMAT
  1
GRIDFORMAT_BEGIN
 90
        0
 91
        1
 62
     0
 92
       -2
340
0
 93
        0
 40
1.125
309
GRIDFORMAT_END
 95
       32
302
GRIDFORMAT
  1
GRIDFORMAT_BEGIN
 90
        0
 91
        1
 62
     0
 92
       -2
340
0
 93
        0
 40
1.125
309
GRIDFORMAT_END
309
TABLEFORMAT_END
  1
CELLSTYLE_BEGIN
 90
        1
 91
        1
300
_TITLE
309
CELLSTYLE_END
300
CELLSTYLE
  1
TABLEFORMAT_BEGIN
 90
        5
170
     1
 91
        0
 92
        0
 62
   257
 93
        1
300
CONTENTFORMAT
  1
CONTENTFORMAT_BEGIN
 90
        0
 91
        0
 92
      512
 93
        0
300

 40
0.0
140
1.0
 94
        5
 62
     0
340
7475
144
4.5
309
CONTENTFORMAT_END
171
     1
301
MARGIN
  1
CELLMARGIN_BEGIN
 40
1.5
 40
1.5
 40
1.5
 40
1.5
 40
4.5
 40
4.5
309
CELLMARGIN_END
 94
        6
 95
        1
302
GRIDFORMAT
  1
GRIDFORMAT_BEGIN
 90
        0
 91
        1
 62
     0
 92
       -2
340
0
 93
        0
 40
1.125
309
GRIDFORMAT_END
 95
        2
302
GRIDFORMAT
  1
GRIDFORMAT_BEGIN
 90
        0
 91
        1
 62
     0
 92
       -2
340
0
 93
        0
 40
1.125
309
GRIDFORMAT_END
 95
        4
302
GRIDFORMAT
  1
GRIDFORMAT_BEGIN
 90
        0
 91
        1
 62
     0
 92
       -2
340
0
 93
        0
 40
1.125
309
GRIDFORMAT_END
 95
        8
302
GRIDFORMAT
  1
GRIDFORMAT_BEGIN
 90
        0
 91
        1
 62
     0
 92
       -2
340
0
 93
        0
 40
1.125
309
GRIDFORMAT_END
 95
       16
302
GRIDFORMAT
  1
GRIDFORMAT_BEGIN
 90
        0
 91
        1
 62
     0
 92
       -2
340
0
 93
        0
 40
1.125
309
GRIDFORMAT_END
 95
       32
302
GRIDFORMAT
  1
GRIDFORMAT_BEGIN
 90
        0
 91
        1
 62
     0
 92
       -2
340
0
 93
        0
 40
1.125
309
GRIDFORMAT_END
309
TABLEFORMAT_END
  1
CELLSTYLE_BEGIN
 90
        2
 91
        1
300
_HEADER
309
CELLSTYLE_END
300
CELLSTYLE
  1
TABLEFORMAT_BEGIN
 90
        5
170
     1
 91
        0
 92
        0
 62
   257
 93
        1
300
CONTENTFORMAT
  1
CONTENTFORMAT_BEGIN
 90
        0
 91
        0
 92
      512
 93
        0
300

 40
0.0
140
1.0
 94
        2
 62
     0
340
7475
144
4.5
309
CONTENTFORMAT_END
171
     1
301
MARGIN
  1
CELLMARGIN_BEGIN
 40
1.5
 40
1.5
 40
1.5
 40
1.5
 40
4.5
 40
4.5
309
CELLMARGIN_END
 94
        6
 95
        1
302
GRIDFORMAT
  1
GRIDFORMAT_BEGIN
 90
        0
 91
        1
 62
     0
 92
       -2
340
0
 93
        0
 40
1.125
309
GRIDFORMAT_END
 95
        2
302
GRIDFORMAT
  1
GRIDFORMAT_BEGIN
 90
        0
 91
        1
 62
     0
 92
       -2
340
0
 93
        0
 40
1.125
309
GRIDFORMAT_END
 95
        4
302
GRIDFORMAT
  1
GRIDFORMAT_BEGIN
 90
        0
 91
        1
 62
     0
 92
       -2
340
0
 93
        0
 40
1.125
309
GRIDFORMAT_END
 95
        8
302
GRIDFORMAT
  1
GRIDFORMAT_BEGIN
 90
        0
 91
        1
 62
     0
 92
       -2
340
0
 93
        0
 40
1.125
309
GRIDFORMAT_END
 95
       16
302
GRIDFORMAT
  1
GRIDFORMAT_BEGIN
 90
        0
 91
        1
 62
     0
 92
       -2
340
0
 93
        0
 40
1.125
309
GRIDFORMAT_END
 95
       32
302
GRIDFORMAT
  1
GRIDFORMAT_BEGIN
 90
        0
 91
        1
 62
     0
 92
       -2
340
0
 93
        0
 40
1.125
309
GRIDFORMAT_END
309
TABLEFORMAT_END
  1
CELLSTYLE_BEGIN
 90
        3
 91
        2
300
_DATA
309
CELLSTYLE_END
  0
XRECORD
  5
9201
102
{ACAD_REACTORS
330
91F4
102
}
330
91F4
100
AcDbXrecord
280
     1
102
ACAD_ROUNDTRIP_PRE2007_TABLESTYLE
 90
      512
 91
        0
  1

 92
      512
 93
        0
  2

 94
      512
 95
        0
  3

  0
ENDSEC
  0
EOF
