  0
SECTION
  2
HEADER
  9
$ACADVER
  1
AC1015
  9
$ACADMAINTVER
 70
    13
  9
$DWGCODEPAGE
  3
ANSI_932
  9
$INSBASE
 10
0.0
 20
0.0
 30
0.0
  9
$EXTMIN
 10
-0.5029872636587243
 20
-0.160205061749366
 30
-0.0015258207003583
  9
$EXTMAX
 10
7425.368315931875
 20
5250.160229994919
 30
0.0000000349246037
  9
$LIMMIN
 10
0.0
 20
0.0
  9
$LIMMAX
 10
420.0
 20
297.0
  9
$ORTHOMODE
 70
     1
  9
$REGENMODE
 70
     1
  9
$FILLMODE
 70
     1
  9
$QTEXTMODE
 70
     0
  9
$MIRRTEXT
 70
     1
  9
$LTSCALE
 40
0.5
  9
$ATTMODE
 70
     1
  9
$TEXTSIZE
 40
2.799999999999999
  9
$TRACEWID
 40
1.0
  9
$TEXTSTYLE
  7
SANWA
  9
$CLAYER
  8
0
  9
$CELTYPE
  6
BYLAYER
  9
$CECOLOR
 62
   256
  9
$CELTSCALE
 40
25.0
  9
$DISPSILH
 70
     0
  9
$DIMSCALE
 40
25.0
  9
$DIMASZ
 40
1.5
  9
$DIMEXO
 40
1.0
  9
$DIMDLI
 40
5.0
  9
$DIMRND
 40
0.0
  9
$DIMDLE
 40
0.0
  9
$DIMEXE
 40
0.5
  9
$DIMTP
 40
0.0
  9
$DIMTM
 40
0.0
  9
$DIMTXT
 40
2.0
  9
$DIMCEN
 40
0.0
  9
$DIMTSZ
 40
0.0
  9
$DIMTOL
 70
     0
  9
$DIMLIM
 70
     0
  9
$DIMTIH
 70
     0
  9
$DIMTOH
 70
     0
  9
$DIMSE1
 70
     0
  9
$DIMSE2
 70
     0
  9
$DIMTAD
 70
     1
  9
$DIMZIN
 70
     8
  9
$DIMBLK
  1

  9
$DIMASO
 70
     1
  9
$DIMSHO
 70
     1
  9
$DIMPOST
  1

  9
$DIMAPOST
  1

  9
$DIMALT
 70
     0
  9
$DIMALTD
 70
     2
  9
$DIMALTF
 40
0.0394
  9
$DIMLFAC
 40
1.0
  9
$DIMTOFL
 70
     1
  9
$DIMTVP
 40
0.0
  9
$DIMTIX
 70
     1
  9
$DIMSOXD
 70
     0
  9
$DIMSAH
 70
     0
  9
$DIMBLK1
  1

  9
$DIMBLK2
  1

  9
$DIMSTYLE
  2
SANWA
  9
$DIMCLRD
 70
   256
  9
$DIMCLRE
 70
   256
  9
$DIMCLRT
 70
   256
  9
$DIMTFAC
 40
1.0
  9
$DIMGAP
 40
1.0
  9
$DIMJUST
 70
     0
  9
$DIMSD1
 70
     0
  9
$DIMSD2
 70
     0
  9
$DIMTOLJ
 70
     1
  9
$DIMTZIN
 70
     0
  9
$DIMALTZ
 70
     0
  9
$DIMALTTZ
 70
     0
  9
$DIMUPT
 70
     0
  9
$DIMDEC
 70
     4
  9
$DIMTDEC
 70
     4
  9
$DIMALTU
 70
     2
  9
$DIMALTTD
 70
     2
  9
$DIMTXSTY
  7
SANWA
  9
$DIMAUNIT
 70
     0
  9
$DIMADEC
 70
     0
  9
$DIMALTRND
 40
0.0
  9
$DIMAZIN
 70
     0
  9
$DIMDSEP
 70
    46
  9
$DIMATFIT
 70
     3
  9
$DIMFRAC
 70
     0
  9
$DIMLDRBLK
  1

  9
$DIMLUNIT
 70
     2
  9
$DIMLWD
 70
    -2
  9
$DIMLWE
 70
    -2
  9
$DIMTMOVE
 70
     0
  9
$LUNITS
 70
     2
  9
$LUPREC
 70
     4
  9
$SKETCHINC
 40
1.0
  9
$FILLETRAD
 40
56.0
  9
$AUNITS
 70
     0
  9
$AUPREC
 70
     0
  9
$MENU
  1
acad
  9
$ELEVATION
 40
0.0
  9
$PELEVATION
 40
0.0
  9
$THICKNESS
 40
0.0
  9
$LIMCHECK
 70
     0
  9
$CHAMFERA
 40
0.0
  9
$CHAMFERB
 40
0.0
  9
$CHAMFERC
 40
0.0
  9
$CHAMFERD
 40
0.0
  9
$SKPOLY
 70
     1
  9
$TDCREATE
 40
2451853.356564930
  9
$TDUCREATE
 40
2451852.981564930
  9
$TDUPDATE
 40
2454167.484277337
  9
$TDUUPDATE
 40
2454167.109277337
  9
$TDINDWG
 40
0.5055635185
  9
$TDUSRTIMER
 40
0.5055635185
  9
$USRTIMER
 70
     1
  9
$ANGBASE
 50
0.0
  9
$ANGDIR
 70
     0
  9
$PDMODE
 70
     0
  9
$PDSIZE
 40
0.0
  9
$PLINEWID
 40
0.0
  9
$SPLFRAME
 70
     0
  9
$SPLINETYPE
 70
     6
  9
$SPLINESEGS
 70
     8
  9
$HANDSEED
  5
B0AC
  9
$SURFTAB1
 70
     6
  9
$SURFTAB2
 70
     6
  9
$SURFTYPE
 70
     6
  9
$SURFU
 70
     6
  9
$SURFV
 70
     6
  9
$UCSBASE
  2

  9
$UCSNAME
  2

  9
$UCSORG
 10
0.0
 20
0.0
 30
0.0
  9
$UCSXDIR
 10
1.0
 20
0.0
 30
0.0
  9
$UCSYDIR
 10
0.0
 20
1.0
 30
0.0
  9
$UCSORTHOREF
  2

  9
$UCSORTHOVIEW
 70
     0
  9
$UCSORGTOP
 10
0.0
 20
0.0
 30
0.0
  9
$UCSORGBOTTOM
 10
0.0
 20
0.0
 30
0.0
  9
$UCSORGLEFT
 10
0.0
 20
0.0
 30
0.0
  9
$UCSORGRIGHT
 10
0.0
 20
0.0
 30
0.0
  9
$UCSORGFRONT
 10
0.0
 20
0.0
 30
0.0
  9
$UCSORGBACK
 10
0.0
 20
0.0
 30
0.0
  9
$PUCSBASE
  2

  9
$PUCSNAME
  2

  9
$PUCSORG
 10
0.0
 20
0.0
 30
0.0
  9
$PUCSXDIR
 10
1.0
 20
0.0
 30
0.0
  9
$PUCSYDIR
 10
0.0
 20
1.0
 30
0.0
  9
$PUCSORTHOREF
  2

  9
$PUCSORTHOVIEW
 70
     0
  9
$PUCSORGTOP
 10
0.0
 20
0.0
 30
0.0
  9
$PUCSORGBOTTOM
 10
0.0
 20
0.0
 30
0.0
  9
$PUCSORGLEFT
 10
0.0
 20
0.0
 30
0.0
  9
$PUCSORGRIGHT
 10
0.0
 20
0.0
 30
0.0
  9
$PUCSORGFRONT
 10
0.0
 20
0.0
 30
0.0
  9
$PUCSORGBACK
 10
0.0
 20
0.0
 30
0.0
  9
$USERI1
 70
     0
  9
$USERI2
 70
     0
  9
$USERI3
 70
     0
  9
$USERI4
 70
     0
  9
$USERI5
 70
     0
  9
$USERR1
 40
0.0
  9
$USERR2
 40
0.0
  9
$USERR3
 40
0.0
  9
$USERR4
 40
0.0
  9
$USERR5
 40
0.0
  9
$WORLDVIEW
 70
     1
  9
$SHADEDGE
 70
     3
  9
$SHADEDIF
 70
    70
  9
$TILEMODE
 70
     1
  9
$MAXACTVP
 70
    48
  9
$PINSBASE
 10
0.0
 20
0.0
 30
0.0
  9
$PLIMCHECK
 70
     0
  9
$PEXTMIN
 10
-6747.711967593216
 20
-3551.957062841418
 30
-0.0015258207003583
  9
$PEXTMAX
 10
-6450.233007706005
 20
-3341.708565184451
 30
0.0000000349246037
  9
$PLIMMIN
 10
-6753.927705889044
 20
-3558.240741394798
  9
$PLIMMAX
 10
-6436.211315364852
 20
-3333.590740451718
  9
$UNITMODE
 70
     0
  9
$VISRETAIN
 70
     1
  9
$PLINEGEN
 70
     0
  9
$PSLTSCALE
 70
     1
  9
$TREEDEPTH
 70
  3020
  9
$CMLSTYLE
  2
STANDARD
  9
$CMLJUST
 70
     0
  9
$CMLSCALE
 40
1.0
  9
$PROXYGRAPHICS
 70
     1
  9
$MEASUREMENT
 70
     1
  9
$CELWEIGHT
370
    -1
  9
$ENDCAPS
280
     0
  9
$JOINSTYLE
280
     0
  9
$LWDISPLAY
290
     0
  9
$INSUNITS
 70
     0
  9
$HYPERLINKBASE
  1

  9
$STYLESHEET
  1
sanwa3.ctb
  9
$XEDIT
290
     1
  9
$CEPSNTYPE
380
     0
  9
$PSTYLEMODE
290
     1
  9
$FINGERPRINTGUID
  2
{FB77AE59-1C4F-4E84-B14F-D27DC760AE27}
  9
$VERSIONGUID
  2
{BB209651-615D-4D29-8B47-2229D3E59464}
  9
$EXTNAMES
290
     1
  9
$PSVPSCALE
 40
0.0
  9
$OLESTARTUP
290
     0
  0
ENDSEC
  0
SECTION
  2
CLASSES
  0
CLASS
  1
LWPOLYLINE
  2
AcDbPolyline
  3
AutoCAD 2000
 90
    32768
280
     0
281
     1
  0
CLASS
  1
DICTIONARYVAR
  2
AcDbDictionaryVar
  3
AutoCAD 2000
 90
        0
280
     0
281
     0
  0
CLASS
  1
HATCH
  2
AcDbHatch
  3
AutoCAD 2000
 90
    32768
280
     0
281
     1
  0
CLASS
  1
ACDBDICTIONARYWDFLT
  2
AcDbDictionaryWithDefault
  3
AutoCAD 2000
 90
        0
280
     0
281
     0
  0
CLASS
  1
ACDBPLACEHOLDER
  2
AcDbPlaceHolder
  3
AutoCAD 2000
 90
        0
280
     0
281
     0
  0
CLASS
  1
LAYOUT
  2
AcDbLayout
  3
AutoCAD 2000
 90
        0
280
     0
281
     0
  0
ENDSEC
  0
SECTION
  2
TABLES
  0
TABLE
  2
VPORT
  5
746D
330
0
100
AcDbSymbolTable
 70
     2
  0
VPORT
  5
B0AB
330
746D
100
AcDbSymbolTableRecord
100
AcDbViewportTableRecord
  2
*Active
 70
     0
 10
0.0
 20
0.0
 11
1.0
 21
1.0
 12
3712.432647899776
 22
2625.000000391743
 13
0.0
 23
0.0
 14
10.0
 24
10.0
 15
10.0
 25
10.0
 16
0.0
 26
0.0
 36
1.0
 17
0.0
 27
0.0
 37
0.0
 40
5857.746207501023
 41
1.393129770992366
 42
50.0
 43
0.0
 44
0.0
 50
0.0
 51
0.0
 71
     0
 72
   100
 73
     1
 74
     0
 75
     0
 76
     0
 77
     0
 78
     0
281
     0
 65
     1
110
0.0
120
0.0
130
0.0
111
1.0
121
0.0
131
0.0
112
0.0
122
1.0
132
0.0
 79
     0
146
0.0
  0
ENDTAB
  0
TABLE
  2
LTYPE
  5
746A
330
0
100
AcDbSymbolTable
 70
     5
  0
LTYPE
  5
7477
330
746A
100
AcDbSymbolTableRecord
100
AcDbLinetypeTableRecord
  2
BYBLOCK
 70
     0
  3

 72
    65
 73
     0
 40
0.0
  0
LTYPE
  5
7478
330
746A
100
AcDbSymbolTableRecord
100
AcDbLinetypeTableRecord
  2
BYLAYER
 70
     0
  3

 72
    65
 73
     0
 40
0.0
  0
LTYPE
  5
7479
330
746A
100
AcDbSymbolTableRecord
100
AcDbLinetypeTableRecord
  2
CONTINUOUS
 70
     0
  3
Solid line
 72
    65
 73
     0
 40
0.0
  0
LTYPE
  5
7D54
330
746A
100
AcDbSymbolTableRecord
100
AcDbLinetypeTableRecord
  2
CENTER2
 70
     0
  3
Center (.5x) ___ _ ___ _ ___ _ ___ _ ___ _ ___
 72
    65
 73
     4
 40
28.57499999999999
 49
19.05
 74
     0
 49
-3.174999999999999
 74
     0
 49
3.174999999999999
 74
     0
 49
-3.174999999999999
 74
     0
  0
LTYPE
  5
7D55
330
746A
100
AcDbSymbolTableRecord
100
AcDbLinetypeTableRecord
  2
DOT
 70
     0
  3
Dot . . . . . . . . . . . . . . . . . . . . . .
 72
    65
 73
     2
 40
6.349999999999999
 49
0.0
 74
     0
 49
-6.349999999999999
 74
     0
  0
LTYPE
  5
7D56
330
746A
100
AcDbSymbolTableRecord
100
AcDbLinetypeTableRecord
  2
HIDDEN2
 70
     0
  3
Hidden (.5x) _ _ _ _ _ _ _ _ _ _ _ _ _ _ _ _ _
 72
    65
 73
     2
 40
4.762499999999999
 49
3.174999999999999
 74
     0
 49
-1.587499999999999
 74
     0
  0
LTYPE
  5
7D57
330
746A
100
AcDbSymbolTableRecord
100
AcDbLinetypeTableRecord
  2
PHANTOM2
 70
     0
  3
Phantom (.5x) ___ _ _ ___ _ _ ___ _ _ ___ _ _
 72
    65
 73
     6
 40
31.75
 49
15.875
 74
     0
 49
-3.174999999999999
 74
     0
 49
3.174999999999999
 74
     0
 49
-3.174999999999999
 74
     0
 49
3.174999999999999
 74
     0
 49
-3.174999999999999
 74
     0
  0
ENDTAB
  0
TABLE
  2
LAYER
  5
7467
330
0
100
AcDbSymbolTable
 70
     7
  0
LAYER
  5
7474
330
7467
100
AcDbSymbolTableRecord
100
AcDbLayerTableRecord
  2
0
 70
     0
 62
     7
  6
CONTINUOUS
370
    -3
390
7DA3
  0
LAYER
  5
7485
330
7467
100
AcDbSymbolTableRecord
100
AcDbLayerTableRecord
  2
DEFPOINTS
 70
     0
 62
     7
  6
CONTINUOUS
290
     0
370
    -3
390
7DA3
  0
LAYER
  5
7486
330
7467
100
AcDbSymbolTableRecord
100
AcDbLayerTableRecord
  2
OBJECT
 70
     0
 62
     7
  6
CONTINUOUS
370
    -3
390
7DA3
  0
LAYER
  5
7950
330
7467
100
AcDbSymbolTableRecord
100
AcDbLayerTableRecord
  2
枠
 70
     0
 62
     3
  6
CONTINUOUS
370
    -3
390
7DA3
  0
LAYER
  5
7D58
330
7467
100
AcDbSymbolTableRecord
100
AcDbLayerTableRecord
  2
寸法引出
 70
     0
 62
     2
  6
CONTINUOUS
370
    -3
390
7DA3
  0
LAYER
  5
7D59
330
7467
100
AcDbSymbolTableRecord
100
AcDbLayerTableRecord
  2
鉄筋
 70
     0
 62
     4
  6
CONTINUOUS
370
    -3
390
7DA3
  0
LAYER
  5
7D5A
330
7467
100
AcDbSymbolTableRecord
100
AcDbLayerTableRecord
  2
補助線
 70
     0
 62
     6
  6
CONTINUOUS
370
    -3
390
7DA3
  0
ENDTAB
  0
TABLE
  2
STYLE
  5
7468
330
0
100
AcDbSymbolTable
 70
     4
  0
STYLE
  5
7475
330
7468
100
AcDbSymbolTableRecord
100
AcDbTextStyleTableRecord
  2
STANDARD
 70
     0
 40
0.0
 41
1.0
 50
0.0
 71
     0
 42
3.5
  3
txt
  4

  0
STYLE
  5
7481
330
7468
100
AcDbSymbolTableRecord
100
AcDbTextStyleTableRecord
  2
ADESK1
 70
     0
 40
0.0
 41
1.0
 50
0.0
 71
     0
 42
5.0
  3
romans
  4
bigfont
  0
STYLE
  5
7731
330
7468
100
AcDbSymbolTableRecord
100
AcDbTextStyleTableRecord
  2
SANWA
 70
     0
 40
0.0
 41
1.0
 50
0.0
 71
     0
 42
2.799999999999999
  3
MS Mincho.ttf
  4

1001
ACAD
1000
MS Mincho
1071
    32785
  0
STYLE
  5
7D45
330
7468
100
AcDbSymbolTableRecord
100
AcDbTextStyleTableRecord
  2

 70
     1
 40
0.0
 41
1.0
 50
0.0
 71
     0
 42
3.5
  3
ltypeshp.shx
  4

  0
ENDTAB
  0
TABLE
  2
VIEW
  5
746B
330
0
100
AcDbSymbolTable
 70
     0
  0
ENDTAB
  0
TABLE
  2
UCS
  5
746C
330
0
100
AcDbSymbolTable
 70
     0
  0
ENDTAB
  0
TABLE
  2
APPID
  5
746E
330
0
100
AcDbSymbolTable
 70
     1
  0
APPID
  5
7476
330
746E
100
AcDbSymbolTableRecord
100
AcDbRegAppTableRecord
  2
ACAD
 70
     0
  0
ENDTAB
  0
TABLE
  2
DIMSTYLE
  5
746F
330
0
100
AcDbSymbolTable
 70
     4
100
AcDbDimStyleTable
 71
     1
340
796F
  0
DIMSTYLE
105
7484
330
746F
100
AcDbSymbolTableRecord
100
AcDbDimStyleTableRecord
  2
JIS
 70
     0
 41
2.5
 42
1.0
 43
7.0
 44
1.0
 73
     0
 74
     0
 77
     1
 78
     8
140
2.5
141
0.0
143
0.0394
147
0.0
172
     1
174
     1
176
     2
177
     2
178
     2
340
7731
  0
DIMSTYLE
105
796F
102
{ACAD_REACTORS
330
99A2
330
99AF
330
99BC
330
99E5
330
99F2
330
99FF
330
9A0C
330
9A19
330
9A26
330
9A33
330
9A42
330
9A51
330
9A89
330
9A96
330
9AA8
330
9AFB
330
9B0D
330
9B1A
330
9B27
330
9B35
330
9B68
330
9B83
330
9CE9
330
9D78
330
9D85
330
9D94
330
9DA3
330
9DBE
330
9EA9
330
9EB6
330
9EDD
330
9EEA
330
9EF7
330
9F06
330
9F13
102
}
330
746F
100
AcDbSymbolTableRecord
100
AcDbDimStyleTableRecord
  2
SANWA
 70
     0
 41
2.5
 42
1.0
 43
7.0
 44
1.0
 73
     0
 74
     0
 77
     1
 78
     8
140
2.5
141
0.0
143
0.0394
147
0.0
172
     1
174
     1
176
     2
177
     2
178
     2
340
7731
  0
DIMSTYLE
105
7C9D
330
746F
100
AcDbSymbolTableRecord
100
AcDbDimStyleTableRecord
  2
SANWA$4
 70
     0
 41
2.5
 42
1.0
 43
5.0
 44
1.0
 73
     0
 74
     0
 77
     1
 78
     8
140
2.5
141
0.0
143
0.0394
147
1.0
172
     1
174
     1
176
     2
177
     2
178
     2
289
     2
340
7731
  0
DIMSTYLE
105
7CB5
330
746F
100
AcDbSymbolTableRecord
100
AcDbDimStyleTableRecord
  2
SANWA$3
 70
     0
 41
2.5
 42
1.0
 43
7.0
 44
1.0
 73
     0
 74
     0
 77
     1
 78
     8
140
2.5
141
0.0
143
0.0394
147
0.0
172
     1
174
     1
176
     2
177
     2
178
     2
289
     0
340
7731
  0
ENDTAB
  0
TABLE
  2
BLOCK_RECORD
  5
7466
330
0
100
AcDbSymbolTable
 70
    70
  0
BLOCK_RECORD
  5
747D
330
7466
100
AcDbSymbolTableRecord
100
AcDbBlockTableRecord
  2
*MODEL_SPACE
340
7DA6
  0
BLOCK_RECORD
  5
747A
330
7466
100
AcDbSymbolTableRecord
100
AcDbBlockTableRecord
  2
*PAPER_SPACE
340
7DA7
  0
BLOCK_RECORD
  5
7493
330
7466
100
AcDbSymbolTableRecord
100
AcDbBlockTableRecord
  2
TITLE_BLOCK
340
0
  0
BLOCK_RECORD
  5
7EAA
330
7466
100
AcDbSymbolTableRecord
100
AcDbBlockTableRecord
  2
*D1
340
0
  0
BLOCK_RECORD
  5
7EB8
330
7466
100
AcDbSymbolTableRecord
100
AcDbBlockTableRecord
  2
*D2
340
0
  0
BLOCK_RECORD
  5
7EC6
330
7466
100
AcDbSymbolTableRecord
100
AcDbBlockTableRecord
  2
*D3
340
0
  0
BLOCK_RECORD
  5
7ED2
330
7466
100
AcDbSymbolTableRecord
100
AcDbBlockTableRecord
  2
*D4
340
0
  0
BLOCK_RECORD
  5
7EE0
330
7466
100
AcDbSymbolTableRecord
100
AcDbBlockTableRecord
  2
*D5
340
0
  0
BLOCK_RECORD
  5
7EEC
330
7466
100
AcDbSymbolTableRecord
100
AcDbBlockTableRecord
  2
*D6
340
0
  0
BLOCK_RECORD
  5
7EF8
330
7466
100
AcDbSymbolTableRecord
100
AcDbBlockTableRecord
  2
*D7
340
0
  0
BLOCK_RECORD
  5
7F06
330
7466
100
AcDbSymbolTableRecord
100
AcDbBlockTableRecord
  2
A$C56070A55
340
0
  0
BLOCK_RECORD
  5
99A3
330
7466
100
AcDbSymbolTableRecord
100
AcDbBlockTableRecord
  2
*D9
340
0
  0
BLOCK_RECORD
  5
99B0
330
7466
100
AcDbSymbolTableRecord
100
AcDbBlockTableRecord
  2
*D10
340
0
  0
BLOCK_RECORD
  5
99BD
330
7466
100
AcDbSymbolTableRecord
100
AcDbBlockTableRecord
  2
*D11
340
0
  0
BLOCK_RECORD
  5
99E6
330
7466
100
AcDbSymbolTableRecord
100
AcDbBlockTableRecord
  2
*D12
340
0
  0
BLOCK_RECORD
  5
99F3
330
7466
100
AcDbSymbolTableRecord
100
AcDbBlockTableRecord
  2
*D13
340
0
  0
BLOCK_RECORD
  5
9A00
330
7466
100
AcDbSymbolTableRecord
100
AcDbBlockTableRecord
  2
*D14
340
0
  0
BLOCK_RECORD
  5
9A0D
330
7466
100
AcDbSymbolTableRecord
100
AcDbBlockTableRecord
  2
*D15
340
0
  0
BLOCK_RECORD
  5
9A1A
330
7466
100
AcDbSymbolTableRecord
100
AcDbBlockTableRecord
  2
*D16
340
0
  0
BLOCK_RECORD
  5
9A27
330
7466
100
AcDbSymbolTableRecord
100
AcDbBlockTableRecord
  2
*D17
340
0
  0
BLOCK_RECORD
  5
9A34
330
7466
100
AcDbSymbolTableRecord
100
AcDbBlockTableRecord
  2
*D18
340
0
  0
BLOCK_RECORD
  5
9A43
330
7466
100
AcDbSymbolTableRecord
100
AcDbBlockTableRecord
  2
*D19
340
0
  0
BLOCK_RECORD
  5
9A52
330
7466
100
AcDbSymbolTableRecord
100
AcDbBlockTableRecord
  2
*D20
340
0
  0
BLOCK_RECORD
  5
9A8A
330
7466
100
AcDbSymbolTableRecord
100
AcDbBlockTableRecord
  2
*D21
340
0
  0
BLOCK_RECORD
  5
9A97
330
7466
100
AcDbSymbolTableRecord
100
AcDbBlockTableRecord
  2
*D22
340
0
  0
BLOCK_RECORD
  5
9AA9
330
7466
100
AcDbSymbolTableRecord
100
AcDbBlockTableRecord
  2
*D23
340
0
  0
BLOCK_RECORD
  5
9AFC
330
7466
100
AcDbSymbolTableRecord
100
AcDbBlockTableRecord
  2
*D24
340
0
  0
BLOCK_RECORD
  5
9B0E
330
7466
100
AcDbSymbolTableRecord
100
AcDbBlockTableRecord
  2
*D25
340
0
  0
BLOCK_RECORD
  5
9B1B
330
7466
100
AcDbSymbolTableRecord
100
AcDbBlockTableRecord
  2
*D26
340
0
  0
BLOCK_RECORD
  5
9B28
330
7466
100
AcDbSymbolTableRecord
100
AcDbBlockTableRecord
  2
*D27
340
0
  0
BLOCK_RECORD
  5
9B36
330
7466
100
AcDbSymbolTableRecord
100
AcDbBlockTableRecord
  2
*D28
340
0
  0
BLOCK_RECORD
  5
9B69
330
7466
100
AcDbSymbolTableRecord
100
AcDbBlockTableRecord
  2
*D29
340
0
  0
BLOCK_RECORD
  5
9B84
330
7466
100
AcDbSymbolTableRecord
100
AcDbBlockTableRecord
  2
*D30
340
0
  0
BLOCK_RECORD
  5
9CEA
330
7466
100
AcDbSymbolTableRecord
100
AcDbBlockTableRecord
  2
*D31
340
0
  0
BLOCK_RECORD
  5
9D79
330
7466
100
AcDbSymbolTableRecord
100
AcDbBlockTableRecord
  2
*D32
340
0
  0
BLOCK_RECORD
  5
9D86
330
7466
100
AcDbSymbolTableRecord
100
AcDbBlockTableRecord
  2
*D33
340
0
  0
BLOCK_RECORD
  5
9D95
330
7466
100
AcDbSymbolTableRecord
100
AcDbBlockTableRecord
  2
*D34
340
0
  0
BLOCK_RECORD
  5
9DA4
330
7466
100
AcDbSymbolTableRecord
100
AcDbBlockTableRecord
  2
*D35
340
0
  0
BLOCK_RECORD
  5
9DBF
330
7466
100
AcDbSymbolTableRecord
100
AcDbBlockTableRecord
  2
*D36
340
0
  0
BLOCK_RECORD
  5
9EAA
330
7466
100
AcDbSymbolTableRecord
100
AcDbBlockTableRecord
  2
*D37
340
0
  0
BLOCK_RECORD
  5
9EB7
330
7466
100
AcDbSymbolTableRecord
100
AcDbBlockTableRecord
  2
*D38
340
0
  0
BLOCK_RECORD
  5
9EDE
330
7466
100
AcDbSymbolTableRecord
100
AcDbBlockTableRecord
  2
*D39
340
0
  0
BLOCK_RECORD
  5
9EEB
330
7466
100
AcDbSymbolTableRecord
100
AcDbBlockTableRecord
  2
*D40
340
0
  0
BLOCK_RECORD
  5
9EF8
330
7466
100
AcDbSymbolTableRecord
100
AcDbBlockTableRecord
  2
*D41
340
0
  0
BLOCK_RECORD
  5
9F07
330
7466
100
AcDbSymbolTableRecord
100
AcDbBlockTableRecord
  2
*D42
340
0
  0
BLOCK_RECORD
  5
9F14
330
7466
100
AcDbSymbolTableRecord
100
AcDbBlockTableRecord
  2
*D43
340
0
  0
BLOCK_RECORD
  5
A07E
330
7466
100
AcDbSymbolTableRecord
100
AcDbBlockTableRecord
  2
*D44
340
0
  0
BLOCK_RECORD
  5
A08A
330
7466
100
AcDbSymbolTableRecord
100
AcDbBlockTableRecord
  2
*D45
340
0
  0
BLOCK_RECORD
  5
A096
330
7466
100
AcDbSymbolTableRecord
100
AcDbBlockTableRecord
  2
*D46
340
0
  0
BLOCK_RECORD
  5
A0A2
330
7466
100
AcDbSymbolTableRecord
100
AcDbBlockTableRecord
  2
*D47
340
0
  0
BLOCK_RECORD
  5
A0AE
330
7466
100
AcDbSymbolTableRecord
100
AcDbBlockTableRecord
  2
*D48
340
0
  0
BLOCK_RECORD
  5
A0BC
330
7466
100
AcDbSymbolTableRecord
100
AcDbBlockTableRecord
  2
*D49
340
0
  0
BLOCK_RECORD
  5
A0CA
330
7466
100
AcDbSymbolTableRecord
100
AcDbBlockTableRecord
  2
*D50
340
0
  0
BLOCK_RECORD
  5
A0FA
330
7466
100
AcDbSymbolTableRecord
100
AcDbBlockTableRecord
  2
*D51
340
0
  0
BLOCK_RECORD
  5
A106
330
7466
100
AcDbSymbolTableRecord
100
AcDbBlockTableRecord
  2
*D52
340
0
  0
BLOCK_RECORD
  5
A112
330
7466
100
AcDbSymbolTableRecord
100
AcDbBlockTableRecord
  2
*D53
340
0
  0
BLOCK_RECORD
  5
A1B6
330
7466
100
AcDbSymbolTableRecord
100
AcDbBlockTableRecord
  2
*D54
340
0
  0
BLOCK_RECORD
  5
A1C2
330
7466
100
AcDbSymbolTableRecord
100
AcDbBlockTableRecord
  2
*D55
340
0
  0
BLOCK_RECORD
  5
A1CE
330
7466
100
AcDbSymbolTableRecord
100
AcDbBlockTableRecord
  2
*D56
340
0
  0
BLOCK_RECORD
  5
A1DC
330
7466
100
AcDbSymbolTableRecord
100
AcDbBlockTableRecord
  2
*D57
340
0
  0
BLOCK_RECORD
  5
A1E8
330
7466
100
AcDbSymbolTableRecord
100
AcDbBlockTableRecord
  2
*D58
340
0
  0
BLOCK_RECORD
  5
A668
330
7466
100
AcDbSymbolTableRecord
100
AcDbBlockTableRecord
  2
*D59
340
0
  0
BLOCK_RECORD
  5
A684
330
7466
100
AcDbSymbolTableRecord
100
AcDbBlockTableRecord
  2
*D60
340
0
  0
BLOCK_RECORD
  5
A720
330
7466
100
AcDbSymbolTableRecord
100
AcDbBlockTableRecord
  2
*D61
340
0
  0
BLOCK_RECORD
  5
A72F
330
7466
100
AcDbSymbolTableRecord
100
AcDbBlockTableRecord
  2
*D62
340
0
  0
BLOCK_RECORD
  5
A73E
330
7466
100
AcDbSymbolTableRecord
100
AcDbBlockTableRecord
  2
*D63
340
0
  0
BLOCK_RECORD
  5
A9E1
330
7466
100
AcDbSymbolTableRecord
100
AcDbBlockTableRecord
  2
*D64
340
0
  0
BLOCK_RECORD
  5
AA1F
330
7466
100
AcDbSymbolTableRecord
100
AcDbBlockTableRecord
  2
*D65
340
0
  0
BLOCK_RECORD
  5
AA2C
330
7466
100
AcDbSymbolTableRecord
100
AcDbBlockTableRecord
  2
*D66
340
0
  0
BLOCK_RECORD
  5
AA8B
330
7466
100
AcDbSymbolTableRecord
100
AcDbBlockTableRecord
  2
*D67
340
0
  0
BLOCK_RECORD
  5
AAD2
330
7466
100
AcDbSymbolTableRecord
100
AcDbBlockTableRecord
  2
*D68
340
0
  0
BLOCK_RECORD
  5
AC67
330
7466
100
AcDbSymbolTableRecord
100
AcDbBlockTableRecord
  2
*D69
340
0
  0
ENDTAB
  0
ENDSEC
  0
SECTION
  2
BLOCKS
  0
BLOCK
  5
7489
330
747D
100
AcDbEntity
  8
0
100
AcDbBlockBegin
  2
*MODEL_SPACE
 70
     0
 10
0.0
 20
0.0
 30
0.0
  3
*MODEL_SPACE
  1

  0
ENDBLK
  5
748A
330
747D
100
AcDbEntity
  8
0
100
AcDbBlockEnd
  0
BLOCK
  5
7487
330
747A
100
AcDbEntity
 67
     1
  8
0
100
AcDbBlockBegin
  2
*PAPER_SPACE
 70
     2
 10
0.0
 20
0.0
 30
0.0
  3
*PAPER_SPACE
  1

  0
ENDBLK
  5
7488
330
747A
100
AcDbEntity
 67
     1
  8
0
100
AcDbBlockEnd
  0
BLOCK
  5
7494
330
7493
100
AcDbEntity
  8
0
100
AcDbBlockBegin
  2
TITLE_BLOCK
 70
     2
 10
0.0
 20
0.0
 30
0.0
  3
TITLE_BLOCK
  1

  0
LINE
  5
7495
330
7493
100
AcDbEntity
  8
0
 62
     0
100
AcDbLine
 10
402.7943262411347
 20
16.00000000000008
 30
0.0
 11
410.0
 21
16.00000000000008
 31
0.0
  0
LINE
  5
7496
330
7493
100
AcDbEntity
  8
0
 62
     0
100
AcDbLine
 10
410.0
 20
10.0
 30
0.0
 11
410.0
 21
49.00000000000036
 31
0.0
  0
LINE
  5
7497
330
7493
100
AcDbEntity
  8
0
 62
     0
100
AcDbLine
 10
410.0
 20
49.00000000000036
 30
0.0
 11
410.0
 21
10.0
 31
0.0
  0
LINE
  5
7498
330
7493
100
AcDbEntity
  8
0
 62
     0
100
AcDbLine
 10
402.7943262411347
 20
22.00000000000012
 30
0.0
 11
402.7943262411347
 21
10.0
 31
0.0
  0
LINE
  5
7499
330
7493
100
AcDbEntity
  8
0
 62
     0
100
AcDbLine
 10
336.1418439716306
 20
49.00000000000036
 30
0.0
 11
336.1418439716306
 21
22.00000000000012
 31
0.0
  0
LINE
  5
749A
330
7493
100
AcDbEntity
  8
0
 62
     0
100
AcDbLine
 10
325.3333333333325
 20
37.00000000000024
 30
0.0
 11
325.3333333333325
 21
25.00000000000012
 31
0.0
  0
LINE
  5
749B
330
7493
100
AcDbEntity
  8
0
 62
     0
100
AcDbLine
 10
318.1276595744673
 20
49.00000000000036
 30
0.0
 11
318.1276595744673
 21
25.00000000000012
 31
0.0
  0
LINE
  5
749C
330
7493
100
AcDbEntity
  8
0
 62
     0
100
AcDbLine
 10
318.1276595744673
 20
25.00000000000012
 30
0.0
 11
348.7517730496447
 21
25.00000000000012
 31
0.0
  0
LINE
  5
749D
330
7493
100
AcDbEntity
  8
0
 62
     0
100
AcDbLine
 10
280.2978723404241
 20
28.00000000000015
 30
0.0
 11
348.7517730496447
 21
28.00000000000015
 31
0.0
  0
LINE
  5
749E
330
7493
100
AcDbEntity
  8
0
 62
     0
100
AcDbLine
 10
280.2978723404241
 20
31.0000000000002
 30
0.0
 11
348.7517730496447
 21
31.0000000000002
 31
0.0
  0
LINE
  5
749F
330
7493
100
AcDbEntity
  8
0
 62
     0
100
AcDbLine
 10
280.2978723404241
 20
34.00000000000024
 30
0.0
 11
348.7517730496447
 21
34.00000000000024
 31
0.0
  0
LINE
  5
74A0
330
7493
100
AcDbEntity
  8
0
 62
     0
100
AcDbLine
 10
280.2978723404241
 20
19.00000000000007
 30
0.0
 11
318.1276595744673
 21
19.00000000000012
 31
0.0
  0
LINE
  5
74A1
330
7493
100
AcDbEntity
  8
0
 62
     0
100
AcDbLine
 10
280.2978723404241
 20
22.00000000000007
 30
0.0
 11
318.1276595744673
 21
22.00000000000012
 31
0.0
  0
LINE
  5
74A2
330
7493
100
AcDbEntity
  8
0
 62
     0
100
AcDbLine
 10
280.2978723404241
 20
25.00000000000012
 30
0.0
 11
318.1276595744673
 21
25.00000000000012
 31
0.0
  0
TEXT
  5
74A3
330
7493
100
AcDbEntity
  8
0
 62
     0
100
AcDbText
 10
342.2447163844405
 20
10.55220101068186
 30
0.0
 40
1.791674070777747
  1
照査
  7
ADESK1
 72
     1
 11
344.1558353932701
 21
10.55220101068186
 31
0.0
100
AcDbText
  0
TEXT
  5
74A4
330
7493
100
AcDbEntity
  8
0
 62
     0
100
AcDbText
 10
332.2960689314087
 20
10.48329012996929
 30
0.0
 40
1.791674070777747
  1
設計
  7
ADESK1
 72
     1
 11
334.2071879402383
 21
10.48329012996929
 31
0.0
100
AcDbText
  0
TEXT
  5
74A5
330
7493
100
AcDbEntity
  8
0
 62
     0
100
AcDbText
 10
321.7174935280942
 20
10.48329012996929
 30
0.0
 40
1.791674070777747
  1
製図
  7
ADESK1
 72
     1
 11
323.5688900678979
 21
10.48329012996929
 31
0.0
100
AcDbText
  0
LINE
  5
74A6
330
7493
100
AcDbEntity
  8
0
 62
     0
100
AcDbLine
 10
280.2978723404241
 20
10.0
 30
0.0
 11
280.2978723404241
 21
13.00000000000004
 31
0.0
  0
LINE
  5
74A7
330
7493
100
AcDbEntity
  8
0
 62
     0
100
AcDbLine
 10
280.2978723404241
 20
16.00000000000008
 30
0.0
 11
318.1276595744673
 21
16.00000000000008
 31
0.0
  0
LINE
  5
74A8
330
7493
100
AcDbEntity
  8
0
 62
     0
100
AcDbLine
 10
339.4042553191484
 20
22.00000000000007
 30
0.0
 11
339.4042553191484
 21
10.0
 31
0.0
  0
LINE
  5
74A9
330
7493
100
AcDbEntity
  8
0
 62
     0
100
AcDbLine
 10
328.7659574468077
 20
22.00000000000007
 30
0.0
 11
328.7659574468077
 21
10.0
 31
0.0
  0
LINE
  5
74AA
330
7493
100
AcDbEntity
  8
0
 62
     0
100
AcDbLine
 10
348.7517730496447
 20
49.00000000000036
 30
0.0
 11
348.7517730496447
 21
10.0
 31
0.0
  0
LINE
  5
74AB
330
7493
100
AcDbEntity
  8
0
 62
     0
100
AcDbLine
 10
280.2978723404241
 20
49.00000000000036
 30
0.0
 11
280.2978723404241
 21
10.0
 31
0.0
  0
LINE
  5
74AC
330
7493
100
AcDbEntity
  8
0
 62
     0
100
AcDbLine
 10
318.1276595744673
 20
25.00000000000012
 30
0.0
 11
318.1276595744673
 21
10.0
 31
0.0
  0
LINE
  5
74AD
330
7493
100
AcDbEntity
  8
0
 62
     0
100
AcDbLine
 10
312.7234042553184
 20
37.00000000000024
 30
0.0
 11
312.7234042553184
 21
10.0
 31
0.0
  0
LINE
  5
74AE
330
7493
100
AcDbEntity
  8
0
 62
     0
100
AcDbLine
 10
285.702127659573
 20
37.00000000000024
 30
0.0
 11
285.702127659573
 21
10.0
 31
0.0
  0
LINE
  5
74AF
330
7493
100
AcDbEntity
  8
0
 62
     0
100
AcDbLine
 10
303.7163120567365
 20
37.00000000000024
 30
0.0
 11
303.7163120567365
 21
10.0
 31
0.0
  0
LINE
  5
74B0
330
7493
100
AcDbEntity
  8
0
 62
     0
100
AcDbLine
 10
410.0
 20
49.00000000000036
 30
0.0
 11
280.2978723404241
 21
49.00000000000036
 31
0.0
  0
LINE
  5
74B1
330
7493
100
AcDbEntity
  8
0
 62
     0
100
AcDbLine
 10
280.2978723404241
 20
10.0
 30
0.0
 11
410.0
 21
10.0
 31
0.0
  0
LINE
  5
74B2
330
7493
100
AcDbEntity
  8
0
 62
     0
100
AcDbLine
 10
318.1276595744673
 20
22.00000000000012
 30
0.0
 11
410.0
 21
22.00000000000012
 31
0.0
  0
LINE
  5
74B3
330
7493
100
AcDbEntity
  8
0
 62
     0
100
AcDbLine
 10
280.2978723404241
 20
37.00000000000024
 30
0.0
 11
410.0
 21
37.00000000000024
 31
0.0
  0
LINE
  5
74B4
330
7493
100
AcDbEntity
  8
0
 62
     0
100
AcDbLine
 10
280.2978723404241
 20
13.00000000000004
 30
0.0
 11
410.0
 21
13.00000000000004
 31
0.0
  0
LINE
  5
74B5
330
7493
100
AcDbEntity
  8
0
 62
     0
100
AcDbLine
 10
280.2978723404241
 20
49.00000000000036
 30
0.0
 11
410.0
 21
49.00000000000036
 31
0.0
  0
TEXT
  5
74B6
330
7493
100
AcDbEntity
  8
0
100
AcDbText
 10
411.3708251683467
 20
33.08333333333334
 30
0.0
 40
3.0
  1
F
  7
ADESK1
 72
     1
 11
412.8708251683468
 21
33.08333333333334
 31
0.0
100
AcDbText
  0
TEXT
  5
74B7
330
7493
100
AcDbEntity
  8
0
100
AcDbText
 10
411.3708251683467
 20
79.25
 30
0.0
 40
3.0
  1
E
  7
ADESK1
 72
     1
 11
412.8708251683468
 21
79.25
 31
0.0
100
AcDbText
  0
TEXT
  5
74B8
330
7493
100
AcDbEntity
  8
0
100
AcDbText
 10
411.2993965969182
 20
125.4166666666666
 30
0.0
 40
3.0
  1
D
  7
ADESK1
 72
     1
 11
412.8708251683468
 21
125.4166666666666
 31
0.0
100
AcDbText
  0
TEXT
  5
74B9
330
7493
100
AcDbEntity
  8
0
100
AcDbText
 10
411.3708251683467
 20
171.5833333333333
 30
0.0
 40
3.0
  1
C
  7
ADESK1
 72
     1
 11
412.8708251683468
 21
171.5833333333333
 31
0.0
100
AcDbText
  0
TEXT
  5
74BA
330
7493
100
AcDbEntity
  8
0
100
AcDbText
 10
411.2993965969182
 20
217.7499999999999
 30
0.0
 40
3.0
  1
B
  7
ADESK1
 72
     1
 11
412.8708251683468
 21
217.7499999999999
 31
0.0
100
AcDbText
  0
TEXT
  5
74BB
330
7493
100
AcDbEntity
  8
0
100
AcDbText
 10
411.5851108826324
 20
263.9166666666666
 30
0.0
 40
3.0
  1
A
  7
ADESK1
 72
     1
 11
412.8708251683468
 21
263.9166666666666
 31
0.0
100
AcDbText
  0
TEXT
  5
74BC
330
7493
100
AcDbEntity
  8
0
100
AcDbText
 10
384.5089285714285
 20
6.019997240728748
 30
0.0
 40
3.0
  1
8
  7
ADESK1
 72
     1
 11
385.9375
 21
6.019997240728748
 31
0.0
100
AcDbText
  0
TEXT
  5
74BD
330
7493
100
AcDbEntity
  8
0
100
AcDbText
 10
336.3839285714285
 20
6.019997240728748
 30
0.0
 40
3.0
  1
7
  7
ADESK1
 72
     1
 11
337.8125
 21
6.019997240728748
 31
0.0
100
AcDbText
  0
TEXT
  5
74BE
330
7493
100
AcDbEntity
  8
0
100
AcDbText
 10
288.1874999999999
 20
6.019997240728748
 30
0.0
 40
3.0
  1
6
  7
ADESK1
 72
     1
 11
289.6875
 21
6.019997240728748
 31
0.0
100
AcDbText
  0
TEXT
  5
74BF
330
7493
100
AcDbEntity
  8
0
100
AcDbText
 10
240.1339285714285
 20
6.019997240728748
 30
0.0
 40
3.0
  1
5
  7
ADESK1
 72
     1
 11
241.5624999999999
 21
6.019997240728748
 31
0.0
100
AcDbText
  0
TEXT
  5
74C0
330
7493
100
AcDbEntity
  8
0
100
AcDbText
 10
191.9375
 20
6.019997240728748
 30
0.0
 40
3.0
  1
4
  7
ADESK1
 72
     1
 11
193.4375
 21
6.019997240728748
 31
0.0
100
AcDbText
  0
TEXT
  5
74C1
330
7493
100
AcDbEntity
  8
0
100
AcDbText
 10
143.8839285714285
 20
6.019997240728748
 30
0.0
 40
3.0
  1
3
  7
ADESK1
 72
     1
 11
145.3125
 21
6.019997240728748
 31
0.0
100
AcDbText
  0
TEXT
  5
74C2
330
7493
100
AcDbEntity
  8
0
100
AcDbText
 10
95.75892857142857
 20
6.019997240728748
 30
0.0
 40
3.0
  1
2
  7
ADESK1
 72
     1
 11
97.1875
 21
6.019997240728748
 31
0.0
100
AcDbText
  0
TEXT
  5
74C3
330
7493
100
AcDbEntity
  8
0
100
AcDbText
 10
47.84821428571429
 20
6.019997240728748
 30
0.0
 40
3.0
  1
1
  7
ADESK1
 72
     1
 11
49.0625
 21
6.019997240728748
 31
0.0
100
AcDbText
  0
TEXT
  5
74C4
330
7493
100
AcDbEntity
  8
0
100
AcDbText
 10
21.10716135953389
 20
33.08333333333334
 30
0.0
 40
3.0
  1
F
  7
ADESK1
 72
     1
 11
22.60716135953389
 21
33.08333333333334
 31
0.0
100
AcDbText
  0
TEXT
  5
74C5
330
7493
100
AcDbEntity
  8
0
100
AcDbText
 10
21.10716135953389
 20
79.25
 30
0.0
 40
3.0
  1
E
  7
ADESK1
 72
     1
 11
22.60716135953389
 21
79.25
 31
0.0
100
AcDbText
  0
TEXT
  5
74C6
330
7493
100
AcDbEntity
  8
0
100
AcDbText
 10
21.03573278810532
 20
125.4166666666666
 30
0.0
 40
3.0
  1
D
  7
ADESK1
 72
     1
 11
22.60716135953389
 21
125.4166666666666
 31
0.0
100
AcDbText
  0
TEXT
  5
74C7
330
7493
100
AcDbEntity
  8
0
100
AcDbText
 10
21.10716135953389
 20
171.5833333333333
 30
0.0
 40
3.0
  1
C
  7
ADESK1
 72
     1
 11
22.60716135953389
 21
171.5833333333333
 31
0.0
100
AcDbText
  0
TEXT
  5
74C8
330
7493
100
AcDbEntity
  8
0
100
AcDbText
 10
21.03573278810532
 20
217.7499999999999
 30
0.0
 40
3.0
  1
B
  7
ADESK1
 72
     1
 11
22.60716135953389
 21
217.7499999999999
 31
0.0
100
AcDbText
  0
TEXT
  5
74C9
330
7493
100
AcDbEntity
  8
0
100
AcDbText
 10
384.5089285714285
 20
288.0
 30
0.0
 40
3.0
  1
8
  7
ADESK1
 72
     1
 11
385.9375
 21
288.0
 31
0.0
100
AcDbText
  0
TEXT
  5
74CA
330
7493
100
AcDbEntity
  8
0
100
AcDbText
 10
336.3839285714285
 20
288.0
 30
0.0
 40
3.0
  1
7
  7
ADESK1
 72
     1
 11
337.8125
 21
288.0
 31
0.0
100
AcDbText
  0
TEXT
  5
74CB
330
7493
100
AcDbEntity
  8
0
100
AcDbText
 10
288.1874999999999
 20
288.0
 30
0.0
 40
3.0
  1
6
  7
ADESK1
 72
     1
 11
289.6875
 21
288.0
 31
0.0
100
AcDbText
  0
TEXT
  5
74CC
330
7493
100
AcDbEntity
  8
0
100
AcDbText
 10
240.1339285714285
 20
288.0
 30
0.0
 40
3.0
  1
5
  7
ADESK1
 72
     1
 11
241.5624999999999
 21
288.0
 31
0.0
100
AcDbText
  0
TEXT
  5
74CD
330
7493
100
AcDbEntity
  8
0
100
AcDbText
 10
191.9375
 20
288.0
 30
0.0
 40
3.0
  1
4
  7
ADESK1
 72
     1
 11
193.4375
 21
288.0
 31
0.0
100
AcDbText
  0
TEXT
  5
74CE
330
7493
100
AcDbEntity
  8
0
100
AcDbText
 10
143.8839285714285
 20
288.0
 30
0.0
 40
3.0
  1
3
  7
ADESK1
 72
     1
 11
145.3125
 21
288.0
 31
0.0
100
AcDbText
  0
TEXT
  5
74CF
330
7493
100
AcDbEntity
  8
0
100
AcDbText
 10
95.75892857142857
 20
288.0
 30
0.0
 40
3.0
  1
2
  7
ADESK1
 72
     1
 11
97.1875
 21
288.0
 31
0.0
100
AcDbText
  0
TEXT
  5
74D0
330
7493
100
AcDbEntity
  8
0
100
AcDbText
 10
21.32144707381961
 20
263.9166666666666
 30
0.0
 40
3.0
  1
A
  7
ADESK1
 72
     1
 11
22.60716135953389
 21
263.9166666666666
 31
0.0
100
AcDbText
  0
TEXT
  5
74D1
330
7493
100
AcDbEntity
  8
0
100
AcDbText
 10
47.84821428571429
 20
288.0
 30
0.0
 40
3.0
  1
1
  7
ADESK1
 72
     1
 11
49.0625
 21
288.0
 31
0.0
100
AcDbText
  0
LINE
  5
74D2
330
7493
100
AcDbEntity
  8
0
100
AcDbLine
 10
73.125
 20
287.0
 30
0.0
 11
73.125
 21
292.0
 31
0.0
  0
LINE
  5
74D3
330
7493
100
AcDbEntity
  8
0
100
AcDbLine
 10
121.25
 20
287.0
 30
0.0
 11
121.25
 21
292.0
 31
0.0
  0
LINE
  5
74D4
330
7493
100
AcDbEntity
  8
0
100
AcDbLine
 10
169.375
 20
287.0
 30
0.0
 11
169.375
 21
292.0
 31
0.0
  0
LINE
  5
74D5
330
7493
100
AcDbEntity
  8
0
100
AcDbLine
 10
217.5
 20
287.0
 30
0.0
 11
217.5
 21
292.0
 31
0.0
  0
LINE
  5
74D6
330
7493
100
AcDbEntity
  8
0
100
AcDbLine
 10
265.625
 20
287.0
 30
0.0
 11
265.625
 21
292.0
 31
0.0
  0
LINE
  5
74D7
330
7493
100
AcDbEntity
  8
0
100
AcDbLine
 10
313.75
 20
287.0
 30
0.0
 11
313.75
 21
292.0
 31
0.0
  0
LINE
  5
74D8
330
7493
100
AcDbEntity
  8
0
100
AcDbLine
 10
361.8749999999999
 20
287.0
 30
0.0
 11
361.8749999999999
 21
292.0
 31
0.0
  0
LINE
  5
74D9
330
7493
100
AcDbEntity
  8
0
100
AcDbLine
 10
361.8749999999999
 20
10.0
 30
0.0
 11
361.8749999999999
 21
5.0
 31
0.0
  0
LINE
  5
74DA
330
7493
100
AcDbEntity
  8
0
100
AcDbLine
 10
313.75
 20
10.0
 30
0.0
 11
313.75
 21
5.0
 31
0.0
  0
LINE
  5
74DB
330
7493
100
AcDbEntity
  8
0
100
AcDbLine
 10
265.625
 20
10.0
 30
0.0
 11
265.625
 21
5.0
 31
0.0
  0
LINE
  5
74DC
330
7493
100
AcDbEntity
  8
0
100
AcDbLine
 10
217.5
 20
10.0
 30
0.0
 11
217.5
 21
5.0
 31
0.0
  0
LINE
  5
74DD
330
7493
100
AcDbEntity
  8
0
100
AcDbLine
 10
169.375
 20
10.0
 30
0.0
 11
169.375
 21
5.0
 31
0.0
  0
LINE
  5
74DE
330
7493
100
AcDbEntity
  8
0
100
AcDbLine
 10
121.25
 20
10.0
 30
0.0
 11
121.25
 21
5.0
 31
0.0
  0
LINE
  5
74DF
330
7493
100
AcDbEntity
  8
0
100
AcDbLine
 10
73.125
 20
10.0
 30
0.0
 11
73.125
 21
5.0
 31
0.0
  0
LINE
  5
74E0
330
7493
100
AcDbEntity
  8
0
100
AcDbLine
 10
410.0
 20
240.8333333333333
 30
0.0
 11
415.0
 21
240.8333333333333
 31
0.0
  0
LINE
  5
74E1
330
7493
100
AcDbEntity
  8
0
100
AcDbLine
 10
410.0
 20
194.6666666666667
 30
0.0
 11
415.0
 21
194.6666666666667
 31
0.0
  0
LINE
  5
74E2
330
7493
100
AcDbEntity
  8
0
100
AcDbLine
 10
410.0
 20
148.5
 30
0.0
 11
415.0
 21
148.5
 31
0.0
  0
LINE
  5
74E3
330
7493
100
AcDbEntity
  8
0
100
AcDbLine
 10
410.0
 20
102.3333333333333
 30
0.0
 11
415.0
 21
102.3333333333333
 31
0.0
  0
LINE
  5
74E4
330
7493
100
AcDbEntity
  8
0
100
AcDbLine
 10
410.0
 20
56.16666666666668
 30
0.0
 11
415.0
 21
56.16666666666668
 31
0.0
  0
LINE
  5
74E5
330
7493
100
AcDbEntity
  8
0
100
AcDbLine
 10
25.0
 20
56.16666666666667
 30
0.0
 11
20.0
 21
56.16666666666667
 31
0.0
  0
LINE
  5
74E6
330
7493
100
AcDbEntity
  8
0
100
AcDbLine
 10
25.0
 20
102.3333333333333
 30
0.0
 11
20.0
 21
102.3333333333333
 31
0.0
  0
LINE
  5
74E7
330
7493
100
AcDbEntity
  8
0
100
AcDbLine
 10
25.0
 20
148.5
 30
0.0
 11
20.0
 21
148.5
 31
0.0
  0
LINE
  5
74E8
330
7493
100
AcDbEntity
  8
0
100
AcDbLine
 10
25.0
 20
194.6666666666666
 30
0.0
 11
20.0
 21
194.6666666666666
 31
0.0
  0
LINE
  5
74E9
330
7493
100
AcDbEntity
  8
0
100
AcDbLine
 10
25.0
 20
240.8333333333333
 30
0.0
 11
20.0
 21
240.8333333333333
 31
0.0
  0
TEXT
  5
74EA
330
7493
100
AcDbEntity
  8
0
100
AcDbText
 10
1.0
 20
1.0
 30
0.0
 40
3.0
  1
この図枠はサンプルです。社内の規格やプロッタの出力範囲に合わせて適当に変更してご利用ください。
  7
ADESK1
100
AcDbText
  0
LINE
  5
74EB
330
7493
100
AcDbEntity
  8
0
100
AcDbLine
 10
25.0
 20
148.5
 30
0.0
 11
0.0
 21
148.5
 31
0.0
  0
LINE
  5
74EC
330
7493
100
AcDbEntity
  8
0
100
AcDbLine
 10
410.0
 20
148.5
 30
0.0
 11
420.0
 21
148.5
 31
0.0
  0
LINE
  5
74ED
330
7493
100
AcDbEntity
  8
0
100
AcDbLine
 10
217.5
 20
287.0
 30
0.0
 11
217.5
 21
297.0
 31
0.0
  0
LINE
  5
74EE
330
7493
100
AcDbEntity
  8
0
100
AcDbLine
 10
217.5
 20
10.0
 30
0.0
 11
217.5
 21
0.0
 31
0.0
  0
LINE
  5
74EF
330
7493
100
AcDbEntity
  8
OBJECT
100
AcDbLine
 10
130.0
 20
40.0
 30
0.0
 11
130.0
 21
10.0
 31
0.0
  0
LINE
  5
74F0
330
7493
100
AcDbEntity
  8
OBJECT
100
AcDbLine
 10
120.0
 20
10.0
 30
0.0
 11
120.0
 21
40.0
 31
0.0
  0
LINE
  5
74F1
330
7493
100
AcDbEntity
  8
OBJECT
100
AcDbLine
 10
44.5
 20
37.0
 30
0.0
 11
45.49999999999999
 21
37.0
 31
0.0
  0
LINE
  5
74F2
330
7493
100
AcDbEntity
  8
OBJECT
100
AcDbLine
 10
44.5
 20
31.0
 30
0.0
 11
45.49999999999999
 21
31.0
 31
0.0
  0
LINE
  5
74F3
330
7493
100
AcDbEntity
  8
OBJECT
100
AcDbLine
 10
39.5
 20
37.0
 30
0.0
 11
40.49999999999999
 21
37.0
 31
0.0
  0
LINE
  5
74F4
330
7493
100
AcDbEntity
  8
OBJECT
100
AcDbLine
 10
39.5
 20
31.0
 30
0.0
 11
40.49999999999999
 21
31.0
 31
0.0
  0
LINE
  5
74F5
330
7493
100
AcDbEntity
  8
OBJECT
100
AcDbLine
 10
44.5
 20
25.0
 30
0.0
 11
45.49999999999999
 21
25.0
 31
0.0
  0
LINE
  5
74F6
330
7493
100
AcDbEntity
  8
OBJECT
100
AcDbLine
 10
39.5
 20
25.0
 30
0.0
 11
40.49999999999999
 21
25.0
 31
0.0
  0
LINE
  5
74F7
330
7493
100
AcDbEntity
  8
OBJECT
100
AcDbLine
 10
44.5
 20
19.0
 30
0.0
 11
45.49999999999999
 21
19.0
 31
0.0
  0
LINE
  5
74F8
330
7493
100
AcDbEntity
  8
OBJECT
100
AcDbLine
 10
39.5
 20
19.0
 30
0.0
 11
40.49999999999999
 21
19.0
 31
0.0
  0
LINE
  5
74F9
330
7493
100
AcDbEntity
  8
OBJECT
100
AcDbLine
 10
28.0
 20
29.535898
 30
0.0
 11
30.0
 21
33.0
 31
0.0
  0
LINE
  5
74FA
330
7493
100
AcDbEntity
  8
OBJECT
100
AcDbLine
 10
28.0
 20
29.535898
 30
0.0
 11
32.0
 21
29.535898
 31
0.0
  0
LINE
  5
74FB
330
7493
100
AcDbEntity
  8
OBJECT
100
AcDbLine
 10
32.0
 20
29.535898
 30
0.0
 11
30.0
 21
33.0
 31
0.0
  0
LINE
  5
74FC
330
7493
100
AcDbEntity
  8
OBJECT
100
AcDbLine
 10
28.0
 20
35.53589799999999
 30
0.0
 11
32.0
 21
35.53589799999999
 31
0.0
  0
LINE
  5
74FD
330
7493
100
AcDbEntity
  8
OBJECT
100
AcDbLine
 10
32.0
 20
35.53589799999999
 30
0.0
 11
30.0
 21
39.0
 31
0.0
  0
LINE
  5
74FE
330
7493
100
AcDbEntity
  8
OBJECT
100
AcDbLine
 10
28.0
 20
35.53589799999999
 30
0.0
 11
30.0
 21
39.0
 31
0.0
  0
LINE
  5
74FF
330
7493
100
AcDbEntity
  8
OBJECT
100
AcDbLine
 10
28.0
 20
23.53589799999999
 30
0.0
 11
30.0
 21
26.99999999999999
 31
0.0
  0
LINE
  5
7500
330
7493
100
AcDbEntity
  8
OBJECT
100
AcDbLine
 10
28.0
 20
23.53589799999999
 30
0.0
 11
32.0
 21
23.53589799999999
 31
0.0
  0
LINE
  5
7501
330
7493
100
AcDbEntity
  8
OBJECT
100
AcDbLine
 10
32.0
 20
23.53589799999999
 30
0.0
 11
30.0
 21
26.99999999999999
 31
0.0
  0
LINE
  5
7502
330
7493
100
AcDbEntity
  8
OBJECT
100
AcDbLine
 10
28.0
 20
17.535898
 30
0.0
 11
30.0
 21
20.99999999999999
 31
0.0
  0
LINE
  5
7503
330
7493
100
AcDbEntity
  8
OBJECT
100
AcDbLine
 10
28.0
 20
17.535898
 30
0.0
 11
32.0
 21
17.535898
 31
0.0
  0
LINE
  5
7504
330
7493
100
AcDbEntity
  8
OBJECT
100
AcDbLine
 10
32.0
 20
17.535898
 30
0.0
 11
30.0
 21
20.99999999999999
 31
0.0
  0
LINE
  5
7505
330
7493
100
AcDbEntity
  8
OBJECT
100
AcDbLine
 10
44.5
 20
13.0
 30
0.0
 11
45.49999999999999
 21
13.0
 31
0.0
  0
LINE
  5
7506
330
7493
100
AcDbEntity
  8
OBJECT
100
AcDbLine
 10
39.5
 20
13.0
 30
0.0
 11
40.49999999999999
 21
13.0
 31
0.0
  0
LINE
  5
7507
330
7493
100
AcDbEntity
  8
OBJECT
100
AcDbLine
 10
28.0
 20
11.53589799999999
 30
0.0
 11
32.0
 21
11.53589799999999
 31
0.0
  0
LINE
  5
7508
330
7493
100
AcDbEntity
  8
OBJECT
100
AcDbLine
 10
80.0
 20
10.0
 30
0.0
 11
80.0
 21
40.0
 31
0.0
  0
LINE
  5
7509
330
7493
100
AcDbEntity
  8
OBJECT
100
AcDbLine
 10
50.0
 20
10.0
 30
0.0
 11
50.0
 21
40.0
 31
0.0
  0
LINE
  5
750A
330
7493
100
AcDbEntity
  8
OBJECT
100
AcDbLine
 10
35.0
 20
10.0
 30
0.0
 11
35.0
 21
40.0
 31
0.0
  0
LINE
  5
750B
330
7493
100
AcDbEntity
  8
OBJECT
100
AcDbLine
 10
32.0
 20
11.53589799999999
 30
0.0
 11
30.0
 21
15.0
 31
0.0
  0
LINE
  5
750C
330
7493
100
AcDbEntity
  8
OBJECT
100
AcDbLine
 10
28.0
 20
11.53589799999999
 30
0.0
 11
30.0
 21
15.0
 31
0.0
  0
LINE
  5
750D
330
7493
100
AcDbEntity
  8
OBJECT
100
AcDbLine
 10
130.0
 20
40.0
 30
0.0
 11
25.0
 21
40.0
 31
0.0
  0
LINE
  5
750E
330
7493
100
AcDbEntity
  8
OBJECT
100
AcDbLine
 10
130.0
 20
34.0
 30
0.0
 11
25.0
 21
34.0
 31
0.0
  0
LINE
  5
750F
330
7493
100
AcDbEntity
  8
OBJECT
100
AcDbLine
 10
130.0
 20
28.0
 30
0.0
 11
25.0
 21
28.0
 31
0.0
  0
LINE
  5
7510
330
7493
100
AcDbEntity
  8
OBJECT
100
AcDbLine
 10
130.0
 20
22.0
 30
0.0
 11
25.0
 21
22.0
 31
0.0
  0
LINE
  5
7511
330
7493
100
AcDbEntity
  8
OBJECT
100
AcDbLine
 10
130.0
 20
16.0
 30
0.0
 11
25.0
 21
16.0
 31
0.0
  0
ATTDEF
  5
7512
330
7493
100
AcDbEntity
  8
0
 62
     0
100
AcDbText
 10
19.0
 20
118.0
 30
0.0
 40
3.0
  1

 50
90.0
  7
ADESK1
100
AcDbAttributeDefinition
  3

  2
FNAME
 70
     8
  0
ATTDEF
  5
7513
330
7493
100
AcDbEntity
  8
0
 62
     0
100
AcDbText
 10
19.0
 20
70.0
 30
0.0
 40
3.0
  1

 50
90.0
  7
ADESK1
100
AcDbAttributeDefinition
  3

  2
REVDATE
 70
     8
  0
ATTDEF
  5
7514
330
7493
100
AcDbEntity
  8
0
 62
     0
100
AcDbText
 10
19.0
 20
10.0
 30
0.0
 40
3.0
  1

 50
90.0
  7
ADESK1
100
AcDbAttributeDefinition
  3

  2
USER
 70
     8
  0
LINE
  5
7515
330
7493
100
AcDbEntity
  8
0
100
AcDbLine
 10
410.0
 20
297.0
 30
0.0
 11
420.0
 21
297.0
 31
0.0
  0
LINE
  5
7516
330
7493
100
AcDbEntity
  8
0
100
AcDbLine
 10
420.0
 20
10.0
 30
0.0
 11
420.0
 21
0.0
 31
0.0
  0
LINE
  5
7517
330
7493
100
AcDbEntity
  8
0
100
AcDbLine
 10
25.0
 20
0.0
 30
0.0
 11
0.0
 21
0.0
 31
0.0
  0
LINE
  5
7518
330
7493
100
AcDbEntity
  8
0
100
AcDbLine
 10
0.0
 20
287.0
 30
0.0
 11
0.0
 21
297.0
 31
0.0
  0
LINE
  5
7519
330
7493
100
AcDbEntity
  8
0
100
AcDbLine
 10
25.0
 20
287.0
 30
0.0
 11
410.0
 21
287.0
 31
0.0
  0
LINE
  5
751A
330
7493
100
AcDbEntity
  8
0
100
AcDbLine
 10
410.0
 20
287.0
 30
0.0
 11
410.0
 21
10.0
 31
0.0
  0
LINE
  5
751B
330
7493
100
AcDbEntity
  8
0
100
AcDbLine
 10
410.0
 20
10.0
 30
0.0
 11
25.0
 21
10.0
 31
0.0
  0
LINE
  5
751C
330
7493
100
AcDbEntity
  8
0
100
AcDbLine
 10
25.0
 20
10.0
 30
0.0
 11
25.0
 21
287.0
 31
0.0
  0
LINE
  5
751D
330
7493
100
AcDbEntity
  8
0
100
AcDbLine
 10
420.0
 20
0.0
 30
0.0
 11
410.0
 21
0.0
 31
0.0
  0
LINE
  5
751E
330
7493
100
AcDbEntity
  8
0
100
AcDbLine
 10
420.0
 20
297.0
 30
0.0
 11
420.0
 21
287.0
 31
0.0
  0
LINE
  5
751F
330
7493
100
AcDbEntity
  8
0
100
AcDbLine
 10
0.0
 20
297.0
 30
0.0
 11
25.0
 21
297.0
 31
0.0
  0
LINE
  5
7520
330
7493
100
AcDbEntity
  8
0
100
AcDbLine
 10
0.0
 20
0.0
 30
0.0
 11
0.0
 21
10.0
 31
0.0
  0
ENDBLK
  5
7521
330
7493
100
AcDbEntity
  8
0
100
AcDbBlockEnd
  0
BLOCK
  5
7EB6
330
7EAA
100
AcDbEntity
  8
0
100
AcDbBlockBegin
  2
*D1
 70
     1
 10
0.0
 20
0.0
 30
0.0
  3
*D1
  1

  0
LINE
  5
7EAB
330
7EAA
100
AcDbEntity
  8
寸法引出
370
    -2
100
AcDbLine
 10
2682.939546897662
 20
663.9798439987371
 30
0.0
 11
2682.939546897662
 21
719.8755318409985
 31
0.0
  0
LINE
  5
7EAC
330
7EAA
100
AcDbEntity
  8
寸法引出
370
    -2
100
AcDbLine
 10
2742.939546897662
 20
663.9798439987371
 30
0.0
 11
2742.939546897662
 21
719.8755318409985
 31
0.0
  0
LINE
  5
7EAD
330
7EAA
100
AcDbEntity
  8
寸法引出
370
    -2
100
AcDbLine
 10
2652.939546897663
 20
709.8755318409985
 30
0.0
 11
2622.939546897662
 21
709.8755318409985
 31
0.0
  0
LINE
  5
7EAE
330
7EAA
100
AcDbEntity
  8
寸法引出
370
    -2
100
AcDbLine
 10
2772.939546897662
 20
709.8755318409985
 30
0.0
 11
2802.939546897663
 21
709.8755318409985
 31
0.0
  0
LINE
  5
7EAF
330
7EAA
100
AcDbEntity
  8
寸法引出
370
    -2
100
AcDbLine
 10
2682.939546897662
 20
709.8755318409985
 30
0.0
 11
2742.939546897662
 21
709.8755318409985
 31
0.0
  0
SOLID
  5
7EB0
330
7EAA
100
AcDbEntity
  8
寸法引出
100
AcDbTrace
 10
2652.939546897663
 20
714.8755318409985
 30
0.0
 11
2652.939546897663
 21
704.8755318409985
 31
0.0
 12
2682.939546897662
 22
709.8755318409985
 32
0.0
 13
2682.939546897662
 23
709.8755318409985
 33
0.0
  0
SOLID
  5
7EB1
330
7EAA
100
AcDbEntity
  8
寸法引出
100
AcDbTrace
 10
2772.939546897662
 20
714.8755318409985
 30
0.0
 11
2772.939546897662
 21
704.8755318409985
 31
0.0
 12
2742.939546897662
 22
709.8755318409985
 32
0.0
 13
2742.939546897662
 23
709.8755318409985
 33
0.0
  0
MTEXT
  5
7EB2
330
7EAA
100
AcDbEntity
  8
寸法引出
100
AcDbMText
 10
2712.939546897663
 20
749.8755318409985
 30
0.0
 40
40.0
 41
0.0
 71
     5
 72
     1
  1
\A1;6
  7
SANWA
 73
     1
 44
1.0
  0
POINT
  5
7EB3
330
7EAA
100
AcDbEntity
  8
DEFPOINTS
 62
     0
100
AcDbPoint
 10
2682.939546897662
 20
643.9798439987371
 30
0.0
  0
POINT
  5
7EB4
330
7EAA
100
AcDbEntity
  8
DEFPOINTS
 62
     0
100
AcDbPoint
 10
2742.939546897662
 20
643.9798439987371
 30
0.0
  0
POINT
  5
7EB5
330
7EAA
100
AcDbEntity
  8
DEFPOINTS
 62
     0
100
AcDbPoint
 10
2742.939546897662
 20
709.8755318409985
 30
0.0
  0
ENDBLK
  5
7EB7
330
7EAA
100
AcDbEntity
  8
0
100
AcDbBlockEnd
  0
BLOCK
  5
7EC4
330
7EB8
100
AcDbEntity
  8
0
100
AcDbBlockBegin
  2
*D2
 70
     1
 10
0.0
 20
0.0
 30
0.0
  3
*D2
  1

  0
LINE
  5
7EB9
330
7EB8
100
AcDbEntity
  8
寸法引出
370
    -2
100
AcDbLine
 10
2682.939546897662
 20
433.9798439987371
 30
0.0
 11
2682.939546897662
 21
325.7153011943864
 31
0.0
  0
LINE
  5
7EBA
330
7EB8
100
AcDbEntity
  8
寸法引出
370
    -2
100
AcDbLine
 10
2772.939546897662
 20
463.9798439987371
 30
0.0
 11
2772.939546897662
 21
325.7153011943864
 31
0.0
  0
LINE
  5
7EBB
330
7EB8
100
AcDbEntity
  8
寸法引出
370
    -2
100
AcDbLine
 10
2652.939546897663
 20
335.7153011943864
 30
0.0
 11
2622.939546897662
 21
335.7153011943864
 31
0.0
  0
LINE
  5
7EBC
330
7EB8
100
AcDbEntity
  8
寸法引出
370
    -2
100
AcDbLine
 10
2802.939546897663
 20
335.7153011943864
 30
0.0
 11
2832.939546897662
 21
335.7153011943864
 31
0.0
  0
LINE
  5
7EBD
330
7EB8
100
AcDbEntity
  8
寸法引出
370
    -2
100
AcDbLine
 10
2682.939546897662
 20
335.7153011943864
 30
0.0
 11
2772.939546897662
 21
335.7153011943864
 31
0.0
  0
SOLID
  5
7EBE
330
7EB8
100
AcDbEntity
  8
寸法引出
100
AcDbTrace
 10
2652.939546897663
 20
340.7153011943865
 30
0.0
 11
2652.939546897663
 21
330.7153011943865
 31
0.0
 12
2682.939546897662
 22
335.7153011943864
 32
0.0
 13
2682.939546897662
 23
335.7153011943864
 33
0.0
  0
SOLID
  5
7EBF
330
7EB8
100
AcDbEntity
  8
寸法引出
100
AcDbTrace
 10
2802.939546897663
 20
340.7153011943865
 30
0.0
 11
2802.939546897663
 21
330.7153011943865
 31
0.0
 12
2772.939546897662
 22
335.7153011943864
 32
0.0
 13
2772.939546897662
 23
335.7153011943864
 33
0.0
  0
MTEXT
  5
7EC0
330
7EB8
100
AcDbEntity
  8
寸法引出
100
AcDbMText
 10
2727.939546897662
 20
375.7153011943864
 30
0.0
 40
40.0
 41
0.0
 71
     5
 72
     1
  1
\A1;9
  7
SANWA
 73
     1
 44
1.0
  0
POINT
  5
7EC1
330
7EB8
100
AcDbEntity
  8
DEFPOINTS
 62
     0
100
AcDbPoint
 10
2682.939546897662
 20
453.9798439987371
 30
0.0
  0
POINT
  5
7EC2
330
7EB8
100
AcDbEntity
  8
DEFPOINTS
 62
     0
100
AcDbPoint
 10
2772.939546897662
 20
483.9798439987371
 30
0.0
  0
POINT
  5
7EC3
330
7EB8
100
AcDbEntity
  8
DEFPOINTS
 62
     0
100
AcDbPoint
 10
2772.939546897662
 20
335.7153011943864
 30
0.0
  0
ENDBLK
  5
7EC5
330
7EB8
100
AcDbEntity
  8
0
100
AcDbBlockEnd
  0
BLOCK
  5
7ED0
330
7EC6
100
AcDbEntity
  8
0
100
AcDbBlockBegin
  2
*D3
 70
     1
 10
0.0
 20
0.0
 30
0.0
  3
*D3
  1

  0
LINE
  5
7EC7
330
7EC6
100
AcDbEntity
  8
寸法引出
370
    -2
100
AcDbLine
 10
2762.939546897662
 20
643.9798439987371
 30
0.0
 11
2906.159035073215
 21
643.979843998737
 31
0.0
  0
LINE
  5
7EC8
330
7EC6
100
AcDbEntity
  8
寸法引出
370
    -2
100
AcDbLine
 10
2792.939546897662
 20
483.9798439987371
 30
0.0
 11
2906.159035073215
 21
483.9798439987371
 31
0.0
  0
LINE
  5
7EC9
330
7EC6
100
AcDbEntity
  8
寸法引出
370
    -2
100
AcDbLine
 10
2896.159035073214
 20
613.9798439987369
 30
0.0
 11
2896.159035073214
 21
513.9798439987371
 31
0.0
  0
SOLID
  5
7ECA
330
7EC6
100
AcDbEntity
  8
寸法引出
100
AcDbTrace
 10
2891.159035073215
 20
613.9798439987369
 30
0.0
 11
2901.159035073215
 21
613.9798439987369
 31
0.0
 12
2896.159035073214
 22
643.979843998737
 32
0.0
 13
2896.159035073214
 23
643.979843998737
 33
0.0
  0
SOLID
  5
7ECB
330
7EC6
100
AcDbEntity
  8
寸法引出
100
AcDbTrace
 10
2891.159035073215
 20
513.9798439987371
 30
0.0
 11
2901.159035073215
 21
513.9798439987371
 31
0.0
 12
2896.159035073214
 22
483.9798439987371
 32
0.0
 13
2896.159035073214
 23
483.9798439987371
 33
0.0
  0
MTEXT
  5
7ECC
330
7EC6
100
AcDbEntity
  8
寸法引出
100
AcDbMText
 10
2856.159035073215
 20
563.9798439987376
 30
0.0
 40
40.0
 41
0.0
 71
     5
 72
     1
  1
\A1;16
  7
SANWA
 11
0.0000000000000001
 21
1.0
 31
0.0
 73
     1
 44
1.0
  0
POINT
  5
7ECD
330
7EC6
100
AcDbEntity
  8
DEFPOINTS
 62
     0
100
AcDbPoint
 10
2742.939546897662
 20
643.9798439987371
 30
0.0
  0
POINT
  5
7ECE
330
7EC6
100
AcDbEntity
  8
DEFPOINTS
 62
     0
100
AcDbPoint
 10
2772.939546897662
 20
483.9798439987371
 30
0.0
  0
POINT
  5
7ECF
330
7EC6
100
AcDbEntity
  8
DEFPOINTS
 62
     0
100
AcDbPoint
 10
2896.159035073214
 20
483.9798439987371
 30
0.0
  0
ENDBLK
  5
7ED1
330
7EC6
100
AcDbEntity
  8
0
100
AcDbBlockEnd
  0
BLOCK
  5
7EDE
330
7ED2
100
AcDbEntity
  8
0
100
AcDbBlockBegin
  2
*D4
 70
     1
 10
0.0
 20
0.0
 30
0.0
  3
*D4
  1

  0
LINE
  5
7ED3
330
7ED2
100
AcDbEntity
  8
寸法引出
370
    -2
100
AcDbLine
 10
2792.939546897662
 20
483.9798439987371
 30
0.0
 11
2906.159035073215
 21
483.9798439987371
 31
0.0
  0
LINE
  5
7ED4
330
7ED2
100
AcDbEntity
  8
寸法引出
370
    -2
100
AcDbLine
 10
2702.939546897662
 20
453.9798439987371
 30
0.0
 11
2906.159035073215
 21
453.9798439987371
 31
0.0
  0
LINE
  5
7ED5
330
7ED2
100
AcDbEntity
  8
寸法引出
370
    -2
100
AcDbLine
 10
2896.159035073214
 20
513.9798439987371
 30
0.0
 11
2896.159035073214
 21
543.9798439987371
 31
0.0
  0
LINE
  5
7ED6
330
7ED2
100
AcDbEntity
  8
寸法引出
370
    -2
100
AcDbLine
 10
2896.159035073214
 20
423.979843998737
 30
0.0
 11
2896.159035073214
 21
393.979843998737
 31
0.0
  0
MTEXT
  5
7ED7
330
7ED2
100
AcDbEntity
  8
寸法引出
100
AcDbMText
 10
2856.409863678575
 20
413.9145585876248
 30
0.0
 40
40.0
 41
0.0
 71
     5
 72
     1
  1
\A1;3
  7
SANWA
 11
0.0000000000000001
 21
1.0
 31
0.0
 73
     1
 44
1.0
  0
LINE
  5
7ED8
330
7ED2
100
AcDbEntity
  8
寸法引出
370
    -2
100
AcDbLine
 10
2896.159035073214
 20
483.9798439987371
 30
0.0
 11
2896.159035073214
 21
453.9798439987371
 31
0.0
  0
SOLID
  5
7ED9
330
7ED2
100
AcDbEntity
  8
寸法引出
100
AcDbTrace
 10
2891.159035073215
 20
513.9798439987371
 30
0.0
 11
2901.159035073215
 21
513.9798439987371
 31
0.0
 12
2896.159035073214
 22
483.9798439987371
 32
0.0
 13
2896.159035073214
 23
483.9798439987371
 33
0.0
  0
SOLID
  5
7EDA
330
7ED2
100
AcDbEntity
  8
寸法引出
100
AcDbTrace
 10
2891.159035073215
 20
423.979843998737
 30
0.0
 11
2901.159035073215
 21
423.979843998737
 31
0.0
 12
2896.159035073214
 22
453.9798439987371
 32
0.0
 13
2896.159035073214
 23
453.9798439987371
 33
0.0
  0
POINT
  5
7EDB
330
7ED2
100
AcDbEntity
  8
DEFPOINTS
 62
     0
100
AcDbPoint
 10
2772.939546897662
 20
483.9798439987371
 30
0.0
  0
POINT
  5
7EDC
330
7ED2
100
AcDbEntity
  8
DEFPOINTS
 62
     0
100
AcDbPoint
 10
2682.939546897662
 20
453.9798439987371
 30
0.0
  0
POINT
  5
7EDD
330
7ED2
100
AcDbEntity
  8
DEFPOINTS
 62
     0
100
AcDbPoint
 10
2896.159035073214
 20
453.9798439987371
 30
0.0
  0
ENDBLK
  5
7EDF
330
7ED2
100
AcDbEntity
  8
0
100
AcDbBlockEnd
  0
BLOCK
  5
7EEA
330
7EE0
100
AcDbEntity
  8
0
100
AcDbBlockBegin
  2
*D5
 70
     1
 10
0.0
 20
0.0
 30
0.0
  3
*D5
  1

  0
LINE
  5
7EE1
330
7EE0
100
AcDbEntity
  8
寸法引出
370
    -2
100
AcDbLine
 10
2602.939546897662
 20
643.9798439987371
 30
0.0
 11
2512.475400745328
 21
643.9798439987371
 31
0.0
  0
LINE
  5
7EE2
330
7EE0
100
AcDbEntity
  8
寸法引出
370
    -2
100
AcDbLine
 10
2662.939546897662
 20
453.9798439987371
 30
0.0
 11
2512.475400745328
 21
453.9798439987371
 31
0.0
  0
LINE
  5
7EE3
330
7EE0
100
AcDbEntity
  8
寸法引出
370
    -2
100
AcDbLine
 10
2522.475400745328
 20
613.9798439987371
 30
0.0
 11
2522.475400745328
 21
483.9798439987371
 31
0.0
  0
SOLID
  5
7EE4
330
7EE0
100
AcDbEntity
  8
寸法引出
100
AcDbTrace
 10
2517.475400745328
 20
613.9798439987371
 30
0.0
 11
2527.475400745328
 21
613.9798439987371
 31
0.0
 12
2522.475400745328
 22
643.9798439987371
 32
0.0
 13
2522.475400745328
 23
643.9798439987371
 33
0.0
  0
SOLID
  5
7EE5
330
7EE0
100
AcDbEntity
  8
寸法引出
100
AcDbTrace
 10
2517.475400745328
 20
483.9798439987371
 30
0.0
 11
2527.475400745328
 21
483.9798439987371
 31
0.0
 12
2522.475400745328
 22
453.9798439987371
 32
0.0
 13
2522.475400745328
 23
453.9798439987371
 33
0.0
  0
MTEXT
  5
7EE6
330
7EE0
100
AcDbEntity
  8
寸法引出
100
AcDbMText
 10
2482.475400745328
 20
548.9798439987375
 30
0.0
 40
40.0
 41
0.0
 71
     5
 72
     1
  1
\A1;19
  7
SANWA
 11
0.0000000000000001
 21
1.0
 31
0.0
 73
     1
 44
1.0
  0
POINT
  5
7EE7
330
7EE0
100
AcDbEntity
  8
DEFPOINTS
 62
     0
100
AcDbPoint
 10
2622.939546897662
 20
643.9798439987371
 30
0.0
  0
POINT
  5
7EE8
330
7EE0
100
AcDbEntity
  8
DEFPOINTS
 62
     0
100
AcDbPoint
 10
2682.939546897662
 20
453.9798439987371
 30
0.0
  0
POINT
  5
7EE9
330
7EE0
100
AcDbEntity
  8
DEFPOINTS
 62
     0
100
AcDbPoint
 10
2522.475400745328
 20
453.9798439987371
 30
0.0
  0
ENDBLK
  5
7EEB
330
7EE0
100
AcDbEntity
  8
0
100
AcDbBlockEnd
  0
BLOCK
  5
7EF6
330
7EEC
100
AcDbEntity
  8
0
100
AcDbBlockBegin
  2
*D6
 70
     1
 10
0.0
 20
0.0
 30
0.0
  3
*D6
  1

  0
LINE
  5
7EED
330
7EEC
100
AcDbEntity
  8
寸法引出
370
    -2
100
AcDbLine
 10
1294.89106556753
 20
579.6682684644966
 30
0.0
 11
1294.89106556753
 21
664.5084064920374
 31
0.0
  0
LINE
  5
7EEE
330
7EEC
100
AcDbEntity
  8
寸法引出
370
    -2
100
AcDbLine
 10
1894.891065567549
 20
579.6682684644966
 30
0.0
 11
1894.891065567549
 21
664.5084064920374
 31
0.0
  0
LINE
  5
7EEF
330
7EEC
100
AcDbEntity
  8
寸法引出
370
    -2
100
AcDbLine
 10
1324.89106556753
 20
654.5084064920374
 30
0.0
 11
1864.891065567549
 21
654.5084064920374
 31
0.0
  0
SOLID
  5
7EF0
330
7EEC
100
AcDbEntity
  8
寸法引出
100
AcDbTrace
 10
1324.89106556753
 20
659.5084064920374
 30
0.0
 11
1324.89106556753
 21
649.5084064920375
 31
0.0
 12
1294.89106556753
 22
654.5084064920374
 32
0.0
 13
1294.89106556753
 23
654.5084064920374
 33
0.0
  0
SOLID
  5
7EF1
330
7EEC
100
AcDbEntity
  8
寸法引出
100
AcDbTrace
 10
1864.891065567549
 20
659.5084064920374
 30
0.0
 11
1864.891065567549
 21
649.5084064920375
 31
0.0
 12
1894.891065567549
 22
654.5084064920374
 32
0.0
 13
1894.891065567549
 23
654.5084064920374
 33
0.0
  0
MTEXT
  5
7EF2
330
7EEC
100
AcDbEntity
  8
寸法引出
100
AcDbMText
 10
1594.89106556754
 20
694.5084064920374
 30
0.0
 40
40.0
 41
0.0
 71
     5
 72
     1
  1
\A1;60
  7
SANWA
 73
     1
 44
1.0
  0
POINT
  5
7EF3
330
7EEC
100
AcDbEntity
  8
DEFPOINTS
 62
     0
100
AcDbPoint
 10
1294.89106556753
 20
559.6682684644965
 30
0.0
  0
POINT
  5
7EF4
330
7EEC
100
AcDbEntity
  8
DEFPOINTS
 62
     0
100
AcDbPoint
 10
1894.891065567549
 20
559.6682684644965
 30
0.0
  0
POINT
  5
7EF5
330
7EEC
100
AcDbEntity
  8
DEFPOINTS
 62
     0
100
AcDbPoint
 10
1894.891065567549
 20
654.5084064920374
 30
0.0
  0
ENDBLK
  5
7EF7
330
7EEC
100
AcDbEntity
  8
0
100
AcDbBlockEnd
  0
BLOCK
  5
7F04
330
7EF8
100
AcDbEntity
  8
0
100
AcDbBlockBegin
  2
*D7
 70
     1
 10
0.0
 20
0.0
 30
0.0
  3
*D7
  1

  0
LINE
  5
7EF9
330
7EF8
100
AcDbEntity
  8
寸法引出
370
    -2
100
AcDbLine
 10
1274.89106556753
 20
559.6682684644966
 30
0.0
 11
1190.177931307235
 21
559.6682684644966
 31
0.0
  0
LINE
  5
7EFA
330
7EF8
100
AcDbEntity
  8
寸法引出
370
    -2
100
AcDbLine
 10
1274.89106556753
 20
509.6682684644965
 30
0.0
 11
1190.177931307234
 21
509.6682684644965
 31
0.0
  0
LINE
  5
7EFB
330
7EF8
100
AcDbEntity
  8
寸法引出
370
    -2
100
AcDbLine
 10
1200.177931307235
 20
589.6682684644966
 30
0.0
 11
1200.177931307235
 21
619.6682684644967
 31
0.0
  0
LINE
  5
7EFC
330
7EF8
100
AcDbEntity
  8
寸法引出
370
    -2
100
AcDbLine
 10
1200.177931307234
 20
479.6682684644966
 30
0.0
 11
1200.177931307234
 21
449.6682684644965
 31
0.0
  0
LINE
  5
7EFD
330
7EF8
100
AcDbEntity
  8
寸法引出
370
    -2
100
AcDbLine
 10
1200.177931307235
 20
559.6682684644966
 30
0.0
 11
1200.177931307234
 21
509.6682684644965
 31
0.0
  0
SOLID
  5
7EFE
330
7EF8
100
AcDbEntity
  8
寸法引出
100
AcDbTrace
 10
1195.177931307235
 20
589.6682684644966
 30
0.0
 11
1205.177931307235
 21
589.6682684644966
 31
0.0
 12
1200.177931307235
 22
559.6682684644966
 32
0.0
 13
1200.177931307235
 23
559.6682684644966
 33
0.0
  0
SOLID
  5
7EFF
330
7EF8
100
AcDbEntity
  8
寸法引出
100
AcDbTrace
 10
1195.177931307235
 20
479.6682684644966
 30
0.0
 11
1205.177931307235
 21
479.6682684644966
 31
0.0
 12
1200.177931307234
 22
509.6682684644965
 32
0.0
 13
1200.177931307234
 23
509.6682684644965
 33
0.0
  0
MTEXT
  5
7F00
330
7EF8
100
AcDbEntity
  8
寸法引出
100
AcDbMText
 10
1160.177931307235
 20
534.6682684644967
 30
0.0
 40
40.0
 41
0.0
 71
     5
 72
     1
  1
\A1;5
  7
SANWA
 11
0.0000000000000001
 21
1.0
 31
0.0
 73
     1
 44
1.0
  0
POINT
  5
7F01
330
7EF8
100
AcDbEntity
  8
DEFPOINTS
 62
     0
100
AcDbPoint
 10
1294.89106556753
 20
559.6682684644965
 30
0.0
  0
POINT
  5
7F02
330
7EF8
100
AcDbEntity
  8
DEFPOINTS
 62
     0
100
AcDbPoint
 10
1294.89106556753
 20
509.6682684644965
 30
0.0
  0
POINT
  5
7F03
330
7EF8
100
AcDbEntity
  8
DEFPOINTS
 62
     0
100
AcDbPoint
 10
1200.177931307234
 20
509.6682684644965
 30
0.0
  0
ENDBLK
  5
7F05
330
7EF8
100
AcDbEntity
  8
0
100
AcDbBlockEnd
  0
BLOCK
  5
8123
330
7F06
100
AcDbEntity
  8
0
100
AcDbBlockBegin
  2
A$C56070A55
 70
     0
 10
0.0
 20
0.0
 30
0.0
  3
A$C56070A55
  1

  0
DIMENSION
  5
7F07
330
7F06
100
AcDbEntity
  8
寸法引出
100
AcDbDimension
  2
*D6
 10
766.1691294253152
 20
328.7931089201811
 30
0.0
 11
466.1691294253059
 21
368.7931089201811
 31
0.0
 12
-1128.721936142234
 22
-325.7152975718563
 32
0.0
  1
60
 71
     5
 42
600.0000000000186
  3
SANWA
100
AcDbAlignedDimension
 13
166.1691294252966
 23
233.9529708926402
 33
0.0
 14
766.1691294253152
 24
233.9529708926402
 34
0.0
100
AcDbRotatedDimension
1001
ACAD
1000
DSTYLE
1002
{
1070
    40
1040
20.0
1070
    41
1040
1.5
1070
    43
1040
5.0
1070
    44
1040
0.5
1070
   140
1040
2.0
1070
   147
1040
1.0
1070
   176
1070
   256
1070
   177
1070
   256
1070
   178
1070
   256
1002
}
  0
LINE
  5
7F08
330
7F06
100
AcDbEntity
  8
0
100
AcDbLine
 10
166.1691294253059
 20
183.9529708926402
 30
0.0
 11
766.169129425306
 21
183.9529708926402
 31
0.0
  0
LINE
  5
7F09
330
7F06
100
AcDbEntity
  8
0
100
AcDbLine
 10
492.6267558050121
 20
183.9529708926402
 30
0.0
 11
448.4319042343659
 21
228.1478224632865
 31
0.0
  0
LINE
  5
7F0A
330
7F06
100
AcDbEntity
  8
0
100
AcDbLine
 10
488.1366277444786
 20
183.9529708926402
 30
0.0
 11
445.9624978051388
 21
226.1271008319799
 31
0.0
  0
LINE
  5
7F0B
330
7F06
100
AcDbEntity
  8
0
100
AcDbLine
 10
448.599285152758
 20
183.9529708926402
 30
0.0
 11
488.5625827174035
 21
223.9162684572947
 31
0.0
  0
LINE
  5
7F0C
330
7F06
100
AcDbEntity
  8
0
100
AcDbLine
 10
444.1091570922062
 20
183.9529708926402
 30
0.0
 11
486.3273269585797
 21
226.1711407589955
 31
0.0
  0
LINE
  5
7F0D
330
7F06
100
AcDbEntity
  8
0
100
AcDbLine
 10
439.6190290316726
 20
183.9529708926402
 30
0.0
 11
483.8529448039107
 21
228.1868866648737
 31
0.0
  0
ARC
  5
7F0E
330
7F06
100
AcDbEntity
  8
0
100
AcDbCircle
 10
466.1691294253059
 20
203.9529708926402
 30
0.0
 40
30.0
100
AcDbArc
 50
0.0
 51
180.0
  0
LINE
  5
7F0F
330
7F06
100
AcDbEntity
  8
0
100
AcDbLine
 10
483.6464996839449
 20
183.9529708926402
 30
0.0
 11
443.7321425511973
 21
223.8673280253879
 31
0.0
  0
LINE
  5
7F10
330
7F06
100
AcDbEntity
  8
0
100
AcDbLine
 10
479.1563716234113
 20
183.9529708926402
 30
0.0
 11
441.7413426605699
 21
221.3679998554771
 31
0.0
  0
LINE
  5
7F11
330
7F06
100
AcDbEntity
  8
0
100
AcDbLine
 10
474.6662435628777
 20
183.9529708926402
 30
0.0
 11
439.9990453980526
 21
218.6201690574607
 31
0.0
  0
LINE
  5
7F12
330
7F06
100
AcDbEntity
  8
0
100
AcDbLine
 10
470.1761155023441
 20
183.9529708926402
 30
0.0
 11
438.5243177935799
 21
215.6047686014044
 31
0.0
  0
LINE
  5
7F13
330
7F06
100
AcDbEntity
  8
0
100
AcDbLine
 10
465.6859874418105
 20
183.9529708926402
 30
0.0
 11
437.3504159293761
 21
212.2885424050746
 31
0.0
  0
LINE
  5
7F14
330
7F06
100
AcDbEntity
  8
0
100
AcDbLine
 10
435.128900971139
 20
183.9529708926402
 30
0.0
 11
481.1314061455768
 21
229.9554760670734
 31
0.0
  0
LINE
  5
7F15
330
7F06
100
AcDbEntity
  8
0
100
AcDbLine
 10
430.6387729106054
 20
183.9529708926402
 30
0.0
 11
478.1448226439525
 21
231.4590206259826
 31
0.0
  0
LINE
  5
7F16
330
7F06
100
AcDbEntity
  8
0
100
AcDbLine
 10
426.1486448500718
 20
183.9529708926402
 30
0.0
 11
474.8616957327421
 21
232.6660217753105
 31
0.0
  0
LINE
  5
7F17
330
7F06
100
AcDbEntity
  8
0
100
AcDbLine
 10
421.6585167895382
 20
183.9529708926402
 30
0.0
 11
471.2287723437103
 21
233.5232264468031
 31
0.0
  0
LINE
  5
7F18
330
7F06
100
AcDbEntity
  8
0
100
AcDbLine
 10
417.1683887290046
 20
183.9529708926402
 30
0.0
 11
467.152274820236
 21
233.9368569838807
 31
0.0
  0
LINE
  5
7F19
330
7F06
100
AcDbEntity
  8
0
100
AcDbLine
 10
461.1958593812769
 20
183.9529708926402
 30
0.0
 11
436.5336184685101
 21
208.6152118054069
 31
0.0
  0
LINE
  5
7F1A
330
7F06
100
AcDbEntity
  8
0
100
AcDbLine
 10
456.7057313207433
 20
183.9529708926402
 30
0.0
 11
436.1738448495443
 21
204.4848573638391
 31
0.0
  0
LINE
  5
7F1B
330
7F06
100
AcDbEntity
  8
0
100
AcDbLine
 10
452.2156032602096
 20
183.9529708926402
 30
0.0
 11
432.2156032602097
 21
203.9529708926402
 31
0.0
  0
LINE
  5
7F1C
330
7F06
100
AcDbEntity
  8
0
100
AcDbLine
 10
436.4010060972932
 20
207.6757163214624
 30
0.0
 11
462.4463839964837
 21
233.7210942206575
 31
0.0
  0
LINE
  5
7F1D
330
7F06
100
AcDbEntity
  8
0
100
AcDbLine
 10
437.7255378620239
 20
213.4903761467267
 30
0.0
 11
456.6317241712194
 21
232.3965624559314
 31
0.0
  0
DIMENSION
  5
7F1E
330
7F06
100
AcDbEntity
  8
寸法引出
100
AcDbDimension
  2
*D7
 10
71.45599516500102
 20
183.9529708926402
 30
0.0
 11
31.45599516500101
 21
208.9529708926404
 31
0.0
 12
-1128.721936142234
 22
-325.7152975718563
 32
0.0
  1
5
 71
     5
 42
50.00000000000006
  3
SANWA
100
AcDbAlignedDimension
 13
166.1691294252966
 23
233.9529708926402
 33
0.0
 14
166.1691294252966
 24
183.9529708926402
 34
0.0
 50
90.0
100
AcDbRotatedDimension
1001
ACAD
1000
DSTYLE
1002
{
1070
    40
1040
20.0
1070
    41
1040
1.5
1070
    43
1040
5.0
1070
    44
1040
0.5
1070
   140
1040
2.0
1070
   147
1040
1.0
1070
   176
1070
   256
1070
   177
1070
   256
1070
   178
1070
   256
1002
}
  0
LINE
  5
7F1F
330
7F06
100
AcDbEntity
  8
0
100
AcDbLine
 10
337.2685147824258
 20
119.2949369490297
 30
0.0
 11
306.1691294253059
 21
150.3943223061451
 31
0.0
  0
LINE
  5
7F20
330
7F06
100
AcDbEntity
  8
0
100
AcDbLine
 10
335.3441741850647
 20
116.7291494858664
 30
0.0
 11
306.1691294253059
 21
145.9041942456115
 31
0.0
  0
LINE
  5
7F21
330
7F06
100
AcDbEntity
  8
0
100
AcDbLine
 10
333.4198335876854
 20
114.163362022703
 30
0.0
 11
306.1691294253059
 21
141.4140661850779
 31
0.0
  0
LINE
  5
7F22
330
7F06
100
AcDbEntity
  8
0
100
AcDbLine
 10
331.495492990306
 20
111.5975745595396
 30
0.0
 11
306.1691294253059
 21
136.9239381245397
 31
0.0
  0
LINE
  5
7F23
330
7F06
100
AcDbEntity
  8
0
100
AcDbLine
 10
300.4437426875656
 20
112.1296054565418
 30
0.0
 11
326.169129425306
 21
137.8549921942958
 31
0.0
  0
LINE
  5
7F24
330
7F06
100
AcDbEntity
  8
0
100
AcDbLine
 10
298.5194020901863
 20
114.6953929197052
 30
0.0
 11
326.169129425306
 21
142.3451202548294
 31
0.0
  0
LINE
  5
7F25
330
7F06
100
AcDbEntity
  8
0
100
AcDbLine
 10
296.5950614928251
 20
117.2611803828685
 30
0.0
 11
326.169129425306
 21
146.835248315363
 31
0.0
  0
LINE
  5
7F26
330
7F06
100
AcDbEntity
  8
0
100
AcDbLine
 10
306.1691294253059
 20
131.3253763758966
 30
0.0
 11
326.169129425306
 21
151.3253763758966
 31
0.0
  0
LINE
  5
7F27
330
7F06
100
AcDbEntity
  8
0
100
AcDbLine
 10
306.1691294253059
 20
183.9529708926402
 30
0.0
 11
306.1691294253059
 21
131.162423139538
 31
0.0
  0
LINE
  5
7F28
330
7F06
100
AcDbEntity
  8
0
100
AcDbLine
 10
326.169129425306
 20
183.9529708926402
 30
0.0
 11
326.169129425306
 21
131.162423139538
 31
0.0
  0
LINE
  5
7F29
330
7F06
100
AcDbEntity
  8
0
100
AcDbLine
 10
316.1691294253059
 20
91.16242313953808
 30
0.0
 11
346.1691294253059
 21
131.162423139538
 31
0.0
  0
LINE
  5
7F2A
330
7F06
100
AcDbEntity
  8
0
100
AcDbLine
 10
311.9897862717871
 20
96.73488067756625
 30
0.0
 11
345.4245314999561
 21
130.1696259057262
 31
0.0
  0
LINE
  5
7F2B
330
7F06
100
AcDbEntity
  8
0
100
AcDbLine
 10
310.0654456744259
 20
99.30066814072961
 30
0.0
 11
341.9272006732344
 21
131.162423139538
 31
0.0
  0
LINE
  5
7F2C
330
7F06
100
AcDbEntity
  8
0
100
AcDbLine
 10
308.1411050770466
 20
101.8664556038929
 30
0.0
 11
337.4370726127008
 21
131.162423139538
 31
0.0
  0
LINE
  5
7F2D
330
7F06
100
AcDbEntity
  8
0
100
AcDbLine
 10
306.2167644796854
 20
104.4322430670563
 30
0.0
 11
332.9469445521672
 21
131.162423139538
 31
0.0
  0
LINE
  5
7F2E
330
7F06
100
AcDbEntity
  8
0
100
AcDbLine
 10
339.1928553798052
 20
121.8607244121931
 30
0.0
 11
329.8911566524648
 21
131.162423139538
 31
0.0
  0
LINE
  5
7F2F
330
7F06
100
AcDbEntity
  8
0
100
AcDbLine
 10
326.169129425306
 20
131.162423139538
 30
0.0
 11
346.1691294253059
 21
131.162423139538
 31
0.0
  0
LINE
  5
7F30
330
7F06
100
AcDbEntity
  8
0
100
AcDbLine
 10
315.8384674665458
 20
91.60330575123953
 30
0.0
 11
318.4837631367545
 21
94.24860142144826
 31
0.0
  0
LINE
  5
7F31
330
7F06
100
AcDbEntity
  8
0
100
AcDbLine
 10
316.1691294253059
 20
91.16242313953808
 30
0.0
 11
286.1691294253059
 21
131.162423139538
 31
0.0
  0
LINE
  5
7F32
330
7F06
100
AcDbEntity
  8
0
100
AcDbLine
 10
329.5711523929448
 20
109.0317870963763
 30
0.0
 11
306.1691294253059
 21
132.4338100640061
 31
0.0
  0
LINE
  5
7F33
330
7F06
100
AcDbEntity
  8
0
100
AcDbLine
 10
327.6468117955655
 20
106.4659996332175
 30
0.0
 11
302.9503882892449
 21
131.162423139538
 31
0.0
  0
LINE
  5
7F34
330
7F06
100
AcDbEntity
  8
0
100
AcDbLine
 10
325.7224711982043
 20
103.9002121700541
 30
0.0
 11
298.4602602287113
 21
131.162423139538
 31
0.0
  0
LINE
  5
7F35
330
7F06
100
AcDbEntity
  8
0
100
AcDbLine
 10
323.798130600825
 20
101.3344247068907
 30
0.0
 11
293.9701321681777
 21
131.162423139538
 31
0.0
  0
LINE
  5
7F36
330
7F06
100
AcDbEntity
  8
0
100
AcDbLine
 10
321.8737900034639
 20
98.76863724372743
 30
0.0
 11
289.4800041076441
 21
131.162423139538
 31
0.0
  0
LINE
  5
7F37
330
7F06
100
AcDbEntity
  8
0
100
AcDbLine
 10
319.9494494060845
 20
96.20284978056407
 30
0.0
 11
289.7068895599286
 21
126.4454096267154
 31
0.0
  0
LINE
  5
7F38
330
7F06
100
AcDbEntity
  8
0
100
AcDbLine
 10
313.9141268691664
 20
94.16909321440289
 30
0.0
 11
331.9541473183553
 21
112.2091136635872
 31
0.0
  0
LINE
  5
7F39
330
7F06
100
AcDbEntity
  8
0
100
AcDbLine
 10
304.2924238823061
 20
106.9980305302197
 30
0.0
 11
328.4568164916336
 21
131.162423139538
 31
0.0
  0
LINE
  5
7F3A
330
7F06
100
AcDbEntity
  8
0
100
AcDbLine
 10
302.3680832849449
 20
109.5638179933785
 30
0.0
 11
326.169129425306
 21
133.3648641337576
 31
0.0
  0
LINE
  5
7F3B
330
7F06
100
AcDbEntity
  8
0
100
AcDbLine
 10
318.0251088087052
 20
93.63706231740071
 30
0.0
 11
303.1772737415294
 21
108.4848973845764
 31
0.0
  0
LINE
  5
7F3C
330
7F06
100
AcDbEntity
  8
0
100
AcDbLine
 10
294.6707208954458
 20
119.8269678460319
 30
0.0
 11
306.0061761889473
 21
131.162423139538
 31
0.0
  0
LINE
  5
7F3D
330
7F06
100
AcDbEntity
  8
0
100
AcDbLine
 10
292.7463802980664
 20
122.3927553091953
 30
0.0
 11
301.5160481284137
 21
131.162423139538
 31
0.0
  0
LINE
  5
7F3E
330
7F06
100
AcDbEntity
  8
0
100
AcDbLine
 10
290.8220397007053
 20
124.9585427723541
 30
0.0
 11
297.0259200678802
 21
131.162423139538
 31
0.0
  0
LINE
  5
7F3F
330
7F06
100
AcDbEntity
  8
0
100
AcDbLine
 10
288.8976991033259
 20
127.5243302355174
 30
0.0
 11
292.5357920073465
 21
131.162423139538
 31
0.0
  0
LINE
  5
7F40
330
7F06
100
AcDbEntity
  8
0
100
AcDbLine
 10
286.9733585059648
 20
130.0901176986808
 30
0.0
 11
288.0456639468129
 21
131.162423139538
 31
0.0
  0
LINE
  5
7F41
330
7F06
100
AcDbEntity
  8
0
100
AcDbLine
 10
286.1691294253059
 20
131.162423139538
 30
0.0
 11
306.1691294253059
 21
131.162423139538
 31
0.0
  0
LINE
  5
7F42
330
7F06
100
AcDbEntity
  8
0
100
AcDbLine
 10
344.965877171925
 20
129.5580868016786
 30
0.0
 11
343.3615408340656
 21
131.162423139538
 31
0.0
  0
LINE
  5
7F43
330
7F06
100
AcDbEntity
  8
0
100
AcDbLine
 10
343.0415365745457
 20
126.9922993385153
 30
0.0
 11
338.871412773532
 21
131.162423139538
 31
0.0
  0
LINE
  5
7F44
330
7F06
100
AcDbEntity
  8
0
100
AcDbLine
 10
341.1171959771845
 20
124.4265118753564
 30
0.0
 11
334.3812847129984
 21
131.162423139538
 31
0.0
  0
ARC
  5
7F45
330
7F06
100
AcDbEntity
  8
0
100
AcDbCircle
 10
164.9972544253059
 20
294.8904708926402
 30
0.0
 40
110.94368930798
100
AcDbArc
 50
270.6052145972845
 51
297.4672723386037
  0
ARC
  5
7F46
330
7F06
100
AcDbEntity
  8
0
100
AcDbCircle
 10
164.9972544253059
 20
98.01547089264023
 30
0.0
 40
110.94368930798
100
AcDbArc
 50
62.53272766139629
 51
89.39478540271551
  0
ARC
  5
7F47
330
7F06
100
AcDbEntity
  8
0
100
AcDbCircle
 10
164.9972544253059
 20
319.8904708926402
 30
0.0
 40
110.94368930798
100
AcDbArc
 50
270.6052145972845
 51
297.4672723386037
  0
ARC
  5
7F48
330
7F06
100
AcDbEntity
  8
0
100
AcDbCircle
 10
164.9972544253059
 20
123.0154708926402
 30
0.0
 40
110.94368930798
100
AcDbArc
 50
62.53272766139629
 51
89.39478540271551
  0
LINE
  5
7F49
330
7F06
100
AcDbEntity
  8
0
100
AcDbLine
 10
236.1691294253059
 20
233.9529708926402
 30
0.0
 11
166.1691294253059
 21
233.9529708926402
 31
0.0
  0
LINE
  5
7F4A
330
7F06
100
AcDbEntity
  8
0
100
AcDbLine
 10
236.689456354542
 20
183.9529708926402
 30
0.0
 11
204.4454550256696
 21
216.1969722215126
 31
0.0
  0
LINE
  5
7F4B
330
7F06
100
AcDbEntity
  8
0
100
AcDbLine
 10
232.1993282940084
 20
183.9529708926402
 30
0.0
 11
201.1498320373894
 21
215.0024671492683
 31
0.0
  0
LINE
  5
7F4C
330
7F06
100
AcDbEntity
  8
0
100
AcDbLine
 10
227.7092002334748
 20
183.9529708926402
 30
0.0
 11
215.5358341781166
 21
196.1263369479984
 31
0.0
  0
LINE
  5
7F4D
330
7F06
100
AcDbEntity
  8
0
100
AcDbLine
 10
223.2190721729411
 20
183.9529708926402
 30
0.0
 11
212.5279463052711
 21
194.6440967603102
 31
0.0
  0
LINE
  5
7F4E
330
7F06
100
AcDbEntity
  8
0
100
AcDbLine
 10
218.7289441124075
 20
183.9529708926402
 30
0.0
 11
209.4431337573396
 21
193.2387812477081
 31
0.0
  0
LINE
  5
7F4F
330
7F06
100
AcDbEntity
  8
0
100
AcDbLine
 10
205.5147336713334
 20
201.295846922233
 30
0.0
 11
238.1090691652925
 21
233.890182416183
 31
0.0
  0
LINE
  5
7F50
330
7F06
100
AcDbEntity
  8
0
100
AcDbLine
 10
202.2474572273849
 20
202.5186985388227
 30
0.0
 11
233.6817295812025
 21
233.9529708926402
 31
0.0
  0
LINE
  5
7F51
330
7F06
100
AcDbEntity
  8
0
100
AcDbLine
 10
198.893013463602
 20
203.6543828355643
 30
0.0
 11
229.1916015206688
 21
233.9529708926402
 31
0.0
  0
LINE
  5
7F52
330
7F06
100
AcDbEntity
  8
0
100
AcDbLine
 10
213.5293754227304
 20
222.7808728552354
 30
0.0
 11
224.7014734601352
 21
233.9529708926402
 31
0.0
  0
LINE
  5
7F53
330
7F06
100
AcDbEntity
  8
0
100
AcDbLine
 10
210.4702382957284
 20
224.2118637887624
 30
0.0
 11
220.2113453996016
 21
233.9529708926402
 31
0.0
  0
LINE
  5
7F54
330
7F06
100
AcDbEntity
  8
0
100
AcDbLine
 10
263.6302247177436
 20
183.9529708926402
 30
0.0
 11
213.6302247177436
 21
233.9529708926402
 31
0.0
  0
LINE
  5
7F55
330
7F06
100
AcDbEntity
  8
0
100
AcDbLine
 10
259.14009665721
 20
183.9529708926402
 30
0.0
 11
209.14009665721
 21
233.9529708926402
 31
0.0
  0
LINE
  5
7F56
330
7F06
100
AcDbEntity
  8
0
100
AcDbLine
 10
254.6499685966764
 20
183.9529708926402
 30
0.0
 11
204.6499685966764
 21
233.9529708926402
 31
0.0
  0
LINE
  5
7F57
330
7F06
100
AcDbEntity
  8
0
100
AcDbLine
 10
250.1598405361428
 20
183.9529708926402
 30
0.0
 11
213.8373404046242
 21
220.2754710241543
 31
0.0
  0
LINE
  5
7F58
330
7F06
100
AcDbEntity
  8
0
100
AcDbLine
 10
245.6697124756092
 20
183.9529708926402
 30
0.0
 11
210.7860851351497
 21
218.8365982330951
 31
0.0
  0
LINE
  5
7F59
330
7F06
100
AcDbEntity
  8
0
100
AcDbLine
 10
241.1795844150756
 20
183.9529708926402
 30
0.0
 11
207.6564257089549
 21
217.4761295987609
 31
0.0
  0
LINE
  5
7F5A
330
7F06
100
AcDbEntity
  8
0
100
AcDbLine
 10
215.1126260049559
 20
183.9529708926402
 30
0.0
 11
256.8475028622551
 21
225.6878477499485
 31
0.0
  0
LINE
  5
7F5B
330
7F06
100
AcDbEntity
  8
0
100
AcDbLine
 10
210.6224979444223
 20
183.9529708926402
 30
0.0
 11
254.4269505966795
 21
227.757423544911
 31
0.0
  0
LINE
  5
7F5C
330
7F06
100
AcDbEntity
  8
0
100
AcDbLine
 10
206.1323698838886
 20
183.9529708926402
 30
0.0
 11
251.7618113564267
 21
229.5824123651919
 31
0.0
  0
LINE
  5
7F5D
330
7F06
100
AcDbEntity
  8
0
100
AcDbLine
 10
214.8279284382069
 20
197.1386575075057
 30
0.0
 11
248.8366259972817
 21
231.1473550665714
 31
0.0
  0
LINE
  5
7F5E
330
7F06
100
AcDbEntity
  8
0
100
AcDbLine
 10
211.8019854772674
 20
198.6028426070906
 30
0.0
 11
245.6234346454757
 21
232.4242917753081
 31
0.0
  0
LINE
  5
7F5F
330
7F06
100
AcDbEntity
  8
0
100
AcDbLine
 10
208.6985128384721
 20
199.989498028829
 30
0.0
 11
242.0749332179902
 21
233.3659184083562
 31
0.0
  0
LINE
  5
7F60
330
7F06
100
AcDbEntity
  8
0
100
AcDbLine
 10
195.4471715123863
 20
204.6986689448913
 30
0.0
 11
208.6398083411577
 21
217.8913057736672
 31
0.0
  0
LINE
  5
7F61
330
7F06
100
AcDbEntity
  8
0
100
AcDbLine
 10
173.8276635070533
 20
183.9529708926402
 30
0.0
 11
173.5070080242976
 21
184.273626375405
 31
0.0
  0
LINE
  5
7F62
330
7F06
100
AcDbEntity
  8
0
100
AcDbLine
 10
171.4605415567703
 20
208.7707331456003
 30
0.0
 11
171.1156537828528
 21
209.1156209195178
 31
0.0
  0
LINE
  5
7F63
330
7F06
100
AcDbEntity
  8
0
100
AcDbLine
 10
166.7965784376056
 20
208.9445682042314
 30
0.0
 11
166.7800400877231
 21
208.961106554123
 31
0.0
  0
LINE
  5
7F64
330
7F06
100
AcDbEntity
  8
0
100
AcDbLine
 10
169.3375354465197
 20
183.9529708926402
 30
0.0
 11
169.2617348905869
 21
184.028771448573
 31
0.0
  0
LINE
  5
7F65
330
7F06
100
AcDbEntity
  8
0
100
AcDbLine
 10
170.2113453996016
 20
183.9529708926402
 30
0.0
 11
170.3335668170793
 21
184.0751923101133
 31
0.0
  0
LINE
  5
7F66
330
7F06
100
AcDbEntity
  8
0
100
AcDbLine
 10
172.512090856434
 20
208.7043566521406
 30
0.0
 11
173.0469288312442
 21
209.2391946269599
 31
0.0
  0
LINE
  5
7F67
330
7F06
100
AcDbEntity
  8
0
100
AcDbLine
 10
168.2296671781104
 20
208.9120610343643
 30
0.0
 11
168.3139764155557
 21
208.9963702718005
 31
0.0
  0
LINE
  5
7F68
330
7F06
100
AcDbEntity
  8
0
100
AcDbLine
 10
214.2204502072299
 20
197.4417209188804
 30
0.0
 11
197.7657114778039
 21
213.8964596483019
 31
0.0
  0
LINE
  5
7F69
330
7F06
100
AcDbEntity
  8
0
100
AcDbLine
 10
206.1128393541903
 20
201.059203711391
 30
0.0
 11
194.2886560069191
 21
212.8833870586668
 31
0.0
  0
LINE
  5
7F6A
330
7F06
100
AcDbEntity
  8
0
100
AcDbLine
 10
199.0913895394433
 20
203.5905254656136
 30
0.0
 11
190.7135253063815
 21
211.9683896986707
 31
0.0
  0
LINE
  5
7F6B
330
7F06
100
AcDbEntity
  8
0
100
AcDbLine
 10
192.7633446153404
 20
205.4284423291737
 30
0.0
 11
187.0343344931452
 21
211.1574524513689
 31
0.0
  0
LINE
  5
7F6C
330
7F06
100
AcDbEntity
  8
0
100
AcDbLine
 10
214.238816051874
 20
183.9529708926402
 30
0.0
 11
206.2787098563412
 21
191.9130770881684
 31
0.0
  0
LINE
  5
7F6D
330
7F06
100
AcDbEntity
  8
0
100
AcDbLine
 10
186.9326005137363
 20
206.7690583702351
 30
0.0
 11
183.2440709943866
 21
210.4575878895848
 31
0.0
  0
LINE
  5
7F6E
330
7F06
100
AcDbEntity
  8
0
100
AcDbLine
 10
209.7486879913403
 20
183.9529708926402
 30
0.0
 11
203.0315876092563
 21
190.6700712747197
 31
0.0
  0
LINE
  5
7F6F
330
7F06
100
AcDbEntity
  8
0
100
AcDbLine
 10
181.4842503438367
 20
207.7272804796148
 30
0.0
 11
179.334454124636
 21
209.8770766988063
 31
0.0
  0
LINE
  5
7F70
330
7F06
100
AcDbEntity
  8
0
100
AcDbLine
 10
205.2585599308067
 20
183.9529708926402
 30
0.0
 11
199.6982175770781
 21
189.5133132463733
 31
0.0
  0
LINE
  5
7F71
330
7F06
100
AcDbEntity
  8
0
100
AcDbLine
 10
176.3440123415957
 20
208.3773904213221
 30
0.0
 11
175.2956139557491
 21
209.4257888071552
 31
0.0
  0
LINE
  5
7F72
330
7F06
100
AcDbEntity
  8
0
100
AcDbLine
 10
200.7684318702731
 20
183.9529708926402
 30
0.0
 11
196.2745105660715
 21
188.4468921968327
 31
0.0
  0
LINE
  5
7F73
330
7F06
100
AcDbEntity
  8
0
100
AcDbLine
 10
196.2783038097395
 20
183.9529708926402
 30
0.0
 11
192.7557405885263
 21
187.4755341138443
 31
0.0
  0
LINE
  5
7F74
330
7F06
100
AcDbEntity
  8
0
100
AcDbLine
 10
191.7881757492059
 20
183.9529708926402
 30
0.0
 11
189.1364217922446
 21
186.6047248496015
 31
0.0
  0
LINE
  5
7F75
330
7F06
100
AcDbEntity
  8
0
100
AcDbLine
 10
187.2980476886541
 20
183.9529708926402
 30
0.0
 11
185.410150491497
 21
185.8408680898019
 31
0.0
  0
LINE
  5
7F76
330
7F06
100
AcDbEntity
  8
0
100
AcDbLine
 10
182.8079196281205
 20
183.9529708926402
 30
0.0
 11
181.5693995790379
 21
185.1914909417319
 31
0.0
  0
LINE
  5
7F77
330
7F06
100
AcDbEntity
  8
0
100
AcDbLine
 10
178.3177915675869
 20
183.9529708926402
 30
0.0
 11
177.6052466760838
 21
184.6655157841432
 31
0.0
  0
LINE
  5
7F78
330
7F06
100
AcDbEntity
  8
0
100
AcDbLine
 10
201.6422418233369
 20
183.9529708926402
 30
0.0
 11
212.1595016733763
 21
194.4702307426614
 31
0.0
  0
LINE
  5
7F79
330
7F06
100
AcDbEntity
  8
0
100
AcDbLine
 10
197.1521137628032
 20
183.9529708926402
 30
0.0
 11
204.3658755564674
 21
191.1667326863043
 31
0.0
  0
LINE
  5
7F7A
330
7F06
100
AcDbEntity
  8
0
100
AcDbLine
 10
192.6619857022697
 20
183.9529708926402
 30
0.0
 11
197.5341691355233
 21
188.8251543258848
 31
0.0
  0
LINE
  5
7F7B
330
7F06
100
AcDbEntity
  8
0
100
AcDbLine
 10
188.171857641736
 20
183.9529708926402
 30
0.0
 11
191.3379889974376
 21
187.1191022483371
 31
0.0
  0
LINE
  5
7F7C
330
7F06
100
AcDbEntity
  8
0
100
AcDbLine
 10
183.6817295812025
 20
183.9529708926402
 30
0.0
 11
185.6065792765721
 21
185.8778205880007
 31
0.0
  0
LINE
  5
7F7D
330
7F06
100
AcDbEntity
  8
0
100
AcDbLine
 10
179.1916015206688
 20
183.9529708926402
 30
0.0
 11
180.2371142315487
 21
184.99848360352
 31
0.0
  0
LINE
  5
7F7E
330
7F06
100
AcDbEntity
  8
0
100
AcDbLine
 10
174.7014734601352
 20
183.9529708926402
 30
0.0
 11
175.1619078889043
 21
184.4134053214047
 31
0.0
  0
LINE
  5
7F7F
330
7F06
100
AcDbEntity
  8
0
100
AcDbLine
 10
191.9050371072435
 20
205.646662600282
 30
0.0
 11
201.3194633850607
 21
215.0610888781038
 31
0.0
  0
LINE
  5
7F80
330
7F06
100
AcDbEntity
  8
0
100
AcDbLine
 10
188.260922141143
 20
206.4926756947243
 30
0.0
 11
194.7901831788649
 21
213.0219367324325
 31
0.0
  0
LINE
  5
7F81
330
7F06
100
AcDbEntity
  8
0
100
AcDbLine
 10
184.5081767140427
 20
207.2300583281485
 30
0.0
 11
188.8107600972571
 21
211.5326417113674
 31
0.0
  0
LINE
  5
7F82
330
7F06
100
AcDbEntity
  8
0
100
AcDbLine
 10
180.6389697678778
 20
207.8509794425081
 30
0.0
 11
183.2458798362304
 21
210.4578895108697
 31
0.0
  0
LINE
  5
7F83
330
7F06
100
AcDbEntity
  8
0
100
AcDbLine
 10
176.6439978228108
 20
208.3461355579929
 30
0.0
 11
178.0104860154633
 21
209.7126237506363
 31
0.0
  0
POINT
  5
7F84
330
7F06
100
AcDbEntity
  8
DEFPOINTS
  6
ByBlock
 62
     0
100
AcDbPoint
 10
166.1691294253059
 20
233.9529708926402
 30
0.0
  0
LINE
  5
7F85
330
7F06
100
AcDbEntity
  8
0
100
AcDbLine
 10
173.5424607487939
 20
233.629582316792
 30
0.0
 11
173.2190721729411
 21
233.9529708926402
 31
0.0
  0
LINE
  5
7F86
330
7F06
100
AcDbEntity
  8
0
100
AcDbLine
 10
168.7875187308955
 20
233.8943962741568
 30
0.0
 11
168.7289441124075
 21
233.9529708926402
 31
0.0
  0
LINE
  5
7F87
330
7F06
100
AcDbEntity
  8
0
100
AcDbLine
 10
170.6804660608386
 20
233.8135002197514
 30
0.0
 11
170.8199367337319
 21
233.9529708926402
 31
0.0
  0
LINE
  5
7F88
330
7F06
100
AcDbEntity
  8
0
100
AcDbLine
 10
166.3280164934612
 20
233.9511787129076
 30
0.0
 11
166.3298086731983
 21
233.9529708926402
 31
0.0
  0
LINE
  5
7F89
330
7F06
100
AcDbEntity
  8
0
100
AcDbLine
 10
209.4476067789937
 20
224.6652046497893
 30
0.0
 11
200.1598405361428
 21
233.9529708926402
 31
0.0
  0
LINE
  5
7F8A
330
7F06
100
AcDbEntity
  8
0
100
AcDbLine
 10
202.0249327311821
 20
227.5977506370764
 30
0.0
 11
195.6697124756092
 21
233.9529708926402
 31
0.0
  0
LINE
  5
7F8B
330
7F06
100
AcDbEntity
  8
0
100
AcDbLine
 10
195.4285823164527
 20
229.703972991263
 30
0.0
 11
191.1795844150756
 21
233.9529708926402
 31
0.0
  0
LINE
  5
7F8C
330
7F06
100
AcDbEntity
  8
0
100
AcDbLine
 10
189.4003929437158
 20
231.2420343034664
 30
0.0
 11
186.689456354542
 21
233.9529708926402
 31
0.0
  0
LINE
  5
7F8D
330
7F06
100
AcDbEntity
  8
0
100
AcDbLine
 10
183.7976974189759
 20
232.3546017676726
 30
0.0
 11
182.1993282940084
 21
233.9529708926402
 31
0.0
  0
LINE
  5
7F8E
330
7F06
100
AcDbEntity
  8
0
100
AcDbLine
 10
178.531660117077
 20
233.1305110090425
 30
0.0
 11
177.7092002334748
 21
233.9529708926402
 31
0.0
  0
LINE
  5
7F8F
330
7F06
100
AcDbEntity
  8
0
100
AcDbLine
 10
207.3324183973081
 20
225.5641719508712
 30
0.0
 11
215.721217339068
 21
233.9529708926402
 31
0.0
  0
LINE
  5
7F90
330
7F06
100
AcDbEntity
  8
0
100
AcDbLine
 10
204.1129671279113
 20
226.8348487420216
 30
0.0
 11
211.2310892785344
 21
233.9529708926402
 31
0.0
  0
LINE
  5
7F91
330
7F06
100
AcDbEntity
  8
0
100
AcDbLine
 10
200.8084954481264
 20
228.0205051227749
 30
0.0
 11
206.7409612180008
 21
233.9529708926402
 31
0.0
  0
LINE
  5
7F92
330
7F06
100
AcDbEntity
  8
0
100
AcDbLine
 10
197.4151020158014
 20
229.1172397509699
 30
0.0
 11
202.2508331574672
 21
233.9529708926402
 31
0.0
  0
LINE
  5
7F93
330
7F06
100
AcDbEntity
  8
0
100
AcDbLine
 10
193.9282832582275
 20
230.120549053925
 30
0.0
 11
197.7607050969336
 21
233.9529708926402
 31
0.0
  0
LINE
  5
7F94
330
7F06
100
AcDbEntity
  8
0
100
AcDbLine
 10
190.3428197296843
 20
231.02521358592
 30
0.0
 11
193.2705770364
 21
233.9529708926402
 31
0.0
  0
LINE
  5
7F95
330
7F06
100
AcDbEntity
  8
0
100
AcDbLine
 10
186.6526308485472
 20
231.825152765321
 30
0.0
 11
188.7804489758664
 21
233.9529708926402
 31
0.0
  0
LINE
  5
7F96
330
7F06
100
AcDbEntity
  8
0
100
AcDbLine
 10
182.8505867475896
 20
232.513236724897
 30
0.0
 11
184.2903209153328
 21
233.9529708926402
 31
0.0
  0
LINE
  5
7F97
330
7F06
100
AcDbEntity
  8
0
100
AcDbLine
 10
178.9282608465864
 20
233.081038884432
 30
0.0
 11
179.8001928547992
 21
233.9529708926402
 31
0.0
  0
LINE
  5
7F98
330
7F06
100
AcDbEntity
  8
0
100
AcDbLine
 10
174.875598738562
 20
233.5185048369367
 30
0.0
 11
175.3100647942656
 21
233.9529708926402
 31
0.0
  0
LINE
  5
7F99
330
7F06
100
AcDbEntity
  8
0
100
AcDbLine
 10
335.4722736862995
 20
183.9529708926402
 30
0.0
 11
315.4722736862995
 21
203.9529708926402
 31
0.0
  0
LINE
  5
7F9A
330
7F06
100
AcDbEntity
  8
0
100
AcDbLine
 10
318.385571397247
 20
183.9529708926402
 30
0.0
 11
365.0046873846795
 21
230.5720868800817
 31
0.0
  0
LINE
  5
7F9B
330
7F06
100
AcDbEntity
  8
0
100
AcDbLine
 10
313.8954433367134
 20
183.9529708926402
 30
0.0
 11
361.9076558543374
 21
231.9651834102733
 31
0.0
  0
LINE
  5
7F9C
330
7F06
100
AcDbEntity
  8
0
100
AcDbLine
 10
309.4053152761798
 20
183.9529708926402
 30
0.0
 11
358.4966731502745
 21
233.0443287667394
 31
0.0
  0
LINE
  5
7F9D
330
7F06
100
AcDbEntity
  8
0
100
AcDbLine
 10
304.9151872156462
 20
183.9529708926402
 30
0.0
 11
354.7059702977085
 21
233.7437539747161
 31
0.0
  0
LINE
  5
7F9E
330
7F06
100
AcDbEntity
  8
0
100
AcDbLine
 10
375.8834262311202
 20
183.9529708926402
 30
0.0
 11
332.4444408255467
 21
227.3919562982
 31
0.0
  0
LINE
  5
7F9F
330
7F06
100
AcDbEntity
  8
0
100
AcDbLine
 10
371.3932981705866
 20
183.9529708926402
 30
0.0
 11
330.0683064749673
 21
225.2779625882549
 31
0.0
  0
LINE
  5
7FA0
330
7F06
100
AcDbEntity
  8
0
100
AcDbLine
 10
366.903170110053
 20
183.9529708926402
 30
0.0
 11
327.9304539066097
 21
222.9256870960789
 31
0.0
  0
LINE
  5
7FA1
330
7F06
100
AcDbEntity
  8
0
100
AcDbLine
 10
362.4130420495193
 20
183.9529708926402
 30
0.0
 11
326.0345751090235
 21
220.331437833136
 31
0.0
  0
LINE
  5
7FA2
330
7F06
100
AcDbEntity
  8
0
100
AcDbLine
 10
357.9229139889676
 20
183.9529708926402
 30
0.0
 11
324.3932441280221
 21
217.4826407535947
 31
0.0
  0
LINE
  5
7FA3
330
7F06
100
AcDbEntity
  8
0
100
AcDbLine
 10
353.4327859284339
 20
183.9529708926402
 30
0.0
 11
323.0303705078213
 21
214.3553863132619
 31
0.0
  0
LINE
  5
7FA4
330
7F06
100
AcDbEntity
  8
0
100
AcDbLine
 10
348.9426578679003
 20
183.9529708926402
 30
0.0
 11
321.9866935943891
 21
210.9089351661514
 31
0.0
  0
LINE
  5
7FA5
330
7F06
100
AcDbEntity
  8
0
100
AcDbLine
 10
344.4525298073667
 20
183.9529708926402
 30
0.0
 11
321.3318786116897
 21
207.0736220883172
 31
0.0
  0
LINE
  5
7FA6
330
7F06
100
AcDbEntity
  8
0
100
AcDbLine
 10
339.9624017468331
 20
183.9529708926402
 30
0.0
 11
319.9624017468331
 21
203.9529708926402
 31
0.0
  0
LINE
  5
7FA7
330
7F06
100
AcDbEntity
  8
0
100
AcDbLine
 10
331.8559555788478
 20
183.9529708926402
 30
0.0
 11
372.7229660588809
 21
224.8199813726687
 31
0.0
  0
LINE
  5
7FA8
330
7F06
100
AcDbEntity
  8
0
100
AcDbLine
 10
327.3658275183143
 20
183.9529708926402
 30
0.0
 11
370.3952735212615
 21
226.9824168955783
 31
0.0
  0
LINE
  5
7FA9
330
7F06
100
AcDbEntity
  8
0
100
AcDbLine
 10
322.8756994577806
 20
183.9529708926402
 30
0.0
 11
367.8263745175345
 21
228.9036459523986
 31
0.0
  0
LINE
  5
7FAA
330
7F06
100
AcDbEntity
  8
0
100
AcDbLine
 10
321.1785945106557
 20
204.7065062481788
 30
0.0
 11
350.415594069781
 21
233.9435058073086
 31
0.0
  0
LINE
  5
7FAB
330
7F06
100
AcDbEntity
  8
0
100
AcDbLine
 10
321.7351856304585
 20
209.7532254285197
 30
0.0
 11
345.3688748894264
 21
233.3869146875013
 31
0.0
  0
LINE
  5
7FAC
330
7F06
100
AcDbEntity
  8
0
100
AcDbLine
 10
323.8575049612509
 20
216.3656728198502
 30
0.0
 11
338.7564274981004
 21
231.2645953567089
 31
0.0
  0
ARC
  5
7FAD
330
7F06
100
AcDbEntity
  8
0
100
AcDbCircle
 10
351.169129425306
 20
203.9529708926402
 30
0.0
 40
30.0
100
AcDbArc
 50
0.0
 51
180.0
  0
LINE
  5
7FAE
330
7F06
100
AcDbEntity
  8
0
100
AcDbLine
 10
264.0917546304435
 20
214.9223374036846
 30
0.0
 11
247.1384959363595
 21
231.8755960977732
 31
0.0
  0
LINE
  5
7FAF
330
7F06
100
AcDbEntity
  8
0
100
AcDbLine
 10
265.7848888497928
 20
208.7390751238108
 30
0.0
 11
240.9552336564765
 21
233.5687303171134
 31
0.0
  0
LINE
  5
7FB0
330
7F06
100
AcDbEntity
  8
0
100
AcDbLine
 10
286.0808650204298
 20
183.9529708926402
 30
0.0
 11
236.0808650204298
 21
233.9529708926402
 31
0.0
  0
LINE
  5
7FB1
330
7F06
100
AcDbEntity
  8
0
100
AcDbLine
 10
281.5907369598962
 20
183.9529708926402
 30
0.0
 11
231.5907369598962
 21
233.9529708926402
 31
0.0
  0
LINE
  5
7FB2
330
7F06
100
AcDbEntity
  8
0
100
AcDbLine
 10
277.1006088993626
 20
183.9529708926402
 30
0.0
 11
227.1006088993626
 21
233.9529708926402
 31
0.0
  0
LINE
  5
7FB3
330
7F06
100
AcDbEntity
  8
0
100
AcDbLine
 10
272.610480838829
 20
183.9529708926402
 30
0.0
 11
222.610480838829
 21
233.9529708926402
 31
0.0
  0
LINE
  5
7FB4
330
7F06
100
AcDbEntity
  8
0
100
AcDbLine
 10
268.1203527782954
 20
183.9529708926402
 30
0.0
 11
218.1203527782954
 21
233.9529708926402
 31
0.0
  0
LINE
  5
7FB5
330
7F06
100
AcDbEntity
  8
0
100
AcDbLine
 10
228.5830101865567
 20
183.9529708926402
 30
0.0
 11
262.6608890339038
 21
218.0308497399919
 31
0.0
  0
LINE
  5
7FB6
330
7F06
100
AcDbEntity
  8
0
100
AcDbLine
 10
224.0928821260231
 20
183.9529708926402
 30
0.0
 11
260.970956250293
 21
220.8310450169055
 31
0.0
  0
LINE
  5
7FB7
330
7F06
100
AcDbEntity
  8
0
100
AcDbLine
 10
219.6027540654895
 20
183.9529708926402
 30
0.0
 11
259.0295591146595
 21
223.3797759418148
 31
0.0
  0
ARC
  5
7FB8
330
7F06
100
AcDbEntity
  8
0
100
AcDbCircle
 10
236.1691294253059
 20
203.9529708926402
 30
0.0
 40
30.0
100
AcDbArc
 50
0.0
 51
90.0
  0
LINE
  5
7FB9
330
7F06
100
AcDbEntity
  8
0
100
AcDbLine
 10
266.1691294253059
 20
203.9529708926402
 30
0.0
 11
321.1691294253059
 21
203.9529708926402
 31
0.0
  0
LINE
  5
7FBA
330
7F06
100
AcDbEntity
  8
0
100
AcDbLine
 10
290.5709930809635
 20
183.9529708926402
 30
0.0
 11
270.5709930809634
 21
203.9529708926402
 31
0.0
  0
LINE
  5
7FBB
330
7F06
100
AcDbEntity
  8
0
100
AcDbLine
 10
273.4842907918928
 20
183.9529708926402
 30
0.0
 11
293.4842907918928
 21
203.9529708926402
 31
0.0
  0
LINE
  5
7FBC
330
7F06
100
AcDbEntity
  8
0
100
AcDbLine
 10
268.9941627313592
 20
183.9529708926402
 30
0.0
 11
288.9941627313591
 21
203.9529708926402
 31
0.0
  0
LINE
  5
7FBD
330
7F06
100
AcDbEntity
  8
0
100
AcDbLine
 10
264.5040346708256
 20
183.9529708926402
 30
0.0
 11
284.5040346708255
 21
203.9529708926402
 31
0.0
  0
LINE
  5
7FBE
330
7F06
100
AcDbEntity
  8
0
100
AcDbLine
 10
260.013906610292
 20
183.9529708926402
 30
0.0
 11
280.013906610292
 21
203.9529708926402
 31
0.0
  0
LINE
  5
7FBF
330
7F06
100
AcDbEntity
  8
0
100
AcDbLine
 10
255.5237785497583
 20
183.9529708926402
 30
0.0
 11
275.5237785497584
 21
203.9529708926402
 31
0.0
  0
LINE
  5
7FC0
330
7F06
100
AcDbEntity
  8
0
100
AcDbLine
 10
251.0336504892247
 20
183.9529708926402
 30
0.0
 11
271.0336504892247
 21
203.9529708926402
 31
0.0
  0
LINE
  5
7FC1
330
7F06
100
AcDbEntity
  8
0
100
AcDbLine
 10
246.5435224286911
 20
183.9529708926402
 30
0.0
 11
266.5435224286911
 21
203.9529708926402
 31
0.0
  0
LINE
  5
7FC2
330
7F06
100
AcDbEntity
  8
0
100
AcDbLine
 10
242.0533943681575
 20
183.9529708926402
 30
0.0
 11
265.9190341194871
 21
207.8186106439789
 31
0.0
  0
LINE
  5
7FC3
330
7F06
100
AcDbEntity
  8
0
100
AcDbLine
 10
237.5632663076239
 20
183.9529708926402
 30
0.0
 11
265.1848421057538
 21
211.5745466907656
 31
0.0
  0
LINE
  5
7FC4
330
7F06
100
AcDbEntity
  8
0
100
AcDbLine
 10
233.0731382470903
 20
183.9529708926402
 30
0.0
 11
264.077845311639
 21
214.9576779571889
 31
0.0
  0
LINE
  5
7FC5
330
7F06
100
AcDbEntity
  8
0
100
AcDbLine
 10
326.169129425306
 20
175.2956029114902
 30
0.0
 11
317.5117614441651
 21
183.9529708926402
 31
0.0
  0
LINE
  5
7FC6
330
7F06
100
AcDbEntity
  8
0
100
AcDbLine
 10
326.169129425306
 20
170.8054748509566
 30
0.0
 11
313.0216333836315
 21
183.9529708926402
 31
0.0
  0
LINE
  5
7FC7
330
7F06
100
AcDbEntity
  8
0
100
AcDbLine
 10
326.169129425306
 20
166.315346790423
 30
0.0
 11
308.5315053230979
 21
183.9529708926402
 31
0.0
  0
LINE
  5
7FC8
330
7F06
100
AcDbEntity
  8
0
100
AcDbLine
 10
326.169129425306
 20
161.8252187298894
 30
0.0
 11
306.1691294253059
 21
181.8252187298894
 31
0.0
  0
LINE
  5
7FC9
330
7F06
100
AcDbEntity
  8
0
100
AcDbLine
 10
326.169129425306
 20
157.3350906693512
 30
0.0
 11
306.1691294253059
 21
177.3350906693513
 31
0.0
  0
LINE
  5
7FCA
330
7F06
100
AcDbEntity
  8
0
100
AcDbLine
 10
326.169129425306
 20
152.8449626088177
 30
0.0
 11
306.1691294253059
 21
172.8449626088177
 31
0.0
  0
LINE
  5
7FCB
330
7F06
100
AcDbEntity
  8
0
100
AcDbLine
 10
326.169129425306
 20
148.354834548284
 30
0.0
 11
306.1691294253059
 21
168.354834548284
 31
0.0
  0
LINE
  5
7FCC
330
7F06
100
AcDbEntity
  8
0
100
AcDbLine
 10
326.169129425306
 20
143.8647064877504
 30
0.0
 11
306.1691294253059
 21
163.8647064877504
 31
0.0
  0
LINE
  5
7FCD
330
7F06
100
AcDbEntity
  8
0
100
AcDbLine
 10
326.169129425306
 20
139.3745784272168
 30
0.0
 11
306.1691294253059
 21
159.3745784272123
 31
0.0
  0
LINE
  5
7FCE
330
7F06
100
AcDbEntity
  8
0
100
AcDbLine
 10
326.169129425306
 20
134.8844503666787
 30
0.0
 11
306.1691294253059
 21
154.8844503666787
 31
0.0
  0
LINE
  5
7FCF
330
7F06
100
AcDbEntity
  8
0
100
AcDbLine
 10
306.1691294253059
 20
135.8155044364302
 30
0.0
 11
326.169129425306
 21
155.8155044364348
 31
0.0
  0
LINE
  5
7FD0
330
7F06
100
AcDbEntity
  8
0
100
AcDbLine
 10
306.1691294253059
 20
140.3056324969684
 30
0.0
 11
326.169129425306
 21
160.3056324969684
 31
0.0
  0
LINE
  5
7FD1
330
7F06
100
AcDbEntity
  8
0
100
AcDbLine
 10
306.1691294253059
 20
144.795760557502
 30
0.0
 11
326.169129425306
 21
164.795760557502
 31
0.0
  0
LINE
  5
7FD2
330
7F06
100
AcDbEntity
  8
0
100
AcDbLine
 10
306.1691294253059
 20
149.2858886180356
 30
0.0
 11
326.169129425306
 21
169.2858886180356
 31
0.0
  0
LINE
  5
7FD3
330
7F06
100
AcDbEntity
  8
0
100
AcDbLine
 10
306.1691294253059
 20
153.7760166785692
 30
0.0
 11
326.169129425306
 21
173.7760166785738
 31
0.0
  0
LINE
  5
7FD4
330
7F06
100
AcDbEntity
  8
0
100
AcDbLine
 10
306.1691294253059
 20
158.2661447391074
 30
0.0
 11
326.169129425306
 21
178.2661447391074
 31
0.0
  0
LINE
  5
7FD5
330
7F06
100
AcDbEntity
  8
0
100
AcDbLine
 10
306.1691294253059
 20
162.756272799641
 30
0.0
 11
326.169129425306
 21
182.756272799641
 31
0.0
  0
LINE
  5
7FD6
330
7F06
100
AcDbEntity
  8
0
100
AcDbLine
 10
306.1691294253059
 20
167.2464008601746
 30
0.0
 11
322.8756994577806
 21
183.9529708926402
 31
0.0
  0
LINE
  5
7FD7
330
7F06
100
AcDbEntity
  8
0
100
AcDbLine
 10
330.9821456257659
 20
183.9529708926402
 30
0.0
 11
310.9821456257659
 21
203.9529708926402
 31
0.0
  0
LINE
  5
7FD8
330
7F06
100
AcDbEntity
  8
0
100
AcDbLine
 10
326.4920175652323
 20
183.9529708926402
 30
0.0
 11
306.4920175652323
 21
203.9529708926402
 31
0.0
  0
LINE
  5
7FD9
330
7F06
100
AcDbEntity
  8
0
100
AcDbLine
 10
322.0018895046987
 20
183.9529708926402
 30
0.0
 11
302.0018895046987
 21
203.9529708926402
 31
0.0
  0
LINE
  5
7FDA
330
7F06
100
AcDbEntity
  8
0
100
AcDbLine
 10
300.4250591551126
 20
183.9529708926402
 30
0.0
 11
320.4250591551126
 21
203.9529708926402
 31
0.0
  0
LINE
  5
7FDB
330
7F06
100
AcDbEntity
  8
0
100
AcDbLine
 10
306.1691294253059
 20
171.7365289207082
 30
0.0
 11
318.385571397247
 21
183.9529708926402
 31
0.0
  0
LINE
  5
7FDC
330
7F06
100
AcDbEntity
  8
0
100
AcDbLine
 10
306.1691294253059
 20
176.2266569812418
 30
0.0
 11
313.8954433367134
 21
183.9529708926402
 31
0.0
  0
LINE
  5
7FDD
330
7F06
100
AcDbEntity
  8
0
100
AcDbLine
 10
306.1691294253059
 20
180.7167850417799
 30
0.0
 11
309.4053152761798
 21
183.9529708926402
 31
0.0
  0
LINE
  5
7FDE
330
7F06
100
AcDbEntity
  8
0
100
AcDbLine
 10
317.5117614441651
 20
183.9529708926402
 30
0.0
 11
297.5117614441651
 21
203.9529708926402
 31
0.0
  0
LINE
  5
7FDF
330
7F06
100
AcDbEntity
  8
0
100
AcDbLine
 10
313.0216333836315
 20
183.9529708926402
 30
0.0
 11
293.0216333836315
 21
203.9529708926402
 31
0.0
  0
LINE
  5
7FE0
330
7F06
100
AcDbEntity
  8
0
100
AcDbLine
 10
308.5315053230979
 20
183.9529708926402
 30
0.0
 11
288.5315053230979
 21
203.9529708926402
 31
0.0
  0
LINE
  5
7FE1
330
7F06
100
AcDbEntity
  8
0
100
AcDbLine
 10
304.0413772625643
 20
183.9529708926402
 30
0.0
 11
284.0413772625643
 21
203.9529708926402
 31
0.0
  0
LINE
  5
7FE2
330
7F06
100
AcDbEntity
  8
0
100
AcDbLine
 10
299.5512492020306
 20
183.9529708926402
 30
0.0
 11
279.5512492020307
 21
203.9529708926402
 31
0.0
  0
LINE
  5
7FE3
330
7F06
100
AcDbEntity
  8
0
100
AcDbLine
 10
295.0611211414971
 20
183.9529708926402
 30
0.0
 11
275.0611211414971
 21
203.9529708926402
 31
0.0
  0
LINE
  5
7FE4
330
7F06
100
AcDbEntity
  8
0
100
AcDbLine
 10
295.934931094579
 20
183.9529708926402
 30
0.0
 11
315.934931094579
 21
203.9529708926402
 31
0.0
  0
LINE
  5
7FE5
330
7F06
100
AcDbEntity
  8
0
100
AcDbLine
 10
291.4448030340454
 20
183.9529708926402
 30
0.0
 11
311.4448030340454
 21
203.9529708926402
 31
0.0
  0
LINE
  5
7FE6
330
7F06
100
AcDbEntity
  8
0
100
AcDbLine
 10
286.9546749735118
 20
183.9529708926402
 30
0.0
 11
306.9546749735118
 21
203.9529708926402
 31
0.0
  0
LINE
  5
7FE7
330
7F06
100
AcDbEntity
  8
0
100
AcDbLine
 10
282.4645469129782
 20
183.9529708926402
 30
0.0
 11
302.4645469129782
 21
203.9529708926402
 31
0.0
  0
LINE
  5
7FE8
330
7F06
100
AcDbEntity
  8
0
100
AcDbLine
 10
277.9744188524446
 20
183.9529708926402
 30
0.0
 11
297.9744188524446
 21
203.9529708926402
 31
0.0
  0
LINE
  5
7FE9
330
7F06
100
AcDbEntity
  8
0
100
AcDbLine
 10
326.169129425306
 20
179.7857309720238
 30
0.0
 11
322.0018895046987
 21
183.9529708926402
 31
0.0
  0
LINE
  5
7FEA
330
7F06
100
AcDbEntity
  8
0
100
AcDbLine
 10
380.3494373975072
 20
210.917856149993
 30
0.0
 11
358.1340146826724
 21
233.1332788648324
 31
0.0
  0
LINE
  5
7FEB
330
7F06
100
AcDbEntity
  8
0
100
AcDbLine
 10
381.1207270155673
 20
205.6564384713992
 30
0.0
 11
352.8725970040786
 21
233.9045684828879
 31
0.0
  0
LINE
  5
7FEC
330
7F06
100
AcDbEntity
  8
0
100
AcDbLine
 10
398.3340665337882
 20
183.9529708926402
 30
0.0
 11
348.4569194625318
 21
233.8301179639011
 31
0.0
  0
LINE
  5
7FED
330
7F06
100
AcDbEntity
  8
0
100
AcDbLine
 10
393.8439384732546
 20
183.9529708926402
 30
0.0
 11
344.5771374547066
 21
233.2197719111882
 31
0.0
  0
LINE
  5
7FEE
330
7F06
100
AcDbEntity
  8
0
100
AcDbLine
 10
389.353810412721
 20
183.9529708926402
 30
0.0
 11
341.0956319684728
 21
232.2111493368884
 31
0.0
  0
LINE
  5
7FEF
330
7F06
100
AcDbEntity
  8
0
100
AcDbLine
 10
384.8636823521874
 20
183.9529708926402
 30
0.0
 11
337.9386867694656
 21
230.877966475371
 31
0.0
  0
LINE
  5
7FF0
330
7F06
100
AcDbEntity
  8
0
100
AcDbLine
 10
380.3735542916538
 20
183.9529708926402
 30
0.0
 11
335.0633810530407
 21
229.2631441312578
 31
0.0
  0
LINE
  5
7FF1
330
7F06
100
AcDbEntity
  8
0
100
AcDbLine
 10
345.3263397604487
 20
183.9529708926402
 30
0.0
 11
378.2450681371837
 21
216.8716992693616
 31
0.0
  0
LINE
  5
7FF2
330
7F06
100
AcDbEntity
  8
0
100
AcDbLine
 10
340.8362116999151
 20
183.9529708926402
 30
0.0
 11
376.6578607112014
 21
219.7746199039174
 31
0.0
  0
LINE
  5
7FF3
330
7F06
100
AcDbEntity
  8
0
100
AcDbLine
 10
336.3460836393814
 20
183.9529708926402
 30
0.0
 11
374.8122921454514
 21
222.4191793987011
 31
0.0
  0
LINE
  5
7FF4
330
7F06
100
AcDbEntity
  8
0
100
AcDbLine
 10
407.3143226548554
 20
183.9529708926402
 30
0.0
 11
387.3143226548554
 21
203.9529708926402
 31
0.0
  0
LINE
  5
7FF5
330
7F06
100
AcDbEntity
  8
0
100
AcDbLine
 10
402.8241945943218
 20
183.9529708926402
 30
0.0
 11
382.8241945943218
 21
203.9529708926402
 31
0.0
  0
LINE
  5
7FF6
330
7F06
100
AcDbEntity
  8
0
100
AcDbLine
 10
390.2276203658029
 20
183.9529708926402
 30
0.0
 11
410.2276203658029
 21
203.9529708926402
 31
0.0
  0
LINE
  5
7FF7
330
7F06
100
AcDbEntity
  8
0
100
AcDbLine
 10
385.7374923052693
 20
183.9529708926402
 30
0.0
 11
405.7374923052694
 21
203.9529708926402
 31
0.0
  0
LINE
  5
7FF8
330
7F06
100
AcDbEntity
  8
0
100
AcDbLine
 10
381.2473642447357
 20
183.9529708926402
 30
0.0
 11
401.2473642447357
 21
203.9529708926402
 31
0.0
  0
LINE
  5
7FF9
330
7F06
100
AcDbEntity
  8
0
100
AcDbLine
 10
376.7572361842021
 20
183.9529708926402
 30
0.0
 11
396.7572361842021
 21
203.9529708926402
 31
0.0
  0
LINE
  5
7FFA
330
7F06
100
AcDbEntity
  8
0
100
AcDbLine
 10
372.2671081236685
 20
183.9529708926402
 30
0.0
 11
392.2671081236685
 21
203.9529708926402
 31
0.0
  0
LINE
  5
7FFB
330
7F06
100
AcDbEntity
  8
0
100
AcDbLine
 10
381.1691294253059
 20
203.9529708926402
 30
0.0
 11
436.1691294253059
 21
203.9529708926402
 31
0.0
  0
LINE
  5
7FFC
330
7F06
100
AcDbEntity
  8
0
100
AcDbLine
 10
367.7769800631167
 20
183.9529708926402
 30
0.0
 11
387.7769800631167
 21
203.9529708926402
 31
0.0
  0
LINE
  5
7FFD
330
7F06
100
AcDbEntity
  8
0
100
AcDbLine
 10
363.2868520025831
 20
183.9529708926402
 30
0.0
 11
383.2868520025831
 21
203.9529708926402
 31
0.0
  0
LINE
  5
7FFE
330
7F06
100
AcDbEntity
  8
0
100
AcDbLine
 10
358.7967239420495
 20
183.9529708926402
 30
0.0
 11
381.081964086733
 21
206.2382110373146
 31
0.0
  0
LINE
  5
7FFF
330
7F06
100
AcDbEntity
  8
0
100
AcDbLine
 10
354.3065958815159
 20
183.9529708926402
 30
0.0
 11
380.5188753213396
 21
210.1652503324639
 31
0.0
  0
LINE
  5
8000
330
7F06
100
AcDbEntity
  8
0
100
AcDbLine
 10
349.8164678209823
 20
183.9529708926402
 30
0.0
 11
379.5471732570685
 21
213.6836763287128
 31
0.0
  0
LINE
  5
8001
330
7F06
100
AcDbEntity
  8
0
100
AcDbLine
 10
447.7254751996761
 20
183.9529708926402
 30
0.0
 11
427.725475199676
 21
203.9529708926402
 31
0.0
  0
LINE
  5
8002
330
7F06
100
AcDbEntity
  8
0
100
AcDbLine
 10
443.2353471391425
 20
183.9529708926402
 30
0.0
 11
423.2353471391425
 21
203.9529708926402
 31
0.0
  0
LINE
  5
8003
330
7F06
100
AcDbEntity
  8
0
100
AcDbLine
 10
438.7452190786088
 20
183.9529708926402
 30
0.0
 11
418.7452190786088
 21
203.9529708926402
 31
0.0
  0
LINE
  5
8004
330
7F06
100
AcDbEntity
  8
0
100
AcDbLine
 10
434.2550910180753
 20
183.9529708926402
 30
0.0
 11
414.2550910180752
 21
203.9529708926402
 31
0.0
  0
LINE
  5
8005
330
7F06
100
AcDbEntity
  8
0
100
AcDbLine
 10
429.7649629575235
 20
183.9529708926402
 30
0.0
 11
409.7649629575235
 21
203.9529708926402
 31
0.0
  0
LINE
  5
8006
330
7F06
100
AcDbEntity
  8
0
100
AcDbLine
 10
425.2748348969898
 20
183.9529708926402
 30
0.0
 11
405.2748348969898
 21
203.9529708926402
 31
0.0
  0
LINE
  5
8007
330
7F06
100
AcDbEntity
  8
0
100
AcDbLine
 10
420.7847068364563
 20
183.9529708926402
 30
0.0
 11
400.7847068364562
 21
203.9529708926402
 31
0.0
  0
LINE
  5
8008
330
7F06
100
AcDbEntity
  8
0
100
AcDbLine
 10
416.2945787759226
 20
183.9529708926402
 30
0.0
 11
396.2945787759226
 21
203.9529708926402
 31
0.0
  0
LINE
  5
8009
330
7F06
100
AcDbEntity
  8
0
100
AcDbLine
 10
411.804450715389
 20
183.9529708926402
 30
0.0
 11
391.804450715389
 21
203.9529708926402
 31
0.0
  0
LINE
  5
800A
330
7F06
100
AcDbEntity
  8
0
100
AcDbLine
 10
412.6782606684709
 20
183.9529708926402
 30
0.0
 11
432.678260668471
 21
203.9529708926402
 31
0.0
  0
LINE
  5
800B
330
7F06
100
AcDbEntity
  8
0
100
AcDbLine
 10
408.1881326079374
 20
183.9529708926402
 30
0.0
 11
428.1881326079374
 21
203.9529708926402
 31
0.0
  0
LINE
  5
800C
330
7F06
100
AcDbEntity
  8
0
100
AcDbLine
 10
403.6980045474037
 20
183.9529708926402
 30
0.0
 11
423.6980045474037
 21
203.9529708926402
 31
0.0
  0
LINE
  5
800D
330
7F06
100
AcDbEntity
  8
0
100
AcDbLine
 10
399.2078764868701
 20
183.9529708926402
 30
0.0
 11
419.2078764868702
 21
203.9529708926402
 31
0.0
  0
LINE
  5
800E
330
7F06
100
AcDbEntity
  8
0
100
AcDbLine
 10
394.7177484263365
 20
183.9529708926402
 30
0.0
 11
414.7177484263365
 21
203.9529708926402
 31
0.0
  0
LINE
  5
800F
330
7F06
100
AcDbEntity
  8
0
100
AcDbLine
 10
377.5853690780413
 20
218.1720525299879
 30
0.0
 11
365.3882110626536
 21
230.369210545371
 31
0.0
  0
LINE
  5
8010
330
7F06
100
AcDbEntity
  8
0
100
AcDbLine
 10
626.169129425306
 20
131.2329023619604
 30
0.0
 11
606.1691294253059
 21
151.2329023619604
 31
0.0
  0
LINE
  5
8011
330
7F06
100
AcDbEntity
  8
0
100
AcDbLine
 10
635.7035656375582
 20
117.2083380891881
 30
0.0
 11
606.1691294253059
 21
146.7427743014268
 31
0.0
  0
LINE
  5
8012
330
7F06
100
AcDbEntity
  8
0
100
AcDbLine
 10
633.779225040179
 20
114.6425506260293
 30
0.0
 11
606.1691294253059
 21
142.2526462408932
 31
0.0
  0
LINE
  5
8013
330
7F06
100
AcDbEntity
  8
0
100
AcDbLine
 10
631.8548844428178
 20
112.0767631628659
 30
0.0
 11
606.1691294253059
 21
137.7625181803596
 31
0.0
  0
LINE
  5
8014
330
7F06
100
AcDbEntity
  8
0
100
AcDbLine
 10
600.8031341400592
 20
111.6504168532201
 30
0.0
 11
626.169129425306
 21
137.0164121384759
 31
0.0
  0
LINE
  5
8015
330
7F06
100
AcDbEntity
  8
0
100
AcDbLine
 10
598.8787935426799
 20
114.2162043163789
 30
0.0
 11
626.169129425306
 21
141.5065401990141
 31
0.0
  0
LINE
  5
8016
330
7F06
100
AcDbEntity
  8
0
100
AcDbLine
 10
596.9544529453187
 20
116.7819917795422
 30
0.0
 11
626.169129425306
 21
145.9966682595477
 31
0.0
  0
LINE
  5
8017
330
7F06
100
AcDbEntity
  8
0
100
AcDbLine
 10
595.0301123479394
 20
119.3477792427056
 30
0.0
 11
626.169129425306
 21
150.4867963200813
 31
0.0
  0
LINE
  5
8018
330
7F06
100
AcDbEntity
  8
0
100
AcDbLine
 10
606.1691294253059
 20
183.9529708926402
 30
0.0
 11
606.1691294253059
 21
131.162423139538
 31
0.0
  0
LINE
  5
8019
330
7F06
100
AcDbEntity
  8
0
100
AcDbLine
 10
626.169129425306
 20
183.9529708926402
 30
0.0
 11
626.169129425306
 21
131.162423139538
 31
0.0
  0
LINE
  5
801A
330
7F06
100
AcDbEntity
  8
0
100
AcDbLine
 10
629.9305438454385
 20
109.5109756997026
 30
0.0
 11
606.1691294253059
 21
133.2723901198214
 31
0.0
  0
LINE
  5
801B
330
7F06
100
AcDbEntity
  8
0
100
AcDbLine
 10
628.0062032480591
 20
106.9451882365392
 30
0.0
 11
603.7889683450694
 21
131.162423139538
 31
0.0
  0
LINE
  5
801C
330
7F06
100
AcDbEntity
  8
0
100
AcDbLine
 10
626.081862650698
 20
104.3794007733758
 30
0.0
 11
599.2988402845358
 21
131.162423139538
 31
0.0
  0
LINE
  5
801D
330
7F06
100
AcDbEntity
  8
0
100
AcDbLine
 10
624.1575220533186
 20
101.8136133102125
 30
0.0
 11
594.8087122240021
 21
131.162423139538
 31
0.0
  0
LINE
  5
801E
330
7F06
100
AcDbEntity
  8
0
100
AcDbLine
 10
608.5004965295402
 20
101.3872670005712
 30
0.0
 11
638.2756526685071
 21
131.162423139538
 31
0.0
  0
LINE
  5
801F
330
7F06
100
AcDbEntity
  8
0
100
AcDbLine
 10
606.576155932179
 20
103.95305446373
 30
0.0
 11
633.7855246079734
 21
131.162423139538
 31
0.0
  0
LINE
  5
8020
330
7F06
100
AcDbEntity
  8
0
100
AcDbLine
 10
604.6518153347997
 20
106.5188419268934
 30
0.0
 11
629.2953965474398
 21
131.162423139538
 31
0.0
  0
LINE
  5
8021
330
7F06
100
AcDbEntity
  8
0
100
AcDbLine
 10
602.7274747374203
 20
109.0846293900567
 30
0.0
 11
626.169129425306
 21
132.5262840779423
 31
0.0
  0
LINE
  5
8022
330
7F06
100
AcDbEntity
  8
0
100
AcDbLine
 10
614.2735183216601
 20
93.68990461108115
 30
0.0
 11
629.4384071509003
 21
108.8547934403213
 31
0.0
  0
LINE
  5
8023
330
7F06
100
AcDbEntity
  8
0
100
AcDbLine
 10
612.3491777242807
 20
96.25569207424451
 30
0.0
 11
642.9087913325011
 21
126.8153056824649
 31
0.0
  0
LINE
  5
8024
330
7F06
100
AcDbEntity
  8
0
100
AcDbLine
 10
610.4248371269195
 20
98.82147953740787
 30
0.0
 11
642.7657807290406
 21
131.162423139538
 31
0.0
  0
LINE
  5
8025
330
7F06
100
AcDbEntity
  8
0
100
AcDbLine
 10
616.169129425306
 20
91.16242313953808
 30
0.0
 11
646.169129425306
 21
131.162423139538
 31
0.0
  0
LINE
  5
8026
330
7F06
100
AcDbEntity
  8
0
100
AcDbLine
 10
616.4601596638377
 20
91.55046345756364
 30
0.0
 11
614.1319177556933
 21
93.87870536571245
 31
0.0
  0
LINE
  5
8027
330
7F06
100
AcDbEntity
  8
0
100
AcDbLine
 10
616.169129425306
 20
91.16242313953808
 30
0.0
 11
586.1691294253059
 21
131.162423139538
 31
0.0
  0
LINE
  5
8028
330
7F06
100
AcDbEntity
  8
0
100
AcDbLine
 10
622.2331814559392
 20
99.24782584704917
 30
0.0
 11
590.3185841634686
 21
131.162423139538
 31
0.0
  0
LINE
  5
8029
330
7F06
100
AcDbEntity
  8
0
100
AcDbLine
 10
620.3088408585781
 20
96.68203838389036
 30
0.0
 11
587.1911493924917
 21
129.7997298499813
 31
0.0
  0
LINE
  5
802A
330
7F06
100
AcDbEntity
  8
0
100
AcDbLine
 10
618.3845002611988
 20
94.116250920727
 30
0.0
 11
600.6615335740925
 21
111.8392176078468
 31
0.0
  0
LINE
  5
802B
330
7F06
100
AcDbEntity
  8
0
100
AcDbLine
 10
593.1057717505782
 20
121.913566705869
 30
0.0
 11
602.3546281842381
 21
131.162423139538
 31
0.0
  0
LINE
  5
802C
330
7F06
100
AcDbEntity
  8
0
100
AcDbLine
 10
591.1814311531989
 20
124.4793541690323
 30
0.0
 11
597.8645001237046
 21
131.162423139538
 31
0.0
  0
LINE
  5
802D
330
7F06
100
AcDbEntity
  8
0
100
AcDbLine
 10
589.2570905558195
 20
127.0451416321957
 30
0.0
 11
593.3743720631709
 21
131.162423139538
 31
0.0
  0
LINE
  5
802E
330
7F06
100
AcDbEntity
  8
0
100
AcDbLine
 10
587.3327499584584
 20
129.610929095359
 30
0.0
 11
588.8842440026373
 21
131.162423139538
 31
0.0
  0
LINE
  5
802F
330
7F06
100
AcDbEntity
  8
0
100
AcDbLine
 10
586.1691294253059
 20
131.162423139538
 30
0.0
 11
606.1691294253059
 21
131.162423139538
 31
0.0
  0
LINE
  5
8030
330
7F06
100
AcDbEntity
  8
0
100
AcDbLine
 10
645.3252686244186
 20
130.0372754050004
 30
0.0
 11
644.2001208898719
 21
131.162423139538
 31
0.0
  0
LINE
  5
8031
330
7F06
100
AcDbEntity
  8
0
100
AcDbLine
 10
643.4009280270393
 20
127.4714879418415
 30
0.0
 11
639.7099928293382
 21
131.162423139538
 31
0.0
  0
LINE
  5
8032
330
7F06
100
AcDbEntity
  8
0
100
AcDbLine
 10
641.4765874296599
 20
124.9057004786782
 30
0.0
 11
635.2198647688046
 21
131.162423139538
 31
0.0
  0
LINE
  5
8033
330
7F06
100
AcDbEntity
  8
0
100
AcDbLine
 10
639.5522468322988
 20
122.3399130155148
 30
0.0
 11
630.7297367082711
 21
131.162423139538
 31
0.0
  0
LINE
  5
8034
330
7F06
100
AcDbEntity
  8
0
100
AcDbLine
 10
637.6279062349194
 20
119.7741255523515
 30
0.0
 11
626.2396086477374
 21
131.162423139538
 31
0.0
  0
LINE
  5
8035
330
7F06
100
AcDbEntity
  8
0
100
AcDbLine
 10
626.169129425306
 20
131.162423139538
 30
0.0
 11
646.169129425306
 21
131.162423139538
 31
0.0
  0
LINE
  5
8036
330
7F06
100
AcDbEntity
  8
0
100
AcDbLine
 10
726.1134149528142
 20
183.9529708926402
 30
0.0
 11
680.519007610782
 21
229.5473782346771
 31
0.0
  0
LINE
  5
8037
330
7F06
100
AcDbEntity
  8
0
100
AcDbLine
 10
721.6232868922807
 20
183.9529708926402
 30
0.0
 11
677.8590258003705
 21
227.7172319845413
 31
0.0
  0
LINE
  5
8038
330
7F06
100
AcDbEntity
  8
0
100
AcDbLine
 10
717.1331588317471
 20
183.9529708926402
 30
0.0
 11
675.4434176632448
 21
225.6427120611288
 31
0.0
  0
LINE
  5
8039
330
7F06
100
AcDbEntity
  8
0
100
AcDbLine
 10
712.6430307712134
 20
183.9529708926402
 30
0.0
 11
673.2662679640443
 21
223.3297336998139
 31
0.0
  0
LINE
  5
803A
330
7F06
100
AcDbEntity
  8
0
100
AcDbLine
 10
708.1529027106799
 20
183.9529708926402
 30
0.0
 11
671.3299088646991
 21
220.7759647386073
 31
0.0
  0
LINE
  5
803B
330
7F06
100
AcDbEntity
  8
0
100
AcDbLine
 10
703.6627746501462
 20
183.9529708926402
 30
0.0
 11
669.6453385157101
 21
217.9704070270809
 31
0.0
  0
LINE
  5
803C
330
7F06
100
AcDbEntity
  8
0
100
AcDbLine
 10
699.1726465896126
 20
183.9529708926402
 30
0.0
 11
668.2343272827884
 21
214.8912901994553
 31
0.0
  0
LINE
  5
803D
330
7F06
100
AcDbEntity
  8
0
100
AcDbLine
 10
694.6825185290609
 20
183.9529708926402
 30
0.0
 11
667.1342579412148
 21
211.5012314804908
 31
0.0
  0
LINE
  5
803E
330
7F06
100
AcDbEntity
  8
0
100
AcDbLine
 10
690.1923904685272
 20
183.9529708926402
 30
0.0
 11
666.4086921467778
 21
207.7366692144032
 31
0.0
  0
LINE
  5
803F
330
7F06
100
AcDbEntity
  8
0
100
AcDbLine
 10
685.7022624079936
 20
183.9529708926402
 30
0.0
 11
665.7022624079936
 21
203.9529708926402
 31
0.0
  0
LINE
  5
8040
330
7F06
100
AcDbEntity
  8
0
100
AcDbLine
 10
681.2121343474601
 20
183.9529708926402
 30
0.0
 11
661.21213434746
 21
203.9529708926402
 31
0.0
  0
LINE
  5
8041
330
7F06
100
AcDbEntity
  8
0
100
AcDbLine
 10
677.5958162400083
 20
183.9529708926402
 30
0.0
 11
727.5958162400083
 21
233.9529708926402
 31
0.0
  0
LINE
  5
8042
330
7F06
100
AcDbEntity
  8
0
100
AcDbLine
 10
673.1056881794748
 20
183.9529708926402
 30
0.0
 11
723.1056881794748
 21
233.9529708926402
 31
0.0
  0
LINE
  5
8043
330
7F06
100
AcDbEntity
  8
0
100
AcDbLine
 10
668.6155601189412
 20
183.9529708926402
 30
0.0
 11
718.6155601189412
 21
233.9529708926402
 31
0.0
  0
LINE
  5
8044
330
7F06
100
AcDbEntity
  8
0
100
AcDbLine
 10
664.1254320584075
 20
183.9529708926402
 30
0.0
 11
714.1254320584075
 21
233.9529708926402
 31
0.0
  0
LINE
  5
8045
330
7F06
100
AcDbEntity
  8
0
100
AcDbLine
 10
659.635303997874
 20
183.9529708926402
 30
0.0
 11
709.635303997874
 21
233.9529708926402
 31
0.0
  0
LINE
  5
8046
330
7F06
100
AcDbEntity
  8
0
100
AcDbLine
 10
655.1451759373403
 20
183.9529708926402
 30
0.0
 11
705.1451759373403
 21
233.9529708926402
 31
0.0
  0
LINE
  5
8047
330
7F06
100
AcDbEntity
  8
0
100
AcDbLine
 10
650.6550478768067
 20
183.9529708926402
 30
0.0
 11
700.6550478768067
 21
233.9529708926402
 31
0.0
  0
LINE
  5
8048
330
7F06
100
AcDbEntity
  8
0
100
AcDbLine
 10
666.1691297207099
 20
203.9571807970724
 30
0.0
 11
696.1649195208874
 21
233.9529705972499
 31
0.0
  0
LINE
  5
8049
330
7F06
100
AcDbEntity
  8
0
100
AcDbLine
 10
666.5714477597057
 20
208.8496268966109
 30
0.0
 11
691.2724734213398
 21
233.5506525582495
 31
0.0
  0
LINE
  5
804A
330
7F06
100
AcDbEntity
  8
0
100
AcDbLine
 10
668.3071380252467
 20
215.0754452226856
 30
0.0
 11
685.0466550952651
 21
231.8149622927085
 31
0.0
  0
ARC
  5
804B
330
7F06
100
AcDbEntity
  8
0
100
AcDbCircle
 10
696.169129425306
 20
203.9529708926402
 30
0.0
 40
30.0
100
AcDbArc
 50
90.0
 51
180.0
  0
LINE
  5
804C
330
7F06
100
AcDbEntity
  8
0
100
AcDbLine
 10
609.3700853789223
 20
183.9529708926402
 30
0.0
 11
564.4564846099447
 21
228.8665716616042
 31
0.0
  0
ARC
  5
804D
330
7F06
100
AcDbEntity
  8
0
100
AcDbCircle
 10
581.1691294253059
 20
203.9529708926402
 30
0.0
 40
30.0
100
AcDbArc
 50
0.0
 51
180.0
  0
LINE
  5
804E
330
7F06
100
AcDbEntity
  8
0
100
AcDbLine
 10
604.8799573183887
 20
183.9529708926402
 30
0.0
 11
561.8926376582922
 21
226.9402905527367
 31
0.0
  0
LINE
  5
804F
330
7F06
100
AcDbEntity
  8
0
100
AcDbLine
 10
600.3898292578369
 20
183.9529708926402
 30
0.0
 11
559.569854809014
 21
224.7729453414677
 31
0.0
  0
LINE
  5
8050
330
7F06
100
AcDbEntity
  8
0
100
AcDbLine
 10
595.8997011973033
 20
183.9529708926402
 30
0.0
 11
557.4854656572997
 21
222.3672064326574
 31
0.0
  0
LINE
  5
8051
330
7F06
100
AcDbEntity
  8
0
100
AcDbLine
 10
591.4095731367697
 20
183.9529708926402
 30
0.0
 11
555.6450357132589
 21
219.7175083161646
 31
0.0
  0
LINE
  5
8052
330
7F06
100
AcDbEntity
  8
0
100
AcDbLine
 10
586.9194450762361
 20
183.9529708926402
 30
0.0
 11
554.0633807651274
 21
216.8090352037443
 31
0.0
  0
LINE
  5
8053
330
7F06
100
AcDbEntity
  8
0
100
AcDbLine
 10
582.4293170157025
 20
183.9529708926402
 30
0.0
 11
552.7675428503235
 21
213.6147450580283
 31
0.0
  0
LINE
  5
8054
330
7F06
100
AcDbEntity
  8
0
100
AcDbLine
 10
577.9391889551688
 20
183.9529708926402
 30
0.0
 11
551.8033150852889
 21
210.0888447625247
 31
0.0
  0
LINE
  5
8055
330
7F06
100
AcDbEntity
  8
0
100
AcDbLine
 10
573.4490608946352
 20
183.9529708926402
 30
0.0
 11
551.2498470404707
 21
206.1521847468002
 31
0.0
  0
LINE
  5
8056
330
7F06
100
AcDbEntity
  8
0
100
AcDbLine
 10
568.9589328341017
 20
183.9529708926402
 30
0.0
 11
548.9589328341017
 21
203.9529708926402
 31
0.0
  0
LINE
  5
8057
330
7F06
100
AcDbEntity
  8
0
100
AcDbLine
 10
560.8524866661164
 20
183.9529708926402
 30
0.0
 11
602.2234206698331
 21
225.3239048963568
 31
0.0
  0
LINE
  5
8058
330
7F06
100
AcDbEntity
  8
0
100
AcDbLine
 10
556.3623586055828
 20
183.9529708926402
 30
0.0
 11
599.8423599338448
 21
227.4329722209067
 31
0.0
  0
LINE
  5
8059
330
7F06
100
AcDbEntity
  8
0
100
AcDbLine
 10
551.8722305450491
 20
183.9529708926402
 30
0.0
 11
597.2183107143782
 21
229.2990510619783
 31
0.0
  0
LINE
  5
805A
330
7F06
100
AcDbEntity
  8
0
100
AcDbLine
 10
547.3821024845156
 20
183.9529708926402
 30
0.0
 11
594.3375069932326
 21
230.9083754013617
 31
0.0
  0
LINE
  5
805B
330
7F06
100
AcDbEntity
  8
0
100
AcDbLine
 10
542.8919744239819
 20
183.9529708926402
 30
0.0
 11
591.1743864742848
 21
232.2353829429566
 31
0.0
  0
LINE
  5
805C
330
7F06
100
AcDbEntity
  8
0
100
AcDbLine
 10
538.4018463634301
 20
183.9529708926402
 30
0.0
 11
587.6855634667108
 21
233.2366879959072
 31
0.0
  0
LINE
  5
805D
330
7F06
100
AcDbEntity
  8
0
100
AcDbLine
 10
533.9117183028966
 20
183.9529708926402
 30
0.0
 11
583.7964499691033
 21
233.8377025588288
 31
0.0
  0
LINE
  5
805E
330
7F06
100
AcDbEntity
  8
0
100
AcDbLine
 10
551.2232797119568
 20
205.7546603622249
 30
0.0
 11
579.3674399557303
 21
233.898820606003
 31
0.0
  0
LINE
  5
805F
330
7F06
100
AcDbEntity
  8
0
100
AcDbLine
 10
552.0181668980685
 20
211.0396756088703
 30
0.0
 11
574.0824247090849
 21
233.1039334198867
 31
0.0
  0
LINE
  5
8060
330
7F06
100
AcDbEntity
  8
0
100
AcDbLine
 10
554.8628692449337
 20
218.3745060162737
 30
0.0
 11
566.7475943016861
 21
230.2592310730169
 31
0.0
  0
LINE
  5
8061
330
7F06
100
AcDbEntity
  8
0
100
AcDbLine
 10
510.5872680471466
 20
183.9529708926402
 30
0.0
 11
461.0306160066093
 21
233.509622933182
 31
0.0
  0
LINE
  5
8062
330
7F06
100
AcDbEntity
  8
0
100
AcDbLine
 10
506.0971399866129
 20
183.9529708926402
 30
0.0
 11
457.405652259912
 21
232.6444586193411
 31
0.0
  0
LINE
  5
8063
330
7F06
100
AcDbEntity
  8
0
100
AcDbLine
 10
501.6070119260794
 20
183.9529708926402
 30
0.0
 11
454.1290740925424
 21
231.4309087261772
 31
0.0
  0
LINE
  5
8064
330
7F06
100
AcDbEntity
  8
0
100
AcDbLine
 10
497.1168838655457
 20
183.9529708926402
 30
0.0
 11
451.148210521077
 21
229.921644237118
 31
0.0
  0
LINE
  5
8065
330
7F06
100
AcDbEntity
  8
0
100
AcDbLine
 10
462.0696693343588
 20
183.9529708926402
 30
0.0
 11
493.786458327485
 21
215.6697598857708
 31
0.0
  0
LINE
  5
8066
330
7F06
100
AcDbEntity
  8
0
100
AcDbLine
 10
457.5795412738252
 20
183.9529708926402
 30
0.0
 11
492.3059438364716
 21
218.6793734552866
 31
0.0
  0
LINE
  5
8067
330
7F06
100
AcDbEntity
  8
0
100
AcDbLine
 10
453.0894132132917
 20
183.9529708926402
 30
0.0
 11
490.5583758886122
 21
221.4219335679745
 31
0.0
  0
LINE
  5
8068
330
7F06
100
AcDbEntity
  8
0
100
AcDbLine
 10
494.6588064776724
 20
213.3518166437334
 30
0.0
 11
475.5679751763991
 21
232.4426479449885
 31
0.0
  0
LINE
  5
8069
330
7F06
100
AcDbEntity
  8
0
100
AcDbLine
 10
495.950253533646
 20
207.570241527208
 30
0.0
 11
469.7864000598737
 21
233.7340950009802
 31
0.0
  0
LINE
  5
806A
330
7F06
100
AcDbEntity
  8
0
100
AcDbLine
 10
515.0773961076802
 20
183.9529708926402
 30
0.0
 11
465.0965751173307
 21
233.9337918830078
 31
0.0
  0
LINE
  5
806B
330
7F06
100
AcDbEntity
  8
0
100
AcDbLine
 10
524.0576522287474
 20
183.9529708926402
 30
0.0
 11
504.0576522287474
 21
203.9529708926402
 31
0.0
  0
LINE
  5
806C
330
7F06
100
AcDbEntity
  8
0
100
AcDbLine
 10
519.5675241682137
 20
183.9529708926402
 30
0.0
 11
499.5675241682138
 21
203.9529708926402
 31
0.0
  0
LINE
  5
806D
330
7F06
100
AcDbEntity
  8
0
100
AcDbLine
 10
502.4808218791613
 20
183.9529708926402
 30
0.0
 11
522.4808218791613
 21
203.9529708926402
 31
0.0
  0
LINE
  5
806E
330
7F06
100
AcDbEntity
  8
0
100
AcDbLine
 10
497.9906938186277
 20
183.9529708926402
 30
0.0
 11
517.9906938186277
 21
203.9529708926402
 31
0.0
  0
LINE
  5
806F
330
7F06
100
AcDbEntity
  8
0
100
AcDbLine
 10
493.5005657580941
 20
183.9529708926402
 30
0.0
 11
513.5005657580941
 21
203.9529708926402
 31
0.0
  0
LINE
  5
8070
330
7F06
100
AcDbEntity
  8
0
100
AcDbLine
 10
489.0104376975605
 20
183.9529708926402
 30
0.0
 11
509.0104376975605
 21
203.9529708926402
 31
0.0
  0
LINE
  5
8071
330
7F06
100
AcDbEntity
  8
0
100
AcDbLine
 10
496.169129425306
 20
203.9529708926402
 30
0.0
 11
551.169129425306
 21
203.9529708926402
 31
0.0
  0
LINE
  5
8072
330
7F06
100
AcDbEntity
  8
0
100
AcDbLine
 10
480.0301815764933
 20
183.9529708926402
 30
0.0
 11
500.0301815764933
 21
203.9529708926402
 31
0.0
  0
LINE
  5
8073
330
7F06
100
AcDbEntity
  8
0
100
AcDbLine
 10
475.5400535159597
 20
183.9529708926402
 30
0.0
 11
496.1626679179053
 21
204.5755852945903
 31
0.0
  0
LINE
  5
8074
330
7F06
100
AcDbEntity
  8
0
100
AcDbLine
 10
471.049925455426
 20
183.9529708926402
 30
0.0
 11
495.791974798848
 21
208.6950202360712
 31
0.0
  0
LINE
  5
8075
330
7F06
100
AcDbEntity
  8
0
100
AcDbLine
 10
466.5597973948925
 20
183.9529708926402
 30
0.0
 11
494.9670214314746
 21
212.3601949292315
 31
0.0
  0
LINE
  5
8076
330
7F06
100
AcDbEntity
  8
0
100
AcDbLine
 10
484.5203096370268
 20
183.9529708926402
 30
0.0
 11
504.5203096370268
 21
203.9529708926402
 31
0.0
  0
LINE
  5
8077
330
7F06
100
AcDbEntity
  8
0
100
AcDbLine
 10
564.468804773568
 20
183.9529708926402
 30
0.0
 11
544.468804773568
 21
203.9529708926402
 31
0.0
  0
LINE
  5
8078
330
7F06
100
AcDbEntity
  8
0
100
AcDbLine
 10
559.9786767130344
 20
183.9529708926402
 30
0.0
 11
539.9786767130344
 21
203.9529708926402
 31
0.0
  0
LINE
  5
8079
330
7F06
100
AcDbEntity
  8
0
100
AcDbLine
 10
555.4885486525008
 20
183.9529708926402
 30
0.0
 11
535.4885486525009
 21
203.9529708926402
 31
0.0
  0
LINE
  5
807A
330
7F06
100
AcDbEntity
  8
0
100
AcDbLine
 10
550.9984205919672
 20
183.9529708926402
 30
0.0
 11
530.9984205919672
 21
203.9529708926402
 31
0.0
  0
LINE
  5
807B
330
7F06
100
AcDbEntity
  8
0
100
AcDbLine
 10
546.5082925314336
 20
183.9529708926402
 30
0.0
 11
526.5082925314336
 21
203.9529708926402
 31
0.0
  0
LINE
  5
807C
330
7F06
100
AcDbEntity
  8
0
100
AcDbLine
 10
542.0181644709
 20
183.9529708926402
 30
0.0
 11
522.0181644709
 21
203.9529708926402
 31
0.0
  0
LINE
  5
807D
330
7F06
100
AcDbEntity
  8
0
100
AcDbLine
 10
537.5280364103664
 20
183.9529708926402
 30
0.0
 11
517.5280364103664
 21
203.9529708926402
 31
0.0
  0
LINE
  5
807E
330
7F06
100
AcDbEntity
  8
0
100
AcDbLine
 10
533.0379083498328
 20
183.9529708926402
 30
0.0
 11
513.0379083498328
 21
203.9529708926402
 31
0.0
  0
LINE
  5
807F
330
7F06
100
AcDbEntity
  8
0
100
AcDbLine
 10
528.547780289281
 20
183.9529708926402
 30
0.0
 11
508.547780289281
 21
203.9529708926402
 31
0.0
  0
LINE
  5
8080
330
7F06
100
AcDbEntity
  8
0
100
AcDbLine
 10
529.4215902423629
 20
183.9529708926402
 30
0.0
 11
549.4215902423629
 21
203.9529708926402
 31
0.0
  0
LINE
  5
8081
330
7F06
100
AcDbEntity
  8
0
100
AcDbLine
 10
524.9314621818293
 20
183.9529708926402
 30
0.0
 11
544.9314621818293
 21
203.9529708926402
 31
0.0
  0
LINE
  5
8082
330
7F06
100
AcDbEntity
  8
0
100
AcDbLine
 10
520.4413341212958
 20
183.9529708926402
 30
0.0
 11
540.4413341212957
 21
203.9529708926402
 31
0.0
  0
LINE
  5
8083
330
7F06
100
AcDbEntity
  8
0
100
AcDbLine
 10
515.9512060607621
 20
183.9529708926402
 30
0.0
 11
535.9512060607621
 21
203.9529708926402
 31
0.0
  0
LINE
  5
8084
330
7F06
100
AcDbEntity
  8
0
100
AcDbLine
 10
511.4610780002285
 20
183.9529708926402
 30
0.0
 11
531.4610780002285
 21
203.9529708926402
 31
0.0
  0
LINE
  5
8085
330
7F06
100
AcDbEntity
  8
0
100
AcDbLine
 10
506.9709499396949
 20
183.9529708926402
 30
0.0
 11
526.9709499396949
 21
203.9529708926402
 31
0.0
  0
LINE
  5
8086
330
7F06
100
AcDbEntity
  8
0
100
AcDbLine
 10
488.36467935378
 20
224.1360718281548
 30
0.0
 11
486.3522303608251
 21
226.1485208211006
 31
0.0
  0
LINE
  5
8087
330
7F06
100
AcDbEntity
  8
0
100
AcDbLine
 10
627.3305976210568
 20
183.9529708926402
 30
0.0
 11
577.5497319230807
 21
233.7338365906162
 31
0.0
  0
LINE
  5
8088
330
7F06
100
AcDbEntity
  8
0
100
AcDbLine
 10
622.8404695605231
 20
183.9529708926402
 30
0.0
 11
573.7677971573966
 21
233.0256432957712
 31
0.0
  0
LINE
  5
8089
330
7F06
100
AcDbEntity
  8
0
100
AcDbLine
 10
618.3503414999895
 20
183.9529708926402
 30
0.0
 11
570.3638212560135
 21
231.9394911366116
 31
0.0
  0
LINE
  5
808A
330
7F06
100
AcDbEntity
  8
0
100
AcDbLine
 10
610.6254786587296
 20
209.6383459760254
 30
0.0
 11
586.8545045087002
 21
233.4093201260593
 31
0.0
  0
LINE
  5
808B
330
7F06
100
AcDbEntity
  8
0
100
AcDbLine
 10
611.1618942383383
 20
204.6118023358876
 30
0.0
 11
581.8279608685579
 21
233.9457357056635
 31
0.0
  0
LINE
  5
808C
330
7F06
100
AcDbEntity
  8
0
100
AcDbLine
 10
613.860213439456
 20
183.9529708926402
 30
0.0
 11
567.2727817815566
 21
230.5404025505395
 31
0.0
  0
LINE
  5
808D
330
7F06
100
AcDbEntity
  8
0
100
AcDbLine
 10
574.3228708477172
 20
183.9529708926402
 30
0.0
 11
607.9139145464969
 21
217.5440145914153
 31
0.0
  0
LINE
  5
808E
330
7F06
100
AcDbEntity
  8
0
100
AcDbLine
 10
569.8327427871836
 20
183.9529708926402
 30
0.0
 11
606.2671454589136
 21
220.3873735643792
 31
0.0
  0
LINE
  5
808F
330
7F06
100
AcDbEntity
  8
0
100
AcDbLine
 10
565.3426147266499
 20
183.9529708926402
 30
0.0
 11
604.3661895797586
 21
222.9765457457397
 31
0.0
  0
LINE
  5
8090
330
7F06
100
AcDbEntity
  8
0
100
AcDbLine
 10
626.169129425306
 20
162.6637987857047
 30
0.0
 11
606.1691294253059
 21
182.6637987857047
 31
0.0
  0
LINE
  5
8091
330
7F06
100
AcDbEntity
  8
0
100
AcDbLine
 10
626.169129425306
 20
158.1736707251711
 30
0.0
 11
606.1691294253059
 21
178.1736707251711
 31
0.0
  0
LINE
  5
8092
330
7F06
100
AcDbEntity
  8
0
100
AcDbLine
 10
626.169129425306
 20
153.6835426646375
 30
0.0
 11
606.1691294253059
 21
173.683542664633
 31
0.0
  0
LINE
  5
8093
330
7F06
100
AcDbEntity
  8
0
100
AcDbLine
 10
626.169129425306
 20
149.1934146040994
 30
0.0
 11
606.1691294253059
 21
169.1934146040994
 31
0.0
  0
LINE
  5
8094
330
7F06
100
AcDbEntity
  8
0
100
AcDbLine
 10
626.169129425306
 20
144.7032865435658
 30
0.0
 11
606.1691294253059
 21
164.7032865435658
 31
0.0
  0
LINE
  5
8095
330
7F06
100
AcDbEntity
  8
0
100
AcDbLine
 10
626.169129425306
 20
140.2131584830321
 30
0.0
 11
606.1691294253059
 21
160.2131584830322
 31
0.0
  0
LINE
  5
8096
330
7F06
100
AcDbEntity
  8
0
100
AcDbLine
 10
626.169129425306
 20
135.7230304224986
 30
0.0
 11
606.1691294253059
 21
155.723030422494
 31
0.0
  0
LINE
  5
8097
330
7F06
100
AcDbEntity
  8
0
100
AcDbLine
 10
606.1691294253059
 20
134.9769243806149
 30
0.0
 11
626.169129425306
 21
154.9769243806149
 31
0.0
  0
LINE
  5
8098
330
7F06
100
AcDbEntity
  8
0
100
AcDbLine
 10
606.1691294253059
 20
139.467052441153
 30
0.0
 11
626.169129425306
 21
159.4670524411485
 31
0.0
  0
LINE
  5
8099
330
7F06
100
AcDbEntity
  8
0
100
AcDbLine
 10
606.1691294253059
 20
143.9571805016867
 30
0.0
 11
626.169129425306
 21
163.9571805016867
 31
0.0
  0
LINE
  5
809A
330
7F06
100
AcDbEntity
  8
0
100
AcDbLine
 10
606.1691294253059
 20
148.4473085622203
 30
0.0
 11
626.169129425306
 21
168.4473085622203
 31
0.0
  0
LINE
  5
809B
330
7F06
100
AcDbEntity
  8
0
100
AcDbLine
 10
606.1691294253059
 20
152.9374366227539
 30
0.0
 11
626.169129425306
 21
172.9374366227539
 31
0.0
  0
LINE
  5
809C
330
7F06
100
AcDbEntity
  8
0
100
AcDbLine
 10
606.1691294253059
 20
157.427564683292
 30
0.0
 11
626.169129425306
 21
177.4275646832875
 31
0.0
  0
LINE
  5
809D
330
7F06
100
AcDbEntity
  8
0
100
AcDbLine
 10
606.1691294253059
 20
161.9176927438256
 30
0.0
 11
626.169129425306
 21
181.9176927438211
 31
0.0
  0
LINE
  5
809E
330
7F06
100
AcDbEntity
  8
0
100
AcDbLine
 10
606.1691294253059
 20
166.4078208043592
 30
0.0
 11
623.7142795136051
 21
183.9529708926402
 31
0.0
  0
LINE
  5
809F
330
7F06
100
AcDbEntity
  8
0
100
AcDbLine
 10
605.7537672714524
 20
183.9529708926402
 30
0.0
 11
625.7537672714525
 21
203.9529708926402
 31
0.0
  0
LINE
  5
80A0
330
7F06
100
AcDbEntity
  8
0
100
AcDbLine
 10
626.169129425306
 20
171.6440549067719
 30
0.0
 11
613.860213439456
 21
183.9529708926402
 31
0.0
  0
LINE
  5
80A1
330
7F06
100
AcDbEntity
  8
0
100
AcDbLine
 10
626.169129425306
 20
167.1539268462383
 30
0.0
 11
609.3700853789223
 21
183.9529708926402
 31
0.0
  0
LINE
  5
80A2
330
7F06
100
AcDbEntity
  8
0
100
AcDbLine
 10
631.8207256815903
 20
183.9529708926402
 30
0.0
 11
611.8207256815903
 21
203.9529708926402
 31
0.0
  0
LINE
  5
80A3
330
7F06
100
AcDbEntity
  8
0
100
AcDbLine
 10
614.7340233925379
 20
183.9529708926402
 30
0.0
 11
634.7340233925379
 21
203.9529708926402
 31
0.0
  0
LINE
  5
80A4
330
7F06
100
AcDbEntity
  8
0
100
AcDbLine
 10
610.2438953319861
 20
183.9529708926402
 30
0.0
 11
630.243895331986
 21
203.9529708926402
 31
0.0
  0
LINE
  5
80A5
330
7F06
100
AcDbEntity
  8
0
100
AcDbLine
 10
611.1691294253059
 20
203.9529708926402
 30
0.0
 11
666.169129425306
 21
203.9529708926402
 31
0.0
  0
LINE
  5
80A6
330
7F06
100
AcDbEntity
  8
0
100
AcDbLine
 10
626.169129425306
 20
180.6243110278437
 30
0.0
 11
622.8404695605231
 21
183.9529708926402
 31
0.0
  0
LINE
  5
80A7
330
7F06
100
AcDbEntity
  8
0
100
AcDbLine
 10
626.169129425306
 20
176.1341829673101
 30
0.0
 11
618.3503414999895
 21
183.9529708926402
 31
0.0
  0
LINE
  5
80A8
330
7F06
100
AcDbEntity
  8
0
100
AcDbLine
 10
640.8009818026576
 20
183.9529708926402
 30
0.0
 11
620.8009818026575
 21
203.9529708926402
 31
0.0
  0
LINE
  5
80A9
330
7F06
100
AcDbEntity
  8
0
100
AcDbLine
 10
636.310853742124
 20
183.9529708926402
 30
0.0
 11
616.310853742124
 21
203.9529708926402
 31
0.0
  0
LINE
  5
80AA
330
7F06
100
AcDbEntity
  8
0
100
AcDbLine
 10
619.2241514530715
 20
183.9529708926402
 30
0.0
 11
639.2241514530715
 21
203.9529708926402
 31
0.0
  0
LINE
  5
80AB
330
7F06
100
AcDbEntity
  8
0
100
AcDbLine
 10
606.1691294253059
 20
170.8979488648928
 30
0.0
 11
619.2241514530715
 21
183.9529708926402
 31
0.0
  0
LINE
  5
80AC
330
7F06
100
AcDbEntity
  8
0
100
AcDbLine
 10
601.2636392109189
 20
183.9529708926402
 30
0.0
 11
621.2636392109189
 21
203.9529708926402
 31
0.0
  0
LINE
  5
80AD
330
7F06
100
AcDbEntity
  8
0
100
AcDbLine
 10
596.7735111503852
 20
183.9529708926402
 30
0.0
 11
616.7735111503852
 21
203.9529708926402
 31
0.0
  0
LINE
  5
80AE
330
7F06
100
AcDbEntity
  8
0
100
AcDbLine
 10
606.1691294253059
 20
175.3880769254265
 30
0.0
 11
614.7340233925379
 21
183.9529708926402
 31
0.0
  0
LINE
  5
80AF
330
7F06
100
AcDbEntity
  8
0
100
AcDbLine
 10
606.1691294253059
 20
179.8782049859601
 30
0.0
 11
610.2438953319861
 21
183.9529708926402
 31
0.0
  0
LINE
  5
80B0
330
7F06
100
AcDbEntity
  8
0
100
AcDbLine
 10
592.2833830898516
 20
183.9529708926402
 30
0.0
 11
612.2833830898517
 21
203.9529708926402
 31
0.0
  0
LINE
  5
80B1
330
7F06
100
AcDbEntity
  8
0
100
AcDbLine
 10
587.793255029318
 20
183.9529708926402
 30
0.0
 11
610.9975169987583
 21
207.1572328620713
 31
0.0
  0
LINE
  5
80B2
330
7F06
100
AcDbEntity
  8
0
100
AcDbLine
 10
583.3031269687844
 20
183.9529708926402
 30
0.0
 11
610.3336843355637
 21
210.9835282594104
 31
0.0
  0
LINE
  5
80B3
330
7F06
100
AcDbEntity
  8
0
100
AcDbLine
 10
578.8129989082508
 20
183.9529708926402
 30
0.0
 11
609.2828620979517
 21
214.4228340823456
 31
0.0
  0
LINE
  5
80B4
330
7F06
100
AcDbEntity
  8
0
100
AcDbLine
 10
676.7220062869264
 20
183.9529708926402
 30
0.0
 11
656.7220062869264
 21
203.9529708926402
 31
0.0
  0
LINE
  5
80B5
330
7F06
100
AcDbEntity
  8
0
100
AcDbLine
 10
672.2318782263928
 20
183.9529708926402
 30
0.0
 11
652.2318782263928
 21
203.9529708926402
 31
0.0
  0
LINE
  5
80B6
330
7F06
100
AcDbEntity
  8
0
100
AcDbLine
 10
667.7417501658592
 20
183.9529708926402
 30
0.0
 11
647.7417501658592
 21
203.9529708926402
 31
0.0
  0
LINE
  5
80B7
330
7F06
100
AcDbEntity
  8
0
100
AcDbLine
 10
663.2516221053256
 20
183.9529708926402
 30
0.0
 11
643.2516221053256
 21
203.9529708926402
 31
0.0
  0
LINE
  5
80B8
330
7F06
100
AcDbEntity
  8
0
100
AcDbLine
 10
658.761494044792
 20
183.9529708926402
 30
0.0
 11
638.761494044792
 21
203.9529708926402
 31
0.0
  0
LINE
  5
80B9
330
7F06
100
AcDbEntity
  8
0
100
AcDbLine
 10
654.2713659842584
 20
183.9529708926402
 30
0.0
 11
634.2713659842583
 21
203.9529708926402
 31
0.0
  0
LINE
  5
80BA
330
7F06
100
AcDbEntity
  8
0
100
AcDbLine
 10
649.7812379237248
 20
183.9529708926402
 30
0.0
 11
629.7812379237248
 21
203.9529708926402
 31
0.0
  0
LINE
  5
80BB
330
7F06
100
AcDbEntity
  8
0
100
AcDbLine
 10
645.2911098631911
 20
183.9529708926402
 30
0.0
 11
625.2911098631912
 21
203.9529708926402
 31
0.0
  0
LINE
  5
80BC
330
7F06
100
AcDbEntity
  8
0
100
AcDbLine
 10
646.1649198162731
 20
183.9529708926402
 30
0.0
 11
666.1649198162731
 21
203.9529708926402
 31
0.0
  0
LINE
  5
80BD
330
7F06
100
AcDbEntity
  8
0
100
AcDbLine
 10
641.6747917557395
 20
183.9529708926402
 30
0.0
 11
661.6747917557395
 21
203.9529708926402
 31
0.0
  0
LINE
  5
80BE
330
7F06
100
AcDbEntity
  8
0
100
AcDbLine
 10
637.1846636952059
 20
183.9529708926402
 30
0.0
 11
657.1846636952059
 21
203.9529708926402
 31
0.0
  0
LINE
  5
80BF
330
7F06
100
AcDbEntity
  8
0
100
AcDbLine
 10
632.6945356346723
 20
183.9529708926402
 30
0.0
 11
652.6945356346723
 21
203.9529708926402
 31
0.0
  0
LINE
  5
80C0
330
7F06
100
AcDbEntity
  8
0
100
AcDbLine
 10
628.2044075741387
 20
183.9529708926402
 30
0.0
 11
648.2044075741387
 21
203.9529708926402
 31
0.0
  0
LINE
  5
80C1
330
7F06
100
AcDbEntity
  8
0
100
AcDbLine
 10
623.7142795136051
 20
183.9529708926402
 30
0.0
 11
643.714279513605
 21
203.9529708926402
 31
0.0
  0
LINE
  5
80C2
330
7F06
100
AcDbEntity
  8
0
100
AcDbLine
 10
608.5566518317673
 20
216.1973008635259
 30
0.0
 11
593.4134593961962
 21
231.340493299097
 31
0.0
  0
ARC
  5
80C3
330
7F06
100
AcDbEntity
  8
0
100
AcDbCircle
 10
767.341004425306
 20
319.8904708926402
 30
0.0
 40
110.94368930798
100
AcDbArc
 50
242.5327276613962
 51
269.3947854027155
  0
LINE
  5
80C4
330
7F06
100
AcDbEntity
  8
0
100
AcDbLine
 10
736.8191672476669
 20
204.6781150215319
 30
0.0
 11
723.536553044486
 21
217.9607292247173
 31
0.0
  0
LINE
  5
80C5
330
7F06
100
AcDbEntity
  8
0
100
AcDbLine
 10
733.3752545235429
 20
203.6318996851132
 30
0.0
 11
703.0541833160159
 21
233.9529708926402
 31
0.0
  0
LINE
  5
80C6
330
7F06
100
AcDbEntity
  8
0
100
AcDbLine
 10
730.0226465554069
 20
202.4943795927201
 30
0.0
 11
698.5640552554823
 21
233.9529708926402
 31
0.0
  0
LINE
  5
80C7
330
7F06
100
AcDbEntity
  8
0
100
AcDbLine
 10
726.7571249781386
 20
201.2697731094594
 30
0.0
 11
694.1424618367991
 21
233.8844362507807
 31
0.0
  0
LINE
  5
80C8
330
7F06
100
AcDbEntity
  8
0
100
AcDbLine
 10
723.5750303793784
 20
199.9617396476814
 30
0.0
 11
690.1864017982543
 21
233.3503682288055
 31
0.0
  0
LINE
  5
80C9
330
7F06
100
AcDbEntity
  8
0
100
AcDbLine
 10
720.4731811460433
 20
198.5734608204829
 30
0.0
 11
686.6454730705473
 21
232.4011688959653
 31
0.0
  0
LINE
  5
80CA
330
7F06
100
AcDbEntity
  8
0
100
AcDbLine
 10
717.4488083584756
 20
197.1077055475034
 30
0.0
 11
683.4386063712363
 21
231.1179075347472
 31
0.0
  0
LINE
  5
80CB
330
7F06
100
AcDbEntity
  8
0
100
AcDbLine
 10
695.5563284821428
 20
183.9529708926402
 30
0.0
 11
727.8258325208653
 21
216.2224749313627
 31
0.0
  0
LINE
  5
80CC
330
7F06
100
AcDbEntity
  8
0
100
AcDbLine
 10
691.0662004216092
 20
183.9529708926402
 30
0.0
 11
724.6165685379119
 21
217.5033390089429
 31
0.0
  0
LINE
  5
80CD
330
7F06
100
AcDbEntity
  8
0
100
AcDbLine
 10
686.5760723610756
 20
183.9529708926402
 30
0.0
 11
721.4885517790926
 21
218.8654503106481
 31
0.0
  0
LINE
  5
80CE
330
7F06
100
AcDbEntity
  8
0
100
AcDbLine
 10
682.085944300542
 20
183.9529708926402
 30
0.0
 11
718.4388834446681
 21
220.3059100367572
 31
0.0
  0
ARC
  5
80CF
330
7F06
100
AcDbEntity
  8
0
100
AcDbCircle
 10
767.341004425306
 20
294.8904708926402
 30
0.0
 40
110.94368930798
100
AcDbArc
 50
242.5327276613962
 51
269.3947854027155
  0
ARC
  5
80D0
330
7F06
100
AcDbEntity
  8
0
100
AcDbCircle
 10
767.341004425306
 20
98.01547089264023
 30
0.0
 40
110.94368930798
100
AcDbArc
 50
90.60521459728448
 51
117.4672723386037
  0
LINE
  5
80D1
330
7F06
100
AcDbEntity
  8
0
100
AcDbLine
 10
744.0012153704984
 20
206.4763230197677
 30
0.0
 11
737.4197414201798
 21
213.0577969700861
 31
0.0
  0
LINE
  5
80D2
330
7F06
100
AcDbEntity
  8
0
100
AcDbLine
 10
740.3592641257082
 20
205.6281462040105
 30
0.0
 11
730.8771279855491
 21
215.1102823441788
 31
0.0
  0
LINE
  5
80D3
330
7F06
100
AcDbEntity
  8
0
100
AcDbLine
 10
739.5837991344151
 20
183.9529708926402
 30
0.0
 11
734.6705624962842
 21
188.8662075307665
 31
0.0
  0
LINE
  5
80D4
330
7F06
100
AcDbEntity
  8
0
100
AcDbLine
 10
735.9674810269634
 20
183.9529708926402
 30
0.0
 11
739.5090555129709
 21
187.4945453786522
 31
0.0
  0
LINE
  5
80D5
330
7F06
100
AcDbEntity
  8
0
100
AcDbLine
 10
733.1101436619237
 20
203.5462738302821
 30
0.0
 11
741.550076514085
 21
211.9862066824434
 31
0.0
  0
LINE
  5
80D6
330
7F06
100
AcDbEntity
  8
0
100
AcDbLine
 10
735.0936710738815
 20
183.9529708926402
 30
0.0
 11
727.8231411083461
 21
191.223500858171
 31
0.0
  0
LINE
  5
80D7
330
7F06
100
AcDbEntity
  8
0
100
AcDbLine
 10
730.6035430133479
 20
183.9529708926402
 30
0.0
 11
720.0040433675703
 21
194.5524705384268
 31
0.0
  0
LINE
  5
80D8
330
7F06
100
AcDbEntity
  8
0
100
AcDbLine
 10
731.4773529664298
 20
183.9529708926402
 30
0.0
 11
735.9922958328561
 21
188.4679137590619
 31
0.0
  0
LINE
  5
80D9
330
7F06
100
AcDbEntity
  8
0
100
AcDbLine
 10
726.9872249058963
 20
183.9529708926402
 30
0.0
 11
732.5704945985481
 21
189.5362405852965
 31
0.0
  0
LINE
  5
80DA
330
7F06
100
AcDbEntity
  8
0
100
AcDbLine
 10
722.4970968453626
 20
183.9529708926402
 30
0.0
 11
729.2389400760466
 21
190.6948141233242
 31
0.0
  0
LINE
  5
80DB
330
7F06
100
AcDbEntity
  8
0
100
AcDbLine
 10
718.006968784829
 20
183.9529708926402
 30
0.0
 11
725.9935550895525
 21
191.9395571973636
 31
0.0
  0
LINE
  5
80DC
330
7F06
100
AcDbEntity
  8
0
100
AcDbLine
 10
713.5168407242954
 20
183.9529708926402
 30
0.0
 11
722.8308004449891
 21
193.266930613352
 31
0.0
  0
LINE
  5
80DD
330
7F06
100
AcDbEntity
  8
0
100
AcDbLine
 10
726.0713273995307
 20
200.9975856284181
 30
0.0
 11
737.977022853428
 21
212.9032810823109
 31
0.0
  0
LINE
  5
80DE
330
7F06
100
AcDbEntity
  8
0
100
AcDbLine
 10
709.0267126637618
 20
183.9529708926402
 30
0.0
 11
719.7475979748369
 21
194.6738562037289
 31
0.0
  0
LINE
  5
80DF
330
7F06
100
AcDbEntity
  8
0
100
AcDbLine
 10
717.934247296288
 20
197.3506335857137
 30
0.0
 11
734.5019305874657
 21
213.9183168768868
 31
0.0
  0
LINE
  5
80E0
330
7F06
100
AcDbEntity
  8
0
100
AcDbLine
 10
704.53658460321
 20
183.9529708926402
 30
0.0
 11
716.7412686811976
 21
196.1576549706187
 31
0.0
  0
LINE
  5
80E1
330
7F06
100
AcDbEntity
  8
0
100
AcDbLine
 10
700.0464565426764
 20
183.9529708926402
 30
0.0
 11
731.1196751826346
 21
215.0261895325939
 31
0.0
  0
LINE
  5
80E2
330
7F06
100
AcDbEntity
  8
0
100
AcDbLine
 10
751.6183693008488
 20
207.8394252104844
 30
0.0
 11
748.9813286813105
 21
210.4764658300319
 31
0.0
  0
LINE
  5
80E3
330
7F06
100
AcDbEntity
  8
0
100
AcDbLine
 10
747.7516490672123
 20
207.2160173835782
 30
0.0
 11
743.408890448808
 21
211.5587760019871
 31
0.0
  0
LINE
  5
80E4
330
7F06
100
AcDbEntity
  8
0
100
AcDbLine
 10
753.0541833160159
 20
183.9529708926402
 30
0.0
 11
751.9937192995885
 21
185.0134349090676
 31
0.0
  0
LINE
  5
80E5
330
7F06
100
AcDbEntity
  8
0
100
AcDbLine
 10
748.5640552554823
 20
183.9529708926402
 30
0.0
 11
746.6175709507833
 21
185.8994551973437
 31
0.0
  0
LINE
  5
80E6
330
7F06
100
AcDbEntity
  8
0
100
AcDbLine
 10
744.0739271949487
 20
183.9529708926402
 30
0.0
 11
740.877785204465
 21
187.1491128831239
 31
0.0
  0
LINE
  5
80E7
330
7F06
100
AcDbEntity
  8
0
100
AcDbLine
 10
749.4378652085643
 20
183.9529708926402
 30
0.0
 11
750.6885479092844
 21
185.2036535933511
 31
0.0
  0
LINE
  5
80E8
330
7F06
100
AcDbEntity
  8
0
100
AcDbLine
 10
744.9477371480306
 20
183.9529708926402
 30
0.0
 11
746.85023935357
 21
185.8554730981704
 31
0.0
  0
LINE
  5
80E9
330
7F06
100
AcDbEntity
  8
0
100
AcDbLine
 10
740.4576090874971
 20
183.9529708926402
 30
0.0
 11
743.1262423866783
 21
186.6216041918305
 31
0.0
  0
LINE
  5
80EA
330
7F06
100
AcDbEntity
  8
0
100
AcDbLine
 10
750.7451152338935
 20
207.7108612206375
 30
0.0
 11
752.922020004843
 21
209.887765991587
 31
0.0
  0
LINE
  5
80EB
330
7F06
100
AcDbEntity
  8
0
100
AcDbLine
 10
745.2897394467063
 20
206.7456134939839
 30
0.0
 11
749.0149546549392
 21
210.4708287022213
 31
0.0
  0
LINE
  5
80EC
330
7F06
100
AcDbEntity
  8
0
100
AcDbLine
 10
739.4500980339207
 20
205.3961001417365
 30
0.0
 11
745.227057377032
 21
211.1730594848477
 31
0.0
  0
POINT
  5
80ED
330
7F06
100
AcDbEntity
  8
DEFPOINTS
  6
ByBlock
 62
     0
100
AcDbPoint
 10
766.169129425306
 20
183.9529708926402
 30
0.0
  0
LINE
  5
80EE
330
7F06
100
AcDbEntity
  8
0
100
AcDbLine
 10
764.018772123908
 20
208.9094065690396
 30
0.0
 11
763.9289150409958
 21
208.9992636519427
 31
0.0
  0
LINE
  5
80EF
330
7F06
100
AcDbEntity
  8
0
100
AcDbLine
 10
759.7396048867076
 20
208.6984457456883
 30
0.0
 11
759.1915521215187
 21
209.2464985108908
 31
0.0
  0
LINE
  5
80F0
330
7F06
100
AcDbEntity
  8
0
100
AcDbLine
 10
755.6106456716397
 20
208.3372769002271
 30
0.0
 11
754.2228563606286
 21
209.7250662112291
 31
0.0
  0
LINE
  5
80F1
330
7F06
100
AcDbEntity
  8
0
100
AcDbLine
 10
762.0344394370832
 20
183.9529708926402
 30
0.0
 11
761.9074947553045
 21
184.0799155744234
 31
0.0
  0
LINE
  5
80F2
330
7F06
100
AcDbEntity
  8
0
100
AcDbLine
 10
757.5443113765495
 20
183.9529708926402
 30
0.0
 11
757.0744543635182
 21
184.4228279056806
 31
0.0
  0
LINE
  5
80F3
330
7F06
100
AcDbEntity
  8
0
100
AcDbLine
 10
762.9082493901651
 20
183.9529708926402
 30
0.0
 11
762.9875098139737
 21
184.0322313164397
 31
0.0
  0
LINE
  5
80F4
330
7F06
100
AcDbEntity
  8
0
100
AcDbLine
 10
758.4181213296314
 20
183.9529708926402
 30
0.0
 11
758.7454137609157
 21
184.2802633239198
 31
0.0
  0
LINE
  5
80F5
330
7F06
100
AcDbEntity
  8
0
100
AcDbLine
 10
753.9279932690979
 20
183.9529708926402
 30
0.0
 11
754.6500583883417
 21
184.6750360118931
 31
0.0
  0
LINE
  5
80F6
330
7F06
100
AcDbEntity
  8
0
100
AcDbLine
 10
765.4476411651184
 20
208.9430029702571
 30
0.0
 11
765.4672441495304
 21
208.9626059546781
 31
0.0
  0
LINE
  5
80F7
330
7F06
100
AcDbEntity
  8
0
100
AcDbLine
 10
760.7794659470519
 20
208.7649558127241
 30
0.0
 11
761.1350042332369
 21
209.1204940989182
 31
0.0
  0
LINE
  5
80F8
330
7F06
100
AcDbEntity
  8
0
100
AcDbLine
 10
755.8911210515352
 20
208.3667389777547
 30
0.0
 11
756.9580866886635
 21
209.4337046148784
 31
0.0
  0
ARC
  5
80F9
330
7F06
100
AcDbEntity
  8
0
100
AcDbCircle
 10
767.341004425306
 20
123.0154708926402
 30
0.0
 40
110.94368930798
100
AcDbArc
 50
90.60521459728448
 51
117.4672723386037
  0
LINE
  5
80FA
330
7F06
100
AcDbEntity
  8
0
100
AcDbLine
 10
766.169129425306
 20
233.9529708926402
 30
0.0
 11
696.169129425306
 21
233.9529708926402
 31
0.0
  0
LINE
  5
80FB
330
7F06
100
AcDbEntity
  8
0
100
AcDbLine
 10
741.9205629383932
 20
231.0076157545499
 30
0.0
 11
738.975207800303
 21
233.9529708926402
 31
0.0
  0
LINE
  5
80FC
330
7F06
100
AcDbEntity
  8
0
100
AcDbLine
 10
736.7801807323658
 20
229.6669512033877
 30
0.0
 11
741.0662004216092
 21
233.9529708926402
 31
0.0
  0
LINE
  5
80FD
330
7F06
100
AcDbEntity
  8
0
100
AcDbLine
 10
738.3371890802655
 20
230.1008615521304
 30
0.0
 11
734.4850797397693
 21
233.9529708926402
 31
0.0
  0
LINE
  5
80FE
330
7F06
100
AcDbEntity
  8
0
100
AcDbLine
 10
734.852344375994
 20
229.0955781958728
 30
0.0
 11
729.9949516792358
 21
233.9529708926402
 31
0.0
  0
LINE
  5
80FF
330
7F06
100
AcDbEntity
  8
0
100
AcDbLine
 10
731.4608254634176
 20
227.9969690479201
 30
0.0
 11
725.5048236187022
 21
233.9529708926402
 31
0.0
  0
LINE
  5
8100
330
7F06
100
AcDbEntity
  8
0
100
AcDbLine
 10
728.1581422259469
 20
226.8095242248528
 30
0.0
 11
721.0146955581503
 21
233.9529708926402
 31
0.0
  0
LINE
  5
8101
330
7F06
100
AcDbEntity
  8
0
100
AcDbLine
 10
724.9404047089401
 20
225.5371336813259
 30
0.0
 11
716.5245674976167
 21
233.9529708926402
 31
0.0
  0
LINE
  5
8102
330
7F06
100
AcDbEntity
  8
0
100
AcDbLine
 10
721.8042336145654
 20
224.1831767151716
 30
0.0
 11
712.0344394370832
 21
233.9529708926402
 31
0.0
  0
LINE
  5
8103
330
7F06
100
AcDbEntity
  8
0
100
AcDbLine
 10
718.7466887635483
 20
222.7505935056415
 30
0.0
 11
707.5443113765495
 21
233.9529708926402
 31
0.0
  0
LINE
  5
8104
330
7F06
100
AcDbEntity
  8
0
100
AcDbLine
 10
730.1699945297869
 20
227.5468930613469
 30
0.0
 11
736.5760723610756
 21
233.9529708926402
 31
0.0
  0
LINE
  5
8105
330
7F06
100
AcDbEntity
  8
0
100
AcDbLine
 10
722.7260329647824
 20
224.5930595568807
 30
0.0
 11
732.085944300542
 21
233.9529708926402
 31
0.0
  0
LINE
  5
8106
330
7F06
100
AcDbEntity
  8
0
100
AcDbLine
 10
753.7011073090971
 20
233.1174935985136
 30
0.0
 11
754.53658460321
 21
233.9529708926402
 31
0.0
  0
LINE
  5
8107
330
7F06
100
AcDbEntity
  8
0
100
AcDbLine
 10
753.327941027982
 20
233.0706218465529
 30
0.0
 11
752.4455919819038
 21
233.9529708926402
 31
0.0
  0
LINE
  5
8108
330
7F06
100
AcDbEntity
  8
0
100
AcDbLine
 10
749.4081874750727
 20
232.5002473389331
 30
0.0
 11
747.9554639213702
 21
233.9529708926402
 31
0.0
  0
LINE
  5
8109
330
7F06
100
AcDbEntity
  8
0
100
AcDbLine
 10
745.6085270700341
 20
231.8097796834381
 30
0.0
 11
743.4653358608366
 21
233.9529708926402
 31
0.0
  0
LINE
  5
810A
330
7F06
100
AcDbEntity
  8
0
100
AcDbLine
 10
748.4288140890011
 20
232.335328438965
 30
0.0
 11
750.0464565426764
 21
233.9529708926402
 31
0.0
  0
LINE
  5
810B
330
7F06
100
AcDbEntity
  8
0
100
AcDbLine
 10
742.8183808359417
 20
231.2150232464255
 30
0.0
 11
745.5563284821428
 21
233.9529708926402
 31
0.0
  0
POINT
  5
810C
330
7F06
100
AcDbEntity
  8
DEFPOINTS
  6
ByBlock
 62
     0
100
AcDbPoint
 10
766.169129425306
 20
233.9529708926402
 30
0.0
  0
POINT
  5
810D
330
7F06
100
AcDbEntity
  8
DEFPOINTS
  6
ByBlock
 62
     0
100
AcDbPoint
 10
766.169129425306
 20
233.9529708926402
 30
0.0
  0
LINE
  5
810E
330
7F06
100
AcDbEntity
  8
0
100
AcDbLine
 10
765.9189016568043
 20
233.9500453993359
 30
0.0
 11
765.9159761635046
 21
233.9529708926402
 31
0.0
  0
LINE
  5
810F
330
7F06
100
AcDbEntity
  8
0
100
AcDbLine
 10
761.5698639323081
 20
233.8089550633076
 30
0.0
 11
761.425848102971
 21
233.9529708926402
 31
0.0
  0
LINE
  5
8110
330
7F06
100
AcDbEntity
  8
0
100
AcDbLine
 10
757.377804547249
 20
233.5108863878331
 30
0.0
 11
756.9357200424374
 21
233.9529708926402
 31
0.0
  0
LINE
  5
8111
330
7F06
100
AcDbEntity
  8
0
100
AcDbLine
 10
763.4549502150175
 20
233.8910803833669
 30
0.0
 11
763.5168407242954
 21
233.9529708926402
 31
0.0
  0
LINE
  5
8112
330
7F06
100
AcDbEntity
  8
0
100
AcDbLine
 10
758.6955326212946
 20
233.6217908501912
 30
0.0
 11
759.0267126637618
 21
233.9529708926402
 31
0.0
  0
DIMENSION
  5
8113
330
7F06
100
AcDbEntity
  8
寸法引出
100
AcDbDimension
  2
*D5
 10
1393.753464603094
 20
128.2645464268807
 30
0.0
 11
1353.753464603094
 21
223.2645464268812
 31
0.0
 12
-1128.721936142234
 22
-325.7152975718563
 32
0.0
  1
19
 71
     5
 42
190.0
  3
SANWA
100
AcDbAlignedDimension
 13
1494.217610755428
 23
318.2645464268807
 33
0.0
 14
1554.217610755428
 24
128.2645464268807
 34
0.0
 50
90.0
100
AcDbRotatedDimension
1001
ACAD
1000
DSTYLE
1002
{
1070
    40
1040
20.0
1070
    41
1040
1.5
1070
    43
1040
5.0
1070
    44
1040
0.5
1070
   140
1040
2.0
1070
   147
1040
1.0
1070
   176
1070
   256
1070
   177
1070
   256
1070
   178
1070
   256
1002
}
  0
LINE
  5
8114
330
7F06
100
AcDbEntity
  8
0
100
AcDbLine
 10
1270.657666548917
 20
318.2645464268807
 30
0.0
 11
1494.217610755428
 21
318.2645464268807
 31
0.0
  0
DIMENSION
  5
8115
330
7F06
100
AcDbEntity
  8
寸法引出
100
AcDbDimension
  2
*D4
 10
1767.437098930981
 20
128.2645464268807
 30
0.0
 11
1767.68792753634
 21
88.19926101576857
 31
0.0
 12
-1128.721936142234
 22
-325.7152975718563
 32
0.0
 70
   128
  1
3
 71
     5
 42
30.00000000000005
  3
SANWA
100
AcDbAlignedDimension
 13
1644.217610755428
 23
158.2645464268807
 33
0.0
 14
1554.217610755428
 24
128.2645464268807
 34
0.0
 50
90.0
100
AcDbRotatedDimension
1001
ACAD
1000
DSTYLE
1002
{
1070
   279
1070
     1
1070
    40
1040
20.0
1070
    41
1040
1.5
1070
    43
1040
5.0
1070
    44
1040
0.5
1070
   140
1040
2.0
1070
   147
1040
1.0
1070
   176
1070
   256
1070
   177
1070
   256
1070
   178
1070
   256
1002
}
  0
DIMENSION
  5
8116
330
7F06
100
AcDbEntity
  8
寸法引出
100
AcDbDimension
  2
*D2
 10
1644.217610755428
 20
10.00000362253013
 30
0.0
 11
1599.217610755428
 21
50.00000362253013
 31
0.0
 12
-1128.721936142234
 22
-325.7152975718563
 32
0.0
  1
9
 71
     5
 42
90.0
  3
SANWA
100
AcDbAlignedDimension
 13
1554.217610755428
 23
128.2645464268807
 33
0.0
 14
1644.217610755428
 24
158.2645464268807
 34
0.0
100
AcDbRotatedDimension
1001
ACAD
1000
DSTYLE
1002
{
1070
    40
1040
20.0
1070
    41
1040
1.5
1070
    43
1040
5.0
1070
    44
1040
0.5
1070
   140
1040
2.0
1070
   147
1040
1.0
1070
   176
1070
   256
1070
   177
1070
   256
1070
   178
1070
   256
1002
}
  0
LINE
  5
8117
330
7F06
100
AcDbEntity
  8
0
100
AcDbLine
 10
1554.217610755428
 20
128.2645464268807
 30
0.0
 11
1644.217610755428
 21
158.2645464268807
 31
0.0
  0
LINE
  5
8118
330
7F06
100
AcDbEntity
  8
0
100
AcDbLine
 10
1464.217610755428
 20
158.2645464268807
 30
0.0
 11
1554.217610755428
 21
128.2645464268807
 31
0.0
  0
LINE
  5
8119
330
7F06
100
AcDbEntity
  8
0
100
AcDbLine
 10
1554.217610755428
 20
318.2645464268807
 30
0.0
 11
1554.217610755428
 21
31.96523290328514
 31
0.0
  0
DIMENSION
  5
811A
330
7F06
100
AcDbEntity
  8
寸法引出
100
AcDbDimension
  2
*D1
 10
1614.217610755428
 20
384.1602342691421
 30
0.0
 11
1584.217610755428
 21
424.1602342691421
 31
0.0
 12
-1128.721936142234
 22
-325.7152975718563
 32
0.0
  1
6
 71
     5
 42
60.0
  3
SANWA
100
AcDbAlignedDimension
 13
1554.217610755428
 23
318.2645464268807
 33
0.0
 14
1614.217610755428
 24
318.2645464268807
 34
0.0
100
AcDbRotatedDimension
1001
ACAD
1000
DSTYLE
1002
{
1070
    40
1040
20.0
1070
    41
1040
1.5
1070
    43
1040
5.0
1070
    44
1040
0.5
1070
   140
1040
2.0
1070
   147
1040
1.0
1070
   176
1070
   256
1070
   177
1070
   256
1070
   178
1070
   256
1002
}
  0
LINE
  5
811B
330
7F06
100
AcDbEntity
  8
0
100
AcDbLine
 10
1494.217610755428
 20
318.2645464268807
 30
0.0
 11
1464.217610755428
 21
158.2645464268807
 31
0.0
  0
DIMENSION
  5
811C
330
7F06
100
AcDbEntity
  8
寸法引出
100
AcDbDimension
  2
*D3
 10
1767.437098930981
 20
158.2645464268807
 30
0.0
 11
1727.43709893098
 21
238.2645464268812
 31
0.0
 12
-1128.721936142234
 22
-325.7152975718563
 32
0.0
  1
16
 71
     5
 42
159.9999999999999
  3
SANWA
100
AcDbAlignedDimension
 13
1614.217610755428
 23
318.2645464268807
 33
0.0
 14
1644.217610755428
 24
158.2645464268807
 34
0.0
 50
90.0
100
AcDbRotatedDimension
1001
ACAD
1000
DSTYLE
1002
{
1070
    40
1040
20.0
1070
    41
1040
1.5
1070
    43
1040
5.0
1070
    44
1040
0.5
1070
   140
1040
2.0
1070
   147
1040
1.0
1070
   176
1070
   256
1070
   177
1070
   256
1070
   178
1070
   256
1002
}
  0
LINE
  5
811D
330
7F06
100
AcDbEntity
  8
0
100
AcDbLine
 10
1644.217610755428
 20
158.2645464268807
 30
0.0
 11
1614.217610755428
 21
318.2645464268807
 31
0.0
  0
LINE
  5
811E
330
7F06
100
AcDbEntity
  8
0
100
AcDbLine
 10
1614.217610755428
 20
318.2645464268809
 30
0.0
 11
1837.77755496194
 21
318.2645464268807
 31
0.0
  0
TEXT
  5
811F
330
7F06
100
AcDbEntity
  8
0
100
AcDbText
 10
117.9202130359195
 20
501.267997817215
 30
0.0
 40
48.0
  1
サイレントゴム詳細図
  7
SANWA
 72
     4
 11
469.0059273216339
 21
526.227997817215
 31
0.0
100
AcDbText
  0
LINE
  5
8120
330
7F06
100
AcDbEntity
  8
0
100
AcDbLine
 10
101.4014824003806
 20
485.6168066949535
 30
0.0
 11
834.0714217692966
 21
485.6168066949535
 31
0.0
  0
LINE
  5
8121
330
7F06
100
AcDbEntity
  8
0
100
AcDbLine
 10
1346.141526424533
 20
485.6168066949535
 30
0.0
 11
1774.82430954934
 21
485.6168066949535
 31
0.0
  0
TEXT
  5
8122
330
7F06
100
AcDbEntity
  8
0
100
AcDbText
 10
1346.656696413835
 20
501.4051406743579
 30
0.0
 40
48.0
  1
目地部詳細図
  7
SANWA
 72
     4
 11
1557.308124985264
 21
526.227997817215
 31
0.0
100
AcDbText
  0
ENDBLK
  5
8124
330
7F06
100
AcDbEntity
  8
0
100
AcDbBlockEnd
  0
BLOCK
  5
99AD
330
99A3
100
AcDbEntity
  8
0
 48
25.0
100
AcDbBlockBegin
  2
*D9
 70
     1
 10
0.0
 20
0.0
 30
0.0
  3
*D9
  1

  0
LINE
  5
ACFC
330
99A3
100
AcDbEntity
  8
寸法引出
 48
25.0
370
    -2
100
AcDbLine
 10
2026.579506636855
 20
2077.097799992906
 30
0.0
 11
2026.579506636855
 21
1922.437424986838
 31
0.0
  0
LINE
  5
ACFD
330
99A3
100
AcDbEntity
  8
寸法引出
 48
25.0
370
    -2
100
AcDbLine
 10
2686.579506636856
 20
2077.097799992908
 30
0.0
 11
2686.579506636856
 21
1922.437424986838
 31
0.0
  0
LINE
  5
ACFE
330
99A3
100
AcDbEntity
  8
寸法引出
 48
25.0
370
    -2
100
AcDbLine
 10
2064.079506636855
 20
1934.937424986838
 30
0.0
 11
2649.079506636855
 21
1934.937424986838
 31
0.0
  0
SOLID
  5
ACFF
330
99A3
100
AcDbEntity
  8
寸法引出
 48
25.0
100
AcDbTrace
 10
2064.079506636855
 20
1941.187424986837
 30
0.0
 11
2064.079506636855
 21
1928.687424986837
 31
0.0
 12
2026.579506636855
 22
1934.937424986838
 32
0.0
 13
2026.579506636855
 23
1934.937424986838
 33
0.0
  0
SOLID
  5
AD00
330
99A3
100
AcDbEntity
  8
寸法引出
 48
25.0
100
AcDbTrace
 10
2649.079506636855
 20
1941.187424986837
 30
0.0
 11
2649.079506636855
 21
1928.687424986837
 31
0.0
 12
2686.579506636856
 22
1934.937424986838
 32
0.0
 13
2686.579506636856
 23
1934.937424986838
 33
0.0
  0
MTEXT
  5
AD01
330
99A3
100
AcDbEntity
  8
寸法引出
 48
25.0
100
AcDbMText
 10
2356.579506636855
 20
1984.937424986838
 30
0.0
 40
50.0
 41
0.0
 71
     5
 72
     1
  1
\A1;660
  7
SANWA
 73
     1
 44
1.0
  0
POINT
  5
AD02
330
99A3
100
AcDbEntity
  8
DEFPOINTS
 62
     0
 48
25.0
100
AcDbPoint
 10
2026.579506636855
 20
2102.097799992906
 30
0.0
  0
POINT
  5
AD03
330
99A3
100
AcDbEntity
  8
DEFPOINTS
 62
     0
 48
25.0
100
AcDbPoint
 10
2686.579506636856
 20
2102.097799992908
 30
0.0
  0
POINT
  5
AD04
330
99A3
100
AcDbEntity
  8
DEFPOINTS
 62
     0
 48
25.0
100
AcDbPoint
 10
2686.579506636856
 20
1934.937424986838
 30
0.0
  0
ENDBLK
  5
99AE
330
99A3
100
AcDbEntity
  8
0
 48
25.0
100
AcDbBlockEnd
  0
BLOCK
  5
99BA
330
99B0
100
AcDbEntity
  8
0
 48
25.0
100
AcDbBlockBegin
  2
*D10
 70
     1
 10
0.0
 20
0.0
 30
0.0
  3
*D10
  1

  0
LINE
  5
AD05
330
99B0
100
AcDbEntity
  8
寸法引出
 48
25.0
370
    -2
100
AcDbLine
 10
2686.579506636856
 20
2077.097799992908
 30
0.0
 11
2686.579506636856
 21
1922.437424986838
 31
0.0
  0
LINE
  5
AD06
330
99B0
100
AcDbEntity
  8
寸法引出
 48
25.0
370
    -2
100
AcDbLine
 10
2836.579506636855
 20
2107.097799992908
 30
0.0
 11
2836.579506636855
 21
1922.437424986838
 31
0.0
  0
LINE
  5
AD07
330
99B0
100
AcDbEntity
  8
寸法引出
 48
25.0
370
    -2
100
AcDbLine
 10
2724.079506636856
 20
1934.937424986838
 30
0.0
 11
2799.079506636855
 21
1934.937424986838
 31
0.0
  0
SOLID
  5
AD08
330
99B0
100
AcDbEntity
  8
寸法引出
 48
25.0
100
AcDbTrace
 10
2724.079506636856
 20
1941.187424986837
 30
0.0
 11
2724.079506636856
 21
1928.687424986837
 31
0.0
 12
2686.579506636856
 22
1934.937424986838
 32
0.0
 13
2686.579506636856
 23
1934.937424986838
 33
0.0
  0
SOLID
  5
AD09
330
99B0
100
AcDbEntity
  8
寸法引出
 48
25.0
100
AcDbTrace
 10
2799.079506636855
 20
1941.187424986837
 30
0.0
 11
2799.079506636855
 21
1928.687424986837
 31
0.0
 12
2836.579506636855
 22
1934.937424986838
 32
0.0
 13
2836.579506636855
 23
1934.937424986838
 33
0.0
  0
MTEXT
  5
AD0A
330
99B0
100
AcDbEntity
  8
寸法引出
 48
25.0
100
AcDbMText
 10
2761.579506636855
 20
1984.937424986838
 30
0.0
 40
50.0
 41
0.0
 71
     5
 72
     1
  1
\A1;150
  7
SANWA
 73
     1
 44
1.0
  0
POINT
  5
AD0B
330
99B0
100
AcDbEntity
  8
DEFPOINTS
 62
     0
 48
25.0
100
AcDbPoint
 10
2686.579506636856
 20
2102.097799992908
 30
0.0
  0
POINT
  5
AD0C
330
99B0
100
AcDbEntity
  8
DEFPOINTS
 62
     0
 48
25.0
100
AcDbPoint
 10
2836.579506636855
 20
2132.097799992908
 30
0.0
  0
POINT
  5
AD0D
330
99B0
100
AcDbEntity
  8
DEFPOINTS
 62
     0
 48
25.0
100
AcDbPoint
 10
2836.579506636855
 20
1934.937424986838
 30
0.0
  0
ENDBLK
  5
99BB
330
99B0
100
AcDbEntity
  8
0
 48
25.0
100
AcDbBlockEnd
  0
BLOCK
  5
99C7
330
99BD
100
AcDbEntity
  8
0
 48
25.0
100
AcDbBlockBegin
  2
*D11
 70
     1
 10
0.0
 20
0.0
 30
0.0
  3
*D11
  1

  0
LINE
  5
AB67
330
99BD
100
AcDbEntity
  8
寸法引出
 48
25.0
370
    -2
100
AcDbLine
 10
2026.579506636855
 20
2077.097799992906
 30
0.0
 11
2026.579506636855
 21
1922.437424986838
 31
0.0
  0
LINE
  5
AB68
330
99BD
100
AcDbEntity
  8
寸法引出
 48
25.0
370
    -2
100
AcDbLine
 10
1876.579506636855
 20
2107.097799992906
 30
0.0
 11
1876.579506636855
 21
1922.437424986838
 31
0.0
  0
LINE
  5
AB69
330
99BD
100
AcDbEntity
  8
寸法引出
 48
25.0
370
    -2
100
AcDbLine
 10
1989.079506636855
 20
1934.937424986838
 30
0.0
 11
1914.079506636855
 21
1934.937424986838
 31
0.0
  0
SOLID
  5
AB6A
330
99BD
100
AcDbEntity
  8
寸法引出
 48
25.0
100
AcDbTrace
 10
1989.079506636855
 20
1941.187424986837
 30
0.0
 11
1989.079506636855
 21
1928.687424986837
 31
0.0
 12
2026.579506636855
 22
1934.937424986838
 32
0.0
 13
2026.579506636855
 23
1934.937424986838
 33
0.0
  0
SOLID
  5
AB6B
330
99BD
100
AcDbEntity
  8
寸法引出
 48
25.0
100
AcDbTrace
 10
1914.079506636855
 20
1941.187424986837
 30
0.0
 11
1914.079506636855
 21
1928.687424986837
 31
0.0
 12
1876.579506636855
 22
1934.937424986838
 32
0.0
 13
1876.579506636855
 23
1934.937424986838
 33
0.0
  0
MTEXT
  5
AB6C
330
99BD
100
AcDbEntity
  8
寸法引出
 48
25.0
100
AcDbMText
 10
1951.579506636855
 20
1984.937424986838
 30
0.0
 40
50.0
 41
0.0
 71
     5
 72
     1
  1
\A1;150
  7
SANWA
 73
     1
 44
1.0
  0
POINT
  5
AB6D
330
99BD
100
AcDbEntity
  8
DEFPOINTS
 62
     0
 48
25.0
100
AcDbPoint
 10
2026.579506636855
 20
2102.097799992906
 30
0.0
  0
POINT
  5
AB6E
330
99BD
100
AcDbEntity
  8
DEFPOINTS
 62
     0
 48
25.0
100
AcDbPoint
 10
1876.579506636855
 20
2132.097799992906
 30
0.0
  0
POINT
  5
AB6F
330
99BD
100
AcDbEntity
  8
DEFPOINTS
 62
     0
 48
25.0
100
AcDbPoint
 10
1876.579506636855
 20
1934.937424986838
 30
0.0
  0
ENDBLK
  5
99C8
330
99BD
100
AcDbEntity
  8
0
 48
25.0
100
AcDbBlockEnd
  0
BLOCK
  5
99F0
330
99E6
100
AcDbEntity
  8
0
 48
25.0
100
AcDbBlockBegin
  2
*D12
 70
     1
 10
0.0
 20
0.0
 30
0.0
  3
*D12
  1

  0
LINE
  5
AB4C
330
99E6
100
AcDbEntity
  8
寸法引出
 48
25.0
370
    -2
100
AcDbLine
 10
1851.579506636855
 20
2252.097799992907
 30
0.0
 11
1682.120820979889
 21
2252.097799992907
 31
0.0
  0
LINE
  5
AB4D
330
99E6
100
AcDbEntity
  8
寸法引出
 48
25.0
370
    -2
100
AcDbLine
 10
1851.579506636855
 20
2902.097799992907
 30
0.0
 11
1682.120820979889
 21
2902.097799992907
 31
0.0
  0
LINE
  5
AB4E
330
99E6
100
AcDbEntity
  8
寸法引出
 48
25.0
370
    -2
100
AcDbLine
 10
1694.620820979889
 20
2289.597799992907
 30
0.0
 11
1694.620820979889
 21
2864.597799992907
 31
0.0
  0
SOLID
  5
AB4F
330
99E6
100
AcDbEntity
  8
寸法引出
 48
25.0
100
AcDbTrace
 10
1688.370820979889
 20
2289.597799992907
 30
0.0
 11
1700.870820979889
 21
2289.597799992907
 31
0.0
 12
1694.620820979889
 22
2252.097799992907
 32
0.0
 13
1694.620820979889
 23
2252.097799992907
 33
0.0
  0
SOLID
  5
AB50
330
99E6
100
AcDbEntity
  8
寸法引出
 48
25.0
100
AcDbTrace
 10
1688.370820979889
 20
2864.597799992907
 30
0.0
 11
1700.870820979889
 21
2864.597799992907
 31
0.0
 12
1694.620820979889
 22
2902.097799992907
 32
0.0
 13
1694.620820979889
 23
2902.097799992907
 33
0.0
  0
MTEXT
  5
AB51
330
99E6
100
AcDbEntity
  8
寸法引出
 48
25.0
100
AcDbMText
 10
1644.620820979889
 20
2577.097799992907
 30
0.0
 40
50.0
 41
0.0
 71
     5
 72
     1
  1
\A1;650
  7
SANWA
 11
0.0000000000000001
 21
1.0
 31
0.0
 73
     1
 44
1.0
  0
POINT
  5
AB52
330
99E6
100
AcDbEntity
  8
DEFPOINTS
 62
     0
 48
25.0
100
AcDbPoint
 10
1876.579506636855
 20
2252.097799992907
 30
0.0
  0
POINT
  5
AB53
330
99E6
100
AcDbEntity
  8
DEFPOINTS
 62
     0
 48
25.0
100
AcDbPoint
 10
1876.579506636855
 20
2902.097799992907
 30
0.0
  0
POINT
  5
AB54
330
99E6
100
AcDbEntity
  8
DEFPOINTS
 62
     0
 48
25.0
100
AcDbPoint
 10
1694.620820979889
 20
2902.097799992907
 30
0.0
  0
ENDBLK
  5
99F1
330
99E6
100
AcDbEntity
  8
0
 48
25.0
100
AcDbBlockEnd
  0
BLOCK
  5
99FD
330
99F3
100
AcDbEntity
  8
0
 48
25.0
100
AcDbBlockBegin
  2
*D13
 70
     1
 10
0.0
 20
0.0
 30
0.0
  3
*D13
  1

  0
LINE
  5
AEC2
330
99F3
100
AcDbEntity
  8
寸法引出
 48
25.0
370
    -2
100
AcDbLine
 10
1851.579506636855
 20
2902.097799992907
 30
0.0
 11
1682.120820979889
 21
2902.097799992907
 31
0.0
  0
LINE
  5
AEC3
330
99F3
100
AcDbEntity
  8
寸法引出
 48
25.0
370
    -2
100
AcDbLine
 10
1851.579506636855
 20
3352.097799992907
 30
0.0
 11
1682.120820979889
 21
3352.097799992907
 31
0.0
  0
LINE
  5
AEC4
330
99F3
100
AcDbEntity
  8
寸法引出
 48
25.0
370
    -2
100
AcDbLine
 10
1694.620820979889
 20
2939.597799992907
 30
0.0
 11
1694.620820979889
 21
3314.597799992907
 31
0.0
  0
SOLID
  5
AEC5
330
99F3
100
AcDbEntity
  8
寸法引出
 48
25.0
100
AcDbTrace
 10
1688.370820979889
 20
2939.597799992907
 30
0.0
 11
1700.870820979889
 21
2939.597799992907
 31
0.0
 12
1694.620820979889
 22
2902.097799992907
 32
0.0
 13
1694.620820979889
 23
2902.097799992907
 33
0.0
  0
SOLID
  5
AEC6
330
99F3
100
AcDbEntity
  8
寸法引出
 48
25.0
100
AcDbTrace
 10
1688.370820979889
 20
3314.597799992907
 30
0.0
 11
1700.870820979889
 21
3314.597799992907
 31
0.0
 12
1694.620820979889
 22
3352.097799992907
 32
0.0
 13
1694.620820979889
 23
3352.097799992907
 33
0.0
  0
MTEXT
  5
AEC7
330
99F3
100
AcDbEntity
  8
寸法引出
 48
25.0
100
AcDbMText
 10
1644.620820979889
 20
3127.097799992907
 30
0.0
 40
50.0
 41
0.0
 71
     5
 72
     1
  1
\A1;450
  7
SANWA
 11
0.0000000000000001
 21
1.0
 31
0.0
 73
     1
 44
1.0
  0
POINT
  5
AEC8
330
99F3
100
AcDbEntity
  8
DEFPOINTS
 62
     0
 48
25.0
100
AcDbPoint
 10
1876.579506636855
 20
2902.097799992907
 30
0.0
  0
POINT
  5
AEC9
330
99F3
100
AcDbEntity
  8
DEFPOINTS
 62
     0
 48
25.0
100
AcDbPoint
 10
1876.579506636855
 20
3352.097799992907
 30
0.0
  0
POINT
  5
AECA
330
99F3
100
AcDbEntity
  8
DEFPOINTS
 62
     0
 48
25.0
100
AcDbPoint
 10
1694.620820979889
 20
3352.097799992907
 30
0.0
  0
ENDBLK
  5
99FE
330
99F3
100
AcDbEntity
  8
0
 48
25.0
100
AcDbBlockEnd
  0
BLOCK
  5
9A0A
330
9A00
100
AcDbEntity
  8
0
 48
25.0
100
AcDbBlockBegin
  2
*D14
 70
     1
 10
0.0
 20
0.0
 30
0.0
  3
*D14
  1

  0
LINE
  5
AEB0
330
9A00
100
AcDbEntity
  8
寸法引出
 48
25.0
370
    -2
100
AcDbLine
 10
1851.579506636855
 20
3352.097799992907
 30
0.0
 11
1513.97688389237
 21
3352.097799992907
 31
0.0
  0
LINE
  5
AEB1
330
9A00
100
AcDbEntity
  8
寸法引出
 48
25.0
370
    -2
100
AcDbLine
 10
1851.579506636855
 20
2252.097799992907
 30
0.0
 11
1513.97688389237
 21
2252.097799992907
 31
0.0
  0
LINE
  5
AEB2
330
9A00
100
AcDbEntity
  8
寸法引出
 48
25.0
370
    -2
100
AcDbLine
 10
1526.47688389237
 20
3314.597799992907
 30
0.0
 11
1526.47688389237
 21
2289.597799992907
 31
0.0
  0
SOLID
  5
AEB3
330
9A00
100
AcDbEntity
  8
寸法引出
 48
25.0
100
AcDbTrace
 10
1520.22688389237
 20
3314.597799992907
 30
0.0
 11
1532.72688389237
 21
3314.597799992907
 31
0.0
 12
1526.47688389237
 22
3352.097799992907
 32
0.0
 13
1526.47688389237
 23
3352.097799992907
 33
0.0
  0
SOLID
  5
AEB4
330
9A00
100
AcDbEntity
  8
寸法引出
 48
25.0
100
AcDbTrace
 10
1520.22688389237
 20
2289.597799992907
 30
0.0
 11
1532.72688389237
 21
2289.597799992907
 31
0.0
 12
1526.47688389237
 22
2252.097799992907
 32
0.0
 13
1526.47688389237
 23
2252.097799992907
 33
0.0
  0
MTEXT
  5
AEB5
330
9A00
100
AcDbEntity
  8
寸法引出
 48
25.0
100
AcDbMText
 10
1476.476883892369
 20
2802.097799992907
 30
0.0
 40
50.0
 41
0.0
 71
     5
 72
     1
  1
\A1;1100
  7
SANWA
 11
0.0000000000000001
 21
1.0
 31
0.0
 73
     1
 44
1.0
  0
POINT
  5
AEB6
330
9A00
100
AcDbEntity
  8
DEFPOINTS
 62
     0
 48
25.0
100
AcDbPoint
 10
1876.579506636855
 20
3352.097799992907
 30
0.0
  0
POINT
  5
AEB7
330
9A00
100
AcDbEntity
  8
DEFPOINTS
 62
     0
 48
25.0
100
AcDbPoint
 10
1876.579506636855
 20
2252.097799992907
 30
0.0
  0
POINT
  5
AEB8
330
9A00
100
AcDbEntity
  8
DEFPOINTS
 62
     0
 48
25.0
100
AcDbPoint
 10
1526.47688389237
 20
2252.097799992907
 30
0.0
  0
ENDBLK
  5
9A0B
330
9A00
100
AcDbEntity
  8
0
 48
25.0
100
AcDbBlockEnd
  0
BLOCK
  5
9A17
330
9A0D
100
AcDbEntity
  8
0
 48
25.0
100
AcDbBlockBegin
  2
*D15
 70
     1
 10
0.0
 20
0.0
 30
0.0
  3
*D15
  1

  0
LINE
  5
AB70
330
9A0D
100
AcDbEntity
  8
寸法引出
 48
25.0
370
    -2
100
AcDbLine
 10
1851.579506636855
 20
2252.097799992907
 30
0.0
 11
1513.97688389237
 21
2252.097799992907
 31
0.0
  0
LINE
  5
AB71
330
9A0D
100
AcDbEntity
  8
寸法引出
 48
25.0
370
    -2
100
AcDbLine
 10
1881.579506636855
 20
2102.097799992906
 30
0.0
 11
1513.97688389237
 21
2102.097799992906
 31
0.0
  0
LINE
  5
AB72
330
9A0D
100
AcDbEntity
  8
寸法引出
 48
25.0
370
    -2
100
AcDbLine
 10
1526.47688389237
 20
2214.597799992907
 30
0.0
 11
1526.47688389237
 21
2139.597799992906
 31
0.0
  0
SOLID
  5
AB73
330
9A0D
100
AcDbEntity
  8
寸法引出
 48
25.0
100
AcDbTrace
 10
1520.22688389237
 20
2214.597799992907
 30
0.0
 11
1532.72688389237
 21
2214.597799992907
 31
0.0
 12
1526.47688389237
 22
2252.097799992907
 32
0.0
 13
1526.47688389237
 23
2252.097799992907
 33
0.0
  0
SOLID
  5
AB74
330
9A0D
100
AcDbEntity
  8
寸法引出
 48
25.0
100
AcDbTrace
 10
1520.22688389237
 20
2139.597799992906
 30
0.0
 11
1532.72688389237
 21
2139.597799992906
 31
0.0
 12
1526.47688389237
 22
2102.097799992906
 32
0.0
 13
1526.47688389237
 23
2102.097799992906
 33
0.0
  0
MTEXT
  5
AB75
330
9A0D
100
AcDbEntity
  8
寸法引出
 48
25.0
100
AcDbMText
 10
1476.476883892369
 20
2177.097799992907
 30
0.0
 40
50.0
 41
0.0
 71
     5
 72
     1
  1
\A1;150
  7
SANWA
 11
0.0000000000000001
 21
1.0
 31
0.0
 73
     1
 44
1.0
  0
POINT
  5
AB76
330
9A0D
100
AcDbEntity
  8
DEFPOINTS
 62
     0
 48
25.0
100
AcDbPoint
 10
1876.579506636855
 20
2252.097799992907
 30
0.0
  0
POINT
  5
AB77
330
9A0D
100
AcDbEntity
  8
DEFPOINTS
 62
     0
 48
25.0
100
AcDbPoint
 10
1906.579506636855
 20
2102.097799992906
 30
0.0
  0
POINT
  5
AB78
330
9A0D
100
AcDbEntity
  8
DEFPOINTS
 62
     0
 48
25.0
100
AcDbPoint
 10
1526.47688389237
 20
2102.097799992906
 30
0.0
  0
ENDBLK
  5
9A18
330
9A0D
100
AcDbEntity
  8
0
 48
25.0
100
AcDbBlockEnd
  0
BLOCK
  5
9A24
330
9A1A
100
AcDbEntity
  8
0
 48
25.0
100
AcDbBlockBegin
  2
*D16
 70
     1
 10
0.0
 20
0.0
 30
0.0
  3
*D16
  1

  0
LINE
  5
AEA7
330
9A1A
100
AcDbEntity
  8
寸法引出
 48
25.0
370
    -2
100
AcDbLine
 10
1851.579506636855
 20
3352.097799992907
 30
0.0
 11
1358.767081093378
 21
3352.097799992907
 31
0.0
  0
LINE
  5
AEA8
330
9A1A
100
AcDbEntity
  8
寸法引出
 48
25.0
370
    -2
100
AcDbLine
 10
1881.579506636855
 20
2102.097799992906
 30
0.0
 11
1358.767081093377
 21
2102.097799992906
 31
0.0
  0
LINE
  5
AEA9
330
9A1A
100
AcDbEntity
  8
寸法引出
 48
25.0
370
    -2
100
AcDbLine
 10
1371.267081093378
 20
3314.597799992907
 30
0.0
 11
1371.267081093377
 21
2139.597799992906
 31
0.0
  0
SOLID
  5
AEAA
330
9A1A
100
AcDbEntity
  8
寸法引出
 48
25.0
100
AcDbTrace
 10
1365.017081093378
 20
3314.597799992907
 30
0.0
 11
1377.517081093378
 21
3314.597799992907
 31
0.0
 12
1371.267081093378
 22
3352.097799992907
 32
0.0
 13
1371.267081093378
 23
3352.097799992907
 33
0.0
  0
SOLID
  5
AEAB
330
9A1A
100
AcDbEntity
  8
寸法引出
 48
25.0
100
AcDbTrace
 10
1365.017081093377
 20
2139.597799992906
 30
0.0
 11
1377.517081093377
 21
2139.597799992906
 31
0.0
 12
1371.267081093377
 22
2102.097799992906
 32
0.0
 13
1371.267081093377
 23
2102.097799992906
 33
0.0
  0
MTEXT
  5
AEAC
330
9A1A
100
AcDbEntity
  8
寸法引出
 48
25.0
100
AcDbMText
 10
1321.267081093377
 20
2727.097799992907
 30
0.0
 40
50.0
 41
0.0
 71
     5
 72
     1
  1
\A1;1250
  7
SANWA
 11
0.0000000000000001
 21
1.0
 31
0.0
 73
     1
 44
1.0
  0
POINT
  5
AEAD
330
9A1A
100
AcDbEntity
  8
DEFPOINTS
 62
     0
 48
25.0
100
AcDbPoint
 10
1876.579506636855
 20
3352.097799992907
 30
0.0
  0
POINT
  5
AEAE
330
9A1A
100
AcDbEntity
  8
DEFPOINTS
 62
     0
 48
25.0
100
AcDbPoint
 10
1906.579506636855
 20
2102.097799992906
 30
0.0
  0
POINT
  5
AEAF
330
9A1A
100
AcDbEntity
  8
DEFPOINTS
 62
     0
 48
25.0
100
AcDbPoint
 10
1371.267081093377
 20
2102.097799992906
 30
0.0
  0
ENDBLK
  5
9A25
330
9A1A
100
AcDbEntity
  8
0
 48
25.0
100
AcDbBlockEnd
  0
BLOCK
  5
9A31
330
9A27
100
AcDbEntity
  8
0
 48
25.0
100
AcDbBlockBegin
  2
*D17
 70
     1
 10
0.0
 20
0.0
 30
0.0
  3
*D17
  1

  0
LINE
  5
AEDF
330
9A27
100
AcDbEntity
  8
寸法引出
 48
25.0
370
    -2
100
AcDbLine
 10
1956.579506636855
 20
3377.097799992907
 30
0.0
 11
1956.579506636855
 21
3512.024509820146
 31
0.0
  0
LINE
  5
AEE0
330
9A27
100
AcDbEntity
  8
寸法引出
 48
25.0
370
    -2
100
AcDbLine
 10
2756.579506636855
 20
3377.097799992907
 30
0.0
 11
2756.579506636855
 21
3512.024509820146
 31
0.0
  0
LINE
  5
AEE1
330
9A27
100
AcDbEntity
  8
寸法引出
 48
25.0
370
    -2
100
AcDbLine
 10
1994.079506636855
 20
3499.524509820146
 30
0.0
 11
2719.079506636855
 21
3499.524509820146
 31
0.0
  0
SOLID
  5
AEE2
330
9A27
100
AcDbEntity
  8
寸法引出
 48
25.0
100
AcDbTrace
 10
1994.079506636855
 20
3505.774509820146
 30
0.0
 11
1994.079506636855
 21
3493.274509820146
 31
0.0
 12
1956.579506636855
 22
3499.524509820146
 32
0.0
 13
1956.579506636855
 23
3499.524509820146
 33
0.0
  0
SOLID
  5
AEE3
330
9A27
100
AcDbEntity
  8
寸法引出
 48
25.0
100
AcDbTrace
 10
2719.079506636855
 20
3505.774509820146
 30
0.0
 11
2719.079506636855
 21
3493.274509820146
 31
0.0
 12
2756.579506636855
 22
3499.524509820146
 32
0.0
 13
2756.579506636855
 23
3499.524509820146
 33
0.0
  0
MTEXT
  5
AEE4
330
9A27
100
AcDbEntity
  8
寸法引出
 48
25.0
100
AcDbMText
 10
2356.579506636855
 20
3549.524509820146
 30
0.0
 40
50.0
 41
0.0
 71
     5
 72
     1
  1
\A1;800
  7
SANWA
 73
     1
 44
1.0
  0
POINT
  5
AEE5
330
9A27
100
AcDbEntity
  8
DEFPOINTS
 62
     0
 48
25.0
100
AcDbPoint
 10
1956.579506636855
 20
3352.097799992907
 30
0.0
  0
POINT
  5
AEE6
330
9A27
100
AcDbEntity
  8
DEFPOINTS
 62
     0
 48
25.0
100
AcDbPoint
 10
2756.579506636855
 20
3352.097799992907
 30
0.0
  0
POINT
  5
AEE7
330
9A27
100
AcDbEntity
  8
DEFPOINTS
 62
     0
 48
25.0
100
AcDbPoint
 10
2756.579506636855
 20
3499.524509820146
 30
0.0
  0
ENDBLK
  5
9A32
330
9A27
100
AcDbEntity
  8
0
 48
25.0
100
AcDbBlockEnd
  0
BLOCK
  5
9A40
330
9A34
100
AcDbEntity
  8
0
 48
25.0
100
AcDbBlockBegin
  2
*D18
 70
     1
 10
0.0
 20
0.0
 30
0.0
  3
*D18
  1

  0
LINE
  5
AEE8
330
9A34
100
AcDbEntity
  8
寸法引出
 48
25.0
370
    -2
100
AcDbLine
 10
2756.579506636855
 20
3377.097799992907
 30
0.0
 11
2756.579506636855
 21
3512.024509820146
 31
0.0
  0
LINE
  5
AEE9
330
9A34
100
AcDbEntity
  8
寸法引出
 48
25.0
370
    -2
100
AcDbLine
 10
2836.579506636855
 20
3377.097799992907
 30
0.0
 11
2836.579506636855
 21
3512.024509820146
 31
0.0
  0
LINE
  5
AEEA
330
9A34
100
AcDbEntity
  8
寸法引出
 48
25.0
370
    -2
100
AcDbLine
 10
2719.079506636855
 20
3499.524509820146
 30
0.0
 11
2681.579506636855
 21
3499.524509820146
 31
0.0
  0
LINE
  5
AEEB
330
9A34
100
AcDbEntity
  8
寸法引出
 48
25.0
370
    -2
100
AcDbLine
 10
2874.079506636855
 20
3499.524509820146
 30
0.0
 11
2911.579506636855
 21
3499.524509820146
 31
0.0
  0
MTEXT
  5
AEEC
330
9A34
100
AcDbEntity
  8
寸法引出
 48
25.0
100
AcDbMText
 10
2785.748943230537
 20
3549.928262656791
 30
0.0
 40
50.0
 41
0.0
 71
     5
 72
     1
  1
\A1;80
  7
SANWA
 73
     1
 44
1.0
  0
LINE
  5
AEED
330
9A34
100
AcDbEntity
  8
寸法引出
 48
25.0
370
    -2
100
AcDbLine
 10
2756.579506636855
 20
3499.524509820146
 30
0.0
 11
2836.579506636855
 21
3499.524509820146
 31
0.0
  0
SOLID
  5
AEEE
330
9A34
100
AcDbEntity
  8
寸法引出
 48
25.0
100
AcDbTrace
 10
2719.079506636855
 20
3505.774509820146
 30
0.0
 11
2719.079506636855
 21
3493.274509820146
 31
0.0
 12
2756.579506636855
 22
3499.524509820146
 32
0.0
 13
2756.579506636855
 23
3499.524509820146
 33
0.0
  0
SOLID
  5
AEEF
330
9A34
100
AcDbEntity
  8
寸法引出
 48
25.0
100
AcDbTrace
 10
2874.079506636855
 20
3505.774509820146
 30
0.0
 11
2874.079506636855
 21
3493.274509820146
 31
0.0
 12
2836.579506636855
 22
3499.524509820146
 32
0.0
 13
2836.579506636855
 23
3499.524509820146
 33
0.0
  0
POINT
  5
AEF0
330
9A34
100
AcDbEntity
  8
DEFPOINTS
 62
     0
 48
25.0
100
AcDbPoint
 10
2756.579506636855
 20
3352.097799992907
 30
0.0
  0
POINT
  5
AEF1
330
9A34
100
AcDbEntity
  8
DEFPOINTS
 62
     0
 48
25.0
100
AcDbPoint
 10
2836.579506636855
 20
3352.097799992907
 30
0.0
  0
POINT
  5
AEF2
330
9A34
100
AcDbEntity
  8
DEFPOINTS
 62
     0
 48
25.0
100
AcDbPoint
 10
2836.579506636855
 20
3499.524509820146
 30
0.0
  0
ENDBLK
  5
9A41
330
9A34
100
AcDbEntity
  8
0
 48
25.0
100
AcDbBlockEnd
  0
BLOCK
  5
9A4F
330
9A43
100
AcDbEntity
  8
0
 48
25.0
100
AcDbBlockBegin
  2
*D19
 70
     1
 10
0.0
 20
0.0
 30
0.0
  3
*D19
  1

  0
LINE
  5
AECB
330
9A43
100
AcDbEntity
  8
寸法引出
 48
25.0
370
    -2
100
AcDbLine
 10
1956.579506636855
 20
3377.097799992907
 30
0.0
 11
1956.579506636855
 21
3512.024509820146
 31
0.0
  0
LINE
  5
AECC
330
9A43
100
AcDbEntity
  8
寸法引出
 48
25.0
370
    -2
100
AcDbLine
 10
1876.579506636855
 20
3377.097799992907
 30
0.0
 11
1876.579506636855
 21
3512.024509820146
 31
0.0
  0
LINE
  5
AECD
330
9A43
100
AcDbEntity
  8
寸法引出
 48
25.0
370
    -2
100
AcDbLine
 10
1994.079506636855
 20
3499.524509820146
 30
0.0
 11
2031.579506636855
 21
3499.524509820146
 31
0.0
  0
LINE
  5
AECE
330
9A43
100
AcDbEntity
  8
寸法引出
 48
25.0
370
    -2
100
AcDbLine
 10
1839.079506636855
 20
3499.524509820146
 30
0.0
 11
1801.579506636855
 21
3499.524509820146
 31
0.0
  0
MTEXT
  5
AECF
330
9A43
100
AcDbEntity
  8
寸法引出
 48
25.0
100
AcDbMText
 10
1930.193261669272
 20
3549.928262656791
 30
0.0
 40
50.0
 41
0.0
 71
     5
 72
     1
  1
\A1;80
  7
SANWA
 73
     1
 44
1.0
  0
LINE
  5
AED0
330
9A43
100
AcDbEntity
  8
寸法引出
 48
25.0
370
    -2
100
AcDbLine
 10
1956.579506636855
 20
3499.524509820146
 30
0.0
 11
1876.579506636855
 21
3499.524509820146
 31
0.0
  0
SOLID
  5
AED1
330
9A43
100
AcDbEntity
  8
寸法引出
 48
25.0
100
AcDbTrace
 10
1994.079506636855
 20
3505.774509820146
 30
0.0
 11
1994.079506636855
 21
3493.274509820146
 31
0.0
 12
1956.579506636855
 22
3499.524509820146
 32
0.0
 13
1956.579506636855
 23
3499.524509820146
 33
0.0
  0
SOLID
  5
AED2
330
9A43
100
AcDbEntity
  8
寸法引出
 48
25.0
100
AcDbTrace
 10
1839.079506636855
 20
3505.774509820146
 30
0.0
 11
1839.079506636855
 21
3493.274509820146
 31
0.0
 12
1876.579506636855
 22
3499.524509820146
 32
0.0
 13
1876.579506636855
 23
3499.524509820146
 33
0.0
  0
POINT
  5
AED3
330
9A43
100
AcDbEntity
  8
DEFPOINTS
 62
     0
 48
25.0
100
AcDbPoint
 10
1956.579506636855
 20
3352.097799992907
 30
0.0
  0
POINT
  5
AED4
330
9A43
100
AcDbEntity
  8
DEFPOINTS
 62
     0
 48
25.0
100
AcDbPoint
 10
1876.579506636855
 20
3352.097799992907
 30
0.0
  0
POINT
  5
AED5
330
9A43
100
AcDbEntity
  8
DEFPOINTS
 62
     0
 48
25.0
100
AcDbPoint
 10
1876.579506636855
 20
3499.524509820146
 30
0.0
  0
ENDBLK
  5
9A50
330
9A43
100
AcDbEntity
  8
0
 48
25.0
100
AcDbBlockEnd
  0
BLOCK
  5
9A5C
330
9A52
100
AcDbEntity
  8
0
 48
25.0
100
AcDbBlockBegin
  2
*D20
 70
     1
 10
0.0
 20
0.0
 30
0.0
  3
*D20
  1

  0
LINE
  5
AED6
330
9A52
100
AcDbEntity
  8
寸法引出
 48
25.0
370
    -2
100
AcDbLine
 10
1876.579506636855
 20
3377.097799992907
 30
0.0
 11
1876.579506636855
 21
3660.661041110026
 31
0.0
  0
LINE
  5
AED7
330
9A52
100
AcDbEntity
  8
寸法引出
 48
25.0
370
    -2
100
AcDbLine
 10
2836.579506636855
 20
3377.097799992907
 30
0.0
 11
2836.579506636855
 21
3660.661041110026
 31
0.0
  0
LINE
  5
AED8
330
9A52
100
AcDbEntity
  8
寸法引出
 48
25.0
370
    -2
100
AcDbLine
 10
1914.079506636855
 20
3648.161041110026
 30
0.0
 11
2799.079506636855
 21
3648.161041110026
 31
0.0
  0
SOLID
  5
AED9
330
9A52
100
AcDbEntity
  8
寸法引出
 48
25.0
100
AcDbTrace
 10
1914.079506636855
 20
3654.411041110026
 30
0.0
 11
1914.079506636855
 21
3641.911041110026
 31
0.0
 12
1876.579506636855
 22
3648.161041110026
 32
0.0
 13
1876.579506636855
 23
3648.161041110026
 33
0.0
  0
SOLID
  5
AEDA
330
9A52
100
AcDbEntity
  8
寸法引出
 48
25.0
100
AcDbTrace
 10
2799.079506636855
 20
3654.411041110026
 30
0.0
 11
2799.079506636855
 21
3641.911041110026
 31
0.0
 12
2836.579506636855
 22
3648.161041110026
 32
0.0
 13
2836.579506636855
 23
3648.161041110026
 33
0.0
  0
MTEXT
  5
AEDB
330
9A52
100
AcDbEntity
  8
寸法引出
 48
25.0
100
AcDbMText
 10
2356.579506636855
 20
3698.161041110026
 30
0.0
 40
50.0
 41
0.0
 71
     5
 72
     1
  1
\A1;960
  7
SANWA
 73
     1
 44
1.0
  0
POINT
  5
AEDC
330
9A52
100
AcDbEntity
  8
DEFPOINTS
 62
     0
 48
25.0
100
AcDbPoint
 10
1876.579506636855
 20
3352.097799992907
 30
0.0
  0
POINT
  5
AEDD
330
9A52
100
AcDbEntity
  8
DEFPOINTS
 62
     0
 48
25.0
100
AcDbPoint
 10
2836.579506636855
 20
3352.097799992907
 30
0.0
  0
POINT
  5
AEDE
330
9A52
100
AcDbEntity
  8
DEFPOINTS
 62
     0
 48
25.0
100
AcDbPoint
 10
2836.579506636855
 20
3648.161041110026
 30
0.0
  0
ENDBLK
  5
9A5D
330
9A52
100
AcDbEntity
  8
0
 48
25.0
100
AcDbBlockEnd
  0
BLOCK
  5
9A94
330
9A8A
100
AcDbEntity
  8
0
 48
25.0
100
AcDbBlockBegin
  2
*D21
 70
     1
 10
0.0
 20
0.0
 30
0.0
  3
*D21
  1

  0
LINE
  5
ACEA
330
9A8A
100
AcDbEntity
  8
寸法引出
 48
25.0
370
    -2
100
AcDbLine
 10
2831.579506636855
 20
2102.097799992908
 30
0.0
 11
3042.332061425542
 21
2102.097799992908
 31
0.0
  0
LINE
  5
ACEB
330
9A8A
100
AcDbEntity
  8
寸法引出
 48
25.0
370
    -2
100
AcDbLine
 10
2911.579506636855
 20
2752.097799992907
 30
0.0
 11
3042.332061425542
 21
2752.097799992907
 31
0.0
  0
LINE
  5
ACEC
330
9A8A
100
AcDbEntity
  8
寸法引出
 48
25.0
370
    -2
100
AcDbLine
 10
3029.832061425542
 20
2139.597799992908
 30
0.0
 11
3029.832061425542
 21
2714.597799992907
 31
0.0
  0
SOLID
  5
ACED
330
9A8A
100
AcDbEntity
  8
寸法引出
 48
25.0
100
AcDbTrace
 10
3023.582061425543
 20
2139.597799992908
 30
0.0
 11
3036.082061425542
 21
2139.597799992908
 31
0.0
 12
3029.832061425542
 22
2102.097799992908
 32
0.0
 13
3029.832061425542
 23
2102.097799992908
 33
0.0
  0
SOLID
  5
ACEE
330
9A8A
100
AcDbEntity
  8
寸法引出
 48
25.0
100
AcDbTrace
 10
3023.582061425543
 20
2714.597799992907
 30
0.0
 11
3036.082061425542
 21
2714.597799992907
 31
0.0
 12
3029.832061425542
 22
2752.097799992907
 32
0.0
 13
3029.832061425542
 23
2752.097799992907
 33
0.0
  0
MTEXT
  5
ACEF
330
9A8A
100
AcDbEntity
  8
寸法引出
 48
25.0
100
AcDbMText
 10
2979.832061425542
 20
2427.097799992908
 30
0.0
 40
50.0
 41
0.0
 71
     5
 72
     1
  1
\A1;650
  7
SANWA
 11
0.0000000000000001
 21
1.0
 31
0.0
 73
     1
 44
1.0
  0
POINT
  5
ACF0
330
9A8A
100
AcDbEntity
  8
DEFPOINTS
 62
     0
 48
25.0
100
AcDbPoint
 10
2806.579506636855
 20
2102.097799992908
 30
0.0
  0
POINT
  5
ACF1
330
9A8A
100
AcDbEntity
  8
DEFPOINTS
 62
     0
 48
25.0
100
AcDbPoint
 10
2886.579506636855
 20
2752.097799992907
 30
0.0
  0
POINT
  5
ACF2
330
9A8A
100
AcDbEntity
  8
DEFPOINTS
 62
     0
 48
25.0
100
AcDbPoint
 10
3029.832061425542
 20
2752.097799992907
 30
0.0
  0
ENDBLK
  5
9A95
330
9A8A
100
AcDbEntity
  8
0
 48
25.0
100
AcDbBlockEnd
  0
BLOCK
  5
9AA1
330
9A97
100
AcDbEntity
  8
0
 48
25.0
100
AcDbBlockBegin
  2
*D22
 70
     1
 10
0.0
 20
0.0
 30
0.0
  3
*D22
  1

  0
LINE
  5
AEB9
330
9A97
100
AcDbEntity
  8
寸法引出
 48
25.0
370
    -2
100
AcDbLine
 10
2911.579506636855
 20
2752.097799992907
 30
0.0
 11
3042.332061425542
 21
2752.097799992907
 31
0.0
  0
LINE
  5
AEBA
330
9A97
100
AcDbEntity
  8
寸法引出
 48
25.0
370
    -2
100
AcDbLine
 10
2861.579506636855
 20
3352.097799992907
 30
0.0
 11
3042.332061425543
 21
3352.097799992907
 31
0.0
  0
LINE
  5
AEBB
330
9A97
100
AcDbEntity
  8
寸法引出
 48
25.0
370
    -2
100
AcDbLine
 10
3029.832061425542
 20
2789.597799992907
 30
0.0
 11
3029.832061425543
 21
3314.597799992907
 31
0.0
  0
SOLID
  5
AEBC
330
9A97
100
AcDbEntity
  8
寸法引出
 48
25.0
100
AcDbTrace
 10
3023.582061425543
 20
2789.597799992907
 30
0.0
 11
3036.082061425542
 21
2789.597799992907
 31
0.0
 12
3029.832061425542
 22
2752.097799992907
 32
0.0
 13
3029.832061425542
 23
2752.097799992907
 33
0.0
  0
SOLID
  5
AEBD
330
9A97
100
AcDbEntity
  8
寸法引出
 48
25.0
100
AcDbTrace
 10
3023.582061425543
 20
3314.597799992907
 30
0.0
 11
3036.082061425543
 21
3314.597799992907
 31
0.0
 12
3029.832061425543
 22
3352.097799992907
 32
0.0
 13
3029.832061425543
 23
3352.097799992907
 33
0.0
  0
MTEXT
  5
AEBE
330
9A97
100
AcDbEntity
  8
寸法引出
 48
25.0
100
AcDbMText
 10
2979.832061425542
 20
3052.097799992907
 30
0.0
 40
50.0
 41
0.0
 71
     5
 72
     1
  1
\A1;600
  7
SANWA
 11
0.0000000000000001
 21
1.0
 31
0.0
 73
     1
 44
1.0
  0
POINT
  5
AEBF
330
9A97
100
AcDbEntity
  8
DEFPOINTS
 62
     0
 48
25.0
100
AcDbPoint
 10
2886.579506636855
 20
2752.097799992907
 30
0.0
  0
POINT
  5
AEC0
330
9A97
100
AcDbEntity
  8
DEFPOINTS
 62
     0
 48
25.0
100
AcDbPoint
 10
2836.579506636855
 20
3352.097799992907
 30
0.0
  0
POINT
  5
AEC1
330
9A97
100
AcDbEntity
  8
DEFPOINTS
 62
     0
 48
25.0
100
AcDbPoint
 10
3029.832061425543
 20
3352.097799992907
 30
0.0
  0
ENDBLK
  5
9AA2
330
9A97
100
AcDbEntity
  8
0
 48
25.0
100
AcDbBlockEnd
  0
BLOCK
  5
9AB3
330
9AA9
100
AcDbEntity
  8
0
 48
25.0
100
AcDbBlockBegin
  2
*D23
 70
     1
 10
0.0
 20
0.0
 30
0.0
  3
*D23
  1

  0
LINE
  5
ACF3
330
9AA9
100
AcDbEntity
  8
寸法引出
 48
25.0
370
    -2
100
AcDbLine
 10
1876.579506636855
 20
2107.097799992906
 30
0.0
 11
1876.579506636855
 21
1770.024818025391
 31
0.0
  0
LINE
  5
ACF4
330
9AA9
100
AcDbEntity
  8
寸法引出
 48
25.0
370
    -2
100
AcDbLine
 10
2836.579506636855
 20
2107.097799992908
 30
0.0
 11
2836.579506636855
 21
1770.024818025391
 31
0.0
  0
LINE
  5
ACF5
330
9AA9
100
AcDbEntity
  8
寸法引出
 48
25.0
370
    -2
100
AcDbLine
 10
1914.079506636855
 20
1782.524818025391
 30
0.0
 11
2799.079506636855
 21
1782.524818025391
 31
0.0
  0
SOLID
  5
ACF6
330
9AA9
100
AcDbEntity
  8
寸法引出
 48
25.0
100
AcDbTrace
 10
1914.079506636855
 20
1788.774818025391
 30
0.0
 11
1914.079506636855
 21
1776.274818025391
 31
0.0
 12
1876.579506636855
 22
1782.524818025391
 32
0.0
 13
1876.579506636855
 23
1782.524818025391
 33
0.0
  0
SOLID
  5
ACF7
330
9AA9
100
AcDbEntity
  8
寸法引出
 48
25.0
100
AcDbTrace
 10
2799.079506636855
 20
1788.774818025391
 30
0.0
 11
2799.079506636855
 21
1776.274818025391
 31
0.0
 12
2836.579506636855
 22
1782.524818025391
 32
0.0
 13
2836.579506636855
 23
1782.524818025391
 33
0.0
  0
MTEXT
  5
ACF8
330
9AA9
100
AcDbEntity
  8
寸法引出
 48
25.0
100
AcDbMText
 10
2356.579506636855
 20
1832.524818025391
 30
0.0
 40
50.0
 41
0.0
 71
     5
 72
     1
  1
\A1;960
  7
SANWA
 73
     1
 44
1.0
  0
POINT
  5
ACF9
330
9AA9
100
AcDbEntity
  8
DEFPOINTS
 62
     0
 48
25.0
100
AcDbPoint
 10
1876.579506636855
 20
2132.097799992906
 30
0.0
  0
POINT
  5
ACFA
330
9AA9
100
AcDbEntity
  8
DEFPOINTS
 62
     0
 48
25.0
100
AcDbPoint
 10
2836.579506636855
 20
2132.097799992908
 30
0.0
  0
POINT
  5
ACFB
330
9AA9
100
AcDbEntity
  8
DEFPOINTS
 62
     0
 48
25.0
100
AcDbPoint
 10
2836.579506636855
 20
1782.524818025391
 30
0.0
  0
ENDBLK
  5
9AB4
330
9AA9
100
AcDbEntity
  8
0
 48
25.0
100
AcDbBlockEnd
  0
BLOCK
  5
9B06
330
9AFC
100
AcDbEntity
  8
0
 48
25.0
100
AcDbBlockBegin
  2
*D24
 70
     1
 10
0.0
 20
0.0
 30
0.0
  3
*D24
  1

  0
LINE
  5
AF05
330
9AFC
100
AcDbEntity
  8
寸法引出
 48
25.0
370
    -2
100
AcDbLine
 10
4061.621781500781
 20
3377.097799992907
 30
0.0
 11
4061.621781500781
 21
3660.661041110026
 31
0.0
  0
LINE
  5
AF06
330
9AFC
100
AcDbEntity
  8
寸法引出
 48
25.0
370
    -2
100
AcDbLine
 10
6061.621781500781
 20
3377.097799992907
 30
0.0
 11
6061.621781500781
 21
3660.661041110026
 31
0.0
  0
LINE
  5
AF07
330
9AFC
100
AcDbEntity
  8
寸法引出
 48
25.0
370
    -2
100
AcDbLine
 10
4099.12178150078
 20
3648.161041110026
 30
0.0
 11
6024.121781500781
 21
3648.161041110026
 31
0.0
  0
SOLID
  5
AF08
330
9AFC
100
AcDbEntity
  8
寸法引出
 48
25.0
100
AcDbTrace
 10
4099.12178150078
 20
3654.411041110026
 30
0.0
 11
4099.12178150078
 21
3641.911041110026
 31
0.0
 12
4061.621781500781
 22
3648.161041110026
 32
0.0
 13
4061.621781500781
 23
3648.161041110026
 33
0.0
  0
SOLID
  5
AF09
330
9AFC
100
AcDbEntity
  8
寸法引出
 48
25.0
100
AcDbTrace
 10
6024.121781500781
 20
3654.411041110026
 30
0.0
 11
6024.121781500781
 21
3641.911041110026
 31
0.0
 12
6061.621781500781
 22
3648.161041110026
 32
0.0
 13
6061.621781500781
 23
3648.161041110026
 33
0.0
  0
MTEXT
  5
AF0A
330
9AFC
100
AcDbEntity
  8
寸法引出
 48
25.0
100
AcDbMText
 10
5061.621781500781
 20
3698.161041110026
 30
0.0
 40
50.0
 41
0.0
 71
     5
 72
     1
  1
\A1;2000
  7
SANWA
 73
     1
 44
1.0
  0
POINT
  5
AF0B
330
9AFC
100
AcDbEntity
  8
DEFPOINTS
 62
     0
 48
25.0
100
AcDbPoint
 10
4061.621781500781
 20
3352.097799992907
 30
0.0
  0
POINT
  5
AF0C
330
9AFC
100
AcDbEntity
  8
DEFPOINTS
 62
     0
 48
25.0
100
AcDbPoint
 10
6061.621781500781
 20
3352.097799992907
 30
0.0
  0
POINT
  5
AF0D
330
9AFC
100
AcDbEntity
  8
DEFPOINTS
 62
     0
 48
25.0
100
AcDbPoint
 10
6061.621781500781
 20
3648.161041110026
 30
0.0
  0
ENDBLK
  5
9B07
330
9AFC
100
AcDbEntity
  8
0
 48
25.0
100
AcDbBlockEnd
  0
BLOCK
  5
9B18
330
9B0E
100
AcDbEntity
  8
0
 48
25.0
100
AcDbBlockBegin
  2
*D25
 70
     1
 10
0.0
 20
0.0
 30
0.0
  3
*D25
  1

  0
LINE
  5
AEF3
330
9B0E
100
AcDbEntity
  8
寸法引出
 48
25.0
370
    -2
100
AcDbLine
 10
4036.62178150078
 20
3352.097799992907
 30
0.0
 11
3678.120643598839
 21
3352.097799992907
 31
0.0
  0
LINE
  5
AEF4
330
9B0E
100
AcDbEntity
  8
寸法引出
 48
25.0
370
    -2
100
AcDbLine
 10
4036.62178150078
 20
2252.097799992907
 30
0.0
 11
3678.120643598838
 21
2252.097799992907
 31
0.0
  0
LINE
  5
AEF5
330
9B0E
100
AcDbEntity
  8
寸法引出
 48
25.0
370
    -2
100
AcDbLine
 10
3690.620643598839
 20
3314.597799992907
 30
0.0
 11
3690.620643598839
 21
2289.597799992907
 31
0.0
  0
SOLID
  5
AEF6
330
9B0E
100
AcDbEntity
  8
寸法引出
 48
25.0
100
AcDbTrace
 10
3684.370643598839
 20
3314.597799992907
 30
0.0
 11
3696.870643598839
 21
3314.597799992907
 31
0.0
 12
3690.620643598839
 22
3352.097799992907
 32
0.0
 13
3690.620643598839
 23
3352.097799992907
 33
0.0
  0
SOLID
  5
AEF7
330
9B0E
100
AcDbEntity
  8
寸法引出
 48
25.0
100
AcDbTrace
 10
3684.370643598839
 20
2289.597799992907
 30
0.0
 11
3696.870643598838
 21
2289.597799992907
 31
0.0
 12
3690.620643598839
 22
2252.097799992907
 32
0.0
 13
3690.620643598839
 23
2252.097799992907
 33
0.0
  0
MTEXT
  5
AEF8
330
9B0E
100
AcDbEntity
  8
寸法引出
 48
25.0
100
AcDbMText
 10
3640.620643598838
 20
2802.097799992908
 30
0.0
 40
50.0
 41
0.0
 71
     5
 72
     1
  1
\A1;1100
  7
SANWA
 11
0.0000000000000001
 21
1.0
 31
0.0
 73
     1
 44
1.0
  0
POINT
  5
AEF9
330
9B0E
100
AcDbEntity
  8
DEFPOINTS
 62
     0
 48
25.0
100
AcDbPoint
 10
4061.621781500781
 20
3352.097799992907
 30
0.0
  0
POINT
  5
AEFA
330
9B0E
100
AcDbEntity
  8
DEFPOINTS
 62
     0
 48
25.0
100
AcDbPoint
 10
4061.621781500781
 20
2252.097799992907
 30
0.0
  0
POINT
  5
AEFB
330
9B0E
100
AcDbEntity
  8
DEFPOINTS
 62
     0
 48
25.0
100
AcDbPoint
 10
3690.620643598839
 20
2252.097799992907
 30
0.0
  0
ENDBLK
  5
9B19
330
9B0E
100
AcDbEntity
  8
0
 48
25.0
100
AcDbBlockEnd
  0
BLOCK
  5
9B25
330
9B1B
100
AcDbEntity
  8
0
 48
25.0
100
AcDbBlockBegin
  2
*D26
 70
     1
 10
0.0
 20
0.0
 30
0.0
  3
*D26
  1

  0
LINE
  5
AD20
330
9B1B
100
AcDbEntity
  8
寸法引出
 48
25.0
370
    -2
100
AcDbLine
 10
4036.62178150078
 20
2252.097799992907
 30
0.0
 11
3678.120643598838
 21
2252.097799992907
 31
0.0
  0
LINE
  5
AD21
330
9B1B
100
AcDbEntity
  8
寸法引出
 48
25.0
370
    -2
100
AcDbLine
 10
4036.62178150078
 20
2102.097799992907
 30
0.0
 11
3678.120643598838
 21
2102.097799992907
 31
0.0
  0
LINE
  5
AD22
330
9B1B
100
AcDbEntity
  8
寸法引出
 48
25.0
370
    -2
100
AcDbLine
 10
3690.620643598839
 20
2214.597799992906
 30
0.0
 11
3690.620643598839
 21
2139.597799992907
 31
0.0
  0
SOLID
  5
AD23
330
9B1B
100
AcDbEntity
  8
寸法引出
 48
25.0
100
AcDbTrace
 10
3684.370643598839
 20
2214.597799992906
 30
0.0
 11
3696.870643598838
 21
2214.597799992906
 31
0.0
 12
3690.620643598839
 22
2252.097799992907
 32
0.0
 13
3690.620643598839
 23
2252.097799992907
 33
0.0
  0
SOLID
  5
AD24
330
9B1B
100
AcDbEntity
  8
寸法引出
 48
25.0
100
AcDbTrace
 10
3684.370643598839
 20
2139.597799992907
 30
0.0
 11
3696.870643598838
 21
2139.597799992907
 31
0.0
 12
3690.620643598839
 22
2102.097799992907
 32
0.0
 13
3690.620643598839
 23
2102.097799992907
 33
0.0
  0
MTEXT
  5
AD25
330
9B1B
100
AcDbEntity
  8
寸法引出
 48
25.0
100
AcDbMText
 10
3640.620643598838
 20
2177.097799992908
 30
0.0
 40
50.0
 41
0.0
 71
     5
 72
     1
  1
\A1;150
  7
SANWA
 11
0.0000000000000001
 21
1.0
 31
0.0
 73
     1
 44
1.0
  0
POINT
  5
AD26
330
9B1B
100
AcDbEntity
  8
DEFPOINTS
 62
     0
 48
25.0
100
AcDbPoint
 10
4061.621781500781
 20
2252.097799992907
 30
0.0
  0
POINT
  5
AD27
330
9B1B
100
AcDbEntity
  8
DEFPOINTS
 62
     0
 48
25.0
100
AcDbPoint
 10
4061.621781500781
 20
2102.097799992907
 30
0.0
  0
POINT
  5
AD28
330
9B1B
100
AcDbEntity
  8
DEFPOINTS
 62
     0
 48
25.0
100
AcDbPoint
 10
3690.620643598839
 20
2102.097799992907
 30
0.0
  0
ENDBLK
  5
9B26
330
9B1B
100
AcDbEntity
  8
0
 48
25.0
100
AcDbBlockEnd
  0
BLOCK
  5
9B32
330
9B28
100
AcDbEntity
  8
0
 48
25.0
100
AcDbBlockBegin
  2
*D27
 70
     1
 10
0.0
 20
0.0
 30
0.0
  3
*D27
  1

  0
LINE
  5
AF3F
330
9B28
100
AcDbEntity
  8
寸法引出
 48
25.0
370
    -2
100
AcDbLine
 10
6086.621781500781
 20
3352.097799992907
 30
0.0
 11
6256.625805532858
 21
3352.097799992907
 31
0.0
  0
LINE
  5
AF40
330
9B28
100
AcDbEntity
  8
寸法引出
 48
25.0
370
    -2
100
AcDbLine
 10
6086.621781500781
 20
2752.097799992907
 30
0.0
 11
6256.625805532858
 21
2752.097799992907
 31
0.0
  0
LINE
  5
AF41
330
9B28
100
AcDbEntity
  8
寸法引出
 48
25.0
370
    -2
100
AcDbLine
 10
6244.125805532858
 20
3314.597799992907
 30
0.0
 11
6244.125805532858
 21
2789.597799992907
 31
0.0
  0
SOLID
  5
AF42
330
9B28
100
AcDbEntity
  8
寸法引出
 48
25.0
100
AcDbTrace
 10
6237.875805532858
 20
3314.597799992907
 30
0.0
 11
6250.375805532858
 21
3314.597799992907
 31
0.0
 12
6244.125805532858
 22
3352.097799992907
 32
0.0
 13
6244.125805532858
 23
3352.097799992907
 33
0.0
  0
SOLID
  5
AF43
330
9B28
100
AcDbEntity
  8
寸法引出
 48
25.0
100
AcDbTrace
 10
6237.875805532858
 20
2789.597799992907
 30
0.0
 11
6250.375805532858
 21
2789.597799992907
 31
0.0
 12
6244.125805532858
 22
2752.097799992907
 32
0.0
 13
6244.125805532858
 23
2752.097799992907
 33
0.0
  0
MTEXT
  5
AF44
330
9B28
100
AcDbEntity
  8
寸法引出
 48
25.0
100
AcDbMText
 10
6194.125805532857
 20
3052.097799992908
 30
0.0
 40
50.0
 41
0.0
 71
     5
 72
     1
  1
\A1;600
  7
SANWA
 11
0.0000000000000001
 21
1.0
 31
0.0
 73
     1
 44
1.0
  0
POINT
  5
AF45
330
9B28
100
AcDbEntity
  8
DEFPOINTS
 62
     0
 48
25.0
100
AcDbPoint
 10
6061.621781500781
 20
3352.097799992907
 30
0.0
  0
POINT
  5
AF46
330
9B28
100
AcDbEntity
  8
DEFPOINTS
 62
     0
 48
25.0
100
AcDbPoint
 10
6061.621781500781
 20
2752.097799992907
 30
0.0
  0
POINT
  5
AF47
330
9B28
100
AcDbEntity
  8
DEFPOINTS
 62
     0
 48
25.0
100
AcDbPoint
 10
6244.125805532858
 20
2752.097799992907
 30
0.0
  0
ENDBLK
  5
9B33
330
9B28
100
AcDbEntity
  8
0
 48
25.0
100
AcDbBlockEnd
  0
BLOCK
  5
9B40
330
9B36
100
AcDbEntity
  8
0
 48
25.0
100
AcDbBlockBegin
  2
*D28
 70
     1
 10
0.0
 20
0.0
 30
0.0
  3
*D28
  1

  0
LINE
  5
ACD8
330
9B36
100
AcDbEntity
  8
寸法引出
 48
25.0
370
    -2
100
AcDbLine
 10
6086.621781500781
 20
2752.097799992907
 30
0.0
 11
6256.625805532856
 21
2752.097799992907
 31
0.0
  0
LINE
  5
ACD9
330
9B36
100
AcDbEntity
  8
寸法引出
 48
25.0
370
    -2
100
AcDbLine
 10
6086.621781500781
 20
2102.097799992907
 30
0.0
 11
6256.625805532856
 21
2102.097799992907
 31
0.0
  0
LINE
  5
ACDA
330
9B36
100
AcDbEntity
  8
寸法引出
 48
25.0
370
    -2
100
AcDbLine
 10
6244.125805532856
 20
2714.597799992907
 30
0.0
 11
6244.125805532856
 21
2139.597799992907
 31
0.0
  0
SOLID
  5
ACDB
330
9B36
100
AcDbEntity
  8
寸法引出
 48
25.0
100
AcDbTrace
 10
6237.875805532856
 20
2714.597799992907
 30
0.0
 11
6250.375805532856
 21
2714.597799992907
 31
0.0
 12
6244.125805532856
 22
2752.097799992907
 32
0.0
 13
6244.125805532856
 23
2752.097799992907
 33
0.0
  0
SOLID
  5
ACDC
330
9B36
100
AcDbEntity
  8
寸法引出
 48
25.0
100
AcDbTrace
 10
6237.875805532856
 20
2139.597799992907
 30
0.0
 11
6250.375805532856
 21
2139.597799992907
 31
0.0
 12
6244.125805532856
 22
2102.097799992907
 32
0.0
 13
6244.125805532856
 23
2102.097799992907
 33
0.0
  0
MTEXT
  5
ACDD
330
9B36
100
AcDbEntity
  8
寸法引出
 48
25.0
100
AcDbMText
 10
6194.125805532856
 20
2427.097799992908
 30
0.0
 40
50.0
 41
0.0
 71
     5
 72
     1
  1
\A1;650
  7
SANWA
 11
0.0000000000000001
 21
1.0
 31
0.0
 73
     1
 44
1.0
  0
POINT
  5
ACDE
330
9B36
100
AcDbEntity
  8
DEFPOINTS
 62
     0
 48
25.0
100
AcDbPoint
 10
6061.621781500781
 20
2752.097799992907
 30
0.0
  0
POINT
  5
ACDF
330
9B36
100
AcDbEntity
  8
DEFPOINTS
 62
     0
 48
25.0
100
AcDbPoint
 10
6061.621781500781
 20
2102.097799992907
 30
0.0
  0
POINT
  5
ACE0
330
9B36
100
AcDbEntity
  8
DEFPOINTS
 62
     0
 48
25.0
100
AcDbPoint
 10
6244.125805532856
 20
2102.097799992907
 30
0.0
  0
ENDBLK
  5
9B41
330
9B36
100
AcDbEntity
  8
0
 48
25.0
100
AcDbBlockEnd
  0
BLOCK
  5
9B73
330
9B69
100
AcDbEntity
  8
0
 48
25.0
100
AcDbBlockBegin
  2
*D29
 70
     1
 10
0.0
 20
0.0
 30
0.0
  3
*D29
  1

  0
LINE
  5
AF0E
330
9B69
100
AcDbEntity
  8
寸法引出
 48
25.0
370
    -2
100
AcDbLine
 10
4036.62178150078
 20
3202.097799992907
 30
0.0
 11
3867.26918403363
 21
3202.097799992907
 31
0.0
  0
LINE
  5
AF0F
330
9B69
100
AcDbEntity
  8
寸法引出
 48
25.0
370
    -2
100
AcDbLine
 10
4036.62178150078
 20
3352.097799992907
 30
0.0
 11
3867.26918403363
 21
3352.097799992907
 31
0.0
  0
LINE
  5
AF10
330
9B69
100
AcDbEntity
  8
寸法引出
 48
25.0
370
    -2
100
AcDbLine
 10
3879.76918403363
 20
3239.597799992907
 30
0.0
 11
3879.76918403363
 21
3314.597799992907
 31
0.0
  0
SOLID
  5
AF11
330
9B69
100
AcDbEntity
  8
寸法引出
 48
25.0
100
AcDbTrace
 10
3873.51918403363
 20
3239.597799992907
 30
0.0
 11
3886.01918403363
 21
3239.597799992907
 31
0.0
 12
3879.76918403363
 22
3202.097799992907
 32
0.0
 13
3879.76918403363
 23
3202.097799992907
 33
0.0
  0
SOLID
  5
AF12
330
9B69
100
AcDbEntity
  8
寸法引出
 48
25.0
100
AcDbTrace
 10
3873.51918403363
 20
3314.597799992907
 30
0.0
 11
3886.01918403363
 21
3314.597799992907
 31
0.0
 12
3879.76918403363
 22
3352.097799992907
 32
0.0
 13
3879.76918403363
 23
3352.097799992907
 33
0.0
  0
MTEXT
  5
AF13
330
9B69
100
AcDbEntity
  8
寸法引出
 48
25.0
100
AcDbMText
 10
3829.769184033629
 20
3277.097799992908
 30
0.0
 40
50.0
 41
0.0
 71
     5
 72
     1
  1
\A1;150
  7
SANWA
 11
0.0000000000000001
 21
1.0
 31
0.0
 73
     1
 44
1.0
  0
POINT
  5
AF14
330
9B69
100
AcDbEntity
  8
DEFPOINTS
 62
     0
 48
25.0
100
AcDbPoint
 10
4061.621781500781
 20
3202.097799992907
 30
0.0
  0
POINT
  5
AF15
330
9B69
100
AcDbEntity
  8
DEFPOINTS
 62
     0
 48
25.0
100
AcDbPoint
 10
4061.621781500781
 20
3352.097799992907
 30
0.0
  0
POINT
  5
AF16
330
9B69
100
AcDbEntity
  8
DEFPOINTS
 62
     0
 48
25.0
100
AcDbPoint
 10
3879.76918403363
 20
3352.097799992907
 30
0.0
  0
ENDBLK
  5
9B74
330
9B69
100
AcDbEntity
  8
0
 48
25.0
100
AcDbBlockEnd
  0
BLOCK
  5
9B90
330
9B84
100
AcDbEntity
  8
0
 48
25.0
100
AcDbBlockBegin
  2
*D30
 70
     1
 10
0.0
 20
0.0
 30
0.0
  3
*D30
  1

  0
LINE
  5
AF17
330
9B84
100
AcDbEntity
  8
寸法引出
 48
25.0
370
    -2
100
AcDbLine
 10
4111.62178150078
 20
3177.097799992907
 30
0.0
 11
4111.62178150078
 21
3012.572021453404
 31
0.0
  0
LINE
  5
AF18
330
9B84
100
AcDbEntity
  8
寸法引出
 48
25.0
370
    -2
100
AcDbLine
 10
4061.621781500781
 20
3177.097799992907
 30
0.0
 11
4061.621781500781
 21
3012.572021453404
 31
0.0
  0
LINE
  5
AF19
330
9B84
100
AcDbEntity
  8
寸法引出
 48
25.0
370
    -2
100
AcDbLine
 10
4149.12178150078
 20
3025.072021453405
 30
0.0
 11
4186.621781500781
 21
3025.072021453405
 31
0.0
  0
LINE
  5
AF1A
330
9B84
100
AcDbEntity
  8
寸法引出
 48
25.0
370
    -2
100
AcDbLine
 10
4024.12178150078
 20
3025.072021453405
 30
0.0
 11
3986.62178150078
 21
3025.072021453405
 31
0.0
  0
MTEXT
  5
AF1B
330
9B84
100
AcDbEntity
  8
寸法引出
 48
25.0
100
AcDbMText
 10
4004.68138743464
 20
3075.072021453404
 30
0.0
 40
50.0
 41
0.0
 71
     5
 72
     1
  1
\A1;50
  7
SANWA
 73
     1
 44
1.0
  0
LINE
  5
AF1C
330
9B84
100
AcDbEntity
  8
寸法引出
 48
25.0
370
    -2
100
AcDbLine
 10
4111.62178150078
 20
3025.072021453405
 30
0.0
 11
4061.621781500781
 21
3025.072021453405
 31
0.0
  0
SOLID
  5
AF1D
330
9B84
100
AcDbEntity
  8
寸法引出
 48
25.0
100
AcDbTrace
 10
4149.12178150078
 20
3031.322021453405
 30
0.0
 11
4149.12178150078
 21
3018.822021453404
 31
0.0
 12
4111.62178150078
 22
3025.072021453405
 32
0.0
 13
4111.62178150078
 23
3025.072021453405
 33
0.0
  0
SOLID
  5
AF1E
330
9B84
100
AcDbEntity
  8
寸法引出
 48
25.0
100
AcDbTrace
 10
4024.12178150078
 20
3031.322021453405
 30
0.0
 11
4024.12178150078
 21
3018.822021453404
 31
0.0
 12
4061.621781500781
 22
3025.072021453405
 32
0.0
 13
4061.621781500781
 23
3025.072021453405
 33
0.0
  0
POINT
  5
AF1F
330
9B84
100
AcDbEntity
  8
DEFPOINTS
 62
     0
 48
25.0
100
AcDbPoint
 10
4111.62178150078
 20
3202.097799992907
 30
0.0
  0
POINT
  5
AF20
330
9B84
100
AcDbEntity
  8
DEFPOINTS
 62
     0
 48
25.0
100
AcDbPoint
 10
4061.621781500781
 20
3202.097799992907
 30
0.0
  0
POINT
  5
AF21
330
9B84
100
AcDbEntity
  8
DEFPOINTS
 62
     0
 48
25.0
100
AcDbPoint
 10
4061.621781500781
 20
3025.072021453405
 30
0.0
  0
ENDBLK
  5
9B91
330
9B84
100
AcDbEntity
  8
0
 48
25.0
100
AcDbBlockEnd
  0
BLOCK
  5
9CF4
330
9CEA
100
AcDbEntity
  8
0
 48
25.0
100
AcDbBlockBegin
  2
*D31
 70
     1
 10
0.0
 20
0.0
 30
0.0
  3
*D31
  1

  0
LINE
  5
ACCF
330
9CEA
100
AcDbEntity
  8
寸法引出
 48
25.0
370
    -2
100
AcDbLine
 10
2654.912839970188
 20
2752.097799992907
 30
0.0
 11
2494.584438010657
 21
2752.097799992907
 31
0.0
  0
LINE
  5
ACD0
330
9CEA
100
AcDbEntity
  8
寸法引出
 48
25.0
370
    -2
100
AcDbLine
 10
2521.246542853126
 20
2252.097799992906
 30
0.0
 11
2494.584438010657
 21
2252.097799992906
 31
0.0
  0
LINE
  5
ACD1
330
9CEA
100
AcDbEntity
  8
寸法引出
 48
25.0
370
    -2
100
AcDbLine
 10
2507.084438010657
 20
2714.597799992907
 30
0.0
 11
2507.084438010657
 21
2289.597799992906
 31
0.0
  0
SOLID
  5
ACD2
330
9CEA
100
AcDbEntity
  8
寸法引出
 48
25.0
100
AcDbTrace
 10
2500.834438010657
 20
2714.597799992907
 30
0.0
 11
2513.334438010657
 21
2714.597799992907
 31
0.0
 12
2507.084438010657
 22
2752.097799992907
 32
0.0
 13
2507.084438010657
 23
2752.097799992907
 33
0.0
  0
SOLID
  5
ACD3
330
9CEA
100
AcDbEntity
  8
寸法引出
 48
25.0
100
AcDbTrace
 10
2500.834438010657
 20
2289.597799992906
 30
0.0
 11
2513.334438010657
 21
2289.597799992906
 31
0.0
 12
2507.084438010657
 22
2252.097799992906
 32
0.0
 13
2507.084438010657
 23
2252.097799992906
 33
0.0
  0
MTEXT
  5
ACD4
330
9CEA
100
AcDbEntity
  8
寸法引出
 48
25.0
100
AcDbMText
 10
2457.084438010657
 20
2502.097799992907
 30
0.0
 40
50.0
 41
0.0
 71
     5
 72
     1
  1
\A1;500
  7
SANWA
 11
0.0000000000000001
 21
1.0
 31
0.0
 73
     1
 44
1.0
  0
POINT
  5
ACD5
330
9CEA
100
AcDbEntity
  8
DEFPOINTS
 62
     0
 48
25.0
100
AcDbPoint
 10
2679.912839970189
 20
2752.097799992907
 30
0.0
  0
POINT
  5
ACD6
330
9CEA
100
AcDbEntity
  8
DEFPOINTS
 62
     0
 48
25.0
100
AcDbPoint
 10
2546.246542853126
 20
2252.097799992906
 30
0.0
  0
POINT
  5
ACD7
330
9CEA
100
AcDbEntity
  8
DEFPOINTS
 62
     0
 48
25.0
100
AcDbPoint
 10
2507.084438010657
 20
2252.097799992906
 30
0.0
  0
ENDBLK
  5
9CF5
330
9CEA
100
AcDbEntity
  8
0
 48
25.0
100
AcDbBlockEnd
  0
BLOCK
  5
9D83
330
9D79
100
AcDbEntity
  8
0
 48
25.0
100
AcDbBlockBegin
  2
*D32
 70
     1
 10
0.0
 20
0.0
 30
0.0
  3
*D32
  1

  0
LINE
  5
9E8A
330
9D79
100
AcDbEntity
  8
寸法引出
 48
25.0
370
    -2
100
AcDbLine
 10
3345.957407706331
 20
631.1243643915295
 30
0.0
 11
3345.957407706331
 21
778.085717784028
 31
0.0
  0
LINE
  5
9E8B
330
9D79
100
AcDbEntity
  8
寸法引出
 48
25.0
370
    -2
100
AcDbLine
 10
3665.957407706331
 20
631.1243643915295
 30
0.0
 11
3665.957407706331
 21
778.085717784028
 31
0.0
  0
LINE
  5
9E8C
330
9D79
100
AcDbEntity
  8
寸法引出
 48
25.0
370
    -2
100
AcDbLine
 10
3383.457407706331
 20
765.585717784028
 30
0.0
 11
3628.457407706331
 21
765.585717784028
 31
0.0
  0
SOLID
  5
9E8D
330
9D79
100
AcDbEntity
  8
寸法引出
 48
25.0
100
AcDbTrace
 10
3383.457407706331
 20
771.835717784028
 30
0.0
 11
3383.457407706331
 21
759.335717784028
 31
0.0
 12
3345.957407706331
 22
765.585717784028
 32
0.0
 13
3345.957407706331
 23
765.585717784028
 33
0.0
  0
SOLID
  5
9E8E
330
9D79
100
AcDbEntity
  8
寸法引出
 48
25.0
100
AcDbTrace
 10
3628.457407706331
 20
771.835717784028
 30
0.0
 11
3628.457407706331
 21
759.335717784028
 31
0.0
 12
3665.957407706331
 22
765.585717784028
 32
0.0
 13
3665.957407706331
 23
765.585717784028
 33
0.0
  0
MTEXT
  5
9E8F
330
9D79
100
AcDbEntity
  8
寸法引出
 48
25.0
100
AcDbMText
 10
3505.957407706331
 20
815.585717784028
 30
0.0
 40
50.0
 41
0.0
 71
     5
 72
     1
  1
\A1;16
  7
SANWA
 73
     1
 44
1.0
  0
POINT
  5
9E90
330
9D79
100
AcDbEntity
  8
DEFPOINTS
 62
     0
 48
25.0
100
AcDbPoint
 10
3345.957407706331
 20
606.1243643915295
 30
0.0
  0
POINT
  5
9E91
330
9D79
100
AcDbEntity
  8
DEFPOINTS
 62
     0
 48
25.0
100
AcDbPoint
 10
3665.957407706331
 20
606.1243643915295
 30
0.0
  0
POINT
  5
9E92
330
9D79
100
AcDbEntity
  8
DEFPOINTS
 62
     0
 48
25.0
100
AcDbPoint
 10
3665.957407706331
 20
765.585717784028
 30
0.0
  0
ENDBLK
  5
9D84
330
9D79
100
AcDbEntity
  8
0
 48
25.0
100
AcDbBlockEnd
  0
BLOCK
  5
9D92
330
9D86
100
AcDbEntity
  8
0
 48
25.0
100
AcDbBlockBegin
  2
*D33
 70
     1
 10
0.0
 20
0.0
 30
0.0
  3
*D33
  1

  0
LINE
  5
9E76
330
9D86
100
AcDbEntity
  8
寸法引出
 48
25.0
370
    -2
100
AcDbLine
 10
3665.957407706331
 20
631.1243643915295
 30
0.0
 11
3665.957407706331
 21
778.085717784028
 31
0.0
  0
LINE
  5
9E77
330
9D86
100
AcDbEntity
  8
寸法引出
 48
25.0
370
    -2
100
AcDbLine
 10
3705.957407706331
 20
691.1243643915295
 30
0.0
 11
3705.957407706331
 21
778.085717784028
 31
0.0
  0
LINE
  5
9E78
330
9D86
100
AcDbEntity
  8
寸法引出
 48
25.0
370
    -2
100
AcDbLine
 10
3628.457407706331
 20
765.585717784028
 30
0.0
 11
3590.957407706332
 21
765.585717784028
 31
0.0
  0
LINE
  5
9E79
330
9D86
100
AcDbEntity
  8
寸法引出
 48
25.0
370
    -2
100
AcDbLine
 10
3743.457407706332
 20
765.585717784028
 30
0.0
 11
3780.957407706331
 21
765.585717784028
 31
0.0
  0
MTEXT
  5
9E7A
330
9D86
100
AcDbEntity
  8
寸法引出
 48
25.0
100
AcDbMText
 10
3751.98812895274
 20
815.585717784028
 30
0.0
 40
50.0
 41
0.0
 71
     5
 72
     1
  1
\A1;2
  7
SANWA
 73
     1
 44
1.0
  0
LINE
  5
9E7B
330
9D86
100
AcDbEntity
  8
寸法引出
 48
25.0
370
    -2
100
AcDbLine
 10
3665.957407706331
 20
765.585717784028
 30
0.0
 11
3705.957407706331
 21
765.585717784028
 31
0.0
  0
SOLID
  5
9E7C
330
9D86
100
AcDbEntity
  8
寸法引出
 48
25.0
100
AcDbTrace
 10
3628.457407706331
 20
771.835717784028
 30
0.0
 11
3628.457407706331
 21
759.335717784028
 31
0.0
 12
3665.957407706331
 22
765.585717784028
 32
0.0
 13
3665.957407706331
 23
765.585717784028
 33
0.0
  0
SOLID
  5
9E7D
330
9D86
100
AcDbEntity
  8
寸法引出
 48
25.0
100
AcDbTrace
 10
3743.457407706332
 20
771.835717784028
 30
0.0
 11
3743.457407706332
 21
759.335717784028
 31
0.0
 12
3705.957407706331
 22
765.585717784028
 32
0.0
 13
3705.957407706331
 23
765.585717784028
 33
0.0
  0
POINT
  5
9E7E
330
9D86
100
AcDbEntity
  8
DEFPOINTS
 62
     0
 48
25.0
100
AcDbPoint
 10
3665.957407706331
 20
606.1243643915295
 30
0.0
  0
POINT
  5
9E7F
330
9D86
100
AcDbEntity
  8
DEFPOINTS
 62
     0
 48
25.0
100
AcDbPoint
 10
3705.957407706331
 20
666.1243643915295
 30
0.0
  0
POINT
  5
9E80
330
9D86
100
AcDbEntity
  8
DEFPOINTS
 62
     0
 48
25.0
100
AcDbPoint
 10
3705.957407706331
 20
765.585717784028
 30
0.0
  0
ENDBLK
  5
9D93
330
9D86
100
AcDbEntity
  8
0
 48
25.0
100
AcDbBlockEnd
  0
BLOCK
  5
9DA1
330
9D95
100
AcDbEntity
  8
0
 48
25.0
100
AcDbBlockBegin
  2
*D34
 70
     1
 10
0.0
 20
0.0
 30
0.0
  3
*D34
  1

  0
LINE
  5
9E93
330
9D95
100
AcDbEntity
  8
寸法引出
 48
25.0
370
    -2
100
AcDbLine
 10
3345.957407706331
 20
631.1243643915295
 30
0.0
 11
3345.957407706331
 21
778.085717784028
 31
0.0
  0
LINE
  5
9E94
330
9D95
100
AcDbEntity
  8
寸法引出
 48
25.0
370
    -2
100
AcDbLine
 10
3305.957407706332
 20
691.1243643915295
 30
0.0
 11
3305.957407706332
 21
778.085717784028
 31
0.0
  0
LINE
  5
9E95
330
9D95
100
AcDbEntity
  8
寸法引出
 48
25.0
370
    -2
100
AcDbLine
 10
3383.457407706331
 20
765.585717784028
 30
0.0
 11
3420.957407706331
 21
765.585717784028
 31
0.0
  0
LINE
  5
9E96
330
9D95
100
AcDbEntity
  8
寸法引出
 48
25.0
370
    -2
100
AcDbLine
 10
3268.457407706331
 20
765.585717784028
 30
0.0
 11
3230.957407706331
 21
765.585717784028
 31
0.0
  0
MTEXT
  5
9E97
330
9D95
100
AcDbEntity
  8
寸法引出
 48
25.0
100
AcDbMText
 10
3259.926711598142
 20
815.585717784028
 30
0.0
 40
50.0
 41
0.0
 71
     5
 72
     1
  1
\A1;2
  7
SANWA
 73
     1
 44
1.0
  0
LINE
  5
9E98
330
9D95
100
AcDbEntity
  8
寸法引出
 48
25.0
370
    -2
100
AcDbLine
 10
3345.957407706331
 20
765.585717784028
 30
0.0
 11
3305.957407706332
 21
765.585717784028
 31
0.0
  0
SOLID
  5
9E99
330
9D95
100
AcDbEntity
  8
寸法引出
 48
25.0
100
AcDbTrace
 10
3383.457407706331
 20
771.835717784028
 30
0.0
 11
3383.457407706331
 21
759.335717784028
 31
0.0
 12
3345.957407706331
 22
765.585717784028
 32
0.0
 13
3345.957407706331
 23
765.585717784028
 33
0.0
  0
SOLID
  5
9E9A
330
9D95
100
AcDbEntity
  8
寸法引出
 48
25.0
100
AcDbTrace
 10
3268.457407706331
 20
771.835717784028
 30
0.0
 11
3268.457407706331
 21
759.335717784028
 31
0.0
 12
3305.957407706332
 22
765.585717784028
 32
0.0
 13
3305.957407706332
 23
765.585717784028
 33
0.0
  0
POINT
  5
9E9B
330
9D95
100
AcDbEntity
  8
DEFPOINTS
 62
     0
 48
25.0
100
AcDbPoint
 10
3345.957407706331
 20
606.1243643915295
 30
0.0
  0
POINT
  5
9E9C
330
9D95
100
AcDbEntity
  8
DEFPOINTS
 62
     0
 48
25.0
100
AcDbPoint
 10
3305.957407706332
 20
666.1243643915295
 30
0.0
  0
POINT
  5
9E9D
330
9D95
100
AcDbEntity
  8
DEFPOINTS
 62
     0
 48
25.0
100
AcDbPoint
 10
3305.957407706332
 20
765.585717784028
 30
0.0
  0
ENDBLK
  5
9DA2
330
9D95
100
AcDbEntity
  8
0
 48
25.0
100
AcDbBlockEnd
  0
BLOCK
  5
9DAE
330
9DA4
100
AcDbEntity
  8
0
 48
25.0
100
AcDbBlockBegin
  2
*D35
 70
     1
 10
0.0
 20
0.0
 30
0.0
  3
*D35
  1

  0
LINE
  5
9E9E
330
9DA4
100
AcDbEntity
  8
寸法引出
 48
25.0
370
    -2
100
AcDbLine
 10
3305.957407706331
 20
691.1243643915295
 30
0.0
 11
3305.957407706331
 21
894.3167129306148
 31
0.0
  0
LINE
  5
9E9F
330
9DA4
100
AcDbEntity
  8
寸法引出
 48
25.0
370
    -2
100
AcDbLine
 10
3705.957407706331
 20
691.1243643915295
 30
0.0
 11
3705.957407706331
 21
894.3167129306148
 31
0.0
  0
LINE
  5
9EA0
330
9DA4
100
AcDbEntity
  8
寸法引出
 48
25.0
370
    -2
100
AcDbLine
 10
3343.457407706331
 20
881.8167129306148
 30
0.0
 11
3668.457407706331
 21
881.8167129306148
 31
0.0
  0
SOLID
  5
9EA1
330
9DA4
100
AcDbEntity
  8
寸法引出
 48
25.0
100
AcDbTrace
 10
3343.457407706331
 20
888.0667129306148
 30
0.0
 11
3343.457407706331
 21
875.5667129306148
 31
0.0
 12
3305.957407706331
 22
881.8167129306148
 32
0.0
 13
3305.957407706331
 23
881.8167129306148
 33
0.0
  0
SOLID
  5
9EA2
330
9DA4
100
AcDbEntity
  8
寸法引出
 48
25.0
100
AcDbTrace
 10
3668.457407706331
 20
888.0667129306148
 30
0.0
 11
3668.457407706331
 21
875.5667129306148
 31
0.0
 12
3705.957407706331
 22
881.8167129306148
 32
0.0
 13
3705.957407706331
 23
881.8167129306148
 33
0.0
  0
MTEXT
  5
9EA3
330
9DA4
100
AcDbEntity
  8
寸法引出
 48
25.0
100
AcDbMText
 10
3505.957407706331
 20
931.8167129306148
 30
0.0
 40
50.0
 41
0.0
 71
     5
 72
     1
  1
\A1;20
  7
SANWA
 73
     1
 44
1.0
  0
POINT
  5
9EA4
330
9DA4
100
AcDbEntity
  8
DEFPOINTS
 62
     0
 48
25.0
100
AcDbPoint
 10
3305.957407706331
 20
666.1243643915295
 30
0.0
  0
POINT
  5
9EA5
330
9DA4
100
AcDbEntity
  8
DEFPOINTS
 62
     0
 48
25.0
100
AcDbPoint
 10
3705.957407706331
 20
666.1243643915295
 30
0.0
  0
POINT
  5
9EA6
330
9DA4
100
AcDbEntity
  8
DEFPOINTS
 62
     0
 48
25.0
100
AcDbPoint
 10
3705.957407706331
 20
881.8167129306148
 30
0.0
  0
ENDBLK
  5
9DAF
330
9DA4
100
AcDbEntity
  8
0
 48
25.0
100
AcDbBlockEnd
  0
BLOCK
  5
9DCB
330
9DBF
100
AcDbEntity
  8
0
 48
25.0
100
AcDbBlockBegin
  2
*D36
 70
     1
 10
0.0
 20
0.0
 30
0.0
  3
*D36
  1

  0
LINE
  5
9E4E
330
9DBF
100
AcDbEntity
  8
寸法引出
 48
25.0
370
    -2
100
AcDbLine
 10
3320.957407706331
 20
606.1243643915296
 30
0.0
 11
3178.880852143982
 21
606.1243643915296
 31
0.0
  0
LINE
  5
9E4F
330
9DBF
100
AcDbEntity
  8
寸法引出
 48
25.0
370
    -2
100
AcDbLine
 10
3280.957407706331
 20
666.1243643915295
 30
0.0
 11
3178.880852143982
 21
666.1243643915295
 31
0.0
  0
LINE
  5
9E50
330
9DBF
100
AcDbEntity
  8
寸法引出
 48
25.0
370
    -2
100
AcDbLine
 10
3191.380852143982
 20
568.6243643915296
 30
0.0
 11
3191.380852143982
 21
531.1243643915296
 31
0.0
  0
LINE
  5
9E51
330
9DBF
100
AcDbEntity
  8
寸法引出
 48
25.0
370
    -2
100
AcDbLine
 10
3191.380852143982
 20
703.6243643915295
 30
0.0
 11
3191.380852143982
 21
741.1243643915295
 31
0.0
  0
MTEXT
  5
9E52
330
9DBF
100
AcDbEntity
  8
寸法引出
 48
25.0
100
AcDbMText
 10
3141.380852143982
 20
712.6078653659824
 30
0.0
 40
50.0
 41
0.0
 71
     5
 72
     1
  1
\A1;3
  7
SANWA
 11
0.0000000000000001
 21
1.0
 31
0.0
 73
     1
 44
1.0
  0
LINE
  5
9E53
330
9DBF
100
AcDbEntity
  8
寸法引出
 48
25.0
370
    -2
100
AcDbLine
 10
3191.380852143982
 20
606.1243643915296
 30
0.0
 11
3191.380852143982
 21
666.1243643915295
 31
0.0
  0
SOLID
  5
9E54
330
9DBF
100
AcDbEntity
  8
寸法引出
 48
25.0
100
AcDbTrace
 10
3185.130852143982
 20
568.6243643915296
 30
0.0
 11
3197.630852143982
 21
568.6243643915296
 31
0.0
 12
3191.380852143982
 22
606.1243643915296
 32
0.0
 13
3191.380852143982
 23
606.1243643915296
 33
0.0
  0
SOLID
  5
9E55
330
9DBF
100
AcDbEntity
  8
寸法引出
 48
25.0
100
AcDbTrace
 10
3185.130852143982
 20
703.6243643915295
 30
0.0
 11
3197.630852143982
 21
703.6243643915295
 31
0.0
 12
3191.380852143982
 22
666.1243643915295
 32
0.0
 13
3191.380852143982
 23
666.1243643915295
 33
0.0
  0
POINT
  5
9E56
330
9DBF
100
AcDbEntity
  8
DEFPOINTS
 62
     0
 48
25.0
100
AcDbPoint
 10
3345.957407706331
 20
606.1243643915295
 30
0.0
  0
POINT
  5
9E57
330
9DBF
100
AcDbEntity
  8
DEFPOINTS
 62
     0
 48
25.0
100
AcDbPoint
 10
3305.957407706331
 20
666.1243643915295
 30
0.0
  0
POINT
  5
9E58
330
9DBF
100
AcDbEntity
  8
DEFPOINTS
 62
     0
 48
25.0
100
AcDbPoint
 10
3191.380852143982
 20
666.1243643915295
 30
0.0
  0
ENDBLK
  5
9DCC
330
9DBF
100
AcDbEntity
  8
0
 48
25.0
100
AcDbBlockEnd
  0
BLOCK
  5
9EB4
330
9EAA
100
AcDbEntity
  8
0
 48
25.0
100
AcDbBlockBegin
  2
*D37
 70
     1
 10
0.0
 20
0.0
 30
0.0
  3
*D37
  1

  0
LINE
  5
AD17
330
9EAA
100
AcDbEntity
  8
寸法引出
 48
25.0
370
    -2
100
AcDbLine
 10
4061.621781500781
 20
2077.097799992907
 30
0.0
 11
4061.621781500781
 21
1922.437424986838
 31
0.0
  0
LINE
  5
AD18
330
9EAA
100
AcDbEntity
  8
寸法引出
 48
25.0
370
    -2
100
AcDbLine
 10
5061.621781500781
 20
2077.097799992907
 30
0.0
 11
5061.621781500781
 21
1922.437424986838
 31
0.0
  0
LINE
  5
AD19
330
9EAA
100
AcDbEntity
  8
寸法引出
 48
25.0
370
    -2
100
AcDbLine
 10
4099.12178150078
 20
1934.937424986838
 30
0.0
 11
5024.121781500781
 21
1934.937424986838
 31
0.0
  0
SOLID
  5
AD1A
330
9EAA
100
AcDbEntity
  8
寸法引出
 48
25.0
100
AcDbTrace
 10
4099.12178150078
 20
1941.187424986837
 30
0.0
 11
4099.12178150078
 21
1928.687424986837
 31
0.0
 12
4061.621781500781
 22
1934.937424986838
 32
0.0
 13
4061.621781500781
 23
1934.937424986838
 33
0.0
  0
SOLID
  5
AD1B
330
9EAA
100
AcDbEntity
  8
寸法引出
 48
25.0
100
AcDbTrace
 10
5024.121781500781
 20
1941.187424986837
 30
0.0
 11
5024.121781500781
 21
1928.687424986837
 31
0.0
 12
5061.621781500781
 22
1934.937424986838
 32
0.0
 13
5061.621781500781
 23
1934.937424986838
 33
0.0
  0
MTEXT
  5
AD1C
330
9EAA
100
AcDbEntity
  8
寸法引出
 48
25.0
100
AcDbMText
 10
4561.621781500781
 20
1984.937424986838
 30
0.0
 40
50.0
 41
0.0
 71
     5
 72
     1
  1
\A1;1000
  7
SANWA
 73
     1
 44
1.0
  0
POINT
  5
AD1D
330
9EAA
100
AcDbEntity
  8
DEFPOINTS
 62
     0
 48
25.0
100
AcDbPoint
 10
4061.621781500781
 20
2102.097799992907
 30
0.0
  0
POINT
  5
AD1E
330
9EAA
100
AcDbEntity
  8
DEFPOINTS
 62
     0
 48
25.0
100
AcDbPoint
 10
5061.621781500781
 20
2102.097799992907
 30
0.0
  0
POINT
  5
AD1F
330
9EAA
100
AcDbEntity
  8
DEFPOINTS
 62
     0
 48
25.0
100
AcDbPoint
 10
5061.621781500781
 20
1934.937424986838
 30
0.0
  0
ENDBLK
  5
9EB5
330
9EAA
100
AcDbEntity
  8
0
 48
25.0
100
AcDbBlockEnd
  0
BLOCK
  5
9EC1
330
9EB7
100
AcDbEntity
  8
0
 48
25.0
100
AcDbBlockBegin
  2
*D38
 70
     1
 10
0.0
 20
0.0
 30
0.0
  3
*D38
  1

  0
LINE
  5
AD0E
330
9EB7
100
AcDbEntity
  8
寸法引出
 48
25.0
370
    -2
100
AcDbLine
 10
5061.621781500781
 20
2077.097799992907
 30
0.0
 11
5061.621781500781
 21
1922.437424986838
 31
0.0
  0
LINE
  5
AD0F
330
9EB7
100
AcDbEntity
  8
寸法引出
 48
25.0
370
    -2
100
AcDbLine
 10
6061.621781500781
 20
2077.097799992907
 30
0.0
 11
6061.621781500781
 21
1922.437424986838
 31
0.0
  0
LINE
  5
AD10
330
9EB7
100
AcDbEntity
  8
寸法引出
 48
25.0
370
    -2
100
AcDbLine
 10
5099.12178150078
 20
1934.937424986838
 30
0.0
 11
6024.121781500781
 21
1934.937424986838
 31
0.0
  0
SOLID
  5
AD11
330
9EB7
100
AcDbEntity
  8
寸法引出
 48
25.0
100
AcDbTrace
 10
5099.12178150078
 20
1941.187424986837
 30
0.0
 11
5099.12178150078
 21
1928.687424986837
 31
0.0
 12
5061.621781500781
 22
1934.937424986838
 32
0.0
 13
5061.621781500781
 23
1934.937424986838
 33
0.0
  0
SOLID
  5
AD12
330
9EB7
100
AcDbEntity
  8
寸法引出
 48
25.0
100
AcDbTrace
 10
6024.121781500781
 20
1941.187424986837
 30
0.0
 11
6024.121781500781
 21
1928.687424986837
 31
0.0
 12
6061.621781500781
 22
1934.937424986838
 32
0.0
 13
6061.621781500781
 23
1934.937424986838
 33
0.0
  0
MTEXT
  5
AD13
330
9EB7
100
AcDbEntity
  8
寸法引出
 48
25.0
100
AcDbMText
 10
5561.621781500781
 20
1984.937424986838
 30
0.0
 40
50.0
 41
0.0
 71
     5
 72
     1
  1
\A1;1000
  7
SANWA
 73
     1
 44
1.0
  0
POINT
  5
AD14
330
9EB7
100
AcDbEntity
  8
DEFPOINTS
 62
     0
 48
25.0
100
AcDbPoint
 10
5061.621781500781
 20
2102.097799992907
 30
0.0
  0
POINT
  5
AD15
330
9EB7
100
AcDbEntity
  8
DEFPOINTS
 62
     0
 48
25.0
100
AcDbPoint
 10
6061.621781500781
 20
2102.097799992907
 30
0.0
  0
POINT
  5
AD16
330
9EB7
100
AcDbEntity
  8
DEFPOINTS
 62
     0
 48
25.0
100
AcDbPoint
 10
6061.621781500781
 20
1934.937424986838
 30
0.0
  0
ENDBLK
  5
9EC2
330
9EB7
100
AcDbEntity
  8
0
 48
25.0
100
AcDbBlockEnd
  0
BLOCK
  5
9EE8
330
9EDE
100
AcDbEntity
  8
0
 48
25.0
100
AcDbBlockBegin
  2
*D39
 70
     1
 10
0.0
 20
0.0
 30
0.0
  3
*D39
  1

  0
LINE
  5
AF36
330
9EDE
100
AcDbEntity
  8
寸法引出
 48
25.0
370
    -2
100
AcDbLine
 10
4941.621781500781
 20
3427.097799992907
 30
0.0
 11
4941.621781500781
 21
3512.024509820146
 31
0.0
  0
LINE
  5
AF37
330
9EDE
100
AcDbEntity
  8
寸法引出
 48
25.0
370
    -2
100
AcDbLine
 10
5181.62178150078
 20
3427.097799992907
 30
0.0
 11
5181.62178150078
 21
3512.024509820146
 31
0.0
  0
LINE
  5
AF38
330
9EDE
100
AcDbEntity
  8
寸法引出
 48
25.0
370
    -2
100
AcDbLine
 10
4979.12178150078
 20
3499.524509820146
 30
0.0
 11
5144.12178150078
 21
3499.524509820146
 31
0.0
  0
SOLID
  5
AF39
330
9EDE
100
AcDbEntity
  8
寸法引出
 48
25.0
100
AcDbTrace
 10
4979.12178150078
 20
3505.774509820146
 30
0.0
 11
4979.12178150078
 21
3493.274509820146
 31
0.0
 12
4941.621781500781
 22
3499.524509820146
 32
0.0
 13
4941.621781500781
 23
3499.524509820146
 33
0.0
  0
SOLID
  5
AF3A
330
9EDE
100
AcDbEntity
  8
寸法引出
 48
25.0
100
AcDbTrace
 10
5144.12178150078
 20
3505.774509820146
 30
0.0
 11
5144.12178150078
 21
3493.274509820146
 31
0.0
 12
5181.62178150078
 22
3499.524509820146
 32
0.0
 13
5181.62178150078
 23
3499.524509820146
 33
0.0
  0
MTEXT
  5
AF3B
330
9EDE
100
AcDbEntity
  8
寸法引出
 48
25.0
100
AcDbMText
 10
5061.621781500781
 20
3549.524509820146
 30
0.0
 40
50.0
 41
0.0
 71
     5
 72
     1
  1
\A1;240
  7
SANWA
 73
     1
 44
1.0
  0
POINT
  5
AF3C
330
9EDE
100
AcDbEntity
  8
DEFPOINTS
 62
     0
 48
25.0
100
AcDbPoint
 10
4941.621781500781
 20
3402.097799992907
 30
0.0
  0
POINT
  5
AF3D
330
9EDE
100
AcDbEntity
  8
DEFPOINTS
 62
     0
 48
25.0
100
AcDbPoint
 10
5181.62178150078
 20
3402.097799992907
 30
0.0
  0
POINT
  5
AF3E
330
9EDE
100
AcDbEntity
  8
DEFPOINTS
 62
     0
 48
25.0
100
AcDbPoint
 10
5181.62178150078
 20
3499.524509820146
 30
0.0
  0
ENDBLK
  5
9EE9
330
9EDE
100
AcDbEntity
  8
0
 48
25.0
100
AcDbBlockEnd
  0
BLOCK
  5
9EF5
330
9EEB
100
AcDbEntity
  8
0
 48
25.0
100
AcDbBlockBegin
  2
*D40
 70
     1
 10
0.0
 20
0.0
 30
0.0
  3
*D40
  1

  0
LINE
  5
AEFC
330
9EEB
100
AcDbEntity
  8
寸法引出
 48
25.0
370
    -2
100
AcDbLine
 10
5181.62178150078
 20
3427.097799992907
 30
0.0
 11
5181.62178150078
 21
3512.024509820146
 31
0.0
  0
LINE
  5
AEFD
330
9EEB
100
AcDbEntity
  8
寸法引出
 48
25.0
370
    -2
100
AcDbLine
 10
5941.621781500781
 20
3427.097799992907
 30
0.0
 11
5941.621781500781
 21
3512.024509820146
 31
0.0
  0
LINE
  5
AEFE
330
9EEB
100
AcDbEntity
  8
寸法引出
 48
25.0
370
    -2
100
AcDbLine
 10
5219.12178150078
 20
3499.524509820146
 30
0.0
 11
5904.12178150078
 21
3499.524509820146
 31
0.0
  0
SOLID
  5
AEFF
330
9EEB
100
AcDbEntity
  8
寸法引出
 48
25.0
100
AcDbTrace
 10
5219.12178150078
 20
3505.774509820146
 30
0.0
 11
5219.12178150078
 21
3493.274509820146
 31
0.0
 12
5181.62178150078
 22
3499.524509820146
 32
0.0
 13
5181.62178150078
 23
3499.524509820146
 33
0.0
  0
SOLID
  5
AF00
330
9EEB
100
AcDbEntity
  8
寸法引出
 48
25.0
100
AcDbTrace
 10
5904.12178150078
 20
3505.774509820146
 30
0.0
 11
5904.12178150078
 21
3493.274509820146
 31
0.0
 12
5941.621781500781
 22
3499.524509820146
 32
0.0
 13
5941.621781500781
 23
3499.524509820146
 33
0.0
  0
MTEXT
  5
AF01
330
9EEB
100
AcDbEntity
  8
寸法引出
 48
25.0
100
AcDbMText
 10
5561.621781500781
 20
3549.524509820146
 30
0.0
 40
50.0
 41
0.0
 71
     5
 72
     1
  1
\A1;760
  7
SANWA
 73
     1
 44
1.0
  0
POINT
  5
AF02
330
9EEB
100
AcDbEntity
  8
DEFPOINTS
 62
     0
 48
25.0
100
AcDbPoint
 10
5181.62178150078
 20
3402.097799992907
 30
0.0
  0
POINT
  5
AF03
330
9EEB
100
AcDbEntity
  8
DEFPOINTS
 62
     0
 48
25.0
100
AcDbPoint
 10
5941.621781500781
 20
3402.097799992907
 30
0.0
  0
POINT
  5
AF04
330
9EEB
100
AcDbEntity
  8
DEFPOINTS
 62
     0
 48
25.0
100
AcDbPoint
 10
5941.621781500781
 20
3499.524509820146
 30
0.0
  0
ENDBLK
  5
9EF6
330
9EEB
100
AcDbEntity
  8
0
 48
25.0
100
AcDbBlockEnd
  0
BLOCK
  5
9F04
330
9EF8
100
AcDbEntity
  8
0
 48
25.0
100
AcDbBlockBegin
  2
*D41
 70
     1
 10
0.0
 20
0.0
 30
0.0
  3
*D41
  1

  0
LINE
  5
AF48
330
9EF8
100
AcDbEntity
  8
寸法引出
 48
25.0
370
    -2
100
AcDbLine
 10
5941.621781500781
 20
3427.097799992907
 30
0.0
 11
5941.621781500781
 21
3512.024509820146
 31
0.0
  0
LINE
  5
AF49
330
9EF8
100
AcDbEntity
  8
寸法引出
 48
25.0
370
    -2
100
AcDbLine
 10
6061.621781500781
 20
3377.097799992907
 30
0.0
 11
6061.621781500781
 21
3512.024509820146
 31
0.0
  0
LINE
  5
AF4A
330
9EF8
100
AcDbEntity
  8
寸法引出
 48
25.0
370
    -2
100
AcDbLine
 10
5904.12178150078
 20
3499.524509820146
 30
0.0
 11
5866.62178150078
 21
3499.524509820146
 31
0.0
  0
LINE
  5
AF4B
330
9EF8
100
AcDbEntity
  8
寸法引出
 48
25.0
370
    -2
100
AcDbLine
 10
6099.12178150078
 20
3499.524509820146
 30
0.0
 11
6136.621781500781
 21
3499.524509820146
 31
0.0
  0
LINE
  5
AF4C
330
9EF8
100
AcDbEntity
  8
寸法引出
 48
25.0
370
    -2
100
AcDbLine
 10
5941.621781500781
 20
3499.524509820146
 30
0.0
 11
6061.621781500781
 21
3499.524509820146
 31
0.0
  0
SOLID
  5
AF4D
330
9EF8
100
AcDbEntity
  8
寸法引出
 48
25.0
100
AcDbTrace
 10
5904.12178150078
 20
3505.774509820146
 30
0.0
 11
5904.12178150078
 21
3493.274509820146
 31
0.0
 12
5941.621781500781
 22
3499.524509820146
 32
0.0
 13
5941.621781500781
 23
3499.524509820146
 33
0.0
  0
SOLID
  5
AF4E
330
9EF8
100
AcDbEntity
  8
寸法引出
 48
25.0
100
AcDbTrace
 10
6099.12178150078
 20
3505.774509820146
 30
0.0
 11
6099.12178150078
 21
3493.274509820146
 31
0.0
 12
6061.621781500781
 22
3499.524509820146
 32
0.0
 13
6061.621781500781
 23
3499.524509820146
 33
0.0
  0
MTEXT
  5
AF4F
330
9EF8
100
AcDbEntity
  8
寸法引出
 48
25.0
100
AcDbMText
 10
6001.62178150078
 20
3549.524509820146
 30
0.0
 40
50.0
 41
0.0
 71
     5
 72
     1
  1
\A1;120
  7
SANWA
 73
     1
 44
1.0
  0
POINT
  5
AF50
330
9EF8
100
AcDbEntity
  8
DEFPOINTS
 62
     0
 48
25.0
100
AcDbPoint
 10
5941.621781500781
 20
3402.097799992907
 30
0.0
  0
POINT
  5
AF51
330
9EF8
100
AcDbEntity
  8
DEFPOINTS
 62
     0
 48
25.0
100
AcDbPoint
 10
6061.621781500781
 20
3352.097799992907
 30
0.0
  0
POINT
  5
AF52
330
9EF8
100
AcDbEntity
  8
DEFPOINTS
 62
     0
 48
25.0
100
AcDbPoint
 10
6061.621781500781
 20
3499.524509820146
 30
0.0
  0
ENDBLK
  5
9F05
330
9EF8
100
AcDbEntity
  8
0
 48
25.0
100
AcDbBlockEnd
  0
BLOCK
  5
9F11
330
9F07
100
AcDbEntity
  8
0
 48
25.0
100
AcDbBlockBegin
  2
*D42
 70
     1
 10
0.0
 20
0.0
 30
0.0
  3
*D42
  1

  0
LINE
  5
AF22
330
9F07
100
AcDbEntity
  8
寸法引出
 48
25.0
370
    -2
100
AcDbLine
 10
4941.621781500781
 20
3427.097799992907
 30
0.0
 11
4941.621781500781
 21
3512.024509820146
 31
0.0
  0
LINE
  5
AF23
330
9F07
100
AcDbEntity
  8
寸法引出
 48
25.0
370
    -2
100
AcDbLine
 10
4181.62178150078
 20
3427.097799992907
 30
0.0
 11
4181.62178150078
 21
3512.024509820146
 31
0.0
  0
LINE
  5
AF24
330
9F07
100
AcDbEntity
  8
寸法引出
 48
25.0
370
    -2
100
AcDbLine
 10
4904.12178150078
 20
3499.524509820146
 30
0.0
 11
4219.12178150078
 21
3499.524509820146
 31
0.0
  0
SOLID
  5
AF25
330
9F07
100
AcDbEntity
  8
寸法引出
 48
25.0
100
AcDbTrace
 10
4904.12178150078
 20
3505.774509820146
 30
0.0
 11
4904.12178150078
 21
3493.274509820146
 31
0.0
 12
4941.621781500781
 22
3499.524509820146
 32
0.0
 13
4941.621781500781
 23
3499.524509820146
 33
0.0
  0
SOLID
  5
AF26
330
9F07
100
AcDbEntity
  8
寸法引出
 48
25.0
100
AcDbTrace
 10
4219.12178150078
 20
3505.774509820146
 30
0.0
 11
4219.12178150078
 21
3493.274509820146
 31
0.0
 12
4181.62178150078
 22
3499.524509820146
 32
0.0
 13
4181.62178150078
 23
3499.524509820146
 33
0.0
  0
MTEXT
  5
AF27
330
9F07
100
AcDbEntity
  8
寸法引出
 48
25.0
100
AcDbMText
 10
4561.621781500781
 20
3549.524509820146
 30
0.0
 40
50.0
 41
0.0
 71
     5
 72
     1
  1
\A1;760
  7
SANWA
 73
     1
 44
1.0
  0
POINT
  5
AF28
330
9F07
100
AcDbEntity
  8
DEFPOINTS
 62
     0
 48
25.0
100
AcDbPoint
 10
4941.621781500781
 20
3402.097799992907
 30
0.0
  0
POINT
  5
AF29
330
9F07
100
AcDbEntity
  8
DEFPOINTS
 62
     0
 48
25.0
100
AcDbPoint
 10
4181.62178150078
 20
3402.097799992907
 30
0.0
  0
POINT
  5
AF2A
330
9F07
100
AcDbEntity
  8
DEFPOINTS
 62
     0
 48
25.0
100
AcDbPoint
 10
4181.62178150078
 20
3499.524509820146
 30
0.0
  0
ENDBLK
  5
9F12
330
9F07
100
AcDbEntity
  8
0
 48
25.0
100
AcDbBlockEnd
  0
BLOCK
  5
9F20
330
9F14
100
AcDbEntity
  8
0
 48
25.0
100
AcDbBlockBegin
  2
*D43
 70
     1
 10
0.0
 20
0.0
 30
0.0
  3
*D43
  1

  0
LINE
  5
AF2B
330
9F14
100
AcDbEntity
  8
寸法引出
 48
25.0
370
    -2
100
AcDbLine
 10
4181.62178150078
 20
3427.097799992907
 30
0.0
 11
4181.62178150078
 21
3512.024509820146
 31
0.0
  0
LINE
  5
AF2C
330
9F14
100
AcDbEntity
  8
寸法引出
 48
25.0
370
    -2
100
AcDbLine
 10
4061.621781500781
 20
3377.097799992907
 30
0.0
 11
4061.621781500781
 21
3512.024509820146
 31
0.0
  0
LINE
  5
AF2D
330
9F14
100
AcDbEntity
  8
寸法引出
 48
25.0
370
    -2
100
AcDbLine
 10
4219.12178150078
 20
3499.524509820146
 30
0.0
 11
4256.62178150078
 21
3499.524509820146
 31
0.0
  0
LINE
  5
AF2E
330
9F14
100
AcDbEntity
  8
寸法引出
 48
25.0
370
    -2
100
AcDbLine
 10
4024.12178150078
 20
3499.524509820146
 30
0.0
 11
3986.62178150078
 21
3499.524509820146
 31
0.0
  0
LINE
  5
AF2F
330
9F14
100
AcDbEntity
  8
寸法引出
 48
25.0
370
    -2
100
AcDbLine
 10
4181.62178150078
 20
3499.524509820146
 30
0.0
 11
4061.621781500781
 21
3499.524509820146
 31
0.0
  0
SOLID
  5
AF30
330
9F14
100
AcDbEntity
  8
寸法引出
 48
25.0
100
AcDbTrace
 10
4219.12178150078
 20
3505.774509820146
 30
0.0
 11
4219.12178150078
 21
3493.274509820146
 31
0.0
 12
4181.62178150078
 22
3499.524509820146
 32
0.0
 13
4181.62178150078
 23
3499.524509820146
 33
0.0
  0
SOLID
  5
AF31
330
9F14
100
AcDbEntity
  8
寸法引出
 48
25.0
100
AcDbTrace
 10
4024.12178150078
 20
3505.774509820146
 30
0.0
 11
4024.12178150078
 21
3493.274509820146
 31
0.0
 12
4061.621781500781
 22
3499.524509820146
 32
0.0
 13
4061.621781500781
 23
3499.524509820146
 33
0.0
  0
MTEXT
  5
AF32
330
9F14
100
AcDbEntity
  8
寸法引出
 48
25.0
100
AcDbMText
 10
4121.62178150078
 20
3549.524509820146
 30
0.0
 40
50.0
 41
0.0
 71
     5
 72
     1
  1
\A1;120
  7
SANWA
 73
     1
 44
1.0
  0
POINT
  5
AF33
330
9F14
100
AcDbEntity
  8
DEFPOINTS
 62
     0
 48
25.0
100
AcDbPoint
 10
4181.62178150078
 20
3402.097799992907
 30
0.0
  0
POINT
  5
AF34
330
9F14
100
AcDbEntity
  8
DEFPOINTS
 62
     0
 48
25.0
100
AcDbPoint
 10
4061.621781500781
 20
3352.097799992907
 30
0.0
  0
POINT
  5
AF35
330
9F14
100
AcDbEntity
  8
DEFPOINTS
 62
     0
 48
25.0
100
AcDbPoint
 10
4061.621781500781
 20
3499.524509820146
 30
0.0
  0
ENDBLK
  5
9F21
330
9F14
100
AcDbEntity
  8
0
 48
25.0
100
AcDbBlockEnd
  0
BLOCK
  5
A088
330
A07E
100
AcDbEntity
  8
0
 48
25.0
100
AcDbBlockBegin
  2
*D44
 70
     1
 10
0.0
 20
0.0
 30
0.0
  3
*D44
  1

  0
LINE
  5
B063
330
A07E
100
AcDbEntity
  8
寸法引出
 48
25.0
370
    -2
100
AcDbLine
 10
10909.62446573016
 20
3352.097799992907
 30
0.0
 11
10705.56950064639
 21
3352.097799992907
 31
0.0
  0
LINE
  5
B064
330
A07E
100
AcDbEntity
  8
寸法引出
 48
25.0
370
    -2
100
AcDbLine
 10
10909.62446573016
 20
2252.097799992907
 30
0.0
 11
10705.56950064639
 21
2252.097799992907
 31
0.0
  0
LINE
  5
B065
330
A07E
100
AcDbEntity
  8
寸法引出
 48
25.0
370
    -2
100
AcDbLine
 10
10718.06950064639
 20
3314.597799992907
 30
0.0
 11
10718.06950064639
 21
2289.597799992907
 31
0.0
  0
SOLID
  5
B066
330
A07E
100
AcDbEntity
  8
寸法引出
 48
25.0
100
AcDbTrace
 10
10711.81950064639
 20
3314.597799992907
 30
0.0
 11
10724.31950064639
 21
3314.597799992907
 31
0.0
 12
10718.06950064639
 22
3352.097799992907
 32
0.0
 13
10718.06950064639
 23
3352.097799992907
 33
0.0
  0
SOLID
  5
B067
330
A07E
100
AcDbEntity
  8
寸法引出
 48
25.0
100
AcDbTrace
 10
10711.81950064639
 20
2289.597799992907
 30
0.0
 11
10724.31950064639
 21
2289.597799992907
 31
0.0
 12
10718.06950064639
 22
2252.097799992907
 32
0.0
 13
10718.06950064639
 23
2252.097799992907
 33
0.0
  0
MTEXT
  5
B068
330
A07E
100
AcDbEntity
  8
寸法引出
 48
25.0
100
AcDbMText
 10
10668.06950064639
 20
2802.097799992909
 30
0.0
 40
50.0
 41
0.0
 71
     5
 72
     1
  1
\A1;1100
  7
SANWA
 11
0.0000000000000001
 21
1.0
 31
0.0
 73
     1
 44
1.0
  0
POINT
  5
B069
330
A07E
100
AcDbEntity
  8
DEFPOINTS
 62
     0
 48
25.0
100
AcDbPoint
 10
10934.62446573016
 20
3352.097799992907
 30
0.0
  0
POINT
  5
B06A
330
A07E
100
AcDbEntity
  8
DEFPOINTS
 62
     0
 48
25.0
100
AcDbPoint
 10
10934.62446573016
 20
2252.097799992907
 30
0.0
  0
POINT
  5
B06B
330
A07E
100
AcDbEntity
  8
DEFPOINTS
 62
     0
 48
25.0
100
AcDbPoint
 10
10718.06950064639
 20
2252.097799992907
 30
0.0
  0
ENDBLK
  5
A089
330
A07E
100
AcDbEntity
  8
0
 48
25.0
100
AcDbBlockEnd
  0
BLOCK
  5
A094
330
A08A
100
AcDbEntity
  8
0
 48
25.0
100
AcDbBlockBegin
  2
*D45
 70
     1
 10
0.0
 20
0.0
 30
0.0
  3
*D45
  1

  0
LINE
  5
ABF9
330
A08A
100
AcDbEntity
  8
寸法引出
 48
25.0
370
    -2
100
AcDbLine
 10
10909.62446573016
 20
2252.097799992907
 30
0.0
 11
10705.56950064639
 21
2252.097799992907
 31
0.0
  0
LINE
  5
ABFA
330
A08A
100
AcDbEntity
  8
寸法引出
 48
25.0
370
    -2
100
AcDbLine
 10
10939.62446573016
 20
2102.097799992906
 30
0.0
 11
10705.56950064639
 21
2102.097799992906
 31
0.0
  0
LINE
  5
ABFB
330
A08A
100
AcDbEntity
  8
寸法引出
 48
25.0
370
    -2
100
AcDbLine
 10
10718.06950064639
 20
2214.597799992907
 30
0.0
 11
10718.06950064639
 21
2139.597799992906
 31
0.0
  0
SOLID
  5
ABFC
330
A08A
100
AcDbEntity
  8
寸法引出
 48
25.0
100
AcDbTrace
 10
10711.81950064639
 20
2214.597799992907
 30
0.0
 11
10724.31950064639
 21
2214.597799992907
 31
0.0
 12
10718.06950064639
 22
2252.097799992907
 32
0.0
 13
10718.06950064639
 23
2252.097799992907
 33
0.0
  0
SOLID
  5
ABFD
330
A08A
100
AcDbEntity
  8
寸法引出
 48
25.0
100
AcDbTrace
 10
10711.81950064639
 20
2139.597799992906
 30
0.0
 11
10724.31950064639
 21
2139.597799992906
 31
0.0
 12
10718.06950064639
 22
2102.097799992906
 32
0.0
 13
10718.06950064639
 23
2102.097799992906
 33
0.0
  0
MTEXT
  5
ABFE
330
A08A
100
AcDbEntity
  8
寸法引出
 48
25.0
100
AcDbMText
 10
10668.06950064639
 20
2177.097799992908
 30
0.0
 40
50.0
 41
0.0
 71
     5
 72
     1
  1
\A1;150
  7
SANWA
 11
0.0000000000000001
 21
1.0
 31
0.0
 73
     1
 44
1.0
  0
POINT
  5
ABFF
330
A08A
100
AcDbEntity
  8
DEFPOINTS
 62
     0
 48
25.0
100
AcDbPoint
 10
10934.62446573016
 20
2252.097799992907
 30
0.0
  0
POINT
  5
AC00
330
A08A
100
AcDbEntity
  8
DEFPOINTS
 62
     0
 48
25.0
100
AcDbPoint
 10
10964.62446573016
 20
2102.097799992906
 30
0.0
  0
POINT
  5
AC01
330
A08A
100
AcDbEntity
  8
DEFPOINTS
 62
     0
 48
25.0
100
AcDbPoint
 10
10718.06950064639
 20
2102.097799992906
 30
0.0
  0
ENDBLK
  5
A095
330
A08A
100
AcDbEntity
  8
0
 48
25.0
100
AcDbBlockEnd
  0
BLOCK
  5
A0A0
330
A096
100
AcDbEntity
  8
0
 48
25.0
100
AcDbBlockBegin
  2
*D46
 70
     1
 10
0.0
 20
0.0
 30
0.0
  3
*D46
  1

  0
LINE
  5
B06C
330
A096
100
AcDbEntity
  8
寸法引出
 48
25.0
370
    -2
100
AcDbLine
 10
10909.62446573016
 20
3352.097799992907
 30
0.0
 11
10513.26313046468
 21
3352.097799992907
 31
0.0
  0
LINE
  5
B06D
330
A096
100
AcDbEntity
  8
寸法引出
 48
25.0
370
    -2
100
AcDbLine
 10
10939.62446573016
 20
2102.097799992906
 30
0.0
 11
10513.26313046468
 21
2102.097799992906
 31
0.0
  0
LINE
  5
B06E
330
A096
100
AcDbEntity
  8
寸法引出
 48
25.0
370
    -2
100
AcDbLine
 10
10525.76313046468
 20
3314.597799992907
 30
0.0
 11
10525.76313046468
 21
2139.597799992906
 31
0.0
  0
SOLID
  5
B06F
330
A096
100
AcDbEntity
  8
寸法引出
 48
25.0
100
AcDbTrace
 10
10519.51313046468
 20
3314.597799992907
 30
0.0
 11
10532.01313046468
 21
3314.597799992907
 31
0.0
 12
10525.76313046468
 22
3352.097799992907
 32
0.0
 13
10525.76313046468
 23
3352.097799992907
 33
0.0
  0
SOLID
  5
B070
330
A096
100
AcDbEntity
  8
寸法引出
 48
25.0
100
AcDbTrace
 10
10519.51313046468
 20
2139.597799992906
 30
0.0
 11
10532.01313046468
 21
2139.597799992906
 31
0.0
 12
10525.76313046468
 22
2102.097799992906
 32
0.0
 13
10525.76313046468
 23
2102.097799992906
 33
0.0
  0
MTEXT
  5
B071
330
A096
100
AcDbEntity
  8
寸法引出
 48
25.0
100
AcDbMText
 10
10475.76313046468
 20
2727.097799992908
 30
0.0
 40
50.0
 41
0.0
 71
     5
 72
     1
  1
\A1;1250
  7
SANWA
 11
0.0000000000000001
 21
1.0
 31
0.0
 73
     1
 44
1.0
  0
POINT
  5
B072
330
A096
100
AcDbEntity
  8
DEFPOINTS
 62
     0
 48
25.0
100
AcDbPoint
 10
10934.62446573016
 20
3352.097799992907
 30
0.0
  0
POINT
  5
B073
330
A096
100
AcDbEntity
  8
DEFPOINTS
 62
     0
 48
25.0
100
AcDbPoint
 10
10964.62446573016
 20
2102.097799992906
 30
0.0
  0
POINT
  5
B074
330
A096
100
AcDbEntity
  8
DEFPOINTS
 62
     0
 48
25.0
100
AcDbPoint
 10
10525.76313046468
 20
2102.097799992906
 30
0.0
  0
ENDBLK
  5
A0A1
330
A096
100
AcDbEntity
  8
0
 48
25.0
100
AcDbBlockEnd
  0
BLOCK
  5
A0AC
330
A0A2
100
AcDbEntity
  8
0
 48
25.0
100
AcDbBlockBegin
  2
*D47
 70
     1
 10
0.0
 20
0.0
 30
0.0
  3
*D47
  1

  0
LINE
  5
B08B
330
A0A2
100
AcDbEntity
  8
寸法引出
 48
25.0
370
    -2
100
AcDbLine
 10
11014.62446573016
 20
3377.097799992907
 30
0.0
 11
11014.62446573016
 21
3512.024509820146
 31
0.0
  0
LINE
  5
B08C
330
A0A2
100
AcDbEntity
  8
寸法引出
 48
25.0
370
    -2
100
AcDbLine
 10
11814.62446573016
 20
3377.097799992907
 30
0.0
 11
11814.62446573016
 21
3512.024509820146
 31
0.0
  0
LINE
  5
B08D
330
A0A2
100
AcDbEntity
  8
寸法引出
 48
25.0
370
    -2
100
AcDbLine
 10
11052.12446573016
 20
3499.524509820146
 30
0.0
 11
11777.12446573016
 21
3499.524509820146
 31
0.0
  0
SOLID
  5
B08E
330
A0A2
100
AcDbEntity
  8
寸法引出
 48
25.0
100
AcDbTrace
 10
11052.12446573016
 20
3505.774509820146
 30
0.0
 11
11052.12446573016
 21
3493.274509820146
 31
0.0
 12
11014.62446573016
 22
3499.524509820146
 32
0.0
 13
11014.62446573016
 23
3499.524509820146
 33
0.0
  0
SOLID
  5
B08F
330
A0A2
100
AcDbEntity
  8
寸法引出
 48
25.0
100
AcDbTrace
 10
11777.12446573016
 20
3505.774509820146
 30
0.0
 11
11777.12446573016
 21
3493.274509820146
 31
0.0
 12
11814.62446573016
 22
3499.524509820146
 32
0.0
 13
11814.62446573016
 23
3499.524509820146
 33
0.0
  0
MTEXT
  5
B090
330
A0A2
100
AcDbEntity
  8
寸法引出
 48
25.0
100
AcDbMText
 10
11414.62446573016
 20
3549.524509820146
 30
0.0
 40
50.0
 41
0.0
 71
     5
 72
     1
  1
\A1;800
  7
SANWA
 73
     1
 44
1.0
  0
POINT
  5
B091
330
A0A2
100
AcDbEntity
  8
DEFPOINTS
 62
     0
 48
25.0
100
AcDbPoint
 10
11014.62446573016
 20
3352.097799992907
 30
0.0
  0
POINT
  5
B092
330
A0A2
100
AcDbEntity
  8
DEFPOINTS
 62
     0
 48
25.0
100
AcDbPoint
 10
11814.62446573016
 20
3352.097799992907
 30
0.0
  0
POINT
  5
B093
330
A0A2
100
AcDbEntity
  8
DEFPOINTS
 62
     0
 48
25.0
100
AcDbPoint
 10
11814.62446573016
 20
3499.524509820146
 30
0.0
  0
ENDBLK
  5
A0AD
330
A0A2
100
AcDbEntity
  8
0
 48
25.0
100
AcDbBlockEnd
  0
BLOCK
  5
A0BA
330
A0AE
100
AcDbEntity
  8
0
 48
25.0
100
AcDbBlockBegin
  2
*D48
 70
     1
 10
0.0
 20
0.0
 30
0.0
  3
*D48
  1

  0
LINE
  5
B075
330
A0AE
100
AcDbEntity
  8
寸法引出
 48
25.0
370
    -2
100
AcDbLine
 10
11814.62446573016
 20
3377.097799992907
 30
0.0
 11
11814.62446573016
 21
3512.024509820146
 31
0.0
  0
LINE
  5
B076
330
A0AE
100
AcDbEntity
  8
寸法引出
 48
25.0
370
    -2
100
AcDbLine
 10
11894.62446573016
 20
3377.097799992907
 30
0.0
 11
11894.62446573016
 21
3512.024509820146
 31
0.0
  0
LINE
  5
B077
330
A0AE
100
AcDbEntity
  8
寸法引出
 48
25.0
370
    -2
100
AcDbLine
 10
11777.12446573016
 20
3499.524509820146
 30
0.0
 11
11739.62446573016
 21
3499.524509820146
 31
0.0
  0
LINE
  5
B078
330
A0AE
100
AcDbEntity
  8
寸法引出
 48
25.0
370
    -2
100
AcDbLine
 10
11932.12446573016
 20
3499.524509820146
 30
0.0
 11
11969.62446573016
 21
3499.524509820146
 31
0.0
  0
MTEXT
  5
B079
330
A0AE
100
AcDbEntity
  8
寸法引出
 48
25.0
100
AcDbMText
 10
11843.79390232384
 20
3549.928262656791
 30
0.0
 40
50.0
 41
0.0
 71
     5
 72
     1
  1
\A1;80
  7
SANWA
 73
     1
 44
1.0
  0
LINE
  5
B07A
330
A0AE
100
AcDbEntity
  8
寸法引出
 48
25.0
370
    -2
100
AcDbLine
 10
11814.62446573016
 20
3499.524509820146
 30
0.0
 11
11894.62446573016
 21
3499.524509820146
 31
0.0
  0
SOLID
  5
B07B
330
A0AE
100
AcDbEntity
  8
寸法引出
 48
25.0
100
AcDbTrace
 10
11777.12446573016
 20
3505.774509820146
 30
0.0
 11
11777.12446573016
 21
3493.274509820146
 31
0.0
 12
11814.62446573016
 22
3499.524509820146
 32
0.0
 13
11814.62446573016
 23
3499.524509820146
 33
0.0
  0
SOLID
  5
B07C
330
A0AE
100
AcDbEntity
  8
寸法引出
 48
25.0
100
AcDbTrace
 10
11932.12446573016
 20
3505.774509820146
 30
0.0
 11
11932.12446573016
 21
3493.274509820146
 31
0.0
 12
11894.62446573016
 22
3499.524509820146
 32
0.0
 13
11894.62446573016
 23
3499.524509820146
 33
0.0
  0
POINT
  5
B07D
330
A0AE
100
AcDbEntity
  8
DEFPOINTS
 62
     0
 48
25.0
100
AcDbPoint
 10
11814.62446573016
 20
3352.097799992907
 30
0.0
  0
POINT
  5
B07E
330
A0AE
100
AcDbEntity
  8
DEFPOINTS
 62
     0
 48
25.0
100
AcDbPoint
 10
11894.62446573016
 20
3352.097799992907
 30
0.0
  0
POINT
  5
B07F
330
A0AE
100
AcDbEntity
  8
DEFPOINTS
 62
     0
 48
25.0
100
AcDbPoint
 10
11894.62446573016
 20
3499.524509820146
 30
0.0
  0
ENDBLK
  5
A0BB
330
A0AE
100
AcDbEntity
  8
0
 48
25.0
100
AcDbBlockEnd
  0
BLOCK
  5
A0C8
330
A0BC
100
AcDbEntity
  8
0
 48
25.0
100
AcDbBlockBegin
  2
*D49
 70
     1
 10
0.0
 20
0.0
 30
0.0
  3
*D49
  1

  0
LINE
  5
B080
330
A0BC
100
AcDbEntity
  8
寸法引出
 48
25.0
370
    -2
100
AcDbLine
 10
11014.62446573016
 20
3377.097799992907
 30
0.0
 11
11014.62446573016
 21
3512.024509820146
 31
0.0
  0
LINE
  5
B081
330
A0BC
100
AcDbEntity
  8
寸法引出
 48
25.0
370
    -2
100
AcDbLine
 10
10934.62446573016
 20
3377.097799992907
 30
0.0
 11
10934.62446573016
 21
3512.024509820146
 31
0.0
  0
LINE
  5
B082
330
A0BC
100
AcDbEntity
  8
寸法引出
 48
25.0
370
    -2
100
AcDbLine
 10
11052.12446573016
 20
3499.524509820146
 30
0.0
 11
11089.62446573016
 21
3499.524509820146
 31
0.0
  0
LINE
  5
B083
330
A0BC
100
AcDbEntity
  8
寸法引出
 48
25.0
370
    -2
100
AcDbLine
 10
10897.12446573016
 20
3499.524509820146
 30
0.0
 11
10859.62446573016
 21
3499.524509820146
 31
0.0
  0
MTEXT
  5
B084
330
A0BC
100
AcDbEntity
  8
寸法引出
 48
25.0
100
AcDbMText
 10
10988.23822076257
 20
3549.928262656791
 30
0.0
 40
50.0
 41
0.0
 71
     5
 72
     1
  1
\A1;80
  7
SANWA
 73
     1
 44
1.0
  0
LINE
  5
B085
330
A0BC
100
AcDbEntity
  8
寸法引出
 48
25.0
370
    -2
100
AcDbLine
 10
11014.62446573016
 20
3499.524509820146
 30
0.0
 11
10934.62446573016
 21
3499.524509820146
 31
0.0
  0
SOLID
  5
B086
330
A0BC
100
AcDbEntity
  8
寸法引出
 48
25.0
100
AcDbTrace
 10
11052.12446573016
 20
3505.774509820146
 30
0.0
 11
11052.12446573016
 21
3493.274509820146
 31
0.0
 12
11014.62446573016
 22
3499.524509820146
 32
0.0
 13
11014.62446573016
 23
3499.524509820146
 33
0.0
  0
SOLID
  5
B087
330
A0BC
100
AcDbEntity
  8
寸法引出
 48
25.0
100
AcDbTrace
 10
10897.12446573016
 20
3505.774509820146
 30
0.0
 11
10897.12446573016
 21
3493.274509820146
 31
0.0
 12
10934.62446573016
 22
3499.524509820146
 32
0.0
 13
10934.62446573016
 23
3499.524509820146
 33
0.0
  0
POINT
  5
B088
330
A0BC
100
AcDbEntity
  8
DEFPOINTS
 62
     0
 48
25.0
100
AcDbPoint
 10
11014.62446573016
 20
3352.097799992907
 30
0.0
  0
POINT
  5
B089
330
A0BC
100
AcDbEntity
  8
DEFPOINTS
 62
     0
 48
25.0
100
AcDbPoint
 10
10934.62446573016
 20
3352.097799992907
 30
0.0
  0
POINT
  5
B08A
330
A0BC
100
AcDbEntity
  8
DEFPOINTS
 62
     0
 48
25.0
100
AcDbPoint
 10
10934.62446573016
 20
3499.524509820146
 30
0.0
  0
ENDBLK
  5
A0C9
330
A0BC
100
AcDbEntity
  8
0
 48
25.0
100
AcDbBlockEnd
  0
BLOCK
  5
A0D4
330
A0CA
100
AcDbEntity
  8
0
 48
25.0
100
AcDbBlockBegin
  2
*D50
 70
     1
 10
0.0
 20
0.0
 30
0.0
  3
*D50
  1

  0
LINE
  5
B094
330
A0CA
100
AcDbEntity
  8
寸法引出
 48
25.0
370
    -2
100
AcDbLine
 10
10934.62446573016
 20
3377.097799992907
 30
0.0
 11
10934.62446573016
 21
3660.661041110026
 31
0.0
  0
LINE
  5
B095
330
A0CA
100
AcDbEntity
  8
寸法引出
 48
25.0
370
    -2
100
AcDbLine
 10
11894.62446573016
 20
3377.097799992907
 30
0.0
 11
11894.62446573016
 21
3660.661041110026
 31
0.0
  0
LINE
  5
B096
330
A0CA
100
AcDbEntity
  8
寸法引出
 48
25.0
370
    -2
100
AcDbLine
 10
10972.12446573016
 20
3648.161041110026
 30
0.0
 11
11857.12446573016
 21
3648.161041110026
 31
0.0
  0
SOLID
  5
B097
330
A0CA
100
AcDbEntity
  8
寸法引出
 48
25.0
100
AcDbTrace
 10
10972.12446573016
 20
3654.411041110026
 30
0.0
 11
10972.12446573016
 21
3641.911041110026
 31
0.0
 12
10934.62446573016
 22
3648.161041110026
 32
0.0
 13
10934.62446573016
 23
3648.161041110026
 33
0.0
  0
SOLID
  5
B098
330
A0CA
100
AcDbEntity
  8
寸法引出
 48
25.0
100
AcDbTrace
 10
11857.12446573016
 20
3654.411041110026
 30
0.0
 11
11857.12446573016
 21
3641.911041110026
 31
0.0
 12
11894.62446573016
 22
3648.161041110026
 32
0.0
 13
11894.62446573016
 23
3648.161041110026
 33
0.0
  0
MTEXT
  5
B099
330
A0CA
100
AcDbEntity
  8
寸法引出
 48
25.0
100
AcDbMText
 10
11414.62446573016
 20
3698.161041110026
 30
0.0
 40
50.0
 41
0.0
 71
     5
 72
     1
  1
\A1;960
  7
SANWA
 73
     1
 44
1.0
  0
POINT
  5
B09A
330
A0CA
100
AcDbEntity
  8
DEFPOINTS
 62
     0
 48
25.0
100
AcDbPoint
 10
10934.62446573016
 20
3352.097799992907
 30
0.0
  0
POINT
  5
B09B
330
A0CA
100
AcDbEntity
  8
DEFPOINTS
 62
     0
 48
25.0
100
AcDbPoint
 10
11894.62446573016
 20
3352.097799992907
 30
0.0
  0
POINT
  5
B09C
330
A0CA
100
AcDbEntity
  8
DEFPOINTS
 62
     0
 48
25.0
100
AcDbPoint
 10
11894.62446573016
 20
3648.161041110026
 30
0.0
  0
ENDBLK
  5
A0D5
330
A0CA
100
AcDbEntity
  8
0
 48
25.0
100
AcDbBlockEnd
  0
BLOCK
  5
A104
330
A0FA
100
AcDbEntity
  8
0
 48
25.0
100
AcDbBlockBegin
  2
*D51
 70
     1
 10
0.0
 20
0.0
 30
0.0
  3
*D51
  1

  0
LINE
  5
AFD0
330
A0FA
100
AcDbEntity
  8
寸法引出
 48
25.0
370
    -2
100
AcDbLine
 10
13119.66674059408
 20
3377.097799992907
 30
0.0
 11
13119.66674059408
 21
3660.661041110026
 31
0.0
  0
LINE
  5
AFD1
330
A0FA
100
AcDbEntity
  8
寸法引出
 48
25.0
370
    -2
100
AcDbLine
 10
15119.66674059408
 20
3377.097799992907
 30
0.0
 11
15119.66674059408
 21
3660.661041110026
 31
0.0
  0
LINE
  5
AFD2
330
A0FA
100
AcDbEntity
  8
寸法引出
 48
25.0
370
    -2
100
AcDbLine
 10
13157.16674059408
 20
3648.161041110026
 30
0.0
 11
15082.16674059408
 21
3648.161041110026
 31
0.0
  0
SOLID
  5
AFD3
330
A0FA
100
AcDbEntity
  8
寸法引出
 48
25.0
100
AcDbTrace
 10
13157.16674059408
 20
3654.411041110026
 30
0.0
 11
13157.16674059408
 21
3641.911041110026
 31
0.0
 12
13119.66674059408
 22
3648.161041110026
 32
0.0
 13
13119.66674059408
 23
3648.161041110026
 33
0.0
  0
SOLID
  5
AFD4
330
A0FA
100
AcDbEntity
  8
寸法引出
 48
25.0
100
AcDbTrace
 10
15082.16674059408
 20
3654.411041110026
 30
0.0
 11
15082.16674059408
 21
3641.911041110026
 31
0.0
 12
15119.66674059408
 22
3648.161041110026
 32
0.0
 13
15119.66674059408
 23
3648.161041110026
 33
0.0
  0
MTEXT
  5
AFD5
330
A0FA
100
AcDbEntity
  8
寸法引出
 48
25.0
100
AcDbMText
 10
14119.66674059408
 20
3698.161041110026
 30
0.0
 40
50.0
 41
0.0
 71
     5
 72
     1
  1
\A1;2000
  7
SANWA
 73
     1
 44
1.0
  0
POINT
  5
AFD6
330
A0FA
100
AcDbEntity
  8
DEFPOINTS
 62
     0
 48
25.0
100
AcDbPoint
 10
13119.66674059408
 20
3352.097799992907
 30
0.0
  0
POINT
  5
AFD7
330
A0FA
100
AcDbEntity
  8
DEFPOINTS
 62
     0
 48
25.0
100
AcDbPoint
 10
15119.66674059408
 20
3352.097799992907
 30
0.0
  0
POINT
  5
AFD8
330
A0FA
100
AcDbEntity
  8
DEFPOINTS
 62
     0
 48
25.0
100
AcDbPoint
 10
15119.66674059408
 20
3648.161041110026
 30
0.0
  0
ENDBLK
  5
A105
330
A0FA
100
AcDbEntity
  8
0
 48
25.0
100
AcDbBlockEnd
  0
BLOCK
  5
A110
330
A106
100
AcDbEntity
  8
0
 48
25.0
100
AcDbBlockBegin
  2
*D52
 70
     1
 10
0.0
 20
0.0
 30
0.0
  3
*D52
  1

  0
LINE
  5
AFBE
330
A106
100
AcDbEntity
  8
寸法引出
 48
25.0
370
    -2
100
AcDbLine
 10
13094.66674059408
 20
3352.097799992907
 30
0.0
 11
12877.13255371884
 21
3352.097799992907
 31
0.0
  0
LINE
  5
AFBF
330
A106
100
AcDbEntity
  8
寸法引出
 48
25.0
370
    -2
100
AcDbLine
 10
13094.66674059408
 20
2252.097799992907
 30
0.0
 11
12877.13255371884
 21
2252.097799992907
 31
0.0
  0
LINE
  5
AFC0
330
A106
100
AcDbEntity
  8
寸法引出
 48
25.0
370
    -2
100
AcDbLine
 10
12889.63255371884
 20
3314.597799992907
 30
0.0
 11
12889.63255371884
 21
2289.597799992907
 31
0.0
  0
SOLID
  5
AFC1
330
A106
100
AcDbEntity
  8
寸法引出
 48
25.0
100
AcDbTrace
 10
12883.38255371884
 20
3314.597799992907
 30
0.0
 11
12895.88255371884
 21
3314.597799992907
 31
0.0
 12
12889.63255371884
 22
3352.097799992907
 32
0.0
 13
12889.63255371884
 23
3352.097799992907
 33
0.0
  0
SOLID
  5
AFC2
330
A106
100
AcDbEntity
  8
寸法引出
 48
25.0
100
AcDbTrace
 10
12883.38255371884
 20
2289.597799992907
 30
0.0
 11
12895.88255371884
 21
2289.597799992907
 31
0.0
 12
12889.63255371884
 22
2252.097799992907
 32
0.0
 13
12889.63255371884
 23
2252.097799992907
 33
0.0
  0
MTEXT
  5
AFC3
330
A106
100
AcDbEntity
  8
寸法引出
 48
25.0
100
AcDbMText
 10
12839.63255371884
 20
2802.097799992909
 30
0.0
 40
50.0
 41
0.0
 71
     5
 72
     1
  1
\A1;1100
  7
SANWA
 11
0.0000000000000001
 21
1.0
 31
0.0
 73
     1
 44
1.0
  0
POINT
  5
AFC4
330
A106
100
AcDbEntity
  8
DEFPOINTS
 62
     0
 48
25.0
100
AcDbPoint
 10
13119.66674059408
 20
3352.097799992907
 30
0.0
  0
POINT
  5
AFC5
330
A106
100
AcDbEntity
  8
DEFPOINTS
 62
     0
 48
25.0
100
AcDbPoint
 10
13119.66674059408
 20
2252.097799992907
 30
0.0
  0
POINT
  5
AFC6
330
A106
100
AcDbEntity
  8
DEFPOINTS
 62
     0
 48
25.0
100
AcDbPoint
 10
12889.63255371884
 20
2252.097799992907
 30
0.0
  0
ENDBLK
  5
A111
330
A106
100
AcDbEntity
  8
0
 48
25.0
100
AcDbBlockEnd
  0
BLOCK
  5
A11C
330
A112
100
AcDbEntity
  8
0
 48
25.0
100
AcDbBlockBegin
  2
*D53
 70
     1
 10
0.0
 20
0.0
 30
0.0
  3
*D53
  1

  0
LINE
  5
ADCC
330
A112
100
AcDbEntity
  8
寸法引出
 48
25.0
370
    -2
100
AcDbLine
 10
13094.66674059408
 20
2252.097799992907
 30
0.0
 11
12877.13255371884
 21
2252.097799992907
 31
0.0
  0
LINE
  5
ADCD
330
A112
100
AcDbEntity
  8
寸法引出
 48
25.0
370
    -2
100
AcDbLine
 10
13094.66674059408
 20
2102.097799992907
 30
0.0
 11
12877.13255371884
 21
2102.097799992907
 31
0.0
  0
LINE
  5
ADCE
330
A112
100
AcDbEntity
  8
寸法引出
 48
25.0
370
    -2
100
AcDbLine
 10
12889.63255371884
 20
2214.597799992906
 30
0.0
 11
12889.63255371884
 21
2139.597799992907
 31
0.0
  0
SOLID
  5
ADCF
330
A112
100
AcDbEntity
  8
寸法引出
 48
25.0
100
AcDbTrace
 10
12883.38255371884
 20
2214.597799992906
 30
0.0
 11
12895.88255371884
 21
2214.597799992906
 31
0.0
 12
12889.63255371884
 22
2252.097799992907
 32
0.0
 13
12889.63255371884
 23
2252.097799992907
 33
0.0
  0
SOLID
  5
ADD0
330
A112
100
AcDbEntity
  8
寸法引出
 48
25.0
100
AcDbTrace
 10
12883.38255371884
 20
2139.597799992907
 30
0.0
 11
12895.88255371884
 21
2139.597799992907
 31
0.0
 12
12889.63255371884
 22
2102.097799992907
 32
0.0
 13
12889.63255371884
 23
2102.097799992907
 33
0.0
  0
MTEXT
  5
ADD1
330
A112
100
AcDbEntity
  8
寸法引出
 48
25.0
100
AcDbMText
 10
12839.63255371884
 20
2177.097799992909
 30
0.0
 40
50.0
 41
0.0
 71
     5
 72
     1
  1
\A1;150
  7
SANWA
 11
0.0000000000000001
 21
1.0
 31
0.0
 73
     1
 44
1.0
  0
POINT
  5
ADD2
330
A112
100
AcDbEntity
  8
DEFPOINTS
 62
     0
 48
25.0
100
AcDbPoint
 10
13119.66674059408
 20
2252.097799992907
 30
0.0
  0
POINT
  5
ADD3
330
A112
100
AcDbEntity
  8
DEFPOINTS
 62
     0
 48
25.0
100
AcDbPoint
 10
13119.66674059408
 20
2102.097799992907
 30
0.0
  0
POINT
  5
ADD4
330
A112
100
AcDbEntity
  8
DEFPOINTS
 62
     0
 48
25.0
100
AcDbPoint
 10
12889.63255371884
 20
2102.097799992907
 30
0.0
  0
ENDBLK
  5
A11D
330
A112
100
AcDbEntity
  8
0
 48
25.0
100
AcDbBlockEnd
  0
BLOCK
  5
A1C0
330
A1B6
100
AcDbEntity
  8
0
 48
25.0
100
AcDbBlockBegin
  2
*D54
 70
     1
 10
0.0
 20
0.0
 30
0.0
  3
*D54
  1

  0
LINE
  5
B017
330
A1B6
100
AcDbEntity
  8
寸法引出
 48
25.0
370
    -2
100
AcDbLine
 10
13999.66674059408
 20
3427.097799992907
 30
0.0
 11
13999.66674059408
 21
3512.024509820146
 31
0.0
  0
LINE
  5
B018
330
A1B6
100
AcDbEntity
  8
寸法引出
 48
25.0
370
    -2
100
AcDbLine
 10
14239.66674059408
 20
3427.097799992907
 30
0.0
 11
14239.66674059408
 21
3512.024509820146
 31
0.0
  0
LINE
  5
B019
330
A1B6
100
AcDbEntity
  8
寸法引出
 48
25.0
370
    -2
100
AcDbLine
 10
14037.16674059408
 20
3499.524509820146
 30
0.0
 11
14202.16674059408
 21
3499.524509820146
 31
0.0
  0
SOLID
  5
B01A
330
A1B6
100
AcDbEntity
  8
寸法引出
 48
25.0
100
AcDbTrace
 10
14037.16674059408
 20
3505.774509820146
 30
0.0
 11
14037.16674059408
 21
3493.274509820146
 31
0.0
 12
13999.66674059408
 22
3499.524509820146
 32
0.0
 13
13999.66674059408
 23
3499.524509820146
 33
0.0
  0
SOLID
  5
B01B
330
A1B6
100
AcDbEntity
  8
寸法引出
 48
25.0
100
AcDbTrace
 10
14202.16674059408
 20
3505.774509820146
 30
0.0
 11
14202.16674059408
 21
3493.274509820146
 31
0.0
 12
14239.66674059408
 22
3499.524509820146
 32
0.0
 13
14239.66674059408
 23
3499.524509820146
 33
0.0
  0
MTEXT
  5
B01C
330
A1B6
100
AcDbEntity
  8
寸法引出
 48
25.0
100
AcDbMText
 10
14119.66674059408
 20
3549.524509820146
 30
0.0
 40
50.0
 41
0.0
 71
     5
 72
     1
  1
\A1;240
  7
SANWA
 73
     1
 44
1.0
  0
POINT
  5
B01D
330
A1B6
100
AcDbEntity
  8
DEFPOINTS
 62
     0
 48
25.0
100
AcDbPoint
 10
13999.66674059408
 20
3402.097799992907
 30
0.0
  0
POINT
  5
B01E
330
A1B6
100
AcDbEntity
  8
DEFPOINTS
 62
     0
 48
25.0
100
AcDbPoint
 10
14239.66674059408
 20
3402.097799992907
 30
0.0
  0
POINT
  5
B01F
330
A1B6
100
AcDbEntity
  8
DEFPOINTS
 62
     0
 48
25.0
100
AcDbPoint
 10
14239.66674059408
 20
3499.524509820146
 30
0.0
  0
ENDBLK
  5
A1C1
330
A1B6
100
AcDbEntity
  8
0
 48
25.0
100
AcDbBlockEnd
  0
BLOCK
  5
A1CC
330
A1C2
100
AcDbEntity
  8
0
 48
25.0
100
AcDbBlockBegin
  2
*D55
 70
     1
 10
0.0
 20
0.0
 30
0.0
  3
*D55
  1

  0
LINE
  5
B00E
330
A1C2
100
AcDbEntity
  8
寸法引出
 48
25.0
370
    -2
100
AcDbLine
 10
14239.66674059408
 20
3427.097799992907
 30
0.0
 11
14239.66674059408
 21
3512.024509820146
 31
0.0
  0
LINE
  5
B00F
330
A1C2
100
AcDbEntity
  8
寸法引出
 48
25.0
370
    -2
100
AcDbLine
 10
14999.66674059408
 20
3427.097799992907
 30
0.0
 11
14999.66674059408
 21
3512.024509820146
 31
0.0
  0
LINE
  5
B010
330
A1C2
100
AcDbEntity
  8
寸法引出
 48
25.0
370
    -2
100
AcDbLine
 10
14277.16674059408
 20
3499.524509820146
 30
0.0
 11
14962.16674059408
 21
3499.524509820146
 31
0.0
  0
SOLID
  5
B011
330
A1C2
100
AcDbEntity
  8
寸法引出
 48
25.0
100
AcDbTrace
 10
14277.16674059408
 20
3505.774509820146
 30
0.0
 11
14277.16674059408
 21
3493.274509820146
 31
0.0
 12
14239.66674059408
 22
3499.524509820146
 32
0.0
 13
14239.66674059408
 23
3499.524509820146
 33
0.0
  0
SOLID
  5
B012
330
A1C2
100
AcDbEntity
  8
寸法引出
 48
25.0
100
AcDbTrace
 10
14962.16674059408
 20
3505.774509820146
 30
0.0
 11
14962.16674059408
 21
3493.274509820146
 31
0.0
 12
14999.66674059408
 22
3499.524509820146
 32
0.0
 13
14999.66674059408
 23
3499.524509820146
 33
0.0
  0
MTEXT
  5
B013
330
A1C2
100
AcDbEntity
  8
寸法引出
 48
25.0
100
AcDbMText
 10
14619.66674059408
 20
3549.524509820146
 30
0.0
 40
50.0
 41
0.0
 71
     5
 72
     1
  1
\A1;760
  7
SANWA
 73
     1
 44
1.0
  0
POINT
  5
B014
330
A1C2
100
AcDbEntity
  8
DEFPOINTS
 62
     0
 48
25.0
100
AcDbPoint
 10
14239.66674059408
 20
3402.097799992907
 30
0.0
  0
POINT
  5
B015
330
A1C2
100
AcDbEntity
  8
DEFPOINTS
 62
     0
 48
25.0
100
AcDbPoint
 10
14999.66674059408
 20
3402.097799992907
 30
0.0
  0
POINT
  5
B016
330
A1C2
100
AcDbEntity
  8
DEFPOINTS
 62
     0
 48
25.0
100
AcDbPoint
 10
14999.66674059408
 20
3499.524509820146
 30
0.0
  0
ENDBLK
  5
A1CD
330
A1C2
100
AcDbEntity
  8
0
 48
25.0
100
AcDbBlockEnd
  0
BLOCK
  5
A1DA
330
A1CE
100
AcDbEntity
  8
0
 48
25.0
100
AcDbBlockBegin
  2
*D56
 70
     1
 10
0.0
 20
0.0
 30
0.0
  3
*D56
  1

  0
LINE
  5
AFFA
330
A1CE
100
AcDbEntity
  8
寸法引出
 48
25.0
370
    -2
100
AcDbLine
 10
14999.66674059408
 20
3427.097799992907
 30
0.0
 11
14999.66674059408
 21
3512.024509820146
 31
0.0
  0
LINE
  5
AFFB
330
A1CE
100
AcDbEntity
  8
寸法引出
 48
25.0
370
    -2
100
AcDbLine
 10
15119.66674059408
 20
3377.097799992907
 30
0.0
 11
15119.66674059408
 21
3512.024509820146
 31
0.0
  0
LINE
  5
AFFC
330
A1CE
100
AcDbEntity
  8
寸法引出
 48
25.0
370
    -2
100
AcDbLine
 10
14962.16674059408
 20
3499.524509820146
 30
0.0
 11
14924.66674059408
 21
3499.524509820146
 31
0.0
  0
LINE
  5
AFFD
330
A1CE
100
AcDbEntity
  8
寸法引出
 48
25.0
370
    -2
100
AcDbLine
 10
15157.16674059408
 20
3499.524509820146
 30
0.0
 11
15194.66674059408
 21
3499.524509820146
 31
0.0
  0
LINE
  5
AFFE
330
A1CE
100
AcDbEntity
  8
寸法引出
 48
25.0
370
    -2
100
AcDbLine
 10
14999.66674059408
 20
3499.524509820146
 30
0.0
 11
15119.66674059408
 21
3499.524509820146
 31
0.0
  0
SOLID
  5
AFFF
330
A1CE
100
AcDbEntity
  8
寸法引出
 48
25.0
100
AcDbTrace
 10
14962.16674059408
 20
3505.774509820146
 30
0.0
 11
14962.16674059408
 21
3493.274509820146
 31
0.0
 12
14999.66674059408
 22
3499.524509820146
 32
0.0
 13
14999.66674059408
 23
3499.524509820146
 33
0.0
  0
SOLID
  5
B000
330
A1CE
100
AcDbEntity
  8
寸法引出
 48
25.0
100
AcDbTrace
 10
15157.16674059408
 20
3505.774509820146
 30
0.0
 11
15157.16674059408
 21
3493.274509820146
 31
0.0
 12
15119.66674059408
 22
3499.524509820146
 32
0.0
 13
15119.66674059408
 23
3499.524509820146
 33
0.0
  0
MTEXT
  5
B001
330
A1CE
100
AcDbEntity
  8
寸法引出
 48
25.0
100
AcDbMText
 10
15059.66674059408
 20
3549.524509820146
 30
0.0
 40
50.0
 41
0.0
 71
     5
 72
     1
  1
\A1;120
  7
SANWA
 73
     1
 44
1.0
  0
POINT
  5
B002
330
A1CE
100
AcDbEntity
  8
DEFPOINTS
 62
     0
 48
25.0
100
AcDbPoint
 10
14999.66674059408
 20
3402.097799992907
 30
0.0
  0
POINT
  5
B003
330
A1CE
100
AcDbEntity
  8
DEFPOINTS
 62
     0
 48
25.0
100
AcDbPoint
 10
15119.66674059408
 20
3352.097799992907
 30
0.0
  0
POINT
  5
B004
330
A1CE
100
AcDbEntity
  8
DEFPOINTS
 62
     0
 48
25.0
100
AcDbPoint
 10
15119.66674059408
 20
3499.524509820146
 30
0.0
  0
ENDBLK
  5
A1DB
330
A1CE
100
AcDbEntity
  8
0
 48
25.0
100
AcDbBlockEnd
  0
BLOCK
  5
A1E6
330
A1DC
100
AcDbEntity
  8
0
 48
25.0
100
AcDbBlockBegin
  2
*D57
 70
     1
 10
0.0
 20
0.0
 30
0.0
  3
*D57
  1

  0
LINE
  5
AFC7
330
A1DC
100
AcDbEntity
  8
寸法引出
 48
25.0
370
    -2
100
AcDbLine
 10
13999.66674059408
 20
3427.097799992907
 30
0.0
 11
13999.66674059408
 21
3512.024509820146
 31
0.0
  0
LINE
  5
AFC8
330
A1DC
100
AcDbEntity
  8
寸法引出
 48
25.0
370
    -2
100
AcDbLine
 10
13239.66674059408
 20
3427.097799992907
 30
0.0
 11
13239.66674059408
 21
3512.024509820146
 31
0.0
  0
LINE
  5
AFC9
330
A1DC
100
AcDbEntity
  8
寸法引出
 48
25.0
370
    -2
100
AcDbLine
 10
13962.16674059408
 20
3499.524509820146
 30
0.0
 11
13277.16674059408
 21
3499.524509820146
 31
0.0
  0
SOLID
  5
AFCA
330
A1DC
100
AcDbEntity
  8
寸法引出
 48
25.0
100
AcDbTrace
 10
13962.16674059408
 20
3505.774509820146
 30
0.0
 11
13962.16674059408
 21
3493.274509820146
 31
0.0
 12
13999.66674059408
 22
3499.524509820146
 32
0.0
 13
13999.66674059408
 23
3499.524509820146
 33
0.0
  0
SOLID
  5
AFCB
330
A1DC
100
AcDbEntity
  8
寸法引出
 48
25.0
100
AcDbTrace
 10
13277.16674059408
 20
3505.774509820146
 30
0.0
 11
13277.16674059408
 21
3493.274509820146
 31
0.0
 12
13239.66674059408
 22
3499.524509820146
 32
0.0
 13
13239.66674059408
 23
3499.524509820146
 33
0.0
  0
MTEXT
  5
AFCC
330
A1DC
100
AcDbEntity
  8
寸法引出
 48
25.0
100
AcDbMText
 10
13619.66674059408
 20
3549.524509820146
 30
0.0
 40
50.0
 41
0.0
 71
     5
 72
     1
  1
\A1;760
  7
SANWA
 73
     1
 44
1.0
  0
POINT
  5
AFCD
330
A1DC
100
AcDbEntity
  8
DEFPOINTS
 62
     0
 48
25.0
100
AcDbPoint
 10
13999.66674059408
 20
3402.097799992907
 30
0.0
  0
POINT
  5
AFCE
330
A1DC
100
AcDbEntity
  8
DEFPOINTS
 62
     0
 48
25.0
100
AcDbPoint
 10
13239.66674059408
 20
3402.097799992907
 30
0.0
  0
POINT
  5
AFCF
330
A1DC
100
AcDbEntity
  8
DEFPOINTS
 62
     0
 48
25.0
100
AcDbPoint
 10
13239.66674059408
 20
3499.524509820146
 30
0.0
  0
ENDBLK
  5
A1E7
330
A1DC
100
AcDbEntity
  8
0
 48
25.0
100
AcDbBlockEnd
  0
BLOCK
  5
A1F4
330
A1E8
100
AcDbEntity
  8
0
 48
25.0
100
AcDbBlockBegin
  2
*D58
 70
     1
 10
0.0
 20
0.0
 30
0.0
  3
*D58
  1

  0
LINE
  5
AFD9
330
A1E8
100
AcDbEntity
  8
寸法引出
 48
25.0
370
    -2
100
AcDbLine
 10
13239.66674059408
 20
3427.097799992907
 30
0.0
 11
13239.66674059408
 21
3512.024509820146
 31
0.0
  0
LINE
  5
AFDA
330
A1E8
100
AcDbEntity
  8
寸法引出
 48
25.0
370
    -2
100
AcDbLine
 10
13119.66674059408
 20
3377.097799992907
 30
0.0
 11
13119.66674059408
 21
3512.024509820146
 31
0.0
  0
LINE
  5
AFDB
330
A1E8
100
AcDbEntity
  8
寸法引出
 48
25.0
370
    -2
100
AcDbLine
 10
13277.16674059408
 20
3499.524509820146
 30
0.0
 11
13314.66674059408
 21
3499.524509820146
 31
0.0
  0
LINE
  5
AFDC
330
A1E8
100
AcDbEntity
  8
寸法引出
 48
25.0
370
    -2
100
AcDbLine
 10
13082.16674059408
 20
3499.524509820146
 30
0.0
 11
13044.66674059408
 21
3499.524509820146
 31
0.0
  0
LINE
  5
AFDD
330
A1E8
100
AcDbEntity
  8
寸法引出
 48
25.0
370
    -2
100
AcDbLine
 10
13239.66674059408
 20
3499.524509820146
 30
0.0
 11
13119.66674059408
 21
3499.524509820146
 31
0.0
  0
SOLID
  5
AFDE
330
A1E8
100
AcDbEntity
  8
寸法引出
 48
25.0
100
AcDbTrace
 10
13277.16674059408
 20
3505.774509820146
 30
0.0
 11
13277.16674059408
 21
3493.274509820146
 31
0.0
 12
13239.66674059408
 22
3499.524509820146
 32
0.0
 13
13239.66674059408
 23
3499.524509820146
 33
0.0
  0
SOLID
  5
AFDF
330
A1E8
100
AcDbEntity
  8
寸法引出
 48
25.0
100
AcDbTrace
 10
13082.16674059408
 20
3505.774509820146
 30
0.0
 11
13082.16674059408
 21
3493.274509820146
 31
0.0
 12
13119.66674059408
 22
3499.524509820146
 32
0.0
 13
13119.66674059408
 23
3499.524509820146
 33
0.0
  0
MTEXT
  5
AFE0
330
A1E8
100
AcDbEntity
  8
寸法引出
 48
25.0
100
AcDbMText
 10
13179.66674059408
 20
3549.524509820146
 30
0.0
 40
50.0
 41
0.0
 71
     5
 72
     1
  1
\A1;120
  7
SANWA
 73
     1
 44
1.0
  0
POINT
  5
AFE1
330
A1E8
100
AcDbEntity
  8
DEFPOINTS
 62
     0
 48
25.0
100
AcDbPoint
 10
13239.66674059408
 20
3402.097799992907
 30
0.0
  0
POINT
  5
AFE2
330
A1E8
100
AcDbEntity
  8
DEFPOINTS
 62
     0
 48
25.0
100
AcDbPoint
 10
13119.66674059408
 20
3352.097799992907
 30
0.0
  0
POINT
  5
AFE3
330
A1E8
100
AcDbEntity
  8
DEFPOINTS
 62
     0
 48
25.0
100
AcDbPoint
 10
13119.66674059408
 20
3499.524509820146
 30
0.0
  0
ENDBLK
  5
A1F5
330
A1E8
100
AcDbEntity
  8
0
 48
25.0
100
AcDbBlockEnd
  0
BLOCK
  5
A674
330
A668
100
AcDbEntity
  8
0
 48
25.0
100
AcDbBlockBegin
  2
*D59
 70
     1
 10
0.0
 20
0.0
 30
0.0
  3
*D59
  1

  0
LINE
  5
ADD5
330
A668
100
AcDbEntity
  8
寸法引出
 48
25.0
370
    -2
100
AcDbLine
 10
15093.16674059408
 20
2077.097799992907
 30
0.0
 11
15093.16674059408
 21
1759.753498962096
 31
0.0
  0
LINE
  5
ADD6
330
A668
100
AcDbEntity
  8
寸法引出
 48
25.0
370
    -2
100
AcDbLine
 10
15119.66674059408
 20
2077.097799992907
 30
0.0
 11
15119.66674059408
 21
1759.753498962096
 31
0.0
  0
LINE
  5
ADD7
330
A668
100
AcDbEntity
  8
寸法引出
 48
25.0
370
    -2
100
AcDbLine
 10
15055.66674059408
 20
1772.253498962096
 30
0.0
 11
15018.16674059408
 21
1772.253498962096
 31
0.0
  0
LINE
  5
ADD8
330
A668
100
AcDbEntity
  8
寸法引出
 48
25.0
370
    -2
100
AcDbLine
 10
15157.16674059408
 20
1772.253498962096
 30
0.0
 11
15194.66674059408
 21
1772.253498962096
 31
0.0
  0
MTEXT
  5
ADD9
330
A668
100
AcDbEntity
  8
寸法引出
 48
25.0
100
AcDbMText
 10
15214.24343595464
 20
1822.660169748307
 30
0.0
 40
50.0
 41
0.0
 71
     5
 72
     1
  1
\A1;26.5
  7
SANWA
 73
     1
 44
1.0
  0
LINE
  5
ADDA
330
A668
100
AcDbEntity
  8
寸法引出
 48
25.0
370
    -2
100
AcDbLine
 10
15093.16674059408
 20
1772.253498962096
 30
0.0
 11
15119.66674059408
 21
1772.253498962096
 31
0.0
  0
SOLID
  5
ADDB
330
A668
100
AcDbEntity
  8
寸法引出
 48
25.0
100
AcDbTrace
 10
15055.66674059408
 20
1778.503498962096
 30
0.0
 11
15055.66674059408
 21
1766.003498962096
 31
0.0
 12
15093.16674059408
 22
1772.253498962096
 32
0.0
 13
15093.16674059408
 23
1772.253498962096
 33
0.0
  0
SOLID
  5
ADDC
330
A668
100
AcDbEntity
  8
寸法引出
 48
25.0
100
AcDbTrace
 10
15157.16674059408
 20
1778.503498962096
 30
0.0
 11
15157.16674059408
 21
1766.003498962096
 31
0.0
 12
15119.66674059408
 22
1772.253498962096
 32
0.0
 13
15119.66674059408
 23
1772.253498962096
 33
0.0
  0
POINT
  5
ADDD
330
A668
100
AcDbEntity
  8
DEFPOINTS
 62
     0
 48
25.0
100
AcDbPoint
 10
15093.16674059408
 20
2102.097799992907
 30
0.0
  0
POINT
  5
ADDE
330
A668
100
AcDbEntity
  8
DEFPOINTS
 62
     0
 48
25.0
100
AcDbPoint
 10
15119.66674059408
 20
2102.097799992907
 30
0.0
  0
POINT
  5
ADDF
330
A668
100
AcDbEntity
  8
DEFPOINTS
 62
     0
 48
25.0
100
AcDbPoint
 10
15119.66674059408
 20
1772.253498962096
 30
0.0
  0
ENDBLK
  5
A675
330
A668
100
AcDbEntity
  8
0
 48
25.0
100
AcDbBlockEnd
  0
BLOCK
  5
A690
330
A684
100
AcDbEntity
  8
0
 48
25.0
100
AcDbBlockBegin
  2
*D60
 70
     1
 10
0.0
 20
0.0
 30
0.0
  3
*D60
  1

  0
LINE
  5
ADC1
330
A684
100
AcDbEntity
  8
寸法引出
 48
25.0
370
    -2
100
AcDbLine
 10
13146.16674059408
 20
2077.097799992907
 30
0.0
 11
13146.16674059408
 21
1759.753498962096
 31
0.0
  0
LINE
  5
ADC2
330
A684
100
AcDbEntity
  8
寸法引出
 48
25.0
370
    -2
100
AcDbLine
 10
13119.66674059408
 20
2077.097799992907
 30
0.0
 11
13119.66674059408
 21
1759.753498962096
 31
0.0
  0
LINE
  5
ADC3
330
A684
100
AcDbEntity
  8
寸法引出
 48
25.0
370
    -2
100
AcDbLine
 10
13183.66674059408
 20
1772.253498962096
 30
0.0
 11
13221.16674059408
 21
1772.253498962096
 31
0.0
  0
LINE
  5
ADC4
330
A684
100
AcDbEntity
  8
寸法引出
 48
25.0
370
    -2
100
AcDbLine
 10
13082.16674059408
 20
1772.253498962096
 30
0.0
 11
13044.66674059408
 21
1772.253498962096
 31
0.0
  0
MTEXT
  5
ADC5
330
A684
100
AcDbEntity
  8
寸法引出
 48
25.0
100
AcDbMText
 10
13026.25553682542
 20
1822.087306976365
 30
0.0
 40
50.0
 41
0.0
 71
     5
 72
     1
  1
\A1;26.5
  7
SANWA
 73
     1
 44
1.0
  0
LINE
  5
ADC6
330
A684
100
AcDbEntity
  8
寸法引出
 48
25.0
370
    -2
100
AcDbLine
 10
13146.16674059408
 20
1772.253498962096
 30
0.0
 11
13119.66674059408
 21
1772.253498962096
 31
0.0
  0
SOLID
  5
ADC7
330
A684
100
AcDbEntity
  8
寸法引出
 48
25.0
100
AcDbTrace
 10
13183.66674059408
 20
1778.503498962096
 30
0.0
 11
13183.66674059408
 21
1766.003498962096
 31
0.0
 12
13146.16674059408
 22
1772.253498962096
 32
0.0
 13
13146.16674059408
 23
1772.253498962096
 33
0.0
  0
SOLID
  5
ADC8
330
A684
100
AcDbEntity
  8
寸法引出
 48
25.0
100
AcDbTrace
 10
13082.16674059408
 20
1778.503498962096
 30
0.0
 11
13082.16674059408
 21
1766.003498962096
 31
0.0
 12
13119.66674059408
 22
1772.253498962096
 32
0.0
 13
13119.66674059408
 23
1772.253498962096
 33
0.0
  0
POINT
  5
ADC9
330
A684
100
AcDbEntity
  8
DEFPOINTS
 62
     0
 48
25.0
100
AcDbPoint
 10
13146.16674059408
 20
2102.097799992907
 30
0.0
  0
POINT
  5
ADCA
330
A684
100
AcDbEntity
  8
DEFPOINTS
 62
     0
 48
25.0
100
AcDbPoint
 10
13119.66674059408
 20
2102.097799992907
 30
0.0
  0
POINT
  5
ADCB
330
A684
100
AcDbEntity
  8
DEFPOINTS
 62
     0
 48
25.0
100
AcDbPoint
 10
13119.66674059408
 20
1772.253498962096
 30
0.0
  0
ENDBLK
  5
A691
330
A684
100
AcDbEntity
  8
0
 48
25.0
100
AcDbBlockEnd
  0
BLOCK
  5
A72C
330
A720
100
AcDbEntity
  8
0
 48
25.0
100
AcDbBlockBegin
  2
*D61
 70
     1
 10
0.0
 20
0.0
 30
0.0
  3
*D61
  1

  0
LINE
  5
ADEB
330
A720
100
AcDbEntity
  8
寸法引出
 48
25.0
370
    -2
100
AcDbLine
 10
15144.66674059408
 20
2206.097799992906
 30
0.0
 11
15796.49770550749
 21
2206.097799992906
 31
0.0
  0
LINE
  5
ADEC
330
A720
100
AcDbEntity
  8
寸法引出
 48
25.0
370
    -2
100
AcDbLine
 10
15144.66674059408
 20
2150.097799992906
 30
0.0
 11
15796.49770550749
 21
2150.097799992905
 31
0.0
  0
LINE
  5
ADED
330
A720
100
AcDbEntity
  8
寸法引出
 48
25.0
370
    -2
100
AcDbLine
 10
15783.99770550749
 20
2243.597799992906
 30
0.0
 11
15783.99770550749
 21
2281.097799992906
 31
0.0
  0
LINE
  5
ADEE
330
A720
100
AcDbEntity
  8
寸法引出
 48
25.0
370
    -2
100
AcDbLine
 10
15783.99770550749
 20
2112.597799992906
 30
0.0
 11
15783.99770550749
 21
2075.097799992906
 31
0.0
  0
MTEXT
  5
ADEF
330
A720
100
AcDbEntity
  8
寸法引出
 48
25.0
100
AcDbMText
 10
15733.67425206932
 20
2255.536301987056
 30
0.0
 40
50.0
 41
0.0
 71
     5
 72
     1
  1
\A1;56
  7
SANWA
 11
0.0000000000000001
 21
1.0
 31
0.0
 73
     1
 44
1.0
  0
LINE
  5
ADF0
330
A720
100
AcDbEntity
  8
寸法引出
 48
25.0
370
    -2
100
AcDbLine
 10
15783.99770550749
 20
2206.097799992906
 30
0.0
 11
15783.99770550749
 21
2150.097799992905
 31
0.0
  0
SOLID
  5
ADF1
330
A720
100
AcDbEntity
  8
寸法引出
 48
25.0
100
AcDbTrace
 10
15777.74770550749
 20
2243.597799992906
 30
0.0
 11
15790.24770550749
 21
2243.597799992906
 31
0.0
 12
15783.99770550749
 22
2206.097799992906
 32
0.0
 13
15783.99770550749
 23
2206.097799992906
 33
0.0
  0
SOLID
  5
ADF2
330
A720
100
AcDbEntity
  8
寸法引出
 48
25.0
100
AcDbTrace
 10
15777.74770550749
 20
2112.597799992906
 30
0.0
 11
15790.24770550749
 21
2112.597799992906
 31
0.0
 12
15783.99770550749
 22
2150.097799992905
 32
0.0
 13
15783.99770550749
 23
2150.097799992905
 33
0.0
  0
POINT
  5
ADF3
330
A720
100
AcDbEntity
  8
DEFPOINTS
 62
     0
 48
25.0
100
AcDbPoint
 10
15119.66674059408
 20
2206.097799992906
 30
0.0
  0
POINT
  5
ADF4
330
A720
100
AcDbEntity
  8
DEFPOINTS
 62
     0
 48
25.0
100
AcDbPoint
 10
15119.66674059408
 20
2150.097799992906
 30
0.0
  0
POINT
  5
ADF5
330
A720
100
AcDbEntity
  8
DEFPOINTS
 62
     0
 48
25.0
100
AcDbPoint
 10
15783.99770550749
 20
2150.097799992905
 30
0.0
  0
ENDBLK
  5
A72D
330
A720
100
AcDbEntity
  8
0
 48
25.0
100
AcDbBlockEnd
  0
BLOCK
  5
A73B
330
A72F
100
AcDbEntity
  8
0
 48
25.0
100
AcDbBlockBegin
  2
*D62
 70
     1
 10
0.0
 20
0.0
 30
0.0
  3
*D62
  1

  0
LINE
  5
ADE0
330
A72F
100
AcDbEntity
  8
寸法引出
 48
25.0
370
    -2
100
AcDbLine
 10
15144.66674059408
 20
2150.097799992906
 30
0.0
 11
15796.49770550749
 21
2150.097799992905
 31
0.0
  0
LINE
  5
ADE1
330
A72F
100
AcDbEntity
  8
寸法引出
 48
25.0
370
    -2
100
AcDbLine
 10
15144.66674059408
 20
2102.097799992907
 30
0.0
 11
15796.49770550749
 21
2102.097799992907
 31
0.0
  0
LINE
  5
ADE2
330
A72F
100
AcDbEntity
  8
寸法引出
 48
25.0
370
    -2
100
AcDbLine
 10
15783.99770550749
 20
2187.597799992905
 30
0.0
 11
15783.99770550749
 21
2225.097799992906
 31
0.0
  0
LINE
  5
ADE3
330
A72F
100
AcDbEntity
  8
寸法引出
 48
25.0
370
    -2
100
AcDbLine
 10
15783.99770550749
 20
2064.597799992907
 30
0.0
 11
15783.99770550749
 21
2027.097799992906
 31
0.0
  0
MTEXT
  5
ADE4
330
A72F
100
AcDbEntity
  8
寸法引出
 48
25.0
100
AcDbMText
 10
15733.86427185164
 20
2054.454795603162
 30
0.0
 40
50.0
 41
0.0
 71
     5
 72
     1
  1
\A1;48
  7
SANWA
 11
0.0000000000000001
 21
1.0
 31
0.0
 73
     1
 44
1.0
  0
LINE
  5
ADE5
330
A72F
100
AcDbEntity
  8
寸法引出
 48
25.0
370
    -2
100
AcDbLine
 10
15783.99770550749
 20
2150.097799992905
 30
0.0
 11
15783.99770550749
 21
2102.097799992907
 31
0.0
  0
SOLID
  5
ADE6
330
A72F
100
AcDbEntity
  8
寸法引出
 48
25.0
100
AcDbTrace
 10
15777.74770550749
 20
2187.597799992905
 30
0.0
 11
15790.24770550749
 21
2187.597799992905
 31
0.0
 12
15783.99770550749
 22
2150.097799992905
 32
0.0
 13
15783.99770550749
 23
2150.097799992905
 33
0.0
  0
SOLID
  5
ADE7
330
A72F
100
AcDbEntity
  8
寸法引出
 48
25.0
100
AcDbTrace
 10
15777.74770550749
 20
2064.597799992907
 30
0.0
 11
15790.24770550749
 21
2064.597799992907
 31
0.0
 12
15783.99770550749
 22
2102.097799992907
 32
0.0
 13
15783.99770550749
 23
2102.097799992907
 33
0.0
  0
POINT
  5
ADE8
330
A72F
100
AcDbEntity
  8
DEFPOINTS
 62
     0
 48
25.0
100
AcDbPoint
 10
15119.66674059408
 20
2150.097799992906
 30
0.0
  0
POINT
  5
ADE9
330
A72F
100
AcDbEntity
  8
DEFPOINTS
 62
     0
 48
25.0
100
AcDbPoint
 10
15119.66674059408
 20
2102.097799992907
 30
0.0
  0
POINT
  5
ADEA
330
A72F
100
AcDbEntity
  8
DEFPOINTS
 62
     0
 48
25.0
100
AcDbPoint
 10
15783.99770550749
 20
2102.097799992907
 30
0.0
  0
ENDBLK
  5
A73C
330
A72F
100
AcDbEntity
  8
0
 48
25.0
100
AcDbBlockEnd
  0
BLOCK
  5
A74A
330
A73E
100
AcDbEntity
  8
0
 48
25.0
100
AcDbBlockBegin
  2
*D63
 70
     1
 10
0.0
 20
0.0
 30
0.0
  3
*D63
  1

  0
LINE
  5
AFEF
330
A73E
100
AcDbEntity
  8
寸法引出
 48
25.0
370
    -2
100
AcDbLine
 10
15144.66674059408
 20
3332.097799992907
 30
0.0
 11
15796.49770550749
 21
3332.097799992907
 31
0.0
  0
LINE
  5
AFF0
330
A73E
100
AcDbEntity
  8
寸法引出
 48
25.0
370
    -2
100
AcDbLine
 10
15144.66674059408
 20
3352.097799992907
 30
0.0
 11
15796.49770550749
 21
3352.097799992906
 31
0.0
  0
LINE
  5
AFF1
330
A73E
100
AcDbEntity
  8
寸法引出
 48
25.0
370
    -2
100
AcDbLine
 10
15783.99770550749
 20
3294.597799992907
 30
0.0
 11
15783.99770550749
 21
3257.097799992907
 31
0.0
  0
LINE
  5
AFF2
330
A73E
100
AcDbEntity
  8
寸法引出
 48
25.0
370
    -2
100
AcDbLine
 10
15783.99770550749
 20
3389.597799992906
 30
0.0
 11
15783.99770550749
 21
3427.097799992906
 31
0.0
  0
MTEXT
  5
AFF3
330
A73E
100
AcDbEntity
  8
寸法引出
 48
25.0
100
AcDbMText
 10
15734.07789641972
 20
3399.327203232487
 30
0.0
 40
50.0
 41
0.0
 71
     5
 72
     1
  1
\A1;20
  7
SANWA
 11
0.0000000000000001
 21
1.0
 31
0.0
 73
     1
 44
1.0
  0
LINE
  5
AFF4
330
A73E
100
AcDbEntity
  8
寸法引出
 48
25.0
370
    -2
100
AcDbLine
 10
15783.99770550749
 20
3332.097799992907
 30
0.0
 11
15783.99770550749
 21
3352.097799992906
 31
0.0
  0
SOLID
  5
AFF5
330
A73E
100
AcDbEntity
  8
寸法引出
 48
25.0
100
AcDbTrace
 10
15777.74770550749
 20
3294.597799992907
 30
0.0
 11
15790.24770550749
 21
3294.597799992907
 31
0.0
 12
15783.99770550749
 22
3332.097799992907
 32
0.0
 13
15783.99770550749
 23
3332.097799992907
 33
0.0
  0
SOLID
  5
AFF6
330
A73E
100
AcDbEntity
  8
寸法引出
 48
25.0
100
AcDbTrace
 10
15777.74770550749
 20
3389.597799992906
 30
0.0
 11
15790.24770550749
 21
3389.597799992906
 31
0.0
 12
15783.99770550749
 22
3352.097799992906
 32
0.0
 13
15783.99770550749
 23
3352.097799992906
 33
0.0
  0
POINT
  5
AFF7
330
A73E
100
AcDbEntity
  8
DEFPOINTS
 62
     0
 48
25.0
100
AcDbPoint
 10
15119.66674059408
 20
3332.097799992907
 30
0.0
  0
POINT
  5
AFF8
330
A73E
100
AcDbEntity
  8
DEFPOINTS
 62
     0
 48
25.0
100
AcDbPoint
 10
15119.66674059408
 20
3352.097799992907
 30
0.0
  0
POINT
  5
AFF9
330
A73E
100
AcDbEntity
  8
DEFPOINTS
 62
     0
 48
25.0
100
AcDbPoint
 10
15783.99770550749
 20
3352.097799992906
 30
0.0
  0
ENDBLK
  5
A74B
330
A73E
100
AcDbEntity
  8
0
 48
25.0
100
AcDbBlockEnd
  0
BLOCK
  5
A9EB
330
A9E1
100
AcDbEntity
  8
0
 48
25.0
100
AcDbBlockBegin
  2
*D64
 70
     1
 10
0.0
 20
0.0
 30
0.0
  3
*D64
  1

  0
LINE
  5
ADA6
330
A9E1
100
AcDbEntity
  8
寸法引出
 48
25.0
370
    -2
100
AcDbLine
 10
15144.66674059408
 20
2206.097799992906
 30
0.0
 11
15796.49770550749
 21
2206.097799992906
 31
0.0
  0
LINE
  5
ADA7
330
A9E1
100
AcDbEntity
  8
寸法引出
 48
25.0
370
    -2
100
AcDbLine
 10
15144.66674059408
 20
2956.097799992906
 30
0.0
 11
15796.49770550749
 21
2956.097799992906
 31
0.0
  0
LINE
  5
ADA8
330
A9E1
100
AcDbEntity
  8
寸法引出
 48
25.0
370
    -2
100
AcDbLine
 10
15783.99770550749
 20
2243.597799992906
 30
0.0
 11
15783.99770550749
 21
2918.597799992906
 31
0.0
  0
SOLID
  5
ADA9
330
A9E1
100
AcDbEntity
  8
寸法引出
 48
25.0
100
AcDbTrace
 10
15777.74770550749
 20
2243.597799992906
 30
0.0
 11
15790.24770550749
 21
2243.597799992906
 31
0.0
 12
15783.99770550749
 22
2206.097799992906
 32
0.0
 13
15783.99770550749
 23
2206.097799992906
 33
0.0
  0
SOLID
  5
ADAA
330
A9E1
100
AcDbEntity
  8
寸法引出
 48
25.0
100
AcDbTrace
 10
15777.74770550749
 20
2918.597799992906
 30
0.0
 11
15790.24770550749
 21
2918.597799992906
 31
0.0
 12
15783.99770550749
 22
2956.097799992906
 32
0.0
 13
15783.99770550749
 23
2956.097799992906
 33
0.0
  0
MTEXT
  5
ADAB
330
A9E1
100
AcDbEntity
  8
寸法引出
 48
25.0
100
AcDbMText
 10
15730.85484836463
 20
2581.097799992909
 30
0.0
 40
50.0
 41
0.0
 71
     5
 72
     1
  1
\A1;3@250=750
  7
SANWA
 11
0.0000000000000001
 21
1.0
 31
0.0
 73
     1
 44
1.0
  0
POINT
  5
ADAC
330
A9E1
100
AcDbEntity
  8
DEFPOINTS
 62
     0
 48
25.0
100
AcDbPoint
 10
15119.66674059408
 20
2206.097799992906
 30
0.0
  0
POINT
  5
ADAD
330
A9E1
100
AcDbEntity
  8
DEFPOINTS
 62
     0
 48
25.0
100
AcDbPoint
 10
15119.66674059408
 20
2956.097799992906
 30
0.0
  0
POINT
  5
ADAE
330
A9E1
100
AcDbEntity
  8
DEFPOINTS
 62
     0
 48
25.0
100
AcDbPoint
 10
15783.99770550749
 20
2956.097799992906
 30
0.0
  0
ENDBLK
  5
A9EC
330
A9E1
100
AcDbEntity
  8
0
 48
25.0
100
AcDbBlockEnd
  0
BLOCK
  5
AA29
330
AA1F
100
AcDbEntity
  8
0
 48
25.0
100
AcDbBlockBegin
  2
*D65
 70
     1
 10
0.0
 20
0.0
 30
0.0
  3
*D65
  1

  0
LINE
  5
AE95
330
AA1F
100
AcDbEntity
  8
0
 48
25.0
370
    -2
100
AcDbLine
 10
8009.437148883854
 20
3377.097799992907
 30
0.0
 11
8009.437148883854
 21
3461.105034592275
 31
0.0
  0
LINE
  5
AE96
330
AA1F
100
AcDbEntity
  8
0
 48
25.0
370
    -2
100
AcDbLine
 10
8809.437148883855
 20
3377.097799992907
 30
0.0
 11
8809.437148883855
 21
3461.105034592275
 31
0.0
  0
LINE
  5
AE97
330
AA1F
100
AcDbEntity
  8
0
 48
25.0
370
    -2
100
AcDbLine
 10
8046.937148883854
 20
3448.605034592275
 30
0.0
 11
8771.937148883855
 21
3448.605034592275
 31
0.0
  0
SOLID
  5
AE98
330
AA1F
100
AcDbEntity
  8
0
 48
25.0
100
AcDbTrace
 10
8046.937148883854
 20
3454.855034592275
 30
0.0
 11
8046.937148883854
 21
3442.355034592275
 31
0.0
 12
8009.437148883854
 22
3448.605034592275
 32
0.0
 13
8009.437148883854
 23
3448.605034592275
 33
0.0
  0
SOLID
  5
AE99
330
AA1F
100
AcDbEntity
  8
0
 48
25.0
100
AcDbTrace
 10
8771.937148883855
 20
3454.855034592275
 30
0.0
 11
8771.937148883855
 21
3442.355034592275
 31
0.0
 12
8809.437148883855
 22
3448.605034592275
 32
0.0
 13
8809.437148883855
 23
3448.605034592275
 33
0.0
  0
MTEXT
  5
AE9A
330
AA1F
100
AcDbEntity
  8
0
 48
25.0
100
AcDbMText
 10
8409.437148883855
 20
3498.605034592275
 30
0.0
 40
50.0
 41
0.0
 71
     5
 72
     1
  1
\A1;800
  7
SANWA
 73
     1
 44
1.0
  0
POINT
  5
AE9B
330
AA1F
100
AcDbEntity
  8
DEFPOINTS
 62
     0
 48
25.0
100
AcDbPoint
 10
8009.437148883854
 20
3352.097799992907
 30
0.0
  0
POINT
  5
AE9C
330
AA1F
100
AcDbEntity
  8
DEFPOINTS
 62
     0
 48
25.0
100
AcDbPoint
 10
8809.437148883855
 20
3352.097799992907
 30
0.0
  0
POINT
  5
AE9D
330
AA1F
100
AcDbEntity
  8
DEFPOINTS
 62
     0
 48
25.0
100
AcDbPoint
 10
8809.437148883855
 20
3448.605034592275
 30
0.0
  0
ENDBLK
  5
AA2A
330
AA1F
100
AcDbEntity
  8
0
 48
25.0
100
AcDbBlockEnd
  0
BLOCK
  5
AA36
330
AA2C
100
AcDbEntity
  8
0
 48
25.0
100
AcDbBlockBegin
  2
*D66
 70
     1
 10
0.0
 20
0.0
 30
0.0
  3
*D66
  1

  0
LINE
  5
AE9E
330
AA2C
100
AcDbEntity
  8
0
 48
25.0
370
    -2
100
AcDbLine
 10
8034.437148883855
 20
3352.097799992907
 30
0.0
 11
8311.13819242396
 21
3352.097799992907
 31
0.0
  0
LINE
  5
AE9F
330
AA2C
100
AcDbEntity
  8
0
 48
25.0
370
    -2
100
AcDbLine
 10
8239.150617763987
 20
2252.097799992907
 30
0.0
 11
8311.13819242396
 21
2252.097799992907
 31
0.0
  0
LINE
  5
AEA0
330
AA2C
100
AcDbEntity
  8
0
 48
25.0
370
    -2
100
AcDbLine
 10
8298.638192423961
 20
3314.597799992907
 30
0.0
 11
8298.638192423961
 21
2289.597799992907
 31
0.0
  0
SOLID
  5
AEA1
330
AA2C
100
AcDbEntity
  8
0
 48
25.0
100
AcDbTrace
 10
8292.388192423961
 20
3314.597799992907
 30
0.0
 11
8304.888192423961
 21
3314.597799992907
 31
0.0
 12
8298.638192423961
 22
3352.097799992907
 32
0.0
 13
8298.638192423961
 23
3352.097799992907
 33
0.0
  0
SOLID
  5
AEA2
330
AA2C
100
AcDbEntity
  8
0
 48
25.0
100
AcDbTrace
 10
8292.388192423961
 20
2289.597799992907
 30
0.0
 11
8304.888192423961
 21
2289.597799992907
 31
0.0
 12
8298.638192423961
 22
2252.097799992907
 32
0.0
 13
8298.638192423961
 23
2252.097799992907
 33
0.0
  0
MTEXT
  5
AEA3
330
AA2C
100
AcDbEntity
  8
0
 48
25.0
100
AcDbMText
 10
8248.63819242396
 20
2802.097799992909
 30
0.0
 40
50.0
 41
0.0
 71
     5
 72
     1
  1
\A1;1100
  7
SANWA
 11
0.0000000000000001
 21
1.0
 31
0.0
 73
     1
 44
1.0
  0
POINT
  5
AEA4
330
AA2C
100
AcDbEntity
  8
DEFPOINTS
 62
     0
 48
25.0
100
AcDbPoint
 10
8009.437148883854
 20
3352.097799992907
 30
0.0
  0
POINT
  5
AEA5
330
AA2C
100
AcDbEntity
  8
DEFPOINTS
 62
     0
 48
25.0
100
AcDbPoint
 10
8214.150617763989
 20
2252.097799992907
 30
0.0
  0
POINT
  5
AEA6
330
AA2C
100
AcDbEntity
  8
DEFPOINTS
 62
     0
 48
25.0
100
AcDbPoint
 10
8298.638192423961
 20
2252.097799992907
 30
0.0
  0
ENDBLK
  5
AA37
330
AA2C
100
AcDbEntity
  8
0
 48
25.0
100
AcDbBlockEnd
  0
BLOCK
  5
AA95
330
AA8B
100
AcDbEntity
  8
0
 48
25.0
100
AcDbBlockBegin
  2
*D67
 70
     1
 10
0.0
 20
0.0
 30
0.0
  3
*D67
  1

  0
LINE
  5
ADB8
330
AA8B
100
AcDbEntity
  8
寸法引出
 48
25.0
370
    -2
100
AcDbLine
 10
13146.16674059408
 20
2077.097799992907
 30
0.0
 11
13146.16674059408
 21
1759.753498962096
 31
0.0
  0
LINE
  5
ADB9
330
AA8B
100
AcDbEntity
  8
寸法引出
 48
25.0
370
    -2
100
AcDbLine
 10
15093.16674059408
 20
2077.097799992907
 30
0.0
 11
15093.16674059408
 21
1759.753498962096
 31
0.0
  0
LINE
  5
ADBA
330
AA8B
100
AcDbEntity
  8
寸法引出
 48
25.0
370
    -2
100
AcDbLine
 10
13183.66674059408
 20
1772.253498962096
 30
0.0
 11
15055.66674059408
 21
1772.253498962096
 31
0.0
  0
SOLID
  5
ADBB
330
AA8B
100
AcDbEntity
  8
寸法引出
 48
25.0
100
AcDbTrace
 10
13183.66674059408
 20
1778.503498962096
 30
0.0
 11
13183.66674059408
 21
1766.003498962096
 31
0.0
 12
13146.16674059408
 22
1772.253498962096
 32
0.0
 13
13146.16674059408
 23
1772.253498962096
 33
0.0
  0
SOLID
  5
ADBC
330
AA8B
100
AcDbEntity
  8
寸法引出
 48
25.0
100
AcDbTrace
 10
15055.66674059408
 20
1778.503498962096
 30
0.0
 11
15055.66674059408
 21
1766.003498962096
 31
0.0
 12
15093.16674059408
 22
1772.253498962096
 32
0.0
 13
15093.16674059408
 23
1772.253498962096
 33
0.0
  0
MTEXT
  5
ADBD
330
AA8B
100
AcDbEntity
  8
寸法引出
 48
25.0
100
AcDbMText
 10
14119.66674059408
 20
1825.396356104953
 30
0.0
 40
50.0
 41
0.0
 71
     5
 72
     1
  1
\A1;11@177=1947
  7
SANWA
 73
     1
 44
1.0
  0
POINT
  5
ADBE
330
AA8B
100
AcDbEntity
  8
DEFPOINTS
 62
     0
 48
25.0
100
AcDbPoint
 10
13146.16674059408
 20
2102.097799992907
 30
0.0
  0
POINT
  5
ADBF
330
AA8B
100
AcDbEntity
  8
DEFPOINTS
 62
     0
 48
25.0
100
AcDbPoint
 10
15093.16674059408
 20
2102.097799992907
 30
0.0
  0
POINT
  5
ADC0
330
AA8B
100
AcDbEntity
  8
DEFPOINTS
 62
     0
 48
25.0
100
AcDbPoint
 10
15093.16674059408
 20
1772.253498962096
 30
0.0
  0
ENDBLK
  5
AA96
330
AA8B
100
AcDbEntity
  8
0
 48
25.0
100
AcDbBlockEnd
  0
BLOCK
  5
AADE
330
AAD2
100
AcDbEntity
  8
0
 48
25.0
100
AcDbBlockBegin
  2
*D68
 70
     1
 10
0.0
 20
0.0
 30
0.0
  3
*D68
  1

  0
LINE
  5
AFE4
330
AAD2
100
AcDbEntity
  8
寸法引出
 48
25.0
370
    -2
100
AcDbLine
 10
15144.66674059408
 20
3282.097799992907
 30
0.0
 11
15796.49770550749
 21
3282.097799992907
 31
0.0
  0
LINE
  5
AFE5
330
AAD2
100
AcDbEntity
  8
寸法引出
 48
25.0
370
    -2
100
AcDbLine
 10
15144.66674059408
 20
3332.097799992907
 30
0.0
 11
15796.49770550749
 21
3332.097799992907
 31
0.0
  0
LINE
  5
AFE6
330
AAD2
100
AcDbEntity
  8
寸法引出
 48
25.0
370
    -2
100
AcDbLine
 10
15783.99770550749
 20
3244.597799992907
 30
0.0
 11
15783.99770550749
 21
3207.097799992907
 31
0.0
  0
LINE
  5
AFE7
330
AAD2
100
AcDbEntity
  8
寸法引出
 48
25.0
370
    -2
100
AcDbLine
 10
15783.99770550749
 20
3369.597799992907
 30
0.0
 11
15783.99770550749
 21
3407.097799992907
 31
0.0
  0
MTEXT
  5
AFE8
330
AAD2
100
AcDbEntity
  8
寸法引出
 48
25.0
100
AcDbMText
 10
15733.99770550749
 20
3275.847799992907
 30
0.0
 40
50.0
 41
0.0
 71
     5
 72
     1
  1
\A1;50
  7
SANWA
 11
0.0000000000000001
 21
1.0
 31
0.0
 73
     1
 44
1.0
  0
LINE
  5
AFE9
330
AAD2
100
AcDbEntity
  8
寸法引出
 48
25.0
370
    -2
100
AcDbLine
 10
15783.99770550749
 20
3282.097799992907
 30
0.0
 11
15783.99770550749
 21
3332.097799992907
 31
0.0
  0
SOLID
  5
AFEA
330
AAD2
100
AcDbEntity
  8
寸法引出
 48
25.0
100
AcDbTrace
 10
15777.74770550749
 20
3244.597799992907
 30
0.0
 11
15790.24770550749
 21
3244.597799992907
 31
0.0
 12
15783.99770550749
 22
3282.097799992907
 32
0.0
 13
15783.99770550749
 23
3282.097799992907
 33
0.0
  0
SOLID
  5
AFEB
330
AAD2
100
AcDbEntity
  8
寸法引出
 48
25.0
100
AcDbTrace
 10
15777.74770550749
 20
3369.597799992907
 30
0.0
 11
15790.24770550749
 21
3369.597799992907
 31
0.0
 12
15783.99770550749
 22
3332.097799992907
 32
0.0
 13
15783.99770550749
 23
3332.097799992907
 33
0.0
  0
POINT
  5
AFEC
330
AAD2
100
AcDbEntity
  8
DEFPOINTS
 62
     0
 48
25.0
100
AcDbPoint
 10
15119.66674059408
 20
3282.097799992907
 30
0.0
  0
POINT
  5
AFED
330
AAD2
100
AcDbEntity
  8
DEFPOINTS
 62
     0
 48
25.0
100
AcDbPoint
 10
15119.66674059408
 20
3332.097799992907
 30
0.0
  0
POINT
  5
AFEE
330
AAD2
100
AcDbEntity
  8
DEFPOINTS
 62
     0
 48
25.0
100
AcDbPoint
 10
15783.99770550749
 20
3332.097799992907
 30
0.0
  0
ENDBLK
  5
AADF
330
AAD2
100
AcDbEntity
  8
0
 48
25.0
100
AcDbBlockEnd
  0
BLOCK
  5
AC71
330
AC67
100
AcDbEntity
  8
0
 48
25.0
100
AcDbBlockBegin
  2
*D69
 70
     1
 10
0.0
 20
0.0
 30
0.0
  3
*D69
  1

  0
LINE
  5
B020
330
AC67
100
AcDbEntity
  8
寸法引出
 48
25.0
370
    -2
100
AcDbLine
 10
15144.66674059408
 20
2956.097799992906
 30
0.0
 11
15796.49770550749
 21
2956.097799992906
 31
0.0
  0
LINE
  5
B021
330
AC67
100
AcDbEntity
  8
寸法引出
 48
25.0
370
    -2
100
AcDbLine
 10
15144.66674059408
 20
3282.097799992907
 30
0.0
 11
15796.49770550749
 21
3282.097799992907
 31
0.0
  0
LINE
  5
B022
330
AC67
100
AcDbEntity
  8
寸法引出
 48
25.0
370
    -2
100
AcDbLine
 10
15783.99770550749
 20
2993.597799992906
 30
0.0
 11
15783.99770550749
 21
3244.597799992907
 31
0.0
  0
SOLID
  5
B023
330
AC67
100
AcDbEntity
  8
寸法引出
 48
25.0
100
AcDbTrace
 10
15777.74770550749
 20
2993.597799992906
 30
0.0
 11
15790.24770550749
 21
2993.597799992906
 31
0.0
 12
15783.99770550749
 22
2956.097799992906
 32
0.0
 13
15783.99770550749
 23
2956.097799992906
 33
0.0
  0
SOLID
  5
B024
330
AC67
100
AcDbEntity
  8
寸法引出
 48
25.0
100
AcDbTrace
 10
15777.74770550749
 20
3244.597799992907
 30
0.0
 11
15790.24770550749
 21
3244.597799992907
 31
0.0
 12
15783.99770550749
 22
3282.097799992907
 32
0.0
 13
15783.99770550749
 23
3282.097799992907
 33
0.0
  0
MTEXT
  5
B025
330
AC67
100
AcDbEntity
  8
寸法引出
 48
25.0
100
AcDbMText
 10
15690.18818169797
 20
3119.097799992909
 30
0.0
 40
50.0
 41
0.0
 71
     5
 72
     1
  1
\A1;2@163\P=326
  7
SANWA
 11
0.0000000000000001
 21
1.0
 31
0.0
 73
     1
 44
1.0
  0
POINT
  5
B026
330
AC67
100
AcDbEntity
  8
DEFPOINTS
 62
     0
 48
25.0
100
AcDbPoint
 10
15119.66674059408
 20
2956.097799992906
 30
0.0
  0
POINT
  5
B027
330
AC67
100
AcDbEntity
  8
DEFPOINTS
 62
     0
 48
25.0
100
AcDbPoint
 10
15119.66674059408
 20
3282.097799992907
 30
0.0
  0
POINT
  5
B028
330
AC67
100
AcDbEntity
  8
DEFPOINTS
 62
     0
 48
25.0
100
AcDbPoint
 10
15783.99770550749
 20
3282.097799992907
 30
0.0
  0
ENDBLK
  5
AC72
330
AC67
100
AcDbEntity
  8
0
 48
25.0
100
AcDbBlockEnd
  0
ENDSEC
  0
SECTION
  2
ENTITIES
  0
LINE
  5
7E23
330
747D
100
AcDbEntity
  8
0
 62
     0
100
AcDbLine
 10
5337.553188460971
 20
450.0000004859534
 30
0.0
 11
5997.553188460984
 21
450.0000004859534
 31
0.0
  0
TEXT
  5
7E24
330
747D
100
AcDbEntity
  8
0
100
AcDbText
 10
5554.184891859878
 20
622.1493387010893
 30
0.0
 40
40.0
  1
１：２５
  7
SANWA
100
AcDbText
  0
CIRCLE
  5
7E26
330
747D
100
AcDbEntity
  8
0
100
AcDbCircle
 10
5532.353861977936
 20
121.5279943159534
 30
0.0
 40
79.97521057257928
  0
CIRCLE
  5
7E27
330
747D
100
AcDbEntity
  8
0
100
AcDbCircle
 10
5532.353861977936
 20
121.5279943159534
 30
0.0
 40
75.97521057257927
  0
HATCH
  5
7E28
330
747D
100
AcDbEntity
  8
0
100
AcDbHatch
 10
0.0
 20
0.0
 30
0.0
210
0.0
220
0.0
230
1.0
  2
SOLID
 70
     1
 71
     0
 91
        4
 92
        7
 72
     1
 73
     1
 93
        2
 10
5612.329072550515
 20
121.5279943159534
 42
1.0
 10
5452.378651405358
 20
121.5279943159534
 42
1.0
 97
        0
 92
       22
 72
     1
 73
     1
 93
        2
 10
5608.329072550516
 20
121.5279943159534
 42
-1.0
 10
5456.378651405358
 20
121.5279943159534
 42
-1.0
 97
        0
 92
      136
 93
        4
 72
     1
 10
5491.556705023309
 20
113.8021036013145
 11
5576.470990737593
 21
113.8021036013145
 72
     1
 10
5576.470990737593
 20
113.8021036013145
 11
5576.470990737593
 21
193.0021036013145
 72
     1
 10
5576.470990737593
 20
193.0021036013146
 11
5491.556705023309
 21
193.0021036013146
 72
     1
 10
5491.556705023309
 20
193.0021036013146
 11
5491.556705023309
 21
113.8021036013146
 97
        0
 92
      136
 93
        4
 72
     1
 10
5491.873230275826
 20
60.40852476635123
 11
5574.273230275826
 21
60.40852476635123
 72
     1
 10
5574.273230275824
 20
60.40852476635123
 11
5574.273230275824
 21
132.065667623494
 72
     1
 10
5574.273230275824
 20
132.0656676234941
 11
5491.873230275825
 21
132.0656676234941
 72
     1
 10
5491.873230275826
 20
132.0656676234941
 11
5491.873230275826
 21
60.40852476635127
 97
        0
 75
     0
 76
     1
 47
0.0602706122334892
 98
        2
 10
5570.671005088457
 20
190.2767461505836
 10
5570.671005088457
 20
190.2767461505836
  0
TEXT
  5
7E29
330
747D
100
AcDbEntity
  8
0
100
AcDbText
 10
5544.098118904003
 20
723.9731916029759
 30
0.0
 40
40.0
  1
縮    尺
  7
SANWA
100
AcDbText
  0
TEXT
  5
7E2A
330
747D
100
AcDbEntity
  8
0
100
AcDbText
 10
5542.345601697048
 20
928.7954774273307
 30
0.0
 40
40.0
  1
図面番号
  7
SANWA
100
AcDbText
  0
LINE
  5
7E2B
330
747D
100
AcDbEntity
  8
0
 62
     0
100
AcDbLine
 10
5337.553188460971
 20
710.0000004859557
 30
0.0
 11
5997.553188460984
 21
710.0000004859557
 31
0.0
  0
LINE
  5
7E2C
330
747D
100
AcDbEntity
  8
0
 62
     0
100
AcDbLine
 10
5337.553188460971
 20
790.0000004859625
 30
0.0
 11
5997.553188460984
 21
790.0000004859625
 31
0.0
  0
LINE
  5
7E2D
330
747D
100
AcDbEntity
  8
0
 62
     0
100
AcDbLine
 10
5337.553188460971
 20
910.0000004859557
 30
0.0
 11
5997.553188460984
 21
910.0000004859557
 31
0.0
  0
LINE
  5
7E2E
330
747D
100
AcDbEntity
  8
0
 62
     0
100
AcDbLine
 10
5337.553188460971
 20
910.0000004859557
 30
0.0
 11
5997.553188460984
 21
910.0000004859557
 31
0.0
  0
LINE
  5
7E2F
330
747D
100
AcDbEntity
  8
枠
100
AcDbLine
 10
624.9999969716336
 20
250.0000004859534
 30
0.0
 11
7174.999996971634
 21
250.0000004859534
 31
0.0
  0
LINE
  5
7E30
330
747D
100
AcDbEntity
  8
0
100
AcDbLine
 10
5337.553188460971
 20
510.0000004859557
 30
0.0
 11
7174.999996971634
 21
510.0000004859557
 31
0.0
  0
LINE
  5
7E31
330
747D
100
AcDbEntity
  8
0
 62
     0
100
AcDbLine
 10
5337.553188460971
 20
990.0000004859625
 30
0.0
 11
7174.999996971634
 21
990.0000004859625
 31
0.0
  0
LINE
  5
7E32
330
747D
100
AcDbEntity
  8
枠
100
AcDbLine
 10
624.9999969716336
 20
5000.000000485954
 30
0.0
 11
7174.999996971634
 21
5000.000000485954
 31
0.0
  0
LINE
  5
7E33
330
747D
100
AcDbEntity
  8
0
 62
     0
100
AcDbLine
 10
5337.553188460971
 20
570.000000485958
 30
0.0
 11
5997.553188460984
 21
570.000000485958
 31
0.0
  0
LINE
  5
7E34
330
747D
100
AcDbEntity
  8
枠
100
AcDbLine
 10
624.9999969716336
 20
250.0000004859534
 30
0.0
 11
624.9999969716336
 21
5000.000000485954
 31
0.0
  0
LINE
  5
7E35
330
747D
100
AcDbEntity
  8
0
100
AcDbLine
 10
-0.0000030283663364
 20
0.0000004859534783
 30
0.0
 11
-0.0000030283663364
 21
250.0000004859534
 31
0.0
  0
LINE
  5
7E36
330
747D
100
AcDbEntity
  8
0
100
AcDbLine
 10
624.9999969716336
 20
0.0000004859534783
 30
0.0
 11
-0.0000030283663364
 21
0.0000004859534783
 31
0.0
  0
TEXT
  5
7E37
330
747D
100
AcDbEntity
  8
0
100
AcDbText
 10
5391.248990378905
 20
522.0856321667602
 30
0.0
 40
40.0
  1
製図
  7
SANWA
100
AcDbText
  0
TEXT
  5
7E38
330
747D
100
AcDbEntity
  8
0
100
AcDbText
 10
5415.468685213383
 20
294.1947719693402
 30
0.0
 40
40.0
  1
口
  7
SANWA
100
AcDbText
  0
TEXT
  5
7E39
330
747D
100
AcDbEntity
  8
0
100
AcDbText
 10
5416.40930281803
 20
350.812790446399
 30
0.0
 40
40.0
  1
河
  7
SANWA
100
AcDbText
  0
CIRCLE
  5
7E3A
330
747D
100
AcDbEntity
  8
0
100
AcDbCircle
 10
5444.006459772659
 20
345.5277200138866
 30
0.0
 40
79.97521057257928
  0
CIRCLE
  5
7E3B
330
747D
100
AcDbEntity
  8
0
100
AcDbCircle
 10
5444.006459772659
 20
345.5277200138866
 30
0.0
 40
75.97521057257927
  0
HATCH
  5
7E3C
330
747D
100
AcDbEntity
  8
0
100
AcDbHatch
 10
0.0
 20
0.0
 30
0.0
210
0.0
220
0.0
230
1.0
  2
SOLID
 70
     1
 71
     0
 91
        2
 92
        7
 72
     1
 73
     1
 93
        2
 10
5523.981670345239
 20
345.5277200138866
 42
1.0
 10
5364.03124920008
 20
345.5277200138866
 42
1.0
 97
        0
 92
       22
 72
     1
 73
     1
 93
        2
 10
5519.98167034524
 20
345.5277200138866
 42
-1.0
 10
5368.031249200083
 20
345.5277200138866
 42
-1.0
 97
        0
 75
     0
 76
     1
 47
0.0602706122334892
 98
        2
 10
5482.32360288318
 20
414.2764718485168
 10
5482.32360288318
 20
414.2764718485168
  0
TEXT
  5
7E3D
330
747D
100
AcDbEntity
  8
0
100
AcDbText
 10
5503.816087418682
 20
77.83709619492265
 30
0.0
 40
40.0
  1
田
  7
SANWA
100
AcDbText
  0
TEXT
  5
7E3E
330
747D
100
AcDbEntity
  8
0
100
AcDbText
 10
5504.756705023306
 20
132.7163893156002
 30
0.0
 40
40.0
  1
蒔
  7
SANWA
100
AcDbText
  0
LINE
  5
7E3F
330
747D
100
AcDbEntity
  8
0
100
AcDbLine
 10
5557.553188460975
 20
250.0000004859534
 30
0.0
 11
5557.553188460975
 21
570.000000485958
 31
0.0
  0
TEXT
  5
7E40
330
747D
100
AcDbEntity
  8
0
100
AcDbText
 10
5385.360296860177
 20
459.6196590120362
 30
0.0
 40
40.0
  1
検図
  7
SANWA
100
AcDbText
  0
LINE
  5
7E41
330
747D
100
AcDbEntity
  8
0
100
AcDbLine
 10
5337.553188460971
 20
726.7609464657871
 30
0.0
 11
5337.553188460971
 21
882.1169120561071
 31
0.0
  0
LINE
  5
7E42
330
747D
100
AcDbEntity
  8
0
100
AcDbLine
 10
5337.553188460971
 20
670.000000485958
 30
0.0
 11
5337.553188460971
 21
726.7609464657871
 31
0.0
  0
LINE
  5
7E43
330
747D
100
AcDbEntity
  8
0
100
AcDbLine
 10
5337.553188460971
 20
570.000000485958
 30
0.0
 11
5337.553188460971
 21
510.0000004859557
 31
0.0
  0
LINE
  5
7E44
330
747D
100
AcDbEntity
  8
0
100
AcDbLine
 10
5337.553188460971
 20
630.0000004859603
 30
0.0
 11
5337.553188460971
 21
499.8919166688997
 31
0.0
  0
LINE
  5
7E45
330
747D
100
AcDbEntity
  8
0
100
AcDbLine
 10
5337.553188460971
 20
570.000000485958
 30
0.0
 11
5337.553188460971
 21
630.0000004859603
 31
0.0
  0
LINE
  5
7E46
330
747D
100
AcDbEntity
  8
0
100
AcDbLine
 10
5337.553188460971
 20
990.0000004859625
 30
0.0
 11
5337.553188460971
 21
870.000000485958
 31
0.0
  0
LINE
  5
7E47
330
747D
100
AcDbEntity
  8
0
 62
     0
100
AcDbLine
 10
5337.553188460971
 20
630.0000004859603
 30
0.0
 11
5337.553188460971
 21
250.0000004859534
 31
0.0
  0
LINE
  5
7E48
330
747D
100
AcDbEntity
  8
0
 62
     0
100
AcDbLine
 10
5337.553188460971
 20
870.000000485958
 30
0.0
 11
5337.553188460971
 21
630.0000004859603
 31
0.0
  0
LINE
  5
7E49
330
747D
100
AcDbEntity
  8
0
100
AcDbLine
 10
-0.0000030283663364
 20
5250.000000485954
 30
0.0
 11
624.9999969716336
 21
5250.000000485954
 31
0.0
  0
LINE
  5
7E4A
330
747D
100
AcDbEntity
  8
0
100
AcDbLine
 10
-0.0000030283663364
 20
5000.000000485954
 30
0.0
 11
-0.0000030283663364
 21
5250.000000485954
 31
0.0
  0
TEXT
  5
7E51
330
747D
100
AcDbEntity
  8
0
100
AcDbText
 10
5053.493819973249
 20
4544.491174999246
 30
0.0
 40
60.0
  1
W=1860㎏
  7
SANWA
 72
     4
 11
5229.036677116107
 21
4572.948317856389
 31
0.0
100
AcDbText
  0
TEXT
  5
7E52
330
747D
100
AcDbEntity
  8
0
100
AcDbText
 10
2469.942057731703
 20
4546.699274751772
 30
0.0
 40
70.00000000000001
  1
マルチスリット側溝 ８００×１１００×２０００
  7
SANWA
100
AcDbText
  0
LINE
  5
7E53
330
747D
100
AcDbEntity
  8
0
100
AcDbLine
 10
2394.578484799354
 20
4480.000000485961
 30
0.0
 11
5446.393689112686
 21
4480.000000485961
 31
0.0
  0
LINE
  5
7E54
330
747D
100
AcDbEntity
  8
0
100
AcDbLine
 10
2394.578484799354
 20
4500.000000485953
 30
0.0
 11
5446.393689112686
 21
4500.000000485953
 31
0.0
  0
LINE
  5
7E55
330
747D
100
AcDbEntity
  8
枠
100
AcDbLine
 10
7174.999996971634
 20
250.0000004859534
 30
0.0
 11
7174.999996971634
 21
5000.000000485954
 31
0.0
  0
TEXT
  5
7E56
330
747D
100
AcDbEntity
  8
0
100
AcDbText
 10
5648.287168553952
 20
516.2015228686838
 30
0.0
 40
40.0
  1
2006.11.24
  7
SANWA
100
AcDbText
  0
TEXT
  5
7E57
330
747D
100
AcDbEntity
  8
0
100
AcDbText
 10
6406.848021287746
 20
570.4571433431054
 30
0.0
 40
40.0
  1
800×1100×2000
  7
SANWA
 72
     4
 11
6626.276592716319
 21
590.0000004859625
 31
0.0
100
AcDbText
  0
TEXT
  5
7E59
330
747D
100
AcDbEntity
  8
0
100
AcDbText
 10
6362.962307002033
 20
890.0000004859558
 30
0.0
 40
40.0
  1
マルチスリット側溝
  7
SANWA
 72
     4
 11
6626.276592716319
 21
910.0000004859557
 31
0.0
100
AcDbText
  0
TEXT
  5
7E5A
330
747D
100
AcDbEntity
  8
0
100
AcDbText
 10
5906.406419025416
 20
78.24647172369532
 30
0.0
 40
40.0
  1
川
  7
SANWA
100
AcDbText
  0
CIRCLE
  5
7E5B
330
747D
100
AcDbEntity
  8
0
100
AcDbCircle
 10
5934.944193584693
 20
121.5279943159534
 30
0.0
 40
79.97521057257928
  0
CIRCLE
  5
7E5C
330
747D
100
AcDbEntity
  8
0
100
AcDbCircle
 10
5934.944193584693
 20
121.5279943159534
 30
0.0
 40
75.97521057257927
  0
TEXT
  5
7E5D
330
747D
100
AcDbEntity
  8
0
100
AcDbText
 10
5907.34703663004
 20
134.8644902007426
 30
0.0
 40
40.0
  1
中
  7
SANWA
100
AcDbText
  0
HATCH
  5
7E5E
330
747D
100
AcDbEntity
  8
0
100
AcDbHatch
 10
0.0
 20
0.0
 30
0.0
210
0.0
220
0.0
230
1.0
  2
SOLID
 70
     1
 71
     0
 91
        4
 92
        7
 72
     1
 73
     1
 93
        2
 10
6014.919404157272
 20
121.5279943159534
 42
1.0
 10
5854.968983012115
 20
121.5279943159534
 42
1.0
 97
        0
 92
       22
 72
     1
 73
     1
 93
        2
 10
6010.919404157273
 20
121.5279943159534
 42
-1.0
 10
5858.968983012115
 20
121.5279943159534
 42
-1.0
 97
        0
 92
      136
 93
        4
 72
     1
 10
5894.032750915756
 20
114.9216330578855
 11
5979.175608058613
 21
114.9216330578855
 72
     1
 10
5979.175608058611
 20
114.9216330578855
 11
5979.175608058611
 21
194.8073473435998
 72
     1
 10
5979.175608058611
 20
194.8073473435998
 11
5894.032750915754
 21
194.8073473435998
 72
     1
 10
5894.032750915756
 20
194.8073473435998
 11
5894.032750915756
 21
114.9216330578855
 97
        0
 92
      136
 93
        4
 72
     1
 10
5893.892133311133
 20
60.93218600940961
 11
5977.434990453989
 21
60.93218600940961
 72
     1
 10
5977.434990453989
 20
60.93218600940961
 11
5977.434990453989
 21
136.0179002951239
 72
     1
 10
5977.434990453989
 20
136.0179002951239
 11
5893.892133311133
 21
136.0179002951239
 72
     1
 10
5893.892133311133
 20
136.0179002951239
 11
5893.892133311133
 21
60.93218600940963
 97
        0
 75
     0
 76
     1
 47
0.0602706122334892
 98
        2
 10
5973.261336695214
 20
190.2767461505836
 10
5973.261336695214
 20
190.2767461505836
  0
TEXT
  5
7E5F
330
747D
100
AcDbEntity
  8
0
100
AcDbText
 10
5860.453265959023
 20
358.4563620353701
 30
0.0
 40
40.0
  1
大
  7
SANWA
100
AcDbText
  0
TEXT
  5
7E60
330
747D
100
AcDbEntity
  8
0
100
AcDbText
 10
5859.512648354376
 20
301.8383435583227
 30
0.0
 40
40.0
  1
嶋
  7
SANWA
100
AcDbText
  0
CIRCLE
  5
7E61
330
747D
100
AcDbEntity
  8
0
100
AcDbCircle
 10
5888.050422913653
 20
345.1198661505809
 30
0.0
 40
75.97521057257927
  0
CIRCLE
  5
7E62
330
747D
100
AcDbEntity
  8
0
100
AcDbCircle
 10
5888.050422913653
 20
345.1198661505809
 30
0.0
 40
79.97521057257928
  0
HATCH
  5
7E63
330
747D
100
AcDbEntity
  8
0
100
AcDbHatch
 10
0.0
 20
0.0
 30
0.0
210
0.0
220
0.0
230
1.0
  2
SOLID
 70
     1
 71
     0
 91
        4
 92
        7
 72
     1
 73
     1
 93
        2
 10
5968.025633486231
 20
345.1198661505809
 42
1.0
 10
5808.075212341074
 20
345.1198661505809
 42
1.0
 97
        0
 92
       22
 72
     1
 73
     1
 93
        2
 10
5964.025633486231
 20
345.1198661505809
 42
-1.0
 10
5812.075212341074
 20
345.1198661505809
 42
-1.0
 97
        0
 92
      136
 93
        4
 72
     1
 10
5847.767551673308
 20
342.113504892513
 11
5931.653265959023
 21
342.113504892513
 72
     1
 10
5931.653265959022
 20
342.113504892513
 11
5931.653265959022
 21
418.2277906067987
 72
     1
 10
5931.653265959022
 20
418.2277906067987
 11
5847.767551673307
 21
418.2277906067987
 72
     1
 10
5847.767551673308
 20
418.2277906067987
 11
5847.767551673308
 21
342.113504892513
 97
        0
 92
      136
 93
        4
 72
     1
 10
5846.198362640091
 20
282.5812007011799
 11
5931.341219782948
 21
282.5812007011799
 72
     1
 10
5931.341219782946
 20
282.5812007011799
 11
5931.341219782946
 21
362.4669149868941
 72
     1
 10
5931.341219782946
 20
362.4669149868941
 11
5846.198362640088
 21
362.4669149868941
 72
     1
 10
5846.198362640091
 20
362.4669149868941
 11
5846.198362640091
 21
282.5812007011798
 97
        0
 75
     0
 76
     1
 47
0.0602706122334892
 98
        2
 10
5926.367566024175
 20
413.8686179852111
 10
5926.367566024175
 20
413.8686179852111
  0
LINE
  5
7E64
330
747D
100
AcDbEntity
  8
0
 62
     0
100
AcDbLine
 10
5997.553188460984
 20
670.000000485958
 30
0.0
 11
7174.999996971634
 21
670.000000485958
 31
0.0
  0
LINE
  5
7E65
330
747D
100
AcDbEntity
  8
0
 62
     0
100
AcDbLine
 10
5997.553188460984
 20
830.0000004859603
 30
0.0
 11
7174.999996971634
 21
830.0000004859603
 31
0.0
  0
LINE
  5
7E67
330
747D
100
AcDbEntity
  8
0
100
AcDbLine
 10
6077.55318846098
 20
510.0000004859557
 30
0.0
 11
6077.55318846098
 21
990.0000004859625
 31
0.0
  0
TEXT
  5
7E68
330
747D
100
AcDbEntity
  8
0
100
AcDbText
 10
6015.480110187196
 20
541.5684867208474
 30
0.0
 40
27.99999999999999
  1
格
  7
SANWA
100
AcDbText
  0
TEXT
  5
7E69
330
747D
100
AcDbEntity
  8
0
100
AcDbText
 10
6015.480110187196
 20
601.1410260074162
 30
0.0
 40
27.99999999999999
  1
規
  7
SANWA
100
AcDbText
  0
TEXT
  5
7E6A
330
747D
100
AcDbEntity
  8
0
100
AcDbText
 10
6014.775606746503
 20
699.8772480771767
 30
0.0
 40
27.99999999999999
  1
名
  7
SANWA
100
AcDbText
  0
TEXT
  5
7E6B
330
747D
100
AcDbEntity
  8
0
100
AcDbText
 10
6014.208555116375
 20
739.054360487295
 30
0.0
 40
27.99999999999999
  1
び
  7
SANWA
100
AcDbText
  0
TEXT
  5
7E6C
330
747D
100
AcDbEntity
  8
0
100
AcDbText
 10
6014.605705818986
 20
777.3913659860673
 30
0.0
 40
27.99999999999999
  1
呼
  7
SANWA
100
AcDbText
  0
TEXT
  5
7E6D
330
747D
100
AcDbEntity
  8
0
100
AcDbText
 10
6014.721727967799
 20
868.3271058936034
 30
0.0
 40
27.99999999999999
  1
名
  7
SANWA
100
AcDbText
  0
TEXT
  5
7E6E
330
747D
100
AcDbEntity
  8
0
100
AcDbText
 10
6016.238492406593
 20
933.9614949643637
 30
0.0
 40
27.99999999999999
  1
品
  7
SANWA
100
AcDbText
  0
TEXT
  5
7E6F
330
747D
100
AcDbEntity
  8
0
100
AcDbText
 10
5615.126640014274
 20
461.8928634047838
 30
0.0
 40
40.0
  1
設計
  7
SANWA
100
AcDbText
  0
TEXT
  5
7E70
330
747D
100
AcDbEntity
  8
0
100
AcDbText
 10
5831.248990378913
 20
462.0856321667579
 30
0.0
 40
40.0
  1
製図
  7
SANWA
100
AcDbText
  0
LINE
  5
7E71
330
747D
100
AcDbEntity
  8
0
100
AcDbLine
 10
5997.553188460984
 20
990.0000004859625
 30
0.0
 11
6035.462117480712
 21
990.0000004859625
 31
0.0
  0
HATCH
  5
7E72
330
747D
100
AcDbEntity
  8
0
100
AcDbHatch
 10
0.0
 20
0.0
 30
0.0
210
0.0
220
0.0
230
1.0
  2
SOLID
 70
     1
 71
     0
 91
        6
 92
        7
 72
     1
 73
     1
 93
        4
 10
6084.772246772535
 20
426.4596551688804
 42
0.0
 10
6097.525521413019
 20
413.7063805283951
 42
-0.3722683533228832
 10
6169.595186969588
 20
413.7063805284056
 42
0.0
 10
6182.348461610068
 20
426.4596551688965
 42
0.382497994028997
 97
        0
 92
       22
 72
     1
 73
     1
 93
        4
 10
6090.680198039168
 20
426.2085581517495
 42
0.0
 10
6097.807327616968
 20
419.0814285739504
 42
-0.3367429548951113
 10
6169.313380765651
 20
419.0814285739504
 42
0.0
 10
6176.440510343445
 20
426.2085581517546
 42
0.3477704275230851
 97
        0
 92
        7
 72
     1
 73
     1
 93
        4
 10
6188.005315859576
 20
420.8028009193887
 42
0.0
 10
6175.252041219082
 20
408.0495262789151
 42
-0.6168583269100126
 10
6137.560354191306
 20
317.0537442677286
 42
0.0
 10
6137.560354191306
 20
299.0178903064857
 42
0.6292889159379537
 97
        0
 92
       22
 72
     1
 73
     1
 93
        4
 10
6187.754218842435
 20
414.8948496527665
 42
-0.587310490888953
 10
6141.560354191302
 20
303.37299511359
 42
0.0
 10
6141.560354191302
 20
313.4522784233041
 42
0.5741105922167347
 10
6180.627089264641
 20
407.7677200749606
 42
0.0
 97
        0
 92
        7
 72
     1
 73
     1
 93
        4
 10
6079.115392523044
 20
420.8028009193883
 42
0.6292889159379472
 10
6129.560354191313
 20
299.0178903064856
 42
0.0
 10
6129.560354191313
 20
317.0537442677286
 42
-0.6168583269099096
 10
6091.868667163531
 20
408.049526278903
 42
0.0
 97
        0
 92
       22
 72
     1
 73
     1
 93
        4
 10
6086.493619117983
 20
407.7677200749664
 42
0.5741105922167784
 10
6125.560354191317
 20
313.4522784233041
 42
0.0
 10
6125.560354191317
 20
303.37299511359
 42
-0.5873104908889527
 10
6079.366489540185
 20
414.8948496527665
 42
0.0
 97
        0
 75
     0
 76
     1
 47
0.0143554168026844
 98
        6
 10
6165.580824944937
 20
434.808876770136
 10
6165.580824944937
 20
434.808876770136
 10
6180.523259216421
 20
411.5531029077251
 10
6180.523259216421
 20
411.5531029077251
 10
6088.282419231701
 20
410.6917774202875
 10
6088.282419231701
 20
410.6917774202875
  0
TEXT
  5
7E73
330
747D
100
AcDbEntity
  8
0
100
AcDbText
 10
6277.347185992404
 20
344.5314545037481
 30
0.0
 40
40.0
  1
三和コンクリート工業株式会社
  7
SANWA
100
AcDbText
  0
TEXT
  5
7E74
330
747D
100
AcDbEntity
  8
0
100
AcDbText
 10
6111.18166836318
 20
344.5314545037481
 30
0.0
 40
30.0
  1
和
  7
SANWA
100
AcDbText
  0
TEXT
  5
7E75
330
747D
100
AcDbEntity
  8
0
100
AcDbText
 10
6111.18166836318
 20
384.386819823691
 30
0.0
 40
30.0
  1
三
  7
SANWA
100
AcDbText
  0
LINE
  5
7E76
330
747D
100
AcDbEntity
  8
0
100
AcDbLine
 10
6125.560354191317
 20
303.3729951135901
 30
0.0
 11
6125.560354191317
 21
313.4522784233004
 31
0.0
  0
LINE
  5
7E77
330
747D
100
AcDbEntity
  8
0
100
AcDbLine
 10
6141.560354191302
 20
303.3729951135901
 30
0.0
 11
6141.560354191302
 21
313.4522784233004
 31
0.0
  0
LINE
  5
7E78
330
747D
100
AcDbEntity
  8
0
100
AcDbLine
 10
6180.627089264635
 20
407.7677200749567
 30
0.0
 11
6187.754218842429
 21
414.8948496527614
 31
0.0
  0
LINE
  5
7E79
330
747D
100
AcDbEntity
  8
0
100
AcDbLine
 10
6169.313380765653
 20
419.0814285739511
 30
0.0
 11
6176.440510343446
 21
426.2085581517558
 31
0.0
  0
LINE
  5
7E7A
330
747D
100
AcDbEntity
  8
0
100
AcDbLine
 10
6097.807327616965
 20
419.0814285739511
 30
0.0
 11
6090.680198039173
 21
426.2085581517444
 31
0.0
  0
LINE
  5
7E7B
330
747D
100
AcDbEntity
  8
0
100
AcDbLine
 10
6086.493619117983
 20
407.7677200749567
 30
0.0
 11
6079.366489540189
 21
414.8948496527614
 31
0.0
  0
ARC
  5
7E7C
330
747D
100
AcDbEntity
  8
0
100
AcDbCircle
 10
6133.56035419131
 20
372.0146935006246
 30
0.0
 40
69.10631488841319
100
AcDbArc
 50
276.6476737862
 51
38.35232621378875
  0
ARC
  5
7E7D
330
747D
100
AcDbEntity
  8
0
100
AcDbCircle
 10
6133.56035419131
 20
372.0146935006246
 30
0.0
 40
73.1063148884132
100
AcDbArc
 50
273.136495447062
 51
41.86350455292095
  0
ARC
  5
7E7E
330
747D
100
AcDbEntity
  8
0
100
AcDbCircle
 10
6133.56035419131
 20
372.0146935006246
 30
0.0
 40
59.10631488841318
100
AcDbArc
 50
277.7788203119242
 51
37.22117968809675
  0
ARC
  5
7E7F
330
747D
100
AcDbEntity
  8
0
100
AcDbCircle
 10
6133.56035419131
 20
372.0146935006246
 30
0.0
 40
55.10631488841318
100
AcDbArc
 50
274.1625874111334
 51
40.8374125888692
  0
LINE
  5
7E80
330
747D
100
AcDbEntity
  8
0
100
AcDbLine
 10
6137.560354191306
 20
299.0178903064807
 30
0.0
 11
6137.560354191306
 21
317.0537442677291
 31
0.0
  0
LINE
  5
7E81
330
747D
100
AcDbEntity
  8
0
100
AcDbLine
 10
6129.560354191313
 20
299.0178903064807
 30
0.0
 11
6129.560354191313
 21
317.0537442677177
 31
0.0
  0
LINE
  5
7E82
330
747D
100
AcDbEntity
  8
0
100
AcDbLine
 10
6169.595186969583
 20
413.7063805284006
 30
0.0
 11
6182.348461610059
 21
426.4596551688887
 31
0.0
  0
LINE
  5
7E83
330
747D
100
AcDbEntity
  8
0
100
AcDbLine
 10
6175.252041219074
 20
408.049526278909
 30
0.0
 11
6188.005315859573
 21
420.8028009193858
 31
0.0
  0
LINE
  5
7E84
330
747D
100
AcDbEntity
  8
0
100
AcDbLine
 10
6091.868667163522
 20
408.049526278909
 30
0.0
 11
6079.037956061394
 21
420.8802373810376
 31
0.0
  0
LINE
  5
7E85
330
747D
100
AcDbEntity
  8
0
100
AcDbLine
 10
6097.525521413014
 20
413.7063805284006
 30
0.0
 11
6084.694810310885
 21
426.5370916305291
 31
0.0
  0
ARC
  5
7E86
330
747D
100
AcDbEntity
  8
0
100
AcDbCircle
 10
6133.56035419131
 20
372.0146935006246
 30
0.0
 40
73.1063148884132
100
AcDbArc
 50
48.13649544707906
 51
131.8635045529209
  0
ARC
  5
7E87
330
747D
100
AcDbEntity
  8
0
100
AcDbCircle
 10
6133.56035419131
 20
372.0146935006246
 30
0.0
 40
69.10631488841319
100
AcDbArc
 50
51.64767378621125
 51
128.3523262137887
  0
ARC
  5
7E88
330
747D
100
AcDbEntity
  8
0
100
AcDbCircle
 10
6133.56035419131
 20
372.0146935006246
 30
0.0
 40
59.10631488841318
100
AcDbArc
 50
52.77882031188749
 51
127.2211796881125
  0
ARC
  5
7E89
330
747D
100
AcDbEntity
  8
0
100
AcDbCircle
 10
6133.56035419131
 20
372.0146935006246
 30
0.0
 40
55.10631488841318
100
AcDbArc
 50
49.16258741113348
 51
130.8374125888665
  0
ARC
  5
7E8A
330
747D
100
AcDbEntity
  8
0
100
AcDbCircle
 10
6133.56035419131
 20
372.0146935006246
 30
0.0
 40
55.10631488841318
100
AcDbArc
 50
139.1625874111308
 51
265.8374125888665
  0
ARC
  5
7E8B
330
747D
100
AcDbEntity
  8
0
100
AcDbCircle
 10
6133.56035419131
 20
372.0146935006246
 30
0.0
 40
59.10631488841318
100
AcDbArc
 50
142.7788203119032
 51
262.2211796880757
  0
ARC
  5
7E8C
330
747D
100
AcDbEntity
  8
0
100
AcDbCircle
 10
6133.56035419131
 20
372.0146935006246
 30
0.0
 40
73.1063148884132
100
AcDbArc
 50
138.136495447079
 51
266.8635045529379
  0
ARC
  5
7E8D
330
747D
100
AcDbEntity
  8
0
100
AcDbCircle
 10
6133.56035419131
 20
372.0146935006246
 30
0.0
 40
69.10631488841319
100
AcDbArc
 50
141.6476737862112
 51
263.3523262137999
  0
LINE
  5
7E8E
330
747D
100
AcDbEntity
  8
0
100
AcDbLine
 10
5997.553188460984
 20
250.0000004859534
 30
0.0
 11
5997.553188460984
 21
990.0000004859625
 31
0.0
  0
LINE
  5
7E8F
330
747D
100
AcDbEntity
  8
0
100
AcDbLine
 10
5777.55318846098
 20
250.0000004859534
 30
0.0
 11
5777.55318846098
 21
510.0000004859557
 31
0.0
  0
LINE
  5
7E90
330
747D
100
AcDbEntity
  8
0
100
AcDbLine
 10
7424.999996971634
 20
0.0000004859534783
 30
0.0
 11
7174.999996971634
 21
0.0000004859534783
 31
0.0
  0
LINE
  5
7E91
330
747D
100
AcDbEntity
  8
0
100
AcDbLine
 10
7424.999996971634
 20
250.0000004859534
 30
0.0
 11
7424.999996971634
 21
0.0000004859534783
 31
0.0
  0
LINE
  5
7E92
330
747D
100
AcDbEntity
  8
0
100
AcDbLine
 10
7424.999996971634
 20
5250.000000485954
 30
0.0
 11
7424.999996971634
 21
5000.000000485954
 31
0.0
  0
LINE
  5
7E93
330
747D
100
AcDbEntity
  8
0
100
AcDbLine
 10
7174.999996971634
 20
5250.000000485954
 30
0.0
 11
7424.999996971634
 21
5250.000000485954
 31
0.0
  0
LINE
  5
998E
330
747D
100
AcDbEntity
  8
0
 48
25.0
100
AcDbLine
 10
1876.579506636855
 20
3352.097799992907
 30
0.0
 11
1876.579506636855
 21
2132.097799992906
 31
0.0
  0
LINE
  5
998F
330
747D
100
AcDbEntity
  8
0
 48
25.0
100
AcDbLine
 10
1956.579506636855
 20
3352.097799992907
 30
0.0
 11
1956.579506636855
 21
2902.097799992914
 31
0.0
  0
LINE
  5
9990
330
747D
100
AcDbEntity
  8
0
 48
25.0
100
AcDbLine
 10
2756.579506636855
 20
2902.097799992914
 30
0.0
 11
2756.579506636855
 21
3352.097799992907
 31
0.0
  0
LINE
  5
9991
330
747D
100
AcDbEntity
  8
0
 48
25.0
100
AcDbLine
 10
2836.579506636855
 20
2132.097799992908
 30
0.0
 11
2836.579506636855
 21
3352.097799992907
 31
0.0
  0
LINE
  5
9992
330
747D
100
AcDbEntity
  8
0
 48
25.0
100
AcDbLine
 10
2836.579506636855
 20
3352.097799992907
 30
0.0
 11
2756.579506636855
 21
3352.097799992907
 31
0.0
  0
LINE
  5
9994
330
747D
100
AcDbEntity
  8
0
 48
25.0
100
AcDbLine
 10
2161.292975516988
 20
2252.097799992907
 30
0.0
 11
2551.86603775672
 21
2252.097799992905
 31
0.0
  0
LINE
  5
9996
330
747D
100
AcDbEntity
  8
0
 48
25.0
100
AcDbLine
 10
1876.579506636855
 20
2132.097799992906
 30
0.0
 11
1906.579506636855
 21
2102.097799992906
 31
0.0
  0
LINE
  5
9997
330
747D
100
AcDbEntity
  8
0
 48
25.0
100
AcDbLine
 10
2836.579506636855
 20
2132.097799992908
 30
0.0
 11
2806.579506636855
 21
2102.097799992908
 31
0.0
  0
LINE
  5
9998
330
747D
100
AcDbEntity
  8
0
 48
25.0
100
AcDbLine
 10
1906.579506636855
 20
2102.097799992906
 30
0.0
 11
2806.579506636855
 21
2102.097799992908
 31
0.0
  0
LINE
  5
9999
330
747D
100
AcDbEntity
  8
0
 48
25.0
100
AcDbLine
 10
1956.579506636855
 20
2902.097799992907
 30
0.0
 11
2012.155304478485
 21
2386.036820034914
 31
0.0
  0
LINE
  5
999A
330
747D
100
AcDbEntity
  8
0
 48
25.0
100
AcDbLine
 10
2701.003708795224
 20
2386.036820034913
 30
0.0
 11
2756.579506636855
 21
2902.097799992907
 31
0.0
  0
LWPOLYLINE
  5
999C
330
747D
100
AcDbEntity
  8
0
 48
25.0
100
AcDbPolyline
 90
        4
 70
     1
 43
0.0
 10
4061.621781500781
 20
2102.097799992907
 10
6061.621781500781
 20
2102.097799992907
 10
6061.621781500781
 20
3352.097799992907
 10
4061.621781500781
 20
3352.097799992907
  0
LINE
  5
999D
330
747D
100
AcDbEntity
  8
0
 48
25.0
100
AcDbLine
 10
1956.579506636855
 20
3352.097799992907
 30
0.0
 11
1876.579506636855
 21
3352.097799992907
 31
0.0
  0
DIMENSION
  5
99A2
330
747D
100
AcDbEntity
  8
寸法引出
 48
25.0
100
AcDbDimension
  2
*D9
 10
2686.579506636856
 20
1934.937424986838
 30
0.0
 11
2356.579506636855
 21
1984.937424986838
 31
0.0
 70
    32
 71
     5
 42
660.0000000000006
  3
SANWA
100
AcDbAlignedDimension
 13
2026.579506636855
 23
2102.097799992906
 33
0.0
 14
2686.579506636856
 24
2102.097799992908
 34
0.0
100
AcDbRotatedDimension
1001
ACAD
1000
DSTYLE
1002
{
1070
    40
1040
25.0
1070
    41
1040
1.5
1070
    43
1040
5.0
1070
    44
1040
0.5
1070
   140
1040
2.0
1070
   147
1040
1.0
1070
   176
1070
   256
1070
   177
1070
   256
1070
   178
1070
   256
1002
}
  0
DIMENSION
  5
99AF
330
747D
100
AcDbEntity
  8
寸法引出
 48
25.0
100
AcDbDimension
  2
*D10
 10
2836.579506636855
 20
1934.937424986838
 30
0.0
 11
2761.579506636855
 21
1984.937424986838
 31
0.0
 70
    32
 71
     5
 42
149.9999999999995
  3
SANWA
100
AcDbAlignedDimension
 13
2686.579506636856
 23
2102.097799992908
 33
0.0
 14
2836.579506636855
 24
2132.097799992908
 34
0.0
100
AcDbRotatedDimension
1001
ACAD
1000
DSTYLE
1002
{
1070
   279
1070
     1
1070
    40
1040
25.0
1070
    41
1040
1.5
1070
    43
1040
5.0
1070
    44
1040
0.5
1070
   140
1040
2.0
1070
   147
1040
1.0
1070
   176
1070
   256
1070
   177
1070
   256
1070
   178
1070
   256
1002
}
  0
DIMENSION
  5
99BC
330
747D
100
AcDbEntity
  8
寸法引出
 48
25.0
100
AcDbDimension
  2
*D11
 10
1876.579506636855
 20
1934.937424986838
 30
0.0
 11
1951.579506636855
 21
1984.937424986838
 31
0.0
 70
    32
 71
     5
 42
149.9999999999997
  3
SANWA
100
AcDbAlignedDimension
 13
2026.579506636855
 23
2102.097799992906
 33
0.0
 14
1876.579506636855
 24
2132.097799992906
 34
0.0
100
AcDbRotatedDimension
1001
ACAD
1000
DSTYLE
1002
{
1070
   279
1070
     1
1070
    40
1040
25.0
1070
    41
1040
1.5
1070
    43
1040
5.0
1070
    44
1040
0.5
1070
   140
1040
2.0
1070
   147
1040
1.0
1070
   176
1070
   256
1070
   177
1070
   256
1070
   178
1070
   256
1002
}
  0
DIMENSION
  5
99E5
330
747D
100
AcDbEntity
  8
寸法引出
 48
25.0
100
AcDbDimension
  2
*D12
 10
1694.620820979889
 20
2902.097799992907
 30
0.0
 11
1644.620820979889
 21
2577.097799992907
 31
0.0
 70
    32
 71
     5
 42
650.0
  3
SANWA
100
AcDbAlignedDimension
 13
1876.579506636855
 23
2252.097799992907
 33
0.0
 14
1876.579506636855
 24
2902.097799992907
 34
0.0
 50
90.0
100
AcDbRotatedDimension
1001
ACAD
1000
DSTYLE
1002
{
1070
    40
1040
25.0
1070
    41
1040
1.5
1070
    43
1040
5.0
1070
    44
1040
0.5
1070
   140
1040
2.0
1070
   147
1040
1.0
1070
   176
1070
   256
1070
   177
1070
   256
1070
   178
1070
   256
1002
}
  0
DIMENSION
  5
99F2
330
747D
100
AcDbEntity
  8
寸法引出
 48
25.0
100
AcDbDimension
  2
*D13
 10
1694.620820979889
 20
3352.097799992907
 30
0.0
 11
1644.620820979889
 21
3127.097799992907
 31
0.0
 70
    32
 71
     5
 42
450.0
  3
SANWA
100
AcDbAlignedDimension
 13
1876.579506636855
 23
2902.097799992907
 33
0.0
 14
1876.579506636855
 24
3352.097799992907
 34
0.0
 50
90.0
100
AcDbRotatedDimension
1001
ACAD
1000
DSTYLE
1002
{
1070
   279
1070
     1
1070
    40
1040
25.0
1070
    41
1040
1.5
1070
    43
1040
5.0
1070
    44
1040
0.5
1070
   140
1040
2.0
1070
   147
1040
1.0
1070
   176
1070
   256
1070
   177
1070
   256
1070
   178
1070
   256
1002
}
  0
DIMENSION
  5
99FF
330
747D
100
AcDbEntity
  8
寸法引出
 48
25.0
100
AcDbDimension
  2
*D14
 10
1526.47688389237
 20
2252.097799992907
 30
0.0
 11
1476.476883892369
 21
2802.097799992907
 31
0.0
 70
    32
 71
     5
 42
1100.0
  3
SANWA
100
AcDbAlignedDimension
 13
1876.579506636855
 23
3352.097799992907
 33
0.0
 14
1876.579506636855
 24
2252.097799992907
 34
0.0
 50
90.0
100
AcDbRotatedDimension
1001
ACAD
1000
DSTYLE
1002
{
1070
    40
1040
25.0
1070
    41
1040
1.5
1070
    43
1040
5.0
1070
    44
1040
0.5
1070
   140
1040
2.0
1070
   147
1040
1.0
1070
   176
1070
   256
1070
   177
1070
   256
1070
   178
1070
   256
1002
}
  0
DIMENSION
  5
9A0C
330
747D
100
AcDbEntity
  8
寸法引出
 48
25.0
100
AcDbDimension
  2
*D15
 10
1526.47688389237
 20
2102.097799992906
 30
0.0
 11
1476.476883892369
 21
2177.097799992907
 31
0.0
 70
    32
 71
     5
 42
150.0000000000009
  3
SANWA
100
AcDbAlignedDimension
 13
1876.579506636855
 23
2252.097799992907
 33
0.0
 14
1906.579506636855
 24
2102.097799992906
 34
0.0
 50
90.0
100
AcDbRotatedDimension
1001
ACAD
1000
DSTYLE
1002
{
1070
   279
1070
     1
1070
    40
1040
25.0
1070
    41
1040
1.5
1070
    43
1040
5.0
1070
    44
1040
0.5
1070
   140
1040
2.0
1070
   147
1040
1.0
1070
   176
1070
   256
1070
   177
1070
   256
1070
   178
1070
   256
1002
}
  0
DIMENSION
  5
9A19
330
747D
100
AcDbEntity
  8
寸法引出
 48
25.0
100
AcDbDimension
  2
*D16
 10
1371.267081093377
 20
2102.097799992906
 30
0.0
 11
1321.267081093377
 21
2727.097799992907
 31
0.0
 70
    32
 71
     5
 42
1250.0
  3
SANWA
100
AcDbAlignedDimension
 13
1876.579506636855
 23
3352.097799992907
 33
0.0
 14
1906.579506636855
 24
2102.097799992906
 34
0.0
 50
90.0
100
AcDbRotatedDimension
1001
ACAD
1000
DSTYLE
1002
{
1070
    40
1040
25.0
1070
    41
1040
1.5
1070
    43
1040
5.0
1070
    44
1040
0.5
1070
   140
1040
2.0
1070
   147
1040
1.0
1070
   176
1070
   256
1070
   177
1070
   256
1070
   178
1070
   256
1002
}
  0
DIMENSION
  5
9A26
330
747D
100
AcDbEntity
  8
寸法引出
 48
25.0
100
AcDbDimension
  2
*D17
 10
2756.579506636855
 20
3499.524509820146
 30
0.0
 11
2356.579506636855
 21
3549.524509820146
 31
0.0
 70
    32
 71
     5
 42
800.0
  3
SANWA
100
AcDbAlignedDimension
 13
1956.579506636855
 23
3352.097799992907
 33
0.0
 14
2756.579506636855
 24
3352.097799992907
 34
0.0
100
AcDbRotatedDimension
1001
ACAD
1000
DSTYLE
1002
{
1070
    40
1040
25.0
1070
    41
1040
1.5
1070
    43
1040
5.0
1070
    44
1040
0.5
1070
   140
1040
2.0
1070
   147
1040
1.0
1070
   176
1070
   256
1070
   177
1070
   256
1070
   178
1070
   256
1002
}
  0
DIMENSION
  5
9A33
330
747D
100
AcDbEntity
  8
寸法引出
 48
25.0
100
AcDbDimension
  2
*D18
 10
2836.579506636855
 20
3499.524509820146
 30
0.0
 11
2785.748943230537
 21
3499.928262656791
 31
0.0
 70
   160
 71
     5
 42
80.0
  3
SANWA
100
AcDbAlignedDimension
 13
2756.579506636855
 23
3352.097799992907
 33
0.0
 14
2836.579506636855
 24
3352.097799992907
 34
0.0
100
AcDbRotatedDimension
1001
ACAD
1000
DSTYLE
1002
{
1070
   279
1070
     1
1070
    40
1040
25.0
1070
    41
1040
1.5
1070
    43
1040
5.0
1070
    44
1040
0.5
1070
   140
1040
2.0
1070
   147
1040
1.0
1070
   176
1070
   256
1070
   177
1070
   256
1070
   178
1070
   256
1002
}
  0
DIMENSION
  5
9A42
330
747D
100
AcDbEntity
  8
寸法引出
 48
25.0
100
AcDbDimension
  2
*D19
 10
1876.579506636855
 20
3499.524509820146
 30
0.0
 11
1930.193261669272
 21
3499.928262656791
 31
0.0
 70
   160
 71
     5
 42
80.0
  3
SANWA
100
AcDbAlignedDimension
 13
1956.579506636855
 23
3352.097799992907
 33
0.0
 14
1876.579506636855
 24
3352.097799992907
 34
0.0
100
AcDbRotatedDimension
1001
ACAD
1000
DSTYLE
1002
{
1070
   279
1070
     1
1070
    40
1040
25.0
1070
    41
1040
1.5
1070
    43
1040
5.0
1070
    44
1040
0.5
1070
   140
1040
2.0
1070
   147
1040
1.0
1070
   176
1070
   256
1070
   177
1070
   256
1070
   178
1070
   256
1002
}
  0
DIMENSION
  5
9A51
330
747D
100
AcDbEntity
  8
寸法引出
 48
25.0
100
AcDbDimension
  2
*D20
 10
2836.579506636855
 20
3648.161041110026
 30
0.0
 11
2356.579506636855
 21
3698.161041110026
 31
0.0
 70
    32
 71
     5
 42
960.0
  3
SANWA
100
AcDbAlignedDimension
 13
1876.579506636855
 23
3352.097799992907
 33
0.0
 14
2836.579506636855
 24
3352.097799992907
 34
0.0
100
AcDbRotatedDimension
1001
ACAD
1000
DSTYLE
1002
{
1070
    40
1040
25.0
1070
    41
1040
1.5
1070
    43
1040
5.0
1070
    44
1040
0.5
1070
   140
1040
2.0
1070
   147
1040
1.0
1070
   176
1070
   256
1070
   177
1070
   256
1070
   178
1070
   256
1002
}
  0
LINE
  5
9A86
330
747D
100
AcDbEntity
  8
0
  6
CENTER2
 48
10.0
100
AcDbLine
 10
2679.912839970189
 20
2752.097799992907
 30
0.0
 11
2886.579506636855
 21
2752.097799992907
 31
0.0
  0
DIMENSION
  5
9A89
330
747D
100
AcDbEntity
  8
寸法引出
 48
25.0
100
AcDbDimension
  2
*D21
 10
3029.832061425542
 20
2752.097799992907
 30
0.0
 11
2979.832061425542
 21
2427.097799992908
 31
0.0
 70
    32
 71
     5
 42
649.9999999999991
  3
SANWA
100
AcDbAlignedDimension
 13
2806.579506636855
 23
2102.097799992908
 33
0.0
 14
2886.579506636855
 24
2752.097799992907
 34
0.0
 50
90.0
100
AcDbRotatedDimension
1001
ACAD
1000
DSTYLE
1002
{
1070
    40
1040
25.0
1070
    41
1040
1.5
1070
    43
1040
5.0
1070
    44
1040
0.5
1070
   140
1040
2.0
1070
   147
1040
1.0
1070
   176
1070
   256
1070
   177
1070
   256
1070
   178
1070
   256
1002
}
  0
DIMENSION
  5
9A96
330
747D
100
AcDbEntity
  8
寸法引出
 48
25.0
100
AcDbDimension
  2
*D22
 10
3029.832061425543
 20
3352.097799992907
 30
0.0
 11
2979.832061425542
 21
3052.097799992907
 31
0.0
 70
    32
 71
     5
 42
600.0
  3
SANWA
100
AcDbAlignedDimension
 13
2886.579506636855
 23
2752.097799992907
 33
0.0
 14
2836.579506636855
 24
3352.097799992907
 34
0.0
 50
90.0
100
AcDbRotatedDimension
1001
ACAD
1000
DSTYLE
1002
{
1070
   279
1070
     1
1070
    40
1040
25.0
1070
    41
1040
1.5
1070
    43
1040
5.0
1070
    44
1040
0.5
1070
   140
1040
2.0
1070
   147
1040
1.0
1070
   176
1070
   256
1070
   177
1070
   256
1070
   178
1070
   256
1002
}
  0
LEADER
  5
9AA4
330
747D
100
AcDbEntity
  8
寸法引出
 48
25.0
100
AcDbLeader
  3
SANWA
 73
     0
 74
     0
 75
     1
 40
50.0
 41
102.8571428571428
 76
     3
 10
2821.579506636855
 20
2117.097799992908
 30
0.0
 10
2904.400910138683
 20
1969.868497236461
 30
0.0
 10
2941.900910138683
 20
1969.868497236461
 30
0.0
340
9AA5
1001
ACAD
1000
DSTYLE
1002
{
1070
    77
1070
     1
1070
    40
1040
25.0
1070
    41
1040
1.5
1070
    43
1040
5.0
1070
    44
1040
0.5
1070
   140
1040
2.0
1070
   147
1040
1.0
1070
   176
1070
   256
1070
   177
1070
   256
1070
   178
1070
   256
1002
}
  0
MTEXT
  5
9AA5
102
{ACAD_REACTORS
330
9AA4
102
}
330
747D
100
AcDbEntity
  8
寸法引出
 48
25.0
100
AcDbMText
 10
2966.900910138683
 20
1994.868497236461
 30
0.0
 40
50.0
 41
0.0
 71
     7
 72
     1
  1
\A1;30C
  7
SANWA
 73
     1
 44
1.0
  0
LEADER
  5
9AA6
330
747D
100
AcDbEntity
  8
寸法引出
 48
25.0
100
AcDbLeader
  3
SANWA
 73
     0
 74
     0
 75
     1
 40
50.0
 41
134.8571428571428
 76
     3
 10
2064.434857589253
 20
2292.560870748054
 30
0.0
 10
2147.256241957412
 20
2439.625810859039
 30
0.0
 10
2184.756241957412
 20
2439.625810859039
 30
0.0
340
9AA7
1001
ACAD
1000
DSTYLE
1002
{
1070
    77
1070
     1
1070
    40
1040
25.0
1070
    41
1040
1.5
1070
    43
1040
5.0
1070
    44
1040
0.5
1070
   140
1040
2.0
1070
   147
1040
1.0
1070
   176
1070
   256
1070
   177
1070
   256
1070
   178
1070
   256
1002
}
  0
MTEXT
  5
9AA7
102
{ACAD_REACTORS
330
9AA6
102
}
330
747D
100
AcDbEntity
  8
寸法引出
 48
25.0
100
AcDbMText
 10
2209.756241957412
 20
2464.625810859039
 30
0.0
 40
50.0
 41
0.0
 71
     7
 72
     1
  1
\A1;150r
  7
SANWA
 73
     1
 44
1.0
  0
DIMENSION
  5
9AA8
330
747D
100
AcDbEntity
  8
寸法引出
 48
25.0
100
AcDbDimension
  2
*D23
 10
2836.579506636855
 20
1782.524818025391
 30
0.0
 11
2356.579506636855
 21
1832.524818025391
 31
0.0
 70
    32
 71
     5
 42
960.0
  3
SANWA
100
AcDbAlignedDimension
 13
1876.579506636855
 23
2132.097799992906
 33
0.0
 14
2836.579506636855
 24
2132.097799992908
 34
0.0
100
AcDbRotatedDimension
1001
ACAD
1000
DSTYLE
1002
{
1070
    40
1040
25.0
1070
    41
1040
1.5
1070
    43
1040
5.0
1070
    44
1040
0.5
1070
   140
1040
2.0
1070
   147
1040
1.0
1070
   176
1070
   256
1070
   177
1070
   256
1070
   178
1070
   256
1002
}
  0
DIMENSION
  5
9AFB
330
747D
100
AcDbEntity
  8
寸法引出
 48
25.0
100
AcDbDimension
  2
*D24
 10
6061.621781500781
 20
3648.161041110026
 30
0.0
 11
5061.621781500781
 21
3698.161041110026
 31
0.0
 70
    32
 71
     5
 42
2000.0
  3
SANWA
100
AcDbAlignedDimension
 13
4061.621781500781
 23
3352.097799992907
 33
0.0
 14
6061.621781500781
 24
3352.097799992907
 34
0.0
100
AcDbRotatedDimension
1001
ACAD
1000
DSTYLE
1002
{
1070
    40
1040
25.0
1070
    41
1040
1.5
1070
    43
1040
5.0
1070
    44
1040
0.5
1070
   140
1040
2.0
1070
   147
1040
1.0
1070
   176
1070
   256
1070
   177
1070
   256
1070
   178
1070
   256
1002
}
  0
LINE
  5
9B08
330
747D
100
AcDbEntity
  8
0
 48
25.0
100
AcDbLine
 10
5011.621781500781
 20
2752.097799992907
 30
0.0
 11
5111.62178150078
 21
2752.097799992907
 31
0.0
  0
LINE
  5
9B09
330
747D
100
AcDbEntity
  8
0
  6
HIDDEN2
 48
25.0
100
AcDbLine
 10
4061.621781500781
 20
2252.097799992907
 30
0.0
 11
6061.621781500781
 21
2252.097799992907
 31
0.0
  0
LINE
  5
9B0A
330
747D
100
AcDbEntity
  8
0
 48
25.0
100
AcDbLine
 10
4061.621781500781
 20
2132.097799992908
 30
0.0
 11
6061.621781500781
 21
2132.097799992908
 31
0.0
  0
LINE
  5
9B0C
330
747D
100
AcDbEntity
  8
0
 48
25.0
100
AcDbLine
 10
5061.621781500781
 20
2802.097799992907
 30
0.0
 11
5061.621781500781
 21
2702.097799992907
 31
0.0
  0
DIMENSION
  5
9B0D
330
747D
100
AcDbEntity
  8
寸法引出
 48
25.0
100
AcDbDimension
  2
*D25
 10
3690.620643598839
 20
2252.097799992907
 30
0.0
 11
3640.620643598838
 21
2802.097799992908
 31
0.0
 70
    32
 71
     5
 42
1100.0
  3
SANWA
100
AcDbAlignedDimension
 13
4061.621781500781
 23
3352.097799992907
 33
0.0
 14
4061.621781500781
 24
2252.097799992907
 34
0.0
 50
90.0
100
AcDbRotatedDimension
1001
ACAD
1000
DSTYLE
1002
{
1070
    40
1040
25.0
1070
    41
1040
1.5
1070
    43
1040
5.0
1070
    44
1040
0.5
1070
   140
1040
2.0
1070
   147
1040
1.0
1070
   176
1070
   256
1070
   177
1070
   256
1070
   178
1070
   256
1002
}
  0
DIMENSION
  5
9B1A
330
747D
100
AcDbEntity
  8
寸法引出
 48
25.0
100
AcDbDimension
  2
*D26
 10
3690.620643598839
 20
2102.097799992907
 30
0.0
 11
3640.620643598838
 21
2177.097799992908
 31
0.0
 70
    32
 71
     5
 42
149.9999999999995
  3
SANWA
100
AcDbAlignedDimension
 13
4061.621781500781
 23
2252.097799992907
 33
0.0
 14
4061.621781500781
 24
2102.097799992907
 34
0.0
 50
90.0
100
AcDbRotatedDimension
1001
ACAD
1000
DSTYLE
1002
{
1070
   279
1070
     1
1070
    40
1040
25.0
1070
    41
1040
1.5
1070
    43
1040
5.0
1070
    44
1040
0.5
1070
   140
1040
2.0
1070
   147
1040
1.0
1070
   176
1070
   256
1070
   177
1070
   256
1070
   178
1070
   256
1002
}
  0
DIMENSION
  5
9B27
330
747D
100
AcDbEntity
  8
寸法引出
 48
25.0
100
AcDbDimension
  2
*D27
 10
6244.125805532858
 20
2752.097799992907
 30
0.0
 11
6194.125805532857
 21
3052.097799992908
 31
0.0
 70
    32
 71
     5
 42
600.0
  3
SANWA
100
AcDbAlignedDimension
 13
6061.621781500781
 23
3352.097799992907
 33
0.0
 14
6061.621781500781
 24
2752.097799992907
 34
0.0
 50
90.0
100
AcDbRotatedDimension
1001
ACAD
1000
DSTYLE
1002
{
1070
    40
1040
25.0
1070
    41
1040
1.5
1070
    43
1040
5.0
1070
    44
1040
0.5
1070
   140
1040
2.0
1070
   147
1040
1.0
1070
   176
1070
   256
1070
   177
1070
   256
1070
   178
1070
   256
1002
}
  0
DIMENSION
  5
9B35
330
747D
100
AcDbEntity
  8
寸法引出
 48
25.0
100
AcDbDimension
  2
*D28
 10
6244.125805532856
 20
2102.097799992907
 30
0.0
 11
6194.125805532856
 21
2427.097799992908
 31
0.0
 70
    32
 71
     5
 42
650.0
  3
SANWA
100
AcDbAlignedDimension
 13
6061.621781500781
 23
2752.097799992907
 33
0.0
 14
6061.621781500781
 24
2102.097799992907
 34
0.0
 50
90.0
100
AcDbRotatedDimension
1001
ACAD
1000
DSTYLE
1002
{
1070
   279
1070
     1
1070
    40
1040
25.0
1070
    41
1040
1.5
1070
    43
1040
5.0
1070
    44
1040
0.5
1070
   140
1040
2.0
1070
   147
1040
1.0
1070
   176
1070
   256
1070
   177
1070
   256
1070
   178
1070
   256
1002
}
  0
CIRCLE
  5
9B42
330
747D
100
AcDbEntity
  8
0
 48
25.0
100
AcDbCircle
 10
5061.621781500781
 20
2752.097799992907
 30
0.0
 40
17.5
  0
CIRCLE
  5
9B43
330
747D
100
AcDbEntity
  8
0
 48
25.0
100
AcDbCircle
 10
5061.621781500781
 20
2752.097799992907
 30
0.0
 40
16.0
  0
LWPOLYLINE
  5
9B57
330
747D
100
AcDbEntity
  8
0
 48
25.0
100
AcDbPolyline
 90
        4
 70
     1
 43
0.0
 10
1876.579506636855
 20
3194.097799992907
 10
1916.579506636855
 20
3194.097799992907
 10
1916.579506636855
 20
3210.097799992907
 10
1876.579506636855
 20
3210.097799992907
  0
LWPOLYLINE
  5
9B58
330
747D
100
AcDbEntity
  8
0
 48
25.0
100
AcDbPolyline
 90
        4
 70
     1
 43
0.0
 10
1916.579506636855
 20
3188.097799992907
 10
1919.579506636855
 20
3188.097799992907
 10
1919.579506636855
 20
3216.097799992907
 10
1916.579506636855
 20
3216.097799992907
  0
LWPOLYLINE
  5
9B59
330
747D
100
AcDbEntity
  8
0
 48
25.0
100
AcDbPolyline
 90
        4
 70
     1
 43
0.0
 10
2836.579506636855
 20
3194.097799992907
 10
2796.579506636855
 20
3194.097799992907
 10
2796.579506636855
 20
3210.097799992907
 10
2836.579506636855
 20
3210.097799992907
  0
LWPOLYLINE
  5
9B5A
330
747D
100
AcDbEntity
  8
0
 48
25.0
100
AcDbPolyline
 90
        4
 70
     1
 43
0.0
 10
2796.579506636855
 20
3188.097799992907
 10
2793.579506636855
 20
3188.097799992907
 10
2793.579506636855
 20
3216.097799992907
 10
2796.579506636855
 20
3216.097799992907
  0
DIMENSION
  5
9B68
330
747D
100
AcDbEntity
  8
寸法引出
 48
25.0
100
AcDbDimension
  2
*D29
 10
3879.76918403363
 20
3352.097799992907
 30
0.0
 11
3829.769184033629
 21
3277.097799992908
 31
0.0
 70
    32
 71
     5
 42
150.0
  3
SANWA
100
AcDbAlignedDimension
 13
4061.621781500781
 23
3202.097799992907
 33
0.0
 14
4061.621781500781
 24
3352.097799992907
 34
0.0
 50
90.0
100
AcDbRotatedDimension
1001
ACAD
1000
DSTYLE
1002
{
1070
   279
1070
     1
1070
    40
1040
25.0
1070
    41
1040
1.5
1070
    43
1040
5.0
1070
    44
1040
0.5
1070
   140
1040
2.0
1070
   147
1040
1.0
1070
   176
1070
   256
1070
   177
1070
   256
1070
   178
1070
   256
1002
}
  0
CIRCLE
  5
9B75
330
747D
100
AcDbEntity
  8
0
 48
25.0
100
AcDbCircle
 10
4111.62178150078
 20
3202.097799992907
 30
0.0
 40
8.0
  0
DIMENSION
  5
9B83
330
747D
100
AcDbEntity
  8
寸法引出
 48
25.0
100
AcDbDimension
  2
*D30
 10
4061.621781500781
 20
3025.072021453405
 30
0.0
 11
4004.68138743464
 21
3025.072021453405
 31
0.0
 70
   160
 71
     5
 42
50.0
  3
SANWA
100
AcDbAlignedDimension
 13
4111.62178150078
 23
3202.097799992907
 33
0.0
 14
4061.621781500781
 24
3202.097799992907
 34
0.0
100
AcDbRotatedDimension
1001
ACAD
1000
DSTYLE
1002
{
1070
   279
1070
     1
1070
    40
1040
25.0
1070
    41
1040
1.5
1070
    43
1040
5.0
1070
    44
1040
0.5
1070
   140
1040
2.0
1070
   147
1040
1.0
1070
   176
1070
   256
1070
   177
1070
   256
1070
   178
1070
   256
1002
}
  0
CIRCLE
  5
9BA8
330
747D
100
AcDbEntity
  8
0
 48
25.0
100
AcDbCircle
 10
6011.621781500781
 20
3202.097799992907
 30
0.0
 40
8.0
  0
LINE
  5
9BAD
330
747D
100
AcDbEntity
  8
0
  6
HIDDEN2
 48
20.0
100
AcDbLine
 10
2836.579506636855
 20
2769.597799992907
 30
0.0
 11
2742.148737406086
 21
2768.097799992907
 31
0.0
  0
LINE
  5
9BAE
330
747D
100
AcDbEntity
  8
0
  6
HIDDEN2
 48
20.0
100
AcDbLine
 10
2836.579506636855
 20
2734.597799992907
 30
0.0
 11
2738.702583559932
 21
2736.097799992907
 31
0.0
  0
LINE
  5
9BAF
330
747D
100
AcDbEntity
  8
0
  6
CENTER2
 48
10.0
100
AcDbLine
 10
2033.246173303522
 20
2752.097799992907
 30
0.0
 11
1826.579506636855
 21
2752.097799992907
 31
0.0
  0
LINE
  5
9BB0
330
747D
100
AcDbEntity
  8
0
  6
HIDDEN2
 48
20.0
100
AcDbLine
 10
1876.579506636855
 20
2734.597799992907
 30
0.0
 11
1974.456429713778
 21
2736.097799992907
 31
0.0
  0
LINE
  5
9BB1
330
747D
100
AcDbEntity
  8
0
  6
HIDDEN2
 48
20.0
100
AcDbLine
 10
1876.579506636855
 20
2769.597799992907
 30
0.0
 11
1971.010275867624
 21
2768.097799992907
 31
0.0
  0
LEADER
  5
9BBC
330
747D
100
AcDbEntity
  8
寸法引出
 48
25.0
100
AcDbLeader
  3
SANWA
 73
     0
 74
     0
 75
     1
 40
59.14285714285714
 41
305.4285714285713
 76
     3
 10
5074.781058563771
 20
2763.633979047493
 30
0.0
 10
5157.60244293193
 20
2910.698919158478
 30
0.0
 10
5195.102442931929
 20
2910.698919158478
 30
0.0
340
9BBD
1001
ACAD
1000
DSTYLE
1002
{
1070
    77
1070
     1
1070
    40
1040
25.0
1070
    41
1040
1.5
1070
    43
1040
5.0
1070
    44
1040
0.5
1070
   140
1040
2.0
1070
   147
1040
1.0
1070
   176
1070
   256
1070
   177
1070
   256
1070
   178
1070
   256
1002
}
  0
MTEXT
  5
9BBD
102
{ACAD_REACTORS
330
9BBC
102
}
330
747D
100
AcDbEntity
  8
寸法引出
 48
25.0
100
AcDbMText
 10
5220.10244293193
 20
2935.698919158478
 30
0.0
 40
50.0
 41
0.0
 71
     7
 72
     1
  1
φ32-φ35
  7
SANWA
 73
     1
 44
1.0
  0
LEADER
  5
9BBE
330
747D
100
AcDbEntity
  8
寸法引出
 48
25.0
100
AcDbLeader
  3
SANWA
 73
     0
 74
     0
 75
     1
 40
67.71428571428571
 41
653.7142857142856
 76
     3
 10
4118.998208806192
 20
3199.001298707911
 30
0.0
 10
4201.819612308019
 20
3063.458707482625
 30
0.0
 10
4239.319612308019
 20
3063.458707482625
 30
0.0
340
9BBF
1001
ACAD
1000
DSTYLE
1002
{
1070
    77
1070
     1
1070
    40
1040
25.0
1070
    41
1040
1.5
1070
    43
1040
5.0
1070
    44
1040
0.5
1070
   140
1040
2.0
1070
   147
1040
1.0
1070
   176
1070
   256
1070
   177
1070
   256
1070
   178
1070
   256
1002
}
  0
MTEXT
  5
9BBF
102
{ACAD_REACTORS
330
9BBE
102
}
330
747D
100
AcDbEntity
  8
寸法引出
 48
25.0
100
AcDbMText
 10
4264.319612308019
 20
3088.458707482625
 30
0.0
 40
50.0
 41
0.0
 71
     7
 72
     1
  1
接続用ｲﾝｻｰﾄ M12×4
  7
SANWA
 73
     1
 44
1.0
  0
CIRCLE
  5
9BC0
330
747D
100
AcDbEntity
  8
0
 48
25.0
100
AcDbCircle
 10
4111.62178150078
 20
3202.097799992907
 30
0.0
 40
6.0
  0
DIMENSION
  5
9CE9
330
747D
100
AcDbEntity
  8
寸法引出
 48
25.0
100
AcDbDimension
  2
*D31
 10
2507.084438010657
 20
2252.097799992906
 30
0.0
 11
2457.084438010657
 21
2502.097799992907
 31
0.0
 70
    32
 71
     5
 42
500.0000000000008
  3
SANWA
100
AcDbAlignedDimension
 13
2679.912839970189
 23
2752.097799992907
 33
0.0
 14
2546.246542853126
 24
2252.097799992906
 34
0.0
 50
90.0
100
AcDbRotatedDimension
1001
ACAD
1000
DSTYLE
1002
{
1070
    40
1040
25.0
1070
    41
1040
1.5
1070
    43
1040
5.0
1070
    44
1040
0.5
1070
   140
1040
2.0
1070
   147
1040
1.0
1070
   176
1070
   256
1070
   177
1070
   256
1070
   178
1070
   256
1002
}
  0
LINE
  5
9D4E
330
747D
100
AcDbEntity
  8
0
 48
25.0
100
AcDbLine
 10
1906.579506636855
 20
3352.097799992907
 30
0.0
 11
1906.579506636855
 21
2287.097799992906
 31
0.0
  0
LINE
  5
9D4F
330
747D
100
AcDbEntity
  8
0
 48
25.0
100
AcDbLine
 10
2806.579506636855
 20
2287.097799992908
 30
0.0
 11
2806.579506636855
 21
3352.097799992907
 31
0.0
  0
LINE
  5
9D50
330
747D
100
AcDbEntity
  8
0
 48
25.0
100
AcDbLine
 10
2026.579506636855
 20
2167.097799992907
 30
0.0
 11
2686.579506636856
 21
2167.097799992908
 31
0.0
  0
LINE
  5
9D51
330
747D
100
AcDbEntity
  8
0
 48
25.0
100
AcDbLine
 10
1926.579506636855
 20
3352.097799992907
 30
0.0
 11
1926.579506636855
 21
2287.097799992906
 31
0.0
  0
LINE
  5
9D52
330
747D
100
AcDbEntity
  8
0
 48
25.0
100
AcDbLine
 10
2026.579506636855
 20
2187.097799992906
 30
0.0
 11
2686.579506636856
 21
2187.097799992908
 31
0.0
  0
LINE
  5
9D53
330
747D
100
AcDbEntity
  8
0
 48
25.0
100
AcDbLine
 10
2786.579506636855
 20
2287.097799992908
 30
0.0
 11
2786.579506636855
 21
3352.097799992907
 31
0.0
  0
ARC
  5
9D58
330
747D
100
AcDbEntity
  8
0
 48
25.0
100
AcDbCircle
 10
2161.292975516988
 20
2402.097799992907
 30
0.0
 40
150.0
100
AcDbArc
 50
186.1466256596466
 51
269.9999999999997
  0
ARC
  5
9D59
330
747D
100
AcDbEntity
  8
0
 48
25.0
100
AcDbCircle
 10
2551.86603775672
 20
2402.097799992905
 30
0.0
 40
150.0
100
AcDbArc
 50
269.9999999999997
 51
353.8533743403533
  0
ARC
  5
9D5A
330
747D
100
AcDbEntity
  8
0
 48
25.0
100
AcDbCircle
 10
2026.579506636855
 20
2287.097799992906
 30
0.0
 40
120.0
100
AcDbArc
 50
180.0
 51
270.0000000000001
  0
ARC
  5
9D5B
330
747D
100
AcDbEntity
  8
0
 48
25.0
100
AcDbCircle
 10
2686.579506636855
 20
2287.097799992908
 30
0.0
 40
120.0
100
AcDbArc
 50
270.0000000000001
 51
0.0
  0
ARC
  5
9D5C
330
747D
100
AcDbEntity
  8
0
 48
25.0
100
AcDbCircle
 10
2026.579506636855
 20
2287.097799992906
 30
0.0
 40
100.0
100
AcDbArc
 50
180.0
 51
270.0000000000001
  0
ARC
  5
9D5D
330
747D
100
AcDbEntity
  8
0
 48
25.0
100
AcDbCircle
 10
2686.579506636855
 20
2287.097799992908
 30
0.0
 40
100.0
100
AcDbArc
 50
270.0000000000001
 51
0.0
  0
LINE
  5
9D5E
330
747D
100
AcDbEntity
  8
0
 48
25.0
100
AcDbLine
 10
1908.579506636855
 20
3352.097799992907
 30
0.0
 11
1908.579506636855
 21
2287.097799992906
 31
0.0
  0
LINE
  5
9D5F
330
747D
100
AcDbEntity
  8
0
 48
25.0
100
AcDbLine
 10
1924.579506636855
 20
3352.097799992907
 30
0.0
 11
1924.579506636855
 21
2287.097799992906
 31
0.0
  0
LINE
  5
9D60
330
747D
100
AcDbEntity
  8
0
 48
25.0
100
AcDbLine
 10
2788.579506636855
 20
2287.097799992908
 30
0.0
 11
2788.579506636855
 21
3352.097799992907
 31
0.0
  0
LINE
  5
9D61
330
747D
100
AcDbEntity
  8
0
 48
25.0
100
AcDbLine
 10
2804.579506636855
 20
2287.097799992908
 30
0.0
 11
2804.579506636855
 21
3352.097799992907
 31
0.0
  0
ARC
  5
9D62
330
747D
100
AcDbEntity
  8
0
 48
25.0
100
AcDbCircle
 10
2686.579506636855
 20
2287.097799992908
 30
0.0
 40
102.0
100
AcDbArc
 50
270.0000000000001
 51
0.0
  0
ARC
  5
9D63
330
747D
100
AcDbEntity
  8
0
 48
25.0
100
AcDbCircle
 10
2686.579506636855
 20
2287.097799992908
 30
0.0
 40
118.0
100
AcDbArc
 50
270.0000000000001
 51
0.0
  0
ARC
  5
9D64
330
747D
100
AcDbEntity
  8
0
 48
25.0
100
AcDbCircle
 10
2026.579506636855
 20
2287.097799992906
 30
0.0
 40
102.0
100
AcDbArc
 50
180.0
 51
270.0000000000001
  0
ARC
  5
9D65
330
747D
100
AcDbEntity
  8
0
 48
25.0
100
AcDbCircle
 10
2026.579506636855
 20
2287.097799992906
 30
0.0
 40
118.0
100
AcDbArc
 50
180.0
 51
270.0000000000001
  0
LINE
  5
9D66
330
747D
100
AcDbEntity
  8
0
 48
25.0
100
AcDbLine
 10
2026.579506636855
 20
2185.097799992906
 30
0.0
 11
2686.579506636856
 21
2185.097799992908
 31
0.0
  0
LINE
  5
9D67
330
747D
100
AcDbEntity
  8
0
 48
25.0
100
AcDbLine
 10
2026.579506636855
 20
2169.097799992906
 30
0.0
 11
2686.579506636856
 21
2169.097799992908
 31
0.0
  0
LINE
  5
9D68
330
747D
100
AcDbEntity
  8
0
 48
25.0
100
AcDbLine
 10
2026.579506636855
 20
2267.097799992908
 30
0.0
 11
2026.579506636855
 21
2237.097799992907
 31
0.0
  0
LINE
  5
9D69
330
747D
100
AcDbEntity
  8
0
 48
25.0
100
AcDbLine
 10
2686.579506636855
 20
2267.097799992906
 30
0.0
 11
2686.579506636855
 21
2237.097799992906
 31
0.0
  0
LINE
  5
9D6A
330
747D
100
AcDbEntity
  8
0
 48
25.0
100
AcDbLine
 10
2041.579506636855
 20
2252.097799992907
 30
0.0
 11
2011.579506636855
 21
2252.097799992907
 31
0.0
  0
LINE
  5
9D6B
330
747D
100
AcDbEntity
  8
0
 48
25.0
100
AcDbLine
 10
2671.579506636855
 20
2252.097799992906
 30
0.0
 11
2701.579506636855
 21
2252.097799992906
 31
0.0
  0
TEXT
  5
9D6C
330
747D
100
AcDbEntity
  8
0
100
AcDbText
 10
3244.790900037092
 20
1105.936210544202
 30
0.0
 40
60.0
  1
目地部詳細図
  7
SANWA
 72
     4
 11
3508.105185751378
 21
1136.964781972774
 31
0.0
100
AcDbText
  0
LINE
  5
9D6D
330
747D
100
AcDbEntity
  8
0
 48
25.0
100
AcDbLine
 10
2973.502897744237
 20
666.1243643915295
 30
0.0
 11
3305.957407706331
 21
666.1243643915295
 31
0.0
  0
LINE
  5
9D70
330
747D
100
AcDbEntity
  8
0
 48
25.0
100
AcDbLine
 10
3345.957407706331
 20
606.1243643915295
 30
0.0
 11
3665.957407706331
 21
606.1243643915295
 31
0.0
  0
LINE
  5
9D75
330
747D
100
AcDbEntity
  8
0
 48
25.0
100
AcDbLine
 10
3305.957407706332
 20
666.1243643915295
 30
0.0
 11
3345.957407706331
 21
606.1243643915295
 31
0.0
  0
LINE
  5
9D76
330
747D
100
AcDbEntity
  8
0
 48
25.0
100
AcDbLine
 10
3665.957407706331
 20
606.1243643915295
 30
0.0
 11
3705.957407706331
 21
666.1243643915295
 31
0.0
  0
LINE
  5
9D77
330
747D
100
AcDbEntity
  8
0
 48
25.0
100
AcDbLine
 10
3705.957407706331
 20
666.1243643915295
 30
0.0
 11
4038.411917668425
 21
666.1243643915295
 31
0.0
  0
DIMENSION
  5
9D78
330
747D
100
AcDbEntity
  8
寸法引出
 48
25.0
100
AcDbDimension
  2
*D32
 10
3665.957407706331
 20
765.585717784028
 30
0.0
 11
3505.957407706331
 21
815.585717784028
 31
0.0
 70
    32
  1
16
 71
     5
 42
320.0
  3
SANWA
100
AcDbAlignedDimension
 13
3345.957407706331
 23
606.1243643915295
 33
0.0
 14
3665.957407706331
 24
606.1243643915295
 34
0.0
100
AcDbRotatedDimension
1001
ACAD
1000
DSTYLE
1002
{
1070
    40
1040
25.0
1070
    41
1040
1.5
1070
    43
1040
5.0
1070
    44
1040
0.5
1070
   140
1040
2.0
1070
   147
1040
1.0
1070
   176
1070
   256
1070
   177
1070
   256
1070
   178
1070
   256
1002
}
  0
DIMENSION
  5
9D85
330
747D
100
AcDbEntity
  8
寸法引出
 48
25.0
100
AcDbDimension
  2
*D33
 10
3705.957407706331
 20
765.585717784028
 30
0.0
 11
3751.98812895274
 21
765.585717784028
 31
0.0
 70
   160
  1
2
 71
     5
 42
40.0
  3
SANWA
100
AcDbAlignedDimension
 13
3665.957407706331
 23
606.1243643915295
 33
0.0
 14
3705.957407706331
 24
666.1243643915295
 34
0.0
100
AcDbRotatedDimension
1001
ACAD
1000
DSTYLE
1002
{
1070
   279
1070
     1
1070
    40
1040
25.0
1070
    41
1040
1.5
1070
    43
1040
5.0
1070
    44
1040
0.5
1070
   140
1040
2.0
1070
   147
1040
1.0
1070
   176
1070
   256
1070
   177
1070
   256
1070
   178
1070
   256
1002
}
  0
DIMENSION
  5
9D94
330
747D
100
AcDbEntity
  8
寸法引出
 48
25.0
100
AcDbDimension
  2
*D34
 10
3305.957407706332
 20
765.585717784028
 30
0.0
 11
3259.926711598142
 21
765.585717784028
 31
0.0
 70
   160
  1
2
 71
     5
 42
40.0
  3
SANWA
100
AcDbAlignedDimension
 13
3345.957407706331
 23
606.1243643915295
 33
0.0
 14
3305.957407706332
 24
666.1243643915295
 34
0.0
100
AcDbRotatedDimension
1001
ACAD
1000
DSTYLE
1002
{
1070
   279
1070
     1
1070
    40
1040
25.0
1070
    41
1040
1.5
1070
    43
1040
5.0
1070
    44
1040
0.5
1070
   140
1040
2.0
1070
   147
1040
1.0
1070
   176
1070
   256
1070
   177
1070
   256
1070
   178
1070
   256
1002
}
  0
DIMENSION
  5
9DA3
330
747D
100
AcDbEntity
  8
寸法引出
 48
25.0
100
AcDbDimension
  2
*D35
 10
3705.957407706331
 20
881.8167129306148
 30
0.0
 11
3505.957407706331
 21
931.8167129306148
 31
0.0
 70
    32
  1
20
 71
     5
 42
400.0000000000004
  3
SANWA
100
AcDbAlignedDimension
 13
3305.957407706331
 23
666.1243643915295
 33
0.0
 14
3705.957407706331
 24
666.1243643915295
 34
0.0
100
AcDbRotatedDimension
1001
ACAD
1000
DSTYLE
1002
{
1070
    40
1040
25.0
1070
    41
1040
1.5
1070
    43
1040
5.0
1070
    44
1040
0.5
1070
   140
1040
2.0
1070
   147
1040
1.0
1070
   176
1070
   256
1070
   177
1070
   256
1070
   178
1070
   256
1002
}
  0
DIMENSION
  5
9DBE
330
747D
100
AcDbEntity
  8
寸法引出
 48
25.0
100
AcDbDimension
  2
*D36
 10
3191.380852143982
 20
666.1243643915295
 30
0.0
 11
3191.380852143982
 21
712.6078653659824
 31
0.0
 70
   160
  1
3
 71
     5
 42
59.99999999999989
  3
SANWA
100
AcDbAlignedDimension
 13
3345.957407706331
 23
606.1243643915295
 33
0.0
 14
3305.957407706331
 24
666.1243643915295
 34
0.0
 50
90.0
100
AcDbRotatedDimension
1001
ACAD
1000
DSTYLE
1002
{
1070
   279
1070
     1
1070
    40
1040
25.0
1070
    41
1040
1.5
1070
    43
1040
5.0
1070
    44
1040
0.5
1070
   140
1040
2.0
1070
   147
1040
1.0
1070
   176
1070
   256
1070
   177
1070
   256
1070
   178
1070
   256
1002
}
  0
LINE
  5
9E42
330
747D
100
AcDbEntity
  8
0
 48
25.0
100
AcDbLine
 10
3230.549914689218
 20
1079.582910202451
 30
0.0
 11
3793.605251622495
 21
1079.582910202451
 31
0.0
  0
DIMENSION
  5
9EA9
330
747D
100
AcDbEntity
  8
寸法引出
 48
25.0
100
AcDbDimension
  2
*D37
 10
5061.621781500781
 20
1934.937424986838
 30
0.0
 11
4561.621781500781
 21
1984.937424986838
 31
0.0
 70
    32
 71
     5
 42
1000.0
  3
SANWA
100
AcDbAlignedDimension
 13
4061.621781500781
 23
2102.097799992907
 33
0.0
 14
5061.621781500781
 24
2102.097799992907
 34
0.0
100
AcDbRotatedDimension
1001
ACAD
1000
DSTYLE
1002
{
1070
    40
1040
25.0
1070
    41
1040
1.5
1070
    43
1040
5.0
1070
    44
1040
0.5
1070
   140
1040
2.0
1070
   147
1040
1.0
1070
   176
1070
   256
1070
   177
1070
   256
1070
   178
1070
   256
1002
}
  0
DIMENSION
  5
9EB6
330
747D
100
AcDbEntity
  8
寸法引出
 48
25.0
100
AcDbDimension
  2
*D38
 10
6061.621781500781
 20
1934.937424986838
 30
0.0
 11
5561.621781500781
 21
1984.937424986838
 31
0.0
 70
    32
 71
     5
 42
1000.0
  3
SANWA
100
AcDbAlignedDimension
 13
5061.621781500781
 23
2102.097799992907
 33
0.0
 14
6061.621781500781
 24
2102.097799992907
 34
0.0
100
AcDbRotatedDimension
1001
ACAD
1000
DSTYLE
1002
{
1070
   279
1070
     1
1070
    40
1040
25.0
1070
    41
1040
1.5
1070
    43
1040
5.0
1070
    44
1040
0.5
1070
   140
1040
2.0
1070
   147
1040
1.0
1070
   176
1070
   256
1070
   177
1070
   256
1070
   178
1070
   256
1002
}
  0
LINE
  5
9ED5
330
747D
100
AcDbEntity
  8
0
  6
CENTER2
 48
5.0
100
AcDbLine
 10
5941.621781500781
 20
3302.097799992907
 30
0.0
 11
5941.621781500781
 21
3402.097799992907
 31
0.0
  0
LINE
  5
9ED6
330
747D
100
AcDbEntity
  8
0
  6
CENTER2
 48
5.0
100
AcDbLine
 10
4181.62178150078
 20
3302.097799992907
 30
0.0
 11
4181.62178150078
 21
3402.097799992907
 31
0.0
  0
LINE
  5
9ED7
330
747D
100
AcDbEntity
  8
0
  6
CENTER2
 48
5.0
100
AcDbLine
 10
4941.621781500781
 20
3302.097799992907
 30
0.0
 11
4941.621781500781
 21
3402.097799992907
 31
0.0
  0
LINE
  5
9ED8
330
747D
100
AcDbEntity
  8
0
  6
CENTER2
 48
5.0
100
AcDbLine
 10
5181.62178150078
 20
3302.097799992907
 30
0.0
 11
5181.62178150078
 21
3402.097799992907
 31
0.0
  0
DIMENSION
  5
9EDD
330
747D
100
AcDbEntity
  8
寸法引出
 48
25.0
100
AcDbDimension
  2
*D39
 10
5181.62178150078
 20
3499.524509820146
 30
0.0
 11
5061.621781500781
 21
3549.524509820146
 31
0.0
 70
    32
 71
     5
 42
240.0
  3
SANWA
100
AcDbAlignedDimension
 13
4941.621781500781
 23
3402.097799992907
 33
0.0
 14
5181.62178150078
 24
3402.097799992907
 34
0.0
100
AcDbRotatedDimension
1001
ACAD
1000
DSTYLE
1002
{
1070
    40
1040
25.0
1070
    41
1040
1.5
1070
    43
1040
5.0
1070
    44
1040
0.5
1070
   140
1040
2.0
1070
   147
1040
1.0
1070
   176
1070
   256
1070
   177
1070
   256
1070
   178
1070
   256
1002
}
  0
DIMENSION
  5
9EEA
330
747D
100
AcDbEntity
  8
寸法引出
 48
25.0
100
AcDbDimension
  2
*D40
 10
5941.621781500781
 20
3499.524509820146
 30
0.0
 11
5561.621781500781
 21
3549.524509820146
 31
0.0
 70
    32
 71
     5
 42
760.0
  3
SANWA
100
AcDbAlignedDimension
 13
5181.62178150078
 23
3402.097799992907
 33
0.0
 14
5941.621781500781
 24
3402.097799992907
 34
0.0
100
AcDbRotatedDimension
1001
ACAD
1000
DSTYLE
1002
{
1070
   279
1070
     1
1070
    40
1040
25.0
1070
    41
1040
1.5
1070
    43
1040
5.0
1070
    44
1040
0.5
1070
   140
1040
2.0
1070
   147
1040
1.0
1070
   176
1070
   256
1070
   177
1070
   256
1070
   178
1070
   256
1002
}
  0
DIMENSION
  5
9EF7
330
747D
100
AcDbEntity
  8
寸法引出
 48
25.0
100
AcDbDimension
  2
*D41
 10
6061.621781500781
 20
3499.524509820146
 30
0.0
 11
6001.62178150078
 21
3549.524509820146
 31
0.0
 70
    32
 71
     5
 42
120.0
  3
SANWA
100
AcDbAlignedDimension
 13
5941.621781500781
 23
3402.097799992907
 33
0.0
 14
6061.621781500781
 24
3352.097799992907
 34
0.0
100
AcDbRotatedDimension
1001
ACAD
1000
DSTYLE
1002
{
1070
   279
1070
     1
1070
    40
1040
25.0
1070
    41
1040
1.5
1070
    43
1040
5.0
1070
    44
1040
0.5
1070
   140
1040
2.0
1070
   147
1040
1.0
1070
   176
1070
   256
1070
   177
1070
   256
1070
   178
1070
   256
1002
}
  0
DIMENSION
  5
9F06
330
747D
100
AcDbEntity
  8
寸法引出
 48
25.0
100
AcDbDimension
  2
*D42
 10
4181.62178150078
 20
3499.524509820146
 30
0.0
 11
4561.621781500781
 21
3549.524509820146
 31
0.0
 70
    32
 71
     5
 42
760.0
  3
SANWA
100
AcDbAlignedDimension
 13
4941.621781500781
 23
3402.097799992907
 33
0.0
 14
4181.62178150078
 24
3402.097799992907
 34
0.0
100
AcDbRotatedDimension
1001
ACAD
1000
DSTYLE
1002
{
1070
   279
1070
     1
1070
    40
1040
25.0
1070
    41
1040
1.5
1070
    43
1040
5.0
1070
    44
1040
0.5
1070
   140
1040
2.0
1070
   147
1040
1.0
1070
   176
1070
   256
1070
   177
1070
   256
1070
   178
1070
   256
1002
}
  0
DIMENSION
  5
9F13
330
747D
100
AcDbEntity
  8
寸法引出
 48
25.0
100
AcDbDimension
  2
*D43
 10
4061.621781500781
 20
3499.524509820146
 30
0.0
 11
4121.62178150078
 21
3549.524509820146
 31
0.0
 70
    32
 71
     5
 42
120.0
  3
SANWA
100
AcDbAlignedDimension
 13
4181.62178150078
 23
3402.097799992907
 33
0.0
 14
4061.621781500781
 24
3352.097799992907
 34
0.0
100
AcDbRotatedDimension
1001
ACAD
1000
DSTYLE
1002
{
1070
   279
1070
     1
1070
    40
1040
25.0
1070
    41
1040
1.5
1070
    43
1040
5.0
1070
    44
1040
0.5
1070
   140
1040
2.0
1070
   147
1040
1.0
1070
   176
1070
   256
1070
   177
1070
   256
1070
   178
1070
   256
1002
}
  0
MTEXT
  5
9F53
102
{ACAD_REACTORS
330
9F54
102
}
330
747D
100
AcDbEntity
  8
寸法引出
 48
25.0
100
AcDbMText
 10
5129.30972819763
 20
3163.184694681991
 30
0.0
 40
50.0
 41
0.0
 71
     7
 72
     1
  1
ﾛｯｸﾋﾟﾝ用ｲﾝｻｰﾄ 4×2
  7
SANWA
 73
     1
 44
1.0
  0
LEADER
  5
9F54
330
747D
100
AcDbEntity
  8
寸法引出
 48
25.0
100
AcDbLeader
  3
SANWA
 73
     0
 74
     0
 75
     1
 40
64.85714285714286
 41
649.1428571428571
 76
     3
 10
4941.621781500781
 20
3325.837381661095
 30
0.0
 10
5066.80972819763
 20
3138.184694681991
 30
0.0
 10
5104.30972819763
 20
3138.184694681991
 30
0.0
340
9F53
1001
ACAD
1000
DSTYLE
1002
{
1070
    77
1070
     1
1070
    40
1040
25.0
1070
    41
1040
1.5
1070
    43
1040
5.0
1070
    44
1040
0.5
1070
   140
1040
2.0
1070
   147
1040
1.0
1070
   176
1070
   256
1070
   177
1070
   256
1070
   178
1070
   256
1002
}
  0
LINE
  5
9F55
330
747D
100
AcDbEntity
  8
0
  6
CENTER2
 48
5.0
100
AcDbLine
 10
2796.579506636855
 20
3302.097799992907
 30
0.0
 11
2796.579506636855
 21
3402.097799992907
 31
0.0
  0
LINE
  5
9F56
330
747D
100
AcDbEntity
  8
0
  6
CENTER2
 48
5.0
100
AcDbLine
 10
1916.579506636855
 20
3302.097799992907
 30
0.0
 11
1916.579506636855
 21
3402.097799992907
 31
0.0
  0
VIEWPORT
  5
7540
330
747A
100
AcDbEntity
 67
     1
  8
0
100
AcDbViewport
 10
-771.9211402200808
 20
-806.6143395978347
 30
0.0
 40
12549.7922777205
 41
6018.394900880918
 68
     1
 69
     1
 12
-771.9211402200808
 22
-806.6143395978347
 13
0.0
 23
0.0
 14
10.0
 24
10.0
 15
10.0
 25
10.0
 16
0.0
 26
0.0
 36
1.0
 17
0.0
 27
0.0
 37
0.0
 42
50.0
 43
0.0
 44
0.0
 45
6018.394900880918
 50
0.0
 51
0.0
 72
   100
 90
    32800
  1

281
     0
 71
     1
 74
     0
110
0.0
120
0.0
130
0.0
111
1.0
121
0.0
131
0.0
112
0.0
122
1.0
132
0.0
 79
     0
146
0.0
  0
TEXT
  5
7737
330
747A
100
AcDbEntity
 67
     1
  8
0
 48
2.0
100
AcDbText
 10
331.8711968111849
 20
20.60428158404022
 30
0.0
 40
2.0
  1

  7
SANWA
100
AcDbText
  0
ENDSEC
  0
SECTION
  2
OBJECTS
  0
DICTIONARY
  5
7471
330
0
100
AcDbDictionary
281
     1
  3
ACAD_GROUP
350
7472
  3
ACAD_LAYOUT
350
7DA4
  3
ACAD_MLINESTYLE
350
7473
  3
ACAD_PLOTSETTINGS
350
7DA5
  3
ACAD_PLOTSTYLENAME
350
7DA2
  3
AcadDim
350
A63F
  3
ACDBVARIABLEDICTIONARY
350
789B
  0
DICTIONARY
  5
7472
102
{ACAD_REACTORS
330
7471
102
}
330
0
100
AcDbDictionary
281
     1
  0
DICTIONARY
  5
7DA4
102
{ACAD_REACTORS
330
7471
102
}
330
7471
100
AcDbDictionary
281
     1
  3
Model
350
7DA6
  3
ﾚｲｱｳﾄ1
350
7DA7
  0
DICTIONARY
  5
7473
102
{ACAD_REACTORS
330
7471
102
}
330
0
100
AcDbDictionary
281
     1
  3
STANDARD
350
7480
  0
DICTIONARY
  5
7DA5
102
{ACAD_REACTORS
330
7471
102
}
330
7471
100
AcDbDictionary
281
     1
  0
ACDBDICTIONARYWDFLT
  5
7DA2
102
{ACAD_REACTORS
330
7471
102
}
330
7471
100
AcDbDictionary
281
     1
  3
Normal
350
7DA3
100
AcDbDictionaryWithDefault
340
7DA3
  0
XRECORD
  5
A63F
102
{ACAD_REACTORS
330
7471
102
}
330
7471
100
AcDbXrecord
280
     1
 90
   990106
  3

 60
     4
 61
     0
 62
     4
 63
     4
 64
     1
 65
     0
 66
     0
 67
     3
 68
     1
 69
     0
 70
     0
 71
     0
 72
     0
 40
0.0
170
     0
340
9AA7
  0
DICTIONARY
  5
789B
102
{ACAD_REACTORS
330
7471
102
}
330
7471
100
AcDbDictionary
281
     1
  3
DIMASSOC
350
7E95
  3
SORTENTS
350
789C
  0
LAYOUT
  5
7DA6
102
{ACAD_REACTORS
330
7DA4
102
}
330
7DA4
100
AcDbPlotSettings
  1

  2
FX DocuCentre Color f360
  4
A4
  6

 40
4.857749938964843
 41
4.942390441894531
 42
4.942413330078125
 43
4.857757568359375
 44
209.9733276367187
 45
297.0106506347656
 46
5.089999999999999
 47
12.61
 48
624.9999969716336
 49
250.0000004859534
140
7174.999996971634
141
5000.000000485954
142
1.0
143
25.0
 70
 11940
 72
     1
 73
     1
 74
     4
  7
sanwa3.ctb
 75
     0
147
0.04
148
-624.9999969716336
149
-250.0000004859534
100
AcDbLayout
  1
Model
 70
     1
 71
     0
 10
0.0
 20
0.0
 11
12.0
 21
9.0
 12
0.0
 22
0.0
 32
0.0
 14
0.0
 24
0.0
 34
0.0
 15
0.0
 25
0.0
 35
0.0
146
0.0
 13
0.0
 23
0.0
 33
0.0
 16
1.0
 26
0.0
 36
0.0
 17
0.0
 27
1.0
 37
0.0
 76
     0
330
747D
  0
LAYOUT
  5
7DA7
102
{ACAD_REACTORS
330
7DA4
102
}
330
7DA4
100
AcDbPlotSettings
  1

  2
RICOH NX-510
  4
A4
  6

 40
5.873749732971191
 41
4.92125654220581
 42
7.588241577148437
 43
5.81024169921875
 44
209.9944915771484
 45
296.989501953125
 46
0.0
 47
0.0
 48
0.0
 49
0.0
140
0.0
141
0.0
142
1.0
143
1.06978997046952
 70
   688
 72
     1
 73
     1
 74
     1
  7
sanwa3.ctb
 75
     0
147
0.934762923194269
148
6747.711967593216
149
3551.957062841418
100
AcDbLayout
  1
ﾚｲｱｳﾄ1
 70
     1
 71
     1
 10
-6753.927705889044
 20
-3558.240741394798
 11
-6436.211315364852
 21
-3333.590740451718
 12
0.0
 22
0.0
 32
0.0
 14
-6747.711967593216
 24
-3551.957062841418
 34
-0.0015258207003583
 15
-6450.233007706005
 25
-3341.708565184451
 35
0.0000000349246037
146
0.0
 13
0.0
 23
0.0
 33
0.0
 16
1.0
 26
0.0
 36
0.0
 17
0.0
 27
1.0
 37
0.0
 76
     0
330
747A
331
7540
  0
MLINESTYLE
  5
7480
102
{ACAD_REACTORS
330
7473
102
}
330
0
100
AcDbMlineStyle
  2
STANDARD
 70
     0
  3

 62
     0
 51
90.0
 52
90.0
 71
     2
 49
0.5
 62
   256
  6
BYLAYER
 49
-0.5
 62
   256
  6
BYLAYER
  0
ACDBPLACEHOLDER
  5
7DA3
102
{ACAD_REACTORS
330
7DA2
102
}
330
7DA2
  0
DICTIONARYVAR
  5
7E95
102
{ACAD_REACTORS
330
789B
102
}
330
789B
100
DictionaryVariables
280
     0
  1
1
  0
DICTIONARYVAR
  5
789C
102
{ACAD_REACTORS
330
789B
102
}
330
789B
100
DictionaryVariables
280
     0
  1
96
  0
ENDSEC
  0
EOF
