  0
SECTION
  2
HEADER
  9
$ACADVER
  1
AC1015
  9
$ACADMAINTVER
 70
    13
  9
$DWGCODEPAGE
  3
ANSI_932
  9
$INSBASE
 10
0.0
 20
0.0
 30
0.0
  9
$EXTMIN
 10
-1.184938169106317
 20
-0.264056773727134
 30
-0.0000000000000015
  9
$EXTMAX
 10
7425.421035750613
 20
5250.005824912898
 30
0.0000000000000137
  9
$LIMMIN
 10
0.0
 20
0.0
  9
$LIMMAX
 10
420.0
 20
297.0
  9
$ORTHOMODE
 70
     1
  9
$REGENMODE
 70
     1
  9
$FILLMODE
 70
     1
  9
$QTEXTMODE
 70
     0
  9
$MIRRTEXT
 70
     1
  9
$LTSCALE
 40
0.5
  9
$ATTMODE
 70
     1
  9
$TEXTSIZE
 40
2.799999999999999
  9
$TRACEWID
 40
1.0
  9
$TEXTSTYLE
  7
SANWA
  9
$CLAYER
  8
0
  9
$CELTYPE
  6
BYLAYER
  9
$CECOLOR
 62
   256
  9
$CELTSCALE
 40
25.0
  9
$DISPSILH
 70
     0
  9
$DIMSCALE
 40
20.0
  9
$DIMASZ
 40
1.5
  9
$DIMEXO
 40
1.0
  9
$DIMDLI
 40
5.0
  9
$DIMRND
 40
0.0
  9
$DIMDLE
 40
0.0
  9
$DIMEXE
 40
0.5
  9
$DIMTP
 40
0.0
  9
$DIMTM
 40
0.0
  9
$DIMTXT
 40
2.0
  9
$DIMCEN
 40
0.0
  9
$DIMTSZ
 40
0.0
  9
$DIMTOL
 70
     0
  9
$DIMLIM
 70
     0
  9
$DIMTIH
 70
     0
  9
$DIMTOH
 70
     0
  9
$DIMSE1
 70
     0
  9
$DIMSE2
 70
     0
  9
$DIMTAD
 70
     1
  9
$DIMZIN
 70
     8
  9
$DIMBLK
  1

  9
$DIMASO
 70
     1
  9
$DIMSHO
 70
     1
  9
$DIMPOST
  1

  9
$DIMAPOST
  1

  9
$DIMALT
 70
     0
  9
$DIMALTD
 70
     2
  9
$DIMALTF
 40
0.0394
  9
$DIMLFAC
 40
1.0
  9
$DIMTOFL
 70
     1
  9
$DIMTVP
 40
0.0
  9
$DIMTIX
 70
     1
  9
$DIMSOXD
 70
     0
  9
$DIMSAH
 70
     0
  9
$DIMBLK1
  1

  9
$DIMBLK2
  1

  9
$DIMSTYLE
  2
SANWA
  9
$DIMCLRD
 70
   256
  9
$DIMCLRE
 70
   256
  9
$DIMCLRT
 70
   256
  9
$DIMTFAC
 40
1.0
  9
$DIMGAP
 40
1.0
  9
$DIMJUST
 70
     0
  9
$DIMSD1
 70
     0
  9
$DIMSD2
 70
     0
  9
$DIMTOLJ
 70
     1
  9
$DIMTZIN
 70
     0
  9
$DIMALTZ
 70
     0
  9
$DIMALTTZ
 70
     0
  9
$DIMUPT
 70
     0
  9
$DIMDEC
 70
     4
  9
$DIMTDEC
 70
     4
  9
$DIMALTU
 70
     2
  9
$DIMALTTD
 70
     2
  9
$DIMTXSTY
  7
SANWA
  9
$DIMAUNIT
 70
     0
  9
$DIMADEC
 70
     0
  9
$DIMALTRND
 40
0.0
  9
$DIMAZIN
 70
     0
  9
$DIMDSEP
 70
    46
  9
$DIMATFIT
 70
     3
  9
$DIMFRAC
 70
     0
  9
$DIMLDRBLK
  1

  9
$DIMLUNIT
 70
     2
  9
$DIMLWD
 70
    -2
  9
$DIMLWE
 70
    -2
  9
$DIMTMOVE
 70
     0
  9
$LUNITS
 70
     2
  9
$LUPREC
 70
     4
  9
$SKETCHINC
 40
1.0
  9
$FILLETRAD
 40
50.0
  9
$AUNITS
 70
     0
  9
$AUPREC
 70
     0
  9
$MENU
  1
acad
  9
$ELEVATION
 40
0.0
  9
$PELEVATION
 40
0.0
  9
$THICKNESS
 40
0.0
  9
$LIMCHECK
 70
     0
  9
$CHAMFERA
 40
0.0
  9
$CHAMFERB
 40
0.0
  9
$CHAMFERC
 40
0.0
  9
$CHAMFERD
 40
0.0
  9
$SKPOLY
 70
     1
  9
$TDCREATE
 40
2451589.862323842
  9
$TDUCREATE
 40
2451589.487323842
  9
$TDUPDATE
 40
2454167.412933298
  9
$TDUUPDATE
 40
2454167.037933298
  9
$TDINDWG
 40
0.7861138542
  9
$TDUSRTIMER
 40
0.7861138542
  9
$USRTIMER
 70
     1
  9
$ANGBASE
 50
0.0
  9
$ANGDIR
 70
     0
  9
$PDMODE
 70
     0
  9
$PDSIZE
 40
0.0
  9
$PLINEWID
 40
0.0
  9
$SPLFRAME
 70
     0
  9
$SPLINETYPE
 70
     6
  9
$SPLINESEGS
 70
     8
  9
$HANDSEED
  5
C183
  9
$SURFTAB1
 70
     6
  9
$SURFTAB2
 70
     6
  9
$SURFTYPE
 70
     6
  9
$SURFU
 70
     6
  9
$SURFV
 70
     6
  9
$UCSBASE
  2

  9
$UCSNAME
  2

  9
$UCSORG
 10
0.0
 20
0.0
 30
0.0
  9
$UCSXDIR
 10
1.0
 20
0.0
 30
0.0
  9
$UCSYDIR
 10
0.0
 20
1.0
 30
0.0
  9
$UCSORTHOREF
  2

  9
$UCSORTHOVIEW
 70
     0
  9
$UCSORGTOP
 10
0.0
 20
0.0
 30
0.0
  9
$UCSORGBOTTOM
 10
0.0
 20
0.0
 30
0.0
  9
$UCSORGLEFT
 10
0.0
 20
0.0
 30
0.0
  9
$UCSORGRIGHT
 10
0.0
 20
0.0
 30
0.0
  9
$UCSORGFRONT
 10
0.0
 20
0.0
 30
0.0
  9
$UCSORGBACK
 10
0.0
 20
0.0
 30
0.0
  9
$PUCSBASE
  2

  9
$PUCSNAME
  2

  9
$PUCSORG
 10
0.0
 20
0.0
 30
0.0
  9
$PUCSXDIR
 10
1.0
 20
0.0
 30
0.0
  9
$PUCSYDIR
 10
0.0
 20
1.0
 30
0.0
  9
$PUCSORTHOREF
  2

  9
$PUCSORTHOVIEW
 70
     0
  9
$PUCSORGTOP
 10
0.0
 20
0.0
 30
0.0
  9
$PUCSORGBOTTOM
 10
0.0
 20
0.0
 30
0.0
  9
$PUCSORGLEFT
 10
0.0
 20
0.0
 30
0.0
  9
$PUCSORGRIGHT
 10
0.0
 20
0.0
 30
0.0
  9
$PUCSORGFRONT
 10
0.0
 20
0.0
 30
0.0
  9
$PUCSORGBACK
 10
0.0
 20
0.0
 30
0.0
  9
$USERI1
 70
     0
  9
$USERI2
 70
     0
  9
$USERI3
 70
     0
  9
$USERI4
 70
     0
  9
$USERI5
 70
     0
  9
$USERR1
 40
0.0
  9
$USERR2
 40
0.0
  9
$USERR3
 40
0.0
  9
$USERR4
 40
0.0
  9
$USERR5
 40
0.0
  9
$WORLDVIEW
 70
     1
  9
$SHADEDGE
 70
     3
  9
$SHADEDIF
 70
    70
  9
$TILEMODE
 70
     1
  9
$MAXACTVP
 70
    48
  9
$PINSBASE
 10
0.0
 20
0.0
 30
0.0
  9
$PLIMCHECK
 70
     0
  9
$PEXTMIN
 10
1.000000000000000E+20
 20
1.000000000000000E+20
 30
1.000000000000000E+20
  9
$PEXTMAX
 10
-1.000000000000000E+20
 20
-1.000000000000000E+20
 30
-1.000000000000000E+20
  9
$PLIMMIN
 10
-6996.302392501092
 20
-3651.249582209533
  9
$PLIMMAX
 10
938.1879353110262
 20
1959.047251029004
  9
$UNITMODE
 70
     0
  9
$VISRETAIN
 70
     1
  9
$PLINEGEN
 70
     0
  9
$PSLTSCALE
 70
     1
  9
$TREEDEPTH
 70
  3020
  9
$CMLSTYLE
  2
STANDARD
  9
$CMLJUST
 70
     0
  9
$CMLSCALE
 40
1.0
  9
$PROXYGRAPHICS
 70
     1
  9
$MEASUREMENT
 70
     1
  9
$CELWEIGHT
370
    -1
  9
$ENDCAPS
280
     0
  9
$JOINSTYLE
280
     0
  9
$LWDISPLAY
290
     0
  9
$INSUNITS
 70
     0
  9
$HYPERLINKBASE
  1

  9
$STYLESHEET
  1
sanwa3.ctb
  9
$XEDIT
290
     1
  9
$CEPSNTYPE
380
     0
  9
$PSTYLEMODE
290
     1
  9
$FINGERPRINTGUID
  2
{2C99259D-8608-4487-B31F-D92DA0289A61}
  9
$VERSIONGUID
  2
{DB8BD200-E54A-4392-92E1-A025B2269359}
  9
$EXTNAMES
290
     1
  9
$PSVPSCALE
 40
0.0
  9
$OLESTARTUP
290
     0
  0
ENDSEC
  0
SECTION
  2
CLASSES
  0
CLASS
  1
LWPOLYLINE
  2
AcDbPolyline
  3
AutoCAD 2000
 90
    32768
280
     0
281
     1
  0
CLASS
  1
DICTIONARYVAR
  2
AcDbDictionaryVar
  3
AutoCAD 2000
 90
        0
280
     0
281
     0
  0
CLASS
  1
HATCH
  2
AcDbHatch
  3
AutoCAD 2000
 90
    32768
280
     0
281
     1
  0
CLASS
  1
ACDBDICTIONARYWDFLT
  2
AcDbDictionaryWithDefault
  3
AutoCAD 2000
 90
        0
280
     0
281
     0
  0
CLASS
  1
ACDBPLACEHOLDER
  2
AcDbPlaceHolder
  3
AutoCAD 2000
 90
        0
280
     0
281
     0
  0
CLASS
  1
LAYOUT
  2
AcDbLayout
  3
AutoCAD 2000
 90
        0
280
     0
281
     0
  0
ENDSEC
  0
SECTION
  2
TABLES
  0
TABLE
  2
VPORT
  5
746D
330
0
100
AcDbSymbolTable
 70
     2
  0
VPORT
  5
C182
330
746D
100
AcDbSymbolTableRecord
100
AcDbViewportTableRecord
  2
*Active
 70
     0
 10
0.0
 20
0.0
 11
1.0
 21
1.0
 12
3712.118012628756
 22
2624.870866442485
 13
0.0
 23
0.0
 14
10.0
 24
10.0
 15
10.0
 25
10.0
 16
0.0
 26
0.0
 36
1.0
 17
0.0
 27
0.0
 37
0.0
 40
5589.595277694651
 41
1.393129770992366
 42
50.0
 43
0.0
 44
0.0
 50
0.0
 51
0.0
 71
     0
 72
   100
 73
     1
 74
     0
 75
     0
 76
     0
 77
     0
 78
     0
281
     0
 65
     1
110
0.0
120
0.0
130
0.0
111
1.0
121
0.0
131
0.0
112
0.0
122
1.0
132
0.0
 79
     0
146
0.0
  0
ENDTAB
  0
TABLE
  2
LTYPE
  5
746A
330
0
100
AcDbSymbolTable
 70
     5
  0
LTYPE
  5
7477
330
746A
100
AcDbSymbolTableRecord
100
AcDbLinetypeTableRecord
  2
BYBLOCK
 70
     0
  3

 72
    65
 73
     0
 40
0.0
  0
LTYPE
  5
7478
330
746A
100
AcDbSymbolTableRecord
100
AcDbLinetypeTableRecord
  2
BYLAYER
 70
     0
  3

 72
    65
 73
     0
 40
0.0
  0
LTYPE
  5
7479
330
746A
100
AcDbSymbolTableRecord
100
AcDbLinetypeTableRecord
  2
CONTINUOUS
 70
     0
  3
Solid line
 72
    65
 73
     0
 40
0.0
  0
LTYPE
  5
7D54
330
746A
100
AcDbSymbolTableRecord
100
AcDbLinetypeTableRecord
  2
CENTER2
 70
     0
  3
Center (.5x) ___ _ ___ _ ___ _ ___ _ ___ _ ___
 72
    65
 73
     4
 40
28.57499999999999
 49
19.05
 74
     0
 49
-3.174999999999999
 74
     0
 49
3.174999999999999
 74
     0
 49
-3.174999999999999
 74
     0
  0
LTYPE
  5
7D55
330
746A
100
AcDbSymbolTableRecord
100
AcDbLinetypeTableRecord
  2
DOT
 70
     0
  3
Dot . . . . . . . . . . . . . . . . . . . . . .
 72
    65
 73
     2
 40
6.349999999999999
 49
0.0
 74
     0
 49
-6.349999999999999
 74
     0
  0
LTYPE
  5
7D56
330
746A
100
AcDbSymbolTableRecord
100
AcDbLinetypeTableRecord
  2
HIDDEN2
 70
     0
  3
Hidden (.5x) _ _ _ _ _ _ _ _ _ _ _ _ _ _ _ _ _
 72
    65
 73
     2
 40
4.762499999999999
 49
3.174999999999999
 74
     0
 49
-1.587499999999999
 74
     0
  0
LTYPE
  5
7D57
330
746A
100
AcDbSymbolTableRecord
100
AcDbLinetypeTableRecord
  2
PHANTOM2
 70
     0
  3
Phantom (.5x) ___ _ _ ___ _ _ ___ _ _ ___ _ _
 72
    65
 73
     6
 40
31.75
 49
15.875
 74
     0
 49
-3.174999999999999
 74
     0
 49
3.174999999999999
 74
     0
 49
-3.174999999999999
 74
     0
 49
3.174999999999999
 74
     0
 49
-3.174999999999999
 74
     0
  0
ENDTAB
  0
TABLE
  2
LAYER
  5
7467
330
0
100
AcDbSymbolTable
 70
     7
  0
LAYER
  5
7474
330
7467
100
AcDbSymbolTableRecord
100
AcDbLayerTableRecord
  2
0
 70
     0
 62
     7
  6
CONTINUOUS
370
    -3
390
8667
  0
LAYER
  5
7485
330
7467
100
AcDbSymbolTableRecord
100
AcDbLayerTableRecord
  2
DEFPOINTS
 70
     0
 62
     7
  6
CONTINUOUS
290
     0
370
    -3
390
8667
  0
LAYER
  5
7486
330
7467
100
AcDbSymbolTableRecord
100
AcDbLayerTableRecord
  2
OBJECT
 70
     0
 62
     7
  6
CONTINUOUS
370
    -3
390
8667
  0
LAYER
  5
7950
330
7467
100
AcDbSymbolTableRecord
100
AcDbLayerTableRecord
  2
枠
 70
     0
 62
     3
  6
CONTINUOUS
370
    -3
390
8667
  0
LAYER
  5
7D58
330
7467
100
AcDbSymbolTableRecord
100
AcDbLayerTableRecord
  2
寸法引出
 70
     0
 62
     2
  6
CONTINUOUS
370
    -3
390
8667
  0
LAYER
  5
7D59
330
7467
100
AcDbSymbolTableRecord
100
AcDbLayerTableRecord
  2
鉄筋
 70
     0
 62
     4
  6
CONTINUOUS
370
    -3
390
8667
  0
LAYER
  5
7D5A
330
7467
100
AcDbSymbolTableRecord
100
AcDbLayerTableRecord
  2
補助線
 70
     0
 62
     6
  6
CONTINUOUS
370
    -3
390
8667
  0
ENDTAB
  0
TABLE
  2
STYLE
  5
7468
330
0
100
AcDbSymbolTable
 70
     4
  0
STYLE
  5
7475
330
7468
100
AcDbSymbolTableRecord
100
AcDbTextStyleTableRecord
  2
STANDARD
 70
     0
 40
0.0
 41
1.0
 50
0.0
 71
     0
 42
3.5
  3
txt
  4

  0
STYLE
  5
7481
330
7468
100
AcDbSymbolTableRecord
100
AcDbTextStyleTableRecord
  2
ADESK1
 70
     0
 40
0.0
 41
1.0
 50
0.0
 71
     0
 42
5.0
  3
romans
  4
bigfont
  0
STYLE
  5
7731
330
7468
100
AcDbSymbolTableRecord
100
AcDbTextStyleTableRecord
  2
SANWA
 70
     0
 40
0.0
 41
1.0
 50
0.0
 71
     0
 42
2.799999999999999
  3
MS Mincho.ttf
  4

1001
ACAD
1000
MS Mincho
1071
    32785
  0
STYLE
  5
7D45
330
7468
100
AcDbSymbolTableRecord
100
AcDbTextStyleTableRecord
  2

 70
     1
 40
0.0
 41
1.0
 50
0.0
 71
     0
 42
3.5
  3
ltypeshp.shx
  4

  0
ENDTAB
  0
TABLE
  2
VIEW
  5
746B
330
0
100
AcDbSymbolTable
 70
     0
  0
ENDTAB
  0
TABLE
  2
UCS
  5
746C
330
0
100
AcDbSymbolTable
 70
     0
  0
ENDTAB
  0
TABLE
  2
APPID
  5
746E
330
0
100
AcDbSymbolTable
 70
     1
  0
APPID
  5
7476
330
746E
100
AcDbSymbolTableRecord
100
AcDbRegAppTableRecord
  2
ACAD
 70
     0
  0
ENDTAB
  0
TABLE
  2
DIMSTYLE
  5
746F
330
0
100
AcDbSymbolTable
 70
     4
100
AcDbDimStyleTable
 71
     1
340
796F
  0
DIMSTYLE
105
7484
330
746F
100
AcDbSymbolTableRecord
100
AcDbDimStyleTableRecord
  2
JIS
 70
     0
 41
2.5
 42
1.0
 43
7.0
 44
1.0
 73
     0
 74
     0
 77
     1
 78
     8
140
2.5
141
0.0
143
0.0394
147
0.0
172
     1
174
     1
176
     2
177
     2
178
     2
340
7731
  0
DIMSTYLE
105
796F
102
{ACAD_REACTORS
330
95C9
330
95C8
330
95C7
330
95C6
330
95BC
330
95B6
330
95AC
330
95AB
330
959E
330
957B
330
9566
330
9565
330
A836
330
A85A
330
A859
330
A89B
330
A899
330
A89A
330
A896
330
A8BC
330
ADF0
330
ADF1
330
ADF2
330
ADF7
330
ADF8
330
B574
330
96AC
330
96BA
330
9532
330
9534
330
9686
330
B5E7
330
B851
102
}
330
746F
100
AcDbSymbolTableRecord
100
AcDbDimStyleTableRecord
  2
SANWA
 70
     0
 41
2.5
 42
1.0
 43
7.0
 44
1.0
 73
     0
 74
     0
 77
     1
 78
     8
140
2.5
141
0.0
143
0.0394
147
0.0
172
     1
174
     1
176
     2
177
     2
178
     2
340
7731
  0
DIMSTYLE
105
7C9D
330
746F
100
AcDbSymbolTableRecord
100
AcDbDimStyleTableRecord
  2
SANWA$4
 70
     0
 41
2.5
 42
1.0
 43
5.0
 44
1.0
 73
     0
 74
     0
 77
     1
 78
     8
140
2.5
141
0.0
143
0.0394
147
1.0
172
     1
174
     1
176
     2
177
     2
178
     2
289
     2
340
7731
  0
DIMSTYLE
105
7CB5
330
746F
100
AcDbSymbolTableRecord
100
AcDbDimStyleTableRecord
  2
SANWA$3
 70
     0
 41
2.5
 42
1.0
 43
7.0
 44
1.0
 73
     0
 74
     0
 77
     1
 78
     8
140
2.5
141
0.0
143
0.0394
147
0.0
172
     1
174
     1
176
     2
177
     2
178
     2
289
     0
340
7731
  0
ENDTAB
  0
TABLE
  2
BLOCK_RECORD
  5
7466
330
0
100
AcDbSymbolTable
 70
    34
  0
BLOCK_RECORD
  5
747D
330
7466
100
AcDbSymbolTableRecord
100
AcDbBlockTableRecord
  2
*MODEL_SPACE
340
866A
  0
BLOCK_RECORD
  5
747A
330
7466
100
AcDbSymbolTableRecord
100
AcDbBlockTableRecord
  2
*PAPER_SPACE
340
866B
  0
BLOCK_RECORD
  5
7493
330
7466
100
AcDbSymbolTableRecord
100
AcDbBlockTableRecord
  2
TITLE_BLOCK
340
0
  0
BLOCK_RECORD
  5
98A0
330
7466
100
AcDbSymbolTableRecord
100
AcDbBlockTableRecord
  2
*D1
340
0
  0
BLOCK_RECORD
  5
98AB
330
7466
100
AcDbSymbolTableRecord
100
AcDbBlockTableRecord
  2
*D2
340
0
  0
BLOCK_RECORD
  5
98F4
330
7466
100
AcDbSymbolTableRecord
100
AcDbBlockTableRecord
  2
*D3
340
0
  0
BLOCK_RECORD
  5
99E4
330
7466
100
AcDbSymbolTableRecord
100
AcDbBlockTableRecord
  2
*D4
340
0
  0
BLOCK_RECORD
  5
99F2
330
7466
100
AcDbSymbolTableRecord
100
AcDbBlockTableRecord
  2
*D5
340
0
  0
BLOCK_RECORD
  5
99FF
330
7466
100
AcDbSymbolTableRecord
100
AcDbBlockTableRecord
  2
*D6
340
0
  0
BLOCK_RECORD
  5
9A0C
330
7466
100
AcDbSymbolTableRecord
100
AcDbBlockTableRecord
  2
*D7
340
0
  0
BLOCK_RECORD
  5
9A18
330
7466
100
AcDbSymbolTableRecord
100
AcDbBlockTableRecord
  2
*D8
340
0
  0
BLOCK_RECORD
  5
9A53
330
7466
100
AcDbSymbolTableRecord
100
AcDbBlockTableRecord
  2
*D9
340
0
  0
BLOCK_RECORD
  5
9A5F
330
7466
100
AcDbSymbolTableRecord
100
AcDbBlockTableRecord
  2
*D10
340
0
  0
BLOCK_RECORD
  5
9A6C
330
7466
100
AcDbSymbolTableRecord
100
AcDbBlockTableRecord
  2
*D11
340
0
  0
BLOCK_RECORD
  5
9AA1
330
7466
100
AcDbSymbolTableRecord
100
AcDbBlockTableRecord
  2
*D12
340
0
  0
BLOCK_RECORD
  5
9AAD
330
7466
100
AcDbSymbolTableRecord
100
AcDbBlockTableRecord
  2
*D13
340
0
  0
BLOCK_RECORD
  5
9ABA
330
7466
100
AcDbSymbolTableRecord
100
AcDbBlockTableRecord
  2
*D14
340
0
  0
BLOCK_RECORD
  5
9AC6
330
7466
100
AcDbSymbolTableRecord
100
AcDbBlockTableRecord
  2
*D15
340
0
  0
BLOCK_RECORD
  5
9AEB
330
7466
100
AcDbSymbolTableRecord
100
AcDbBlockTableRecord
  2
*D16
340
0
  0
BLOCK_RECORD
  5
9AF6
330
7466
100
AcDbSymbolTableRecord
100
AcDbBlockTableRecord
  2
*D17
340
0
  0
BLOCK_RECORD
  5
A837
330
7466
100
AcDbSymbolTableRecord
100
AcDbBlockTableRecord
  2
*D18
340
0
  0
BLOCK_RECORD
  5
A85C
330
7466
100
AcDbSymbolTableRecord
100
AcDbBlockTableRecord
  2
*D19
340
0
  0
BLOCK_RECORD
  5
A86A
330
7466
100
AcDbSymbolTableRecord
100
AcDbBlockTableRecord
  2
*D20
340
0
  0
BLOCK_RECORD
  5
A8E0
330
7466
100
AcDbSymbolTableRecord
100
AcDbBlockTableRecord
  2
*D21
340
0
  0
BLOCK_RECORD
  5
A8EC
330
7466
100
AcDbSymbolTableRecord
100
AcDbBlockTableRecord
  2
*D22
340
0
  0
BLOCK_RECORD
  5
A8F8
330
7466
100
AcDbSymbolTableRecord
100
AcDbBlockTableRecord
  2
*D23
340
0
  0
BLOCK_RECORD
  5
A904
330
7466
100
AcDbSymbolTableRecord
100
AcDbBlockTableRecord
  2
*D24
340
0
  0
BLOCK_RECORD
  5
A948
330
7466
100
AcDbSymbolTableRecord
100
AcDbBlockTableRecord
  2
*D25
340
0
  0
BLOCK_RECORD
  5
AE0E
330
7466
100
AcDbSymbolTableRecord
100
AcDbBlockTableRecord
  2
*D26
340
0
  0
BLOCK_RECORD
  5
AE1C
330
7466
100
AcDbSymbolTableRecord
100
AcDbBlockTableRecord
  2
*D27
340
0
  0
BLOCK_RECORD
  5
AE28
330
7466
100
AcDbSymbolTableRecord
100
AcDbBlockTableRecord
  2
*D28
340
0
  0
BLOCK_RECORD
  5
AE34
330
7466
100
AcDbSymbolTableRecord
100
AcDbBlockTableRecord
  2
*D29
340
0
  0
BLOCK_RECORD
  5
AE42
330
7466
100
AcDbSymbolTableRecord
100
AcDbBlockTableRecord
  2
*D30
340
0
  0
BLOCK_RECORD
  5
B575
330
7466
100
AcDbSymbolTableRecord
100
AcDbBlockTableRecord
  2
*D31
340
0
  0
BLOCK_RECORD
  5
B5E8
330
7466
100
AcDbSymbolTableRecord
100
AcDbBlockTableRecord
  2
*D32
340
0
  0
BLOCK_RECORD
  5
B852
330
7466
100
AcDbSymbolTableRecord
100
AcDbBlockTableRecord
  2
*D33
340
0
  0
ENDTAB
  0
ENDSEC
  0
SECTION
  2
BLOCKS
  0
BLOCK
  5
7489
330
747D
100
AcDbEntity
  8
0
100
AcDbBlockBegin
  2
*MODEL_SPACE
 70
     0
 10
0.0
 20
0.0
 30
0.0
  3
*MODEL_SPACE
  1

  0
ENDBLK
  5
748A
330
747D
100
AcDbEntity
  8
0
100
AcDbBlockEnd
  0
BLOCK
  5
7487
330
747A
100
AcDbEntity
 67
     1
  8
0
100
AcDbBlockBegin
  2
*PAPER_SPACE
 70
     2
 10
0.0
 20
0.0
 30
0.0
  3
*PAPER_SPACE
  1

  0
ENDBLK
  5
7488
330
747A
100
AcDbEntity
 67
     1
  8
0
100
AcDbBlockEnd
  0
BLOCK
  5
7494
330
7493
100
AcDbEntity
  8
0
100
AcDbBlockBegin
  2
TITLE_BLOCK
 70
     2
 10
0.0
 20
0.0
 30
0.0
  3
TITLE_BLOCK
  1

  0
LINE
  5
7495
330
7493
100
AcDbEntity
  8
0
 62
     0
100
AcDbLine
 10
402.7943262411347
 20
16.00000000000008
 30
0.0
 11
410.0
 21
16.00000000000008
 31
0.0
  0
LINE
  5
7496
330
7493
100
AcDbEntity
  8
0
 62
     0
100
AcDbLine
 10
410.0
 20
10.0
 30
0.0
 11
410.0
 21
49.00000000000036
 31
0.0
  0
LINE
  5
7497
330
7493
100
AcDbEntity
  8
0
 62
     0
100
AcDbLine
 10
410.0
 20
49.00000000000036
 30
0.0
 11
410.0
 21
10.0
 31
0.0
  0
LINE
  5
7498
330
7493
100
AcDbEntity
  8
0
 62
     0
100
AcDbLine
 10
402.7943262411347
 20
22.00000000000012
 30
0.0
 11
402.7943262411347
 21
10.0
 31
0.0
  0
LINE
  5
7499
330
7493
100
AcDbEntity
  8
0
 62
     0
100
AcDbLine
 10
336.1418439716306
 20
49.00000000000036
 30
0.0
 11
336.1418439716306
 21
22.00000000000012
 31
0.0
  0
LINE
  5
749A
330
7493
100
AcDbEntity
  8
0
 62
     0
100
AcDbLine
 10
325.3333333333325
 20
37.00000000000024
 30
0.0
 11
325.3333333333325
 21
25.00000000000012
 31
0.0
  0
LINE
  5
749B
330
7493
100
AcDbEntity
  8
0
 62
     0
100
AcDbLine
 10
318.1276595744673
 20
49.00000000000036
 30
0.0
 11
318.1276595744673
 21
25.00000000000012
 31
0.0
  0
LINE
  5
749C
330
7493
100
AcDbEntity
  8
0
 62
     0
100
AcDbLine
 10
318.1276595744673
 20
25.00000000000012
 30
0.0
 11
348.7517730496447
 21
25.00000000000012
 31
0.0
  0
LINE
  5
749D
330
7493
100
AcDbEntity
  8
0
 62
     0
100
AcDbLine
 10
280.2978723404241
 20
28.00000000000015
 30
0.0
 11
348.7517730496447
 21
28.00000000000015
 31
0.0
  0
LINE
  5
749E
330
7493
100
AcDbEntity
  8
0
 62
     0
100
AcDbLine
 10
280.2978723404241
 20
31.0000000000002
 30
0.0
 11
348.7517730496447
 21
31.0000000000002
 31
0.0
  0
LINE
  5
749F
330
7493
100
AcDbEntity
  8
0
 62
     0
100
AcDbLine
 10
280.2978723404241
 20
34.00000000000024
 30
0.0
 11
348.7517730496447
 21
34.00000000000024
 31
0.0
  0
LINE
  5
74A0
330
7493
100
AcDbEntity
  8
0
 62
     0
100
AcDbLine
 10
280.2978723404241
 20
19.00000000000007
 30
0.0
 11
318.1276595744673
 21
19.00000000000012
 31
0.0
  0
LINE
  5
74A1
330
7493
100
AcDbEntity
  8
0
 62
     0
100
AcDbLine
 10
280.2978723404241
 20
22.00000000000007
 30
0.0
 11
318.1276595744673
 21
22.00000000000012
 31
0.0
  0
LINE
  5
74A2
330
7493
100
AcDbEntity
  8
0
 62
     0
100
AcDbLine
 10
280.2978723404241
 20
25.00000000000012
 30
0.0
 11
318.1276595744673
 21
25.00000000000012
 31
0.0
  0
TEXT
  5
74A3
330
7493
100
AcDbEntity
  8
0
 62
     0
100
AcDbText
 10
342.2447163844405
 20
10.55220101068186
 30
0.0
 40
1.791674070777747
  1
照査
  7
ADESK1
 72
     1
 11
344.1558353932701
 21
10.55220101068186
 31
0.0
100
AcDbText
  0
TEXT
  5
74A4
330
7493
100
AcDbEntity
  8
0
 62
     0
100
AcDbText
 10
332.2960689314087
 20
10.48329012996929
 30
0.0
 40
1.791674070777747
  1
設計
  7
ADESK1
 72
     1
 11
334.2071879402383
 21
10.48329012996929
 31
0.0
100
AcDbText
  0
TEXT
  5
74A5
330
7493
100
AcDbEntity
  8
0
 62
     0
100
AcDbText
 10
321.7174935280942
 20
10.48329012996929
 30
0.0
 40
1.791674070777747
  1
製図
  7
ADESK1
 72
     1
 11
323.5688900678979
 21
10.48329012996929
 31
0.0
100
AcDbText
  0
LINE
  5
74A6
330
7493
100
AcDbEntity
  8
0
 62
     0
100
AcDbLine
 10
280.2978723404241
 20
10.0
 30
0.0
 11
280.2978723404241
 21
13.00000000000004
 31
0.0
  0
LINE
  5
74A7
330
7493
100
AcDbEntity
  8
0
 62
     0
100
AcDbLine
 10
280.2978723404241
 20
16.00000000000008
 30
0.0
 11
318.1276595744673
 21
16.00000000000008
 31
0.0
  0
LINE
  5
74A8
330
7493
100
AcDbEntity
  8
0
 62
     0
100
AcDbLine
 10
339.4042553191484
 20
22.00000000000007
 30
0.0
 11
339.4042553191484
 21
10.0
 31
0.0
  0
LINE
  5
74A9
330
7493
100
AcDbEntity
  8
0
 62
     0
100
AcDbLine
 10
328.7659574468077
 20
22.00000000000007
 30
0.0
 11
328.7659574468077
 21
10.0
 31
0.0
  0
LINE
  5
74AA
330
7493
100
AcDbEntity
  8
0
 62
     0
100
AcDbLine
 10
348.7517730496447
 20
49.00000000000036
 30
0.0
 11
348.7517730496447
 21
10.0
 31
0.0
  0
LINE
  5
74AB
330
7493
100
AcDbEntity
  8
0
 62
     0
100
AcDbLine
 10
280.2978723404241
 20
49.00000000000036
 30
0.0
 11
280.2978723404241
 21
10.0
 31
0.0
  0
LINE
  5
74AC
330
7493
100
AcDbEntity
  8
0
 62
     0
100
AcDbLine
 10
318.1276595744673
 20
25.00000000000012
 30
0.0
 11
318.1276595744673
 21
10.0
 31
0.0
  0
LINE
  5
74AD
330
7493
100
AcDbEntity
  8
0
 62
     0
100
AcDbLine
 10
312.7234042553184
 20
37.00000000000024
 30
0.0
 11
312.7234042553184
 21
10.0
 31
0.0
  0
LINE
  5
74AE
330
7493
100
AcDbEntity
  8
0
 62
     0
100
AcDbLine
 10
285.702127659573
 20
37.00000000000024
 30
0.0
 11
285.702127659573
 21
10.0
 31
0.0
  0
LINE
  5
74AF
330
7493
100
AcDbEntity
  8
0
 62
     0
100
AcDbLine
 10
303.7163120567365
 20
37.00000000000024
 30
0.0
 11
303.7163120567365
 21
10.0
 31
0.0
  0
LINE
  5
74B0
330
7493
100
AcDbEntity
  8
0
 62
     0
100
AcDbLine
 10
410.0
 20
49.00000000000036
 30
0.0
 11
280.2978723404241
 21
49.00000000000036
 31
0.0
  0
LINE
  5
74B1
330
7493
100
AcDbEntity
  8
0
 62
     0
100
AcDbLine
 10
280.2978723404241
 20
10.0
 30
0.0
 11
410.0
 21
10.0
 31
0.0
  0
LINE
  5
74B2
330
7493
100
AcDbEntity
  8
0
 62
     0
100
AcDbLine
 10
318.1276595744673
 20
22.00000000000012
 30
0.0
 11
410.0
 21
22.00000000000012
 31
0.0
  0
LINE
  5
74B3
330
7493
100
AcDbEntity
  8
0
 62
     0
100
AcDbLine
 10
280.2978723404241
 20
37.00000000000024
 30
0.0
 11
410.0
 21
37.00000000000024
 31
0.0
  0
LINE
  5
74B4
330
7493
100
AcDbEntity
  8
0
 62
     0
100
AcDbLine
 10
280.2978723404241
 20
13.00000000000004
 30
0.0
 11
410.0
 21
13.00000000000004
 31
0.0
  0
LINE
  5
74B5
330
7493
100
AcDbEntity
  8
0
 62
     0
100
AcDbLine
 10
280.2978723404241
 20
49.00000000000036
 30
0.0
 11
410.0
 21
49.00000000000036
 31
0.0
  0
TEXT
  5
74B6
330
7493
100
AcDbEntity
  8
0
100
AcDbText
 10
411.3708251683467
 20
33.08333333333334
 30
0.0
 40
3.0
  1
F
  7
ADESK1
 72
     1
 11
412.8708251683468
 21
33.08333333333334
 31
0.0
100
AcDbText
  0
TEXT
  5
74B7
330
7493
100
AcDbEntity
  8
0
100
AcDbText
 10
411.3708251683467
 20
79.25
 30
0.0
 40
3.0
  1
E
  7
ADESK1
 72
     1
 11
412.8708251683468
 21
79.25
 31
0.0
100
AcDbText
  0
TEXT
  5
74B8
330
7493
100
AcDbEntity
  8
0
100
AcDbText
 10
411.2993965969182
 20
125.4166666666666
 30
0.0
 40
3.0
  1
D
  7
ADESK1
 72
     1
 11
412.8708251683468
 21
125.4166666666666
 31
0.0
100
AcDbText
  0
TEXT
  5
74B9
330
7493
100
AcDbEntity
  8
0
100
AcDbText
 10
411.3708251683467
 20
171.5833333333333
 30
0.0
 40
3.0
  1
C
  7
ADESK1
 72
     1
 11
412.8708251683468
 21
171.5833333333333
 31
0.0
100
AcDbText
  0
TEXT
  5
74BA
330
7493
100
AcDbEntity
  8
0
100
AcDbText
 10
411.2993965969182
 20
217.7499999999999
 30
0.0
 40
3.0
  1
B
  7
ADESK1
 72
     1
 11
412.8708251683468
 21
217.7499999999999
 31
0.0
100
AcDbText
  0
TEXT
  5
74BB
330
7493
100
AcDbEntity
  8
0
100
AcDbText
 10
411.5851108826324
 20
263.9166666666666
 30
0.0
 40
3.0
  1
A
  7
ADESK1
 72
     1
 11
412.8708251683468
 21
263.9166666666666
 31
0.0
100
AcDbText
  0
TEXT
  5
74BC
330
7493
100
AcDbEntity
  8
0
100
AcDbText
 10
384.5089285714285
 20
6.019997240728748
 30
0.0
 40
3.0
  1
8
  7
ADESK1
 72
     1
 11
385.9375
 21
6.019997240728748
 31
0.0
100
AcDbText
  0
TEXT
  5
74BD
330
7493
100
AcDbEntity
  8
0
100
AcDbText
 10
336.3839285714285
 20
6.019997240728748
 30
0.0
 40
3.0
  1
7
  7
ADESK1
 72
     1
 11
337.8125
 21
6.019997240728748
 31
0.0
100
AcDbText
  0
TEXT
  5
74BE
330
7493
100
AcDbEntity
  8
0
100
AcDbText
 10
288.1874999999999
 20
6.019997240728748
 30
0.0
 40
3.0
  1
6
  7
ADESK1
 72
     1
 11
289.6875
 21
6.019997240728748
 31
0.0
100
AcDbText
  0
TEXT
  5
74BF
330
7493
100
AcDbEntity
  8
0
100
AcDbText
 10
240.1339285714285
 20
6.019997240728748
 30
0.0
 40
3.0
  1
5
  7
ADESK1
 72
     1
 11
241.5624999999999
 21
6.019997240728748
 31
0.0
100
AcDbText
  0
TEXT
  5
74C0
330
7493
100
AcDbEntity
  8
0
100
AcDbText
 10
191.9375
 20
6.019997240728748
 30
0.0
 40
3.0
  1
4
  7
ADESK1
 72
     1
 11
193.4375
 21
6.019997240728748
 31
0.0
100
AcDbText
  0
TEXT
  5
74C1
330
7493
100
AcDbEntity
  8
0
100
AcDbText
 10
143.8839285714285
 20
6.019997240728748
 30
0.0
 40
3.0
  1
3
  7
ADESK1
 72
     1
 11
145.3125
 21
6.019997240728748
 31
0.0
100
AcDbText
  0
TEXT
  5
74C2
330
7493
100
AcDbEntity
  8
0
100
AcDbText
 10
95.75892857142857
 20
6.019997240728748
 30
0.0
 40
3.0
  1
2
  7
ADESK1
 72
     1
 11
97.1875
 21
6.019997240728748
 31
0.0
100
AcDbText
  0
TEXT
  5
74C3
330
7493
100
AcDbEntity
  8
0
100
AcDbText
 10
47.84821428571429
 20
6.019997240728748
 30
0.0
 40
3.0
  1
1
  7
ADESK1
 72
     1
 11
49.0625
 21
6.019997240728748
 31
0.0
100
AcDbText
  0
TEXT
  5
74C4
330
7493
100
AcDbEntity
  8
0
100
AcDbText
 10
21.10716135953389
 20
33.08333333333334
 30
0.0
 40
3.0
  1
F
  7
ADESK1
 72
     1
 11
22.60716135953389
 21
33.08333333333334
 31
0.0
100
AcDbText
  0
TEXT
  5
74C5
330
7493
100
AcDbEntity
  8
0
100
AcDbText
 10
21.10716135953389
 20
79.25
 30
0.0
 40
3.0
  1
E
  7
ADESK1
 72
     1
 11
22.60716135953389
 21
79.25
 31
0.0
100
AcDbText
  0
TEXT
  5
74C6
330
7493
100
AcDbEntity
  8
0
100
AcDbText
 10
21.03573278810532
 20
125.4166666666666
 30
0.0
 40
3.0
  1
D
  7
ADESK1
 72
     1
 11
22.60716135953389
 21
125.4166666666666
 31
0.0
100
AcDbText
  0
TEXT
  5
74C7
330
7493
100
AcDbEntity
  8
0
100
AcDbText
 10
21.10716135953389
 20
171.5833333333333
 30
0.0
 40
3.0
  1
C
  7
ADESK1
 72
     1
 11
22.60716135953389
 21
171.5833333333333
 31
0.0
100
AcDbText
  0
TEXT
  5
74C8
330
7493
100
AcDbEntity
  8
0
100
AcDbText
 10
21.03573278810532
 20
217.7499999999999
 30
0.0
 40
3.0
  1
B
  7
ADESK1
 72
     1
 11
22.60716135953389
 21
217.7499999999999
 31
0.0
100
AcDbText
  0
TEXT
  5
74C9
330
7493
100
AcDbEntity
  8
0
100
AcDbText
 10
384.5089285714285
 20
288.0
 30
0.0
 40
3.0
  1
8
  7
ADESK1
 72
     1
 11
385.9375
 21
288.0
 31
0.0
100
AcDbText
  0
TEXT
  5
74CA
330
7493
100
AcDbEntity
  8
0
100
AcDbText
 10
336.3839285714285
 20
288.0
 30
0.0
 40
3.0
  1
7
  7
ADESK1
 72
     1
 11
337.8125
 21
288.0
 31
0.0
100
AcDbText
  0
TEXT
  5
74CB
330
7493
100
AcDbEntity
  8
0
100
AcDbText
 10
288.1874999999999
 20
288.0
 30
0.0
 40
3.0
  1
6
  7
ADESK1
 72
     1
 11
289.6875
 21
288.0
 31
0.0
100
AcDbText
  0
TEXT
  5
74CC
330
7493
100
AcDbEntity
  8
0
100
AcDbText
 10
240.1339285714285
 20
288.0
 30
0.0
 40
3.0
  1
5
  7
ADESK1
 72
     1
 11
241.5624999999999
 21
288.0
 31
0.0
100
AcDbText
  0
TEXT
  5
74CD
330
7493
100
AcDbEntity
  8
0
100
AcDbText
 10
191.9375
 20
288.0
 30
0.0
 40
3.0
  1
4
  7
ADESK1
 72
     1
 11
193.4375
 21
288.0
 31
0.0
100
AcDbText
  0
TEXT
  5
74CE
330
7493
100
AcDbEntity
  8
0
100
AcDbText
 10
143.8839285714285
 20
288.0
 30
0.0
 40
3.0
  1
3
  7
ADESK1
 72
     1
 11
145.3125
 21
288.0
 31
0.0
100
AcDbText
  0
TEXT
  5
74CF
330
7493
100
AcDbEntity
  8
0
100
AcDbText
 10
95.75892857142857
 20
288.0
 30
0.0
 40
3.0
  1
2
  7
ADESK1
 72
     1
 11
97.1875
 21
288.0
 31
0.0
100
AcDbText
  0
TEXT
  5
74D0
330
7493
100
AcDbEntity
  8
0
100
AcDbText
 10
21.32144707381961
 20
263.9166666666666
 30
0.0
 40
3.0
  1
A
  7
ADESK1
 72
     1
 11
22.60716135953389
 21
263.9166666666666
 31
0.0
100
AcDbText
  0
TEXT
  5
74D1
330
7493
100
AcDbEntity
  8
0
100
AcDbText
 10
47.84821428571429
 20
288.0
 30
0.0
 40
3.0
  1
1
  7
ADESK1
 72
     1
 11
49.0625
 21
288.0
 31
0.0
100
AcDbText
  0
LINE
  5
74D2
330
7493
100
AcDbEntity
  8
0
100
AcDbLine
 10
73.125
 20
287.0
 30
0.0
 11
73.125
 21
292.0
 31
0.0
  0
LINE
  5
74D3
330
7493
100
AcDbEntity
  8
0
100
AcDbLine
 10
121.25
 20
287.0
 30
0.0
 11
121.25
 21
292.0
 31
0.0
  0
LINE
  5
74D4
330
7493
100
AcDbEntity
  8
0
100
AcDbLine
 10
169.375
 20
287.0
 30
0.0
 11
169.375
 21
292.0
 31
0.0
  0
LINE
  5
74D5
330
7493
100
AcDbEntity
  8
0
100
AcDbLine
 10
217.5
 20
287.0
 30
0.0
 11
217.5
 21
292.0
 31
0.0
  0
LINE
  5
74D6
330
7493
100
AcDbEntity
  8
0
100
AcDbLine
 10
265.625
 20
287.0
 30
0.0
 11
265.625
 21
292.0
 31
0.0
  0
LINE
  5
74D7
330
7493
100
AcDbEntity
  8
0
100
AcDbLine
 10
313.75
 20
287.0
 30
0.0
 11
313.75
 21
292.0
 31
0.0
  0
LINE
  5
74D8
330
7493
100
AcDbEntity
  8
0
100
AcDbLine
 10
361.8749999999999
 20
287.0
 30
0.0
 11
361.8749999999999
 21
292.0
 31
0.0
  0
LINE
  5
74D9
330
7493
100
AcDbEntity
  8
0
100
AcDbLine
 10
361.8749999999999
 20
10.0
 30
0.0
 11
361.8749999999999
 21
5.0
 31
0.0
  0
LINE
  5
74DA
330
7493
100
AcDbEntity
  8
0
100
AcDbLine
 10
313.75
 20
10.0
 30
0.0
 11
313.75
 21
5.0
 31
0.0
  0
LINE
  5
74DB
330
7493
100
AcDbEntity
  8
0
100
AcDbLine
 10
265.625
 20
10.0
 30
0.0
 11
265.625
 21
5.0
 31
0.0
  0
LINE
  5
74DC
330
7493
100
AcDbEntity
  8
0
100
AcDbLine
 10
217.5
 20
10.0
 30
0.0
 11
217.5
 21
5.0
 31
0.0
  0
LINE
  5
74DD
330
7493
100
AcDbEntity
  8
0
100
AcDbLine
 10
169.375
 20
10.0
 30
0.0
 11
169.375
 21
5.0
 31
0.0
  0
LINE
  5
74DE
330
7493
100
AcDbEntity
  8
0
100
AcDbLine
 10
121.25
 20
10.0
 30
0.0
 11
121.25
 21
5.0
 31
0.0
  0
LINE
  5
74DF
330
7493
100
AcDbEntity
  8
0
100
AcDbLine
 10
73.125
 20
10.0
 30
0.0
 11
73.125
 21
5.0
 31
0.0
  0
LINE
  5
74E0
330
7493
100
AcDbEntity
  8
0
100
AcDbLine
 10
410.0
 20
240.8333333333333
 30
0.0
 11
415.0
 21
240.8333333333333
 31
0.0
  0
LINE
  5
74E1
330
7493
100
AcDbEntity
  8
0
100
AcDbLine
 10
410.0
 20
194.6666666666667
 30
0.0
 11
415.0
 21
194.6666666666667
 31
0.0
  0
LINE
  5
74E2
330
7493
100
AcDbEntity
  8
0
100
AcDbLine
 10
410.0
 20
148.5
 30
0.0
 11
415.0
 21
148.5
 31
0.0
  0
LINE
  5
74E3
330
7493
100
AcDbEntity
  8
0
100
AcDbLine
 10
410.0
 20
102.3333333333333
 30
0.0
 11
415.0
 21
102.3333333333333
 31
0.0
  0
LINE
  5
74E4
330
7493
100
AcDbEntity
  8
0
100
AcDbLine
 10
410.0
 20
56.16666666666668
 30
0.0
 11
415.0
 21
56.16666666666668
 31
0.0
  0
LINE
  5
74E5
330
7493
100
AcDbEntity
  8
0
100
AcDbLine
 10
25.0
 20
56.16666666666667
 30
0.0
 11
20.0
 21
56.16666666666667
 31
0.0
  0
LINE
  5
74E6
330
7493
100
AcDbEntity
  8
0
100
AcDbLine
 10
25.0
 20
102.3333333333333
 30
0.0
 11
20.0
 21
102.3333333333333
 31
0.0
  0
LINE
  5
74E7
330
7493
100
AcDbEntity
  8
0
100
AcDbLine
 10
25.0
 20
148.5
 30
0.0
 11
20.0
 21
148.5
 31
0.0
  0
LINE
  5
74E8
330
7493
100
AcDbEntity
  8
0
100
AcDbLine
 10
25.0
 20
194.6666666666666
 30
0.0
 11
20.0
 21
194.6666666666666
 31
0.0
  0
LINE
  5
74E9
330
7493
100
AcDbEntity
  8
0
100
AcDbLine
 10
25.0
 20
240.8333333333333
 30
0.0
 11
20.0
 21
240.8333333333333
 31
0.0
  0
TEXT
  5
74EA
330
7493
100
AcDbEntity
  8
0
100
AcDbText
 10
1.0
 20
1.0
 30
0.0
 40
3.0
  1
この図枠はサンプルです。社内の規格やプロッタの出力範囲に合わせて適当に変更してご利用ください。
  7
ADESK1
100
AcDbText
  0
LINE
  5
74EB
330
7493
100
AcDbEntity
  8
0
100
AcDbLine
 10
25.0
 20
148.5
 30
0.0
 11
0.0
 21
148.5
 31
0.0
  0
LINE
  5
74EC
330
7493
100
AcDbEntity
  8
0
100
AcDbLine
 10
410.0
 20
148.5
 30
0.0
 11
420.0
 21
148.5
 31
0.0
  0
LINE
  5
74ED
330
7493
100
AcDbEntity
  8
0
100
AcDbLine
 10
217.5
 20
287.0
 30
0.0
 11
217.5
 21
297.0
 31
0.0
  0
LINE
  5
74EE
330
7493
100
AcDbEntity
  8
0
100
AcDbLine
 10
217.5
 20
10.0
 30
0.0
 11
217.5
 21
0.0
 31
0.0
  0
LINE
  5
74EF
330
7493
100
AcDbEntity
  8
OBJECT
100
AcDbLine
 10
130.0
 20
40.0
 30
0.0
 11
130.0
 21
10.0
 31
0.0
  0
LINE
  5
74F0
330
7493
100
AcDbEntity
  8
OBJECT
100
AcDbLine
 10
120.0
 20
10.0
 30
0.0
 11
120.0
 21
40.0
 31
0.0
  0
LINE
  5
74F1
330
7493
100
AcDbEntity
  8
OBJECT
100
AcDbLine
 10
44.5
 20
37.0
 30
0.0
 11
45.49999999999999
 21
37.0
 31
0.0
  0
LINE
  5
74F2
330
7493
100
AcDbEntity
  8
OBJECT
100
AcDbLine
 10
44.5
 20
31.0
 30
0.0
 11
45.49999999999999
 21
31.0
 31
0.0
  0
LINE
  5
74F3
330
7493
100
AcDbEntity
  8
OBJECT
100
AcDbLine
 10
39.5
 20
37.0
 30
0.0
 11
40.49999999999999
 21
37.0
 31
0.0
  0
LINE
  5
74F4
330
7493
100
AcDbEntity
  8
OBJECT
100
AcDbLine
 10
39.5
 20
31.0
 30
0.0
 11
40.49999999999999
 21
31.0
 31
0.0
  0
LINE
  5
74F5
330
7493
100
AcDbEntity
  8
OBJECT
100
AcDbLine
 10
44.5
 20
25.0
 30
0.0
 11
45.49999999999999
 21
25.0
 31
0.0
  0
LINE
  5
74F6
330
7493
100
AcDbEntity
  8
OBJECT
100
AcDbLine
 10
39.5
 20
25.0
 30
0.0
 11
40.49999999999999
 21
25.0
 31
0.0
  0
LINE
  5
74F7
330
7493
100
AcDbEntity
  8
OBJECT
100
AcDbLine
 10
44.5
 20
19.0
 30
0.0
 11
45.49999999999999
 21
19.0
 31
0.0
  0
LINE
  5
74F8
330
7493
100
AcDbEntity
  8
OBJECT
100
AcDbLine
 10
39.5
 20
19.0
 30
0.0
 11
40.49999999999999
 21
19.0
 31
0.0
  0
LINE
  5
74F9
330
7493
100
AcDbEntity
  8
OBJECT
100
AcDbLine
 10
28.0
 20
29.535898
 30
0.0
 11
30.0
 21
33.0
 31
0.0
  0
LINE
  5
74FA
330
7493
100
AcDbEntity
  8
OBJECT
100
AcDbLine
 10
28.0
 20
29.535898
 30
0.0
 11
32.0
 21
29.535898
 31
0.0
  0
LINE
  5
74FB
330
7493
100
AcDbEntity
  8
OBJECT
100
AcDbLine
 10
32.0
 20
29.535898
 30
0.0
 11
30.0
 21
33.0
 31
0.0
  0
LINE
  5
74FC
330
7493
100
AcDbEntity
  8
OBJECT
100
AcDbLine
 10
28.0
 20
35.53589799999999
 30
0.0
 11
32.0
 21
35.53589799999999
 31
0.0
  0
LINE
  5
74FD
330
7493
100
AcDbEntity
  8
OBJECT
100
AcDbLine
 10
32.0
 20
35.53589799999999
 30
0.0
 11
30.0
 21
39.0
 31
0.0
  0
LINE
  5
74FE
330
7493
100
AcDbEntity
  8
OBJECT
100
AcDbLine
 10
28.0
 20
35.53589799999999
 30
0.0
 11
30.0
 21
39.0
 31
0.0
  0
LINE
  5
74FF
330
7493
100
AcDbEntity
  8
OBJECT
100
AcDbLine
 10
28.0
 20
23.53589799999999
 30
0.0
 11
30.0
 21
26.99999999999999
 31
0.0
  0
LINE
  5
7500
330
7493
100
AcDbEntity
  8
OBJECT
100
AcDbLine
 10
28.0
 20
23.53589799999999
 30
0.0
 11
32.0
 21
23.53589799999999
 31
0.0
  0
LINE
  5
7501
330
7493
100
AcDbEntity
  8
OBJECT
100
AcDbLine
 10
32.0
 20
23.53589799999999
 30
0.0
 11
30.0
 21
26.99999999999999
 31
0.0
  0
LINE
  5
7502
330
7493
100
AcDbEntity
  8
OBJECT
100
AcDbLine
 10
28.0
 20
17.535898
 30
0.0
 11
30.0
 21
20.99999999999999
 31
0.0
  0
LINE
  5
7503
330
7493
100
AcDbEntity
  8
OBJECT
100
AcDbLine
 10
28.0
 20
17.535898
 30
0.0
 11
32.0
 21
17.535898
 31
0.0
  0
LINE
  5
7504
330
7493
100
AcDbEntity
  8
OBJECT
100
AcDbLine
 10
32.0
 20
17.535898
 30
0.0
 11
30.0
 21
20.99999999999999
 31
0.0
  0
LINE
  5
7505
330
7493
100
AcDbEntity
  8
OBJECT
100
AcDbLine
 10
44.5
 20
13.0
 30
0.0
 11
45.49999999999999
 21
13.0
 31
0.0
  0
LINE
  5
7506
330
7493
100
AcDbEntity
  8
OBJECT
100
AcDbLine
 10
39.5
 20
13.0
 30
0.0
 11
40.49999999999999
 21
13.0
 31
0.0
  0
LINE
  5
7507
330
7493
100
AcDbEntity
  8
OBJECT
100
AcDbLine
 10
28.0
 20
11.53589799999999
 30
0.0
 11
32.0
 21
11.53589799999999
 31
0.0
  0
LINE
  5
7508
330
7493
100
AcDbEntity
  8
OBJECT
100
AcDbLine
 10
80.0
 20
10.0
 30
0.0
 11
80.0
 21
40.0
 31
0.0
  0
LINE
  5
7509
330
7493
100
AcDbEntity
  8
OBJECT
100
AcDbLine
 10
50.0
 20
10.0
 30
0.0
 11
50.0
 21
40.0
 31
0.0
  0
LINE
  5
750A
330
7493
100
AcDbEntity
  8
OBJECT
100
AcDbLine
 10
35.0
 20
10.0
 30
0.0
 11
35.0
 21
40.0
 31
0.0
  0
LINE
  5
750B
330
7493
100
AcDbEntity
  8
OBJECT
100
AcDbLine
 10
32.0
 20
11.53589799999999
 30
0.0
 11
30.0
 21
15.0
 31
0.0
  0
LINE
  5
750C
330
7493
100
AcDbEntity
  8
OBJECT
100
AcDbLine
 10
28.0
 20
11.53589799999999
 30
0.0
 11
30.0
 21
15.0
 31
0.0
  0
LINE
  5
750D
330
7493
100
AcDbEntity
  8
OBJECT
100
AcDbLine
 10
130.0
 20
40.0
 30
0.0
 11
25.0
 21
40.0
 31
0.0
  0
LINE
  5
750E
330
7493
100
AcDbEntity
  8
OBJECT
100
AcDbLine
 10
130.0
 20
34.0
 30
0.0
 11
25.0
 21
34.0
 31
0.0
  0
LINE
  5
750F
330
7493
100
AcDbEntity
  8
OBJECT
100
AcDbLine
 10
130.0
 20
28.0
 30
0.0
 11
25.0
 21
28.0
 31
0.0
  0
LINE
  5
7510
330
7493
100
AcDbEntity
  8
OBJECT
100
AcDbLine
 10
130.0
 20
22.0
 30
0.0
 11
25.0
 21
22.0
 31
0.0
  0
LINE
  5
7511
330
7493
100
AcDbEntity
  8
OBJECT
100
AcDbLine
 10
130.0
 20
16.0
 30
0.0
 11
25.0
 21
16.0
 31
0.0
  0
ATTDEF
  5
7512
330
7493
100
AcDbEntity
  8
0
 62
     0
100
AcDbText
 10
19.0
 20
118.0
 30
0.0
 40
3.0
  1

 50
90.0
  7
ADESK1
100
AcDbAttributeDefinition
  3

  2
FNAME
 70
     8
  0
ATTDEF
  5
7513
330
7493
100
AcDbEntity
  8
0
 62
     0
100
AcDbText
 10
19.0
 20
70.0
 30
0.0
 40
3.0
  1

 50
90.0
  7
ADESK1
100
AcDbAttributeDefinition
  3

  2
REVDATE
 70
     8
  0
ATTDEF
  5
7514
330
7493
100
AcDbEntity
  8
0
 62
     0
100
AcDbText
 10
19.0
 20
10.0
 30
0.0
 40
3.0
  1

 50
90.0
  7
ADESK1
100
AcDbAttributeDefinition
  3

  2
USER
 70
     8
  0
LINE
  5
7515
330
7493
100
AcDbEntity
  8
0
100
AcDbLine
 10
410.0
 20
297.0
 30
0.0
 11
420.0
 21
297.0
 31
0.0
  0
LINE
  5
7516
330
7493
100
AcDbEntity
  8
0
100
AcDbLine
 10
420.0
 20
10.0
 30
0.0
 11
420.0
 21
0.0
 31
0.0
  0
LINE
  5
7517
330
7493
100
AcDbEntity
  8
0
100
AcDbLine
 10
25.0
 20
0.0
 30
0.0
 11
0.0
 21
0.0
 31
0.0
  0
LINE
  5
7518
330
7493
100
AcDbEntity
  8
0
100
AcDbLine
 10
0.0
 20
287.0
 30
0.0
 11
0.0
 21
297.0
 31
0.0
  0
LINE
  5
7519
330
7493
100
AcDbEntity
  8
0
100
AcDbLine
 10
25.0
 20
287.0
 30
0.0
 11
410.0
 21
287.0
 31
0.0
  0
LINE
  5
751A
330
7493
100
AcDbEntity
  8
0
100
AcDbLine
 10
410.0
 20
287.0
 30
0.0
 11
410.0
 21
10.0
 31
0.0
  0
LINE
  5
751B
330
7493
100
AcDbEntity
  8
0
100
AcDbLine
 10
410.0
 20
10.0
 30
0.0
 11
25.0
 21
10.0
 31
0.0
  0
LINE
  5
751C
330
7493
100
AcDbEntity
  8
0
100
AcDbLine
 10
25.0
 20
10.0
 30
0.0
 11
25.0
 21
287.0
 31
0.0
  0
LINE
  5
751D
330
7493
100
AcDbEntity
  8
0
100
AcDbLine
 10
420.0
 20
0.0
 30
0.0
 11
410.0
 21
0.0
 31
0.0
  0
LINE
  5
751E
330
7493
100
AcDbEntity
  8
0
100
AcDbLine
 10
420.0
 20
297.0
 30
0.0
 11
420.0
 21
287.0
 31
0.0
  0
LINE
  5
751F
330
7493
100
AcDbEntity
  8
0
100
AcDbLine
 10
0.0
 20
297.0
 30
0.0
 11
25.0
 21
297.0
 31
0.0
  0
LINE
  5
7520
330
7493
100
AcDbEntity
  8
0
100
AcDbLine
 10
0.0
 20
0.0
 30
0.0
 11
0.0
 21
10.0
 31
0.0
  0
ENDBLK
  5
7521
330
7493
100
AcDbEntity
  8
0
100
AcDbBlockEnd
  0
BLOCK
  5
98A9
330
98A0
100
AcDbEntity
  8
0
 48
25.0
100
AcDbBlockBegin
  2
*D1
 70
     1
 10
0.0
 20
0.0
 30
0.0
  3
*D1
  1

  0
LINE
  5
C172
330
98A0
100
AcDbEntity
  8
寸法引出
 48
25.0
370
    -2
100
AcDbLine
 10
6009.625007866546
 20
3397.119840131078
 30
0.0
 11
6009.625007866546
 21
3518.870918497508
 31
0.0
  0
LINE
  5
C173
330
98A0
100
AcDbEntity
  8
寸法引出
 48
25.0
370
    -2
100
AcDbLine
 10
5279.625007866545
 20
3508.870918497509
 30
0.0
 11
5979.625007866545
 21
3508.870918497509
 31
0.0
  0
SOLID
  5
C174
330
98A0
100
AcDbEntity
  8
寸法引出
 48
25.0
100
AcDbTrace
 10
5279.625007866545
 20
3513.870918497509
 30
0.0
 11
5279.625007866545
 21
3503.870918497509
 31
0.0
 12
5249.625007866545
 22
3508.870918497509
 32
0.0
 13
5249.625007866545
 23
3508.870918497509
 33
0.0
  0
SOLID
  5
C175
330
98A0
100
AcDbEntity
  8
寸法引出
 48
25.0
100
AcDbTrace
 10
5979.625007866545
 20
3513.870918497509
 30
0.0
 11
5979.625007866545
 21
3503.870918497509
 31
0.0
 12
6009.625007866546
 22
3508.870918497509
 32
0.0
 13
6009.625007866546
 23
3508.870918497509
 33
0.0
  0
MTEXT
  5
C176
330
98A0
100
AcDbEntity
  8
寸法引出
 48
25.0
100
AcDbMText
 10
5629.625007866545
 20
3548.870918497509
 30
0.0
 40
40.0
 41
0.0
 71
     5
 72
     1
  1
\A1;760
  7
SANWA
 73
     1
 44
1.0
  0
POINT
  5
C177
330
98A0
100
AcDbEntity
  8
DEFPOINTS
 62
     0
 48
25.0
100
AcDbPoint
 10
5249.625007866545
 20
3377.119840131078
 30
0.0
  0
POINT
  5
C178
330
98A0
100
AcDbEntity
  8
DEFPOINTS
 62
     0
 48
25.0
100
AcDbPoint
 10
6009.625007866546
 20
3377.119840131078
 30
0.0
  0
POINT
  5
C179
330
98A0
100
AcDbEntity
  8
DEFPOINTS
 62
     0
 48
25.0
100
AcDbPoint
 10
6009.625007866546
 20
3508.870918497509
 30
0.0
  0
ENDBLK
  5
98AA
330
98A0
100
AcDbEntity
  8
0
 48
25.0
100
AcDbBlockEnd
  0
BLOCK
  5
98B4
330
98AB
100
AcDbEntity
  8
0
 48
25.0
100
AcDbBlockBegin
  2
*D2
 70
     1
 10
0.0
 20
0.0
 30
0.0
  3
*D2
  1

  0
LINE
  5
C17A
330
98AB
100
AcDbEntity
  8
寸法引出
 48
25.0
370
    -2
100
AcDbLine
 10
6129.625007866545
 20
3397.119840131078
 30
0.0
 11
6129.625007866545
 21
3518.870918497508
 31
0.0
  0
LINE
  5
C17B
330
98AB
100
AcDbEntity
  8
寸法引出
 48
25.0
370
    -2
100
AcDbLine
 10
6039.625007866545
 20
3508.870918497509
 30
0.0
 11
6099.625007866546
 21
3508.870918497509
 31
0.0
  0
SOLID
  5
C17C
330
98AB
100
AcDbEntity
  8
寸法引出
 48
25.0
100
AcDbTrace
 10
6039.625007866545
 20
3513.870918497509
 30
0.0
 11
6039.625007866545
 21
3503.870918497509
 31
0.0
 12
6009.625007866546
 22
3508.870918497509
 32
0.0
 13
6009.625007866546
 23
3508.870918497509
 33
0.0
  0
SOLID
  5
C17D
330
98AB
100
AcDbEntity
  8
寸法引出
 48
25.0
100
AcDbTrace
 10
6099.625007866546
 20
3513.870918497509
 30
0.0
 11
6099.625007866546
 21
3503.870918497509
 31
0.0
 12
6129.625007866545
 22
3508.870918497509
 32
0.0
 13
6129.625007866545
 23
3508.870918497509
 33
0.0
  0
MTEXT
  5
C17E
330
98AB
100
AcDbEntity
  8
寸法引出
 48
25.0
100
AcDbMText
 10
6069.625007866545
 20
3548.870918497509
 30
0.0
 40
40.0
 41
0.0
 71
     5
 72
     1
  1
\A1;120
  7
SANWA
 73
     1
 44
1.0
  0
POINT
  5
C17F
330
98AB
100
AcDbEntity
  8
DEFPOINTS
 62
     0
 48
25.0
100
AcDbPoint
 10
6009.625007866546
 20
3377.119840131078
 30
0.0
  0
POINT
  5
C180
330
98AB
100
AcDbEntity
  8
DEFPOINTS
 62
     0
 48
25.0
100
AcDbPoint
 10
6129.625007866545
 20
3377.119840131078
 30
0.0
  0
POINT
  5
C181
330
98AB
100
AcDbEntity
  8
DEFPOINTS
 62
     0
 48
25.0
100
AcDbPoint
 10
6129.625007866545
 20
3508.870918497509
 30
0.0
  0
ENDBLK
  5
98B5
330
98AB
100
AcDbEntity
  8
0
 48
25.0
100
AcDbBlockEnd
  0
BLOCK
  5
98FD
330
98F4
100
AcDbEntity
  8
0
 48
25.0
100
AcDbBlockBegin
  2
*D3
 70
     1
 10
0.0
 20
0.0
 30
0.0
  3
*D3
  1

  0
LINE
  5
C145
330
98F4
100
AcDbEntity
  8
寸法引出
 48
25.0
370
    -2
100
AcDbLine
 10
5249.625007866545
 20
3397.119840131078
 30
0.0
 11
5249.625007866545
 21
3518.870918497508
 31
0.0
  0
LINE
  5
C146
330
98F4
100
AcDbEntity
  8
寸法引出
 48
25.0
370
    -2
100
AcDbLine
 10
5039.625007866545
 20
3508.870918497509
 30
0.0
 11
5219.625007866546
 21
3508.870918497509
 31
0.0
  0
SOLID
  5
C147
330
98F4
100
AcDbEntity
  8
寸法引出
 48
25.0
100
AcDbTrace
 10
5039.625007866545
 20
3513.870918497509
 30
0.0
 11
5039.625007866545
 21
3503.870918497509
 31
0.0
 12
5009.625007866546
 22
3508.870918497509
 32
0.0
 13
5009.625007866546
 23
3508.870918497509
 33
0.0
  0
SOLID
  5
C148
330
98F4
100
AcDbEntity
  8
寸法引出
 48
25.0
100
AcDbTrace
 10
5219.625007866546
 20
3513.870918497509
 30
0.0
 11
5219.625007866546
 21
3503.870918497509
 31
0.0
 12
5249.625007866545
 22
3508.870918497509
 32
0.0
 13
5249.625007866545
 23
3508.870918497509
 33
0.0
  0
MTEXT
  5
C149
330
98F4
100
AcDbEntity
  8
寸法引出
 48
25.0
100
AcDbMText
 10
5129.625007866545
 20
3548.870918497509
 30
0.0
 40
40.0
 41
0.0
 71
     5
 72
     1
  1
\A1;240
  7
SANWA
 73
     1
 44
1.0
  0
POINT
  5
C14A
330
98F4
100
AcDbEntity
  8
DEFPOINTS
 62
     0
 48
25.0
100
AcDbPoint
 10
5009.625007866546
 20
3377.119840131078
 30
0.0
  0
POINT
  5
C14B
330
98F4
100
AcDbEntity
  8
DEFPOINTS
 62
     0
 48
25.0
100
AcDbPoint
 10
5249.625007866545
 20
3377.119840131078
 30
0.0
  0
POINT
  5
C14C
330
98F4
100
AcDbEntity
  8
DEFPOINTS
 62
     0
 48
25.0
100
AcDbPoint
 10
5249.625007866545
 20
3508.870918497509
 30
0.0
  0
ENDBLK
  5
98FE
330
98F4
100
AcDbEntity
  8
0
 48
25.0
100
AcDbBlockEnd
  0
BLOCK
  5
99F0
330
99E4
100
AcDbEntity
  8
0
 48
25.0
100
AcDbBlockBegin
  2
*D4
 70
     1
 10
0.0
 20
0.0
 30
0.0
  3
*D4
  1

  0
LINE
  5
C0BB
330
99E4
100
AcDbEntity
  8
寸法引出
 48
25.0
370
    -2
100
AcDbLine
 10
2127.47540890809
 20
2441.261975754811
 30
0.0
 11
2075.095116291782
 21
2493.642268371121
 31
0.0
  0
LINE
  5
C0BC
330
99E4
100
AcDbEntity
  8
寸法引出
 48
25.0
370
    -2
100
AcDbLine
 10
2161.617544531819
 20
2387.119840131077
 30
0.0
 11
2030.972081817839
 21
2387.119840131077
 31
0.0
  0
ARC
  5
C0BD
330
99E4
100
AcDbEntity
  8
寸法引出
 48
25.0
370
    -2
100
AcDbCircle
 10
2181.617544531819
 20
2387.119840131078
 30
0.0
 40
140.6454627139798
100
AcDbArc
 50
147.2446091733695
 51
167.7553908266286
  0
SOLID
  5
C0BE
330
99E4
100
AcDbEntity
  8
寸法引出
 48
25.0
100
AcDbTrace
 10
2059.443944892429
 20
2466.354874354226
 30
0.0
 11
2067.228820375748
 21
2460.078273864373
 31
0.0
 12
2082.166184103648
 22
2486.571200559255
 32
0.0
 13
2082.166184103648
 23
2486.571200559255
 33
0.0
  0
SOLID
  5
C0BF
330
99E4
100
AcDbEntity
  8
寸法引出
 48
25.0
100
AcDbTrace
 10
2049.143098752222
 20
2416.415479435555
 30
0.0
 11
2039.200133738101
 21
2417.481990911328
 31
0.0
 12
2040.97208181784
 22
2387.119840131077
 32
0.0
 13
2040.97208181784
 23
2387.119840131077
 33
0.0
  0
MTEXT
  5
C0C0
330
99E4
100
AcDbEntity
  8
寸法引出
 48
25.0
100
AcDbMText
 10
2031.917913129374
 20
2488.227720917492
 30
0.0
 40
40.0
 41
0.0
 71
     5
 72
     1
  1
\A1;45°
  7
SANWA
 11
0.5597034061492101
 21
0.8286930053674716
 31
0.0
 73
     1
 44
1.0
  0
POINT
  5
C0C1
330
99E4
100
AcDbEntity
  8
DEFPOINTS
 62
     0
 48
25.0
100
AcDbPoint
 10
2045.76445974601
 20
2423.521564488713
 30
0.0
  0
POINT
  5
C0C2
330
99E4
100
AcDbEntity
  8
DEFPOINTS
 62
     0
 48
25.0
100
AcDbPoint
 10
2141.617544531821
 20
2427.119840131079
 30
0.0
  0
POINT
  5
C0C3
330
99E4
100
AcDbEntity
  8
DEFPOINTS
 62
     0
 48
25.0
100
AcDbPoint
 10
2621.617544531821
 20
2387.119840131078
 30
0.0
  0
POINT
  5
C0C4
330
99E4
100
AcDbEntity
  8
DEFPOINTS
 62
     0
 48
25.0
100
AcDbPoint
 10
2181.61754453182
 20
2387.119840131077
 30
0.0
  0
POINT
  5
C0C5
330
99E4
100
AcDbEntity
  8
DEFPOINTS
 62
     0
 48
25.0
100
AcDbPoint
 10
2181.617544531818
 20
2387.119840131078
 30
0.0
  0
ENDBLK
  5
99F1
330
99E4
100
AcDbEntity
  8
0
 48
25.0
100
AcDbBlockEnd
  0
BLOCK
  5
99FD
330
99F2
100
AcDbEntity
  8
0
 48
25.0
100
AcDbBlockBegin
  2
*D5
 70
     1
 10
0.0
 20
0.0
 30
0.0
  3
*D5
  1

  0
LINE
  5
C0A8
330
99F2
100
AcDbEntity
  8
寸法引出
 48
25.0
370
    -2
100
AcDbLine
 10
2141.61754453182
 20
2407.119840131078
 30
0.0
 11
2141.61754453182
 21
2193.561680690742
 31
0.0
  0
LINE
  5
C0A9
330
99F2
100
AcDbEntity
  8
寸法引出
 48
25.0
370
    -2
100
AcDbLine
 10
2261.61754453182
 20
2203.561680690742
 30
0.0
 11
2291.61754453182
 21
2203.561680690742
 31
0.0
  0
LINE
  5
C0AA
330
99F2
100
AcDbEntity
  8
寸法引出
 48
25.0
370
    -2
100
AcDbLine
 10
2111.61754453182
 20
2203.561680690742
 30
0.0
 11
2081.61754453182
 21
2203.561680690742
 31
0.0
  0
LINE
  5
C0AB
330
99F2
100
AcDbEntity
  8
寸法引出
 48
25.0
370
    -2
100
AcDbLine
 10
2231.61754453182
 20
2203.561680690742
 30
0.0
 11
2141.61754453182
 21
2203.561680690742
 31
0.0
  0
SOLID
  5
C0AC
330
99F2
100
AcDbEntity
  8
寸法引出
 48
25.0
100
AcDbTrace
 10
2261.61754453182
 20
2208.561680690742
 30
0.0
 11
2261.61754453182
 21
2198.561680690742
 31
0.0
 12
2231.61754453182
 22
2203.561680690742
 32
0.0
 13
2231.61754453182
 23
2203.561680690742
 33
0.0
  0
SOLID
  5
C0AD
330
99F2
100
AcDbEntity
  8
寸法引出
 48
25.0
100
AcDbTrace
 10
2111.61754453182
 20
2208.561680690742
 30
0.0
 11
2111.61754453182
 21
2198.561680690742
 31
0.0
 12
2141.61754453182
 22
2203.561680690742
 32
0.0
 13
2141.61754453182
 23
2203.561680690742
 33
0.0
  0
MTEXT
  5
C0AE
330
99F2
100
AcDbEntity
  8
寸法引出
 48
25.0
100
AcDbMText
 10
2186.61754453182
 20
2243.561680690742
 30
0.0
 40
40.0
 41
0.0
 71
     5
 72
     1
  1
\A1;90
  7
SANWA
 73
     1
 44
1.0
  0
POINT
  5
C0AF
330
99F2
100
AcDbEntity
  8
DEFPOINTS
 62
     0
 48
25.0
100
AcDbPoint
 10
2231.61754453182
 20
2387.119840131078
 30
0.0
  0
POINT
  5
C0B0
330
99F2
100
AcDbEntity
  8
DEFPOINTS
 62
     0
 48
25.0
100
AcDbPoint
 10
2141.61754453182
 20
2427.119840131078
 30
0.0
  0
POINT
  5
C0B1
330
99F2
100
AcDbEntity
  8
DEFPOINTS
 62
     0
 48
25.0
100
AcDbPoint
 10
2141.61754453182
 20
2203.561680690742
 30
0.0
  0
ENDBLK
  5
99FE
330
99F2
100
AcDbEntity
  8
0
 48
25.0
100
AcDbBlockEnd
  0
BLOCK
  5
9A0A
330
99FF
100
AcDbEntity
  8
0
 48
25.0
100
AcDbBlockBegin
  2
*D6
 70
     1
 10
0.0
 20
0.0
 30
0.0
  3
*D6
  1

  0
LINE
  5
C10C
330
99FF
100
AcDbEntity
  8
寸法引出
 48
25.0
370
    -2
100
AcDbLine
 10
2141.61754453182
 20
3397.119840131078
 30
0.0
 11
2141.61754453182
 21
3527.638683621017
 31
0.0
  0
LINE
  5
C10D
330
99FF
100
AcDbEntity
  8
寸法引出
 48
25.0
370
    -2
100
AcDbLine
 10
2231.61754453182
 20
3517.638683621017
 30
0.0
 11
2261.61754453182
 21
3517.638683621017
 31
0.0
  0
LINE
  5
C10E
330
99FF
100
AcDbEntity
  8
寸法引出
 48
25.0
370
    -2
100
AcDbLine
 10
2111.61754453182
 20
3517.638683621017
 30
0.0
 11
2081.61754453182
 21
3517.638683621017
 31
0.0
  0
LINE
  5
C10F
330
99FF
100
AcDbEntity
  8
寸法引出
 48
25.0
370
    -2
100
AcDbLine
 10
2201.61754453182
 20
3517.638683621017
 30
0.0
 11
2141.61754453182
 21
3517.638683621017
 31
0.0
  0
SOLID
  5
C110
330
99FF
100
AcDbEntity
  8
寸法引出
 48
25.0
100
AcDbTrace
 10
2231.61754453182
 20
3522.638683621017
 30
0.0
 11
2231.61754453182
 21
3512.638683621017
 31
0.0
 12
2201.61754453182
 22
3517.638683621017
 32
0.0
 13
2201.61754453182
 23
3517.638683621017
 33
0.0
  0
SOLID
  5
C111
330
99FF
100
AcDbEntity
  8
寸法引出
 48
25.0
100
AcDbTrace
 10
2111.61754453182
 20
3522.638683621017
 30
0.0
 11
2111.61754453182
 21
3512.638683621017
 31
0.0
 12
2141.61754453182
 22
3517.638683621017
 32
0.0
 13
2141.61754453182
 23
3517.638683621017
 33
0.0
  0
MTEXT
  5
C112
330
99FF
100
AcDbEntity
  8
寸法引出
 48
25.0
100
AcDbMText
 10
2171.61754453182
 20
3557.638683621017
 30
0.0
 40
40.0
 41
0.0
 71
     5
 72
     1
  1
\A1;60
  7
SANWA
 73
     1
 44
1.0
  0
POINT
  5
C113
330
99FF
100
AcDbEntity
  8
DEFPOINTS
 62
     0
 48
25.0
100
AcDbPoint
 10
2201.61754453182
 20
3377.119840131078
 30
0.0
  0
POINT
  5
C114
330
99FF
100
AcDbEntity
  8
DEFPOINTS
 62
     0
 48
25.0
100
AcDbPoint
 10
2141.61754453182
 20
3377.119840131078
 30
0.0
  0
POINT
  5
C115
330
99FF
100
AcDbEntity
  8
DEFPOINTS
 62
     0
 48
25.0
100
AcDbPoint
 10
2141.61754453182
 20
3517.638683621017
 30
0.0
  0
ENDBLK
  5
9A0B
330
99FF
100
AcDbEntity
  8
0
 48
25.0
100
AcDbBlockEnd
  0
BLOCK
  5
9A16
330
9A0C
100
AcDbEntity
  8
0
 48
25.0
100
AcDbBlockBegin
  2
*D7
 70
     1
 10
0.0
 20
0.0
 30
0.0
  3
*D7
  1

  0
LINE
  5
C048
330
9A0C
100
AcDbEntity
  8
寸法引出
 48
25.0
370
    -2
100
AcDbLine
 10
2121.61754453182
 20
3377.119840131078
 30
0.0
 11
1907.558528850588
 21
3377.119840131078
 31
0.0
  0
LINE
  5
C049
330
9A0C
100
AcDbEntity
  8
寸法引出
 48
25.0
370
    -2
100
AcDbLine
 10
2161.61754453182
 20
2387.119840131078
 30
0.0
 11
1907.558528850588
 21
2387.119840131078
 31
0.0
  0
LINE
  5
C04A
330
9A0C
100
AcDbEntity
  8
寸法引出
 48
25.0
370
    -2
100
AcDbLine
 10
1917.558528850588
 20
3347.119840131078
 30
0.0
 11
1917.558528850588
 21
2417.119840131078
 31
0.0
  0
SOLID
  5
C04B
330
9A0C
100
AcDbEntity
  8
寸法引出
 48
25.0
100
AcDbTrace
 10
1912.558528850588
 20
3347.119840131078
 30
0.0
 11
1922.558528850588
 21
3347.119840131078
 31
0.0
 12
1917.558528850588
 22
3377.119840131078
 32
0.0
 13
1917.558528850588
 23
3377.119840131078
 33
0.0
  0
SOLID
  5
C04C
330
9A0C
100
AcDbEntity
  8
寸法引出
 48
25.0
100
AcDbTrace
 10
1912.558528850588
 20
2417.119840131078
 30
0.0
 11
1922.558528850588
 21
2417.119840131078
 31
0.0
 12
1917.558528850588
 22
2387.119840131078
 32
0.0
 13
1917.558528850588
 23
2387.119840131078
 33
0.0
  0
MTEXT
  5
C04D
330
9A0C
100
AcDbEntity
  8
寸法引出
 48
25.0
100
AcDbMText
 10
1877.558528850588
 20
2882.119840131078
 30
0.0
 40
40.0
 41
0.0
 71
     5
 72
     1
  1
\A1;990
  7
SANWA
 11
0.0000000000000001
 21
1.0
 31
0.0
 73
     1
 44
1.0
  0
POINT
  5
C04E
330
9A0C
100
AcDbEntity
  8
DEFPOINTS
 62
     0
 48
25.0
100
AcDbPoint
 10
2141.61754453182
 20
3377.119840131078
 30
0.0
  0
POINT
  5
C04F
330
9A0C
100
AcDbEntity
  8
DEFPOINTS
 62
     0
 48
25.0
100
AcDbPoint
 10
2181.61754453182
 20
2387.119840131078
 30
0.0
  0
POINT
  5
C050
330
9A0C
100
AcDbEntity
  8
DEFPOINTS
 62
     0
 48
25.0
100
AcDbPoint
 10
1917.558528850588
 20
2387.119840131078
 30
0.0
  0
ENDBLK
  5
9A17
330
9A0C
100
AcDbEntity
  8
0
 48
25.0
100
AcDbBlockEnd
  0
BLOCK
  5
9A22
330
9A18
100
AcDbEntity
  8
0
 48
25.0
100
AcDbBlockBegin
  2
*D8
 70
     1
 10
0.0
 20
0.0
 30
0.0
  3
*D8
  1

  0
LINE
  5
C051
330
9A18
100
AcDbEntity
  8
寸法引出
 48
25.0
370
    -2
100
AcDbLine
 10
4109.625007866545
 20
3377.119840131078
 30
0.0
 11
3917.192421175338
 21
3377.119840131078
 31
0.0
  0
LINE
  5
C052
330
9A18
100
AcDbEntity
  8
寸法引出
 48
25.0
370
    -2
100
AcDbLine
 10
4119.625007866544
 20
2387.119840131078
 30
0.0
 11
3917.192421175338
 21
2387.119840131078
 31
0.0
  0
LINE
  5
C053
330
9A18
100
AcDbEntity
  8
寸法引出
 48
25.0
370
    -2
100
AcDbLine
 10
3927.192421175337
 20
3347.119840131078
 30
0.0
 11
3927.192421175337
 21
2417.119840131078
 31
0.0
  0
SOLID
  5
C054
330
9A18
100
AcDbEntity
  8
寸法引出
 48
25.0
100
AcDbTrace
 10
3922.192421175338
 20
3347.119840131078
 30
0.0
 11
3932.192421175338
 21
3347.119840131078
 31
0.0
 12
3927.192421175337
 22
3377.119840131078
 32
0.0
 13
3927.192421175337
 23
3377.119840131078
 33
0.0
  0
SOLID
  5
C055
330
9A18
100
AcDbEntity
  8
寸法引出
 48
25.0
100
AcDbTrace
 10
3922.192421175337
 20
2417.119840131078
 30
0.0
 11
3932.192421175337
 21
2417.119840131078
 31
0.0
 12
3927.192421175337
 22
2387.119840131078
 32
0.0
 13
3927.192421175337
 23
2387.119840131078
 33
0.0
  0
MTEXT
  5
C056
330
9A18
100
AcDbEntity
  8
寸法引出
 48
25.0
100
AcDbMText
 10
3887.192421175337
 20
2882.119840131078
 30
0.0
 40
40.0
 41
0.0
 71
     5
 72
     1
  1
\A1;990
  7
SANWA
 11
0.0000000000000001
 21
1.0
 31
0.0
 73
     1
 44
1.0
  0
POINT
  5
C057
330
9A18
100
AcDbEntity
  8
DEFPOINTS
 62
     0
 48
25.0
100
AcDbPoint
 10
4129.625007866545
 20
3377.119840131078
 30
0.0
  0
POINT
  5
C058
330
9A18
100
AcDbEntity
  8
DEFPOINTS
 62
     0
 48
25.0
100
AcDbPoint
 10
4139.625007866545
 20
2387.119840131078
 30
0.0
  0
POINT
  5
C059
330
9A18
100
AcDbEntity
  8
DEFPOINTS
 62
     0
 48
25.0
100
AcDbPoint
 10
3927.192421175337
 20
2387.119840131078
 30
0.0
  0
ENDBLK
  5
9A23
330
9A18
100
AcDbEntity
  8
0
 48
25.0
100
AcDbBlockEnd
  0
BLOCK
  5
9A5D
330
9A53
100
AcDbEntity
  8
0
 48
25.0
100
AcDbBlockBegin
  2
*D9
 70
     1
 10
0.0
 20
0.0
 30
0.0
  3
*D9
  1

  0
LINE
  5
C05A
330
9A53
100
AcDbEntity
  8
寸法引出
 48
25.0
370
    -2
100
AcDbLine
 10
2681.61754453182
 20
3377.119840131078
 30
0.0
 11
2941.287058075255
 21
3377.119840131078
 31
0.0
  0
LINE
  5
C05B
330
9A53
100
AcDbEntity
  8
寸法引出
 48
25.0
370
    -2
100
AcDbLine
 10
2681.61754453182
 20
2477.119840131078
 30
0.0
 11
2941.287058075255
 21
2477.119840131078
 31
0.0
  0
LINE
  5
C05C
330
9A53
100
AcDbEntity
  8
寸法引出
 48
25.0
370
    -2
100
AcDbLine
 10
2931.287058075255
 20
3347.119840131078
 30
0.0
 11
2931.287058075255
 21
2507.119840131078
 31
0.0
  0
SOLID
  5
C05D
330
9A53
100
AcDbEntity
  8
寸法引出
 48
25.0
100
AcDbTrace
 10
2926.287058075255
 20
3347.119840131078
 30
0.0
 11
2936.287058075255
 21
3347.119840131078
 31
0.0
 12
2931.287058075255
 22
3377.119840131078
 32
0.0
 13
2931.287058075255
 23
3377.119840131078
 33
0.0
  0
SOLID
  5
C05E
330
9A53
100
AcDbEntity
  8
寸法引出
 48
25.0
100
AcDbTrace
 10
2926.287058075255
 20
2507.119840131078
 30
0.0
 11
2936.287058075255
 21
2507.119840131078
 31
0.0
 12
2931.287058075255
 22
2477.119840131078
 32
0.0
 13
2931.287058075255
 23
2477.119840131078
 33
0.0
  0
MTEXT
  5
C05F
330
9A53
100
AcDbEntity
  8
寸法引出
 48
25.0
100
AcDbMText
 10
2891.287058075254
 20
2927.119840131078
 30
0.0
 40
40.0
 41
0.0
 71
     5
 72
     1
  1
\A1;900
  7
SANWA
 11
0.0000000000000001
 21
1.0
 31
0.0
 73
     1
 44
1.0
  0
POINT
  5
C060
330
9A53
100
AcDbEntity
  8
DEFPOINTS
 62
     0
 48
25.0
100
AcDbPoint
 10
2661.61754453182
 20
3377.119840131078
 30
0.0
  0
POINT
  5
C061
330
9A53
100
AcDbEntity
  8
DEFPOINTS
 62
     0
 48
25.0
100
AcDbPoint
 10
2661.61754453182
 20
2477.119840131078
 30
0.0
  0
POINT
  5
C062
330
9A53
100
AcDbEntity
  8
DEFPOINTS
 62
     0
 48
25.0
100
AcDbPoint
 10
2931.287058075255
 20
2477.119840131078
 30
0.0
  0
ENDBLK
  5
9A5E
330
9A53
100
AcDbEntity
  8
0
 48
25.0
100
AcDbBlockEnd
  0
BLOCK
  5
9A6A
330
9A5F
100
AcDbEntity
  8
0
 48
25.0
100
AcDbBlockBegin
  2
*D10
 70
     1
 10
0.0
 20
0.0
 30
0.0
  3
*D10
  1

  0
LINE
  5
C063
330
9A5F
100
AcDbEntity
  8
寸法引出
 48
25.0
370
    -2
100
AcDbLine
 10
2661.61754453182
 20
2407.119840131078
 30
0.0
 11
2661.61754453182
 21
2193.561680690742
 31
0.0
  0
LINE
  5
C064
330
9A5F
100
AcDbEntity
  8
寸法引出
 48
25.0
370
    -2
100
AcDbLine
 10
2541.61754453182
 20
2203.561680690742
 30
0.0
 11
2511.61754453182
 21
2203.561680690742
 31
0.0
  0
LINE
  5
C065
330
9A5F
100
AcDbEntity
  8
寸法引出
 48
25.0
370
    -2
100
AcDbLine
 10
2691.61754453182
 20
2203.561680690742
 30
0.0
 11
2721.61754453182
 21
2203.561680690742
 31
0.0
  0
LINE
  5
C066
330
9A5F
100
AcDbEntity
  8
寸法引出
 48
25.0
370
    -2
100
AcDbLine
 10
2571.61754453182
 20
2203.561680690742
 30
0.0
 11
2661.61754453182
 21
2203.561680690742
 31
0.0
  0
SOLID
  5
C067
330
9A5F
100
AcDbEntity
  8
寸法引出
 48
25.0
100
AcDbTrace
 10
2541.61754453182
 20
2208.561680690742
 30
0.0
 11
2541.61754453182
 21
2198.561680690742
 31
0.0
 12
2571.61754453182
 22
2203.561680690742
 32
0.0
 13
2571.61754453182
 23
2203.561680690742
 33
0.0
  0
SOLID
  5
C068
330
9A5F
100
AcDbEntity
  8
寸法引出
 48
25.0
100
AcDbTrace
 10
2691.61754453182
 20
2208.561680690742
 30
0.0
 11
2691.61754453182
 21
2198.561680690742
 31
0.0
 12
2661.61754453182
 22
2203.561680690742
 32
0.0
 13
2661.61754453182
 23
2203.561680690742
 33
0.0
  0
MTEXT
  5
C069
330
9A5F
100
AcDbEntity
  8
寸法引出
 48
25.0
100
AcDbMText
 10
2616.61754453182
 20
2243.561680690742
 30
0.0
 40
40.0
 41
0.0
 71
     5
 72
     1
  1
\A1;90
  7
SANWA
 73
     1
 44
1.0
  0
POINT
  5
C06A
330
9A5F
100
AcDbEntity
  8
DEFPOINTS
 62
     0
 48
25.0
100
AcDbPoint
 10
2571.61754453182
 20
2387.119840131078
 30
0.0
  0
POINT
  5
C06B
330
9A5F
100
AcDbEntity
  8
DEFPOINTS
 62
     0
 48
25.0
100
AcDbPoint
 10
2661.61754453182
 20
2427.119840131078
 30
0.0
  0
POINT
  5
C06C
330
9A5F
100
AcDbEntity
  8
DEFPOINTS
 62
     0
 48
25.0
100
AcDbPoint
 10
2661.61754453182
 20
2203.561680690742
 30
0.0
  0
ENDBLK
  5
9A6B
330
9A5F
100
AcDbEntity
  8
0
 48
25.0
100
AcDbBlockEnd
  0
BLOCK
  5
9A77
330
9A6C
100
AcDbEntity
  8
0
 48
25.0
100
AcDbBlockBegin
  2
*D11
 70
     1
 10
0.0
 20
0.0
 30
0.0
  3
*D11
  1

  0
LINE
  5
C06D
330
9A6C
100
AcDbEntity
  8
寸法引出
 48
25.0
370
    -2
100
AcDbLine
 10
2641.61754453182
 20
2387.119840131078
 30
0.0
 11
2941.287058075255
 21
2387.119840131078
 31
0.0
  0
LINE
  5
C06E
330
9A6C
100
AcDbEntity
  8
寸法引出
 48
25.0
370
    -2
100
AcDbLine
 10
2931.287058075255
 20
2507.119840131078
 30
0.0
 11
2931.287058075255
 21
2537.119840131078
 31
0.0
  0
LINE
  5
C06F
330
9A6C
100
AcDbEntity
  8
寸法引出
 48
25.0
370
    -2
100
AcDbLine
 10
2931.287058075255
 20
2357.119840131078
 30
0.0
 11
2931.287058075255
 21
2327.119840131078
 31
0.0
  0
LINE
  5
C070
330
9A6C
100
AcDbEntity
  8
寸法引出
 48
25.0
370
    -2
100
AcDbLine
 10
2931.287058075255
 20
2477.119840131078
 30
0.0
 11
2931.287058075255
 21
2387.119840131078
 31
0.0
  0
SOLID
  5
C071
330
9A6C
100
AcDbEntity
  8
寸法引出
 48
25.0
100
AcDbTrace
 10
2926.287058075255
 20
2507.119840131078
 30
0.0
 11
2936.287058075255
 21
2507.119840131078
 31
0.0
 12
2931.287058075255
 22
2477.119840131078
 32
0.0
 13
2931.287058075255
 23
2477.119840131078
 33
0.0
  0
SOLID
  5
C072
330
9A6C
100
AcDbEntity
  8
寸法引出
 48
25.0
100
AcDbTrace
 10
2926.287058075255
 20
2357.119840131078
 30
0.0
 11
2936.287058075255
 21
2357.119840131078
 31
0.0
 12
2931.287058075255
 22
2387.119840131078
 32
0.0
 13
2931.287058075255
 23
2387.119840131078
 33
0.0
  0
MTEXT
  5
C073
330
9A6C
100
AcDbEntity
  8
寸法引出
 48
25.0
100
AcDbMText
 10
2891.287058075254
 20
2432.119840131078
 30
0.0
 40
40.0
 41
0.0
 71
     5
 72
     1
  1
\A1;90
  7
SANWA
 11
0.0000000000000001
 21
1.0
 31
0.0
 73
     1
 44
1.0
  0
POINT
  5
C074
330
9A6C
100
AcDbEntity
  8
DEFPOINTS
 62
     0
 48
25.0
100
AcDbPoint
 10
2661.61754453182
 20
2477.119840131078
 30
0.0
  0
POINT
  5
C075
330
9A6C
100
AcDbEntity
  8
DEFPOINTS
 62
     0
 48
25.0
100
AcDbPoint
 10
2621.61754453182
 20
2387.119840131078
 30
0.0
  0
POINT
  5
C076
330
9A6C
100
AcDbEntity
  8
DEFPOINTS
 62
     0
 48
25.0
100
AcDbPoint
 10
2931.287058075255
 20
2387.119840131078
 30
0.0
  0
ENDBLK
  5
9A78
330
9A6C
100
AcDbEntity
  8
0
 48
25.0
100
AcDbBlockEnd
  0
BLOCK
  5
9AAB
330
9AA1
100
AcDbEntity
  8
0
 48
25.0
100
AcDbBlockBegin
  2
*D12
 70
     1
 10
0.0
 20
0.0
 30
0.0
  3
*D12
  1

  0
LINE
  5
C0B2
330
9AA1
100
AcDbEntity
  8
寸法引出
 48
25.0
370
    -2
100
AcDbLine
 10
2231.61754453182
 20
2367.119840131078
 30
0.0
 11
2231.61754453182
 21
2193.561680690742
 31
0.0
  0
LINE
  5
C0B3
330
9AA1
100
AcDbEntity
  8
寸法引出
 48
25.0
370
    -2
100
AcDbLine
 10
2571.61754453182
 20
2367.119840131078
 30
0.0
 11
2571.61754453182
 21
2193.561680690742
 31
0.0
  0
LINE
  5
C0B4
330
9AA1
100
AcDbEntity
  8
寸法引出
 48
25.0
370
    -2
100
AcDbLine
 10
2261.61754453182
 20
2203.561680690742
 30
0.0
 11
2541.61754453182
 21
2203.561680690742
 31
0.0
  0
SOLID
  5
C0B5
330
9AA1
100
AcDbEntity
  8
寸法引出
 48
25.0
100
AcDbTrace
 10
2261.61754453182
 20
2208.561680690742
 30
0.0
 11
2261.61754453182
 21
2198.561680690742
 31
0.0
 12
2231.61754453182
 22
2203.561680690742
 32
0.0
 13
2231.61754453182
 23
2203.561680690742
 33
0.0
  0
SOLID
  5
C0B6
330
9AA1
100
AcDbEntity
  8
寸法引出
 48
25.0
100
AcDbTrace
 10
2541.61754453182
 20
2208.561680690742
 30
0.0
 11
2541.61754453182
 21
2198.561680690742
 31
0.0
 12
2571.61754453182
 22
2203.561680690742
 32
0.0
 13
2571.61754453182
 23
2203.561680690742
 33
0.0
  0
MTEXT
  5
C0B7
330
9AA1
100
AcDbEntity
  8
寸法引出
 48
25.0
100
AcDbMText
 10
2401.61754453182
 20
2243.561680690742
 30
0.0
 40
40.0
 41
0.0
 71
     5
 72
     1
  1
\A1;340
  7
SANWA
 73
     1
 44
1.0
  0
POINT
  5
C0B8
330
9AA1
100
AcDbEntity
  8
DEFPOINTS
 62
     0
 48
25.0
100
AcDbPoint
 10
2231.61754453182
 20
2387.119840131078
 30
0.0
  0
POINT
  5
C0B9
330
9AA1
100
AcDbEntity
  8
DEFPOINTS
 62
     0
 48
25.0
100
AcDbPoint
 10
2571.61754453182
 20
2387.119840131078
 30
0.0
  0
POINT
  5
C0BA
330
9AA1
100
AcDbEntity
  8
DEFPOINTS
 62
     0
 48
25.0
100
AcDbPoint
 10
2571.61754453182
 20
2203.561680690742
 30
0.0
  0
ENDBLK
  5
9AAC
330
9AA1
100
AcDbEntity
  8
0
 48
25.0
100
AcDbBlockEnd
  0
BLOCK
  5
9AB8
330
9AAD
100
AcDbEntity
  8
0
 48
25.0
100
AcDbBlockBegin
  2
*D13
 70
     1
 10
0.0
 20
0.0
 30
0.0
  3
*D13
  1

  0
LINE
  5
C102
330
9AAD
100
AcDbEntity
  8
寸法引出
 48
25.0
370
    -2
100
AcDbLine
 10
2661.61754453182
 20
3397.119840131078
 30
0.0
 11
2661.61754453182
 21
3527.638683621017
 31
0.0
  0
LINE
  5
C103
330
9AAD
100
AcDbEntity
  8
寸法引出
 48
25.0
370
    -2
100
AcDbLine
 10
2571.61754453182
 20
3517.638683621017
 30
0.0
 11
2541.61754453182
 21
3517.638683621017
 31
0.0
  0
LINE
  5
C104
330
9AAD
100
AcDbEntity
  8
寸法引出
 48
25.0
370
    -2
100
AcDbLine
 10
2691.61754453182
 20
3517.638683621017
 30
0.0
 11
2721.61754453182
 21
3517.638683621017
 31
0.0
  0
LINE
  5
C105
330
9AAD
100
AcDbEntity
  8
寸法引出
 48
25.0
370
    -2
100
AcDbLine
 10
2601.61754453182
 20
3517.638683621017
 30
0.0
 11
2661.61754453182
 21
3517.638683621017
 31
0.0
  0
SOLID
  5
C106
330
9AAD
100
AcDbEntity
  8
寸法引出
 48
25.0
100
AcDbTrace
 10
2571.61754453182
 20
3522.638683621017
 30
0.0
 11
2571.61754453182
 21
3512.638683621017
 31
0.0
 12
2601.61754453182
 22
3517.638683621017
 32
0.0
 13
2601.61754453182
 23
3517.638683621017
 33
0.0
  0
SOLID
  5
C107
330
9AAD
100
AcDbEntity
  8
寸法引出
 48
25.0
100
AcDbTrace
 10
2691.61754453182
 20
3522.638683621017
 30
0.0
 11
2691.61754453182
 21
3512.638683621017
 31
0.0
 12
2661.61754453182
 22
3517.638683621017
 32
0.0
 13
2661.61754453182
 23
3517.638683621017
 33
0.0
  0
MTEXT
  5
C108
330
9AAD
100
AcDbEntity
  8
寸法引出
 48
25.0
100
AcDbMText
 10
2631.61754453182
 20
3557.638683621017
 30
0.0
 40
40.0
 41
0.0
 71
     5
 72
     1
  1
\A1;60
  7
SANWA
 73
     1
 44
1.0
  0
POINT
  5
C109
330
9AAD
100
AcDbEntity
  8
DEFPOINTS
 62
     0
 48
25.0
100
AcDbPoint
 10
2601.61754453182
 20
3377.119840131078
 30
0.0
  0
POINT
  5
C10A
330
9AAD
100
AcDbEntity
  8
DEFPOINTS
 62
     0
 48
25.0
100
AcDbPoint
 10
2661.61754453182
 20
3377.119840131078
 30
0.0
  0
POINT
  5
C10B
330
9AAD
100
AcDbEntity
  8
DEFPOINTS
 62
     0
 48
25.0
100
AcDbPoint
 10
2661.61754453182
 20
3517.638683621017
 30
0.0
  0
ENDBLK
  5
9AB9
330
9AAD
100
AcDbEntity
  8
0
 48
25.0
100
AcDbBlockEnd
  0
BLOCK
  5
9AC4
330
9ABA
100
AcDbEntity
  8
0
 48
25.0
100
AcDbBlockBegin
  2
*D14
 70
     1
 10
0.0
 20
0.0
 30
0.0
  3
*D14
  1

  0
LINE
  5
C116
330
9ABA
100
AcDbEntity
  8
寸法引出
 48
25.0
370
    -2
100
AcDbLine
 10
2141.61754453182
 20
3397.119840131078
 30
0.0
 11
2141.61754453182
 21
3606.234168437969
 31
0.0
  0
LINE
  5
C117
330
9ABA
100
AcDbEntity
  8
寸法引出
 48
25.0
370
    -2
100
AcDbLine
 10
2661.61754453182
 20
3397.119840131078
 30
0.0
 11
2661.61754453182
 21
3606.234168437969
 31
0.0
  0
LINE
  5
C118
330
9ABA
100
AcDbEntity
  8
寸法引出
 48
25.0
370
    -2
100
AcDbLine
 10
2171.61754453182
 20
3596.23416843797
 30
0.0
 11
2631.61754453182
 21
3596.23416843797
 31
0.0
  0
SOLID
  5
C119
330
9ABA
100
AcDbEntity
  8
寸法引出
 48
25.0
100
AcDbTrace
 10
2171.61754453182
 20
3601.23416843797
 30
0.0
 11
2171.61754453182
 21
3591.234168437969
 31
0.0
 12
2141.61754453182
 22
3596.23416843797
 32
0.0
 13
2141.61754453182
 23
3596.23416843797
 33
0.0
  0
SOLID
  5
C11A
330
9ABA
100
AcDbEntity
  8
寸法引出
 48
25.0
100
AcDbTrace
 10
2631.61754453182
 20
3601.23416843797
 30
0.0
 11
2631.61754453182
 21
3591.234168437969
 31
0.0
 12
2661.61754453182
 22
3596.23416843797
 32
0.0
 13
2661.61754453182
 23
3596.23416843797
 33
0.0
  0
MTEXT
  5
C11B
330
9ABA
100
AcDbEntity
  8
寸法引出
 48
25.0
100
AcDbMText
 10
2401.61754453182
 20
3636.23416843797
 30
0.0
 40
40.0
 41
0.0
 71
     5
 72
     1
  1
\A1;520
  7
SANWA
 73
     1
 44
1.0
  0
POINT
  5
C11C
330
9ABA
100
AcDbEntity
  8
DEFPOINTS
 62
     0
 48
25.0
100
AcDbPoint
 10
2141.61754453182
 20
3377.119840131078
 30
0.0
  0
POINT
  5
C11D
330
9ABA
100
AcDbEntity
  8
DEFPOINTS
 62
     0
 48
25.0
100
AcDbPoint
 10
2661.61754453182
 20
3377.119840131078
 30
0.0
  0
POINT
  5
C11E
330
9ABA
100
AcDbEntity
  8
DEFPOINTS
 62
     0
 48
25.0
100
AcDbPoint
 10
2661.61754453182
 20
3596.23416843797
 30
0.0
  0
ENDBLK
  5
9AC5
330
9ABA
100
AcDbEntity
  8
0
 48
25.0
100
AcDbBlockEnd
  0
BLOCK
  5
9AD0
330
9AC6
100
AcDbEntity
  8
0
 48
25.0
100
AcDbBlockBegin
  2
*D15
 70
     1
 10
0.0
 20
0.0
 30
0.0
  3
*D15
  1

  0
LINE
  5
C11F
330
9AC6
100
AcDbEntity
  8
寸法引出
 48
25.0
370
    -2
100
AcDbLine
 10
2201.61754453182
 20
3397.119840131078
 30
0.0
 11
2201.61754453182
 21
3527.638683621017
 31
0.0
  0
LINE
  5
C120
330
9AC6
100
AcDbEntity
  8
寸法引出
 48
25.0
370
    -2
100
AcDbLine
 10
2601.61754453182
 20
3397.119840131078
 30
0.0
 11
2601.61754453182
 21
3527.638683621017
 31
0.0
  0
LINE
  5
C121
330
9AC6
100
AcDbEntity
  8
寸法引出
 48
25.0
370
    -2
100
AcDbLine
 10
2231.61754453182
 20
3517.638683621017
 30
0.0
 11
2571.61754453182
 21
3517.638683621017
 31
0.0
  0
SOLID
  5
C122
330
9AC6
100
AcDbEntity
  8
寸法引出
 48
25.0
100
AcDbTrace
 10
2231.61754453182
 20
3522.638683621017
 30
0.0
 11
2231.61754453182
 21
3512.638683621017
 31
0.0
 12
2201.61754453182
 22
3517.638683621017
 32
0.0
 13
2201.61754453182
 23
3517.638683621017
 33
0.0
  0
SOLID
  5
C123
330
9AC6
100
AcDbEntity
  8
寸法引出
 48
25.0
100
AcDbTrace
 10
2571.61754453182
 20
3522.638683621017
 30
0.0
 11
2571.61754453182
 21
3512.638683621017
 31
0.0
 12
2601.61754453182
 22
3517.638683621017
 32
0.0
 13
2601.61754453182
 23
3517.638683621017
 33
0.0
  0
MTEXT
  5
C124
330
9AC6
100
AcDbEntity
  8
寸法引出
 48
25.0
100
AcDbMText
 10
2401.61754453182
 20
3557.638683621017
 30
0.0
 40
40.0
 41
0.0
 71
     5
 72
     1
  1
\A1;400
  7
SANWA
 73
     1
 44
1.0
  0
POINT
  5
C125
330
9AC6
100
AcDbEntity
  8
DEFPOINTS
 62
     0
 48
25.0
100
AcDbPoint
 10
2201.61754453182
 20
3377.119840131078
 30
0.0
  0
POINT
  5
C126
330
9AC6
100
AcDbEntity
  8
DEFPOINTS
 62
     0
 48
25.0
100
AcDbPoint
 10
2601.61754453182
 20
3377.119840131078
 30
0.0
  0
POINT
  5
C127
330
9AC6
100
AcDbEntity
  8
DEFPOINTS
 62
     0
 48
25.0
100
AcDbPoint
 10
2601.61754453182
 20
3517.638683621017
 30
0.0
  0
ENDBLK
  5
9AD1
330
9AC6
100
AcDbEntity
  8
0
 48
25.0
100
AcDbBlockEnd
  0
BLOCK
  5
9AF4
330
9AEB
100
AcDbEntity
  8
0
 48
25.0
100
AcDbBlockBegin
  2
*D16
 70
     1
 10
0.0
 20
0.0
 30
0.0
  3
*D16
  1

  0
LINE
  5
C14D
330
9AEB
100
AcDbEntity
  8
寸法引出
 48
25.0
370
    -2
100
AcDbLine
 10
5009.625007866546
 20
3397.119840131078
 30
0.0
 11
5009.625007866546
 21
3518.870918497508
 31
0.0
  0
LINE
  5
C14E
330
9AEB
100
AcDbEntity
  8
寸法引出
 48
25.0
370
    -2
100
AcDbLine
 10
4279.625007866544
 20
3508.870918497509
 30
0.0
 11
4979.625007866545
 21
3508.870918497509
 31
0.0
  0
SOLID
  5
C14F
330
9AEB
100
AcDbEntity
  8
寸法引出
 48
25.0
100
AcDbTrace
 10
4279.625007866544
 20
3513.870918497509
 30
0.0
 11
4279.625007866544
 21
3503.870918497509
 31
0.0
 12
4249.625007866545
 22
3508.870918497509
 32
0.0
 13
4249.625007866545
 23
3508.870918497509
 33
0.0
  0
SOLID
  5
C150
330
9AEB
100
AcDbEntity
  8
寸法引出
 48
25.0
100
AcDbTrace
 10
4979.625007866545
 20
3513.870918497509
 30
0.0
 11
4979.625007866545
 21
3503.870918497509
 31
0.0
 12
5009.625007866546
 22
3508.870918497509
 32
0.0
 13
5009.625007866546
 23
3508.870918497509
 33
0.0
  0
MTEXT
  5
C151
330
9AEB
100
AcDbEntity
  8
寸法引出
 48
25.0
100
AcDbMText
 10
4629.625007866545
 20
3548.870918497509
 30
0.0
 40
40.0
 41
0.0
 71
     5
 72
     1
  1
\A1;760
  7
SANWA
 73
     1
 44
1.0
  0
POINT
  5
C152
330
9AEB
100
AcDbEntity
  8
DEFPOINTS
 62
     0
 48
25.0
100
AcDbPoint
 10
4249.625007866545
 20
3377.119840131078
 30
0.0
  0
POINT
  5
C153
330
9AEB
100
AcDbEntity
  8
DEFPOINTS
 62
     0
 48
25.0
100
AcDbPoint
 10
5009.625007866546
 20
3377.119840131078
 30
0.0
  0
POINT
  5
C154
330
9AEB
100
AcDbEntity
  8
DEFPOINTS
 62
     0
 48
25.0
100
AcDbPoint
 10
5009.625007866546
 20
3508.870918497509
 30
0.0
  0
ENDBLK
  5
9AF5
330
9AEB
100
AcDbEntity
  8
0
 48
25.0
100
AcDbBlockEnd
  0
BLOCK
  5
9B00
330
9AF6
100
AcDbEntity
  8
0
 48
25.0
100
AcDbBlockBegin
  2
*D17
 70
     1
 10
0.0
 20
0.0
 30
0.0
  3
*D17
  1

  0
LINE
  5
C155
330
9AF6
100
AcDbEntity
  8
寸法引出
 48
25.0
370
    -2
100
AcDbLine
 10
4129.625007866545
 20
3397.119840131078
 30
0.0
 11
4129.625007866545
 21
3518.870918497508
 31
0.0
  0
LINE
  5
C156
330
9AF6
100
AcDbEntity
  8
寸法引出
 48
25.0
370
    -2
100
AcDbLine
 10
4249.625007866545
 20
3397.119840131078
 30
0.0
 11
4249.625007866545
 21
3518.870918497508
 31
0.0
  0
LINE
  5
C157
330
9AF6
100
AcDbEntity
  8
寸法引出
 48
25.0
370
    -2
100
AcDbLine
 10
4159.625007866545
 20
3508.870918497509
 30
0.0
 11
4219.625007866545
 21
3508.870918497509
 31
0.0
  0
SOLID
  5
C158
330
9AF6
100
AcDbEntity
  8
寸法引出
 48
25.0
100
AcDbTrace
 10
4159.625007866545
 20
3513.870918497509
 30
0.0
 11
4159.625007866545
 21
3503.870918497509
 31
0.0
 12
4129.625007866545
 22
3508.870918497509
 32
0.0
 13
4129.625007866545
 23
3508.870918497509
 33
0.0
  0
SOLID
  5
C159
330
9AF6
100
AcDbEntity
  8
寸法引出
 48
25.0
100
AcDbTrace
 10
4219.625007866545
 20
3513.870918497509
 30
0.0
 11
4219.625007866545
 21
3503.870918497509
 31
0.0
 12
4249.625007866545
 22
3508.870918497509
 32
0.0
 13
4249.625007866545
 23
3508.870918497509
 33
0.0
  0
MTEXT
  5
C15A
330
9AF6
100
AcDbEntity
  8
寸法引出
 48
25.0
100
AcDbMText
 10
4189.625007866545
 20
3548.870918497509
 30
0.0
 40
40.0
 41
0.0
 71
     5
 72
     1
  1
\A1;120
  7
SANWA
 73
     1
 44
1.0
  0
POINT
  5
C15B
330
9AF6
100
AcDbEntity
  8
DEFPOINTS
 62
     0
 48
25.0
100
AcDbPoint
 10
4129.625007866545
 20
3377.119840131078
 30
0.0
  0
POINT
  5
C15C
330
9AF6
100
AcDbEntity
  8
DEFPOINTS
 62
     0
 48
25.0
100
AcDbPoint
 10
4249.625007866545
 20
3377.119840131078
 30
0.0
  0
POINT
  5
C15D
330
9AF6
100
AcDbEntity
  8
DEFPOINTS
 62
     0
 48
25.0
100
AcDbPoint
 10
4249.625007866545
 20
3508.870918497509
 30
0.0
  0
ENDBLK
  5
9B01
330
9AF6
100
AcDbEntity
  8
0
 48
25.0
100
AcDbBlockEnd
  0
BLOCK
  5
A841
330
A837
100
AcDbEntity
  8
0
 48
25.0
100
AcDbBlockBegin
  2
*D18
 70
     1
 10
0.0
 20
0.0
 30
0.0
  3
*D18
  1

  0
LINE
  5
C128
330
A837
100
AcDbEntity
  8
寸法引出
 48
25.0
370
    -2
100
AcDbLine
 10
2121.61754453182
 20
3377.119840131078
 30
0.0
 11
2035.273125274956
 21
3377.119840131078
 31
0.0
  0
LINE
  5
C129
330
A837
100
AcDbEntity
  8
寸法引出
 48
25.0
370
    -2
100
AcDbLine
 10
2121.61754453182
 20
3227.119840131078
 30
0.0
 11
2035.273125274956
 21
3227.119840131078
 31
0.0
  0
LINE
  5
C12A
330
A837
100
AcDbEntity
  8
寸法引出
 48
25.0
370
    -2
100
AcDbLine
 10
2045.273125274956
 20
3347.119840131078
 30
0.0
 11
2045.273125274956
 21
3257.119840131078
 31
0.0
  0
SOLID
  5
C12B
330
A837
100
AcDbEntity
  8
寸法引出
 48
25.0
100
AcDbTrace
 10
2040.273125274956
 20
3347.119840131078
 30
0.0
 11
2050.273125274956
 21
3347.119840131078
 31
0.0
 12
2045.273125274956
 22
3377.119840131078
 32
0.0
 13
2045.273125274956
 23
3377.119840131078
 33
0.0
  0
SOLID
  5
C12C
330
A837
100
AcDbEntity
  8
寸法引出
 48
25.0
100
AcDbTrace
 10
2040.273125274956
 20
3257.119840131078
 30
0.0
 11
2050.273125274956
 21
3257.119840131078
 31
0.0
 12
2045.273125274956
 22
3227.119840131078
 32
0.0
 13
2045.273125274956
 23
3227.119840131078
 33
0.0
  0
MTEXT
  5
C12D
330
A837
100
AcDbEntity
  8
寸法引出
 48
25.0
100
AcDbMText
 10
2005.273125274956
 20
3302.119840131078
 30
0.0
 40
40.0
 41
0.0
 71
     5
 72
     1
  1
\A1;150
  7
SANWA
 11
0.0000000000000001
 21
1.0
 31
0.0
 73
     1
 44
1.0
  0
POINT
  5
C12E
330
A837
100
AcDbEntity
  8
DEFPOINTS
 62
     0
 48
25.0
100
AcDbPoint
 10
2141.61754453182
 20
3377.119840131078
 30
0.0
  0
POINT
  5
C12F
330
A837
100
AcDbEntity
  8
DEFPOINTS
 62
     0
 48
25.0
100
AcDbPoint
 10
2141.61754453182
 20
3227.119840131078
 30
0.0
  0
POINT
  5
C130
330
A837
100
AcDbEntity
  8
DEFPOINTS
 62
     0
 48
25.0
100
AcDbPoint
 10
2045.273125274956
 20
3227.119840131078
 30
0.0
  0
ENDBLK
  5
A842
330
A837
100
AcDbEntity
  8
0
 48
25.0
100
AcDbBlockEnd
  0
BLOCK
  5
A868
330
A85C
100
AcDbEntity
  8
0
 48
25.0
100
AcDbBlockBegin
  2
*D19
 70
     1
 10
0.0
 20
0.0
 30
0.0
  3
*D19
  1

  0
LINE
  5
C15E
330
A85C
100
AcDbEntity
  8
寸法引出
 48
25.0
370
    -2
100
AcDbLine
 10
4129.625007866545
 20
3271.619840131078
 30
0.0
 11
4129.625007866545
 21
3292.178331068432
 31
0.0
  0
LINE
  5
C15F
330
A85C
100
AcDbEntity
  8
寸法引出
 48
25.0
370
    -2
100
AcDbLine
 10
4179.625007866545
 20
3247.119840131078
 30
0.0
 11
4179.625007866545
 21
3292.178331068432
 31
0.0
  0
LINE
  5
C160
330
A85C
100
AcDbEntity
  8
寸法引出
 48
25.0
370
    -2
100
AcDbLine
 10
4099.625007866545
 20
3282.178331068431
 30
0.0
 11
4069.625007866545
 21
3282.178331068431
 31
0.0
  0
LINE
  5
C161
330
A85C
100
AcDbEntity
  8
寸法引出
 48
25.0
370
    -2
100
AcDbLine
 10
4209.625007866545
 20
3282.178331068431
 30
0.0
 11
4239.625007866545
 21
3282.178331068431
 31
0.0
  0
LINE
  5
C162
330
A85C
100
AcDbEntity
  8
寸法引出
 48
25.0
370
    -2
100
AcDbLine
 10
4129.625007866545
 20
3282.178331068431
 30
0.0
 11
4179.625007866545
 21
3282.178331068431
 31
0.0
  0
SOLID
  5
C163
330
A85C
100
AcDbEntity
  8
寸法引出
 48
25.0
100
AcDbTrace
 10
4099.625007866545
 20
3287.178331068432
 30
0.0
 11
4099.625007866545
 21
3277.178331068432
 31
0.0
 12
4129.625007866545
 22
3282.178331068431
 32
0.0
 13
4129.625007866545
 23
3282.178331068431
 33
0.0
  0
SOLID
  5
C164
330
A85C
100
AcDbEntity
  8
寸法引出
 48
25.0
100
AcDbTrace
 10
4209.625007866545
 20
3287.178331068432
 30
0.0
 11
4209.625007866545
 21
3277.178331068432
 31
0.0
 12
4179.625007866545
 22
3282.178331068431
 32
0.0
 13
4179.625007866545
 23
3282.178331068431
 33
0.0
  0
MTEXT
  5
C165
330
A85C
100
AcDbEntity
  8
寸法引出
 48
25.0
100
AcDbMText
 10
4154.625007866544
 20
3322.178331068431
 30
0.0
 40
40.0
 41
0.0
 71
     5
 72
     1
  1
\A1;50
  7
SANWA
 73
     1
 44
1.0
  0
POINT
  5
C166
330
A85C
100
AcDbEntity
  8
DEFPOINTS
 62
     0
 48
25.0
100
AcDbPoint
 10
4129.625007866545
 20
3251.619840131078
 30
0.0
  0
POINT
  5
C167
330
A85C
100
AcDbEntity
  8
DEFPOINTS
 62
     0
 48
25.0
100
AcDbPoint
 10
4179.625007866545
 20
3227.119840131078
 30
0.0
  0
POINT
  5
C168
330
A85C
100
AcDbEntity
  8
DEFPOINTS
 62
     0
 48
25.0
100
AcDbPoint
 10
4179.625007866545
 20
3282.178331068431
 30
0.0
  0
ENDBLK
  5
A869
330
A85C
100
AcDbEntity
  8
0
 48
25.0
100
AcDbBlockEnd
  0
BLOCK
  5
A874
330
A86A
100
AcDbEntity
  8
0
 48
25.0
100
AcDbBlockBegin
  2
*D20
 70
     1
 10
0.0
 20
0.0
 30
0.0
  3
*D20
  1

  0
LINE
  5
C169
330
A86A
100
AcDbEntity
  8
寸法引出
 48
25.0
370
    -2
100
AcDbLine
 10
4109.625007866545
 20
3377.119840131078
 30
0.0
 11
4032.719130171122
 21
3377.119840131078
 31
0.0
  0
LINE
  5
C16A
330
A86A
100
AcDbEntity
  8
寸法引出
 48
25.0
370
    -2
100
AcDbLine
 10
4109.625007866545
 20
3227.119840131078
 30
0.0
 11
4032.719130171122
 21
3227.119840131078
 31
0.0
  0
LINE
  5
C16B
330
A86A
100
AcDbEntity
  8
寸法引出
 48
25.0
370
    -2
100
AcDbLine
 10
4042.719130171122
 20
3347.119840131078
 30
0.0
 11
4042.719130171122
 21
3257.119840131078
 31
0.0
  0
SOLID
  5
C16C
330
A86A
100
AcDbEntity
  8
寸法引出
 48
25.0
100
AcDbTrace
 10
4037.719130171122
 20
3347.119840131078
 30
0.0
 11
4047.719130171123
 21
3347.119840131078
 31
0.0
 12
4042.719130171122
 22
3377.119840131078
 32
0.0
 13
4042.719130171122
 23
3377.119840131078
 33
0.0
  0
SOLID
  5
C16D
330
A86A
100
AcDbEntity
  8
寸法引出
 48
25.0
100
AcDbTrace
 10
4037.719130171122
 20
3257.119840131078
 30
0.0
 11
4047.719130171123
 21
3257.119840131078
 31
0.0
 12
4042.719130171122
 22
3227.119840131078
 32
0.0
 13
4042.719130171122
 23
3227.119840131078
 33
0.0
  0
MTEXT
  5
C16E
330
A86A
100
AcDbEntity
  8
寸法引出
 48
25.0
100
AcDbMText
 10
4002.719130171121
 20
3302.119840131078
 30
0.0
 40
40.0
 41
0.0
 71
     5
 72
     1
  1
\A1;150
  7
SANWA
 11
0.0000000000000001
 21
1.0
 31
0.0
 73
     1
 44
1.0
  0
POINT
  5
C16F
330
A86A
100
AcDbEntity
  8
DEFPOINTS
 62
     0
 48
25.0
100
AcDbPoint
 10
4129.625007866545
 20
3377.119840131078
 30
0.0
  0
POINT
  5
C170
330
A86A
100
AcDbEntity
  8
DEFPOINTS
 62
     0
 48
25.0
100
AcDbPoint
 10
4129.625007866545
 20
3227.119840131078
 30
0.0
  0
POINT
  5
C171
330
A86A
100
AcDbEntity
  8
DEFPOINTS
 62
     0
 48
25.0
100
AcDbPoint
 10
4042.719130171122
 20
3227.119840131078
 30
0.0
  0
ENDBLK
  5
A875
330
A86A
100
AcDbEntity
  8
0
 48
25.0
100
AcDbBlockEnd
  0
BLOCK
  5
A8EA
330
A8E0
100
AcDbEntity
  8
0
 48
25.0
100
AcDbBlockBegin
  2
*D21
 70
     1
 10
0.0
 20
0.0
 30
0.0
  3
*D21
  1

  0
LINE
  5
C08B
330
A8E0
100
AcDbEntity
  8
寸法引出
 48
25.0
370
    -2
100
AcDbLine
 10
1544.463170910155
 20
708.4230011852983
 30
0.0
 11
1544.463170910155
 21
624.7522993106381
 31
0.0
  0
LINE
  5
C08C
330
A8E0
100
AcDbEntity
  8
寸法引出
 48
25.0
370
    -2
100
AcDbLine
 10
1694.463170910156
 20
796.9230011852983
 30
0.0
 11
1694.463170910156
 21
624.7522993106381
 31
0.0
  0
LINE
  5
C08D
330
A8E0
100
AcDbEntity
  8
寸法引出
 48
25.0
370
    -2
100
AcDbLine
 10
1574.463170910155
 20
634.7522993106381
 30
0.0
 11
1664.463170910156
 21
634.7522993106381
 31
0.0
  0
SOLID
  5
C08E
330
A8E0
100
AcDbEntity
  8
寸法引出
 48
25.0
100
AcDbTrace
 10
1574.463170910155
 20
639.7522993106381
 30
0.0
 11
1574.463170910155
 21
629.7522993106381
 31
0.0
 12
1544.463170910155
 22
634.7522993106381
 32
0.0
 13
1544.463170910155
 23
634.7522993106381
 33
0.0
  0
SOLID
  5
C08F
330
A8E0
100
AcDbEntity
  8
寸法引出
 48
25.0
100
AcDbTrace
 10
1664.463170910156
 20
639.7522993106381
 30
0.0
 11
1664.463170910156
 21
629.7522993106381
 31
0.0
 12
1694.463170910156
 22
634.7522993106381
 32
0.0
 13
1694.463170910156
 23
634.7522993106381
 33
0.0
  0
MTEXT
  5
C090
330
A8E0
100
AcDbEntity
  8
寸法引出
 48
25.0
100
AcDbMText
 10
1619.463170910156
 20
674.7522993106381
 30
0.0
 40
40.0
 41
0.0
 71
     5
 72
     1
  1
\A1;50
  7
SANWA
 73
     1
 44
1.0
  0
POINT
  5
C091
330
A8E0
100
AcDbEntity
  8
DEFPOINTS
 62
     0
 48
25.0
100
AcDbPoint
 10
1544.463170910155
 20
728.4230011852983
 30
0.0
  0
POINT
  5
C092
330
A8E0
100
AcDbEntity
  8
DEFPOINTS
 62
     0
 48
25.0
100
AcDbPoint
 10
1694.463170910156
 20
816.9230011852983
 30
0.0
  0
POINT
  5
C093
330
A8E0
100
AcDbEntity
  8
DEFPOINTS
 62
     0
 48
25.0
100
AcDbPoint
 10
1694.463170910156
 20
634.7522993106381
 30
0.0
  0
ENDBLK
  5
A8EB
330
A8E0
100
AcDbEntity
  8
0
 48
25.0
100
AcDbBlockEnd
  0
BLOCK
  5
A8F6
330
A8EC
100
AcDbEntity
  8
0
 48
25.0
100
AcDbBlockBegin
  2
*D22
 70
     1
 10
0.0
 20
0.0
 30
0.0
  3
*D22
  1

  0
LINE
  5
C077
330
A8EC
100
AcDbEntity
  8
寸法引出
 48
25.0
370
    -2
100
AcDbLine
 10
1544.463170910155
 20
925.4230011852982
 30
0.0
 11
1544.463170910155
 21
989.8306408039157
 31
0.0
  0
LINE
  5
C078
330
A8EC
100
AcDbEntity
  8
寸法引出
 48
25.0
370
    -2
100
AcDbLine
 10
1799.463170910155
 20
919.4230011852983
 30
0.0
 11
1799.463170910155
 21
989.8306408039157
 31
0.0
  0
LINE
  5
C079
330
A8EC
100
AcDbEntity
  8
寸法引出
 48
25.0
370
    -2
100
AcDbLine
 10
1574.463170910155
 20
979.8306408039156
 30
0.0
 11
1769.463170910156
 21
979.8306408039156
 31
0.0
  0
SOLID
  5
C07A
330
A8EC
100
AcDbEntity
  8
寸法引出
 48
25.0
100
AcDbTrace
 10
1574.463170910155
 20
984.8306408039157
 30
0.0
 11
1574.463170910155
 21
974.8306408039157
 31
0.0
 12
1544.463170910155
 22
979.8306408039156
 32
0.0
 13
1544.463170910155
 23
979.8306408039156
 33
0.0
  0
SOLID
  5
C07B
330
A8EC
100
AcDbEntity
  8
寸法引出
 48
25.0
100
AcDbTrace
 10
1769.463170910156
 20
984.8306408039157
 30
0.0
 11
1769.463170910156
 21
974.8306408039157
 31
0.0
 12
1799.463170910155
 22
979.8306408039156
 32
0.0
 13
1799.463170910155
 23
979.8306408039156
 33
0.0
  0
MTEXT
  5
C07C
330
A8EC
100
AcDbEntity
  8
寸法引出
 48
25.0
100
AcDbMText
 10
1671.963170910156
 20
1019.830640803915
 30
0.0
 40
40.0
 41
0.0
 71
     5
 72
     1
  1
\A1;85
  7
SANWA
 73
     1
 44
1.0
  0
POINT
  5
C07D
330
A8EC
100
AcDbEntity
  8
DEFPOINTS
 62
     0
 48
25.0
100
AcDbPoint
 10
1544.463170910155
 20
905.4230011852983
 30
0.0
  0
POINT
  5
C07E
330
A8EC
100
AcDbEntity
  8
DEFPOINTS
 62
     0
 48
25.0
100
AcDbPoint
 10
1799.463170910155
 20
899.4230011852982
 30
0.0
  0
POINT
  5
C07F
330
A8EC
100
AcDbEntity
  8
DEFPOINTS
 62
     0
 48
25.0
100
AcDbPoint
 10
1799.463170910155
 20
979.8306408039156
 30
0.0
  0
ENDBLK
  5
A8F7
330
A8EC
100
AcDbEntity
  8
0
 48
25.0
100
AcDbBlockEnd
  0
BLOCK
  5
A902
330
A8F8
100
AcDbEntity
  8
0
 48
25.0
100
AcDbBlockBegin
  2
*D23
 70
     1
 10
0.0
 20
0.0
 30
0.0
  3
*D23
  1

  0
LINE
  5
C094
330
A8F8
100
AcDbEntity
  8
寸法引出
 48
25.0
370
    -2
100
AcDbLine
 10
1819.463170910161
 20
734.4230011852983
 30
0.0
 11
1962.138017486453
 21
734.4230011852983
 31
0.0
  0
LINE
  5
C095
330
A8F8
100
AcDbEntity
  8
寸法引出
 48
25.0
370
    -2
100
AcDbLine
 10
1819.463170910156
 20
899.4230011852982
 30
0.0
 11
1962.138017486453
 21
899.4230011852982
 31
0.0
  0
LINE
  5
C096
330
A8F8
100
AcDbEntity
  8
寸法引出
 48
25.0
370
    -2
100
AcDbLine
 10
1952.138017486453
 20
764.4230011852982
 30
0.0
 11
1952.138017486453
 21
869.4230011852983
 31
0.0
  0
SOLID
  5
C097
330
A8F8
100
AcDbEntity
  8
寸法引出
 48
25.0
100
AcDbTrace
 10
1947.138017486453
 20
764.4230011852982
 30
0.0
 11
1957.138017486453
 21
764.4230011852982
 31
0.0
 12
1952.138017486453
 22
734.4230011852983
 32
0.0
 13
1952.138017486453
 23
734.4230011852983
 33
0.0
  0
SOLID
  5
C098
330
A8F8
100
AcDbEntity
  8
寸法引出
 48
25.0
100
AcDbTrace
 10
1947.138017486453
 20
869.4230011852983
 30
0.0
 11
1957.138017486453
 21
869.4230011852983
 31
0.0
 12
1952.138017486453
 22
899.4230011852982
 32
0.0
 13
1952.138017486453
 23
899.4230011852982
 33
0.0
  0
MTEXT
  5
C099
330
A8F8
100
AcDbEntity
  8
寸法引出
 48
25.0
100
AcDbMText
 10
1912.138017486453
 20
816.9230011852986
 30
0.0
 40
40.0
 41
0.0
 71
     5
 72
     1
  1
\A1;55
  7
SANWA
 11
0.0000000000000001
 21
1.0
 31
0.0
 73
     1
 44
1.0
  0
POINT
  5
C09A
330
A8F8
100
AcDbEntity
  8
DEFPOINTS
 62
     0
 48
25.0
100
AcDbPoint
 10
1799.463170910161
 20
734.4230011852983
 30
0.0
  0
POINT
  5
C09B
330
A8F8
100
AcDbEntity
  8
DEFPOINTS
 62
     0
 48
25.0
100
AcDbPoint
 10
1799.463170910155
 20
899.4230011852982
 30
0.0
  0
POINT
  5
C09C
330
A8F8
100
AcDbEntity
  8
DEFPOINTS
 62
     0
 48
25.0
100
AcDbPoint
 10
1952.138017486453
 20
899.4230011852982
 30
0.0
  0
ENDBLK
  5
A903
330
A8F8
100
AcDbEntity
  8
0
 48
25.0
100
AcDbBlockEnd
  0
BLOCK
  5
A910
330
A904
100
AcDbEntity
  8
0
 48
25.0
100
AcDbBlockBegin
  2
*D24
 70
     1
 10
0.0
 20
0.0
 30
0.0
  3
*D24
  1

  0
LINE
  5
C080
330
A904
100
AcDbEntity
  8
寸法引出
 48
25.0
370
    -2
100
AcDbLine
 10
1799.463170910155
 20
919.4230011852983
 30
0.0
 11
1799.463170910155
 21
989.8306408039157
 31
0.0
  0
LINE
  5
C081
330
A904
100
AcDbEntity
  8
寸法引出
 48
25.0
370
    -2
100
AcDbLine
 10
1805.463170910156
 20
925.4230011852982
 30
0.0
 11
1805.463170910156
 21
989.8306408039157
 31
0.0
  0
LINE
  5
C082
330
A904
100
AcDbEntity
  8
寸法引出
 48
25.0
370
    -2
100
AcDbLine
 10
1769.463170910156
 20
979.8306408039156
 30
0.0
 11
1739.463170910156
 21
979.8306408039156
 31
0.0
  0
LINE
  5
C083
330
A904
100
AcDbEntity
  8
寸法引出
 48
25.0
370
    -2
100
AcDbLine
 10
1835.463170910156
 20
979.8306408039156
 30
0.0
 11
1865.463170910155
 21
979.8306408039156
 31
0.0
  0
LINE
  5
C084
330
A904
100
AcDbEntity
  8
寸法引出
 48
25.0
370
    -2
100
AcDbLine
 10
1799.463170910155
 20
979.8306408039156
 30
0.0
 11
1805.463170910156
 21
979.8306408039156
 31
0.0
  0
SOLID
  5
C085
330
A904
100
AcDbEntity
  8
寸法引出
 48
25.0
100
AcDbTrace
 10
1769.463170910156
 20
984.8306408039157
 30
0.0
 11
1769.463170910156
 21
974.8306408039157
 31
0.0
 12
1799.463170910155
 22
979.8306408039156
 32
0.0
 13
1799.463170910155
 23
979.8306408039156
 33
0.0
  0
SOLID
  5
C086
330
A904
100
AcDbEntity
  8
寸法引出
 48
25.0
100
AcDbTrace
 10
1835.463170910156
 20
984.8306408039157
 30
0.0
 11
1835.463170910156
 21
974.8306408039157
 31
0.0
 12
1805.463170910156
 22
979.8306408039156
 32
0.0
 13
1805.463170910156
 23
979.8306408039156
 33
0.0
  0
MTEXT
  5
C087
330
A904
100
AcDbEntity
  8
寸法引出
 48
25.0
100
AcDbMText
 10
1802.463170910155
 20
1019.830640803915
 30
0.0
 40
40.0
 41
0.0
 71
     5
 72
     1
  1
\A1;2
  7
SANWA
 73
     1
 44
1.0
  0
POINT
  5
C088
330
A904
100
AcDbEntity
  8
DEFPOINTS
 62
     0
 48
25.0
100
AcDbPoint
 10
1799.463170910155
 20
899.4230011852982
 30
0.0
  0
POINT
  5
C089
330
A904
100
AcDbEntity
  8
DEFPOINTS
 62
     0
 48
25.0
100
AcDbPoint
 10
1805.463170910156
 20
905.4230011852983
 30
0.0
  0
POINT
  5
C08A
330
A904
100
AcDbEntity
  8
DEFPOINTS
 62
     0
 48
25.0
100
AcDbPoint
 10
1805.463170910156
 20
979.8306408039156
 30
0.0
  0
ENDBLK
  5
A911
330
A904
100
AcDbEntity
  8
0
 48
25.0
100
AcDbBlockEnd
  0
BLOCK
  5
A954
330
A948
100
AcDbEntity
  8
0
 48
25.0
100
AcDbBlockBegin
  2
*D25
 70
     1
 10
0.0
 20
0.0
 30
0.0
  3
*D25
  1

  0
LINE
  5
C09D
330
A948
100
AcDbEntity
  8
寸法引出
 48
25.0
370
    -2
100
AcDbLine
 10
2377.54022515401
 20
708.4230011852983
 30
0.0
 11
2377.54022515401
 21
629.8224177516917
 31
0.0
  0
LINE
  5
C09E
330
A948
100
AcDbEntity
  8
寸法引出
 48
25.0
370
    -2
100
AcDbLine
 10
2387.140225154012
 20
714.4230011852982
 30
0.0
 11
2387.140225154012
 21
629.8224177516917
 31
0.0
  0
LINE
  5
C09F
330
A948
100
AcDbEntity
  8
寸法引出
 48
25.0
370
    -2
100
AcDbLine
 10
2347.54022515401
 20
639.8224177516917
 30
0.0
 11
2317.540225154011
 21
639.8224177516917
 31
0.0
  0
LINE
  5
C0A0
330
A948
100
AcDbEntity
  8
寸法引出
 48
25.0
370
    -2
100
AcDbLine
 10
2417.140225154013
 20
639.8224177516917
 30
0.0
 11
2447.140225154013
 21
639.8224177516917
 31
0.0
  0
LINE
  5
C0A1
330
A948
100
AcDbEntity
  8
寸法引出
 48
25.0
370
    -2
100
AcDbLine
 10
2377.54022515401
 20
639.8224177516917
 30
0.0
 11
2387.140225154012
 21
639.8224177516917
 31
0.0
  0
SOLID
  5
C0A2
330
A948
100
AcDbEntity
  8
寸法引出
 48
25.0
100
AcDbTrace
 10
2347.54022515401
 20
644.8224177516918
 30
0.0
 11
2347.54022515401
 21
634.8224177516917
 31
0.0
 12
2377.54022515401
 22
639.8224177516917
 32
0.0
 13
2377.54022515401
 23
639.8224177516917
 33
0.0
  0
SOLID
  5
C0A3
330
A948
100
AcDbEntity
  8
寸法引出
 48
25.0
100
AcDbTrace
 10
2417.140225154013
 20
644.8224177516918
 30
0.0
 11
2417.140225154013
 21
634.8224177516917
 31
0.0
 12
2387.140225154012
 22
639.8224177516917
 32
0.0
 13
2387.140225154012
 23
639.8224177516917
 33
0.0
  0
MTEXT
  5
C0A4
330
A948
100
AcDbEntity
  8
寸法引出
 48
25.0
100
AcDbMText
 10
2382.340225154012
 20
679.8224177516917
 30
0.0
 40
40.0
 41
0.0
 71
     5
 72
     1
  1
\A1;3.2
  7
SANWA
 73
     1
 44
1.0
  0
POINT
  5
C0A5
330
A948
100
AcDbEntity
  8
DEFPOINTS
 62
     0
 48
25.0
100
AcDbPoint
 10
2377.54022515401
 20
728.4230011852983
 30
0.0
  0
POINT
  5
C0A6
330
A948
100
AcDbEntity
  8
DEFPOINTS
 62
     0
 48
25.0
100
AcDbPoint
 10
2387.140225154012
 20
734.4230011852983
 30
0.0
  0
POINT
  5
C0A7
330
A948
100
AcDbEntity
  8
DEFPOINTS
 62
     0
 48
25.0
100
AcDbPoint
 10
2387.140225154012
 20
639.8224177516917
 30
0.0
  0
ENDBLK
  5
A955
330
A948
100
AcDbEntity
  8
0
 48
25.0
100
AcDbBlockEnd
  0
BLOCK
  5
AE1A
330
AE0E
100
AcDbEntity
  8
0
 48
25.0
100
AcDbBlockBegin
  2
*D26
 70
     1
 10
0.0
 20
0.0
 30
0.0
  3
*D26
  1

  0
LINE
  5
C0DC
330
AE0E
100
AcDbEntity
  8
寸法引出
 48
25.0
370
    -2
100
AcDbLine
 10
3884.910989097705
 20
860.9544396325455
 30
0.0
 11
3884.910989097705
 21
567.1906616452779
 31
0.0
  0
LINE
  5
C0DD
330
AE0E
100
AcDbEntity
  8
寸法引出
 48
25.0
370
    -2
100
AcDbLine
 10
4004.910989097704
 20
860.9544396325455
 30
0.0
 11
4004.910989097704
 21
567.1906616452779
 31
0.0
  0
LINE
  5
C0DE
330
AE0E
100
AcDbEntity
  8
寸法引出
 48
25.0
370
    -2
100
AcDbLine
 10
3847.410989097705
 20
579.6906616452779
 30
0.0
 11
3809.910989097705
 21
579.6906616452779
 31
0.0
  0
LINE
  5
C0DF
330
AE0E
100
AcDbEntity
  8
寸法引出
 48
25.0
370
    -2
100
AcDbLine
 10
4042.410989097705
 20
579.6906616452779
 30
0.0
 11
4079.910989097704
 21
579.6906616452779
 31
0.0
  0
LINE
  5
C0E0
330
AE0E
100
AcDbEntity
  8
寸法引出
 48
25.0
370
    -2
100
AcDbLine
 10
3884.910989097705
 20
579.6906616452779
 30
0.0
 11
4004.910989097704
 21
579.6906616452779
 31
0.0
  0
SOLID
  5
C0E1
330
AE0E
100
AcDbEntity
  8
寸法引出
 48
25.0
100
AcDbTrace
 10
3847.410989097705
 20
585.9406616452779
 30
0.0
 11
3847.410989097705
 21
573.4406616452779
 31
0.0
 12
3884.910989097705
 22
579.6906616452779
 32
0.0
 13
3884.910989097705
 23
579.6906616452779
 33
0.0
  0
SOLID
  5
C0E2
330
AE0E
100
AcDbEntity
  8
寸法引出
 48
25.0
100
AcDbTrace
 10
4042.410989097705
 20
585.9406616452779
 30
0.0
 11
4042.410989097705
 21
573.4406616452779
 31
0.0
 12
4004.910989097704
 22
579.6906616452779
 32
0.0
 13
4004.910989097704
 23
579.6906616452779
 33
0.0
  0
MTEXT
  5
C0E3
330
AE0E
100
AcDbEntity
  8
寸法引出
 48
25.0
100
AcDbMText
 10
3944.910989097705
 20
629.6906616452779
 30
0.0
 40
50.0
 41
0.0
 71
     5
 72
     1
  1
\A1;12
  7
SANWA
 73
     1
 44
1.0
  0
POINT
  5
C0E4
330
AE0E
100
AcDbEntity
  8
DEFPOINTS
 62
     0
 48
25.0
100
AcDbPoint
 10
3884.910989097705
 20
885.9544396325455
 30
0.0
  0
POINT
  5
C0E5
330
AE0E
100
AcDbEntity
  8
DEFPOINTS
 62
     0
 48
25.0
100
AcDbPoint
 10
4004.910989097704
 20
885.9544396325455
 30
0.0
  0
POINT
  5
C0E6
330
AE0E
100
AcDbEntity
  8
DEFPOINTS
 62
     0
 48
25.0
100
AcDbPoint
 10
4004.910989097704
 20
579.6906616452779
 30
0.0
  0
ENDBLK
  5
AE1B
330
AE0E
100
AcDbEntity
  8
0
 48
25.0
100
AcDbBlockEnd
  0
BLOCK
  5
AE26
330
AE1C
100
AcDbEntity
  8
0
 48
25.0
100
AcDbBlockBegin
  2
*D27
 70
     1
 10
0.0
 20
0.0
 30
0.0
  3
*D27
  1

  0
LINE
  5
C0F0
330
AE1C
100
AcDbEntity
  8
寸法引出
 48
25.0
370
    -2
100
AcDbLine
 10
4004.910989097704
 20
860.9544396325455
 30
0.0
 11
4004.910989097704
 21
567.1906616452779
 31
0.0
  0
LINE
  5
C0F1
330
AE1C
100
AcDbEntity
  8
寸法引出
 48
25.0
370
    -2
100
AcDbLine
 10
4244.910989097705
 20
860.9544396325455
 30
0.0
 11
4244.910989097705
 21
567.1906616452779
 31
0.0
  0
LINE
  5
C0F2
330
AE1C
100
AcDbEntity
  8
寸法引出
 48
25.0
370
    -2
100
AcDbLine
 10
4042.410989097705
 20
579.6906616452779
 30
0.0
 11
4207.410989097705
 21
579.6906616452779
 31
0.0
  0
SOLID
  5
C0F3
330
AE1C
100
AcDbEntity
  8
寸法引出
 48
25.0
100
AcDbTrace
 10
4042.410989097705
 20
585.9406616452779
 30
0.0
 11
4042.410989097705
 21
573.4406616452779
 31
0.0
 12
4004.910989097704
 22
579.6906616452779
 32
0.0
 13
4004.910989097704
 23
579.6906616452779
 33
0.0
  0
SOLID
  5
C0F4
330
AE1C
100
AcDbEntity
  8
寸法引出
 48
25.0
100
AcDbTrace
 10
4207.410989097705
 20
585.9406616452779
 30
0.0
 11
4207.410989097705
 21
573.4406616452779
 31
0.0
 12
4244.910989097705
 22
579.6906616452779
 32
0.0
 13
4244.910989097705
 23
579.6906616452779
 33
0.0
  0
MTEXT
  5
C0F5
330
AE1C
100
AcDbEntity
  8
寸法引出
 48
25.0
100
AcDbMText
 10
4124.910989097705
 20
629.6906616452779
 30
0.0
 40
50.0
 41
0.0
 71
     5
 72
     1
  1
\A1;24
  7
SANWA
 73
     1
 44
1.0
  0
POINT
  5
C0F6
330
AE1C
100
AcDbEntity
  8
DEFPOINTS
 62
     0
 48
25.0
100
AcDbPoint
 10
4004.910989097704
 20
885.9544396325455
 30
0.0
  0
POINT
  5
C0F7
330
AE1C
100
AcDbEntity
  8
DEFPOINTS
 62
     0
 48
25.0
100
AcDbPoint
 10
4244.910989097705
 20
885.9544396325455
 30
0.0
  0
POINT
  5
C0F8
330
AE1C
100
AcDbEntity
  8
DEFPOINTS
 62
     0
 48
25.0
100
AcDbPoint
 10
4244.910989097705
 20
579.6906616452779
 30
0.0
  0
ENDBLK
  5
AE27
330
AE1C
100
AcDbEntity
  8
0
 48
25.0
100
AcDbBlockEnd
  0
BLOCK
  5
AE32
330
AE28
100
AcDbEntity
  8
0
 48
25.0
100
AcDbBlockBegin
  2
*D28
 70
     1
 10
0.0
 20
0.0
 30
0.0
  3
*D28
  1

  0
LINE
  5
C0E7
330
AE28
100
AcDbEntity
  8
寸法引出
 48
25.0
370
    -2
100
AcDbLine
 10
3884.910989097705
 20
860.9544396325455
 30
0.0
 11
3884.910989097705
 21
567.1906616452779
 31
0.0
  0
LINE
  5
C0E8
330
AE28
100
AcDbEntity
  8
寸法引出
 48
25.0
370
    -2
100
AcDbLine
 10
3644.910989097705
 20
860.9544396325455
 30
0.0
 11
3644.910989097705
 21
567.1906616452779
 31
0.0
  0
LINE
  5
C0E9
330
AE28
100
AcDbEntity
  8
寸法引出
 48
25.0
370
    -2
100
AcDbLine
 10
3847.410989097705
 20
579.6906616452779
 30
0.0
 11
3682.410989097705
 21
579.6906616452779
 31
0.0
  0
SOLID
  5
C0EA
330
AE28
100
AcDbEntity
  8
寸法引出
 48
25.0
100
AcDbTrace
 10
3847.410989097705
 20
585.9406616452779
 30
0.0
 11
3847.410989097705
 21
573.4406616452779
 31
0.0
 12
3884.910989097705
 22
579.6906616452779
 32
0.0
 13
3884.910989097705
 23
579.6906616452779
 33
0.0
  0
SOLID
  5
C0EB
330
AE28
100
AcDbEntity
  8
寸法引出
 48
25.0
100
AcDbTrace
 10
3682.410989097705
 20
585.9406616452779
 30
0.0
 11
3682.410989097705
 21
573.4406616452779
 31
0.0
 12
3644.910989097705
 22
579.6906616452779
 32
0.0
 13
3644.910989097705
 23
579.6906616452779
 33
0.0
  0
MTEXT
  5
C0EC
330
AE28
100
AcDbEntity
  8
寸法引出
 48
25.0
100
AcDbMText
 10
3764.910989097705
 20
629.6906616452779
 30
0.0
 40
50.0
 41
0.0
 71
     5
 72
     1
  1
\A1;24
  7
SANWA
 73
     1
 44
1.0
  0
POINT
  5
C0ED
330
AE28
100
AcDbEntity
  8
DEFPOINTS
 62
     0
 48
25.0
100
AcDbPoint
 10
3884.910989097705
 20
885.9544396325455
 30
0.0
  0
POINT
  5
C0EE
330
AE28
100
AcDbEntity
  8
DEFPOINTS
 62
     0
 48
25.0
100
AcDbPoint
 10
3644.910989097705
 20
885.9544396325455
 30
0.0
  0
POINT
  5
C0EF
330
AE28
100
AcDbEntity
  8
DEFPOINTS
 62
     0
 48
25.0
100
AcDbPoint
 10
3644.910989097705
 20
579.6906616452779
 30
0.0
  0
ENDBLK
  5
AE33
330
AE28
100
AcDbEntity
  8
0
 48
25.0
100
AcDbBlockEnd
  0
BLOCK
  5
AE40
330
AE34
100
AcDbEntity
  8
0
 48
25.0
100
AcDbBlockBegin
  2
*D29
 70
     1
 10
0.0
 20
0.0
 30
0.0
  3
*D29
  1

  0
LINE
  5
C0C6
330
AE34
100
AcDbEntity
  8
寸法引出
 48
25.0
370
    -2
100
AcDbLine
 10
3859.910989097705
 20
885.9544396325455
 30
0.0
 11
3800.915744571634
 21
885.9544396325455
 31
0.0
  0
LINE
  5
C0C7
330
AE34
100
AcDbEntity
  8
寸法引出
 48
25.0
370
    -2
100
AcDbLine
 10
3879.910989097705
 20
945.9544396325455
 30
0.0
 11
3800.915744571634
 21
945.9544396325455
 31
0.0
  0
LINE
  5
C0C8
330
AE34
100
AcDbEntity
  8
寸法引出
 48
25.0
370
    -2
100
AcDbLine
 10
3813.415744571634
 20
848.4544396325455
 30
0.0
 11
3813.415744571634
 21
810.9544396325455
 31
0.0
  0
LINE
  5
C0C9
330
AE34
100
AcDbEntity
  8
寸法引出
 48
25.0
370
    -2
100
AcDbLine
 10
3813.415744571634
 20
983.4544396325455
 30
0.0
 11
3813.415744571634
 21
1020.954439632545
 31
0.0
  0
LINE
  5
C0CA
330
AE34
100
AcDbEntity
  8
寸法引出
 48
25.0
370
    -2
100
AcDbLine
 10
3813.415744571634
 20
885.9544396325455
 30
0.0
 11
3813.415744571634
 21
945.9544396325455
 31
0.0
  0
SOLID
  5
C0CB
330
AE34
100
AcDbEntity
  8
寸法引出
 48
25.0
100
AcDbTrace
 10
3807.165744571634
 20
848.4544396325455
 30
0.0
 11
3819.665744571634
 21
848.4544396325455
 31
0.0
 12
3813.415744571634
 22
885.9544396325455
 32
0.0
 13
3813.415744571634
 23
885.9544396325455
 33
0.0
  0
SOLID
  5
C0CC
330
AE34
100
AcDbEntity
  8
寸法引出
 48
25.0
100
AcDbTrace
 10
3807.165744571634
 20
983.4544396325455
 30
0.0
 11
3819.665744571634
 21
983.4544396325455
 31
0.0
 12
3813.415744571634
 22
945.9544396325455
 32
0.0
 13
3813.415744571634
 23
945.9544396325455
 33
0.0
  0
MTEXT
  5
C0CD
330
AE34
100
AcDbEntity
  8
寸法引出
 48
25.0
100
AcDbMText
 10
3763.415744571634
 20
915.9544396325461
 30
0.0
 40
50.0
 41
0.0
 71
     5
 72
     1
  1
\A1;6
  7
SANWA
 11
0.0000000000000001
 21
1.0
 31
0.0
 73
     1
 44
1.0
  0
POINT
  5
C0CE
330
AE34
100
AcDbEntity
  8
DEFPOINTS
 62
     0
 48
25.0
100
AcDbPoint
 10
3884.910989097705
 20
885.9544396325455
 30
0.0
  0
POINT
  5
C0CF
330
AE34
100
AcDbEntity
  8
DEFPOINTS
 62
     0
 48
25.0
100
AcDbPoint
 10
3904.910989097705
 20
945.9544396325455
 30
0.0
  0
POINT
  5
C0D0
330
AE34
100
AcDbEntity
  8
DEFPOINTS
 62
     0
 48
25.0
100
AcDbPoint
 10
3813.415744571634
 20
945.9544396325455
 30
0.0
  0
ENDBLK
  5
AE41
330
AE34
100
AcDbEntity
  8
0
 48
25.0
100
AcDbBlockEnd
  0
BLOCK
  5
AE4E
330
AE42
100
AcDbEntity
  8
0
 48
25.0
100
AcDbBlockBegin
  2
*D30
 70
     1
 10
0.0
 20
0.0
 30
0.0
  3
*D30
  1

  0
LINE
  5
C0D1
330
AE42
100
AcDbEntity
  8
寸法引出
 48
25.0
370
    -2
100
AcDbLine
 10
3904.910989097705
 20
920.9544396325455
 30
0.0
 11
3904.910989097705
 21
694.7232375188341
 31
0.0
  0
LINE
  5
C0D2
330
AE42
100
AcDbEntity
  8
寸法引出
 48
25.0
370
    -2
100
AcDbLine
 10
3984.910989097705
 20
920.9544396325455
 30
0.0
 11
3984.910989097705
 21
694.7232375188341
 31
0.0
  0
LINE
  5
C0D3
330
AE42
100
AcDbEntity
  8
寸法引出
 48
25.0
370
    -2
100
AcDbLine
 10
3867.410989097704
 20
707.2232375188341
 30
0.0
 11
3829.910989097704
 21
707.2232375188341
 31
0.0
  0
LINE
  5
C0D4
330
AE42
100
AcDbEntity
  8
寸法引出
 48
25.0
370
    -2
100
AcDbLine
 10
4022.410989097705
 20
707.2232375188341
 30
0.0
 11
4059.910989097705
 21
707.2232375188341
 31
0.0
  0
LINE
  5
C0D5
330
AE42
100
AcDbEntity
  8
寸法引出
 48
25.0
370
    -2
100
AcDbLine
 10
3904.910989097705
 20
707.2232375188341
 30
0.0
 11
3984.910989097705
 21
707.2232375188341
 31
0.0
  0
SOLID
  5
C0D6
330
AE42
100
AcDbEntity
  8
寸法引出
 48
25.0
100
AcDbTrace
 10
3867.410989097704
 20
713.4732375188341
 30
0.0
 11
3867.410989097704
 21
700.9732375188341
 31
0.0
 12
3904.910989097705
 22
707.2232375188341
 32
0.0
 13
3904.910989097705
 23
707.2232375188341
 33
0.0
  0
SOLID
  5
C0D7
330
AE42
100
AcDbEntity
  8
寸法引出
 48
25.0
100
AcDbTrace
 10
4022.410989097705
 20
713.4732375188341
 30
0.0
 11
4022.410989097705
 21
700.9732375188341
 31
0.0
 12
3984.910989097705
 22
707.2232375188341
 32
0.0
 13
3984.910989097705
 23
707.2232375188341
 33
0.0
  0
MTEXT
  5
C0D8
330
AE42
100
AcDbEntity
  8
寸法引出
 48
25.0
100
AcDbMText
 10
3944.910989097705
 20
757.2232375188341
 30
0.0
 40
50.0
 41
0.0
 71
     5
 72
     1
  1
\A1;8
  7
SANWA
 73
     1
 44
1.0
  0
POINT
  5
C0D9
330
AE42
100
AcDbEntity
  8
DEFPOINTS
 62
     0
 48
25.0
100
AcDbPoint
 10
3904.910989097705
 20
945.9544396325455
 30
0.0
  0
POINT
  5
C0DA
330
AE42
100
AcDbEntity
  8
DEFPOINTS
 62
     0
 48
25.0
100
AcDbPoint
 10
3984.910989097705
 20
945.9544396325455
 30
0.0
  0
POINT
  5
C0DB
330
AE42
100
AcDbEntity
  8
DEFPOINTS
 62
     0
 48
25.0
100
AcDbPoint
 10
3984.910989097705
 20
707.2232375188341
 30
0.0
  0
ENDBLK
  5
AE4F
330
AE42
100
AcDbEntity
  8
0
 48
25.0
100
AcDbBlockEnd
  0
BLOCK
  5
B57F
330
B575
100
AcDbEntity
  8
0
 48
25.0
100
AcDbBlockBegin
  2
*D31
 70
     1
 10
0.0
 20
0.0
 30
0.0
  3
*D31
  1

  0
LINE
  5
C131
330
B575
100
AcDbEntity
  8
寸法引出
 48
25.0
370
    -2
100
AcDbLine
 10
2221.61754453182
 20
3377.119840131078
 30
0.0
 11
2326.215139218431
 21
3377.119840131078
 31
0.0
  0
LINE
  5
C132
330
B575
100
AcDbEntity
  8
寸法引出
 48
25.0
370
    -2
100
AcDbLine
 10
2221.61754453182
 20
3327.119840131078
 30
0.0
 11
2326.215139218431
 21
3327.119840131078
 31
0.0
  0
LINE
  5
C133
330
B575
100
AcDbEntity
  8
寸法引出
 48
25.0
370
    -2
100
AcDbLine
 10
2316.215139218431
 20
3407.119840131078
 30
0.0
 11
2316.215139218431
 21
3437.119840131078
 31
0.0
  0
LINE
  5
C134
330
B575
100
AcDbEntity
  8
寸法引出
 48
25.0
370
    -2
100
AcDbLine
 10
2316.215139218431
 20
3297.119840131077
 30
0.0
 11
2316.215139218431
 21
3267.119840131078
 31
0.0
  0
LINE
  5
C135
330
B575
100
AcDbEntity
  8
寸法引出
 48
25.0
370
    -2
100
AcDbLine
 10
2316.215139218431
 20
3377.119840131078
 30
0.0
 11
2316.215139218431
 21
3327.119840131078
 31
0.0
  0
SOLID
  5
C136
330
B575
100
AcDbEntity
  8
寸法引出
 48
25.0
100
AcDbTrace
 10
2311.215139218431
 20
3407.119840131078
 30
0.0
 11
2321.215139218431
 21
3407.119840131078
 31
0.0
 12
2316.215139218431
 22
3377.119840131078
 32
0.0
 13
2316.215139218431
 23
3377.119840131078
 33
0.0
  0
SOLID
  5
C137
330
B575
100
AcDbEntity
  8
寸法引出
 48
25.0
100
AcDbTrace
 10
2311.215139218431
 20
3297.119840131077
 30
0.0
 11
2321.215139218431
 21
3297.119840131077
 31
0.0
 12
2316.215139218431
 22
3327.119840131078
 32
0.0
 13
2316.215139218431
 23
3327.119840131078
 33
0.0
  0
MTEXT
  5
C138
330
B575
100
AcDbEntity
  8
寸法引出
 48
25.0
100
AcDbMText
 10
2276.21513921843
 20
3352.119840131078
 30
0.0
 40
40.0
 41
0.0
 71
     5
 72
     1
  1
\A1;50
  7
SANWA
 11
0.0000000000000001
 21
1.0
 31
0.0
 73
     1
 44
1.0
  0
POINT
  5
C139
330
B575
100
AcDbEntity
  8
DEFPOINTS
 62
     0
 48
25.0
100
AcDbPoint
 10
2201.61754453182
 20
3377.119840131078
 30
0.0
  0
POINT
  5
C13A
330
B575
100
AcDbEntity
  8
DEFPOINTS
 62
     0
 48
25.0
100
AcDbPoint
 10
2201.61754453182
 20
3327.119840131078
 30
0.0
  0
POINT
  5
C13B
330
B575
100
AcDbEntity
  8
DEFPOINTS
 62
     0
 48
25.0
100
AcDbPoint
 10
2316.215139218431
 20
3327.119840131078
 30
0.0
  0
ENDBLK
  5
B580
330
B575
100
AcDbEntity
  8
0
 48
25.0
100
AcDbBlockEnd
  0
BLOCK
  5
B5F2
330
B5E8
100
AcDbEntity
  8
0
 48
25.0
100
AcDbBlockBegin
  2
*D32
 70
     1
 10
0.0
 20
0.0
 30
0.0
  3
*D32
  1

  0
LINE
  5
C13C
330
B5E8
100
AcDbEntity
  8
寸法引出
 48
25.0
370
    -2
100
AcDbLine
 10
4129.625007866545
 20
3397.119840131078
 30
0.0
 11
4129.625007866545
 21
3622.904396964633
 31
0.0
  0
LINE
  5
C13D
330
B5E8
100
AcDbEntity
  8
寸法引出
 48
25.0
370
    -2
100
AcDbLine
 10
6129.625007866545
 20
3397.119840131078
 30
0.0
 11
6129.625007866545
 21
3622.904396964633
 31
0.0
  0
LINE
  5
C13E
330
B5E8
100
AcDbEntity
  8
寸法引出
 48
25.0
370
    -2
100
AcDbLine
 10
4159.625007866545
 20
3612.904396964633
 30
0.0
 11
6099.625007866546
 21
3612.904396964633
 31
0.0
  0
SOLID
  5
C13F
330
B5E8
100
AcDbEntity
  8
寸法引出
 48
25.0
100
AcDbTrace
 10
4159.625007866545
 20
3617.904396964633
 30
0.0
 11
4159.625007866545
 21
3607.904396964633
 31
0.0
 12
4129.625007866545
 22
3612.904396964633
 32
0.0
 13
4129.625007866545
 23
3612.904396964633
 33
0.0
  0
SOLID
  5
C140
330
B5E8
100
AcDbEntity
  8
寸法引出
 48
25.0
100
AcDbTrace
 10
6099.625007866546
 20
3617.904396964633
 30
0.0
 11
6099.625007866546
 21
3607.904396964633
 31
0.0
 12
6129.625007866545
 22
3612.904396964633
 32
0.0
 13
6129.625007866545
 23
3612.904396964633
 33
0.0
  0
MTEXT
  5
C141
330
B5E8
100
AcDbEntity
  8
寸法引出
 48
25.0
100
AcDbMText
 10
5129.625007866545
 20
3652.904396964633
 30
0.0
 40
40.0
 41
0.0
 71
     5
 72
     1
  1
\A1;2000
  7
SANWA
 73
     1
 44
1.0
  0
POINT
  5
C142
330
B5E8
100
AcDbEntity
  8
DEFPOINTS
 62
     0
 48
25.0
100
AcDbPoint
 10
4129.625007866545
 20
3377.119840131078
 30
0.0
  0
POINT
  5
C143
330
B5E8
100
AcDbEntity
  8
DEFPOINTS
 62
     0
 48
25.0
100
AcDbPoint
 10
6129.625007866545
 20
3377.119840131078
 30
0.0
  0
POINT
  5
C144
330
B5E8
100
AcDbEntity
  8
DEFPOINTS
 62
     0
 48
25.0
100
AcDbPoint
 10
6129.625007866545
 20
3612.904396964633
 30
0.0
  0
ENDBLK
  5
B5F3
330
B5E8
100
AcDbEntity
  8
0
 48
25.0
100
AcDbBlockEnd
  0
BLOCK
  5
B85C
330
B852
100
AcDbEntity
  8
0
 48
25.0
100
AcDbBlockBegin
  2
*D33
 70
     1
 10
0.0
 20
0.0
 30
0.0
  3
*D33
  1

  0
LINE
  5
C0F9
330
B852
100
AcDbEntity
  8
寸法引出
 48
25.0
370
    -2
100
AcDbLine
 10
2681.61754453182
 20
3377.119840131078
 30
0.0
 11
2818.126763740511
 21
3377.119840131078
 31
0.0
  0
LINE
  5
C0FA
330
B852
100
AcDbEntity
  8
寸法引出
 48
25.0
370
    -2
100
AcDbLine
 10
2711.61754453182
 20
3142.119840131078
 30
0.0
 11
2818.126763740511
 21
3142.119840131078
 31
0.0
  0
LINE
  5
C0FB
330
B852
100
AcDbEntity
  8
寸法引出
 48
25.0
370
    -2
100
AcDbLine
 10
2808.126763740511
 20
3347.119840131078
 30
0.0
 11
2808.126763740511
 21
3172.119840131077
 31
0.0
  0
SOLID
  5
C0FC
330
B852
100
AcDbEntity
  8
寸法引出
 48
25.0
100
AcDbTrace
 10
2803.126763740511
 20
3347.119840131078
 30
0.0
 11
2813.126763740511
 21
3347.119840131078
 31
0.0
 12
2808.126763740511
 22
3377.119840131078
 32
0.0
 13
2808.126763740511
 23
3377.119840131078
 33
0.0
  0
SOLID
  5
C0FD
330
B852
100
AcDbEntity
  8
寸法引出
 48
25.0
100
AcDbTrace
 10
2803.126763740511
 20
3172.119840131077
 30
0.0
 11
2813.126763740511
 21
3172.119840131077
 31
0.0
 12
2808.126763740511
 22
3142.119840131078
 32
0.0
 13
2808.126763740511
 23
3142.119840131078
 33
0.0
  0
MTEXT
  5
C0FE
330
B852
100
AcDbEntity
  8
寸法引出
 48
25.0
100
AcDbMText
 10
2768.12676374051
 20
3259.619840131078
 30
0.0
 40
40.0
 41
0.0
 71
     5
 72
     1
  1
\A1;235
  7
SANWA
 11
0.0000000000000001
 21
1.0
 31
0.0
 73
     1
 44
1.0
  0
POINT
  5
C0FF
330
B852
100
AcDbEntity
  8
DEFPOINTS
 62
     0
 48
25.0
100
AcDbPoint
 10
2661.61754453182
 20
3377.119840131078
 30
0.0
  0
POINT
  5
C100
330
B852
100
AcDbEntity
  8
DEFPOINTS
 62
     0
 48
25.0
100
AcDbPoint
 10
2691.61754453182
 20
3142.119840131078
 30
0.0
  0
POINT
  5
C101
330
B852
100
AcDbEntity
  8
DEFPOINTS
 62
     0
 48
25.0
100
AcDbPoint
 10
2808.126763740511
 20
3142.119840131078
 30
0.0
  0
ENDBLK
  5
B85D
330
B852
100
AcDbEntity
  8
0
 48
25.0
100
AcDbBlockEnd
  0
ENDSEC
  0
SECTION
  2
ENTITIES
  0
LINE
  5
9520
330
747D
100
AcDbEntity
  8
枠
100
AcDbLine
 10
7175.0
 20
250.0
 30
0.0
 11
7175.0
 21
5000.0
 31
0.0
  0
LINE
  5
9523
330
747D
100
AcDbEntity
  8
0
  6
HIDDEN2
 48
5.0
100
AcDbLine
 10
5000.625007866545
 20
3377.119840131078
 30
0.0
 11
5018.625007866545
 21
3377.119840131078
 31
0.0
  0
LINE
  5
9524
330
747D
100
AcDbEntity
  8
0
  6
HIDDEN2
 48
5.0
100
AcDbLine
 10
5019.625007866546
 20
3340.119840131078
 30
0.0
 11
4999.625007866545
 21
3340.119840131078
 31
0.0
  0
LINE
  5
9525
330
747D
100
AcDbEntity
  8
0
  6
HIDDEN2
 48
5.0
100
AcDbLine
 10
5019.625007866546
 20
3335.119840131078
 30
0.0
 11
4999.625007866545
 21
3335.119840131078
 31
0.0
  0
LINE
  5
9526
330
747D
100
AcDbEntity
  8
0
  6
HIDDEN2
 48
5.0
100
AcDbLine
 10
4999.625007866545
 20
3335.119840131078
 30
0.0
 11
4999.625007866545
 21
3340.119840131078
 31
0.0
  0
LINE
  5
9527
330
747D
100
AcDbEntity
  8
0
  6
HIDDEN2
 48
5.0
100
AcDbLine
 10
5000.625007866545
 20
3340.119840131078
 30
0.0
 11
5000.625007866545
 21
3377.119840131078
 31
0.0
  0
LINE
  5
9528
330
747D
100
AcDbEntity
  8
0
  6
HIDDEN2
 48
5.0
100
AcDbLine
 10
5019.625007866546
 20
3340.119840131078
 30
0.0
 11
5019.625007866546
 21
3335.119840131078
 31
0.0
  0
LINE
  5
9529
330
747D
100
AcDbEntity
  8
0
  6
HIDDEN2
 48
5.0
100
AcDbLine
 10
5018.625007866545
 20
3377.119840131078
 30
0.0
 11
5018.625007866545
 21
3340.119840131078
 31
0.0
  0
LINE
  5
952A
330
747D
100
AcDbEntity
  8
0
  6
HIDDEN2
 48
5.0
100
AcDbLine
 10
4240.625007866545
 20
3377.119840131078
 30
0.0
 11
4258.625007866545
 21
3377.119840131078
 31
0.0
  0
LINE
  5
952B
330
747D
100
AcDbEntity
  8
0
  6
HIDDEN2
 48
5.0
100
AcDbLine
 10
4259.625007866545
 20
3340.119840131078
 30
0.0
 11
4239.625007866545
 21
3340.119840131078
 31
0.0
  0
LINE
  5
952C
330
747D
100
AcDbEntity
  8
0
  6
HIDDEN2
 48
5.0
100
AcDbLine
 10
4259.625007866545
 20
3335.119840131078
 30
0.0
 11
4239.625007866545
 21
3335.119840131078
 31
0.0
  0
LINE
  5
952D
330
747D
100
AcDbEntity
  8
0
  6
HIDDEN2
 48
5.0
100
AcDbLine
 10
4239.625007866545
 20
3335.119840131078
 30
0.0
 11
4239.625007866545
 21
3340.119840131078
 31
0.0
  0
LINE
  5
952E
330
747D
100
AcDbEntity
  8
0
  6
HIDDEN2
 48
5.0
100
AcDbLine
 10
4240.625007866545
 20
3340.119840131078
 30
0.0
 11
4240.625007866545
 21
3377.119840131078
 31
0.0
  0
LINE
  5
952F
330
747D
100
AcDbEntity
  8
0
  6
HIDDEN2
 48
5.0
100
AcDbLine
 10
4259.625007866545
 20
3340.119840131078
 30
0.0
 11
4259.625007866545
 21
3335.119840131078
 31
0.0
  0
LINE
  5
9530
330
747D
100
AcDbEntity
  8
0
  6
HIDDEN2
 48
5.0
100
AcDbLine
 10
4258.625007866545
 20
3377.119840131078
 30
0.0
 11
4258.625007866545
 21
3340.119840131078
 31
0.0
  0
LINE
  5
9531
330
747D
100
AcDbEntity
  8
0
100
AcDbLine
 10
4099.469602628782
 20
3807.474079514315
 30
0.0
 11
4410.90889104599
 21
3807.474079514315
 31
0.0
  0
DIMENSION
  5
9532
330
747D
100
AcDbEntity
  8
寸法引出
 48
25.0
100
AcDbDimension
  2
*D17
 10
4249.625007866545
 20
3508.870918497509
 30
0.0
 11
4189.625007866545
 21
3548.870918497509
 31
0.0
 70
    32
 71
     5
 42
120.0
  3
SANWA
100
AcDbAlignedDimension
 13
4129.625007866545
 23
3377.119840131078
 33
0.0
 14
4249.625007866545
 24
3377.119840131078
 34
0.0
100
AcDbRotatedDimension
1001
ACAD
1000
DSTYLE
1002
{
1070
   140
1040
2.0
1070
    40
1040
20.0
1070
   147
1040
1.0
1070
    44
1040
0.5
1070
    43
1040
5.0
1070
   178
1070
   256
1070
   177
1070
   256
1070
   176
1070
   256
1070
    41
1040
1.5
1002
}
  0
DIMENSION
  5
9534
330
747D
100
AcDbEntity
  8
寸法引出
 48
25.0
100
AcDbDimension
  2
*D16
 10
5009.625007866546
 20
3508.870918497509
 30
0.0
 11
4629.625007866545
 21
3548.870918497509
 31
0.0
 70
    32
 71
     5
 42
760.0
  3
SANWA
100
AcDbAlignedDimension
 13
4249.625007866545
 23
3377.119840131078
 33
0.0
 14
5009.625007866546
 24
3377.119840131078
 34
0.0
100
AcDbRotatedDimension
1001
ACAD
1000
DSTYLE
1002
{
1070
    40
1040
20.0
1070
    41
1040
1.5
1070
    43
1040
5.0
1070
    44
1040
0.5
1070
    75
1070
     1
1070
   140
1040
2.0
1070
   147
1040
1.0
1070
   176
1070
   256
1070
   177
1070
   256
1070
   178
1070
   256
1070
   279
1070
     1
1002
}
  0
LINE
  5
953E
330
747D
100
AcDbEntity
  8
0
 48
25.0
100
AcDbLine
 10
4129.625007866545
 20
2397.119840131078
 30
0.0
 11
4139.625007866545
 21
2387.119840131078
 31
0.0
  0
MTEXT
  5
953F
102
{ACAD_REACTORS
330
9540
102
}
330
747D
100
AcDbEntity
  8
寸法引出
 48
25.0
100
AcDbMText
 10
4015.449936725619
 20
2289.175649369472
 30
0.0
 40
40.0
 41
0.0
 71
     6
 72
     1
  1
\A1;C10
  7
SANWA
 73
     1
 44
1.0
  0
LEADER
  5
9540
330
747D
100
AcDbEntity
  8
寸法引出
 48
25.0
100
AcDbLeader
  3
SANWA
 73
     0
 75
     1
 40
40.0
 41
82.97142857142857
 76
     3
 10
4134.625007866545
 20
2392.119840131078
 30
0.0
 10
4065.449936725619
 20
2249.175649369472
 30
0.0
 10
4035.449936725619
 20
2249.175649369472
 30
0.0
340
953F
1001
ACAD
1000
DSTYLE
1002
{
1070
   140
1040
2.0
1070
    40
1040
20.0
1070
   147
1040
1.0
1070
    44
1040
0.5
1070
    43
1040
5.0
1070
   178
1070
   256
1070
   177
1070
   256
1070
   176
1070
   256
1070
    41
1040
1.5
1002
}
  0
LINE
  5
9545
330
747D
100
AcDbEntity
  8
0
 48
25.0
100
AcDbLine
 10
4129.625007866545
 20
2397.119840131078
 30
0.0
 11
4129.625007866545
 21
3377.119840131078
 31
0.0
  0
LINE
  5
9558
330
747D
100
AcDbEntity
  8
0
 48
25.0
100
AcDbLine
 10
2601.61754453182
 20
3377.119840131078
 30
0.0
 11
2661.61754453182
 21
3377.119840131078
 31
0.0
  0
LINE
  5
9563
330
747D
100
AcDbEntity
  8
0
 48
25.0
100
AcDbLine
 10
2141.61754453182
 20
3377.119840131078
 30
0.0
 11
2201.61754453182
 21
3377.119840131078
 31
0.0
  0
LINE
  5
9564
330
747D
100
AcDbEntity
  8
0
100
AcDbLine
 10
2111.590494188822
 20
3807.474079514315
 30
0.0
 11
2414.972357019822
 21
3807.474079514315
 31
0.0
  0
DIMENSION
  5
9565
330
747D
100
AcDbEntity
  8
寸法引出
 48
25.0
100
AcDbDimension
  2
*D15
 10
2601.61754453182
 20
3517.638683621017
 30
0.0
 11
2401.61754453182
 21
3557.638683621017
 31
0.0
 70
    32
 71
     5
 42
400.0
  3
SANWA
100
AcDbAlignedDimension
 13
2201.61754453182
 23
3377.119840131078
 33
0.0
 14
2601.61754453182
 24
3377.119840131078
 34
0.0
100
AcDbRotatedDimension
1001
ACAD
1000
DSTYLE
1002
{
1070
   140
1040
2.0
1070
    40
1040
20.0
1070
   147
1040
1.0
1070
    44
1040
0.5
1070
    43
1040
5.0
1070
   178
1070
   256
1070
   177
1070
   256
1070
   176
1070
   256
1070
    41
1040
1.5
1002
}
  0
DIMENSION
  5
9566
330
747D
100
AcDbEntity
  8
寸法引出
 48
25.0
100
AcDbDimension
  2
*D14
 10
2661.61754453182
 20
3596.23416843797
 30
0.0
 11
2401.61754453182
 21
3636.23416843797
 31
0.0
 70
    32
 71
     5
 42
520.0
  3
SANWA
100
AcDbAlignedDimension
 13
2141.61754453182
 23
3377.119840131078
 33
0.0
 14
2661.61754453182
 24
3377.119840131078
 34
0.0
100
AcDbRotatedDimension
1001
ACAD
1000
DSTYLE
1002
{
1070
   140
1040
2.0
1070
    40
1040
20.0
1070
   147
1040
1.0
1070
    44
1040
0.5
1070
    43
1040
5.0
1070
   178
1070
   256
1070
   177
1070
   256
1070
   176
1070
   256
1070
    41
1040
1.5
1002
}
  0
DIMENSION
  5
957B
330
747D
100
AcDbEntity
  8
寸法引出
 48
25.0
100
AcDbDimension
  2
*D13
 10
2661.61754453182
 20
3517.638683621017
 30
0.0
 11
2631.61754453182
 21
3557.638683621017
 31
0.0
 70
    32
 71
     5
 42
60.0
  3
SANWA
100
AcDbAlignedDimension
 13
2601.61754453182
 23
3377.119840131078
 33
0.0
 14
2661.61754453182
 24
3377.119840131078
 34
0.0
100
AcDbRotatedDimension
1001
ACAD
1000
DSTYLE
1002
{
1070
    40
1040
20.0
1070
    41
1040
1.5
1070
    43
1040
5.0
1070
    44
1040
0.5
1070
    75
1070
     1
1070
   140
1040
2.0
1070
   147
1040
1.0
1070
   176
1070
   256
1070
   177
1070
   256
1070
   178
1070
   256
1070
   279
1070
     1
1002
}
  0
POINT
  5
958A
330
747D
100
AcDbEntity
  8
DEFPOINTS
  6
ByBlock
 62
     0
 48
25.0
100
AcDbPoint
 10
2141.61754453182
 20
2427.119840131078
 30
0.0
  0
MTEXT
  5
9590
102
{ACAD_REACTORS
330
9591
102
}
330
747D
100
AcDbEntity
  8
寸法引出
 48
25.0
100
AcDbMText
 10
2415.941268046578
 20
2627.440240499846
 30
0.0
 40
40.0
 41
0.0
 71
     4
 72
     1
  1
\A1;R400
  7
SANWA
 73
     1
 44
1.0
  0
LEADER
  5
9591
330
747D
100
AcDbEntity
  8
寸法引出
 48
25.0
100
AcDbLeader
  3
SANWA
 73
     0
 74
     0
 75
     1
 40
40.0
 41
112.2285714285714
 76
     3
 10
2341.782579162793
 20
2481.620438210814
 30
0.0
 10
2365.941268046578
 20
2587.440240499846
 30
0.0
 10
2395.941268046578
 20
2587.440240499846
 30
0.0
340
9590
1001
ACAD
1000
DSTYLE
1002
{
1070
   140
1040
2.0
1070
    40
1040
20.0
1070
   147
1040
1.0
1070
    44
1040
0.5
1070
    43
1040
5.0
1070
   178
1070
   256
1070
   177
1070
   256
1070
   176
1070
   256
1070
    41
1040
1.5
1002
}
  0
LEADER
  5
9592
330
747D
100
AcDbEntity
  8
寸法引出
 48
25.0
100
AcDbLeader
  3
SANWA
 73
     0
 74
     0
 75
     1
 40
40.0
 41
82.97142857142857
 76
     3
 10
2238.531754381543
 20
2520.039482178112
 30
0.0
 10
2281.784558369874
 20
2677.065445746771
 30
0.0
 10
2311.784558369874
 20
2677.065445746771
 30
0.0
340
9593
1001
ACAD
1000
DSTYLE
1002
{
1070
   140
1040
2.0
1070
    40
1040
20.0
1070
   147
1040
1.0
1070
    44
1040
0.5
1070
    43
1040
5.0
1070
   178
1070
   256
1070
   177
1070
   256
1070
   176
1070
   256
1070
    41
1040
1.5
1002
}
  0
MTEXT
  5
9593
102
{ACAD_REACTORS
330
9592
102
}
330
747D
100
AcDbEntity
  8
寸法引出
 48
25.0
100
AcDbMText
 10
2331.784558369874
 20
2717.06544574677
 30
0.0
 40
40.0
 41
0.0
 71
     4
 72
     1
  1
\A1;R50
  7
SANWA
 73
     1
 44
1.0
  0
LINE
  5
9595
330
747D
100
AcDbEntity
  8
寸法引出
  6
ByBlock
 48
25.0
100
AcDbLine
 10
2141.61754453182
 20
2407.119840131078
 30
0.0
 11
2141.61754453182
 21
2274.339289009787
 31
0.0
  0
LINE
  5
9596
330
747D
100
AcDbEntity
  8
寸法引出
  6
ByBlock
 48
25.0
100
AcDbLine
 10
2181.61754453182
 20
2367.119840131078
 30
0.0
 11
2181.61754453182
 21
2274.339289009787
 31
0.0
  0
LINE
  5
9597
330
747D
100
AcDbEntity
  8
寸法引出
  6
ByBlock
 48
25.0
100
AcDbLine
 10
2141.61754453182
 20
2284.339289009788
 30
0.0
 11
2181.61754453182
 21
2284.339289009788
 31
0.0
  0
SOLID
  5
9598
330
747D
100
AcDbEntity
  8
寸法引出
  6
ByBlock
 48
25.0
100
AcDbTrace
 10
2111.61754453182
 20
2289.339289009788
 30
0.0
 11
2111.61754453182
 21
2279.339289009788
 31
0.0
 12
2141.61754453182
 22
2284.339289009788
 32
0.0
 13
2141.61754453182
 23
2284.339289009788
 33
0.0
  0
SOLID
  5
9599
330
747D
100
AcDbEntity
  8
寸法引出
  6
ByBlock
 48
25.0
100
AcDbTrace
 10
2211.61754453182
 20
2289.339289009788
 30
0.0
 11
2211.61754453182
 21
2279.339289009788
 31
0.0
 12
2181.61754453182
 22
2284.339289009788
 32
0.0
 13
2181.61754453182
 23
2284.339289009788
 33
0.0
  0
POINT
  5
959A
330
747D
100
AcDbEntity
  8
DEFPOINTS
  6
ByBlock
 62
     0
 48
25.0
100
AcDbPoint
 10
2181.61754453182
 20
2387.119840131078
 30
0.0
  0
POINT
  5
959B
330
747D
100
AcDbEntity
  8
寸法引出
  6
ByBlock
 62
     0
 48
25.0
100
AcDbPoint
 10
2181.61754453182
 20
2284.339289009788
 30
0.0
  0
LINE
  5
959C
330
747D
100
AcDbEntity
  8
寸法引出
  6
ByBlock
 48
25.0
100
AcDbLine
 10
2211.61754453182
 20
2284.339289009788
 30
0.0
 11
2241.61754453182
 21
2284.339289009788
 31
0.0
  0
LINE
  5
959D
330
747D
100
AcDbEntity
  8
0
 48
25.0
100
AcDbLine
 10
2621.61754453182
 20
2387.119840131078
 30
0.0
 11
2181.61754453182
 21
2387.119840131078
 31
0.0
  0
DIMENSION
  5
959E
330
747D
100
AcDbEntity
  8
寸法引出
 48
25.0
100
AcDbDimension
  2
*D12
 10
2571.61754453182
 20
2203.561680690742
 30
0.0
 11
2401.61754453182
 21
2243.561680690742
 31
0.0
 70
    32
 71
     5
 42
340.0
  3
SANWA
100
AcDbAlignedDimension
 13
2231.61754453182
 23
2387.119840131078
 33
0.0
 14
2571.61754453182
 24
2387.119840131078
 34
0.0
100
AcDbRotatedDimension
1001
ACAD
1000
DSTYLE
1002
{
1070
   140
1040
2.0
1070
    40
1040
20.0
1070
   147
1040
1.0
1070
    44
1040
0.5
1070
    43
1040
5.0
1070
   178
1070
   256
1070
   177
1070
   256
1070
   176
1070
   256
1070
    41
1040
1.5
1002
}
  0
LINE
  5
959F
330
747D
100
AcDbEntity
  8
0
 48
25.0
100
AcDbLine
 10
2631.61754453182
 20
2397.119840131078
 30
0.0
 11
2171.61754453182
 21
2397.119840131078
 31
0.0
  0
LEADER
  5
95A0
330
747D
100
AcDbEntity
  8
寸法引出
 48
25.0
100
AcDbLeader
  3
SANWA
 73
     0
 74
     0
 75
     1
 40
39.42857142857142
 41
213.9428571428571
 76
     3
 10
2206.023236638617
 20
2397.119840131078
 30
0.0
 10
2256.069822751435
 20
2283.877336020688
 30
0.0
 10
2286.069822751434
 20
2283.877336020688
 30
0.0
340
95A1
1001
ACAD
1000
DSTYLE
1002
{
1070
   140
1040
2.0
1070
    40
1040
20.0
1070
   147
1040
1.0
1070
    44
1040
0.5
1070
    43
1040
5.0
1070
   178
1070
   256
1070
   177
1070
   256
1070
   176
1070
   256
1070
    41
1040
1.5
1002
}
  0
MTEXT
  5
95A1
102
{ACAD_REACTORS
330
95A0
102
}
330
747D
100
AcDbEntity
  8
寸法引出
 48
25.0
100
AcDbMText
 10
2306.069822751435
 20
2323.591621734973
 30
0.0
 40
30.0
 41
0.0
 71
     4
 72
     1
  1
\A1;面取り C10
  7
SANWA
 73
     1
 44
1.0
  0
LINE
  5
95A2
330
747D
100
AcDbEntity
  8
0
  6
CENTER2
 48
10.0
100
AcDbLine
 10
2401.61754453182
 20
2357.119840131078
 30
0.0
 11
2401.61754453182
 21
2507.119840131078
 31
0.0
  0
LINE
  5
95A3
330
747D
100
AcDbEntity
  8
0
 48
25.0
100
AcDbLine
 10
2141.61754453182
 20
2427.119840131078
 30
0.0
 11
2181.61754453182
 21
2387.119840131078
 31
0.0
  0
LINE
  5
95A4
330
747D
100
AcDbEntity
  8
0
 48
25.0
100
AcDbLine
 10
2661.61754453182
 20
2427.119840131078
 30
0.0
 11
2621.61754453182
 21
2387.119840131078
 31
0.0
  0
DIMENSION
  5
95AB
330
747D
100
AcDbEntity
  8
寸法引出
 48
25.0
100
AcDbDimension
  2
*D11
 10
2931.287058075255
 20
2387.119840131078
 30
0.0
 11
2891.287058075254
 21
2432.119840131078
 31
0.0
 70
    32
 71
     5
 42
90.0
  3
SANWA
100
AcDbAlignedDimension
 13
2661.61754453182
 23
2477.119840131078
 33
0.0
 14
2621.61754453182
 24
2387.119840131078
 34
0.0
 50
90.0
100
AcDbRotatedDimension
1001
ACAD
1000
DSTYLE
1002
{
1070
    40
1040
20.0
1070
    41
1040
1.5
1070
    43
1040
5.0
1070
    44
1040
0.5
1070
    75
1070
     1
1070
   140
1040
2.0
1070
   147
1040
1.0
1070
   176
1070
   256
1070
   177
1070
   256
1070
   178
1070
   256
1070
   279
1070
     1
1002
}
  0
DIMENSION
  5
95AC
330
747D
100
AcDbEntity
  8
寸法引出
 48
25.0
100
AcDbDimension
  2
*D10
 10
2661.61754453182
 20
2203.561680690742
 30
0.0
 11
2616.61754453182
 21
2243.561680690742
 31
0.0
 70
    32
 71
     5
 42
90.0
  3
SANWA
100
AcDbAlignedDimension
 13
2571.61754453182
 23
2387.119840131078
 33
0.0
 14
2661.61754453182
 24
2427.119840131078
 34
0.0
100
AcDbRotatedDimension
1001
ACAD
1000
DSTYLE
1002
{
1070
    40
1040
20.0
1070
    41
1040
1.5
1070
    43
1040
5.0
1070
    44
1040
0.5
1070
    75
1070
     1
1070
   140
1040
2.0
1070
   147
1040
1.0
1070
   176
1070
   256
1070
   177
1070
   256
1070
   178
1070
   256
1070
   279
1070
     1
1002
}
  0
LINE
  5
95AF
330
747D
100
AcDbEntity
  8
0
 48
25.0
100
AcDbLine
 10
2661.61754453182
 20
3377.119840131078
 30
0.0
 11
2661.61754453182
 21
2427.119840131078
 31
0.0
  0
LINE
  5
95B0
330
747D
100
AcDbEntity
  8
0
 48
25.0
100
AcDbLine
 10
2141.61754453182
 20
2427.119840131078
 30
0.0
 11
2141.61754453182
 21
3377.119840131078
 31
0.0
  0
DIMENSION
  5
95B6
330
747D
100
AcDbEntity
  8
寸法引出
 48
25.0
100
AcDbDimension
  2
*D9
 10
2931.287058075255
 20
2477.119840131078
 30
0.0
 11
2891.287058075254
 21
2927.119840131078
 31
0.0
 70
    32
 71
     5
 42
900.0
  3
SANWA
100
AcDbAlignedDimension
 13
2661.61754453182
 23
3377.119840131078
 33
0.0
 14
2661.61754453182
 24
2477.119840131078
 34
0.0
 50
90.0
100
AcDbRotatedDimension
1001
ACAD
1000
DSTYLE
1002
{
1070
   140
1040
2.0
1070
    40
1040
20.0
1070
   147
1040
1.0
1070
    44
1040
0.5
1070
    43
1040
5.0
1070
   178
1070
   256
1070
   177
1070
   256
1070
   176
1070
   256
1070
    41
1040
1.5
1002
}
  0
DIMENSION
  5
95BC
330
747D
100
AcDbEntity
  8
寸法引出
 48
25.0
100
AcDbDimension
  2
*D8
 10
3927.192421175337
 20
2387.119840131078
 30
0.0
 11
3887.192421175337
 21
2882.119840131078
 31
0.0
 70
    32
 71
     5
 42
990.0
  3
SANWA
100
AcDbAlignedDimension
 13
4129.625007866545
 23
3377.119840131078
 33
0.0
 14
4139.625007866545
 24
2387.119840131078
 34
0.0
 50
90.0
100
AcDbRotatedDimension
1001
ACAD
1000
DSTYLE
1002
{
1070
   140
1040
2.0
1070
    40
1040
20.0
1070
   147
1040
1.0
1070
    44
1040
0.5
1070
    43
1040
5.0
1070
   178
1070
   256
1070
   177
1070
   256
1070
   176
1070
   256
1070
    41
1040
1.5
1002
}
  0
LEADER
  5
95BD
330
747D
100
AcDbEntity
  8
寸法引出
 48
25.0
100
AcDbLeader
  3
SANWA
 73
     0
 75
     1
 40
51.88571428571429
 41
371.4285714285714
 76
     3
 10
4249.625007866545
 20
3377.119840131078
 30
0.0
 10
4105.032573904502
 20
3459.698451785294
 30
0.0
 10
4075.032573904501
 20
3459.698451785294
 30
0.0
340
95BE
1001
ACAD
1000
DSTYLE
1002
{
1070
   140
1040
2.0
1070
    40
1040
20.0
1070
   147
1040
1.0
1070
    44
1040
0.5
1070
    43
1040
5.0
1070
   178
1070
   256
1070
   177
1070
   256
1070
   176
1070
   256
1070
    41
1040
1.5
1002
}
  0
MTEXT
  5
95BE
102
{ACAD_REACTORS
330
95BD
102
}
330
747D
100
AcDbEntity
  8
寸法引出
 48
25.0
100
AcDbMText
 10
4055.032573904502
 20
3505.641308928151
 30
0.0
 40
40.0
 41
0.0
 71
     6
 72
     1
  1
\A1;ﾛｯｸﾋﾟﾝ用ｲﾝｻｰﾄ
  7
SANWA
 73
     1
 44
1.0
  0
TEXT
  5
95BF
330
747D
100
AcDbEntity
  8
0
100
AcDbText
 10
2131.042572171199
 20
3828.238068417142
 30
0.0
 40
60.0
  1
断面図
  7
SANWA
 72
     4
 11
2262.699715028342
 21
3858.238068417142
 31
0.0
100
AcDbText
  0
TEXT
  5
95C0
330
747D
100
AcDbEntity
  8
0
100
AcDbText
 10
4116.355469288546
 20
3827.895211274285
 30
0.0
 40
60.0
  1
側壁部
  7
SANWA
 72
     4
 11
4248.012612145688
 21
3858.238068417142
 31
0.0
100
AcDbText
  0
LINE
  5
95C1
330
747D
100
AcDbEntity
  8
0
100
AcDbLine
 10
0.0
 20
5000.0
 30
0.0
 11
0.0
 21
5250.0
 31
0.0
  0
LINE
  5
95C2
330
747D
100
AcDbEntity
  8
0
100
AcDbLine
 10
0.0
 20
5250.0
 30
0.0
 11
625.0
 21
5250.0
 31
0.0
  0
LINE
  5
95C4
330
747D
100
AcDbEntity
  8
寸法引出
  6
ByBlock
 48
25.0
100
AcDbLine
 10
2111.61754453182
 20
2284.339289009788
 30
0.0
 11
2081.61754453182
 21
2284.339289009788
 31
0.0
  0
MTEXT
  5
95C5
330
747D
100
AcDbEntity
  8
寸法引出
  6
ByBlock
 48
25.0
100
AcDbMText
 10
2101.462731839061
 20
2324.339289009788
 30
0.0
 40
40.0
 41
0.0
 71
     5
 72
     1
  1
\A1;40
  7
SANWA
 73
     1
 44
1.0
  0
DIMENSION
  5
95C6
330
747D
100
AcDbEntity
  8
寸法引出
 48
25.0
100
AcDbDimension
  2
*D7
 10
1917.558528850588
 20
2387.119840131078
 30
0.0
 11
1877.558528850588
 21
2882.119840131078
 31
0.0
 70
    32
 71
     5
 42
990.0
  3
SANWA
100
AcDbAlignedDimension
 13
2141.61754453182
 23
3377.119840131078
 33
0.0
 14
2181.61754453182
 24
2387.119840131078
 34
0.0
 50
90.0
100
AcDbRotatedDimension
1001
ACAD
1000
DSTYLE
1002
{
1070
   140
1040
2.0
1070
    40
1040
20.0
1070
   147
1040
1.0
1070
    44
1040
0.5
1070
    43
1040
5.0
1070
   178
1070
   256
1070
   177
1070
   256
1070
   176
1070
   256
1070
    41
1040
1.5
1002
}
  0
DIMENSION
  5
95C7
330
747D
100
AcDbEntity
  8
寸法引出
 48
25.0
100
AcDbDimension
  2
*D6
 10
2141.61754453182
 20
3517.638683621017
 30
0.0
 11
2171.61754453182
 21
3557.638683621017
 31
0.0
 70
    32
 71
     5
 42
60.0
  3
SANWA
100
AcDbAlignedDimension
 13
2201.61754453182
 23
3377.119840131078
 33
0.0
 14
2141.61754453182
 24
3377.119840131078
 34
0.0
100
AcDbRotatedDimension
1001
ACAD
1000
DSTYLE
1002
{
1070
    40
1040
20.0
1070
    41
1040
1.5
1070
    43
1040
5.0
1070
    44
1040
0.5
1070
    75
1070
     1
1070
   140
1040
2.0
1070
   147
1040
1.0
1070
   176
1070
   256
1070
   177
1070
   256
1070
   178
1070
   256
1070
   279
1070
     1
1002
}
  0
DIMENSION
  5
95C8
330
747D
100
AcDbEntity
  8
寸法引出
 48
25.0
100
AcDbDimension
  2
*D5
 10
2141.61754453182
 20
2203.561680690742
 30
0.0
 11
2186.61754453182
 21
2243.561680690742
 31
0.0
 70
    32
 71
     5
 42
90.0
  3
SANWA
100
AcDbAlignedDimension
 13
2231.61754453182
 23
2387.119840131078
 33
0.0
 14
2141.61754453182
 24
2427.119840131078
 34
0.0
100
AcDbRotatedDimension
1001
ACAD
1000
DSTYLE
1002
{
1070
    40
1040
20.0
1070
    41
1040
1.5
1070
    43
1040
5.0
1070
    44
1040
0.5
1070
    75
1070
     1
1070
   140
1040
2.0
1070
   147
1040
1.0
1070
   176
1070
   256
1070
   177
1070
   256
1070
   178
1070
   256
1070
   279
1070
     1
1002
}
  0
DIMENSION
  5
95C9
330
747D
100
AcDbEntity
  8
寸法引出
 48
25.0
100
AcDbDimension
  2
*D4
 10
2181.617544531818
 20
2387.119840131078
 30
0.0
 11
2065.065633344072
 21
2465.839584671524
 31
0.0
 70
   162
 71
     5
 42
0.7853981633974816
  3
SANWA
100
AcDb2LineAngularDimension
 13
2621.61754453182
 23
2387.119840131078
 33
0.0
 14
2181.61754453182
 24
2387.119840131078
 34
0.0
 15
2141.61754453182
 25
2427.119840131079
 35
0.0
 16
2045.76445974601
 26
2423.521564488713
 36
0.0
1001
ACAD
1000
DSTYLE
1002
{
1070
    40
1040
20.0
1070
    41
1040
1.5
1070
    43
1040
5.0
1070
    44
1040
0.5
1070
    79
1070
     2
1070
   140
1040
2.0
1070
   147
1040
1.0
1070
   176
1070
   256
1070
   177
1070
   256
1070
   178
1070
   256
1070
   179
1070
     4
1002
}
  0
LINE
  5
966B
330
747D
100
AcDbEntity
  8
0
100
AcDbLine
 10
0.0
 20
0.0
 30
0.0
 11
0.0
 21
250.0
 31
0.0
  0
LINE
  5
966C
330
747D
100
AcDbEntity
  8
0
100
AcDbLine
 10
625.0
 20
0.0
 30
0.0
 11
0.0
 21
0.0
 31
0.0
  0
LINE
  5
966D
330
747D
100
AcDbEntity
  8
枠
100
AcDbLine
 10
625.0
 20
250.0
 30
0.0
 11
625.0
 21
5000.0
 31
0.0
  0
LINE
  5
966E
330
747D
100
AcDbEntity
  8
枠
100
AcDbLine
 10
625.0
 20
5000.0
 30
0.0
 11
7175.0
 21
5000.0
 31
0.0
  0
LINE
  5
966F
330
747D
100
AcDbEntity
  8
枠
100
AcDbLine
 10
625.0
 20
250.0
 30
0.0
 11
7175.0
 21
250.0
 31
0.0
  0
LINE
  5
9670
330
747D
100
AcDbEntity
  8
0
100
AcDbLine
 10
2716.778107531318
 20
4500.0
 30
0.0
 11
5083.221892468682
 21
4500.0
 31
0.0
  0
LINE
  5
9671
330
747D
100
AcDbEntity
  8
0
100
AcDbLine
 10
2716.778107531318
 20
4480.000000000007
 30
0.0
 11
5083.221892468682
 21
4480.000000000007
 31
0.0
  0
TEXT
  5
9672
330
747D
100
AcDbEntity
  8
0
100
AcDbText
 10
2742.47239236091
 20
4537.948317370435
 30
0.0
 40
70.0
  1
マルチスリット側溝  400×900×2000
  7
SANWA
 72
     4
 11
3612.872392360911
 21
4572.948317370435
 31
0.0
100
AcDbText
  0
LINE
  5
9675
330
747D
100
AcDbEntity
  8
0
 48
25.0
100
AcDbLine
 10
4129.625007866545
 20
3377.119840131078
 30
0.0
 11
6129.625007866545
 21
3377.119840131078
 31
0.0
  0
LINE
  5
9676
330
747D
100
AcDbEntity
  8
0
 48
25.0
100
AcDbLine
 10
6119.625007866545
 20
2387.119840131078
 30
0.0
 11
4139.625007866545
 21
2387.119840131078
 31
0.0
  0
DIMENSION
  5
9686
330
747D
100
AcDbEntity
  8
寸法引出
 48
25.0
100
AcDbDimension
  2
*D3
 10
5249.625007866545
 20
3508.870918497509
 30
0.0
 11
5129.625007866545
 21
3548.870918497509
 31
0.0
 70
    32
 71
     5
 42
240.0
  3
SANWA
100
AcDbAlignedDimension
 13
5009.625007866546
 23
3377.119840131078
 33
0.0
 14
5249.625007866545
 24
3377.119840131078
 34
0.0
100
AcDbRotatedDimension
1001
ACAD
1000
DSTYLE
1002
{
1070
    40
1040
20.0
1070
    41
1040
1.5
1070
    43
1040
5.0
1070
    44
1040
0.5
1070
    75
1070
     1
1070
   140
1040
2.0
1070
   147
1040
1.0
1070
   176
1070
   256
1070
   177
1070
   256
1070
   178
1070
   256
1070
   279
1070
     1
1002
}
  0
LINE
  5
968B
330
747D
100
AcDbEntity
  8
0
100
AcDbLine
 10
7425.0
 20
5250.0
 30
0.0
 11
7425.0
 21
5000.0
 31
0.0
  0
LINE
  5
968C
330
747D
100
AcDbEntity
  8
0
100
AcDbLine
 10
7175.0
 20
5250.0
 30
0.0
 11
7425.0
 21
5250.0
 31
0.0
  0
LINE
  5
96A5
330
747D
100
AcDbEntity
  8
0
  6
HIDDEN2
 48
5.0
100
AcDbLine
 10
6000.625007866545
 20
3377.119840131078
 30
0.0
 11
6018.625007866545
 21
3377.119840131078
 31
0.0
  0
LINE
  5
96A6
330
747D
100
AcDbEntity
  8
0
  6
HIDDEN2
 48
5.0
100
AcDbLine
 10
6019.625007866546
 20
3340.119840131078
 30
0.0
 11
5999.625007866545
 21
3340.119840131078
 31
0.0
  0
LINE
  5
96A7
330
747D
100
AcDbEntity
  8
0
  6
HIDDEN2
 48
5.0
100
AcDbLine
 10
6019.625007866546
 20
3335.119840131078
 30
0.0
 11
5999.625007866545
 21
3335.119840131078
 31
0.0
  0
LINE
  5
96A8
330
747D
100
AcDbEntity
  8
0
  6
HIDDEN2
 48
5.0
100
AcDbLine
 10
5999.625007866545
 20
3335.119840131078
 30
0.0
 11
5999.625007866545
 21
3340.119840131078
 31
0.0
  0
LINE
  5
96A9
330
747D
100
AcDbEntity
  8
0
  6
HIDDEN2
 48
5.0
100
AcDbLine
 10
6000.625007866545
 20
3340.119840131078
 30
0.0
 11
6000.625007866545
 21
3377.119840131078
 31
0.0
  0
LINE
  5
96AA
330
747D
100
AcDbEntity
  8
0
  6
HIDDEN2
 48
5.0
100
AcDbLine
 10
6019.625007866546
 20
3340.119840131078
 30
0.0
 11
6019.625007866546
 21
3335.119840131078
 31
0.0
  0
LINE
  5
96AB
330
747D
100
AcDbEntity
  8
0
  6
HIDDEN2
 48
5.0
100
AcDbLine
 10
6018.625007866545
 20
3377.119840131078
 30
0.0
 11
6018.625007866545
 21
3340.119840131078
 31
0.0
  0
DIMENSION
  5
96AC
330
747D
100
AcDbEntity
  8
寸法引出
 48
25.0
100
AcDbDimension
  2
*D2
 10
6129.625007866545
 20
3508.870918497509
 30
0.0
 11
6069.625007866545
 21
3548.870918497509
 31
0.0
 70
    32
 71
     5
 42
120.0
  3
SANWA
100
AcDbAlignedDimension
 13
6009.625007866546
 23
3377.119840131078
 33
0.0
 14
6129.625007866545
 24
3377.119840131078
 34
0.0
100
AcDbRotatedDimension
1001
ACAD
1000
DSTYLE
1002
{
1070
    40
1040
20.0
1070
    41
1040
1.5
1070
    43
1040
5.0
1070
    44
1040
0.5
1070
    75
1070
     1
1070
   140
1040
2.0
1070
   147
1040
1.0
1070
   176
1070
   256
1070
   177
1070
   256
1070
   178
1070
   256
1070
   279
1070
     1
1002
}
  0
LINE
  5
96AD
330
747D
100
AcDbEntity
  8
0
  6
HIDDEN2
 48
5.0
100
AcDbLine
 10
5240.625007866545
 20
3377.119840131078
 30
0.0
 11
5258.625007866545
 21
3377.119840131078
 31
0.0
  0
LINE
  5
96AE
330
747D
100
AcDbEntity
  8
0
  6
HIDDEN2
 48
5.0
100
AcDbLine
 10
5259.625007866546
 20
3340.119840131078
 30
0.0
 11
5239.625007866545
 21
3340.119840131078
 31
0.0
  0
LINE
  5
96AF
330
747D
100
AcDbEntity
  8
0
  6
HIDDEN2
 48
5.0
100
AcDbLine
 10
5259.625007866546
 20
3335.119840131078
 30
0.0
 11
5239.625007866545
 21
3335.119840131078
 31
0.0
  0
LINE
  5
96B0
330
747D
100
AcDbEntity
  8
0
  6
HIDDEN2
 48
5.0
100
AcDbLine
 10
5239.625007866545
 20
3335.119840131078
 30
0.0
 11
5239.625007866545
 21
3340.119840131078
 31
0.0
  0
LINE
  5
96B1
330
747D
100
AcDbEntity
  8
0
  6
HIDDEN2
 48
5.0
100
AcDbLine
 10
5240.625007866545
 20
3340.119840131078
 30
0.0
 11
5240.625007866545
 21
3377.119840131078
 31
0.0
  0
LINE
  5
96B2
330
747D
100
AcDbEntity
  8
0
  6
HIDDEN2
 48
5.0
100
AcDbLine
 10
5259.625007866546
 20
3340.119840131078
 30
0.0
 11
5259.625007866546
 21
3335.119840131078
 31
0.0
  0
LINE
  5
96B3
330
747D
100
AcDbEntity
  8
0
  6
HIDDEN2
 48
5.0
100
AcDbLine
 10
5258.625007866545
 20
3377.119840131078
 30
0.0
 11
5258.625007866545
 21
3340.119840131078
 31
0.0
  0
DIMENSION
  5
96BA
330
747D
100
AcDbEntity
  8
寸法引出
 48
25.0
100
AcDbDimension
  2
*D1
 10
6009.625007866546
 20
3508.870918497509
 30
0.0
 11
5629.625007866545
 21
3548.870918497509
 31
0.0
 70
    32
 71
     5
 42
760.0
  3
SANWA
100
AcDbAlignedDimension
 13
5249.625007866545
 23
3377.119840131078
 33
0.0
 14
6009.625007866546
 24
3377.119840131078
 34
0.0
100
AcDbRotatedDimension
1001
ACAD
1000
DSTYLE
1002
{
1070
    40
1040
20.0
1070
    41
1040
1.5
1070
    43
1040
5.0
1070
    44
1040
0.5
1070
    75
1070
     1
1070
   140
1040
2.0
1070
   147
1040
1.0
1070
   176
1070
   256
1070
   177
1070
   256
1070
   178
1070
   256
1070
   279
1070
     1
1002
}
  0
LINE
  5
96C0
330
747D
100
AcDbEntity
  8
0
 48
25.0
100
AcDbLine
 10
6119.625007866545
 20
2387.119840131078
 30
0.0
 11
6129.625007866545
 21
2397.119840131078
 31
0.0
  0
LINE
  5
96D0
330
747D
100
AcDbEntity
  8
0
 48
25.0
100
AcDbLine
 10
6129.625007866545
 20
3377.119840131078
 30
0.0
 11
6129.625007866545
 21
2397.119840131078
 31
0.0
  0
LINE
  5
9708
330
747D
100
AcDbEntity
  8
0
100
AcDbLine
 10
7425.0
 20
250.0
 30
0.0
 11
7425.0
 21
0.0
 31
0.0
  0
LINE
  5
9709
330
747D
100
AcDbEntity
  8
0
100
AcDbLine
 10
6180.627092293003
 20
407.7677195890032
 30
0.0
 11
6187.754221870795
 21
414.8948491668079
 31
0.0
  0
ARC
  5
970A
330
747D
100
AcDbEntity
  8
0
100
AcDbCircle
 10
6133.560357219676
 20
372.0146930146711
 30
0.0
 40
55.10631488841318
100
AcDbArc
 50
49.16258741113348
 51
130.8374125888665
  0
ARC
  5
970B
330
747D
100
AcDbEntity
  8
0
100
AcDbCircle
 10
6133.560357219676
 20
372.0146930146711
 30
0.0
 40
59.10631488841318
100
AcDbArc
 50
52.77882031188749
 51
127.2211796881125
  0
ARC
  5
970C
330
747D
100
AcDbEntity
  8
0
100
AcDbCircle
 10
6133.560357219676
 20
372.0146930146711
 30
0.0
 40
69.10631488841319
100
AcDbArc
 50
51.64767378621125
 51
128.3523262137887
  0
LINE
  5
970D
330
747D
100
AcDbEntity
  8
0
100
AcDbLine
 10
6097.52552444138
 20
413.7063800424471
 30
0.0
 11
6084.694813339252
 21
426.5370911445756
 31
0.0
  0
LINE
  5
970E
330
747D
100
AcDbEntity
  8
0
100
AcDbLine
 10
6091.868670191889
 20
408.0495257929555
 30
0.0
 11
6079.03795908976
 21
420.8802368950841
 31
0.0
  0
LINE
  5
970F
330
747D
100
AcDbEntity
  8
0
100
AcDbLine
 10
6086.493622146349
 20
407.7677195890146
 30
0.0
 11
6079.366492568556
 21
414.8948491668079
 31
0.0
  0
LINE
  5
9710
330
747D
100
AcDbEntity
  8
0
100
AcDbLine
 10
6097.807330645331
 20
419.0814280879976
 30
0.0
 11
6090.68020106754
 21
426.2085576657909
 31
0.0
  0
LINE
  5
9711
330
747D
100
AcDbEntity
  8
0
100
AcDbLine
 10
6169.31338379402
 20
419.0814280879976
 30
0.0
 11
6176.440513371812
 21
426.2085576657909
 31
0.0
  0
TEXT
  5
9712
330
747D
100
AcDbEntity
  8
0
100
AcDbText
 10
6111.181671391545
 20
384.3868193377375
 30
0.0
 40
30.0
  1
三
  7
SANWA
100
AcDbText
  0
ARC
  5
9713
330
747D
100
AcDbEntity
  8
0
100
AcDbCircle
 10
6133.560357219676
 20
372.0146930146711
 30
0.0
 40
73.1063148884132
100
AcDbArc
 50
48.13649544707906
 51
131.8635045529209
  0
LINE
  5
9714
330
747D
100
AcDbEntity
  8
0
100
AcDbLine
 10
6175.252044247439
 20
408.0495257929555
 30
0.0
 11
6188.005318887941
 21
420.8028004334323
 31
0.0
  0
LINE
  5
9715
330
747D
100
AcDbEntity
  8
0
100
AcDbLine
 10
6169.595189997949
 20
413.7063800424471
 30
0.0
 11
6182.348464638426
 21
426.4596546829352
 31
0.0
  0
LINE
  5
9716
330
747D
100
AcDbEntity
  8
0
100
AcDbLine
 10
6129.56035721968
 20
299.0178898205272
 30
0.0
 11
6129.56035721968
 21
317.0537437817756
 31
0.0
  0
LINE
  5
9717
330
747D
100
AcDbEntity
  8
0
100
AcDbLine
 10
6137.560357219673
 20
299.0178898205272
 30
0.0
 11
6137.560357219673
 21
317.0537437817756
 31
0.0
  0
LINE
  5
9718
330
747D
100
AcDbEntity
  8
0
100
AcDbLine
 10
6141.560357219669
 20
303.3729946276366
 30
0.0
 11
6141.560357219669
 21
313.4522779373469
 31
0.0
  0
LINE
  5
9719
330
747D
100
AcDbEntity
  8
0
100
AcDbLine
 10
6125.560357219683
 20
303.3729946276366
 30
0.0
 11
6125.560357219683
 21
313.4522779373469
 31
0.0
  0
ARC
  5
971A
330
747D
100
AcDbEntity
  8
0
100
AcDbCircle
 10
6133.560357219676
 20
372.0146930146711
 30
0.0
 40
69.10631488841319
100
AcDbArc
 50
141.6476737862112
 51
263.3523262137999
  0
ARC
  5
971B
330
747D
100
AcDbEntity
  8
0
100
AcDbCircle
 10
6133.560357219676
 20
372.0146930146711
 30
0.0
 40
73.1063148884132
100
AcDbArc
 50
138.136495447079
 51
266.8635045529379
  0
ARC
  5
971C
330
747D
100
AcDbEntity
  8
0
100
AcDbCircle
 10
6133.560357219676
 20
372.0146930146711
 30
0.0
 40
59.10631488841318
100
AcDbArc
 50
142.7788203119032
 51
262.2211796880757
  0
ARC
  5
971D
330
747D
100
AcDbEntity
  8
0
100
AcDbCircle
 10
6133.560357219676
 20
372.0146930146711
 30
0.0
 40
55.10631488841318
100
AcDbArc
 50
139.1625874111308
 51
265.8374125888665
  0
ARC
  5
971E
330
747D
100
AcDbEntity
  8
0
100
AcDbCircle
 10
6133.560357219676
 20
372.0146930146711
 30
0.0
 40
55.10631488841318
100
AcDbArc
 50
274.1625874111334
 51
40.8374125888692
  0
ARC
  5
971F
330
747D
100
AcDbEntity
  8
0
100
AcDbCircle
 10
6133.560357219676
 20
372.0146930146711
 30
0.0
 40
59.10631488841318
100
AcDbArc
 50
277.7788203119242
 51
37.22117968809675
  0
ARC
  5
9720
330
747D
100
AcDbEntity
  8
0
100
AcDbCircle
 10
6133.560357219676
 20
372.0146930146711
 30
0.0
 40
73.1063148884132
100
AcDbArc
 50
273.136495447062
 51
41.86350455292095
  0
ARC
  5
9721
330
747D
100
AcDbEntity
  8
0
100
AcDbCircle
 10
6133.560357219676
 20
372.0146930146711
 30
0.0
 40
69.10631488841319
100
AcDbArc
 50
276.6476737862
 51
38.35232621378875
  0
TEXT
  5
9722
330
747D
100
AcDbEntity
  8
0
100
AcDbText
 10
6111.181671391545
 20
344.5314540177946
 30
0.0
 40
30.0
  1
和
  7
SANWA
100
AcDbText
  0
HATCH
  5
9723
330
747D
100
AcDbEntity
  8
0
100
AcDbHatch
 10
0.0
 20
0.0
 30
0.0
210
0.0
220
0.0
230
1.0
  2
SOLID
 70
     1
 71
     0
 91
        6
 92
        7
 72
     1
 73
     1
 93
        4
 10
6084.7722498009
 20
426.459654682927
 42
0.0
 10
6097.525524441386
 20
413.7063800424416
 42
-0.3722683533228775
 10
6169.595189997954
 20
413.7063800424526
 42
0.0
 10
6182.348464638433
 20
426.4596546829429
 42
0.382497994028995
 97
        0
 92
       22
 72
     1
 73
     1
 93
        4
 10
6176.440513371819
 20
426.2085576657959
 42
0.0
 10
6169.313383794019
 20
419.0814280879963
 42
0.3367429548951122
 10
6097.807330645333
 20
419.0814280879963
 42
0.0
 10
6090.680201067534
 20
426.2085576657959
 42
-0.3477704275231142
 97
        0
 92
        7
 72
     1
 73
     1
 93
        4
 10
6175.252044247447
 20
408.0495257929615
 42
-0.6168583269100119
 10
6137.560357219673
 20
317.0537437817747
 42
0.0
 10
6137.560357219673
 20
299.0178898205322
 42
0.6292889159379468
 10
6188.005318887941
 20
420.8028004334346
 42
0.0
 97
        0
 92
       22
 72
     1
 73
     1
 93
        4
 10
6187.7542218708
 20
414.8948491668129
 42
-0.5873104908889521
 10
6141.560357219669
 20
303.3729946276362
 42
0.0
 10
6141.560357219669
 20
313.4522779373501
 42
0.5741105922167442
 10
6180.627092293008
 20
407.7677195890073
 42
0.0
 97
        0
 92
        7
 72
     1
 73
     1
 93
        4
 10
6079.115395551411
 20
420.8028004334346
 42
0.6292889159379484
 10
6129.56035721968
 20
299.0178898205317
 42
0.0
 10
6129.56035721968
 20
317.0537437817747
 42
-0.6168583269099083
 10
6091.868670191894
 20
408.0495257929491
 42
0.0
 97
        0
 92
       22
 72
     1
 73
     1
 93
        4
 10
6086.49362214635
 20
407.7677195890137
 42
0.5741105922167819
 10
6125.560357219683
 20
313.452277937351
 42
0.0
 10
6125.560357219683
 20
303.3729946276366
 42
-0.5873104908889487
 10
6079.366492568549
 20
414.8948491668129
 42
0.0
 97
        0
 75
     0
 76
     1
 47
0.0143554168026844
 98
        6
 10
6165.5808279733
 20
434.8088762841875
 10
6165.5808279733
 20
434.8088762841875
 10
6180.523262244778
 20
411.5531024217712
 10
6180.523262244778
 20
411.5531024217712
 10
6088.282422260045
 20
410.6917769343349
 10
6088.282422260045
 20
410.6917769343349
  0
TEXT
  5
9724
330
747D
100
AcDbEntity
  8
0
100
AcDbText
 10
6277.347189020771
 20
344.5314540177946
 30
0.0
 40
40.0
  1
三和コンクリート工業株式会社
  7
SANWA
100
AcDbText
  0
TEXT
  5
9725
330
747D
100
AcDbEntity
  8
0
100
AcDbText
 10
6362.962310030399
 20
890.0000000000023
 30
0.0
 40
40.0
  1
マルチスリット側溝
  7
SANWA
 72
     4
 11
6626.276595744684
 21
910.0000000000022
 31
0.0
100
AcDbText
  0
TEXT
  5
9726
330
747D
100
AcDbEntity
  8
0
100
AcDbText
 10
6421.476595744684
 20
570.4571428571519
 30
0.0
 40
40.0
  1
400×900×2000
  7
SANWA
 72
     4
 11
6626.276595744684
 21
590.000000000009
 31
0.0
100
AcDbText
  0
LINE
  5
9727
330
747D
100
AcDbEntity
  8
0
100
AcDbLine
 10
7425.0
 20
0.0
 30
0.0
 11
7175.0
 21
0.0
 31
0.0
  0
LINE
  5
9728
330
747D
100
AcDbEntity
  8
0
100
AcDbLine
 10
6077.553191489346
 20
510.0000000000022
 30
0.0
 11
6077.553191489346
 21
990.000000000009
 31
0.0
  0
TEXT
  5
9761
330
747D
100
AcDbEntity
  8
0
 48
2.0
100
AcDbText
 10
5542.345604725415
 20
928.7954769413772
 30
0.0
 40
40.0
  1
図面
  7
SANWA
100
AcDbText
  0
TEXT
  5
9762
330
747D
100
AcDbEntity
  8
0
 48
2.0
100
AcDbText
 10
5653.898808185773
 20
931.068652737656
 30
0.0
 40
40.0
  1
番号
  7
SANWA
100
AcDbText
  0
TEXT
  5
9763
330
747D
100
AcDbEntity
  8
0
 48
2.0
100
AcDbText
 10
5544.098121932371
 20
723.9731911170224
 30
0.0
 40
40.0
  1
縮    尺
  7
SANWA
100
AcDbText
  0
TEXT
  5
9765
330
747D
100
AcDbEntity
  8
0
 48
2.0
100
AcDbText
 10
5554.085831602595
 20
619.9752158333722
 30
0.0
 40
40.0
  1
１：２５
  7
SANWA
100
AcDbText
  0
TEXT
  5
9766
330
747D
100
AcDbEntity
  8
0
 48
2.0
100
AcDbText
 10
5831.24899340728
 20
462.0856316808044
 30
0.0
 40
40.0
  1
製図
  7
SANWA
100
AcDbText
  0
LINE
  5
9768
330
747D
100
AcDbEntity
  8
0
100
AcDbLine
 10
5777.553191489346
 20
250.0
 30
0.0
 11
5777.553191489346
 21
510.0000000000022
 31
0.0
  0
TEXT
  5
976D
330
747D
100
AcDbEntity
  8
0
 48
2.0
100
AcDbText
 10
5615.12664304264
 20
461.8928629188303
 30
0.0
 40
40.0
  1
設計
  7
SANWA
100
AcDbText
  0
LINE
  5
976E
330
747D
100
AcDbEntity
  8
0
100
AcDbLine
 10
5557.553191489342
 20
250.0
 30
0.0
 11
5557.553191489342
 21
570.0000000000045
 31
0.0
  0
TEXT
  5
976F
330
747D
100
AcDbEntity
  8
0
 48
2.0
100
AcDbText
 10
5648.287171582318
 20
522.0856316808067
 30
0.0
 40
40.0
  1
2004. 8.17
  7
SANWA
100
AcDbText
  0
LINE
  5
9770
330
747D
100
AcDbEntity
  8
0
100
AcDbLine
 10
5337.553191489337
 20
670.0000000000045
 30
0.0
 11
5337.553191489337
 21
726.7609459798336
 31
0.0
  0
LINE
  5
9771
330
747D
100
AcDbEntity
  8
0
 62
     0
100
AcDbLine
 10
5337.553191489337
 20
870.0000000000045
 30
0.0
 11
5337.553191489337
 21
630.0000000000068
 31
0.0
  0
LINE
  5
9772
330
747D
100
AcDbEntity
  8
0
100
AcDbLine
 10
5337.553191489337
 20
726.7609459798336
 30
0.0
 11
5337.553191489337
 21
882.1169115701536
 31
0.0
  0
LINE
  5
9773
330
747D
100
AcDbEntity
  8
0
100
AcDbLine
 10
5337.553191489337
 20
570.0000000000045
 30
0.0
 11
5337.553191489337
 21
510.0000000000022
 31
0.0
  0
LINE
  5
9774
330
747D
100
AcDbEntity
  8
0
 62
     0
100
AcDbLine
 10
5337.553191489337
 20
630.0000000000068
 30
0.0
 11
5337.553191489337
 21
250.0
 31
0.0
  0
LINE
  5
9775
330
747D
100
AcDbEntity
  8
0
100
AcDbLine
 10
5337.553191489337
 20
570.0000000000045
 30
0.0
 11
5337.553191489337
 21
630.0000000000068
 31
0.0
  0
LINE
  5
9776
330
747D
100
AcDbEntity
  8
0
100
AcDbLine
 10
5337.553191489337
 20
630.0000000000068
 30
0.0
 11
5337.553191489337
 21
499.8919161829462
 31
0.0
  0
LINE
  5
9777
330
747D
100
AcDbEntity
  8
0
 62
     0
100
AcDbLine
 10
5337.553191489337
 20
570.0000000000045
 30
0.0
 11
5997.553191489351
 21
570.0000000000045
 31
0.0
  0
TEXT
  5
9778
330
747D
100
AcDbEntity
  8
0
 48
2.0
100
AcDbText
 10
5385.360299888543
 20
459.6196585260827
 30
0.0
 40
40.0
  1
検図
  7
SANWA
100
AcDbText
  0
LINE
  5
9779
330
747D
100
AcDbEntity
  8
0
 62
     0
100
AcDbLine
 10
5337.553191489337
 20
910.0000000000022
 30
0.0
 11
5997.553191489351
 21
910.0000000000022
 31
0.0
  0
LINE
  5
977A
330
747D
100
AcDbEntity
  8
0
 62
     0
100
AcDbLine
 10
5337.553191489337
 20
910.0000000000022
 30
0.0
 11
5997.553191489351
 21
910.0000000000022
 31
0.0
  0
LINE
  5
977B
330
747D
100
AcDbEntity
  8
0
 62
     0
100
AcDbLine
 10
5337.553191489337
 20
790.000000000009
 30
0.0
 11
5997.553191489351
 21
790.000000000009
 31
0.0
  0
LINE
  5
977C
330
747D
100
AcDbEntity
  8
0
 62
     0
100
AcDbLine
 10
5337.553191489337
 20
710.0000000000022
 30
0.0
 11
5997.553191489351
 21
710.0000000000022
 31
0.0
  0
LINE
  5
977D
330
747D
100
AcDbEntity
  8
0
 62
     0
100
AcDbLine
 10
5337.553191489337
 20
450.0
 30
0.0
 11
5997.553191489351
 21
450.0
 31
0.0
  0
TEXT
  5
977E
330
747D
100
AcDbEntity
  8
0
 48
2.0
100
AcDbText
 10
5391.248993407271
 20
522.0856316808067
 30
0.0
 40
40.0
  1
製図
  7
SANWA
100
AcDbText
  0
HATCH
  5
977F
330
747D
100
AcDbEntity
  8
0
100
AcDbHatch
 10
0.0
 20
0.0
 30
0.0
210
0.0
220
0.0
230
1.0
  2
SOLID
 70
     1
 71
     1
 91
        2
 92
        7
 72
     1
 73
     1
 93
        2
 10
5528.978571493356
 20
345.9336162347526
 42
1.0
 10
5369.028150348198
 20
345.9336162347526
 42
1.0
 97
        1
330
9781
 92
       22
 72
     1
 73
     1
 93
        2
 10
5524.978571493356
 20
345.9336162347526
 42
1.0
 10
5373.028150348197
 20
345.9336162347526
 42
1.0
 97
        1
330
9780
 75
     0
 76
     1
 47
0.0602706122334892
 98
        2
 10
5487.32050403127
 20
414.6823680693855
 10
5487.32050403127
 20
414.6823680693855
  0
CIRCLE
  5
9780
102
{ACAD_REACTORS
330
977F
102
}
330
747D
100
AcDbEntity
  8
0
100
AcDbCircle
 10
5449.003360920777
 20
345.9336162347526
 30
0.0
 40
75.97521057257927
  0
CIRCLE
  5
9781
102
{ACAD_REACTORS
330
977F
102
}
330
747D
100
AcDbEntity
  8
0
100
AcDbCircle
 10
5449.003360920777
 20
345.9336162347526
 30
0.0
 40
79.97521057257928
  0
TEXT
  5
9782
330
747D
100
AcDbEntity
  8
0
 48
2.0
100
AcDbText
 10
5420.465586361498
 20
294.6006681902062
 30
0.0
 40
40.0
  1
口
  7
SANWA
100
AcDbText
  0
TEXT
  5
9783
330
747D
100
AcDbEntity
  8
0
 48
2.0
100
AcDbText
 10
5421.406203966146
 20
351.218686667265
 30
0.0
 40
40.0
  1
河
  7
SANWA
100
AcDbText
  0
TEXT
  5
9784
102
{ACAD_REACTORS
330
9794
102
}
330
747D
100
AcDbEntity
  8
0
 48
2.0
100
AcDbText
 10
5861.317347594338
 20
306.9581021990684
 30
0.0
 40
40.0
  1
川
  7
SANWA
100
AcDbText
  0
TEXT
  5
9785
102
{ACAD_REACTORS
330
978B
102
}
330
747D
100
AcDbEntity
  8
0
 48
2.0
100
AcDbText
 10
5503.816090447048
 20
71.80215840759274
 30
0.0
 40
40.0
  1
田
  7
SANWA
100
AcDbText
  0
TEXT
  5
9786
102
{ACAD_REACTORS
330
9788
102
}
330
747D
100
AcDbEntity
  8
0
 48
2.0
100
AcDbText
 10
5706.14230872286
 20
78.24647123774184
 30
0.0
 40
40.0
  1
嶋
  7
SANWA
100
AcDbText
  0
HATCH
  5
9788
330
747D
100
AcDbEntity
  8
0
100
AcDbHatch
 10
0.0
 20
0.0
 30
0.0
210
0.0
220
0.0
230
1.0
  2
SOLID
 70
     1
 71
     1
 91
        4
 92
        7
 72
     1
 73
     1
 93
        2
 10
5814.655293854716
 20
121.52799383
 42
1.0
 10
5654.704872709558
 20
121.52799383
 42
1.0
 97
        1
330
9789
 92
       22
 72
     1
 73
     1
 93
        2
 10
5810.655293854717
 20
121.52799383
 42
1.0
 10
5658.704872709558
 20
121.52799383
 42
1.0
 97
        1
330
978A
 92
      136
 93
        4
 72
     1
 10
5694.397212041792
 20
118.521632571932
 11
5778.282926327506
 21
118.521632571932
 72
     1
 10
5778.282926327506
 20
118.521632571932
 11
5778.282926327506
 21
194.6359182862178
 72
     1
 10
5778.282926327506
 20
194.6359182862178
 11
5694.397212041792
 21
194.6359182862178
 72
     1
 10
5694.397212041792
 20
194.6359182862178
 11
5694.397212041792
 21
118.521632571932
 97
        1
330
9792
 92
      136
 93
        4
 72
     1
 10
5692.828023008574
 20
58.98932838059898
 11
5777.970880151431
 21
58.98932838059898
 72
     1
 10
5777.970880151431
 20
58.98932838059898
 11
5777.970880151431
 21
138.8750426663132
 72
     1
 10
5777.970880151431
 20
138.8750426663132
 11
5692.828023008574
 21
138.8750426663132
 72
     1
 10
5692.828023008574
 20
138.8750426663132
 11
5692.828023008574
 21
58.98932838059898
 97
        1
330
9786
 75
     0
 76
     1
 47
0.0602706122334892
 98
        2
 10
5772.99722639263
 20
190.2767456646329
 10
5772.99722639263
 20
190.2767456646329
  0
CIRCLE
  5
9789
102
{ACAD_REACTORS
330
9788
102
}
330
747D
100
AcDbEntity
  8
0
100
AcDbCircle
 10
5734.680083282137
 20
121.52799383
 30
0.0
 40
79.97521057257928
  0
CIRCLE
  5
978A
102
{ACAD_REACTORS
330
9788
102
}
330
747D
100
AcDbEntity
  8
0
100
AcDbCircle
 10
5734.680083282137
 20
121.52799383
 30
0.0
 40
75.97521057257927
  0
HATCH
  5
978B
330
747D
100
AcDbEntity
  8
0
100
AcDbHatch
 10
0.0
 20
0.0
 30
0.0
210
0.0
220
0.0
230
1.0
  2
SOLID
 70
     1
 71
     1
 91
        4
 92
        7
 72
     1
 73
     1
 93
        2
 10
5612.329075578883
 20
121.52799383
 42
1.0
 10
5452.378654433725
 20
121.52799383
 42
1.0
 97
        1
330
978E
 92
       22
 72
     1
 73
     1
 93
        2
 10
5608.329075578883
 20
121.52799383
 42
1.0
 10
5456.378654433724
 20
121.52799383
 42
1.0
 97
        1
330
978D
 92
      136
 93
        4
 72
     1
 10
5491.556708051673
 20
113.802103115361
 11
5576.470993765958
 21
113.802103115361
 72
     1
 10
5576.470993765958
 20
113.802103115361
 11
5576.470993765958
 21
193.002103115361
 72
     1
 10
5576.470993765958
 20
193.002103115361
 11
5491.556708051673
 21
193.002103115361
 72
     1
 10
5491.556708051673
 20
193.002103115361
 11
5491.556708051673
 21
113.802103115361
 97
        1
330
978C
 92
       24
 93
        4
 72
     1
 10
5491.873233304191
 20
54.37358697902133
 11
5574.27323330419
 21
54.37358697902133
 72
     1
 10
5574.27323330419
 20
54.37358697902133
 11
5574.27323330419
 21
126.0307298361641
 72
     1
 10
5574.27323330419
 20
126.0307298361641
 11
5491.873233304191
 21
126.0307298361641
 72
     1
 10
5491.873233304191
 20
126.0307298361641
 11
5491.873233304191
 21
54.37358697902133
 97
        1
330
9785
 75
     0
 76
     1
 47
0.0602706122334892
 98
        2
 10
5570.671008116811
 20
190.2767456646329
 10
5570.671008116811
 20
190.2767456646329
  0
TEXT
  5
978C
102
{ACAD_REACTORS
330
978B
102
}
330
747D
100
AcDbEntity
  8
0
 48
2.0
100
AcDbText
 10
5504.756708051672
 20
132.7163888296468
 30
0.0
 40
40.0
  1
蒔
  7
SANWA
100
AcDbText
  0
CIRCLE
  5
978D
102
{ACAD_REACTORS
330
978B
102
}
330
747D
100
AcDbEntity
  8
0
100
AcDbCircle
 10
5532.353865006303
 20
121.52799383
 30
0.0
 40
75.97521057257927
  0
CIRCLE
  5
978E
102
{ACAD_REACTORS
330
978B
102
}
330
747D
100
AcDbEntity
  8
0
100
AcDbCircle
 10
5532.353865006303
 20
121.52799383
 30
0.0
 40
79.97521057257928
  0
TEXT
  5
9792
102
{ACAD_REACTORS
330
9788
102
}
330
747D
100
AcDbEntity
  8
0
 48
2.0
100
AcDbText
 10
5707.082926327506
 20
134.8644897147892
 30
0.0
 40
40.0
  1
大
  7
SANWA
100
AcDbText
  0
HATCH
  5
9794
330
747D
100
AcDbEntity
  8
0
100
AcDbHatch
 10
0.0
 20
0.0
 30
0.0
210
0.0
220
0.0
230
1.0
  2
SOLID
 70
     1
 71
     1
 91
        4
 92
        7
 72
     1
 73
     1
 93
        2
 10
5969.830332726195
 20
350.2396247913265
 42
1.0
 10
5809.879911581037
 20
350.2396247913265
 42
1.0
 97
        1
330
9797
 92
       22
 72
     1
 73
     1
 93
        2
 10
5965.830332726195
 20
350.2396247913265
 42
1.0
 10
5813.879911581037
 20
350.2396247913265
 42
1.0
 97
        1
330
9796
 92
      136
 93
        4
 72
     1
 10
5848.943679484678
 20
343.6332635332586
 11
5934.086536627535
 21
343.6332635332586
 72
     1
 10
5934.086536627535
 20
343.6332635332586
 11
5934.086536627535
 21
423.5189778189729
 72
     1
 10
5934.086536627535
 20
423.5189778189729
 11
5848.943679484678
 21
423.5189778189729
 72
     1
 10
5848.943679484678
 20
423.5189778189729
 11
5848.943679484678
 21
343.6332635332586
 97
        1
330
9795
 92
      136
 93
        4
 72
     1
 10
5848.803061880053
 20
289.6438164847826
 11
5932.345919022909
 21
289.6438164847826
 72
     1
 10
5932.345919022909
 20
289.6438164847826
 11
5932.345919022909
 21
364.729530770497
 72
     1
 10
5932.345919022909
 20
364.729530770497
 11
5848.803061880053
 21
364.729530770497
 72
     1
 10
5848.803061880053
 20
364.729530770497
 11
5848.803061880053
 21
289.6438164847826
 97
        1
330
9784
 75
     0
 76
     1
 47
0.0602706122334892
 98
        2
 10
5928.172265264109
 20
418.9883766259595
 10
5928.172265264109
 20
418.9883766259595
  0
TEXT
  5
9795
102
{ACAD_REACTORS
330
9794
102
}
330
747D
100
AcDbEntity
  8
0
 48
2.0
100
AcDbText
 10
5862.257965198963
 20
363.5761206761157
 30
0.0
 40
40.0
  1
中
  7
SANWA
100
AcDbText
  0
CIRCLE
  5
9796
102
{ACAD_REACTORS
330
9794
102
}
330
747D
100
AcDbEntity
  8
0
100
AcDbCircle
 10
5889.855122153616
 20
350.2396247913265
 30
0.0
 40
75.97521057257927
  0
CIRCLE
  5
9797
102
{ACAD_REACTORS
330
9794
102
}
330
747D
100
AcDbEntity
  8
0
100
AcDbCircle
 10
5889.855122153616
 20
350.2396247913265
 30
0.0
 40
79.97521057257928
  0
LINE
  5
9798
330
747D
100
AcDbEntity
  8
0
100
AcDbLine
 10
5337.553191489337
 20
990.000000000009
 30
0.0
 11
5337.553191489337
 21
870.0000000000045
 31
0.0
  0
LINE
  5
9799
330
747D
100
AcDbEntity
  8
0
100
AcDbLine
 10
5997.553191489351
 20
250.0
 30
0.0
 11
5997.553191489351
 21
990.000000000009
 31
0.0
  0
LINE
  5
979A
330
747D
100
AcDbEntity
  8
0
 62
     0
100
AcDbLine
 10
5337.553191489337
 20
990.000000000009
 30
0.0
 11
7175.0
 21
990.000000000009
 31
0.0
  0
LINE
  5
979B
330
747D
100
AcDbEntity
  8
0
100
AcDbLine
 10
5337.553191489337
 20
510.0000000000022
 30
0.0
 11
7175.0
 21
510.0000000000022
 31
0.0
  0
LINE
  5
979C
330
747D
100
AcDbEntity
  8
0
100
AcDbLine
 10
5997.553191489351
 20
990.000000000009
 30
0.0
 11
6035.462120509079
 21
990.000000000009
 31
0.0
  0
TEXT
  5
979D
330
747D
100
AcDbEntity
  8
0
 48
2.0
100
AcDbText
 10
6016.23849543496
 20
933.9614944784102
 30
0.0
 40
27.99999999999999
  1
品
  7
SANWA
100
AcDbText
  0
TEXT
  5
979E
330
747D
100
AcDbEntity
  8
0
 48
2.0
100
AcDbText
 10
6014.721730996165
 20
868.3271054076499
 30
0.0
 40
27.99999999999999
  1
名
  7
SANWA
100
AcDbText
  0
TEXT
  5
979F
330
747D
100
AcDbEntity
  8
0
 48
2.0
100
AcDbText
 10
6014.605708847351
 20
777.3913655001138
 30
0.0
 40
27.99999999999999
  1
呼
  7
SANWA
100
AcDbText
  0
TEXT
  5
97A0
330
747D
100
AcDbEntity
  8
0
 48
2.0
100
AcDbText
 10
6014.208558144741
 20
739.0543600013415
 30
0.0
 40
27.99999999999999
  1
び
  7
SANWA
100
AcDbText
  0
TEXT
  5
97A1
330
747D
100
AcDbEntity
  8
0
 48
2.0
100
AcDbText
 10
6014.775609774869
 20
699.8772475912232
 30
0.0
 40
27.99999999999999
  1
名
  7
SANWA
100
AcDbText
  0
TEXT
  5
97A2
330
747D
100
AcDbEntity
  8
0
 48
2.0
100
AcDbText
 10
6015.480113215563
 20
601.1410255214627
 30
0.0
 40
27.99999999999999
  1
規
  7
SANWA
100
AcDbText
  0
TEXT
  5
97A3
330
747D
100
AcDbEntity
  8
0
 48
2.0
100
AcDbText
 10
6015.480113215563
 20
541.5684862348939
 30
0.0
 40
27.99999999999999
  1
格
  7
SANWA
100
AcDbText
  0
LINE
  5
97A4
330
747D
100
AcDbEntity
  8
0
 62
     0
100
AcDbLine
 10
5997.553191489351
 20
830.0000000000068
 30
0.0
 11
7175.0
 21
830.0000000000068
 31
0.0
  0
LINE
  5
97A5
330
747D
100
AcDbEntity
  8
0
 62
     0
100
AcDbLine
 10
5997.553191489351
 20
670.0000000000045
 30
0.0
 11
7175.0
 21
670.0000000000045
 31
0.0
  0
LINE
  5
A829
330
747D
100
AcDbEntity
  8
0
 48
25.0
100
AcDbLine
 10
2144.817544531821
 20
3254.619840131078
 30
0.0
 11
2144.817544531821
 21
3199.619840131078
 31
0.0
  0
LINE
  5
A82A
330
747D
100
AcDbEntity
  8
0
 48
25.0
100
AcDbLine
 10
2141.61754453182
 20
3197.619840131078
 30
0.0
 11
2144.817544531821
 21
3199.619840131078
 31
0.0
  0
LINE
  5
A82B
330
747D
100
AcDbEntity
  8
0
 48
25.0
100
AcDbLine
 10
2144.817544531821
 20
3233.119840131077
 30
0.0
 11
2174.81754453182
 21
3233.119840131077
 31
0.0
  0
LINE
  5
A82C
330
747D
100
AcDbEntity
  8
0
 48
25.0
100
AcDbLine
 10
2144.817544531821
 20
3235.119840131078
 30
0.0
 11
2174.81754453182
 21
3235.119840131078
 31
0.0
  0
LINE
  5
A82D
330
747D
100
AcDbEntity
  8
0
 48
25.0
100
AcDbLine
 10
2144.817544531821
 20
3219.119840131078
 30
0.0
 11
2174.81754453182
 21
3219.119840131078
 31
0.0
  0
LINE
  5
A82E
330
747D
100
AcDbEntity
  8
0
 48
25.0
100
AcDbLine
 10
2144.817544531821
 20
3221.119840131078
 30
0.0
 11
2174.81754453182
 21
3221.119840131078
 31
0.0
  0
LINE
  5
A82F
330
747D
100
AcDbEntity
  8
0
 48
25.0
100
AcDbLine
 10
2141.61754453182
 20
3256.619840131078
 30
0.0
 11
2144.817544531821
 21
3254.619840131078
 31
0.0
  0
LINE
  5
A830
330
747D
100
AcDbEntity
  8
0
 48
25.0
100
AcDbLine
 10
2174.81754453182
 20
3237.119840131077
 30
0.0
 11
2174.81754453182
 21
3235.119840131078
 31
0.0
  0
LINE
  5
A831
330
747D
100
AcDbEntity
  8
0
 48
25.0
100
AcDbLine
 10
2174.81754453182
 20
3237.119840131077
 30
0.0
 11
2176.817544531821
 21
3237.119840131077
 31
0.0
  0
LINE
  5
A832
330
747D
100
AcDbEntity
  8
0
 48
25.0
100
AcDbLine
 10
2174.81754453182
 20
3219.119840131078
 30
0.0
 11
2174.81754453182
 21
3217.119840131078
 31
0.0
  0
LINE
  5
A833
330
747D
100
AcDbEntity
  8
0
 48
25.0
100
AcDbLine
 10
2174.81754453182
 20
3217.119840131078
 30
0.0
 11
2176.817544531821
 21
3217.119840131078
 31
0.0
  0
LINE
  5
A834
330
747D
100
AcDbEntity
  8
0
 48
25.0
100
AcDbLine
 10
2176.817544531821
 20
3237.119840131077
 30
0.0
 11
2176.817544531821
 21
3217.119840131078
 31
0.0
  0
LINE
  5
A835
330
747D
100
AcDbEntity
  8
0
 48
25.0
100
AcDbLine
 10
2174.81754453182
 20
3233.119840131077
 30
0.0
 11
2174.81754453182
 21
3221.119840131078
 31
0.0
  0
DIMENSION
  5
A836
330
747D
100
AcDbEntity
  8
寸法引出
 48
20.0
100
AcDbDimension
  2
*D18
 10
2045.273125274956
 20
3227.119840131078
 30
0.0
 11
2005.273125274956
 21
3302.119840131078
 31
0.0
 70
    32
 71
     5
 42
150.0
  3
SANWA
100
AcDbAlignedDimension
 13
2141.61754453182
 23
3377.119840131078
 33
0.0
 14
2141.61754453182
 24
3227.119840131078
 34
0.0
 50
90.0
100
AcDbRotatedDimension
1001
ACAD
1000
DSTYLE
1002
{
1070
    40
1040
20.0
1070
    41
1040
1.5
1070
    43
1040
5.0
1070
    44
1040
0.5
1070
   140
1040
2.0
1070
   147
1040
1.0
1070
   176
1070
   256
1070
   177
1070
   256
1070
   178
1070
   256
1002
}
  0
LINE
  5
A84C
330
747D
100
AcDbEntity
  8
0
 48
25.0
100
AcDbLine
 10
2658.41754453182
 20
3221.119840131078
 30
0.0
 11
2628.417544531819
 21
3221.119840131078
 31
0.0
  0
LINE
  5
A84D
330
747D
100
AcDbEntity
  8
0
 48
25.0
100
AcDbLine
 10
2658.41754453182
 20
3219.119840131078
 30
0.0
 11
2628.417544531819
 21
3219.119840131078
 31
0.0
  0
LINE
  5
A84E
330
747D
100
AcDbEntity
  8
0
 48
25.0
100
AcDbLine
 10
2658.41754453182
 20
3235.119840131078
 30
0.0
 11
2628.417544531819
 21
3235.119840131078
 31
0.0
  0
LINE
  5
A84F
330
747D
100
AcDbEntity
  8
0
 48
25.0
100
AcDbLine
 10
2658.41754453182
 20
3233.119840131077
 30
0.0
 11
2628.417544531819
 21
3233.119840131077
 31
0.0
  0
LINE
  5
A850
330
747D
100
AcDbEntity
  8
0
 48
25.0
100
AcDbLine
 10
2658.41754453182
 20
3254.619840131078
 30
0.0
 11
2658.41754453182
 21
3199.619840131078
 31
0.0
  0
LINE
  5
A851
330
747D
100
AcDbEntity
  8
0
 48
25.0
100
AcDbLine
 10
2661.61754453182
 20
3197.619840131078
 30
0.0
 11
2658.41754453182
 21
3199.619840131078
 31
0.0
  0
LINE
  5
A852
330
747D
100
AcDbEntity
  8
0
 48
25.0
100
AcDbLine
 10
2661.61754453182
 20
3256.619840131078
 30
0.0
 11
2658.41754453182
 21
3254.619840131078
 31
0.0
  0
LINE
  5
A853
330
747D
100
AcDbEntity
  8
0
 48
25.0
100
AcDbLine
 10
2628.417544531819
 20
3233.119840131077
 30
0.0
 11
2628.417544531819
 21
3221.119840131078
 31
0.0
  0
LINE
  5
A854
330
747D
100
AcDbEntity
  8
0
 48
25.0
100
AcDbLine
 10
2626.41754453182
 20
3237.119840131077
 30
0.0
 11
2626.41754453182
 21
3217.119840131078
 31
0.0
  0
LINE
  5
A855
330
747D
100
AcDbEntity
  8
0
 48
25.0
100
AcDbLine
 10
2628.417544531819
 20
3217.119840131078
 30
0.0
 11
2626.41754453182
 21
3217.119840131078
 31
0.0
  0
LINE
  5
A856
330
747D
100
AcDbEntity
  8
0
 48
25.0
100
AcDbLine
 10
2628.417544531819
 20
3219.119840131078
 30
0.0
 11
2628.417544531819
 21
3217.119840131078
 31
0.0
  0
LINE
  5
A857
330
747D
100
AcDbEntity
  8
0
 48
25.0
100
AcDbLine
 10
2628.417544531819
 20
3237.119840131077
 30
0.0
 11
2626.41754453182
 21
3237.119840131077
 31
0.0
  0
LINE
  5
A858
330
747D
100
AcDbEntity
  8
0
 48
25.0
100
AcDbLine
 10
2628.417544531819
 20
3237.119840131077
 30
0.0
 11
2628.417544531819
 21
3235.119840131078
 31
0.0
  0
DIMENSION
  5
A859
330
747D
100
AcDbEntity
  8
寸法引出
 48
20.0
100
AcDbDimension
  2
*D20
 10
4042.719130171122
 20
3227.119840131078
 30
0.0
 11
4002.719130171121
 21
3302.119840131078
 31
0.0
 70
    32
 71
     5
 42
150.0
  3
SANWA
100
AcDbAlignedDimension
 13
4129.625007866545
 23
3377.119840131078
 33
0.0
 14
4129.625007866545
 24
3227.119840131078
 34
0.0
 50
90.0
100
AcDbRotatedDimension
1001
ACAD
1000
DSTYLE
1002
{
1070
    40
1040
20.0
1070
    41
1040
1.5
1070
    43
1040
5.0
1070
    44
1040
0.5
1070
   140
1040
2.0
1070
   147
1040
1.0
1070
   176
1070
   256
1070
   177
1070
   256
1070
   178
1070
   256
1002
}
  0
DIMENSION
  5
A85A
330
747D
100
AcDbEntity
  8
寸法引出
 48
25.0
100
AcDbDimension
  2
*D19
 10
4179.625007866545
 20
3282.178331068431
 30
0.0
 11
4154.625007866544
 21
3322.178331068431
 31
0.0
 70
    32
 71
     5
 42
50.0
  3
SANWA
100
AcDbAlignedDimension
 13
4129.625007866545
 23
3251.619840131078
 33
0.0
 14
4179.625007866545
 24
3227.119840131078
 34
0.0
100
AcDbRotatedDimension
1001
ACAD
1000
DSTYLE
1002
{
1070
    40
1040
20.0
1070
    41
1040
1.5
1070
    43
1040
5.0
1070
    44
1040
0.5
1070
   140
1040
2.0
1070
   147
1040
1.0
1070
   176
1070
   256
1070
   177
1070
   256
1070
   178
1070
   256
1002
}
  0
CIRCLE
  5
A85B
330
747D
100
AcDbEntity
  8
0
 48
25.0
100
AcDbCircle
 10
4179.625007866545
 20
3227.119840131078
 30
0.0
 40
6.0
  0
LINE
  5
A88A
330
747D
100
AcDbEntity
  8
0
 48
25.0
100
AcDbLine
 10
6042.625007866547
 20
3256.619840131078
 30
0.0
 11
6042.625007866549
 21
3197.619840131078
 31
0.0
  0
LINE
  5
A88B
330
747D
100
AcDbEntity
  8
0
 48
25.0
100
AcDbLine
 10
6044.625007866549
 20
3254.619840131078
 30
0.0
 11
6044.625007866547
 21
3199.619840131078
 31
0.0
  0
LINE
  5
A88C
330
747D
100
AcDbEntity
  8
0
 48
25.0
100
AcDbLine
 10
6129.625007866545
 20
3197.619840131078
 30
0.0
 11
6042.625007866549
 21
3197.619840131078
 31
0.0
  0
LINE
  5
A88D
330
747D
100
AcDbEntity
  8
0
 48
25.0
100
AcDbLine
 10
6129.625007866545
 20
3199.619840131078
 30
0.0
 11
6044.625007866547
 21
3199.619840131078
 31
0.0
  0
LINE
  5
A88E
330
747D
100
AcDbEntity
  8
0
 48
25.0
100
AcDbLine
 10
6042.625007866549
 20
3197.619840131078
 30
0.0
 11
6044.625007866547
 21
3199.619840131078
 31
0.0
  0
LINE
  5
A88F
330
747D
100
AcDbEntity
  8
0
 48
25.0
100
AcDbLine
 10
6129.625007866545
 20
3256.619840131078
 30
0.0
 11
6042.625007866547
 21
3256.619840131078
 31
0.0
  0
LINE
  5
A890
330
747D
100
AcDbEntity
  8
0
 48
25.0
100
AcDbLine
 10
6129.625007866545
 20
3254.619840131078
 30
0.0
 11
6044.625007866549
 21
3254.619840131078
 31
0.0
  0
LINE
  5
A891
330
747D
100
AcDbEntity
  8
0
 48
25.0
100
AcDbLine
 10
6042.625007866547
 20
3256.619840131078
 30
0.0
 11
6044.625007866549
 21
3254.619840131078
 31
0.0
  0
CIRCLE
  5
A892
330
747D
100
AcDbEntity
  8
0
 48
25.0
100
AcDbCircle
 10
6079.625007866545
 20
3227.119840131078
 30
0.0
 40
6.0
  0
LINE
  5
A893
330
747D
100
AcDbEntity
  8
0
100
AcDbLine
 10
1812.235198891659
 20
1348.593764391155
 30
0.0
 11
2370.178755122222
 21
1348.593764391155
 31
0.0
  0
TEXT
  5
A894
330
747D
100
AcDbEntity
  8
0
100
AcDbText
 10
1829.703195825833
 20
1368.672039008273
 30
0.0
 40
60.0
  1
継手部詳細図
  7
SANWA
 72
     4
 11
2093.017481540119
 21
1399.357753293987
 31
0.0
100
AcDbText
  0
MTEXT
  5
A895
330
747D
100
AcDbEntity
  8
寸法引出
 48
25.0
100
AcDbMText
 10
1912.138017486453
 20
933.8225656577456
 30
0.0
 40
40.0
 41
0.0
 71
     5
 72
     1
  1
\A1;2
  7
SANWA
 11
0.0000000000000001
 21
1.0
 31
0.0
 73
     1
 44
1.0
  0
DIMENSION
  5
A896
330
747D
100
AcDbEntity
  8
寸法引出
 48
25.0
100
AcDbDimension
  2
*D24
 10
1805.463170910156
 20
979.8306408039156
 30
0.0
 11
1802.463170910155
 21
1019.830640803915
 31
0.0
 70
    32
  1
2
 71
     5
 42
6.0
  3
SANWA
100
AcDbAlignedDimension
 13
1799.463170910155
 23
899.4230011852982
 33
0.0
 14
1805.463170910156
 24
905.4230011852983
 34
0.0
100
AcDbRotatedDimension
1001
ACAD
1000
DSTYLE
1002
{
1070
   279
1070
     1
1070
    40
1040
20.0
1070
    41
1040
1.5
1070
    43
1040
5.0
1070
    44
1040
0.5
1070
   140
1040
2.0
1070
   147
1040
1.0
1070
   176
1070
   256
1070
   177
1070
   256
1070
   178
1070
   256
1002
}
  0
SOLID
  5
A897
330
747D
100
AcDbEntity
  8
寸法引出
 48
25.0
100
AcDbTrace
 10
1947.138017486453
 20
935.4230011852983
 30
0.0
 11
1957.138017486453
 21
935.4230011852983
 31
0.0
 12
1952.138017486453
 22
905.4230011852983
 32
0.0
 13
1952.138017486453
 23
905.4230011852983
 33
0.0
  0
LINE
  5
A898
330
747D
100
AcDbEntity
  8
0
 48
25.0
100
AcDbLine
 10
1544.463170910155
 20
1055.423001185298
 30
0.0
 11
1544.46317091015
 21
578.4230011852982
 31
0.0
  0
DIMENSION
  5
A899
330
747D
100
AcDbEntity
  8
寸法引出
 48
25.0
100
AcDbDimension
  2
*D22
 10
1799.463170910155
 20
979.8306408039156
 30
0.0
 11
1671.963170910156
 21
1019.830640803915
 31
0.0
 70
    32
  1
85
 71
     5
 42
255.0
  3
SANWA
100
AcDbAlignedDimension
 13
1544.463170910155
 23
905.4230011852983
 33
0.0
 14
1799.463170910155
 24
899.4230011852982
 34
0.0
100
AcDbRotatedDimension
1001
ACAD
1000
DSTYLE
1002
{
1070
    40
1040
20.0
1070
    41
1040
1.5
1070
    43
1040
5.0
1070
    44
1040
0.5
1070
   140
1040
2.0
1070
   147
1040
1.0
1070
   176
1070
   256
1070
   177
1070
   256
1070
   178
1070
   256
1002
}
  0
DIMENSION
  5
A89A
330
747D
100
AcDbEntity
  8
寸法引出
 48
25.0
100
AcDbDimension
  2
*D23
 10
1952.138017486453
 20
899.4230011852982
 30
0.0
 11
1912.138017486453
 21
816.9230011852986
 31
0.0
 70
    32
  1
55
 71
     5
 42
165.0
  3
SANWA
100
AcDbAlignedDimension
 13
1799.463170910161
 23
734.4230011852983
 33
0.0
 14
1799.463170910155
 24
899.4230011852982
 34
0.0
 50
90.0
100
AcDbRotatedDimension
1001
ACAD
1000
DSTYLE
1002
{
1070
   279
1070
     1
1070
    40
1040
20.0
1070
    41
1040
1.5
1070
    43
1040
5.0
1070
    44
1040
0.5
1070
   140
1040
2.0
1070
   147
1040
1.0
1070
   176
1070
   256
1070
   177
1070
   256
1070
   178
1070
   256
1002
}
  0
DIMENSION
  5
A89B
330
747D
100
AcDbEntity
  8
寸法引出
 48
25.0
100
AcDbDimension
  2
*D21
 10
1694.463170910156
 20
634.7522993106381
 30
0.0
 11
1619.463170910156
 21
674.7522993106381
 31
0.0
 70
    32
  1
50
 71
     5
 42
150.0
  3
SANWA
100
AcDbAlignedDimension
 13
1544.463170910155
 23
728.4230011852983
 33
0.0
 14
1694.463170910156
 24
816.9230011852983
 34
0.0
100
AcDbRotatedDimension
1001
ACAD
1000
DSTYLE
1002
{
1070
    40
1040
20.0
1070
    41
1040
1.5
1070
    43
1040
5.0
1070
    44
1040
0.5
1070
   140
1040
2.0
1070
   147
1040
1.0
1070
   176
1070
   256
1070
   177
1070
   256
1070
   178
1070
   256
1002
}
  0
LINE
  5
A89C
330
747D
100
AcDbEntity
  8
0
 48
25.0
100
AcDbLine
 10
1544.463170910155
 20
734.4230011852983
 30
0.0
 11
1799.463170910161
 21
734.4230011852983
 31
0.0
  0
LINE
  5
A89D
330
747D
100
AcDbEntity
  8
0
 48
25.0
100
AcDbLine
 10
1544.463170910155
 20
728.4230011852983
 30
0.0
 11
1805.463170910156
 21
728.4230011852983
 31
0.0
  0
LINE
  5
A89E
330
747D
100
AcDbEntity
  8
0
 48
25.0
100
AcDbLine
 10
1544.463170910155
 20
899.4230011852982
 30
0.0
 11
1799.463170910155
 21
899.4230011852982
 31
0.0
  0
LINE
  5
A89F
330
747D
100
AcDbEntity
  8
0
 48
25.0
100
AcDbLine
 10
1544.463170910155
 20
905.4230011852983
 30
0.0
 11
1805.463170910156
 21
905.4230011852983
 31
0.0
  0
LINE
  5
A8A0
330
747D
100
AcDbEntity
  8
0
 48
25.0
100
AcDbLine
 10
1805.463170910156
 20
905.4230011852983
 30
0.0
 11
1805.463170910156
 21
728.4230011852983
 31
0.0
  0
LINE
  5
A8A1
330
747D
100
AcDbEntity
  8
0
 48
25.0
100
AcDbLine
 10
1799.463170910155
 20
899.4230011852982
 30
0.0
 11
1799.463170910161
 21
734.4230011852983
 31
0.0
  0
CIRCLE
  5
A8A2
330
747D
100
AcDbEntity
  8
0
 48
25.0
100
AcDbCircle
 10
1694.463170910156
 20
816.9230011852983
 30
0.0
 40
18.0
  0
LINE
  5
A8A3
330
747D
100
AcDbEntity
  8
0
 48
25.0
100
AcDbLine
 10
1799.463170910161
 20
734.4230011852983
 30
0.0
 11
1805.463170910156
 21
728.4230011852983
 31
0.0
  0
LINE
  5
A8A4
330
747D
100
AcDbEntity
  8
0
 48
25.0
100
AcDbLine
 10
1799.463170910155
 20
899.4230011852982
 30
0.0
 11
1805.463170910156
 21
905.4230011852983
 31
0.0
  0
LINE
  5
A8A5
330
747D
100
AcDbEntity
  8
寸法引出
 48
25.0
100
AcDbLine
 10
1952.138017486453
 20
698.4230011852982
 30
0.0
 11
1952.138017486453
 21
668.4230011852982
 31
0.0
  0
MTEXT
  5
A8A6
330
747D
100
AcDbEntity
  8
寸法引出
 48
25.0
100
AcDbMText
 10
1912.138017486453
 20
697.8579741153776
 30
0.0
 40
40.0
 41
0.0
 71
     5
 72
     1
  1
\A1;2
  7
SANWA
 11
0.0000000000000001
 21
1.0
 31
0.0
 73
     1
 44
1.0
  0
LINE
  5
A8A7
330
747D
100
AcDbEntity
  8
寸法引出
 48
25.0
100
AcDbLine
 10
1825.463170910156
 20
728.4230011852983
 30
0.0
 11
1962.138017486453
 21
728.4230011852983
 31
0.0
  0
LINE
  5
A8A8
330
747D
100
AcDbEntity
  8
寸法引出
 48
25.0
100
AcDbLine
 10
1819.463170910161
 20
734.4230011852983
 30
0.0
 11
1962.138017486453
 21
734.4230011852983
 31
0.0
  0
LINE
  5
A8A9
330
747D
100
AcDbEntity
  8
寸法引出
 48
25.0
100
AcDbLine
 10
1819.463170910156
 20
899.4230011852982
 30
0.0
 11
1962.138017486453
 21
899.4230011852982
 31
0.0
  0
LINE
  5
A8AA
330
747D
100
AcDbEntity
  8
寸法引出
 48
25.0
100
AcDbLine
 10
1825.463170910156
 20
905.4230011852983
 30
0.0
 11
1962.138017486453
 21
905.4230011852983
 31
0.0
  0
LINE
  5
A8AB
330
747D
100
AcDbEntity
  8
寸法引出
 48
25.0
100
AcDbLine
 10
1952.138017486453
 20
764.4230011852982
 30
0.0
 11
1952.138017486453
 21
809.4230011852982
 31
0.0
  0
LINE
  5
A8AC
330
747D
100
AcDbEntity
  8
寸法引出
 48
25.0
100
AcDbLine
 10
1952.138017486453
 20
728.4230011852983
 30
0.0
 11
1952.138017486453
 21
734.4230011852983
 31
0.0
  0
SOLID
  5
A8AD
330
747D
100
AcDbEntity
  8
寸法引出
 48
25.0
100
AcDbTrace
 10
1947.138017486453
 20
764.4230011852982
 30
0.0
 11
1957.138017486453
 21
764.4230011852982
 31
0.0
 12
1952.138017486453
 22
734.4230011852983
 32
0.0
 13
1952.138017486453
 23
734.4230011852983
 33
0.0
  0
SOLID
  5
A8AE
330
747D
100
AcDbEntity
  8
寸法引出
 48
25.0
100
AcDbTrace
 10
1947.138017486453
 20
698.4230011852982
 30
0.0
 11
1957.138017486453
 21
698.4230011852982
 31
0.0
 12
1952.138017486453
 22
728.4230011852983
 32
0.0
 13
1952.138017486453
 23
728.4230011852983
 33
0.0
  0
LINE
  5
A8AF
330
747D
100
AcDbEntity
  8
寸法引出
 48
25.0
100
AcDbLine
 10
1952.138017486453
 20
869.4230011852983
 30
0.0
 11
1952.138017486453
 21
824.4230011852982
 31
0.0
  0
LINE
  5
A8B0
330
747D
100
AcDbEntity
  8
寸法引出
 48
25.0
100
AcDbLine
 10
1952.138017486453
 20
899.4230011852982
 30
0.0
 11
1952.138017486453
 21
905.4230011852983
 31
0.0
  0
SOLID
  5
A8B1
330
747D
100
AcDbEntity
  8
寸法引出
 48
25.0
100
AcDbTrace
 10
1947.138017486453
 20
869.4230011852983
 30
0.0
 11
1957.138017486453
 21
869.4230011852983
 31
0.0
 12
1952.138017486453
 22
899.4230011852982
 32
0.0
 13
1952.138017486453
 23
899.4230011852982
 33
0.0
  0
LINE
  5
A8B2
330
747D
100
AcDbEntity
  8
寸法引出
 48
25.0
100
AcDbLine
 10
1952.138017486453
 20
935.4230011852983
 30
0.0
 11
1952.138017486453
 21
965.4230011852982
 31
0.0
  0
LEADER
  5
A8B3
330
747D
100
AcDbEntity
  8
寸法引出
 48
25.0
100
AcDbLeader
  3
SANWA
 76
     3
 10
2432.140225154013
 20
840.923001185301
 30
0.0
 10
2477.724048408846
 20
933.6936417503334
 30
0.0
 10
2848.656073061109
 20
933.6936417503334
 30
0.0
1001
ACAD
1000
DSTYLE
1002
{
1070
    77
1070
     0
1070
    40
1040
20.0
1070
    41
1040
1.5
1070
    43
1040
5.0
1070
    44
1040
0.5
1070
   140
1040
2.0
1070
   147
1040
1.0
1070
   176
1070
   256
1070
   177
1070
   256
1070
   178
1070
   256
1002
}
  0
LINE
  5
A8B4
330
747D
100
AcDbEntity
  8
寸法引出
 48
25.0
100
AcDbLine
 10
2271.645501236967
 20
1147.569351107972
 30
0.0
 11
2271.645501236969
 21
846.9230011852982
 31
0.0
  0
LINE
  5
A8B5
330
747D
100
AcDbEntity
  8
0
 48
25.0
100
AcDbLine
 10
2377.54022515401
 20
1162.569351107972
 30
0.0
 11
2377.54022515401
 21
905.4230011852983
 31
0.0
  0
MTEXT
  5
A8B6
330
747D
100
AcDbEntity
  8
寸法引出
 48
25.0
100
AcDbMText
 10
2231.64550123697
 20
989.8995000096478
 30
0.0
 40
40.0
 41
0.0
 71
     5
 72
     1
  1
天端より150
  7
SANWA
 11
0.0000000000000001
 21
1.0
 31
0.0
 73
     1
 44
1.0
  0
LINE
  5
A8B7
330
747D
100
AcDbEntity
  8
0
  6
CENTER2
 48
10.0
100
AcDbLine
 10
2357.140225154013
 20
816.9230011852983
 30
0.0
 11
2513.140225154013
 21
816.9230011852983
 31
0.0
  0
LINE
  5
A8B8
330
747D
100
AcDbEntity
  8
0
 48
25.0
100
AcDbLine
 10
2387.140225154012
 20
834.9230011853009
 30
0.0
 11
2477.140225154013
 21
834.9230011853009
 31
0.0
  0
LINE
  5
A8B9
330
747D
100
AcDbEntity
  8
0
 48
25.0
100
AcDbLine
 10
2387.140225154012
 20
840.923001185301
 30
0.0
 11
2477.140225154013
 21
840.923001185301
 31
0.0
  0
LINE
  5
A8BA
330
747D
100
AcDbEntity
  8
0
 48
25.0
100
AcDbLine
 10
2387.140225154012
 20
798.923001185301
 30
0.0
 11
2477.140225154013
 21
798.923001185301
 31
0.0
  0
LINE
  5
A8BB
330
747D
100
AcDbEntity
  8
0
 48
25.0
100
AcDbLine
 10
2387.140225154012
 20
792.923001185301
 30
0.0
 11
2477.140225154013
 21
792.923001185301
 31
0.0
  0
DIMENSION
  5
A8BC
330
747D
100
AcDbEntity
  8
寸法引出
 48
25.0
100
AcDbDimension
  2
*D25
 10
2387.140225154012
 20
639.8224177516917
 30
0.0
 11
2382.340225154012
 21
679.8224177516917
 31
0.0
 70
    32
  1
3.2
 71
     5
 42
9.600000000002182
  3
SANWA
100
AcDbAlignedDimension
 13
2377.54022515401
 23
728.4230011852983
 33
0.0
 14
2387.140225154012
 24
734.4230011852983
 34
0.0
100
AcDbRotatedDimension
1001
ACAD
1000
DSTYLE
1002
{
1070
    40
1040
20.0
1070
    41
1040
1.5
1070
    43
1040
5.0
1070
    44
1040
0.5
1070
   140
1040
2.0
1070
   147
1040
1.0
1070
   176
1070
   256
1070
   177
1070
   256
1070
   178
1070
   256
1002
}
  0
LINE
  5
A8BD
330
747D
100
AcDbEntity
  8
0
 48
25.0
100
AcDbLine
 10
2377.54022515401
 20
728.4230011852983
 30
0.0
 11
2377.540225154005
 21
578.4230011852982
 31
0.0
  0
LINE
  5
A8BE
330
747D
100
AcDbEntity
  8
0
 48
25.0
100
AcDbLine
 10
2387.140225154012
 20
899.4230011852982
 30
0.0
 11
2387.140225154012
 21
734.4230011852983
 31
0.0
  0
LINE
  5
A8BF
330
747D
100
AcDbEntity
  8
0
 48
25.0
100
AcDbLine
 10
2387.140225154007
 20
734.4230011852983
 30
0.0
 11
2377.540225154005
 21
728.4230011852983
 31
0.0
  0
LINE
  5
A8C0
330
747D
100
AcDbEntity
  8
寸法引出
 48
25.0
100
AcDbLine
 10
2337.140225154012
 20
816.9230011852983
 30
0.0
 11
2261.645501236969
 21
816.9230011852983
 31
0.0
  0
SOLID
  5
A8C1
330
747D
100
AcDbEntity
  8
寸法引出
 48
25.0
100
AcDbTrace
 10
2266.64550123697
 20
846.9230011852982
 30
0.0
 11
2276.645501236969
 21
846.9230011852982
 31
0.0
 12
2271.645501236969
 22
816.9230011852983
 32
0.0
 13
2271.645501236969
 23
816.9230011852983
 33
0.0
  0
LINE
  5
A8C2
330
747D
100
AcDbEntity
  8
0
 48
25.0
100
AcDbLine
 10
2377.54022515401
 20
905.4230011852983
 30
0.0
 11
2387.140225154012
 21
899.4230011852982
 31
0.0
  0
LINE
  5
A8C3
330
747D
100
AcDbEntity
  8
0
 48
25.0
100
AcDbLine
 10
2483.140225154013
 20
846.923001185301
 30
0.0
 11
2483.140225154013
 21
786.923001185301
 31
0.0
  0
LINE
  5
A8C4
330
747D
100
AcDbEntity
  8
0
 48
25.0
100
AcDbLine
 10
2477.140225154013
 20
834.9230011853009
 30
0.0
 11
2477.140225154013
 21
798.923001185301
 31
0.0
  0
LINE
  5
A8C5
330
747D
100
AcDbEntity
  8
0
 48
25.0
100
AcDbLine
 10
2477.140225154013
 20
792.923001185301
 30
0.0
 11
2477.140225154013
 21
786.923001185301
 31
0.0
  0
LINE
  5
A8C6
330
747D
100
AcDbEntity
  8
0
 48
25.0
100
AcDbLine
 10
2477.140225154013
 20
786.923001185301
 30
0.0
 11
2483.140225154013
 21
786.923001185301
 31
0.0
  0
LINE
  5
A8C7
330
747D
100
AcDbEntity
  8
0
 48
25.0
100
AcDbLine
 10
2477.140225154013
 20
846.923001185301
 30
0.0
 11
2477.140225154013
 21
840.923001185301
 31
0.0
  0
LINE
  5
A8C8
330
747D
100
AcDbEntity
  8
0
 48
25.0
100
AcDbLine
 10
2477.140225154013
 20
846.923001185301
 30
0.0
 11
2483.140225154013
 21
846.923001185301
 31
0.0
  0
MTEXT
  5
A8C9
330
747D
100
AcDbEntity
  8
寸法引出
 48
25.0
100
AcDbMText
 10
2662.998725132904
 20
965.0051803114934
 30
0.0
 40
40.0
 41
0.0
 71
     5
 72
     1
  1
ｲﾝｻｰﾄM12×32
  7
SANWA
 73
     1
 44
1.0
  0
LINE
  5
AD7D
330
747D
100
AcDbEntity
  8
0
 48
25.0
100
AcDbLine
 10
2201.61754453182
 20
3377.119840131078
 30
0.0
 11
2201.61754453182
 21
3327.119840131078
 31
0.0
  0
LINE
  5
AD7F
330
747D
100
AcDbEntity
  8
0
 48
25.0
100
AcDbLine
 10
2201.61754453182
 20
3327.119840131078
 30
0.0
 11
2229.133557252641
 21
2547.49947970783
 31
0.0
  0
LINE
  5
AD81
330
747D
100
AcDbEntity
  8
0
 48
25.0
100
AcDbLine
 10
2601.61754453182
 20
3327.119840131078
 30
0.0
 11
2574.101531810999
 21
2547.49947970783
 31
0.0
  0
LINE
  5
AD83
330
747D
100
AcDbEntity
  8
0
 48
25.0
100
AcDbLine
 10
2601.61754453182
 20
3377.119840131078
 30
0.0
 11
2601.61754453182
 21
3327.119840131078
 31
0.0
  0
ARC
  5
AD85
330
747D
100
AcDbEntity
  8
0
 48
25.0
100
AcDbCircle
 10
2401.61754453182
 20
2877.119840131079
 30
0.0
 40
400.0
100
AcDbArc
 50
249.5100460389021
 51
290.4899539610979
  0
ARC
  5
AD87
330
747D
100
AcDbEntity
  8
0
 48
25.0
100
AcDbCircle
 10
2279.102444448439
 20
2549.263087491211
 30
0.0
 40
50.0
100
AcDbArc
 50
182.0213649403562
 51
249.5100460389021
  0
ARC
  5
AD88
330
747D
100
AcDbEntity
  8
0
 48
25.0
100
AcDbCircle
 10
2524.132644615201
 20
2549.263087491211
 30
0.0
 40
50.0
100
AcDbArc
 50
290.4899539610977
 51
357.9786350596437
  0
DIMENSION
  5
ADF0
330
747D
100
AcDbEntity
  8
寸法引出
 48
25.0
100
AcDbDimension
  2
*D26
 10
4004.910989097704
 20
579.6906616452779
 30
0.0
 11
3944.910989097705
 21
629.6906616452779
 31
0.0
 70
    32
  1
12
 71
     5
 42
120.0
  3
SANWA
100
AcDbAlignedDimension
 13
3884.910989097705
 23
885.9544396325455
 33
0.0
 14
4004.910989097704
 24
885.9544396325455
 34
0.0
100
AcDbRotatedDimension
1001
ACAD
1000
DSTYLE
1002
{
1070
    40
1040
25.0
1070
    41
1040
1.5
1070
    43
1040
5.0
1070
    44
1040
0.5
1070
   140
1040
2.0
1070
   147
1040
1.0
1070
   176
1070
   256
1070
   177
1070
   256
1070
   178
1070
   256
1002
}
  0
DIMENSION
  5
ADF1
330
747D
100
AcDbEntity
  8
寸法引出
 48
25.0
100
AcDbDimension
  2
*D27
 10
4244.910989097705
 20
579.6906616452779
 30
0.0
 11
4124.910989097705
 21
629.6906616452779
 31
0.0
 70
    32
  1
24
 71
     5
 42
240.0
  3
SANWA
100
AcDbAlignedDimension
 13
4004.910989097704
 23
885.9544396325455
 33
0.0
 14
4244.910989097705
 24
885.9544396325455
 34
0.0
100
AcDbRotatedDimension
1001
ACAD
1000
DSTYLE
1002
{
1070
   279
1070
     1
1070
    40
1040
25.0
1070
    41
1040
1.5
1070
    43
1040
5.0
1070
    44
1040
0.5
1070
   140
1040
2.0
1070
   147
1040
1.0
1070
   176
1070
   256
1070
   177
1070
   256
1070
   178
1070
   256
1002
}
  0
DIMENSION
  5
ADF2
330
747D
100
AcDbEntity
  8
寸法引出
 48
25.0
100
AcDbDimension
  2
*D28
 10
3644.910989097705
 20
579.6906616452779
 30
0.0
 11
3764.910989097705
 21
629.6906616452779
 31
0.0
 70
    32
  1
24
 71
     5
 42
240.0
  3
SANWA
100
AcDbAlignedDimension
 13
3884.910989097705
 23
885.9544396325455
 33
0.0
 14
3644.910989097705
 24
885.9544396325455
 34
0.0
100
AcDbRotatedDimension
1001
ACAD
1000
DSTYLE
1002
{
1070
    40
1040
25.0
1070
    41
1040
1.5
1070
    43
1040
5.0
1070
    44
1040
0.5
1070
   140
1040
2.0
1070
   147
1040
1.0
1070
   176
1070
   256
1070
   177
1070
   256
1070
   178
1070
   256
1002
}
  0
LINE
  5
ADF3
330
747D
100
AcDbEntity
  8
0
100
AcDbLine
 10
3644.749393849015
 20
1335.591674616111
 30
0.0
 11
4202.692950079578
 21
1335.591674616111
 31
0.0
  0
TEXT
  5
ADF4
330
747D
100
AcDbEntity
  8
0
100
AcDbText
 10
3662.217390783188
 20
1355.327092090371
 30
0.0
 40
60.0
  1
目地部詳細図
  7
SANWA
 72
     4
 11
3925.531676497474
 21
1386.355663518943
 31
0.0
100
AcDbText
  0
LINE
  5
ADF5
330
747D
100
AcDbEntity
  8
0
 48
25.0
100
AcDbLine
 10
3644.910989097705
 20
885.9544396325455
 30
0.0
 11
3884.910989097705
 21
885.9544396325455
 31
0.0
  0
LINE
  5
ADF6
330
747D
100
AcDbEntity
  8
0
 48
25.0
100
AcDbLine
 10
3644.910989097741
 20
1117.485574496468
 30
0.0
 11
3644.910989097705
 21
885.9544396325455
 31
0.0
  0
DIMENSION
  5
ADF7
330
747D
100
AcDbEntity
  8
寸法引出
 48
25.0
100
AcDbDimension
  2
*D29
 10
3813.415744571634
 20
945.9544396325455
 30
0.0
 11
3763.415744571634
 21
915.9544396325461
 31
0.0
 70
    32
  1
6
 71
     5
 42
60.0
  3
SANWA
100
AcDbAlignedDimension
 13
3884.910989097705
 23
885.9544396325455
 33
0.0
 14
3904.910989097705
 24
945.9544396325455
 34
0.0
 50
90.0
100
AcDbRotatedDimension
1001
ACAD
1000
DSTYLE
1002
{
1070
    40
1040
25.0
1070
    41
1040
1.5
1070
    43
1040
5.0
1070
    44
1040
0.5
1070
   140
1040
2.0
1070
   147
1040
1.0
1070
   176
1070
   256
1070
   177
1070
   256
1070
   178
1070
   256
1002
}
  0
DIMENSION
  5
ADF8
330
747D
100
AcDbEntity
  8
寸法引出
 48
25.0
100
AcDbDimension
  2
*D30
 10
3984.910989097705
 20
707.2232375188341
 30
0.0
 11
3944.910989097705
 21
757.2232375188341
 31
0.0
 70
    32
  1
8
 71
     5
 42
80.0
  3
SANWA
100
AcDbAlignedDimension
 13
3904.910989097705
 23
945.9544396325455
 33
0.0
 14
3984.910989097705
 24
945.9544396325455
 34
0.0
100
AcDbRotatedDimension
1001
ACAD
1000
DSTYLE
1002
{
1070
   279
1070
     1
1070
    40
1040
25.0
1070
    41
1040
1.5
1070
    43
1040
5.0
1070
    44
1040
0.5
1070
   140
1040
2.0
1070
   147
1040
1.0
1070
   176
1070
   256
1070
   177
1070
   256
1070
   178
1070
   256
1002
}
  0
LINE
  5
ADF9
330
747D
100
AcDbEntity
  8
寸法引出
 48
25.0
100
AcDbLine
 10
3904.910989097705
 20
920.9544396325455
 30
0.0
 11
3904.910989097705
 21
694.7232375188341
 31
0.0
  0
LINE
  5
ADFA
330
747D
100
AcDbEntity
  8
寸法引出
 48
25.0
100
AcDbLine
 10
3984.910989097705
 20
920.9544396325455
 30
0.0
 11
3984.910989097705
 21
694.7232375188341
 31
0.0
  0
SOLID
  5
ADFB
330
747D
100
AcDbEntity
  8
寸法引出
 48
25.0
100
AcDbTrace
 10
4042.410989097705
 20
713.4732375188341
 30
0.0
 11
4042.410989097705
 21
700.9732375188341
 31
0.0
 12
4004.910989097704
 22
707.2232375188341
 32
0.0
 13
4004.910989097704
 23
707.2232375188341
 33
0.0
  0
LINE
  5
ADFC
330
747D
100
AcDbEntity
  8
寸法引出
 48
25.0
100
AcDbLine
 10
3884.910989097705
 20
860.9544396325455
 30
0.0
 11
3884.910989097705
 21
694.7232375188341
 31
0.0
  0
MTEXT
  5
ADFD
330
747D
100
AcDbEntity
  8
寸法引出
 48
25.0
100
AcDbMText
 10
3842.952216478523
 20
757.2232375188341
 30
0.0
 40
50.0
 41
0.0
 71
     5
 72
     1
  1
\A1;2
  7
SANWA
 73
     1
 44
1.0
  0
LINE
  5
ADFE
330
747D
100
AcDbEntity
  8
寸法引出
 48
25.0
100
AcDbLine
 10
4004.910989097704
 20
860.9544396325455
 30
0.0
 11
4004.910989097704
 21
694.7232375188341
 31
0.0
  0
SOLID
  5
ADFF
330
747D
100
AcDbEntity
  8
寸法引出
 48
25.0
100
AcDbTrace
 10
3847.410989097705
 20
713.4732375188341
 30
0.0
 11
3847.410989097705
 21
700.9732375188341
 31
0.0
 12
3884.910989097705
 22
707.2232375188341
 32
0.0
 13
3884.910989097705
 23
707.2232375188341
 33
0.0
  0
LINE
  5
AE00
330
747D
100
AcDbEntity
  8
寸法引出
 48
25.0
100
AcDbLine
 10
3847.410989097705
 20
707.2232375188341
 30
0.0
 11
3809.910989097705
 21
707.2232375188341
 31
0.0
  0
LINE
  5
AE01
330
747D
100
AcDbEntity
  8
寸法引出
 48
25.0
100
AcDbLine
 10
3984.910989097705
 20
707.2232375188341
 30
0.0
 11
4004.910989097704
 21
707.2232375188341
 31
0.0
  0
LINE
  5
AE02
330
747D
100
AcDbEntity
  8
寸法引出
 48
25.0
100
AcDbLine
 10
3942.410989097705
 20
707.2232375188341
 30
0.0
 11
3979.910989097705
 21
707.2232375188341
 31
0.0
  0
LINE
  5
AE03
330
747D
100
AcDbEntity
  8
寸法引出
 48
25.0
100
AcDbLine
 10
3884.910989097705
 20
707.2232375188341
 30
0.0
 11
3904.910989097705
 21
707.2232375188341
 31
0.0
  0
SOLID
  5
AE04
330
747D
100
AcDbEntity
  8
寸法引出
 48
25.0
100
AcDbTrace
 10
3942.410989097705
 20
713.4732375188341
 30
0.0
 11
3942.410989097705
 21
700.9732375188341
 31
0.0
 12
3904.910989097705
 22
707.2232375188341
 32
0.0
 13
3904.910989097705
 23
707.2232375188341
 33
0.0
  0
LINE
  5
AE05
330
747D
100
AcDbEntity
  8
寸法引出
 48
25.0
100
AcDbLine
 10
3947.410989097705
 20
707.2232375188341
 30
0.0
 11
3909.910989097705
 21
707.2232375188341
 31
0.0
  0
SOLID
  5
AE06
330
747D
100
AcDbEntity
  8
寸法引出
 48
25.0
100
AcDbTrace
 10
3947.410989097705
 20
713.4732375188341
 30
0.0
 11
3947.410989097705
 21
700.9732375188341
 31
0.0
 12
3984.910989097705
 22
707.2232375188341
 32
0.0
 13
3984.910989097705
 23
707.2232375188341
 33
0.0
  0
MTEXT
  5
AE07
330
747D
100
AcDbEntity
  8
寸法引出
 48
25.0
100
AcDbMText
 10
4048.397935754729
 20
757.2232375188341
 30
0.0
 40
50.0
 41
0.0
 71
     5
 72
     1
  1
\A1;2
  7
SANWA
 73
     1
 44
1.0
  0
LINE
  5
AE08
330
747D
100
AcDbEntity
  8
寸法引出
 48
25.0
100
AcDbLine
 10
4042.410989097705
 20
707.2232375188341
 30
0.0
 11
4079.910989097704
 21
707.2232375188341
 31
0.0
  0
LINE
  5
AE09
330
747D
100
AcDbEntity
  8
0
 48
25.0
100
AcDbLine
 10
4004.910989097704
 20
885.9544396325455
 30
0.0
 11
4244.910989097705
 21
885.9544396325455
 31
0.0
  0
LINE
  5
AE0A
330
747D
100
AcDbEntity
  8
0
 48
25.0
100
AcDbLine
 10
3904.910989097705
 20
945.9544396325455
 30
0.0
 11
3984.910989097705
 21
945.9544396325455
 31
0.0
  0
LINE
  5
AE0B
330
747D
100
AcDbEntity
  8
0
 48
25.0
100
AcDbLine
 10
3884.910989097705
 20
885.9544396325455
 30
0.0
 11
3904.910989097705
 21
945.9544396325455
 31
0.0
  0
LINE
  5
AE0C
330
747D
100
AcDbEntity
  8
0
 48
25.0
100
AcDbLine
 10
3984.910989097705
 20
945.9544396325455
 30
0.0
 11
4004.910989097704
 21
885.9544396325455
 31
0.0
  0
LINE
  5
AE0D
330
747D
100
AcDbEntity
  8
0
 48
25.0
100
AcDbLine
 10
4244.910989097705
 20
1117.485574496468
 30
0.0
 11
4244.910989097705
 21
885.9544396325455
 31
0.0
  0
ARC
  5
B568
330
747D
100
AcDbEntity
  8
0
 48
25.0
100
AcDbCircle
 10
2291.61754453182
 20
2552.119840131078
 30
0.0
 40
126.0
100
AcDbArc
 50
180.0
 51
270.0
  0
ARC
  5
B569
330
747D
100
AcDbEntity
  8
0
 48
25.0
100
AcDbCircle
 10
2291.61754453182
 20
2552.119840131078
 30
0.0
 40
114.0
100
AcDbArc
 50
180.0
 51
270.0
  0
LINE
  5
B56A
330
747D
100
AcDbEntity
  8
0
 48
25.0
100
AcDbLine
 10
2165.61754453182
 20
3377.119840131078
 30
0.0
 11
2165.61754453182
 21
2552.119840131078
 31
0.0
  0
LINE
  5
B56B
330
747D
100
AcDbEntity
  8
0
 48
25.0
100
AcDbLine
 10
2177.61754453182
 20
3377.119840131078
 30
0.0
 11
2177.617544531819
 21
2552.119840131078
 31
0.0
  0
LINE
  5
B56C
330
747D
100
AcDbEntity
  8
0
 48
25.0
100
AcDbLine
 10
2401.61754453182
 20
2438.119840131079
 30
0.0
 11
2291.61754453182
 21
2438.119840131078
 31
0.0
  0
LINE
  5
B56D
330
747D
100
AcDbEntity
  8
0
 48
25.0
100
AcDbLine
 10
2401.61754453182
 20
2426.119840131079
 30
0.0
 11
2291.61754453182
 21
2426.119840131078
 31
0.0
  0
LINE
  5
B56E
330
747D
100
AcDbEntity
  8
0
 48
25.0
100
AcDbLine
 10
2401.61754453182
 20
2426.119840131079
 30
0.0
 11
2511.617544531821
 21
2426.119840131078
 31
0.0
  0
ARC
  5
B56F
330
747D
100
AcDbEntity
  8
0
 48
25.0
100
AcDbCircle
 10
2511.617544531821
 20
2552.119840131078
 30
0.0
 40
114.0
100
AcDbArc
 50
270.0
 51
0.000000000000007
  0
ARC
  5
B570
330
747D
100
AcDbEntity
  8
0
 48
25.0
100
AcDbCircle
 10
2511.617544531821
 20
2552.119840131078
 30
0.0
 40
126.0
100
AcDbArc
 50
270.0
 51
0.000000000000007
  0
LINE
  5
B571
330
747D
100
AcDbEntity
  8
0
 48
25.0
100
AcDbLine
 10
2401.61754453182
 20
2438.119840131079
 30
0.0
 11
2511.617544531821
 21
2438.119840131078
 31
0.0
  0
LINE
  5
B572
330
747D
100
AcDbEntity
  8
0
 48
25.0
100
AcDbLine
 10
2625.61754453182
 20
3377.119840131078
 30
0.0
 11
2625.617544531821
 21
2552.119840131078
 31
0.0
  0
LINE
  5
B573
330
747D
100
AcDbEntity
  8
0
 48
25.0
100
AcDbLine
 10
2637.61754453182
 20
3377.119840131078
 30
0.0
 11
2637.617544531821
 21
2552.119840131078
 31
0.0
  0
DIMENSION
  5
B574
330
747D
100
AcDbEntity
  8
寸法引出
 48
25.0
100
AcDbDimension
  2
*D31
 10
2316.215139218431
 20
3327.119840131078
 30
0.0
 11
2276.21513921843
 21
3352.119840131078
 31
0.0
 70
    32
 71
     5
 42
50.0
  3
SANWA
100
AcDbAlignedDimension
 13
2201.61754453182
 23
3377.119840131078
 33
0.0
 14
2201.61754453182
 24
3327.119840131078
 34
0.0
 50
90.0
100
AcDbRotatedDimension
1001
ACAD
1000
DSTYLE
1002
{
1070
    40
1040
20.0
1070
    41
1040
1.5
1070
    43
1040
5.0
1070
    44
1040
0.5
1070
   140
1040
2.0
1070
   147
1040
1.0
1070
   176
1070
   256
1070
   177
1070
   256
1070
   178
1070
   256
1002
}
  0
LINE
  5
B5E5
330
747D
100
AcDbEntity
  8
0
  6
HIDDEN2
 48
25.0
100
AcDbLine
 10
4129.625007866545
 20
2477.119840131079
 30
0.0
 11
6129.625007866544
 21
2477.119840131079
 31
0.0
  0
LINE
  5
B5E6
330
747D
100
AcDbEntity
  8
0
 48
25.0
100
AcDbLine
 10
6129.625007866545
 20
2427.119840131078
 30
0.0
 11
4129.625007866545
 21
2427.119840131078
 31
0.0
  0
DIMENSION
  5
B5E7
330
747D
100
AcDbEntity
  8
寸法引出
 48
25.0
100
AcDbDimension
  2
*D32
 10
6129.625007866545
 20
3612.904396964633
 30
0.0
 11
5129.625007866545
 21
3652.904396964633
 31
0.0
 70
    32
 71
     5
 42
2000.0
  3
SANWA
100
AcDbAlignedDimension
 13
4129.625007866545
 23
3377.119840131078
 33
0.0
 14
6129.625007866545
 24
3377.119840131078
 34
0.0
100
AcDbRotatedDimension
1001
ACAD
1000
DSTYLE
1002
{
1070
    40
1040
20.0
1070
    41
1040
1.5
1070
    43
1040
5.0
1070
    44
1040
0.5
1070
   140
1040
2.0
1070
   147
1040
1.0
1070
   176
1070
   256
1070
   177
1070
   256
1070
   178
1070
   256
1002
}
  0
LINE
  5
B5F5
330
747D
100
AcDbEntity
  8
0
 48
25.0
100
AcDbLine
 10
4129.625007866545
 20
3254.619840131078
 30
0.0
 11
4214.625007866541
 21
3254.619840131078
 31
0.0
  0
LINE
  5
B5F6
330
747D
100
AcDbEntity
  8
0
 48
25.0
100
AcDbLine
 10
4129.625007866545
 20
3256.619840131078
 30
0.0
 11
4216.625007866543
 21
3256.619840131078
 31
0.0
  0
LINE
  5
B5F7
330
747D
100
AcDbEntity
  8
0
 48
25.0
100
AcDbLine
 10
4129.625007866545
 20
3199.619840131078
 30
0.0
 11
4214.625007866543
 21
3199.619840131078
 31
0.0
  0
LINE
  5
B5F8
330
747D
100
AcDbEntity
  8
0
 48
25.0
100
AcDbLine
 10
4129.625007866545
 20
3197.619840131078
 30
0.0
 11
4216.625007866542
 21
3197.619840131078
 31
0.0
  0
LINE
  5
B5F9
330
747D
100
AcDbEntity
  8
0
 48
25.0
100
AcDbLine
 10
4214.625007866541
 20
3254.619840131078
 30
0.0
 11
4214.625007866543
 21
3199.619840131078
 31
0.0
  0
LINE
  5
B5FA
330
747D
100
AcDbEntity
  8
0
 48
25.0
100
AcDbLine
 10
4216.625007866543
 20
3256.619840131078
 30
0.0
 11
4216.625007866542
 21
3197.619840131078
 31
0.0
  0
LINE
  5
B5FB
330
747D
100
AcDbEntity
  8
0
 48
25.0
100
AcDbLine
 10
4216.625007866542
 20
3197.619840131078
 30
0.0
 11
4214.625007866543
 21
3199.619840131078
 31
0.0
  0
LINE
  5
B5FC
330
747D
100
AcDbEntity
  8
0
 48
25.0
100
AcDbLine
 10
4216.625007866543
 20
3256.619840131078
 30
0.0
 11
4214.625007866541
 21
3254.619840131078
 31
0.0
  0
TEXT
  5
B772
330
747D
100
AcDbEntity
  8
0
100
AcDbText
 10
4763.941019854864
 20
4537.172631142073
 30
0.0
 40
55.0
  1
W=917kg
  7
SANWA
 72
     4
 11
4904.741019854863
 21
4560.272631142074
 31
0.0
100
AcDbText
  0
CIRCLE
  5
B814
330
747D
100
AcDbEntity
  8
0
 48
25.0
100
AcDbCircle
 10
5129.625007866545
 20
3142.119840131078
 30
0.0
 40
17.5
  0
CIRCLE
  5
B815
330
747D
100
AcDbEntity
  8
0
 48
25.0
100
AcDbCircle
 10
5129.625007866545
 20
3142.119840131078
 30
0.0
 40
16.0
  0
LINE
  5
B844
330
747D
100
AcDbEntity
  8
0
  6
CENTER2
 48
8.0
100
AcDbLine
 10
2565.088132767114
 20
3142.119840131078
 30
0.0
 11
2691.61754453182
 21
3142.119840131078
 31
0.0
  0
LINE
  5
B84C
330
747D
100
AcDbEntity
  8
0
  6
HIDDEN2
 48
10.0
100
AcDbLine
 10
2595.652838649467
 20
3158.119840131078
 30
0.0
 11
2661.61754453182
 21
3159.619840131078
 31
0.0
  0
LINE
  5
B84D
330
747D
100
AcDbEntity
  8
0
  6
HIDDEN2
 48
10.0
100
AcDbLine
 10
2594.523426884761
 20
3126.119840131078
 30
0.0
 11
2661.61754453182
 21
3124.619840131078
 31
0.0
  0
LINE
  5
B84E
330
747D
100
AcDbEntity
  8
0
  6
HIDDEN2
 48
10.0
100
AcDbLine
 10
2208.711662178879
 20
3126.119840131078
 30
0.0
 11
2141.61754453182
 21
3124.619840131078
 31
0.0
  0
LINE
  5
B84F
330
747D
100
AcDbEntity
  8
0
  6
HIDDEN2
 48
10.0
100
AcDbLine
 10
2207.582250414173
 20
3158.119840131078
 30
0.0
 11
2141.61754453182
 21
3159.619840131078
 31
0.0
  0
LINE
  5
B850
330
747D
100
AcDbEntity
  8
0
  6
CENTER2
 48
8.0
100
AcDbLine
 10
2238.146956296526
 20
3142.119840131078
 30
0.0
 11
2111.61754453182
 21
3142.119840131078
 31
0.0
  0
DIMENSION
  5
B851
330
747D
100
AcDbEntity
  8
寸法引出
 48
25.0
100
AcDbDimension
  2
*D33
 10
2808.126763740511
 20
3142.119840131078
 30
0.0
 11
2768.12676374051
 21
3259.619840131078
 31
0.0
 70
    32
 71
     5
 42
235.0
  3
SANWA
100
AcDbAlignedDimension
 13
2661.61754453182
 23
3377.119840131078
 33
0.0
 14
2691.61754453182
 24
3142.119840131078
 34
0.0
 50
90.0
100
AcDbRotatedDimension
1001
ACAD
1000
DSTYLE
1002
{
1070
    40
1040
20.0
1070
    41
1040
1.5
1070
    43
1040
5.0
1070
    44
1040
0.5
1070
   140
1040
2.0
1070
   147
1040
1.0
1070
   176
1070
   256
1070
   177
1070
   256
1070
   178
1070
   256
1002
}
  0
MTEXT
  5
B87E
330
747D
100
AcDbEntity
  8
寸法引出
 48
25.0
100
AcDbMText
 10
5378.921365726688
 20
3020.267019079747
 30
0.0
 40
40.0
 41
0.0
 71
     5
 72
     1
  1
φ35-φ32
  7
SANWA
 73
     1
 44
1.0
  0
LEADER
  5
B87F
330
747D
100
AcDbEntity
  8
寸法引出
 48
25.0
100
AcDbLeader
  3
SANWA
 76
     3
 10
5140.85651141795
 20
3128.699582012294
 30
0.0
 10
5245.639043597534
 20
2986.610660742648
 30
0.0
 10
5533.359581047079
 20
2986.610660742648
 30
0.0
1001
ACAD
1000
DSTYLE
1002
{
1070
    77
1070
     0
1070
    40
1040
20.0
1070
    41
1040
1.5
1070
    43
1040
5.0
1070
    44
1040
0.5
1070
   140
1040
2.0
1070
   147
1040
1.0
1070
   176
1070
   256
1070
   177
1070
   256
1070
   178
1070
   256
1002
}
  0
VIEWPORT
  5
7540
330
747A
100
AcDbEntity
 67
     1
  8
0
100
AcDbViewport
 10
-3029.057228595033
 20
-846.1011655902643
 30
0.0
 40
7999.670857597599
 41
5772.053321119805
 68
     1
 69
     1
 12
-3029.057228595033
 22
-846.1011655902643
 13
0.0
 23
0.0
 14
10.0
 24
10.0
 15
10.0
 25
10.0
 16
0.0
 26
0.0
 36
1.0
 17
0.0
 27
0.0
 37
0.0
 42
50.0
 43
0.0
 44
0.0
 45
5772.053321119805
 50
0.0
 51
0.0
 72
   100
 90
    32800
  1

281
     0
 71
     1
 74
     0
110
0.0
120
0.0
130
0.0
111
1.0
121
0.0
131
0.0
112
0.0
122
1.0
132
0.0
 79
     0
146
0.0
  0
TEXT
  5
7737
330
747A
100
AcDbEntity
 67
     1
  8
0
 48
2.0
100
AcDbText
 10
331.8711968111849
 20
20.60428158404022
 30
0.0
 40
2.0
  1

  7
SANWA
100
AcDbText
  0
ENDSEC
  0
SECTION
  2
OBJECTS
  0
DICTIONARY
  5
7471
330
0
100
AcDbDictionary
281
     1
  3
ACAD_GROUP
350
7472
  3
ACAD_LAYOUT
350
8668
  3
ACAD_MLINESTYLE
350
7473
  3
ACAD_PLOTSETTINGS
350
8669
  3
ACAD_PLOTSTYLENAME
350
8666
  3
AcadDim
350
BF03
  3
ACDBVARIABLEDICTIONARY
350
789B
  0
DICTIONARY
  5
7472
102
{ACAD_REACTORS
330
7471
102
}
330
0
100
AcDbDictionary
281
     1
  0
DICTIONARY
  5
8668
102
{ACAD_REACTORS
330
7471
102
}
330
7471
100
AcDbDictionary
281
     1
  3
Model
350
866A
  3
ﾚｲｱｳﾄ1
350
866B
  0
DICTIONARY
  5
7473
102
{ACAD_REACTORS
330
7471
102
}
330
0
100
AcDbDictionary
281
     1
  3
STANDARD
350
7480
  0
DICTIONARY
  5
8669
102
{ACAD_REACTORS
330
7471
102
}
330
7471
100
AcDbDictionary
281
     1
  0
ACDBDICTIONARYWDFLT
  5
8666
102
{ACAD_REACTORS
330
7471
102
}
330
7471
100
AcDbDictionary
281
     1
  3
Normal
350
8667
100
AcDbDictionaryWithDefault
340
8667
  0
XRECORD
  5
BF03
102
{ACAD_REACTORS
330
7471
102
}
330
7471
100
AcDbXrecord
280
     1
 90
   990106
  3

 60
     0
 61
     0
 62
     1
 63
     3
 64
     0
 65
     0
 66
     0
 67
     3
 68
     1
 69
     0
 70
     0
 71
     0
 72
     0
 40
0.0
170
     0
  0
DICTIONARY
  5
789B
102
{ACAD_REACTORS
330
7471
102
}
330
7471
100
AcDbDictionary
281
     1
  3
DIMASSOC
350
A9FD
  3
SORTENTS
350
789C
  0
LAYOUT
  5
866A
102
{ACAD_REACTORS
330
8668
102
}
330
8668
100
AcDbPlotSettings
  1

  2
DocuCentre Color f360
  4
A4
  6

 40
4.857749938964843
 41
4.942390441894531
 42
4.942413330078125
 43
4.857757568359375
 44
209.9733276367187
 45
297.0106506347656
 46
5.089999999999999
 47
12.61
 48
625.0
 49
250.0
140
7175.0
141
5000.0
142
1.0
143
25.0
 70
 11940
 72
     1
 73
     1
 74
     4
  7
sanwa3.ctb
 75
     0
147
0.04
148
-625.0
149
-250.0
100
AcDbLayout
  1
Model
 70
     1
 71
     0
 10
0.0
 20
0.0
 11
12.0
 21
9.0
 12
0.0
 22
0.0
 32
0.0
 14
0.0
 24
0.0
 34
0.0
 15
0.0
 25
0.0
 35
0.0
146
0.0
 13
0.0
 23
0.0
 33
0.0
 16
1.0
 26
0.0
 36
0.0
 17
0.0
 27
1.0
 37
0.0
 76
     0
330
747D
  0
LAYOUT
  5
866B
102
{ACAD_REACTORS
330
8668
102
}
330
8668
100
AcDbPlotSettings
  1

  2
RICOH NX-510
  4
A4
  6

 40
5.873749732971191
 41
4.92125654220581
 42
7.588241577148437
 43
5.81024169921875
 44
209.9944915771484
 45
296.989501953125
 46
0.0
 47
0.0
 48
0.0
 49
0.0
140
0.0
141
0.0
142
1.0
143
26.7163999926989
 70
   688
 72
     1
 73
     1
 74
     1
  7
sanwa3.ctb
 75
     0
147
0.037430192700861
148
6841.073651210504
149
3494.324134886467
100
AcDbLayout
  1
ﾚｲｱｳﾄ1
 70
     1
 71
     1
 10
-6996.302392501092
 20
-3651.249582209533
 11
938.1879353110262
 21
1959.047251029004
 12
0.0
 22
0.0
 32
0.0
 14
1.000000000000000E+20
 24
1.000000000000000E+20
 34
1.000000000000000E+20
 15
-1.000000000000000E+20
 25
-1.000000000000000E+20
 35
-1.000000000000000E+20
146
0.0
 13
0.0
 23
0.0
 33
0.0
 16
1.0
 26
0.0
 36
0.0
 17
0.0
 27
1.0
 37
0.0
 76
     0
330
747A
331
7540
  0
MLINESTYLE
  5
7480
102
{ACAD_REACTORS
330
7473
102
}
330
0
100
AcDbMlineStyle
  2
STANDARD
 70
     0
  3

 62
     0
 51
90.0
 52
90.0
 71
     2
 49
0.5
 62
   256
  6
BYLAYER
 49
-0.5
 62
   256
  6
BYLAYER
  0
ACDBPLACEHOLDER
  5
8667
102
{ACAD_REACTORS
330
8666
102
}
330
8666
  0
DICTIONARYVAR
  5
A9FD
102
{ACAD_REACTORS
330
789B
102
}
330
789B
100
DictionaryVariables
280
     0
  1
1
  0
DICTIONARYVAR
  5
789C
102
{ACAD_REACTORS
330
789B
102
}
330
789B
100
DictionaryVariables
280
     0
  1
96
  0
ENDSEC
  0
EOF
