  0
SECTION
  2
HEADER
  9
$ACADVER
  1
AC1015
  9
$ACADMAINTVER
 70
    13
  9
$DWGCODEPAGE
  3
ANSI_932
  9
$INSBASE
 10
0.0
 20
0.0
 30
0.0
  9
$EXTMIN
 10
-0.0044994374184171
 20
-0.592952696068096
 30
-0.0000000000000053
  9
$EXTMAX
 10
7425.370910079525
 20
5250.090771688708
 30
0.00000000000001
  9
$LIMMIN
 10
0.0
 20
0.0
  9
$LIMMAX
 10
420.0
 20
297.0
  9
$ORTHOMODE
 70
     1
  9
$REGENMODE
 70
     1
  9
$FILLMODE
 70
     1
  9
$QTEXTMODE
 70
     0
  9
$MIRRTEXT
 70
     1
  9
$LTSCALE
 40
0.5
  9
$ATTMODE
 70
     1
  9
$TEXTSIZE
 40
2.799999999999999
  9
$TRACEWID
 40
1.0
  9
$TEXTSTYLE
  7
SANWA
  9
$CLAYER
  8
0
  9
$CELTYPE
  6
BYLAYER
  9
$CECOLOR
 62
   256
  9
$CELTSCALE
 40
25.0
  9
$DISPSILH
 70
     0
  9
$DIMSCALE
 40
25.0
  9
$DIMASZ
 40
1.5
  9
$DIMEXO
 40
1.0
  9
$DIMDLI
 40
5.0
  9
$DIMRND
 40
0.0
  9
$DIMDLE
 40
0.0
  9
$DIMEXE
 40
0.5
  9
$DIMTP
 40
0.0
  9
$DIMTM
 40
0.0
  9
$DIMTXT
 40
2.0
  9
$DIMCEN
 40
0.0
  9
$DIMTSZ
 40
0.0
  9
$DIMTOL
 70
     0
  9
$DIMLIM
 70
     0
  9
$DIMTIH
 70
     0
  9
$DIMTOH
 70
     0
  9
$DIMSE1
 70
     0
  9
$DIMSE2
 70
     0
  9
$DIMTAD
 70
     1
  9
$DIMZIN
 70
     8
  9
$DIMBLK
  1

  9
$DIMASO
 70
     1
  9
$DIMSHO
 70
     1
  9
$DIMPOST
  1

  9
$DIMAPOST
  1

  9
$DIMALT
 70
     0
  9
$DIMALTD
 70
     2
  9
$DIMALTF
 40
0.0394
  9
$DIMLFAC
 40
1.0
  9
$DIMTOFL
 70
     1
  9
$DIMTVP
 40
0.0
  9
$DIMTIX
 70
     1
  9
$DIMSOXD
 70
     0
  9
$DIMSAH
 70
     0
  9
$DIMBLK1
  1

  9
$DIMBLK2
  1

  9
$DIMSTYLE
  2
SANWA
  9
$DIMCLRD
 70
   256
  9
$DIMCLRE
 70
   256
  9
$DIMCLRT
 70
   256
  9
$DIMTFAC
 40
1.0
  9
$DIMGAP
 40
1.0
  9
$DIMJUST
 70
     0
  9
$DIMSD1
 70
     0
  9
$DIMSD2
 70
     0
  9
$DIMTOLJ
 70
     1
  9
$DIMTZIN
 70
     0
  9
$DIMALTZ
 70
     0
  9
$DIMALTTZ
 70
     0
  9
$DIMUPT
 70
     0
  9
$DIMDEC
 70
     4
  9
$DIMTDEC
 70
     4
  9
$DIMALTU
 70
     2
  9
$DIMALTTD
 70
     2
  9
$DIMTXSTY
  7
SANWA
  9
$DIMAUNIT
 70
     0
  9
$DIMADEC
 70
     0
  9
$DIMALTRND
 40
0.0
  9
$DIMAZIN
 70
     0
  9
$DIMDSEP
 70
    46
  9
$DIMATFIT
 70
     3
  9
$DIMFRAC
 70
     0
  9
$DIMLDRBLK
  1

  9
$DIMLUNIT
 70
     2
  9
$DIMLWD
 70
    -2
  9
$DIMLWE
 70
    -2
  9
$DIMTMOVE
 70
     0
  9
$LUNITS
 70
     2
  9
$LUPREC
 70
     4
  9
$SKETCHINC
 40
1.0
  9
$FILLETRAD
 40
85.0
  9
$AUNITS
 70
     0
  9
$AUPREC
 70
     0
  9
$MENU
  1
acad
  9
$ELEVATION
 40
0.0
  9
$PELEVATION
 40
0.0
  9
$THICKNESS
 40
0.0
  9
$LIMCHECK
 70
     0
  9
$CHAMFERA
 40
0.0
  9
$CHAMFERB
 40
0.0
  9
$CHAMFERC
 40
0.0
  9
$CHAMFERD
 40
0.0
  9
$SKPOLY
 70
     1
  9
$TDCREATE
 40
2451806.361679282
  9
$TDUCREATE
 40
2451805.986679282
  9
$TDUPDATE
 40
2454167.414303565
  9
$TDUUPDATE
 40
2454167.039303565
  9
$TDINDWG
 40
0.9499223032
  9
$TDUSRTIMER
 40
0.9499223032
  9
$USRTIMER
 70
     1
  9
$ANGBASE
 50
0.0
  9
$ANGDIR
 70
     0
  9
$PDMODE
 70
     0
  9
$PDSIZE
 40
0.0
  9
$PLINEWID
 40
0.0
  9
$SPLFRAME
 70
     0
  9
$SPLINETYPE
 70
     6
  9
$SPLINESEGS
 70
     8
  9
$HANDSEED
  5
F42D
  9
$SURFTAB1
 70
     6
  9
$SURFTAB2
 70
     6
  9
$SURFTYPE
 70
     6
  9
$SURFU
 70
     6
  9
$SURFV
 70
     6
  9
$UCSBASE
  2

  9
$UCSNAME
  2

  9
$UCSORG
 10
0.0
 20
0.0
 30
0.0
  9
$UCSXDIR
 10
1.0
 20
0.0
 30
0.0
  9
$UCSYDIR
 10
0.0
 20
1.0
 30
0.0
  9
$UCSORTHOREF
  2

  9
$UCSORTHOVIEW
 70
     0
  9
$UCSORGTOP
 10
0.0
 20
0.0
 30
0.0
  9
$UCSORGBOTTOM
 10
0.0
 20
0.0
 30
0.0
  9
$UCSORGLEFT
 10
0.0
 20
0.0
 30
0.0
  9
$UCSORGRIGHT
 10
0.0
 20
0.0
 30
0.0
  9
$UCSORGFRONT
 10
0.0
 20
0.0
 30
0.0
  9
$UCSORGBACK
 10
0.0
 20
0.0
 30
0.0
  9
$PUCSBASE
  2

  9
$PUCSNAME
  2

  9
$PUCSORG
 10
0.0
 20
0.0
 30
0.0
  9
$PUCSXDIR
 10
1.0
 20
0.0
 30
0.0
  9
$PUCSYDIR
 10
0.0
 20
1.0
 30
0.0
  9
$PUCSORTHOREF
  2

  9
$PUCSORTHOVIEW
 70
     0
  9
$PUCSORGTOP
 10
0.0
 20
0.0
 30
0.0
  9
$PUCSORGBOTTOM
 10
0.0
 20
0.0
 30
0.0
  9
$PUCSORGLEFT
 10
0.0
 20
0.0
 30
0.0
  9
$PUCSORGRIGHT
 10
0.0
 20
0.0
 30
0.0
  9
$PUCSORGFRONT
 10
0.0
 20
0.0
 30
0.0
  9
$PUCSORGBACK
 10
0.0
 20
0.0
 30
0.0
  9
$USERI1
 70
     0
  9
$USERI2
 70
     0
  9
$USERI3
 70
     0
  9
$USERI4
 70
     0
  9
$USERI5
 70
     0
  9
$USERR1
 40
0.0
  9
$USERR2
 40
0.0
  9
$USERR3
 40
0.0
  9
$USERR4
 40
0.0
  9
$USERR5
 40
0.0
  9
$WORLDVIEW
 70
     1
  9
$SHADEDGE
 70
     3
  9
$SHADEDIF
 70
    70
  9
$TILEMODE
 70
     1
  9
$MAXACTVP
 70
    48
  9
$PINSBASE
 10
0.0
 20
0.0
 30
0.0
  9
$PLIMCHECK
 70
     0
  9
$PEXTMIN
 10
1.000000000000000E+20
 20
1.000000000000000E+20
 30
1.000000000000000E+20
  9
$PEXTMAX
 10
-1.000000000000000E+20
 20
-1.000000000000000E+20
 30
-1.000000000000000E+20
  9
$PLIMMIN
 10
-117.3880621053552
 20
-1147.778930325621
  9
$PLIMMAX
 10
5873.875641303368
 20
3088.506753269061
  9
$UNITMODE
 70
     0
  9
$VISRETAIN
 70
     1
  9
$PLINEGEN
 70
     0
  9
$PSLTSCALE
 70
     1
  9
$TREEDEPTH
 70
  3020
  9
$CMLSTYLE
  2
STANDARD
  9
$CMLJUST
 70
     0
  9
$CMLSCALE
 40
1.0
  9
$PROXYGRAPHICS
 70
     1
  9
$MEASUREMENT
 70
     1
  9
$CELWEIGHT
370
    -1
  9
$ENDCAPS
280
     0
  9
$JOINSTYLE
280
     0
  9
$LWDISPLAY
290
     0
  9
$INSUNITS
 70
     0
  9
$HYPERLINKBASE
  1

  9
$STYLESHEET
  1
sanwa3.ctb
  9
$XEDIT
290
     1
  9
$CEPSNTYPE
380
     0
  9
$PSTYLEMODE
290
     1
  9
$FINGERPRINTGUID
  2
{FF69E217-7CBD-426C-8D1A-915AA093CE5F}
  9
$VERSIONGUID
  2
{2AFF5EA7-ED5D-4CF5-A73D-3104C6C5E08E}
  9
$EXTNAMES
290
     1
  9
$PSVPSCALE
 40
0.0
  9
$OLESTARTUP
290
     0
  0
ENDSEC
  0
SECTION
  2
CLASSES
  0
CLASS
  1
LWPOLYLINE
  2
AcDbPolyline
  3
AutoCAD 2000
 90
    32768
280
     0
281
     1
  0
CLASS
  1
DICTIONARYVAR
  2
AcDbDictionaryVar
  3
AutoCAD 2000
 90
        0
280
     0
281
     0
  0
CLASS
  1
HATCH
  2
AcDbHatch
  3
AutoCAD 2000
 90
    32768
280
     0
281
     1
  0
CLASS
  1
ACDBDICTIONARYWDFLT
  2
AcDbDictionaryWithDefault
  3
AutoCAD 2000
 90
        0
280
     0
281
     0
  0
CLASS
  1
ACDBPLACEHOLDER
  2
AcDbPlaceHolder
  3
AutoCAD 2000
 90
        0
280
     0
281
     0
  0
CLASS
  1
LAYOUT
  2
AcDbLayout
  3
AutoCAD 2000
 90
        0
280
     0
281
     0
  0
ENDSEC
  0
SECTION
  2
TABLES
  0
TABLE
  2
VPORT
  5
746D
330
0
100
AcDbSymbolTable
 70
     2
  0
VPORT
  5
F42C
330
746D
100
AcDbSymbolTableRecord
100
AcDbViewportTableRecord
  2
*Active
 70
     0
 10
0.0
 20
0.0
 11
1.0
 21
1.0
 12
3712.683200186335
 22
2624.748901664017
 13
0.0
 23
0.0
 14
10.0
 24
10.0
 15
10.0
 25
10.0
 16
0.0
 26
0.0
 36
1.0
 17
0.0
 27
0.0
 37
0.0
 40
5803.617870948343
 41
1.393129770992366
 42
50.0
 43
0.0
 44
0.0
 50
0.0
 51
0.0
 71
     0
 72
   100
 73
     1
 74
     0
 75
     0
 76
     0
 77
     0
 78
     0
281
     0
 65
     1
110
0.0
120
0.0
130
0.0
111
1.0
121
0.0
131
0.0
112
0.0
122
1.0
132
0.0
 79
     0
146
0.0
  0
ENDTAB
  0
TABLE
  2
LTYPE
  5
746A
330
0
100
AcDbSymbolTable
 70
     5
  0
LTYPE
  5
7477
330
746A
100
AcDbSymbolTableRecord
100
AcDbLinetypeTableRecord
  2
BYBLOCK
 70
     0
  3

 72
    65
 73
     0
 40
0.0
  0
LTYPE
  5
7478
330
746A
100
AcDbSymbolTableRecord
100
AcDbLinetypeTableRecord
  2
BYLAYER
 70
     0
  3

 72
    65
 73
     0
 40
0.0
  0
LTYPE
  5
7479
330
746A
100
AcDbSymbolTableRecord
100
AcDbLinetypeTableRecord
  2
CONTINUOUS
 70
     0
  3
Solid line
 72
    65
 73
     0
 40
0.0
  0
LTYPE
  5
7D54
330
746A
100
AcDbSymbolTableRecord
100
AcDbLinetypeTableRecord
  2
CENTER2
 70
     0
  3
Center (.5x) ___ _ ___ _ ___ _ ___ _ ___ _ ___
 72
    65
 73
     4
 40
28.57499999999999
 49
19.05
 74
     0
 49
-3.174999999999999
 74
     0
 49
3.174999999999999
 74
     0
 49
-3.174999999999999
 74
     0
  0
LTYPE
  5
7D55
330
746A
100
AcDbSymbolTableRecord
100
AcDbLinetypeTableRecord
  2
DOT
 70
     0
  3
Dot . . . . . . . . . . . . . . . . . . . . . .
 72
    65
 73
     2
 40
6.349999999999999
 49
0.0
 74
     0
 49
-6.349999999999999
 74
     0
  0
LTYPE
  5
7D56
330
746A
100
AcDbSymbolTableRecord
100
AcDbLinetypeTableRecord
  2
HIDDEN2
 70
     0
  3
Hidden (.5x) _ _ _ _ _ _ _ _ _ _ _ _ _ _ _ _ _
 72
    65
 73
     2
 40
4.762499999999999
 49
3.174999999999999
 74
     0
 49
-1.587499999999999
 74
     0
  0
LTYPE
  5
7D57
330
746A
100
AcDbSymbolTableRecord
100
AcDbLinetypeTableRecord
  2
PHANTOM2
 70
     0
  3
Phantom (.5x) ___ _ _ ___ _ _ ___ _ _ ___ _ _
 72
    65
 73
     6
 40
31.75
 49
15.875
 74
     0
 49
-3.174999999999999
 74
     0
 49
3.174999999999999
 74
     0
 49
-3.174999999999999
 74
     0
 49
3.174999999999999
 74
     0
 49
-3.174999999999999
 74
     0
  0
ENDTAB
  0
TABLE
  2
LAYER
  5
7467
330
0
100
AcDbSymbolTable
 70
     8
  0
LAYER
  5
7474
330
7467
100
AcDbSymbolTableRecord
100
AcDbLayerTableRecord
  2
0
 70
     0
 62
     7
  6
CONTINUOUS
370
    -3
390
7F6A
  0
LAYER
  5
7485
330
7467
100
AcDbSymbolTableRecord
100
AcDbLayerTableRecord
  2
DEFPOINTS
 70
     0
 62
     7
  6
CONTINUOUS
290
     0
370
    -3
390
7F6A
  0
LAYER
  5
7486
330
7467
100
AcDbSymbolTableRecord
100
AcDbLayerTableRecord
  2
OBJECT
 70
     0
 62
     7
  6
CONTINUOUS
370
    -3
390
7F6A
  0
LAYER
  5
7950
330
7467
100
AcDbSymbolTableRecord
100
AcDbLayerTableRecord
  2
枠
 70
     0
 62
     3
  6
CONTINUOUS
370
    -3
390
7F6A
  0
LAYER
  5
7D58
330
7467
100
AcDbSymbolTableRecord
100
AcDbLayerTableRecord
  2
寸法引出
 70
     0
 62
     2
  6
CONTINUOUS
370
    -3
390
7F6A
  0
LAYER
  5
7D59
330
7467
100
AcDbSymbolTableRecord
100
AcDbLayerTableRecord
  2
鉄筋
 70
     0
 62
     4
  6
CONTINUOUS
370
    -3
390
7F6A
  0
LAYER
  5
7D5A
330
7467
100
AcDbSymbolTableRecord
100
AcDbLayerTableRecord
  2
補助線
 70
     0
 62
     6
  6
CONTINUOUS
370
    -3
390
7F6A
  0
LAYER
  5
81DF
330
7467
100
AcDbSymbolTableRecord
100
AcDbLayerTableRecord
  2
ASHADE
 70
     4
 62
     7
  6
CONTINUOUS
370
    -3
390
7F6A
  0
ENDTAB
  0
TABLE
  2
STYLE
  5
7468
330
0
100
AcDbSymbolTable
 70
     5
  0
STYLE
  5
7475
330
7468
100
AcDbSymbolTableRecord
100
AcDbTextStyleTableRecord
  2
STANDARD
 70
     0
 40
0.0
 41
1.0
 50
0.0
 71
     0
 42
3.5
  3
txt
  4

  0
STYLE
  5
7481
330
7468
100
AcDbSymbolTableRecord
100
AcDbTextStyleTableRecord
  2
ADESK1
 70
     0
 40
0.0
 41
1.0
 50
0.0
 71
     0
 42
5.0
  3
romans
  4
bigfont
  0
STYLE
  5
7731
330
7468
100
AcDbSymbolTableRecord
100
AcDbTextStyleTableRecord
  2
SANWA
 70
     0
 40
0.0
 41
1.0
 50
0.0
 71
     0
 42
2.799999999999999
  3
MS Mincho.ttf
  4

1001
ACAD
1000
MS Mincho
1071
    32785
  0
STYLE
  5
7D45
330
7468
100
AcDbSymbolTableRecord
100
AcDbTextStyleTableRecord
  2

 70
     1
 40
0.0
 41
1.0
 50
0.0
 71
     0
 42
3.5
  3
ltypeshp.shx
  4

  0
STYLE
  5
81DC
330
7468
100
AcDbSymbolTableRecord
100
AcDbTextStyleTableRecord
  2
ASHADE
 70
     0
 40
0.2
 41
1.0
 50
0.0
 71
     0
 42
2.799999999999999
  3
txt.shx
  4
bigfont.shx
  0
ENDTAB
  0
TABLE
  2
VIEW
  5
746B
330
0
100
AcDbSymbolTable
 70
     0
  0
ENDTAB
  0
TABLE
  2
UCS
  5
746C
330
0
100
AcDbSymbolTable
 70
     0
  0
ENDTAB
  0
TABLE
  2
APPID
  5
746E
330
0
100
AcDbSymbolTable
 70
     6
  0
APPID
  5
7476
330
746E
100
AcDbSymbolTableRecord
100
AcDbRegAppTableRecord
  2
ACAD
 70
     0
  0
APPID
  5
81DD
330
746E
100
AcDbSymbolTableRecord
100
AcDbRegAppTableRecord
  2
AVE_RENDER
 70
     0
  0
APPID
  5
81DE
330
746E
100
AcDbSymbolTableRecord
100
AcDbRegAppTableRecord
  2
AVE_ENTITY_MATERIAL
 70
     0
  0
APPID
  5
81EB
330
746E
100
AcDbSymbolTableRecord
100
AcDbRegAppTableRecord
  2
AVE_FINISH
 70
     0
  0
APPID
  5
81EC
330
746E
100
AcDbSymbolTableRecord
100
AcDbRegAppTableRecord
  2
AVE_MATERIAL
 70
     0
  0
APPID
  5
81ED
330
746E
100
AcDbSymbolTableRecord
100
AcDbRegAppTableRecord
  2
AVE_GLOBAL
 70
     0
  0
ENDTAB
  0
TABLE
  2
DIMSTYLE
  5
746F
330
0
100
AcDbSymbolTable
 70
     4
100
AcDbDimStyleTable
 71
     1
340
796F
  0
DIMSTYLE
105
7484
330
746F
100
AcDbSymbolTableRecord
100
AcDbDimStyleTableRecord
  2
JIS
 70
     0
 41
2.5
 42
1.0
 43
7.0
 44
1.0
 73
     0
 74
     0
 77
     1
 78
     8
140
2.5
141
0.0
143
0.0394
147
0.0
172
     1
174
     1
176
     2
177
     2
178
     2
340
7731
  0
DIMSTYLE
105
796F
102
{ACAD_REACTORS
330
DF7C
330
DF7D
330
DF82
330
DF87
330
DFBE
330
DFBF
330
DFC0
330
DFC1
330
E037
330
E057
330
E05A
330
E05B
330
E086
330
E087
330
E089
330
E08E
330
E091
330
E092
330
E093
330
E0A5
330
E9B2
330
E9C1
330
E9EF
330
EA34
330
EA43
330
EA50
330
EF29
102
}
330
746F
100
AcDbSymbolTableRecord
100
AcDbDimStyleTableRecord
  2
SANWA
 70
     0
 41
2.5
 42
1.0
 43
7.0
 44
1.0
 73
     0
 74
     0
 77
     1
 78
     8
140
2.5
141
0.0
143
0.0394
147
0.0
172
     1
174
     1
176
     2
177
     2
178
     2
340
7731
  0
DIMSTYLE
105
7C9D
330
746F
100
AcDbSymbolTableRecord
100
AcDbDimStyleTableRecord
  2
SANWA$4
 70
     0
 41
2.5
 42
1.0
 43
5.0
 44
1.0
 73
     0
 74
     0
 77
     1
 78
     8
140
2.5
141
0.0
143
0.0394
147
1.0
172
     1
174
     1
176
     2
177
     2
178
     2
289
     2
340
7731
  0
DIMSTYLE
105
7CB5
330
746F
100
AcDbSymbolTableRecord
100
AcDbDimStyleTableRecord
  2
SANWA$3
 70
     0
 41
2.5
 42
1.0
 43
7.0
 44
1.0
 73
     0
 74
     0
 77
     1
 78
     8
140
2.5
141
0.0
143
0.0394
147
0.0
172
     1
174
     1
176
     2
177
     2
178
     2
289
     0
340
7731
  0
ENDTAB
  0
TABLE
  2
BLOCK_RECORD
  5
7466
330
0
100
AcDbSymbolTable
 70
    41
  0
BLOCK_RECORD
  5
747D
330
7466
100
AcDbSymbolTableRecord
100
AcDbBlockTableRecord
  2
*MODEL_SPACE
340
7F6D
  0
BLOCK_RECORD
  5
747A
330
7466
100
AcDbSymbolTableRecord
100
AcDbBlockTableRecord
  2
*PAPER_SPACE
340
7F6E
  0
BLOCK_RECORD
  5
7493
330
7466
100
AcDbSymbolTableRecord
100
AcDbBlockTableRecord
  2
TITLE_BLOCK
340
0
  0
BLOCK_RECORD
  5
81E0
330
7466
100
AcDbSymbolTableRecord
100
AcDbBlockTableRecord
  2
AVE_RENDER
340
0
102
{BLKREFS
331
81E3
331
81E4
331
81E5
331
81E6
331
81E7
331
81E8
331
81E9
331
81EA
102
}
  0
BLOCK_RECORD
  5
81EE
330
7466
100
AcDbSymbolTableRecord
100
AcDbBlockTableRecord
  2
AVE_GLOBAL
340
0
102
{BLKREFS
331
81F1
102
}
  0
BLOCK_RECORD
  5
B5E5
330
7466
100
AcDbSymbolTableRecord
100
AcDbBlockTableRecord
  2
*D3
340
0
  0
BLOCK_RECORD
  5
B5F1
330
7466
100
AcDbSymbolTableRecord
100
AcDbBlockTableRecord
  2
*D4
340
0
  0
BLOCK_RECORD
  5
B5FF
330
7466
100
AcDbSymbolTableRecord
100
AcDbBlockTableRecord
  2
*D5
340
0
  0
BLOCK_RECORD
  5
B60B
330
7466
100
AcDbSymbolTableRecord
100
AcDbBlockTableRecord
  2
*D6
340
0
  0
BLOCK_RECORD
  5
B617
330
7466
100
AcDbSymbolTableRecord
100
AcDbBlockTableRecord
  2
*D7
340
0
  0
BLOCK_RECORD
  5
B623
330
7466
100
AcDbSymbolTableRecord
100
AcDbBlockTableRecord
  2
*D8
340
0
  0
BLOCK_RECORD
  5
B62F
330
7466
100
AcDbSymbolTableRecord
100
AcDbBlockTableRecord
  2
A$C2A7F6572
340
0
  0
BLOCK_RECORD
  5
E1CB
330
7466
100
AcDbSymbolTableRecord
100
AcDbBlockTableRecord
  2
*D10
340
0
  0
BLOCK_RECORD
  5
E1D7
330
7466
100
AcDbSymbolTableRecord
100
AcDbBlockTableRecord
  2
*D11
340
0
  0
BLOCK_RECORD
  5
E1E3
330
7466
100
AcDbSymbolTableRecord
100
AcDbBlockTableRecord
  2
*D12
340
0
  0
BLOCK_RECORD
  5
E1F1
330
7466
100
AcDbSymbolTableRecord
100
AcDbBlockTableRecord
  2
*D13
340
0
  0
BLOCK_RECORD
  5
E225
330
7466
100
AcDbSymbolTableRecord
100
AcDbBlockTableRecord
  2
*D14
340
0
  0
BLOCK_RECORD
  5
E231
330
7466
100
AcDbSymbolTableRecord
100
AcDbBlockTableRecord
  2
*D15
340
0
  0
BLOCK_RECORD
  5
E23D
330
7466
100
AcDbSymbolTableRecord
100
AcDbBlockTableRecord
  2
*D16
340
0
  0
BLOCK_RECORD
  5
E249
330
7466
100
AcDbSymbolTableRecord
100
AcDbBlockTableRecord
  2
*D17
340
0
  0
BLOCK_RECORD
  5
E255
330
7466
100
AcDbSymbolTableRecord
100
AcDbBlockTableRecord
  2
*D18
340
0
  0
BLOCK_RECORD
  5
E263
330
7466
100
AcDbSymbolTableRecord
100
AcDbBlockTableRecord
  2
*D19
340
0
  0
BLOCK_RECORD
  5
E271
330
7466
100
AcDbSymbolTableRecord
100
AcDbBlockTableRecord
  2
*D20
340
0
  0
BLOCK_RECORD
  5
E27F
330
7466
100
AcDbSymbolTableRecord
100
AcDbBlockTableRecord
  2
*D21
340
0
  0
BLOCK_RECORD
  5
E28B
330
7466
100
AcDbSymbolTableRecord
100
AcDbBlockTableRecord
  2
*D22
340
0
  0
BLOCK_RECORD
  5
E2A7
330
7466
100
AcDbSymbolTableRecord
100
AcDbBlockTableRecord
  2
*D23
340
0
  0
BLOCK_RECORD
  5
E2CD
330
7466
100
AcDbSymbolTableRecord
100
AcDbBlockTableRecord
  2
*D24
340
0
  0
BLOCK_RECORD
  5
E2D9
330
7466
100
AcDbSymbolTableRecord
100
AcDbBlockTableRecord
  2
*D25
340
0
  0
BLOCK_RECORD
  5
E2FF
330
7466
100
AcDbSymbolTableRecord
100
AcDbBlockTableRecord
  2
*D26
340
0
  0
BLOCK_RECORD
  5
E30B
330
7466
100
AcDbSymbolTableRecord
100
AcDbBlockTableRecord
  2
*D27
340
0
  0
BLOCK_RECORD
  5
E317
330
7466
100
AcDbSymbolTableRecord
100
AcDbBlockTableRecord
  2
*D28
340
0
  0
BLOCK_RECORD
  5
E325
330
7466
100
AcDbSymbolTableRecord
100
AcDbBlockTableRecord
  2
*D29
340
0
  0
BLOCK_RECORD
  5
E34B
330
7466
100
AcDbSymbolTableRecord
100
AcDbBlockTableRecord
  2
*D30
340
0
  0
BLOCK_RECORD
  5
E357
330
7466
100
AcDbSymbolTableRecord
100
AcDbBlockTableRecord
  2
*D31
340
0
  0
BLOCK_RECORD
  5
E365
330
7466
100
AcDbSymbolTableRecord
100
AcDbBlockTableRecord
  2
*D32
340
0
  0
BLOCK_RECORD
  5
E38B
330
7466
100
AcDbSymbolTableRecord
100
AcDbBlockTableRecord
  2
*D33
340
0
  0
BLOCK_RECORD
  5
E9B3
330
7466
100
AcDbSymbolTableRecord
100
AcDbBlockTableRecord
  2
*D34
340
0
  0
BLOCK_RECORD
  5
E9C2
330
7466
100
AcDbSymbolTableRecord
100
AcDbBlockTableRecord
  2
*D35
340
0
  0
BLOCK_RECORD
  5
E9F0
330
7466
100
AcDbSymbolTableRecord
100
AcDbBlockTableRecord
  2
*D36
340
0
  0
BLOCK_RECORD
  5
EA35
330
7466
100
AcDbSymbolTableRecord
100
AcDbBlockTableRecord
  2
*D37
340
0
  0
BLOCK_RECORD
  5
EA44
330
7466
100
AcDbSymbolTableRecord
100
AcDbBlockTableRecord
  2
*D38
340
0
  0
BLOCK_RECORD
  5
EA51
330
7466
100
AcDbSymbolTableRecord
100
AcDbBlockTableRecord
  2
*D39
340
0
  0
BLOCK_RECORD
  5
EF2A
330
7466
100
AcDbSymbolTableRecord
100
AcDbBlockTableRecord
  2
*D40
340
0
  0
ENDTAB
  0
ENDSEC
  0
SECTION
  2
BLOCKS
  0
BLOCK
  5
7489
330
747D
100
AcDbEntity
  8
0
100
AcDbBlockBegin
  2
*MODEL_SPACE
 70
     0
 10
0.0
 20
0.0
 30
0.0
  3
*MODEL_SPACE
  1

  0
ENDBLK
  5
748A
330
747D
100
AcDbEntity
  8
0
100
AcDbBlockEnd
  0
BLOCK
  5
7487
330
747A
100
AcDbEntity
 67
     1
  8
0
100
AcDbBlockBegin
  2
*PAPER_SPACE
 70
     2
 10
0.0
 20
0.0
 30
0.0
  3
*PAPER_SPACE
  1

  0
ENDBLK
  5
7488
330
747A
100
AcDbEntity
 67
     1
  8
0
100
AcDbBlockEnd
  0
BLOCK
  5
7494
330
7493
100
AcDbEntity
  8
0
100
AcDbBlockBegin
  2
TITLE_BLOCK
 70
     2
 10
0.0
 20
0.0
 30
0.0
  3
TITLE_BLOCK
  1

  0
LINE
  5
7495
330
7493
100
AcDbEntity
  8
0
 62
     0
100
AcDbLine
 10
402.7943262411347
 20
16.00000000000008
 30
0.0
 11
410.0
 21
16.00000000000008
 31
0.0
  0
LINE
  5
7496
330
7493
100
AcDbEntity
  8
0
 62
     0
100
AcDbLine
 10
410.0
 20
10.0
 30
0.0
 11
410.0
 21
49.00000000000036
 31
0.0
  0
LINE
  5
7497
330
7493
100
AcDbEntity
  8
0
 62
     0
100
AcDbLine
 10
410.0
 20
49.00000000000036
 30
0.0
 11
410.0
 21
10.0
 31
0.0
  0
LINE
  5
7498
330
7493
100
AcDbEntity
  8
0
 62
     0
100
AcDbLine
 10
402.7943262411347
 20
22.00000000000012
 30
0.0
 11
402.7943262411347
 21
10.0
 31
0.0
  0
LINE
  5
7499
330
7493
100
AcDbEntity
  8
0
 62
     0
100
AcDbLine
 10
336.1418439716306
 20
49.00000000000036
 30
0.0
 11
336.1418439716306
 21
22.00000000000012
 31
0.0
  0
LINE
  5
749A
330
7493
100
AcDbEntity
  8
0
 62
     0
100
AcDbLine
 10
325.3333333333325
 20
37.00000000000024
 30
0.0
 11
325.3333333333325
 21
25.00000000000012
 31
0.0
  0
LINE
  5
749B
330
7493
100
AcDbEntity
  8
0
 62
     0
100
AcDbLine
 10
318.1276595744673
 20
49.00000000000036
 30
0.0
 11
318.1276595744673
 21
25.00000000000012
 31
0.0
  0
LINE
  5
749C
330
7493
100
AcDbEntity
  8
0
 62
     0
100
AcDbLine
 10
318.1276595744673
 20
25.00000000000012
 30
0.0
 11
348.7517730496447
 21
25.00000000000012
 31
0.0
  0
LINE
  5
749D
330
7493
100
AcDbEntity
  8
0
 62
     0
100
AcDbLine
 10
280.2978723404241
 20
28.00000000000015
 30
0.0
 11
348.7517730496447
 21
28.00000000000015
 31
0.0
  0
LINE
  5
749E
330
7493
100
AcDbEntity
  8
0
 62
     0
100
AcDbLine
 10
280.2978723404241
 20
31.0000000000002
 30
0.0
 11
348.7517730496447
 21
31.0000000000002
 31
0.0
  0
LINE
  5
749F
330
7493
100
AcDbEntity
  8
0
 62
     0
100
AcDbLine
 10
280.2978723404241
 20
34.00000000000024
 30
0.0
 11
348.7517730496447
 21
34.00000000000024
 31
0.0
  0
LINE
  5
74A0
330
7493
100
AcDbEntity
  8
0
 62
     0
100
AcDbLine
 10
280.2978723404241
 20
19.00000000000007
 30
0.0
 11
318.1276595744673
 21
19.00000000000012
 31
0.0
  0
LINE
  5
74A1
330
7493
100
AcDbEntity
  8
0
 62
     0
100
AcDbLine
 10
280.2978723404241
 20
22.00000000000007
 30
0.0
 11
318.1276595744673
 21
22.00000000000012
 31
0.0
  0
LINE
  5
74A2
330
7493
100
AcDbEntity
  8
0
 62
     0
100
AcDbLine
 10
280.2978723404241
 20
25.00000000000012
 30
0.0
 11
318.1276595744673
 21
25.00000000000012
 31
0.0
  0
TEXT
  5
74A3
330
7493
100
AcDbEntity
  8
0
 62
     0
100
AcDbText
 10
342.2447163844405
 20
10.55220101068186
 30
0.0
 40
1.791674070777747
  1
照査
  7
ADESK1
 72
     1
 11
344.1558353932701
 21
10.55220101068186
 31
0.0
100
AcDbText
  0
TEXT
  5
74A4
330
7493
100
AcDbEntity
  8
0
 62
     0
100
AcDbText
 10
332.2960689314087
 20
10.48329012996929
 30
0.0
 40
1.791674070777747
  1
設計
  7
ADESK1
 72
     1
 11
334.2071879402383
 21
10.48329012996929
 31
0.0
100
AcDbText
  0
TEXT
  5
74A5
330
7493
100
AcDbEntity
  8
0
 62
     0
100
AcDbText
 10
321.7174935280942
 20
10.48329012996929
 30
0.0
 40
1.791674070777747
  1
製図
  7
ADESK1
 72
     1
 11
323.5688900678979
 21
10.48329012996929
 31
0.0
100
AcDbText
  0
LINE
  5
74A6
330
7493
100
AcDbEntity
  8
0
 62
     0
100
AcDbLine
 10
280.2978723404241
 20
10.0
 30
0.0
 11
280.2978723404241
 21
13.00000000000004
 31
0.0
  0
LINE
  5
74A7
330
7493
100
AcDbEntity
  8
0
 62
     0
100
AcDbLine
 10
280.2978723404241
 20
16.00000000000008
 30
0.0
 11
318.1276595744673
 21
16.00000000000008
 31
0.0
  0
LINE
  5
74A8
330
7493
100
AcDbEntity
  8
0
 62
     0
100
AcDbLine
 10
339.4042553191484
 20
22.00000000000007
 30
0.0
 11
339.4042553191484
 21
10.0
 31
0.0
  0
LINE
  5
74A9
330
7493
100
AcDbEntity
  8
0
 62
     0
100
AcDbLine
 10
328.7659574468077
 20
22.00000000000007
 30
0.0
 11
328.7659574468077
 21
10.0
 31
0.0
  0
LINE
  5
74AA
330
7493
100
AcDbEntity
  8
0
 62
     0
100
AcDbLine
 10
348.7517730496447
 20
49.00000000000036
 30
0.0
 11
348.7517730496447
 21
10.0
 31
0.0
  0
LINE
  5
74AB
330
7493
100
AcDbEntity
  8
0
 62
     0
100
AcDbLine
 10
280.2978723404241
 20
49.00000000000036
 30
0.0
 11
280.2978723404241
 21
10.0
 31
0.0
  0
LINE
  5
74AC
330
7493
100
AcDbEntity
  8
0
 62
     0
100
AcDbLine
 10
318.1276595744673
 20
25.00000000000012
 30
0.0
 11
318.1276595744673
 21
10.0
 31
0.0
  0
LINE
  5
74AD
330
7493
100
AcDbEntity
  8
0
 62
     0
100
AcDbLine
 10
312.7234042553184
 20
37.00000000000024
 30
0.0
 11
312.7234042553184
 21
10.0
 31
0.0
  0
LINE
  5
74AE
330
7493
100
AcDbEntity
  8
0
 62
     0
100
AcDbLine
 10
285.702127659573
 20
37.00000000000024
 30
0.0
 11
285.702127659573
 21
10.0
 31
0.0
  0
LINE
  5
74AF
330
7493
100
AcDbEntity
  8
0
 62
     0
100
AcDbLine
 10
303.7163120567365
 20
37.00000000000024
 30
0.0
 11
303.7163120567365
 21
10.0
 31
0.0
  0
LINE
  5
74B0
330
7493
100
AcDbEntity
  8
0
 62
     0
100
AcDbLine
 10
410.0
 20
49.00000000000036
 30
0.0
 11
280.2978723404241
 21
49.00000000000036
 31
0.0
  0
LINE
  5
74B1
330
7493
100
AcDbEntity
  8
0
 62
     0
100
AcDbLine
 10
280.2978723404241
 20
10.0
 30
0.0
 11
410.0
 21
10.0
 31
0.0
  0
LINE
  5
74B2
330
7493
100
AcDbEntity
  8
0
 62
     0
100
AcDbLine
 10
318.1276595744673
 20
22.00000000000012
 30
0.0
 11
410.0
 21
22.00000000000012
 31
0.0
  0
LINE
  5
74B3
330
7493
100
AcDbEntity
  8
0
 62
     0
100
AcDbLine
 10
280.2978723404241
 20
37.00000000000024
 30
0.0
 11
410.0
 21
37.00000000000024
 31
0.0
  0
LINE
  5
74B4
330
7493
100
AcDbEntity
  8
0
 62
     0
100
AcDbLine
 10
280.2978723404241
 20
13.00000000000004
 30
0.0
 11
410.0
 21
13.00000000000004
 31
0.0
  0
LINE
  5
74B5
330
7493
100
AcDbEntity
  8
0
 62
     0
100
AcDbLine
 10
280.2978723404241
 20
49.00000000000036
 30
0.0
 11
410.0
 21
49.00000000000036
 31
0.0
  0
TEXT
  5
74B6
330
7493
100
AcDbEntity
  8
0
100
AcDbText
 10
411.3708251683467
 20
33.08333333333334
 30
0.0
 40
3.0
  1
F
  7
ADESK1
 72
     1
 11
412.8708251683468
 21
33.08333333333334
 31
0.0
100
AcDbText
  0
TEXT
  5
74B7
330
7493
100
AcDbEntity
  8
0
100
AcDbText
 10
411.3708251683467
 20
79.25
 30
0.0
 40
3.0
  1
E
  7
ADESK1
 72
     1
 11
412.8708251683468
 21
79.25
 31
0.0
100
AcDbText
  0
TEXT
  5
74B8
330
7493
100
AcDbEntity
  8
0
100
AcDbText
 10
411.2993965969182
 20
125.4166666666666
 30
0.0
 40
3.0
  1
D
  7
ADESK1
 72
     1
 11
412.8708251683468
 21
125.4166666666666
 31
0.0
100
AcDbText
  0
TEXT
  5
74B9
330
7493
100
AcDbEntity
  8
0
100
AcDbText
 10
411.3708251683467
 20
171.5833333333333
 30
0.0
 40
3.0
  1
C
  7
ADESK1
 72
     1
 11
412.8708251683468
 21
171.5833333333333
 31
0.0
100
AcDbText
  0
TEXT
  5
74BA
330
7493
100
AcDbEntity
  8
0
100
AcDbText
 10
411.2993965969182
 20
217.7499999999999
 30
0.0
 40
3.0
  1
B
  7
ADESK1
 72
     1
 11
412.8708251683468
 21
217.7499999999999
 31
0.0
100
AcDbText
  0
TEXT
  5
74BB
330
7493
100
AcDbEntity
  8
0
100
AcDbText
 10
411.5851108826324
 20
263.9166666666666
 30
0.0
 40
3.0
  1
A
  7
ADESK1
 72
     1
 11
412.8708251683468
 21
263.9166666666666
 31
0.0
100
AcDbText
  0
TEXT
  5
74BC
330
7493
100
AcDbEntity
  8
0
100
AcDbText
 10
384.5089285714285
 20
6.019997240728748
 30
0.0
 40
3.0
  1
8
  7
ADESK1
 72
     1
 11
385.9375
 21
6.019997240728748
 31
0.0
100
AcDbText
  0
TEXT
  5
74BD
330
7493
100
AcDbEntity
  8
0
100
AcDbText
 10
336.3839285714285
 20
6.019997240728748
 30
0.0
 40
3.0
  1
7
  7
ADESK1
 72
     1
 11
337.8125
 21
6.019997240728748
 31
0.0
100
AcDbText
  0
TEXT
  5
74BE
330
7493
100
AcDbEntity
  8
0
100
AcDbText
 10
288.1874999999999
 20
6.019997240728748
 30
0.0
 40
3.0
  1
6
  7
ADESK1
 72
     1
 11
289.6875
 21
6.019997240728748
 31
0.0
100
AcDbText
  0
TEXT
  5
74BF
330
7493
100
AcDbEntity
  8
0
100
AcDbText
 10
240.1339285714285
 20
6.019997240728748
 30
0.0
 40
3.0
  1
5
  7
ADESK1
 72
     1
 11
241.5624999999999
 21
6.019997240728748
 31
0.0
100
AcDbText
  0
TEXT
  5
74C0
330
7493
100
AcDbEntity
  8
0
100
AcDbText
 10
191.9375
 20
6.019997240728748
 30
0.0
 40
3.0
  1
4
  7
ADESK1
 72
     1
 11
193.4375
 21
6.019997240728748
 31
0.0
100
AcDbText
  0
TEXT
  5
74C1
330
7493
100
AcDbEntity
  8
0
100
AcDbText
 10
143.8839285714285
 20
6.019997240728748
 30
0.0
 40
3.0
  1
3
  7
ADESK1
 72
     1
 11
145.3125
 21
6.019997240728748
 31
0.0
100
AcDbText
  0
TEXT
  5
74C2
330
7493
100
AcDbEntity
  8
0
100
AcDbText
 10
95.75892857142857
 20
6.019997240728748
 30
0.0
 40
3.0
  1
2
  7
ADESK1
 72
     1
 11
97.1875
 21
6.019997240728748
 31
0.0
100
AcDbText
  0
TEXT
  5
74C3
330
7493
100
AcDbEntity
  8
0
100
AcDbText
 10
47.84821428571429
 20
6.019997240728748
 30
0.0
 40
3.0
  1
1
  7
ADESK1
 72
     1
 11
49.0625
 21
6.019997240728748
 31
0.0
100
AcDbText
  0
TEXT
  5
74C4
330
7493
100
AcDbEntity
  8
0
100
AcDbText
 10
21.10716135953389
 20
33.08333333333334
 30
0.0
 40
3.0
  1
F
  7
ADESK1
 72
     1
 11
22.60716135953389
 21
33.08333333333334
 31
0.0
100
AcDbText
  0
TEXT
  5
74C5
330
7493
100
AcDbEntity
  8
0
100
AcDbText
 10
21.10716135953389
 20
79.25
 30
0.0
 40
3.0
  1
E
  7
ADESK1
 72
     1
 11
22.60716135953389
 21
79.25
 31
0.0
100
AcDbText
  0
TEXT
  5
74C6
330
7493
100
AcDbEntity
  8
0
100
AcDbText
 10
21.03573278810532
 20
125.4166666666666
 30
0.0
 40
3.0
  1
D
  7
ADESK1
 72
     1
 11
22.60716135953389
 21
125.4166666666666
 31
0.0
100
AcDbText
  0
TEXT
  5
74C7
330
7493
100
AcDbEntity
  8
0
100
AcDbText
 10
21.10716135953389
 20
171.5833333333333
 30
0.0
 40
3.0
  1
C
  7
ADESK1
 72
     1
 11
22.60716135953389
 21
171.5833333333333
 31
0.0
100
AcDbText
  0
TEXT
  5
74C8
330
7493
100
AcDbEntity
  8
0
100
AcDbText
 10
21.03573278810532
 20
217.7499999999999
 30
0.0
 40
3.0
  1
B
  7
ADESK1
 72
     1
 11
22.60716135953389
 21
217.7499999999999
 31
0.0
100
AcDbText
  0
TEXT
  5
74C9
330
7493
100
AcDbEntity
  8
0
100
AcDbText
 10
384.5089285714285
 20
288.0
 30
0.0
 40
3.0
  1
8
  7
ADESK1
 72
     1
 11
385.9375
 21
288.0
 31
0.0
100
AcDbText
  0
TEXT
  5
74CA
330
7493
100
AcDbEntity
  8
0
100
AcDbText
 10
336.3839285714285
 20
288.0
 30
0.0
 40
3.0
  1
7
  7
ADESK1
 72
     1
 11
337.8125
 21
288.0
 31
0.0
100
AcDbText
  0
TEXT
  5
74CB
330
7493
100
AcDbEntity
  8
0
100
AcDbText
 10
288.1874999999999
 20
288.0
 30
0.0
 40
3.0
  1
6
  7
ADESK1
 72
     1
 11
289.6875
 21
288.0
 31
0.0
100
AcDbText
  0
TEXT
  5
74CC
330
7493
100
AcDbEntity
  8
0
100
AcDbText
 10
240.1339285714285
 20
288.0
 30
0.0
 40
3.0
  1
5
  7
ADESK1
 72
     1
 11
241.5624999999999
 21
288.0
 31
0.0
100
AcDbText
  0
TEXT
  5
74CD
330
7493
100
AcDbEntity
  8
0
100
AcDbText
 10
191.9375
 20
288.0
 30
0.0
 40
3.0
  1
4
  7
ADESK1
 72
     1
 11
193.4375
 21
288.0
 31
0.0
100
AcDbText
  0
TEXT
  5
74CE
330
7493
100
AcDbEntity
  8
0
100
AcDbText
 10
143.8839285714285
 20
288.0
 30
0.0
 40
3.0
  1
3
  7
ADESK1
 72
     1
 11
145.3125
 21
288.0
 31
0.0
100
AcDbText
  0
TEXT
  5
74CF
330
7493
100
AcDbEntity
  8
0
100
AcDbText
 10
95.75892857142857
 20
288.0
 30
0.0
 40
3.0
  1
2
  7
ADESK1
 72
     1
 11
97.1875
 21
288.0
 31
0.0
100
AcDbText
  0
TEXT
  5
74D0
330
7493
100
AcDbEntity
  8
0
100
AcDbText
 10
21.32144707381961
 20
263.9166666666666
 30
0.0
 40
3.0
  1
A
  7
ADESK1
 72
     1
 11
22.60716135953389
 21
263.9166666666666
 31
0.0
100
AcDbText
  0
TEXT
  5
74D1
330
7493
100
AcDbEntity
  8
0
100
AcDbText
 10
47.84821428571429
 20
288.0
 30
0.0
 40
3.0
  1
1
  7
ADESK1
 72
     1
 11
49.0625
 21
288.0
 31
0.0
100
AcDbText
  0
LINE
  5
74D2
330
7493
100
AcDbEntity
  8
0
100
AcDbLine
 10
73.125
 20
287.0
 30
0.0
 11
73.125
 21
292.0
 31
0.0
  0
LINE
  5
74D3
330
7493
100
AcDbEntity
  8
0
100
AcDbLine
 10
121.25
 20
287.0
 30
0.0
 11
121.25
 21
292.0
 31
0.0
  0
LINE
  5
74D4
330
7493
100
AcDbEntity
  8
0
100
AcDbLine
 10
169.375
 20
287.0
 30
0.0
 11
169.375
 21
292.0
 31
0.0
  0
LINE
  5
74D5
330
7493
100
AcDbEntity
  8
0
100
AcDbLine
 10
217.5
 20
287.0
 30
0.0
 11
217.5
 21
292.0
 31
0.0
  0
LINE
  5
74D6
330
7493
100
AcDbEntity
  8
0
100
AcDbLine
 10
265.625
 20
287.0
 30
0.0
 11
265.625
 21
292.0
 31
0.0
  0
LINE
  5
74D7
330
7493
100
AcDbEntity
  8
0
100
AcDbLine
 10
313.75
 20
287.0
 30
0.0
 11
313.75
 21
292.0
 31
0.0
  0
LINE
  5
74D8
330
7493
100
AcDbEntity
  8
0
100
AcDbLine
 10
361.8749999999999
 20
287.0
 30
0.0
 11
361.8749999999999
 21
292.0
 31
0.0
  0
LINE
  5
74D9
330
7493
100
AcDbEntity
  8
0
100
AcDbLine
 10
361.8749999999999
 20
10.0
 30
0.0
 11
361.8749999999999
 21
5.0
 31
0.0
  0
LINE
  5
74DA
330
7493
100
AcDbEntity
  8
0
100
AcDbLine
 10
313.75
 20
10.0
 30
0.0
 11
313.75
 21
5.0
 31
0.0
  0
LINE
  5
74DB
330
7493
100
AcDbEntity
  8
0
100
AcDbLine
 10
265.625
 20
10.0
 30
0.0
 11
265.625
 21
5.0
 31
0.0
  0
LINE
  5
74DC
330
7493
100
AcDbEntity
  8
0
100
AcDbLine
 10
217.5
 20
10.0
 30
0.0
 11
217.5
 21
5.0
 31
0.0
  0
LINE
  5
74DD
330
7493
100
AcDbEntity
  8
0
100
AcDbLine
 10
169.375
 20
10.0
 30
0.0
 11
169.375
 21
5.0
 31
0.0
  0
LINE
  5
74DE
330
7493
100
AcDbEntity
  8
0
100
AcDbLine
 10
121.25
 20
10.0
 30
0.0
 11
121.25
 21
5.0
 31
0.0
  0
LINE
  5
74DF
330
7493
100
AcDbEntity
  8
0
100
AcDbLine
 10
73.125
 20
10.0
 30
0.0
 11
73.125
 21
5.0
 31
0.0
  0
LINE
  5
74E0
330
7493
100
AcDbEntity
  8
0
100
AcDbLine
 10
410.0
 20
240.8333333333333
 30
0.0
 11
415.0
 21
240.8333333333333
 31
0.0
  0
LINE
  5
74E1
330
7493
100
AcDbEntity
  8
0
100
AcDbLine
 10
410.0
 20
194.6666666666667
 30
0.0
 11
415.0
 21
194.6666666666667
 31
0.0
  0
LINE
  5
74E2
330
7493
100
AcDbEntity
  8
0
100
AcDbLine
 10
410.0
 20
148.5
 30
0.0
 11
415.0
 21
148.5
 31
0.0
  0
LINE
  5
74E3
330
7493
100
AcDbEntity
  8
0
100
AcDbLine
 10
410.0
 20
102.3333333333333
 30
0.0
 11
415.0
 21
102.3333333333333
 31
0.0
  0
LINE
  5
74E4
330
7493
100
AcDbEntity
  8
0
100
AcDbLine
 10
410.0
 20
56.16666666666668
 30
0.0
 11
415.0
 21
56.16666666666668
 31
0.0
  0
LINE
  5
74E5
330
7493
100
AcDbEntity
  8
0
100
AcDbLine
 10
25.0
 20
56.16666666666667
 30
0.0
 11
20.0
 21
56.16666666666667
 31
0.0
  0
LINE
  5
74E6
330
7493
100
AcDbEntity
  8
0
100
AcDbLine
 10
25.0
 20
102.3333333333333
 30
0.0
 11
20.0
 21
102.3333333333333
 31
0.0
  0
LINE
  5
74E7
330
7493
100
AcDbEntity
  8
0
100
AcDbLine
 10
25.0
 20
148.5
 30
0.0
 11
20.0
 21
148.5
 31
0.0
  0
LINE
  5
74E8
330
7493
100
AcDbEntity
  8
0
100
AcDbLine
 10
25.0
 20
194.6666666666666
 30
0.0
 11
20.0
 21
194.6666666666666
 31
0.0
  0
LINE
  5
74E9
330
7493
100
AcDbEntity
  8
0
100
AcDbLine
 10
25.0
 20
240.8333333333333
 30
0.0
 11
20.0
 21
240.8333333333333
 31
0.0
  0
TEXT
  5
74EA
330
7493
100
AcDbEntity
  8
0
100
AcDbText
 10
1.0
 20
1.0
 30
0.0
 40
3.0
  1
この図枠はサンプルです。社内の規格やプロッタの出力範囲に合わせて適当に変更してご利用ください。
  7
ADESK1
100
AcDbText
  0
LINE
  5
74EB
330
7493
100
AcDbEntity
  8
0
100
AcDbLine
 10
25.0
 20
148.5
 30
0.0
 11
0.0
 21
148.5
 31
0.0
  0
LINE
  5
74EC
330
7493
100
AcDbEntity
  8
0
100
AcDbLine
 10
410.0
 20
148.5
 30
0.0
 11
420.0
 21
148.5
 31
0.0
  0
LINE
  5
74ED
330
7493
100
AcDbEntity
  8
0
100
AcDbLine
 10
217.5
 20
287.0
 30
0.0
 11
217.5
 21
297.0
 31
0.0
  0
LINE
  5
74EE
330
7493
100
AcDbEntity
  8
0
100
AcDbLine
 10
217.5
 20
10.0
 30
0.0
 11
217.5
 21
0.0
 31
0.0
  0
LINE
  5
74EF
330
7493
100
AcDbEntity
  8
OBJECT
100
AcDbLine
 10
130.0
 20
40.0
 30
0.0
 11
130.0
 21
10.0
 31
0.0
  0
LINE
  5
74F0
330
7493
100
AcDbEntity
  8
OBJECT
100
AcDbLine
 10
120.0
 20
10.0
 30
0.0
 11
120.0
 21
40.0
 31
0.0
  0
LINE
  5
74F1
330
7493
100
AcDbEntity
  8
OBJECT
100
AcDbLine
 10
44.5
 20
37.0
 30
0.0
 11
45.49999999999999
 21
37.0
 31
0.0
  0
LINE
  5
74F2
330
7493
100
AcDbEntity
  8
OBJECT
100
AcDbLine
 10
44.5
 20
31.0
 30
0.0
 11
45.49999999999999
 21
31.0
 31
0.0
  0
LINE
  5
74F3
330
7493
100
AcDbEntity
  8
OBJECT
100
AcDbLine
 10
39.5
 20
37.0
 30
0.0
 11
40.49999999999999
 21
37.0
 31
0.0
  0
LINE
  5
74F4
330
7493
100
AcDbEntity
  8
OBJECT
100
AcDbLine
 10
39.5
 20
31.0
 30
0.0
 11
40.49999999999999
 21
31.0
 31
0.0
  0
LINE
  5
74F5
330
7493
100
AcDbEntity
  8
OBJECT
100
AcDbLine
 10
44.5
 20
25.0
 30
0.0
 11
45.49999999999999
 21
25.0
 31
0.0
  0
LINE
  5
74F6
330
7493
100
AcDbEntity
  8
OBJECT
100
AcDbLine
 10
39.5
 20
25.0
 30
0.0
 11
40.49999999999999
 21
25.0
 31
0.0
  0
LINE
  5
74F7
330
7493
100
AcDbEntity
  8
OBJECT
100
AcDbLine
 10
44.5
 20
19.0
 30
0.0
 11
45.49999999999999
 21
19.0
 31
0.0
  0
LINE
  5
74F8
330
7493
100
AcDbEntity
  8
OBJECT
100
AcDbLine
 10
39.5
 20
19.0
 30
0.0
 11
40.49999999999999
 21
19.0
 31
0.0
  0
LINE
  5
74F9
330
7493
100
AcDbEntity
  8
OBJECT
100
AcDbLine
 10
28.0
 20
29.535898
 30
0.0
 11
30.0
 21
33.0
 31
0.0
  0
LINE
  5
74FA
330
7493
100
AcDbEntity
  8
OBJECT
100
AcDbLine
 10
28.0
 20
29.535898
 30
0.0
 11
32.0
 21
29.535898
 31
0.0
  0
LINE
  5
74FB
330
7493
100
AcDbEntity
  8
OBJECT
100
AcDbLine
 10
32.0
 20
29.535898
 30
0.0
 11
30.0
 21
33.0
 31
0.0
  0
LINE
  5
74FC
330
7493
100
AcDbEntity
  8
OBJECT
100
AcDbLine
 10
28.0
 20
35.53589799999999
 30
0.0
 11
32.0
 21
35.53589799999999
 31
0.0
  0
LINE
  5
74FD
330
7493
100
AcDbEntity
  8
OBJECT
100
AcDbLine
 10
32.0
 20
35.53589799999999
 30
0.0
 11
30.0
 21
39.0
 31
0.0
  0
LINE
  5
74FE
330
7493
100
AcDbEntity
  8
OBJECT
100
AcDbLine
 10
28.0
 20
35.53589799999999
 30
0.0
 11
30.0
 21
39.0
 31
0.0
  0
LINE
  5
74FF
330
7493
100
AcDbEntity
  8
OBJECT
100
AcDbLine
 10
28.0
 20
23.53589799999999
 30
0.0
 11
30.0
 21
26.99999999999999
 31
0.0
  0
LINE
  5
7500
330
7493
100
AcDbEntity
  8
OBJECT
100
AcDbLine
 10
28.0
 20
23.53589799999999
 30
0.0
 11
32.0
 21
23.53589799999999
 31
0.0
  0
LINE
  5
7501
330
7493
100
AcDbEntity
  8
OBJECT
100
AcDbLine
 10
32.0
 20
23.53589799999999
 30
0.0
 11
30.0
 21
26.99999999999999
 31
0.0
  0
LINE
  5
7502
330
7493
100
AcDbEntity
  8
OBJECT
100
AcDbLine
 10
28.0
 20
17.535898
 30
0.0
 11
30.0
 21
20.99999999999999
 31
0.0
  0
LINE
  5
7503
330
7493
100
AcDbEntity
  8
OBJECT
100
AcDbLine
 10
28.0
 20
17.535898
 30
0.0
 11
32.0
 21
17.535898
 31
0.0
  0
LINE
  5
7504
330
7493
100
AcDbEntity
  8
OBJECT
100
AcDbLine
 10
32.0
 20
17.535898
 30
0.0
 11
30.0
 21
20.99999999999999
 31
0.0
  0
LINE
  5
7505
330
7493
100
AcDbEntity
  8
OBJECT
100
AcDbLine
 10
44.5
 20
13.0
 30
0.0
 11
45.49999999999999
 21
13.0
 31
0.0
  0
LINE
  5
7506
330
7493
100
AcDbEntity
  8
OBJECT
100
AcDbLine
 10
39.5
 20
13.0
 30
0.0
 11
40.49999999999999
 21
13.0
 31
0.0
  0
LINE
  5
7507
330
7493
100
AcDbEntity
  8
OBJECT
100
AcDbLine
 10
28.0
 20
11.53589799999999
 30
0.0
 11
32.0
 21
11.53589799999999
 31
0.0
  0
LINE
  5
7508
330
7493
100
AcDbEntity
  8
OBJECT
100
AcDbLine
 10
80.0
 20
10.0
 30
0.0
 11
80.0
 21
40.0
 31
0.0
  0
LINE
  5
7509
330
7493
100
AcDbEntity
  8
OBJECT
100
AcDbLine
 10
50.0
 20
10.0
 30
0.0
 11
50.0
 21
40.0
 31
0.0
  0
LINE
  5
750A
330
7493
100
AcDbEntity
  8
OBJECT
100
AcDbLine
 10
35.0
 20
10.0
 30
0.0
 11
35.0
 21
40.0
 31
0.0
  0
LINE
  5
750B
330
7493
100
AcDbEntity
  8
OBJECT
100
AcDbLine
 10
32.0
 20
11.53589799999999
 30
0.0
 11
30.0
 21
15.0
 31
0.0
  0
LINE
  5
750C
330
7493
100
AcDbEntity
  8
OBJECT
100
AcDbLine
 10
28.0
 20
11.53589799999999
 30
0.0
 11
30.0
 21
15.0
 31
0.0
  0
LINE
  5
750D
330
7493
100
AcDbEntity
  8
OBJECT
100
AcDbLine
 10
130.0
 20
40.0
 30
0.0
 11
25.0
 21
40.0
 31
0.0
  0
LINE
  5
750E
330
7493
100
AcDbEntity
  8
OBJECT
100
AcDbLine
 10
130.0
 20
34.0
 30
0.0
 11
25.0
 21
34.0
 31
0.0
  0
LINE
  5
750F
330
7493
100
AcDbEntity
  8
OBJECT
100
AcDbLine
 10
130.0
 20
28.0
 30
0.0
 11
25.0
 21
28.0
 31
0.0
  0
LINE
  5
7510
330
7493
100
AcDbEntity
  8
OBJECT
100
AcDbLine
 10
130.0
 20
22.0
 30
0.0
 11
25.0
 21
22.0
 31
0.0
  0
LINE
  5
7511
330
7493
100
AcDbEntity
  8
OBJECT
100
AcDbLine
 10
130.0
 20
16.0
 30
0.0
 11
25.0
 21
16.0
 31
0.0
  0
ATTDEF
  5
7512
330
7493
100
AcDbEntity
  8
0
 62
     0
100
AcDbText
 10
19.0
 20
118.0
 30
0.0
 40
3.0
  1

 50
90.0
  7
ADESK1
100
AcDbAttributeDefinition
  3

  2
FNAME
 70
     8
  0
ATTDEF
  5
7513
330
7493
100
AcDbEntity
  8
0
 62
     0
100
AcDbText
 10
19.0
 20
70.0
 30
0.0
 40
3.0
  1

 50
90.0
  7
ADESK1
100
AcDbAttributeDefinition
  3

  2
REVDATE
 70
     8
  0
ATTDEF
  5
7514
330
7493
100
AcDbEntity
  8
0
 62
     0
100
AcDbText
 10
19.0
 20
10.0
 30
0.0
 40
3.0
  1

 50
90.0
  7
ADESK1
100
AcDbAttributeDefinition
  3

  2
USER
 70
     8
  0
LINE
  5
7515
330
7493
100
AcDbEntity
  8
0
100
AcDbLine
 10
410.0
 20
297.0
 30
0.0
 11
420.0
 21
297.0
 31
0.0
  0
LINE
  5
7516
330
7493
100
AcDbEntity
  8
0
100
AcDbLine
 10
420.0
 20
10.0
 30
0.0
 11
420.0
 21
0.0
 31
0.0
  0
LINE
  5
7517
330
7493
100
AcDbEntity
  8
0
100
AcDbLine
 10
25.0
 20
0.0
 30
0.0
 11
0.0
 21
0.0
 31
0.0
  0
LINE
  5
7518
330
7493
100
AcDbEntity
  8
0
100
AcDbLine
 10
0.0
 20
287.0
 30
0.0
 11
0.0
 21
297.0
 31
0.0
  0
LINE
  5
7519
330
7493
100
AcDbEntity
  8
0
100
AcDbLine
 10
25.0
 20
287.0
 30
0.0
 11
410.0
 21
287.0
 31
0.0
  0
LINE
  5
751A
330
7493
100
AcDbEntity
  8
0
100
AcDbLine
 10
410.0
 20
287.0
 30
0.0
 11
410.0
 21
10.0
 31
0.0
  0
LINE
  5
751B
330
7493
100
AcDbEntity
  8
0
100
AcDbLine
 10
410.0
 20
10.0
 30
0.0
 11
25.0
 21
10.0
 31
0.0
  0
LINE
  5
751C
330
7493
100
AcDbEntity
  8
0
100
AcDbLine
 10
25.0
 20
10.0
 30
0.0
 11
25.0
 21
287.0
 31
0.0
  0
LINE
  5
751D
330
7493
100
AcDbEntity
  8
0
100
AcDbLine
 10
420.0
 20
0.0
 30
0.0
 11
410.0
 21
0.0
 31
0.0
  0
LINE
  5
751E
330
7493
100
AcDbEntity
  8
0
100
AcDbLine
 10
420.0
 20
297.0
 30
0.0
 11
420.0
 21
287.0
 31
0.0
  0
LINE
  5
751F
330
7493
100
AcDbEntity
  8
0
100
AcDbLine
 10
0.0
 20
297.0
 30
0.0
 11
25.0
 21
297.0
 31
0.0
  0
LINE
  5
7520
330
7493
100
AcDbEntity
  8
0
100
AcDbLine
 10
0.0
 20
0.0
 30
0.0
 11
0.0
 21
10.0
 31
0.0
  0
ENDBLK
  5
7521
330
7493
100
AcDbEntity
  8
0
100
AcDbBlockEnd
  0
BLOCK
  5
81E1
330
81E0
100
AcDbEntity
  8
ASHADE
 48
15.0
100
AcDbBlockBegin
  2
AVE_RENDER
 70
     0
 10
0.0
 20
0.0
 30
0.0
  3
AVE_RENDER
  1
AVE_RENDER
  0
ENDBLK
  5
81E2
330
81E0
100
AcDbEntity
  8
0
 48
15.0
100
AcDbBlockEnd
  0
BLOCK
  5
81EF
330
81EE
100
AcDbEntity
  8
ASHADE
 48
15.0
100
AcDbBlockBegin
  2
AVE_GLOBAL
 70
     0
 10
0.0
 20
0.0
 30
0.0
  3
AVE_GLOBAL
  1
AVE_GLOBAL
  0
ENDBLK
  5
81F0
330
81EE
100
AcDbEntity
  8
0
 48
15.0
100
AcDbBlockEnd
  0
BLOCK
  5
B5EF
330
B5E5
100
AcDbEntity
  8
0
 48
15.0
100
AcDbBlockBegin
  2
*D3
 70
     1
 10
0.0
 20
0.0
 30
0.0
  3
*D3
  1

  0
LINE
  5
B5E6
330
B5E5
100
AcDbEntity
  8
寸法引出
 48
15.0
370
    -2
100
AcDbLine
 10
6973.274595131051
 20
7531.629990087882
 30
0.0
 11
7004.415281902786
 21
7531.629990087882
 31
0.0
  0
LINE
  5
B5E7
330
B5E5
100
AcDbEntity
  8
寸法引出
 48
15.0
370
    -2
100
AcDbLine
 10
6885.712134144798
 20
8331.629990087884
 30
0.0
 11
7004.415281902786
 21
8331.629990087884
 31
0.0
  0
LINE
  5
B5E8
330
B5E5
100
AcDbEntity
  8
寸法引出
 48
15.0
370
    -2
100
AcDbLine
 10
6991.915281902786
 20
7569.129990087882
 30
0.0
 11
6991.915281902786
 21
8294.129990087885
 31
0.0
  0
SOLID
  5
B5E9
330
B5E5
100
AcDbEntity
  8
寸法引出
 48
15.0
100
AcDbTrace
 10
6985.665281902786
 20
7569.129990087882
 30
0.0
 11
6998.165281902785
 21
7569.129990087882
 31
0.0
 12
6991.915281902786
 22
7531.629990087882
 32
0.0
 13
6991.915281902786
 23
7531.629990087882
 33
0.0
  0
SOLID
  5
B5EA
330
B5E5
100
AcDbEntity
  8
寸法引出
 48
15.0
100
AcDbTrace
 10
6985.665281902786
 20
8294.129990087885
 30
0.0
 11
6998.165281902785
 21
8294.129990087885
 31
0.0
 12
6991.915281902786
 22
8331.629990087884
 32
0.0
 13
6991.915281902786
 23
8331.629990087884
 33
0.0
  0
MTEXT
  5
B5EB
330
B5E5
100
AcDbEntity
  8
寸法引出
 48
15.0
100
AcDbMText
 10
6941.915281902784
 20
7931.629990087884
 30
0.0
 40
50.0
 41
0.0
 71
     5
 72
     1
  1
\A1;800
  7
SANWA
 11
0.0000000000000001
 21
1.0
 31
0.0
 73
     1
 44
1.0
  0
POINT
  5
B5EC
330
B5E5
100
AcDbEntity
  8
DEFPOINTS
 62
     0
 48
15.0
100
AcDbPoint
 10
6948.27459513105
 20
7531.629990087882
 30
0.0
  0
POINT
  5
B5ED
330
B5E5
100
AcDbEntity
  8
DEFPOINTS
 62
     0
 48
15.0
100
AcDbPoint
 10
6860.712134144797
 20
8331.629990087884
 30
0.0
  0
POINT
  5
B5EE
330
B5E5
100
AcDbEntity
  8
DEFPOINTS
 62
     0
 48
15.0
100
AcDbPoint
 10
6991.915281902786
 20
8331.629990087884
 30
0.0
  0
ENDBLK
  5
B5F0
330
B5E5
100
AcDbEntity
  8
0
 48
15.0
100
AcDbBlockEnd
  0
BLOCK
  5
B5FD
330
B5F1
100
AcDbEntity
  8
0
 48
15.0
100
AcDbBlockBegin
  2
*D4
 70
     1
 10
0.0
 20
0.0
 30
0.0
  3
*D4
  1

  0
LINE
  5
B5F2
330
B5F1
100
AcDbEntity
  8
寸法引出
 48
15.0
370
    -2
100
AcDbLine
 10
6885.712134144798
 20
8331.629990087884
 30
0.0
 11
7004.415281902786
 21
8331.629990087884
 31
0.0
  0
LINE
  5
B5F3
330
B5F1
100
AcDbEntity
  8
寸法引出
 48
15.0
370
    -2
100
AcDbLine
 10
6885.712134144798
 20
8431.629990087884
 30
0.0
 11
7004.415281902786
 21
8431.629990087884
 31
0.0
  0
LINE
  5
B5F4
330
B5F1
100
AcDbEntity
  8
寸法引出
 48
15.0
370
    -2
100
AcDbLine
 10
6991.915281902786
 20
8294.129990087885
 30
0.0
 11
6991.915281902786
 21
8256.629990087885
 31
0.0
  0
LINE
  5
B5F5
330
B5F1
100
AcDbEntity
  8
寸法引出
 48
15.0
370
    -2
100
AcDbLine
 10
6991.915281902786
 20
8469.129990087884
 30
0.0
 11
6991.915281902786
 21
8506.629990087885
 31
0.0
  0
LINE
  5
B5F6
330
B5F1
100
AcDbEntity
  8
寸法引出
 48
15.0
370
    -2
100
AcDbLine
 10
6991.915281902786
 20
8331.629990087884
 30
0.0
 11
6991.915281902786
 21
8431.629990087884
 31
0.0
  0
SOLID
  5
B5F7
330
B5F1
100
AcDbEntity
  8
寸法引出
 48
15.0
100
AcDbTrace
 10
6985.665281902786
 20
8294.129990087885
 30
0.0
 11
6998.165281902785
 21
8294.129990087885
 31
0.0
 12
6991.915281902786
 22
8331.629990087884
 32
0.0
 13
6991.915281902786
 23
8331.629990087884
 33
0.0
  0
SOLID
  5
B5F8
330
B5F1
100
AcDbEntity
  8
寸法引出
 48
15.0
100
AcDbTrace
 10
6985.665281902786
 20
8469.129990087884
 30
0.0
 11
6998.165281902785
 21
8469.129990087884
 31
0.0
 12
6991.915281902786
 22
8431.629990087884
 32
0.0
 13
6991.915281902786
 23
8431.629990087884
 33
0.0
  0
MTEXT
  5
B5F9
330
B5F1
100
AcDbEntity
  8
寸法引出
 48
15.0
100
AcDbMText
 10
6941.915281902784
 20
8381.629990087885
 30
0.0
 40
50.0
 41
0.0
 71
     5
 72
     1
  1
\A1;100
  7
SANWA
 11
0.0000000000000001
 21
1.0
 31
0.0
 73
     1
 44
1.0
  0
POINT
  5
B5FA
330
B5F1
100
AcDbEntity
  8
DEFPOINTS
 62
     0
 48
15.0
100
AcDbPoint
 10
6860.712134144797
 20
8331.629990087884
 30
0.0
  0
POINT
  5
B5FB
330
B5F1
100
AcDbEntity
  8
DEFPOINTS
 62
     0
 48
15.0
100
AcDbPoint
 10
6860.712134144797
 20
8431.629990087884
 30
0.0
  0
POINT
  5
B5FC
330
B5F1
100
AcDbEntity
  8
DEFPOINTS
 62
     0
 48
15.0
100
AcDbPoint
 10
6991.915281902786
 20
8431.629990087884
 30
0.0
  0
ENDBLK
  5
B5FE
330
B5F1
100
AcDbEntity
  8
0
 48
15.0
100
AcDbBlockEnd
  0
BLOCK
  5
B609
330
B5FF
100
AcDbEntity
  8
0
 48
15.0
100
AcDbBlockBegin
  2
*D5
 70
     1
 10
0.0
 20
0.0
 30
0.0
  3
*D5
  1

  0
LINE
  5
B600
330
B5FF
100
AcDbEntity
  8
寸法引出
 48
15.0
370
    -2
100
AcDbLine
 10
6973.274595131049
 20
7531.629990087882
 30
0.0
 11
7081.18475167752
 21
7531.629990087882
 31
0.0
  0
LINE
  5
B601
330
B5FF
100
AcDbEntity
  8
寸法引出
 48
15.0
370
    -2
100
AcDbLine
 10
6885.712134144798
 20
8431.629990087884
 30
0.0
 11
7081.18475167752
 21
8431.629990087884
 31
0.0
  0
LINE
  5
B602
330
B5FF
100
AcDbEntity
  8
寸法引出
 48
15.0
370
    -2
100
AcDbLine
 10
7068.68475167752
 20
7569.129990087882
 30
0.0
 11
7068.68475167752
 21
8394.129990087884
 31
0.0
  0
SOLID
  5
B603
330
B5FF
100
AcDbEntity
  8
寸法引出
 48
15.0
100
AcDbTrace
 10
7062.43475167752
 20
7569.129990087882
 30
0.0
 11
7074.93475167752
 21
7569.129990087882
 31
0.0
 12
7068.68475167752
 22
7531.629990087882
 32
0.0
 13
7068.68475167752
 23
7531.629990087882
 33
0.0
  0
SOLID
  5
B604
330
B5FF
100
AcDbEntity
  8
寸法引出
 48
15.0
100
AcDbTrace
 10
7062.43475167752
 20
8394.129990087884
 30
0.0
 11
7074.93475167752
 21
8394.129990087884
 31
0.0
 12
7068.68475167752
 22
8431.629990087884
 32
0.0
 13
7068.68475167752
 23
8431.629990087884
 33
0.0
  0
MTEXT
  5
B605
330
B5FF
100
AcDbEntity
  8
寸法引出
 48
15.0
100
AcDbMText
 10
7018.68475167752
 20
7981.629990087885
 30
0.0
 40
50.0
 41
0.0
 71
     5
 72
     1
  1
\A1;900
  7
SANWA
 11
0.0000000000000001
 21
1.0
 31
0.0
 73
     1
 44
1.0
  0
POINT
  5
B606
330
B5FF
100
AcDbEntity
  8
DEFPOINTS
 62
     0
 48
15.0
100
AcDbPoint
 10
6948.274595131049
 20
7531.629990087882
 30
0.0
  0
POINT
  5
B607
330
B5FF
100
AcDbEntity
  8
DEFPOINTS
 62
     0
 48
15.0
100
AcDbPoint
 10
6860.712134144797
 20
8431.629990087884
 30
0.0
  0
POINT
  5
B608
330
B5FF
100
AcDbEntity
  8
DEFPOINTS
 62
     0
 48
15.0
100
AcDbPoint
 10
7068.68475167752
 20
8431.629990087884
 30
0.0
  0
ENDBLK
  5
B60A
330
B5FF
100
AcDbEntity
  8
0
 48
15.0
100
AcDbBlockEnd
  0
BLOCK
  5
B615
330
B60B
100
AcDbEntity
  8
0
 48
15.0
100
AcDbBlockBegin
  2
*D6
 70
     1
 10
0.0
 20
0.0
 30
0.0
  3
*D6
  1

  0
LINE
  5
B60C
330
B60B
100
AcDbEntity
  8
寸法引出
 48
15.0
370
    -2
100
AcDbLine
 10
6860.712134144797
 20
8456.629990087884
 30
0.0
 11
6860.712134144797
 21
8536.895361818416
 31
0.0
  0
LINE
  5
B60D
330
B60B
100
AcDbEntity
  8
寸法引出
 48
15.0
370
    -2
100
AcDbLine
 10
7160.712134144798
 20
8456.629990087884
 30
0.0
 11
7160.712134144798
 21
8536.895361818416
 31
0.0
  0
LINE
  5
B60E
330
B60B
100
AcDbEntity
  8
寸法引出
 48
15.0
370
    -2
100
AcDbLine
 10
6898.212134144798
 20
8524.395361818417
 30
0.0
 11
7123.212134144798
 21
8524.395361818417
 31
0.0
  0
SOLID
  5
B60F
330
B60B
100
AcDbEntity
  8
寸法引出
 48
15.0
100
AcDbTrace
 10
6898.212134144798
 20
8530.645361818416
 30
0.0
 11
6898.212134144798
 21
8518.145361818417
 31
0.0
 12
6860.712134144797
 22
8524.395361818417
 32
0.0
 13
6860.712134144797
 23
8524.395361818417
 33
0.0
  0
SOLID
  5
B610
330
B60B
100
AcDbEntity
  8
寸法引出
 48
15.0
100
AcDbTrace
 10
7123.212134144798
 20
8530.645361818416
 30
0.0
 11
7123.212134144798
 21
8518.145361818417
 31
0.0
 12
7160.712134144798
 22
8524.395361818417
 32
0.0
 13
7160.712134144798
 23
8524.395361818417
 33
0.0
  0
MTEXT
  5
B611
330
B60B
100
AcDbEntity
  8
寸法引出
 48
15.0
100
AcDbMText
 10
7010.712134144798
 20
8574.395361818416
 30
0.0
 40
50.0
 41
0.0
 71
     5
 72
     1
  1
\A1;300
  7
SANWA
 73
     1
 44
1.0
  0
POINT
  5
B612
330
B60B
100
AcDbEntity
  8
DEFPOINTS
 62
     0
 48
15.0
100
AcDbPoint
 10
6860.712134144797
 20
8431.629990087884
 30
0.0
  0
POINT
  5
B613
330
B60B
100
AcDbEntity
  8
DEFPOINTS
 62
     0
 48
15.0
100
AcDbPoint
 10
7160.712134144798
 20
8431.629990087884
 30
0.0
  0
POINT
  5
B614
330
B60B
100
AcDbEntity
  8
DEFPOINTS
 62
     0
 48
15.0
100
AcDbPoint
 10
7160.712134144798
 20
8524.395361818417
 30
0.0
  0
ENDBLK
  5
B616
330
B60B
100
AcDbEntity
  8
0
 48
15.0
100
AcDbBlockEnd
  0
BLOCK
  5
B621
330
B617
100
AcDbEntity
  8
0
 48
15.0
100
AcDbBlockBegin
  2
*D7
 70
     1
 10
0.0
 20
0.0
 30
0.0
  3
*D7
  1

  0
LINE
  5
B618
330
B617
100
AcDbEntity
  8
寸法引出
 48
15.0
370
    -2
100
AcDbLine
 10
6810.712134144798
 20
8456.629990087884
 30
0.0
 11
6810.712134144798
 21
8647.401181367939
 31
0.0
  0
LINE
  5
B619
330
B617
100
AcDbEntity
  8
寸法引出
 48
15.0
370
    -2
100
AcDbLine
 10
7210.712134144798
 20
8456.629990087884
 30
0.0
 11
7210.712134144798
 21
8647.401181367939
 31
0.0
  0
LINE
  5
B61A
330
B617
100
AcDbEntity
  8
寸法引出
 48
15.0
370
    -2
100
AcDbLine
 10
6848.212134144798
 20
8634.90118136794
 30
0.0
 11
7173.212134144797
 21
8634.90118136794
 31
0.0
  0
SOLID
  5
B61B
330
B617
100
AcDbEntity
  8
寸法引出
 48
15.0
100
AcDbTrace
 10
6848.212134144798
 20
8641.15118136794
 30
0.0
 11
6848.212134144798
 21
8628.65118136794
 31
0.0
 12
6810.712134144798
 22
8634.90118136794
 32
0.0
 13
6810.712134144798
 23
8634.90118136794
 33
0.0
  0
SOLID
  5
B61C
330
B617
100
AcDbEntity
  8
寸法引出
 48
15.0
100
AcDbTrace
 10
7173.212134144797
 20
8641.15118136794
 30
0.0
 11
7173.212134144797
 21
8628.65118136794
 31
0.0
 12
7210.712134144798
 22
8634.90118136794
 32
0.0
 13
7210.712134144798
 23
8634.90118136794
 33
0.0
  0
MTEXT
  5
B61D
330
B617
100
AcDbEntity
  8
寸法引出
 48
15.0
100
AcDbMText
 10
7010.712134144798
 20
8684.901181367939
 30
0.0
 40
50.0
 41
0.0
 71
     5
 72
     1
  1
\A1;400
  7
SANWA
 73
     1
 44
1.0
  0
POINT
  5
B61E
330
B617
100
AcDbEntity
  8
DEFPOINTS
 62
     0
 48
15.0
100
AcDbPoint
 10
6810.712134144798
 20
8431.629990087884
 30
0.0
  0
POINT
  5
B61F
330
B617
100
AcDbEntity
  8
DEFPOINTS
 62
     0
 48
15.0
100
AcDbPoint
 10
7210.712134144798
 20
8431.629990087884
 30
0.0
  0
POINT
  5
B620
330
B617
100
AcDbEntity
  8
DEFPOINTS
 62
     0
 48
15.0
100
AcDbPoint
 10
7210.712134144798
 20
8634.90118136794
 30
0.0
  0
ENDBLK
  5
B622
330
B617
100
AcDbEntity
  8
0
 48
15.0
100
AcDbBlockEnd
  0
BLOCK
  5
B62D
330
B623
100
AcDbEntity
  8
0
 48
15.0
100
AcDbBlockBegin
  2
*D8
 70
     1
 10
0.0
 20
0.0
 30
0.0
  3
*D8
  1

  0
LINE
  5
B624
330
B623
100
AcDbEntity
  8
寸法引出
 48
15.0
370
    -2
100
AcDbLine
 10
7185.712134144798
 20
7381.629990087882
 30
0.0
 11
7371.715787046937
 21
7381.629990087882
 31
0.0
  0
LINE
  5
B625
330
B623
100
AcDbEntity
  8
寸法引出
 48
15.0
370
    -2
100
AcDbLine
 10
7235.712134144797
 20
8431.629990087884
 30
0.0
 11
7371.715787046937
 21
8431.629990087884
 31
0.0
  0
LINE
  5
B626
330
B623
100
AcDbEntity
  8
寸法引出
 48
15.0
370
    -2
100
AcDbLine
 10
7359.215787046938
 20
7419.129990087881
 30
0.0
 11
7359.215787046938
 21
8394.129990087884
 31
0.0
  0
SOLID
  5
B627
330
B623
100
AcDbEntity
  8
寸法引出
 48
15.0
100
AcDbTrace
 10
7352.965787046938
 20
7419.129990087881
 30
0.0
 11
7365.465787046938
 21
7419.129990087881
 31
0.0
 12
7359.215787046938
 22
7381.629990087882
 32
0.0
 13
7359.215787046938
 23
7381.629990087882
 33
0.0
  0
SOLID
  5
B628
330
B623
100
AcDbEntity
  8
寸法引出
 48
15.0
100
AcDbTrace
 10
7352.965787046938
 20
8394.129990087884
 30
0.0
 11
7365.465787046938
 21
8394.129990087884
 31
0.0
 12
7359.215787046938
 22
8431.629990087884
 32
0.0
 13
7359.215787046938
 23
8431.629990087884
 33
0.0
  0
MTEXT
  5
B629
330
B623
100
AcDbEntity
  8
寸法引出
 48
15.0
100
AcDbMText
 10
7309.215787046937
 20
7906.629990087885
 30
0.0
 40
50.0
 41
0.0
 71
     5
 72
     1
  1
\A1;1050
  7
SANWA
 11
0.0000000000000001
 21
1.0
 31
0.0
 73
     1
 44
1.0
  0
POINT
  5
B62A
330
B623
100
AcDbEntity
  8
DEFPOINTS
 62
     0
 48
15.0
100
AcDbPoint
 10
7160.712134144798
 20
7381.629990087882
 30
0.0
  0
POINT
  5
B62B
330
B623
100
AcDbEntity
  8
DEFPOINTS
 62
     0
 48
15.0
100
AcDbPoint
 10
7210.712134144798
 20
8431.629990087884
 30
0.0
  0
POINT
  5
B62C
330
B623
100
AcDbEntity
  8
DEFPOINTS
 62
     0
 48
15.0
100
AcDbPoint
 10
7359.215787046938
 20
8431.629990087884
 30
0.0
  0
ENDBLK
  5
B62E
330
B623
100
AcDbEntity
  8
0
 48
15.0
100
AcDbBlockEnd
  0
BLOCK
  5
B645
330
B62F
100
AcDbEntity
  8
0
 48
25.0
100
AcDbBlockBegin
  2
A$C2A7F6572
 70
     0
 10
0.0
 20
0.0
 30
0.0
  3
A$C2A7F6572
  1

  0
DIMENSION
  5
B630
330
B62F
100
AcDbEntity
  8
寸法引出
 48
15.0
100
AcDbDimension
  2
*D7
 10
532.7046336285029
 20
1633.75853985067
 30
0.0
 11
332.7046336285029
 21
1683.75853985067
 31
0.0
 12
-6678.007500516294
 22
-7001.142641517268
 32
0.0
 71
     5
 42
400.0
  3
SANWA
100
AcDbAlignedDimension
 13
132.7046336285029
 23
1430.487348570615
 33
0.0
 14
532.7046336285029
 24
1430.487348570615
 34
0.0
100
AcDbRotatedDimension
1001
ACAD
1000
DSTYLE
1002
{
1070
    40
1040
25.0
1070
    41
1040
1.5
1070
    43
1040
5.0
1070
    44
1040
0.5
1070
   140
1040
2.0
1070
   147
1040
1.0
1070
   176
1070
   256
1070
   177
1070
   256
1070
   178
1070
   256
1002
}
  0
DIMENSION
  5
B631
330
B62F
100
AcDbEntity
  8
寸法引出
 48
15.0
100
AcDbDimension
  2
*D6
 10
482.7046336285029
 20
1523.252720301148
 30
0.0
 11
332.7046336285029
 21
1573.252720301148
 31
0.0
 12
-6678.007500516294
 22
-7001.142641517268
 32
0.0
 71
     5
 42
300.0
  3
SANWA
100
AcDbAlignedDimension
 13
182.7046336285029
 23
1430.487348570615
 33
0.0
 14
482.7046336285029
 24
1430.487348570615
 34
0.0
100
AcDbRotatedDimension
1001
ACAD
1000
DSTYLE
1002
{
1070
    40
1040
25.0
1070
    41
1040
1.5
1070
    43
1040
5.0
1070
    44
1040
0.5
1070
   140
1040
2.0
1070
   147
1040
1.0
1070
   176
1070
   256
1070
   177
1070
   256
1070
   178
1070
   256
1002
}
  0
MTEXT
  5
B632
330
B62F
100
AcDbEntity
  8
寸法引出
 48
15.0
100
AcDbMText
 10
382.0571102726644
 20
132.8144646556593
 30
0.0
 40
200.0
 41
0.0
 71
     5
 72
     1
  1
902kg
  7
SANWA
 73
     1
 44
1.0
  0
DIMENSION
  5
B633
330
B62F
100
AcDbEntity
  8
寸法引出
 48
15.0
100
AcDbDimension
  2
*D5
 10
390.6772511612262
 20
1430.487348570615
 30
0.0
 11
340.6772511612253
 21
980.4873485706165
 31
0.0
 12
-6678.007500516294
 22
-7001.142641517268
 32
0.0
 71
     5
 42
900.0000000000017
  3
SANWA
100
AcDbAlignedDimension
 13
270.2670946147545
 23
530.4873485706139
 33
0.0
 14
182.7046336285029
 24
1430.487348570615
 34
0.0
 50
90.0
100
AcDbRotatedDimension
1001
ACAD
1000
DSTYLE
1002
{
1070
    40
1040
25.0
1070
    41
1040
1.5
1070
    43
1040
5.0
1070
    44
1040
0.5
1070
   140
1040
2.0
1070
   147
1040
1.0
1070
   176
1070
   256
1070
   177
1070
   256
1070
   178
1070
   256
1002
}
  0
DIMENSION
  5
B634
330
B62F
100
AcDbEntity
  8
寸法引出
 48
15.0
100
AcDbDimension
  2
*D4
 10
313.9077813864905
 20
1430.487348570615
 30
0.0
 11
263.9077813864896
 21
1380.487348570617
 31
0.0
 12
-6678.007500516294
 22
-7001.142641517268
 32
0.0
 71
     5
 42
100.0
  3
SANWA
100
AcDbAlignedDimension
 13
182.7046336285029
 23
1330.487348570615
 33
0.0
 14
182.7046336285029
 24
1430.487348570615
 34
0.0
 50
90.0
100
AcDbRotatedDimension
1001
ACAD
1000
DSTYLE
1002
{
1070
   279
1070
     1
1070
    40
1040
25.0
1070
    41
1040
1.5
1070
    43
1040
5.0
1070
    44
1040
0.5
1070
   140
1040
2.0
1070
   147
1040
1.0
1070
   176
1070
   256
1070
   177
1070
   256
1070
   178
1070
   256
1002
}
  0
DIMENSION
  5
B635
330
B62F
100
AcDbEntity
  8
寸法引出
 48
15.0
100
AcDbDimension
  2
*D3
 10
313.9077813864905
 20
1330.487348570615
 30
0.0
 11
263.9077813864896
 21
930.4873485706165
 31
0.0
 12
-6678.007500516294
 22
-7001.142641517268
 32
0.0
 71
     5
 42
800.0000000000017
  3
SANWA
100
AcDbAlignedDimension
 13
270.2670946147554
 23
530.4873485706139
 33
0.0
 14
182.7046336285029
 24
1330.487348570615
 34
0.0
 50
90.0
100
AcDbRotatedDimension
1001
ACAD
1000
DSTYLE
1002
{
1070
    40
1040
25.0
1070
    41
1040
1.5
1070
    43
1040
5.0
1070
    44
1040
0.5
1070
   140
1040
2.0
1070
   147
1040
1.0
1070
   176
1070
   256
1070
   177
1070
   256
1070
   178
1070
   256
1002
}
  0
LINE
  5
B636
330
B62F
100
AcDbEntity
  8
0
 48
15.0
100
AcDbLine
 10
182.7046336285029
 20
1330.487348570615
 30
0.0
 11
220.3294776708626
 21
577.9904677234189
 31
0.0
  0
LINE
  5
B637
330
B62F
100
AcDbEntity
  8
0
 48
15.0
100
AcDbLine
 10
182.7046336285038
 20
380.4873485706139
 30
0.0
 11
482.7046336285039
 21
380.4873485706139
 31
0.0
  0
LINE
  5
B638
330
B62F
100
AcDbEntity
  8
0
 48
15.0
100
AcDbLine
 10
132.7046336285029
 20
1430.487348570615
 30
0.0
 11
132.7046336285029
 21
430.4873485706139
 31
0.0
  0
LINE
  5
B639
330
B62F
100
AcDbEntity
  8
0
 48
15.0
100
AcDbLine
 10
182.7046336285029
 20
380.4873485706139
 30
0.0
 11
132.7046336285029
 21
430.4873485706139
 31
0.0
  0
LINE
  5
B63A
330
B62F
100
AcDbEntity
  8
0
 48
15.0
100
AcDbLine
 10
182.7046336285029
 20
1330.487348570615
 30
0.0
 11
182.7046336285029
 21
1430.487348570615
 31
0.0
  0
LINE
  5
B63B
330
B62F
100
AcDbEntity
  8
0
 48
15.0
100
AcDbLine
 10
132.7046336285029
 20
1430.487348570615
 30
0.0
 11
182.7046336285029
 21
1430.487348570615
 31
0.0
  0
DIMENSION
  5
B63C
330
B62F
100
AcDbEntity
  8
寸法引出
 48
15.0
100
AcDbDimension
  2
*D8
 10
681.2082865306438
 20
1430.487348570615
 30
0.0
 11
631.2082865306429
 21
905.4873485706165
 31
0.0
 12
-6678.007500516294
 22
-7001.142641517268
 32
0.0
 71
     5
 42
1050.000000000001
  3
SANWA
100
AcDbAlignedDimension
 13
482.7046336285039
 23
380.4873485706139
 33
0.0
 14
532.7046336285029
 24
1430.487348570615
 34
0.0
 50
90.0
100
AcDbRotatedDimension
1001
ACAD
1000
DSTYLE
1002
{
1070
    40
1040
25.0
1070
    41
1040
1.5
1070
    43
1040
5.0
1070
    44
1040
0.5
1070
   140
1040
2.0
1070
   147
1040
1.0
1070
   176
1070
   256
1070
   177
1070
   256
1070
   178
1070
   256
1002
}
  0
LINE
  5
B63D
330
B62F
100
AcDbEntity
  8
0
 48
15.0
100
AcDbLine
 10
445.0797895861433
 20
577.9904677234172
 30
0.0
 11
482.7046336285029
 21
1330.487348570615
 31
0.0
  0
LINE
  5
B63E
330
B62F
100
AcDbEntity
  8
0
 48
15.0
100
AcDbLine
 10
532.7046336285029
 20
1430.487348570615
 30
0.0
 11
532.7046336285029
 21
430.4873485706139
 31
0.0
  0
LINE
  5
B63F
330
B62F
100
AcDbEntity
  8
0
 48
15.0
100
AcDbLine
 10
482.7046336285029
 20
380.4873485706139
 30
0.0
 11
532.7046336285029
 21
430.4873485706139
 31
0.0
  0
ARC
  5
B640
330
B62F
100
AcDbEntity
  8
0
 48
15.0
100
AcDbCircle
 10
395.1421726422504
 20
580.4873485706139
 30
0.0
 40
50.0
100
AcDbArc
 50
270.0
 51
357.1375947739012
  0
ARC
  5
B641
330
B62F
100
AcDbEntity
  8
0
 48
15.0
100
AcDbCircle
 10
270.2670946147554
 20
580.4873485706139
 30
0.0
 40
50.0
100
AcDbArc
 50
182.8624052260987
 51
270.0
  0
LINE
  5
B642
330
B62F
100
AcDbEntity
  8
0
 48
15.0
100
AcDbLine
 10
270.2670946147554
 20
530.4873485706139
 30
0.0
 11
395.1421726422504
 21
530.4873485706139
 31
0.0
  0
LINE
  5
B643
330
B62F
100
AcDbEntity
  8
0
 48
15.0
100
AcDbLine
 10
482.7046336285029
 20
1430.487348570615
 30
0.0
 11
532.7046336285029
 21
1430.487348570615
 31
0.0
  0
LINE
  5
B644
330
B62F
100
AcDbEntity
  8
0
 48
15.0
100
AcDbLine
 10
482.7046336285029
 20
1330.487348570615
 30
0.0
 11
482.7046336285029
 21
1430.487348570615
 31
0.0
  0
ENDBLK
  5
B646
330
B62F
100
AcDbEntity
  8
0
 48
25.0
100
AcDbBlockEnd
  0
BLOCK
  5
E1D5
330
E1CB
100
AcDbEntity
  8
0
 48
25.0
100
AcDbBlockBegin
  2
*D10
 70
     1
 10
0.0
 20
0.0
 30
0.0
  3
*D10
  1

  0
LINE
  5
F3F0
330
E1CB
100
AcDbEntity
  8
寸法引出
 48
25.0
370
    -2
100
AcDbLine
 10
2640.124842940757
 20
3637.250569887545
 30
0.0
 11
2878.392109630513
 21
3637.250569887545
 31
0.0
  0
LINE
  5
F3F1
330
E1CB
100
AcDbEntity
  8
寸法引出
 48
25.0
370
    -2
100
AcDbLine
 10
2640.124842940757
 20
2237.250569887544
 30
0.0
 11
2878.392109630513
 21
2237.250569887544
 31
0.0
  0
LINE
  5
F3F2
330
E1CB
100
AcDbEntity
  8
寸法引出
 48
25.0
370
    -2
100
AcDbLine
 10
2865.892109630513
 20
3599.750569887545
 30
0.0
 11
2865.892109630513
 21
2274.750569887543
 31
0.0
  0
SOLID
  5
F3F3
330
E1CB
100
AcDbEntity
  8
寸法引出
 48
25.0
100
AcDbTrace
 10
2859.642109630513
 20
3599.750569887545
 30
0.0
 11
2872.142109630513
 21
3599.750569887545
 31
0.0
 12
2865.892109630513
 22
3637.250569887545
 32
0.0
 13
2865.892109630513
 23
3637.250569887545
 33
0.0
  0
SOLID
  5
F3F4
330
E1CB
100
AcDbEntity
  8
寸法引出
 48
25.0
100
AcDbTrace
 10
2859.642109630513
 20
2274.750569887543
 30
0.0
 11
2872.142109630513
 21
2274.750569887543
 31
0.0
 12
2865.892109630513
 22
2237.250569887544
 32
0.0
 13
2865.892109630513
 23
2237.250569887544
 33
0.0
  0
MTEXT
  5
F3F5
330
E1CB
100
AcDbEntity
  8
寸法引出
 48
25.0
100
AcDbMText
 10
2815.892109630512
 20
2937.250569887545
 30
0.0
 40
50.0
 41
0.0
 71
     5
 72
     1
  1
\A1;1400
  7
SANWA
 11
0.0000000000000001
 21
1.0
 31
0.0
 73
     1
 44
1.0
  0
POINT
  5
F3F6
330
E1CB
100
AcDbEntity
  8
DEFPOINTS
 62
     0
 48
25.0
100
AcDbPoint
 10
2615.124842940756
 20
3637.250569887545
 30
0.0
  0
POINT
  5
F3F7
330
E1CB
100
AcDbEntity
  8
DEFPOINTS
 62
     0
 48
25.0
100
AcDbPoint
 10
2615.124842940756
 20
2237.250569887544
 30
0.0
  0
POINT
  5
F3F8
330
E1CB
100
AcDbEntity
  8
DEFPOINTS
 62
     0
 48
25.0
100
AcDbPoint
 10
2865.892109630513
 20
2237.250569887544
 30
0.0
  0
ENDBLK
  5
E1D6
330
E1CB
100
AcDbEntity
  8
0
 48
25.0
100
AcDbBlockEnd
  0
BLOCK
  5
E1E1
330
E1D7
100
AcDbEntity
  8
0
 48
25.0
100
AcDbBlockBegin
  2
*D11
 70
     1
 10
0.0
 20
0.0
 30
0.0
  3
*D11
  1

  0
LINE
  5
F3E7
330
E1D7
100
AcDbEntity
  8
寸法引出
 48
25.0
370
    -2
100
AcDbLine
 10
2640.124842940757
 20
3637.250569887545
 30
0.0
 11
2986.361510292365
 21
3637.250569887545
 31
0.0
  0
LINE
  5
F3E8
330
E1D7
100
AcDbEntity
  8
寸法引出
 48
25.0
370
    -2
100
AcDbLine
 10
2600.124842940753
 20
2112.250569887544
 30
0.0
 11
2986.361510292365
 21
2112.250569887544
 31
0.0
  0
LINE
  5
F3E9
330
E1D7
100
AcDbEntity
  8
寸法引出
 48
25.0
370
    -2
100
AcDbLine
 10
2973.861510292366
 20
3599.750569887545
 30
0.0
 11
2973.861510292365
 21
2149.750569887543
 31
0.0
  0
SOLID
  5
F3EA
330
E1D7
100
AcDbEntity
  8
寸法引出
 48
25.0
100
AcDbTrace
 10
2967.611510292366
 20
3599.750569887545
 30
0.0
 11
2980.111510292365
 21
3599.750569887545
 31
0.0
 12
2973.861510292366
 22
3637.250569887545
 32
0.0
 13
2973.861510292366
 23
3637.250569887545
 33
0.0
  0
SOLID
  5
F3EB
330
E1D7
100
AcDbEntity
  8
寸法引出
 48
25.0
100
AcDbTrace
 10
2967.611510292364
 20
2149.750569887543
 30
0.0
 11
2980.111510292365
 21
2149.750569887543
 31
0.0
 12
2973.861510292365
 22
2112.250569887544
 32
0.0
 13
2973.861510292365
 23
2112.250569887544
 33
0.0
  0
MTEXT
  5
F3EC
330
E1D7
100
AcDbEntity
  8
寸法引出
 48
25.0
100
AcDbMText
 10
2923.861510292364
 20
2874.750569887545
 30
0.0
 40
50.0
 41
0.0
 71
     5
 72
     1
  1
\A1;1525
  7
SANWA
 11
0.0000000000000001
 21
1.0
 31
0.0
 73
     1
 44
1.0
  0
POINT
  5
F3ED
330
E1D7
100
AcDbEntity
  8
DEFPOINTS
 62
     0
 48
25.0
100
AcDbPoint
 10
2615.124842940756
 20
3637.250569887545
 30
0.0
  0
POINT
  5
F3EE
330
E1D7
100
AcDbEntity
  8
DEFPOINTS
 62
     0
 48
25.0
100
AcDbPoint
 10
2575.124842940753
 20
2112.250569887544
 30
0.0
  0
POINT
  5
F3EF
330
E1D7
100
AcDbEntity
  8
DEFPOINTS
 62
     0
 48
25.0
100
AcDbPoint
 10
2973.861510292365
 20
2112.250569887544
 30
0.0
  0
ENDBLK
  5
E1E2
330
E1D7
100
AcDbEntity
  8
0
 48
25.0
100
AcDbBlockEnd
  0
BLOCK
  5
E1EF
330
E1E3
100
AcDbEntity
  8
0
 48
25.0
100
AcDbBlockBegin
  2
*D12
 70
     1
 10
0.0
 20
0.0
 30
0.0
  3
*D12
  1

  0
LINE
  5
F3F9
330
E1E3
100
AcDbEntity
  8
寸法引出
 48
25.0
370
    -2
100
AcDbLine
 10
2640.124842940757
 20
2237.250569887544
 30
0.0
 11
2878.392109630513
 21
2237.250569887544
 31
0.0
  0
LINE
  5
F3FA
330
E1E3
100
AcDbEntity
  8
寸法引出
 48
25.0
370
    -2
100
AcDbLine
 10
2600.124842940753
 20
2112.250569887544
 30
0.0
 11
2878.392109630513
 21
2112.250569887544
 31
0.0
  0
LINE
  5
F3FB
330
E1E3
100
AcDbEntity
  8
寸法引出
 48
25.0
370
    -2
100
AcDbLine
 10
2865.892109630513
 20
2274.750569887543
 30
0.0
 11
2865.892109630513
 21
2312.250569887543
 31
0.0
  0
LINE
  5
F3FC
330
E1E3
100
AcDbEntity
  8
寸法引出
 48
25.0
370
    -2
100
AcDbLine
 10
2865.892109630513
 20
2074.750569887544
 30
0.0
 11
2865.892109630513
 21
2037.250569887543
 31
0.0
  0
LINE
  5
F3FD
330
E1E3
100
AcDbEntity
  8
寸法引出
 48
25.0
370
    -2
100
AcDbLine
 10
2865.892109630513
 20
2237.250569887544
 30
0.0
 11
2865.892109630513
 21
2112.250569887544
 31
0.0
  0
SOLID
  5
F3FE
330
E1E3
100
AcDbEntity
  8
寸法引出
 48
25.0
100
AcDbTrace
 10
2859.642109630513
 20
2274.750569887543
 30
0.0
 11
2872.142109630513
 21
2274.750569887543
 31
0.0
 12
2865.892109630513
 22
2237.250569887544
 32
0.0
 13
2865.892109630513
 23
2237.250569887544
 33
0.0
  0
SOLID
  5
F3FF
330
E1E3
100
AcDbEntity
  8
寸法引出
 48
25.0
100
AcDbTrace
 10
2859.642109630513
 20
2074.750569887544
 30
0.0
 11
2872.142109630513
 21
2074.750569887544
 31
0.0
 12
2865.892109630513
 22
2112.250569887544
 32
0.0
 13
2865.892109630513
 23
2112.250569887544
 33
0.0
  0
MTEXT
  5
F400
330
E1E3
100
AcDbEntity
  8
寸法引出
 48
25.0
100
AcDbMText
 10
2815.892109630512
 20
2174.750569887544
 30
0.0
 40
50.0
 41
0.0
 71
     5
 72
     1
  1
\A1;125
  7
SANWA
 11
0.0000000000000001
 21
1.0
 31
0.0
 73
     1
 44
1.0
  0
POINT
  5
F401
330
E1E3
100
AcDbEntity
  8
DEFPOINTS
 62
     0
 48
25.0
100
AcDbPoint
 10
2615.124842940756
 20
2237.250569887544
 30
0.0
  0
POINT
  5
F402
330
E1E3
100
AcDbEntity
  8
DEFPOINTS
 62
     0
 48
25.0
100
AcDbPoint
 10
2575.124842940753
 20
2112.250569887544
 30
0.0
  0
POINT
  5
F403
330
E1E3
100
AcDbEntity
  8
DEFPOINTS
 62
     0
 48
25.0
100
AcDbPoint
 10
2865.892109630513
 20
2112.250569887544
 30
0.0
  0
ENDBLK
  5
E1F0
330
E1E3
100
AcDbEntity
  8
0
 48
25.0
100
AcDbBlockEnd
  0
BLOCK
  5
E1FB
330
E1F1
100
AcDbEntity
  8
0
 48
25.0
100
AcDbBlockBegin
  2
*D13
 70
     1
 10
0.0
 20
0.0
 30
0.0
  3
*D13
  1

  0
LINE
  5
F38C
330
E1F1
100
AcDbEntity
  8
寸法引出
 48
25.0
370
    -2
100
AcDbLine
 10
1718.876008220366
 20
898.9652226668013
 30
0.0
 11
1718.876008220366
 21
810.7434378874923
 31
0.0
  0
LINE
  5
F38D
330
E1F1
100
AcDbEntity
  8
寸法引出
 48
25.0
370
    -2
100
AcDbLine
 10
1868.876008220366
 20
972.4652226668013
 30
0.0
 11
1868.876008220366
 21
810.7434378874923
 31
0.0
  0
LINE
  5
F38E
330
E1F1
100
AcDbEntity
  8
寸法引出
 48
25.0
370
    -2
100
AcDbLine
 10
1756.376008220366
 20
823.2434378874923
 30
0.0
 11
1831.376008220366
 21
823.2434378874923
 31
0.0
  0
SOLID
  5
F38F
330
E1F1
100
AcDbEntity
  8
寸法引出
 48
25.0
100
AcDbTrace
 10
1756.376008220366
 20
829.4934378874923
 30
0.0
 11
1756.376008220366
 21
816.9934378874923
 31
0.0
 12
1718.876008220366
 22
823.2434378874923
 32
0.0
 13
1718.876008220366
 23
823.2434378874923
 33
0.0
  0
SOLID
  5
F390
330
E1F1
100
AcDbEntity
  8
寸法引出
 48
25.0
100
AcDbTrace
 10
1831.376008220366
 20
829.4934378874923
 30
0.0
 11
1831.376008220366
 21
816.9934378874923
 31
0.0
 12
1868.876008220366
 22
823.2434378874923
 32
0.0
 13
1868.876008220366
 23
823.2434378874923
 33
0.0
  0
MTEXT
  5
F391
330
E1F1
100
AcDbEntity
  8
寸法引出
 48
25.0
100
AcDbMText
 10
1793.876008220366
 20
873.2434378874923
 30
0.0
 40
50.0
 41
0.0
 71
     5
 72
     1
  1
\A1;50
  7
SANWA
 73
     1
 44
1.0
  0
POINT
  5
F392
330
E1F1
100
AcDbEntity
  8
DEFPOINTS
 62
     0
 48
25.0
100
AcDbPoint
 10
1718.876008220366
 20
923.9652226668013
 30
0.0
  0
POINT
  5
F393
330
E1F1
100
AcDbEntity
  8
DEFPOINTS
 62
     0
 48
25.0
100
AcDbPoint
 10
1868.876008220366
 20
997.4652226668013
 30
0.0
  0
POINT
  5
F394
330
E1F1
100
AcDbEntity
  8
DEFPOINTS
 62
     0
 48
25.0
100
AcDbPoint
 10
1868.876008220366
 20
823.2434378874923
 30
0.0
  0
ENDBLK
  5
E1FC
330
E1F1
100
AcDbEntity
  8
0
 48
25.0
100
AcDbBlockEnd
  0
BLOCK
  5
E22F
330
E225
100
AcDbEntity
  8
0
 48
25.0
100
AcDbBlockBegin
  2
*D14
 70
     1
 10
0.0
 20
0.0
 30
0.0
  3
*D14
  1

  0
LINE
  5
F302
330
E225
100
AcDbEntity
  8
寸法引出
 48
25.0
370
    -2
100
AcDbLine
 10
5293.24330683957
 20
5766.749064569152
 30
0.0
 11
5553.293091533173
 21
5766.749064569152
 31
0.0
  0
LINE
  5
F303
330
E225
100
AcDbEntity
  8
寸法引出
 48
25.0
370
    -2
100
AcDbLine
 10
5293.24330683957
 20
6266.749064569152
 30
0.0
 11
5553.293091533174
 21
6266.749064569152
 31
0.0
  0
LINE
  5
F304
330
E225
100
AcDbEntity
  8
寸法引出
 48
25.0
370
    -2
100
AcDbLine
 10
5540.793091533174
 20
5804.249064569152
 30
0.0
 11
5540.793091533174
 21
6229.249064569152
 31
0.0
  0
SOLID
  5
F305
330
E225
100
AcDbEntity
  8
寸法引出
 48
25.0
100
AcDbTrace
 10
5534.543091533174
 20
5804.249064569152
 30
0.0
 11
5547.043091533174
 21
5804.249064569152
 31
0.0
 12
5540.793091533174
 22
5766.749064569152
 32
0.0
 13
5540.793091533174
 23
5766.749064569152
 33
0.0
  0
SOLID
  5
F306
330
E225
100
AcDbEntity
  8
寸法引出
 48
25.0
100
AcDbTrace
 10
5534.543091533175
 20
6229.249064569152
 30
0.0
 11
5547.043091533175
 21
6229.249064569152
 31
0.0
 12
5540.793091533174
 22
6266.749064569152
 32
0.0
 13
5540.793091533174
 23
6266.749064569152
 33
0.0
  0
MTEXT
  5
F307
330
E225
100
AcDbEntity
  8
寸法引出
 48
25.0
100
AcDbMText
 10
5490.793091533173
 20
6016.749064569154
 30
0.0
 40
50.0
 41
0.0
 71
     5
 72
     1
  1
\A1;50
  7
SANWA
 11
0.0000000000000001
 21
1.0
 31
0.0
 73
     1
 44
1.0
  0
POINT
  5
F308
330
E225
100
AcDbEntity
  8
DEFPOINTS
 62
     0
 48
25.0
100
AcDbPoint
 10
5268.243306839569
 20
5766.749064569152
 30
0.0
  0
POINT
  5
F309
330
E225
100
AcDbEntity
  8
DEFPOINTS
 62
     0
 48
25.0
100
AcDbPoint
 10
5268.243306839569
 20
6266.749064569152
 30
0.0
  0
POINT
  5
F30A
330
E225
100
AcDbEntity
  8
DEFPOINTS
 62
     0
 48
25.0
100
AcDbPoint
 10
5540.793091533174
 20
6266.749064569152
 30
0.0
  0
ENDBLK
  5
E230
330
E225
100
AcDbEntity
  8
0
 48
25.0
100
AcDbBlockEnd
  0
BLOCK
  5
E23B
330
E231
100
AcDbEntity
  8
0
 48
25.0
100
AcDbBlockBegin
  2
*D15
 70
     1
 10
0.0
 20
0.0
 30
0.0
  3
*D15
  1

  0
LINE
  5
F2F9
330
E231
100
AcDbEntity
  8
寸法引出
 48
25.0
370
    -2
100
AcDbLine
 10
5293.24330683957
 20
5786.749064569153
 30
0.0
 11
5436.520986485621
 21
5786.749064569153
 31
0.0
  0
LINE
  5
F2FA
330
E231
100
AcDbEntity
  8
寸法引出
 48
25.0
370
    -2
100
AcDbLine
 10
5293.24330683957
 20
6246.749064569153
 30
0.0
 11
5436.520986485622
 21
6246.749064569153
 31
0.0
  0
LINE
  5
F2FB
330
E231
100
AcDbEntity
  8
寸法引出
 48
25.0
370
    -2
100
AcDbLine
 10
5424.020986485622
 20
5824.249064569152
 30
0.0
 11
5424.020986485622
 21
6209.249064569153
 31
0.0
  0
SOLID
  5
F2FC
330
E231
100
AcDbEntity
  8
寸法引出
 48
25.0
100
AcDbTrace
 10
5417.770986485622
 20
5824.249064569152
 30
0.0
 11
5430.270986485622
 21
5824.249064569152
 31
0.0
 12
5424.020986485622
 22
5786.749064569153
 32
0.0
 13
5424.020986485622
 23
5786.749064569153
 33
0.0
  0
SOLID
  5
F2FD
330
E231
100
AcDbEntity
  8
寸法引出
 48
25.0
100
AcDbTrace
 10
5417.770986485622
 20
6209.249064569153
 30
0.0
 11
5430.270986485623
 21
6209.249064569153
 31
0.0
 12
5424.020986485622
 22
6246.749064569153
 32
0.0
 13
5424.020986485622
 23
6246.749064569153
 33
0.0
  0
MTEXT
  5
F2FE
330
E231
100
AcDbEntity
  8
寸法引出
 48
25.0
100
AcDbMText
 10
5374.02098648562
 20
6016.749064569154
 30
0.0
 40
50.0
 41
0.0
 71
     5
 72
     1
  1
\A1;46
  7
SANWA
 11
0.0000000000000001
 21
1.0
 31
0.0
 73
     1
 44
1.0
  0
POINT
  5
F2FF
330
E231
100
AcDbEntity
  8
DEFPOINTS
 62
     0
 48
25.0
100
AcDbPoint
 10
5268.243306839569
 20
5786.749064569153
 30
0.0
  0
POINT
  5
F300
330
E231
100
AcDbEntity
  8
DEFPOINTS
 62
     0
 48
25.0
100
AcDbPoint
 10
5268.243306839569
 20
6246.749064569153
 30
0.0
  0
POINT
  5
F301
330
E231
100
AcDbEntity
  8
DEFPOINTS
 62
     0
 48
25.0
100
AcDbPoint
 10
5424.020986485622
 20
6246.749064569153
 30
0.0
  0
ENDBLK
  5
E23C
330
E231
100
AcDbEntity
  8
0
 48
25.0
100
AcDbBlockEnd
  0
BLOCK
  5
E247
330
E23D
100
AcDbEntity
  8
0
 48
25.0
100
AcDbBlockBegin
  2
*D16
 70
     1
 10
0.0
 20
0.0
 30
0.0
  3
*D16
  1

  0
LINE
  5
F3BF
330
E23D
100
AcDbEntity
  8
寸法引出
 48
25.0
370
    -2
100
AcDbLine
 10
3800.402604921597
 20
1054.498750889092
 30
0.0
 11
3800.402604921597
 21
760.7349729018251
 31
0.0
  0
LINE
  5
F3C0
330
E23D
100
AcDbEntity
  8
寸法引出
 48
25.0
370
    -2
100
AcDbLine
 10
3560.402604921597
 20
1054.498750889092
 30
0.0
 11
3560.402604921597
 21
760.7349729018251
 31
0.0
  0
LINE
  5
F3C1
330
E23D
100
AcDbEntity
  8
寸法引出
 48
25.0
370
    -2
100
AcDbLine
 10
3762.902604921597
 20
773.2349729018251
 30
0.0
 11
3597.902604921597
 21
773.2349729018251
 31
0.0
  0
SOLID
  5
F3C2
330
E23D
100
AcDbEntity
  8
寸法引出
 48
25.0
100
AcDbTrace
 10
3762.902604921597
 20
779.4849729018251
 30
0.0
 11
3762.902604921597
 21
766.9849729018251
 31
0.0
 12
3800.402604921597
 22
773.2349729018251
 32
0.0
 13
3800.402604921597
 23
773.2349729018251
 33
0.0
  0
SOLID
  5
F3C3
330
E23D
100
AcDbEntity
  8
寸法引出
 48
25.0
100
AcDbTrace
 10
3597.902604921597
 20
779.4849729018251
 30
0.0
 11
3597.902604921597
 21
766.9849729018251
 31
0.0
 12
3560.402604921597
 22
773.2349729018251
 32
0.0
 13
3560.402604921597
 23
773.2349729018251
 33
0.0
  0
MTEXT
  5
F3C4
330
E23D
100
AcDbEntity
  8
寸法引出
 48
25.0
100
AcDbMText
 10
3680.402604921597
 20
823.2349729018251
 30
0.0
 40
50.0
 41
0.0
 71
     5
 72
     1
  1
\A1;24
  7
SANWA
 73
     1
 44
1.0
  0
POINT
  5
F3C5
330
E23D
100
AcDbEntity
  8
DEFPOINTS
 62
     0
 48
25.0
100
AcDbPoint
 10
3800.402604921597
 20
1079.498750889092
 30
0.0
  0
POINT
  5
F3C6
330
E23D
100
AcDbEntity
  8
DEFPOINTS
 62
     0
 48
25.0
100
AcDbPoint
 10
3560.402604921597
 20
1079.498750889092
 30
0.0
  0
POINT
  5
F3C7
330
E23D
100
AcDbEntity
  8
DEFPOINTS
 62
     0
 48
25.0
100
AcDbPoint
 10
3560.402604921597
 20
773.2349729018251
 30
0.0
  0
ENDBLK
  5
E248
330
E23D
100
AcDbEntity
  8
0
 48
25.0
100
AcDbBlockEnd
  0
BLOCK
  5
E253
330
E249
100
AcDbEntity
  8
0
 48
25.0
100
AcDbBlockBegin
  2
*D17
 70
     1
 10
0.0
 20
0.0
 30
0.0
  3
*D17
  1

  0
LINE
  5
F3D3
330
E249
100
AcDbEntity
  8
寸法引出
 48
25.0
370
    -2
100
AcDbLine
 10
3920.402604921597
 20
1054.498750889092
 30
0.0
 11
3920.402604921597
 21
760.7349729018251
 31
0.0
  0
LINE
  5
F3D4
330
E249
100
AcDbEntity
  8
寸法引出
 48
25.0
370
    -2
100
AcDbLine
 10
4160.402604921597
 20
1054.498750889092
 30
0.0
 11
4160.402604921597
 21
760.7349729018251
 31
0.0
  0
LINE
  5
F3D5
330
E249
100
AcDbEntity
  8
寸法引出
 48
25.0
370
    -2
100
AcDbLine
 10
3957.902604921597
 20
773.2349729018251
 30
0.0
 11
4122.902604921597
 21
773.2349729018251
 31
0.0
  0
SOLID
  5
F3D6
330
E249
100
AcDbEntity
  8
寸法引出
 48
25.0
100
AcDbTrace
 10
3957.902604921597
 20
779.4849729018251
 30
0.0
 11
3957.902604921597
 21
766.9849729018251
 31
0.0
 12
3920.402604921597
 22
773.2349729018251
 32
0.0
 13
3920.402604921597
 23
773.2349729018251
 33
0.0
  0
SOLID
  5
F3D7
330
E249
100
AcDbEntity
  8
寸法引出
 48
25.0
100
AcDbTrace
 10
4122.902604921597
 20
779.4849729018251
 30
0.0
 11
4122.902604921597
 21
766.9849729018251
 31
0.0
 12
4160.402604921597
 22
773.2349729018251
 32
0.0
 13
4160.402604921597
 23
773.2349729018251
 33
0.0
  0
MTEXT
  5
F3D8
330
E249
100
AcDbEntity
  8
寸法引出
 48
25.0
100
AcDbMText
 10
4040.402604921597
 20
823.2349729018251
 30
0.0
 40
50.0
 41
0.0
 71
     5
 72
     1
  1
\A1;24
  7
SANWA
 73
     1
 44
1.0
  0
POINT
  5
F3D9
330
E249
100
AcDbEntity
  8
DEFPOINTS
 62
     0
 48
25.0
100
AcDbPoint
 10
3920.402604921597
 20
1079.498750889092
 30
0.0
  0
POINT
  5
F3DA
330
E249
100
AcDbEntity
  8
DEFPOINTS
 62
     0
 48
25.0
100
AcDbPoint
 10
4160.402604921597
 20
1079.498750889092
 30
0.0
  0
POINT
  5
F3DB
330
E249
100
AcDbEntity
  8
DEFPOINTS
 62
     0
 48
25.0
100
AcDbPoint
 10
4160.402604921597
 20
773.2349729018251
 30
0.0
  0
ENDBLK
  5
E254
330
E249
100
AcDbEntity
  8
0
 48
25.0
100
AcDbBlockEnd
  0
BLOCK
  5
E261
330
E255
100
AcDbEntity
  8
0
 48
25.0
100
AcDbBlockBegin
  2
*D18
 70
     1
 10
0.0
 20
0.0
 30
0.0
  3
*D18
  1

  0
LINE
  5
F3C8
330
E255
100
AcDbEntity
  8
寸法引出
 48
25.0
370
    -2
100
AcDbLine
 10
3800.402604921597
 20
1054.498750889092
 30
0.0
 11
3800.402604921597
 21
760.7349729018251
 31
0.0
  0
LINE
  5
F3C9
330
E255
100
AcDbEntity
  8
寸法引出
 48
25.0
370
    -2
100
AcDbLine
 10
3920.402604921597
 20
1054.498750889092
 30
0.0
 11
3920.402604921597
 21
760.7349729018251
 31
0.0
  0
LINE
  5
F3CA
330
E255
100
AcDbEntity
  8
寸法引出
 48
25.0
370
    -2
100
AcDbLine
 10
3762.902604921597
 20
773.2349729018251
 30
0.0
 11
3725.402604921597
 21
773.2349729018251
 31
0.0
  0
LINE
  5
F3CB
330
E255
100
AcDbEntity
  8
寸法引出
 48
25.0
370
    -2
100
AcDbLine
 10
3957.902604921597
 20
773.2349729018251
 30
0.0
 11
3995.402604921597
 21
773.2349729018251
 31
0.0
  0
LINE
  5
F3CC
330
E255
100
AcDbEntity
  8
寸法引出
 48
25.0
370
    -2
100
AcDbLine
 10
3800.402604921597
 20
773.2349729018251
 30
0.0
 11
3920.402604921597
 21
773.2349729018251
 31
0.0
  0
SOLID
  5
F3CD
330
E255
100
AcDbEntity
  8
寸法引出
 48
25.0
100
AcDbTrace
 10
3762.902604921597
 20
779.4849729018251
 30
0.0
 11
3762.902604921597
 21
766.9849729018251
 31
0.0
 12
3800.402604921597
 22
773.2349729018251
 32
0.0
 13
3800.402604921597
 23
773.2349729018251
 33
0.0
  0
SOLID
  5
F3CE
330
E255
100
AcDbEntity
  8
寸法引出
 48
25.0
100
AcDbTrace
 10
3957.902604921597
 20
779.4849729018251
 30
0.0
 11
3957.902604921597
 21
766.9849729018251
 31
0.0
 12
3920.402604921597
 22
773.2349729018251
 32
0.0
 13
3920.402604921597
 23
773.2349729018251
 33
0.0
  0
MTEXT
  5
F3CF
330
E255
100
AcDbEntity
  8
寸法引出
 48
25.0
100
AcDbMText
 10
3860.402604921597
 20
823.2349729018251
 30
0.0
 40
50.0
 41
0.0
 71
     5
 72
     1
  1
\A1;12
  7
SANWA
 73
     1
 44
1.0
  0
POINT
  5
F3D0
330
E255
100
AcDbEntity
  8
DEFPOINTS
 62
     0
 48
25.0
100
AcDbPoint
 10
3800.402604921597
 20
1079.498750889092
 30
0.0
  0
POINT
  5
F3D1
330
E255
100
AcDbEntity
  8
DEFPOINTS
 62
     0
 48
25.0
100
AcDbPoint
 10
3920.402604921597
 20
1079.498750889092
 30
0.0
  0
POINT
  5
F3D2
330
E255
100
AcDbEntity
  8
DEFPOINTS
 62
     0
 48
25.0
100
AcDbPoint
 10
3920.402604921597
 20
773.2349729018251
 30
0.0
  0
ENDBLK
  5
E262
330
E255
100
AcDbEntity
  8
0
 48
25.0
100
AcDbBlockEnd
  0
BLOCK
  5
E26F
330
E263
100
AcDbEntity
  8
0
 48
25.0
100
AcDbBlockBegin
  2
*D19
 70
     1
 10
0.0
 20
0.0
 30
0.0
  3
*D19
  1

  0
LINE
  5
F3DC
330
E263
100
AcDbEntity
  8
寸法引出
 48
25.0
370
    -2
100
AcDbLine
 10
3820.402604921597
 20
1114.498750889092
 30
0.0
 11
3820.402604921597
 21
888.2675487753813
 31
0.0
  0
LINE
  5
F3DD
330
E263
100
AcDbEntity
  8
寸法引出
 48
25.0
370
    -2
100
AcDbLine
 10
3900.402604921597
 20
1114.498750889092
 30
0.0
 11
3900.402604921597
 21
888.2675487753813
 31
0.0
  0
LINE
  5
F3DE
330
E263
100
AcDbEntity
  8
寸法引出
 48
25.0
370
    -2
100
AcDbLine
 10
3782.902604921597
 20
900.7675487753813
 30
0.0
 11
3745.402604921597
 21
900.7675487753813
 31
0.0
  0
LINE
  5
F3DF
330
E263
100
AcDbEntity
  8
寸法引出
 48
25.0
370
    -2
100
AcDbLine
 10
3937.902604921597
 20
900.7675487753813
 30
0.0
 11
3975.402604921597
 21
900.7675487753813
 31
0.0
  0
LINE
  5
F3E0
330
E263
100
AcDbEntity
  8
寸法引出
 48
25.0
370
    -2
100
AcDbLine
 10
3820.402604921597
 20
900.7675487753813
 30
0.0
 11
3900.402604921597
 21
900.7675487753813
 31
0.0
  0
SOLID
  5
F3E1
330
E263
100
AcDbEntity
  8
寸法引出
 48
25.0
100
AcDbTrace
 10
3782.902604921597
 20
907.0175487753813
 30
0.0
 11
3782.902604921597
 21
894.5175487753813
 31
0.0
 12
3820.402604921597
 22
900.7675487753813
 32
0.0
 13
3820.402604921597
 23
900.7675487753813
 33
0.0
  0
SOLID
  5
F3E2
330
E263
100
AcDbEntity
  8
寸法引出
 48
25.0
100
AcDbTrace
 10
3937.902604921597
 20
907.0175487753813
 30
0.0
 11
3937.902604921597
 21
894.5175487753813
 31
0.0
 12
3900.402604921597
 22
900.7675487753813
 32
0.0
 13
3900.402604921597
 23
900.7675487753813
 33
0.0
  0
MTEXT
  5
F3E3
330
E263
100
AcDbEntity
  8
寸法引出
 48
25.0
100
AcDbMText
 10
3860.402604921597
 20
950.7675487753813
 30
0.0
 40
50.0
 41
0.0
 71
     5
 72
     1
  1
\A1;8
  7
SANWA
 73
     1
 44
1.0
  0
POINT
  5
F3E4
330
E263
100
AcDbEntity
  8
DEFPOINTS
 62
     0
 48
25.0
100
AcDbPoint
 10
3820.402604921597
 20
1139.498750889092
 30
0.0
  0
POINT
  5
F3E5
330
E263
100
AcDbEntity
  8
DEFPOINTS
 62
     0
 48
25.0
100
AcDbPoint
 10
3900.402604921597
 20
1139.498750889092
 30
0.0
  0
POINT
  5
F3E6
330
E263
100
AcDbEntity
  8
DEFPOINTS
 62
     0
 48
25.0
100
AcDbPoint
 10
3900.402604921597
 20
900.7675487753813
 30
0.0
  0
ENDBLK
  5
E270
330
E263
100
AcDbEntity
  8
0
 48
25.0
100
AcDbBlockEnd
  0
BLOCK
  5
E27D
330
E271
100
AcDbEntity
  8
0
 48
25.0
100
AcDbBlockBegin
  2
*D20
 70
     1
 10
0.0
 20
0.0
 30
0.0
  3
*D20
  1

  0
LINE
  5
F2E5
330
E271
100
AcDbEntity
  8
寸法引出
 48
25.0
370
    -2
100
AcDbLine
 10
5168.24330683957
 20
5741.749064569152
 30
0.0
 11
5168.24330683957
 21
5479.340602309905
 31
0.0
  0
LINE
  5
F2E6
330
E271
100
AcDbEntity
  8
寸法引出
 48
25.0
370
    -2
100
AcDbLine
 10
5268.243306839569
 20
5588.151228282051
 30
0.0
 11
5268.243306839569
 21
5479.340602309905
 31
0.0
  0
LINE
  5
F2E7
330
E271
100
AcDbEntity
  8
寸法引出
 48
25.0
370
    -2
100
AcDbLine
 10
5130.743306839569
 20
5491.840602309905
 30
0.0
 11
5093.243306839569
 21
5491.840602309905
 31
0.0
  0
LINE
  5
F2E8
330
E271
100
AcDbEntity
  8
寸法引出
 48
25.0
370
    -2
100
AcDbLine
 10
5305.74330683957
 20
5491.840602309905
 30
0.0
 11
5343.243306839569
 21
5491.840602309905
 31
0.0
  0
LINE
  5
F2E9
330
E271
100
AcDbEntity
  8
寸法引出
 48
25.0
370
    -2
100
AcDbLine
 10
5168.24330683957
 20
5491.840602309905
 30
0.0
 11
5268.243306839569
 21
5491.840602309905
 31
0.0
  0
SOLID
  5
F2EA
330
E271
100
AcDbEntity
  8
寸法引出
 48
25.0
100
AcDbTrace
 10
5130.743306839569
 20
5498.090602309905
 30
0.0
 11
5130.743306839569
 21
5485.590602309905
 31
0.0
 12
5168.24330683957
 22
5491.840602309905
 32
0.0
 13
5168.24330683957
 23
5491.840602309905
 33
0.0
  0
SOLID
  5
F2EB
330
E271
100
AcDbEntity
  8
寸法引出
 48
25.0
100
AcDbTrace
 10
5305.74330683957
 20
5498.090602309905
 30
0.0
 11
5305.74330683957
 21
5485.590602309905
 31
0.0
 12
5268.243306839569
 22
5491.840602309905
 32
0.0
 13
5268.243306839569
 23
5491.840602309905
 33
0.0
  0
MTEXT
  5
F2EC
330
E271
100
AcDbEntity
  8
寸法引出
 48
25.0
100
AcDbMText
 10
5218.243306839569
 20
5541.840602309905
 30
0.0
 40
50.0
 41
0.0
 71
     5
 72
     1
  1
\A1;10
  7
SANWA
 73
     1
 44
1.0
  0
POINT
  5
F2ED
330
E271
100
AcDbEntity
  8
DEFPOINTS
 62
     0
 48
25.0
100
AcDbPoint
 10
5168.24330683957
 20
5766.749064569152
 30
0.0
  0
POINT
  5
F2EE
330
E271
100
AcDbEntity
  8
DEFPOINTS
 62
     0
 48
25.0
100
AcDbPoint
 10
5268.243306839569
 20
5613.151228282052
 30
0.0
  0
POINT
  5
F2EF
330
E271
100
AcDbEntity
  8
DEFPOINTS
 62
     0
 48
25.0
100
AcDbPoint
 10
5268.243306839569
 20
5491.840602309905
 30
0.0
  0
ENDBLK
  5
E27E
330
E271
100
AcDbEntity
  8
0
 48
25.0
100
AcDbBlockEnd
  0
BLOCK
  5
E289
330
E27F
100
AcDbEntity
  8
0
 48
25.0
100
AcDbBlockBegin
  2
*D21
 70
     1
 10
0.0
 20
0.0
 30
0.0
  3
*D21
  1

  0
LINE
  5
F2F0
330
E27F
100
AcDbEntity
  8
寸法引出
 48
25.0
370
    -2
100
AcDbLine
 10
4768.243306839569
 20
5588.151228282051
 30
0.0
 11
4768.243306839569
 21
5401.671591722428
 31
0.0
  0
LINE
  5
F2F1
330
E27F
100
AcDbEntity
  8
寸法引出
 48
25.0
370
    -2
100
AcDbLine
 10
5268.243306839569
 20
5588.151228282051
 30
0.0
 11
5268.243306839569
 21
5401.671591722428
 31
0.0
  0
LINE
  5
F2F2
330
E27F
100
AcDbEntity
  8
寸法引出
 48
25.0
370
    -2
100
AcDbLine
 10
4805.74330683957
 20
5414.171591722428
 30
0.0
 11
5230.74330683957
 21
5414.171591722428
 31
0.0
  0
SOLID
  5
F2F3
330
E27F
100
AcDbEntity
  8
寸法引出
 48
25.0
100
AcDbTrace
 10
4805.74330683957
 20
5420.421591722428
 30
0.0
 11
4805.74330683957
 21
5407.921591722428
 31
0.0
 12
4768.243306839569
 22
5414.171591722428
 32
0.0
 13
4768.243306839569
 23
5414.171591722428
 33
0.0
  0
SOLID
  5
F2F4
330
E27F
100
AcDbEntity
  8
寸法引出
 48
25.0
100
AcDbTrace
 10
5230.74330683957
 20
5420.421591722428
 30
0.0
 11
5230.74330683957
 21
5407.921591722428
 31
0.0
 12
5268.243306839569
 22
5414.171591722428
 32
0.0
 13
5268.243306839569
 23
5414.171591722428
 33
0.0
  0
MTEXT
  5
F2F5
330
E27F
100
AcDbEntity
  8
寸法引出
 48
25.0
100
AcDbMText
 10
5018.243306839569
 20
5464.171591722428
 30
0.0
 40
50.0
 41
0.0
 71
     5
 72
     1
  1
\A1;50
  7
SANWA
 73
     1
 44
1.0
  0
POINT
  5
F2F6
330
E27F
100
AcDbEntity
  8
DEFPOINTS
 62
     0
 48
25.0
100
AcDbPoint
 10
4768.243306839569
 20
5613.151228282052
 30
0.0
  0
POINT
  5
F2F7
330
E27F
100
AcDbEntity
  8
DEFPOINTS
 62
     0
 48
25.0
100
AcDbPoint
 10
5268.243306839569
 20
5613.151228282052
 30
0.0
  0
POINT
  5
F2F8
330
E27F
100
AcDbEntity
  8
DEFPOINTS
 62
     0
 48
25.0
100
AcDbPoint
 10
5268.243306839569
 20
5414.171591722428
 30
0.0
  0
ENDBLK
  5
E28A
330
E27F
100
AcDbEntity
  8
0
 48
25.0
100
AcDbBlockEnd
  0
BLOCK
  5
E297
330
E28B
100
AcDbEntity
  8
0
 48
25.0
100
AcDbBlockBegin
  2
*D22
 70
     1
 10
0.0
 20
0.0
 30
0.0
  3
*D22
  1

  0
LINE
  5
F3B4
330
E28B
100
AcDbEntity
  8
寸法引出
 48
25.0
370
    -2
100
AcDbLine
 10
3775.402604921597
 20
1079.498750889092
 30
0.0
 11
3716.407360395526
 21
1079.498750889092
 31
0.0
  0
LINE
  5
F3B5
330
E28B
100
AcDbEntity
  8
寸法引出
 48
25.0
370
    -2
100
AcDbLine
 10
3795.402604921597
 20
1139.498750889092
 30
0.0
 11
3716.407360395526
 21
1139.498750889092
 31
0.0
  0
LINE
  5
F3B6
330
E28B
100
AcDbEntity
  8
寸法引出
 48
25.0
370
    -2
100
AcDbLine
 10
3728.907360395526
 20
1041.998750889092
 30
0.0
 11
3728.907360395525
 21
1004.498750889092
 31
0.0
  0
LINE
  5
F3B7
330
E28B
100
AcDbEntity
  8
寸法引出
 48
25.0
370
    -2
100
AcDbLine
 10
3728.907360395526
 20
1176.998750889092
 30
0.0
 11
3728.907360395526
 21
1214.498750889092
 31
0.0
  0
LINE
  5
F3B8
330
E28B
100
AcDbEntity
  8
寸法引出
 48
25.0
370
    -2
100
AcDbLine
 10
3728.907360395526
 20
1079.498750889092
 30
0.0
 11
3728.907360395526
 21
1139.498750889092
 31
0.0
  0
SOLID
  5
F3B9
330
E28B
100
AcDbEntity
  8
寸法引出
 48
25.0
100
AcDbTrace
 10
3722.657360395526
 20
1041.998750889092
 30
0.0
 11
3735.157360395525
 21
1041.998750889092
 31
0.0
 12
3728.907360395526
 22
1079.498750889092
 32
0.0
 13
3728.907360395526
 23
1079.498750889092
 33
0.0
  0
SOLID
  5
F3BA
330
E28B
100
AcDbEntity
  8
寸法引出
 48
25.0
100
AcDbTrace
 10
3722.657360395526
 20
1176.998750889092
 30
0.0
 11
3735.157360395525
 21
1176.998750889092
 31
0.0
 12
3728.907360395526
 22
1139.498750889092
 32
0.0
 13
3728.907360395526
 23
1139.498750889092
 33
0.0
  0
MTEXT
  5
F3BB
330
E28B
100
AcDbEntity
  8
寸法引出
 48
25.0
100
AcDbMText
 10
3678.907360395525
 20
1109.498750889093
 30
0.0
 40
50.0
 41
0.0
 71
     5
 72
     1
  1
\A1;6
  7
SANWA
 11
0.0000000000000001
 21
1.0
 31
0.0
 73
     1
 44
1.0
  0
POINT
  5
F3BC
330
E28B
100
AcDbEntity
  8
DEFPOINTS
 62
     0
 48
25.0
100
AcDbPoint
 10
3800.402604921597
 20
1079.498750889092
 30
0.0
  0
POINT
  5
F3BD
330
E28B
100
AcDbEntity
  8
DEFPOINTS
 62
     0
 48
25.0
100
AcDbPoint
 10
3820.402604921597
 20
1139.498750889092
 30
0.0
  0
POINT
  5
F3BE
330
E28B
100
AcDbEntity
  8
DEFPOINTS
 62
     0
 48
25.0
100
AcDbPoint
 10
3728.907360395526
 20
1139.498750889092
 30
0.0
  0
ENDBLK
  5
E298
330
E28B
100
AcDbEntity
  8
0
 48
25.0
100
AcDbBlockEnd
  0
BLOCK
  5
E2B1
330
E2A7
100
AcDbEntity
  8
0
 48
25.0
100
AcDbBlockBegin
  2
*D23
 70
     1
 10
0.0
 20
0.0
 30
0.0
  3
*D23
  1

  0
LINE
  5
F383
330
E2A7
100
AcDbEntity
  8
寸法引出
 48
25.0
370
    -2
100
AcDbLine
 10
2155.124842940757
 20
3662.250569887545
 30
0.0
 11
2155.124842940757
 21
3800.936045495898
 31
0.0
  0
LINE
  5
F384
330
E2A7
100
AcDbEntity
  8
寸法引出
 48
25.0
370
    -2
100
AcDbLine
 10
2555.124842940756
 20
3662.250569887545
 30
0.0
 11
2555.124842940756
 21
3800.936045495898
 31
0.0
  0
LINE
  5
F385
330
E2A7
100
AcDbEntity
  8
寸法引出
 48
25.0
370
    -2
100
AcDbLine
 10
2192.624842940757
 20
3788.436045495898
 30
0.0
 11
2517.624842940756
 21
3788.436045495898
 31
0.0
  0
SOLID
  5
F386
330
E2A7
100
AcDbEntity
  8
寸法引出
 48
25.0
100
AcDbTrace
 10
2192.624842940757
 20
3794.686045495898
 30
0.0
 11
2192.624842940757
 21
3782.186045495897
 31
0.0
 12
2155.124842940757
 22
3788.436045495898
 32
0.0
 13
2155.124842940757
 23
3788.436045495898
 33
0.0
  0
SOLID
  5
F387
330
E2A7
100
AcDbEntity
  8
寸法引出
 48
25.0
100
AcDbTrace
 10
2517.624842940756
 20
3794.686045495898
 30
0.0
 11
2517.624842940756
 21
3782.186045495897
 31
0.0
 12
2555.124842940756
 22
3788.436045495898
 32
0.0
 13
2555.124842940756
 23
3788.436045495898
 33
0.0
  0
MTEXT
  5
F388
330
E2A7
100
AcDbEntity
  8
寸法引出
 48
25.0
100
AcDbMText
 10
2355.124842940756
 20
3838.436045495898
 30
0.0
 40
50.0
 41
0.0
 71
     5
 72
     1
  1
\A1;400
  7
SANWA
 73
     1
 44
1.0
  0
POINT
  5
F389
330
E2A7
100
AcDbEntity
  8
DEFPOINTS
 62
     0
 48
25.0
100
AcDbPoint
 10
2155.124842940757
 20
3637.250569887545
 30
0.0
  0
POINT
  5
F38A
330
E2A7
100
AcDbEntity
  8
DEFPOINTS
 62
     0
 48
25.0
100
AcDbPoint
 10
2555.124842940756
 20
3637.250569887545
 30
0.0
  0
POINT
  5
F38B
330
E2A7
100
AcDbEntity
  8
DEFPOINTS
 62
     0
 48
25.0
100
AcDbPoint
 10
2555.124842940756
 20
3788.436045495898
 30
0.0
  0
ENDBLK
  5
E2B2
330
E2A7
100
AcDbEntity
  8
0
 48
25.0
100
AcDbBlockEnd
  0
BLOCK
  5
E2D7
330
E2CD
100
AcDbEntity
  8
0
 48
25.0
100
AcDbBlockBegin
  2
*D24
 70
     1
 10
0.0
 20
0.0
 30
0.0
  3
*D24
  1

  0
LINE
  5
F3A0
330
E2CD
100
AcDbEntity
  8
寸法引出
 48
25.0
370
    -2
100
AcDbLine
 10
2070.124842940757
 20
3637.250569887545
 30
0.0
 11
1947.629864571674
 21
3637.250569887545
 31
0.0
  0
LINE
  5
F3A1
330
E2CD
100
AcDbEntity
  8
寸法引出
 48
25.0
370
    -2
100
AcDbLine
 10
2070.124842940757
 20
3487.250569887546
 30
0.0
 11
1947.629864571674
 21
3487.250569887546
 31
0.0
  0
LINE
  5
F3A2
330
E2CD
100
AcDbEntity
  8
寸法引出
 48
25.0
370
    -2
100
AcDbLine
 10
1960.129864571674
 20
3599.750569887545
 30
0.0
 11
1960.129864571674
 21
3524.750569887546
 31
0.0
  0
SOLID
  5
F3A3
330
E2CD
100
AcDbEntity
  8
寸法引出
 48
25.0
100
AcDbTrace
 10
1953.879864571674
 20
3599.750569887545
 30
0.0
 11
1966.379864571674
 21
3599.750569887545
 31
0.0
 12
1960.129864571674
 22
3637.250569887545
 32
0.0
 13
1960.129864571674
 23
3637.250569887545
 33
0.0
  0
SOLID
  5
F3A4
330
E2CD
100
AcDbEntity
  8
寸法引出
 48
25.0
100
AcDbTrace
 10
1953.879864571674
 20
3524.750569887546
 30
0.0
 11
1966.379864571674
 21
3524.750569887546
 31
0.0
 12
1960.129864571674
 22
3487.250569887546
 32
0.0
 13
1960.129864571674
 23
3487.250569887546
 33
0.0
  0
MTEXT
  5
F3A5
330
E2CD
100
AcDbEntity
  8
寸法引出
 48
25.0
100
AcDbMText
 10
1910.129864571674
 20
3562.250569887546
 30
0.0
 40
50.0
 41
0.0
 71
     5
 72
     1
  1
\A1;150
  7
SANWA
 11
0.0000000000000001
 21
1.0
 31
0.0
 73
     1
 44
1.0
  0
POINT
  5
F3A6
330
E2CD
100
AcDbEntity
  8
DEFPOINTS
 62
     0
 48
25.0
100
AcDbPoint
 10
2095.124842940756
 20
3637.250569887545
 30
0.0
  0
POINT
  5
F3A7
330
E2CD
100
AcDbEntity
  8
DEFPOINTS
 62
     0
 48
25.0
100
AcDbPoint
 10
2095.124842940756
 20
3487.250569887546
 30
0.0
  0
POINT
  5
F3A8
330
E2CD
100
AcDbEntity
  8
DEFPOINTS
 62
     0
 48
25.0
100
AcDbPoint
 10
1960.129864571674
 20
3487.250569887546
 30
0.0
  0
ENDBLK
  5
E2D8
330
E2CD
100
AcDbEntity
  8
0
 48
25.0
100
AcDbBlockEnd
  0
BLOCK
  5
E2E3
330
E2D9
100
AcDbEntity
  8
0
 48
25.0
100
AcDbBlockBegin
  2
*D25
 70
     1
 10
0.0
 20
0.0
 30
0.0
  3
*D25
  1

  0
LINE
  5
F37A
330
E2D9
100
AcDbEntity
  8
寸法引出
 48
25.0
370
    -2
100
AcDbLine
 10
2530.124842940757
 20
3637.250569887545
 30
0.0
 11
2476.505812903036
 21
3637.250569887545
 31
0.0
  0
LINE
  5
F37B
330
E2D9
100
AcDbEntity
  8
寸法引出
 48
25.0
370
    -2
100
AcDbLine
 10
2530.124842940757
 20
3287.250569887545
 30
0.0
 11
2476.505812903036
 21
3287.250569887545
 31
0.0
  0
LINE
  5
F37C
330
E2D9
100
AcDbEntity
  8
寸法引出
 48
25.0
370
    -2
100
AcDbLine
 10
2489.005812903037
 20
3599.750569887545
 30
0.0
 11
2489.005812903037
 21
3324.750569887545
 31
0.0
  0
SOLID
  5
F37D
330
E2D9
100
AcDbEntity
  8
寸法引出
 48
25.0
100
AcDbTrace
 10
2482.755812903036
 20
3599.750569887545
 30
0.0
 11
2495.255812903037
 21
3599.750569887545
 31
0.0
 12
2489.005812903037
 22
3637.250569887545
 32
0.0
 13
2489.005812903037
 23
3637.250569887545
 33
0.0
  0
SOLID
  5
F37E
330
E2D9
100
AcDbEntity
  8
寸法引出
 48
25.0
100
AcDbTrace
 10
2482.755812903036
 20
3324.750569887545
 30
0.0
 11
2495.255812903037
 21
3324.750569887545
 31
0.0
 12
2489.005812903037
 22
3287.250569887545
 32
0.0
 13
2489.005812903037
 23
3287.250569887545
 33
0.0
  0
MTEXT
  5
F37F
330
E2D9
100
AcDbEntity
  8
寸法引出
 48
25.0
100
AcDbMText
 10
2439.005812903035
 20
3462.250569887546
 30
0.0
 40
50.0
 41
0.0
 71
     5
 72
     1
  1
\A1;350
  7
SANWA
 11
0.0000000000000001
 21
1.0
 31
0.0
 73
     1
 44
1.0
  0
POINT
  5
F380
330
E2D9
100
AcDbEntity
  8
DEFPOINTS
 62
     0
 48
25.0
100
AcDbPoint
 10
2555.124842940756
 20
3637.250569887545
 30
0.0
  0
POINT
  5
F381
330
E2D9
100
AcDbEntity
  8
DEFPOINTS
 62
     0
 48
25.0
100
AcDbPoint
 10
2555.124842940756
 20
3287.250569887545
 30
0.0
  0
POINT
  5
F382
330
E2D9
100
AcDbEntity
  8
DEFPOINTS
 62
     0
 48
25.0
100
AcDbPoint
 10
2489.005812903037
 20
3287.250569887545
 30
0.0
  0
ENDBLK
  5
E2E4
330
E2D9
100
AcDbEntity
  8
0
 48
25.0
100
AcDbBlockEnd
  0
BLOCK
  5
E309
330
E2FF
100
AcDbEntity
  8
0
 48
25.0
100
AcDbBlockBegin
  2
*D26
 70
     1
 10
0.0
 20
0.0
 30
0.0
  3
*D26
  1

  0
LINE
  5
F35D
330
E2FF
100
AcDbEntity
  8
寸法引出
 48
25.0
370
    -2
100
AcDbLine
 10
5243.469910207107
 20
3662.250569887545
 30
0.0
 11
5243.469910207107
 21
3859.651702602744
 31
0.0
  0
LINE
  5
F35E
330
E2FF
100
AcDbEntity
  8
寸法引出
 48
25.0
370
    -2
100
AcDbLine
 10
6003.469910207106
 20
3662.250569887545
 30
0.0
 11
6003.469910207106
 21
3859.651702602744
 31
0.0
  0
LINE
  5
F35F
330
E2FF
100
AcDbEntity
  8
寸法引出
 48
25.0
370
    -2
100
AcDbLine
 10
5280.969910207106
 20
3847.151702602744
 30
0.0
 11
5965.969910207107
 21
3847.151702602744
 31
0.0
  0
SOLID
  5
F360
330
E2FF
100
AcDbEntity
  8
寸法引出
 48
25.0
100
AcDbTrace
 10
5280.969910207106
 20
3853.401702602744
 30
0.0
 11
5280.969910207106
 21
3840.901702602744
 31
0.0
 12
5243.469910207107
 22
3847.151702602744
 32
0.0
 13
5243.469910207107
 23
3847.151702602744
 33
0.0
  0
SOLID
  5
F361
330
E2FF
100
AcDbEntity
  8
寸法引出
 48
25.0
100
AcDbTrace
 10
5965.969910207107
 20
3853.401702602744
 30
0.0
 11
5965.969910207107
 21
3840.901702602744
 31
0.0
 12
6003.469910207106
 22
3847.151702602744
 32
0.0
 13
6003.469910207106
 23
3847.151702602744
 33
0.0
  0
MTEXT
  5
F362
330
E2FF
100
AcDbEntity
  8
寸法引出
 48
25.0
100
AcDbMText
 10
5623.469910207106
 20
3897.151702602744
 30
0.0
 40
50.0
 41
0.0
 71
     5
 72
     1
  1
\A1;760
  7
SANWA
 73
     1
 44
1.0
  0
POINT
  5
F363
330
E2FF
100
AcDbEntity
  8
DEFPOINTS
 62
     0
 48
25.0
100
AcDbPoint
 10
5243.469910207107
 20
3637.250569887545
 30
0.0
  0
POINT
  5
F364
330
E2FF
100
AcDbEntity
  8
DEFPOINTS
 62
     0
 48
25.0
100
AcDbPoint
 10
6003.469910207106
 20
3637.250569887545
 30
0.0
  0
POINT
  5
F365
330
E2FF
100
AcDbEntity
  8
DEFPOINTS
 62
     0
 48
25.0
100
AcDbPoint
 10
6003.469910207106
 20
3847.151702602744
 30
0.0
  0
ENDBLK
  5
E30A
330
E2FF
100
AcDbEntity
  8
0
 48
25.0
100
AcDbBlockEnd
  0
BLOCK
  5
E315
330
E30B
100
AcDbEntity
  8
0
 48
25.0
100
AcDbBlockBegin
  2
*D27
 70
     1
 10
0.0
 20
0.0
 30
0.0
  3
*D27
  1

  0
LINE
  5
F354
330
E30B
100
AcDbEntity
  8
寸法引出
 48
25.0
370
    -2
100
AcDbLine
 10
4123.469910207106
 20
3662.250569887545
 30
0.0
 11
4123.469910207106
 21
3982.779774099494
 31
0.0
  0
LINE
  5
F355
330
E30B
100
AcDbEntity
  8
寸法引出
 48
25.0
370
    -2
100
AcDbLine
 10
6123.469910207106
 20
3662.250569887545
 30
0.0
 11
6123.469910207106
 21
3982.779774099494
 31
0.0
  0
LINE
  5
F356
330
E30B
100
AcDbEntity
  8
寸法引出
 48
25.0
370
    -2
100
AcDbLine
 10
4160.969910207106
 20
3970.279774099494
 30
0.0
 11
6085.969910207106
 21
3970.279774099494
 31
0.0
  0
SOLID
  5
F357
330
E30B
100
AcDbEntity
  8
寸法引出
 48
25.0
100
AcDbTrace
 10
4160.969910207106
 20
3976.529774099494
 30
0.0
 11
4160.969910207106
 21
3964.029774099494
 31
0.0
 12
4123.469910207106
 22
3970.279774099494
 32
0.0
 13
4123.469910207106
 23
3970.279774099494
 33
0.0
  0
SOLID
  5
F358
330
E30B
100
AcDbEntity
  8
寸法引出
 48
25.0
100
AcDbTrace
 10
6085.969910207106
 20
3976.529774099494
 30
0.0
 11
6085.969910207106
 21
3964.029774099494
 31
0.0
 12
6123.469910207106
 22
3970.279774099494
 32
0.0
 13
6123.469910207106
 23
3970.279774099494
 33
0.0
  0
MTEXT
  5
F359
330
E30B
100
AcDbEntity
  8
寸法引出
 48
25.0
100
AcDbMText
 10
5123.469910207106
 20
4020.279774099495
 30
0.0
 40
50.0
 41
0.0
 71
     5
 72
     1
  1
\A1;2000
  7
SANWA
 73
     1
 44
1.0
  0
POINT
  5
F35A
330
E30B
100
AcDbEntity
  8
DEFPOINTS
 62
     0
 48
25.0
100
AcDbPoint
 10
4123.469910207106
 20
3637.250569887545
 30
0.0
  0
POINT
  5
F35B
330
E30B
100
AcDbEntity
  8
DEFPOINTS
 62
     0
 48
25.0
100
AcDbPoint
 10
6123.469910207106
 20
3637.250569887545
 30
0.0
  0
POINT
  5
F35C
330
E30B
100
AcDbEntity
  8
DEFPOINTS
 62
     0
 48
25.0
100
AcDbPoint
 10
6123.469910207106
 20
3970.279774099494
 30
0.0
  0
ENDBLK
  5
E316
330
E30B
100
AcDbEntity
  8
0
 48
25.0
100
AcDbBlockEnd
  0
BLOCK
  5
E323
330
E317
100
AcDbEntity
  8
0
 48
25.0
100
AcDbBlockBegin
  2
*D28
 70
     1
 10
0.0
 20
0.0
 30
0.0
  3
*D28
  1

  0
LINE
  5
F421
330
E317
100
AcDbEntity
  8
寸法引出
 48
25.0
370
    -2
100
AcDbLine
 10
4123.469910207106
 20
3437.750569887546
 30
0.0
 11
4123.469910207106
 21
3339.675576881783
 31
0.0
  0
LINE
  5
F422
330
E317
100
AcDbEntity
  8
寸法引出
 48
25.0
370
    -2
100
AcDbLine
 10
4173.469910207106
 20
3462.250569887546
 30
0.0
 11
4173.469910207106
 21
3339.675576881783
 31
0.0
  0
LINE
  5
F423
330
E317
100
AcDbEntity
  8
寸法引出
 48
25.0
370
    -2
100
AcDbLine
 10
4085.969910207106
 20
3352.175576881783
 30
0.0
 11
4048.469910207106
 21
3352.175576881783
 31
0.0
  0
LINE
  5
F424
330
E317
100
AcDbEntity
  8
寸法引出
 48
25.0
370
    -2
100
AcDbLine
 10
4210.969910207106
 20
3352.175576881783
 30
0.0
 11
4248.469910207106
 21
3352.175576881783
 31
0.0
  0
LINE
  5
F425
330
E317
100
AcDbEntity
  8
寸法引出
 48
25.0
370
    -2
100
AcDbLine
 10
4123.469910207106
 20
3352.175576881783
 30
0.0
 11
4173.469910207106
 21
3352.175576881783
 31
0.0
  0
SOLID
  5
F426
330
E317
100
AcDbEntity
  8
寸法引出
 48
25.0
100
AcDbTrace
 10
4085.969910207106
 20
3358.425576881783
 30
0.0
 11
4085.969910207106
 21
3345.925576881783
 31
0.0
 12
4123.469910207106
 22
3352.175576881783
 32
0.0
 13
4123.469910207106
 23
3352.175576881783
 33
0.0
  0
SOLID
  5
F427
330
E317
100
AcDbEntity
  8
寸法引出
 48
25.0
100
AcDbTrace
 10
4210.969910207106
 20
3358.425576881783
 30
0.0
 11
4210.969910207106
 21
3345.925576881783
 31
0.0
 12
4173.469910207106
 22
3352.175576881783
 32
0.0
 13
4173.469910207106
 23
3352.175576881783
 33
0.0
  0
MTEXT
  5
F428
330
E317
100
AcDbEntity
  8
寸法引出
 48
25.0
100
AcDbMText
 10
4148.469910207106
 20
3402.175576881783
 30
0.0
 40
50.0
 41
0.0
 71
     5
 72
     1
  1
\A1;50
  7
SANWA
 73
     1
 44
1.0
  0
POINT
  5
F429
330
E317
100
AcDbEntity
  8
DEFPOINTS
 62
     0
 48
25.0
100
AcDbPoint
 10
4123.469910207106
 20
3462.750569887546
 30
0.0
  0
POINT
  5
F42A
330
E317
100
AcDbEntity
  8
DEFPOINTS
 62
     0
 48
25.0
100
AcDbPoint
 10
4173.469910207106
 20
3487.250569887546
 30
0.0
  0
POINT
  5
F42B
330
E317
100
AcDbEntity
  8
DEFPOINTS
 62
     0
 48
25.0
100
AcDbPoint
 10
4173.469910207106
 20
3352.175576881783
 30
0.0
  0
ENDBLK
  5
E324
330
E317
100
AcDbEntity
  8
0
 48
25.0
100
AcDbBlockEnd
  0
BLOCK
  5
E32F
330
E325
100
AcDbEntity
  8
0
 48
25.0
100
AcDbBlockBegin
  2
*D29
 70
     1
 10
0.0
 20
0.0
 30
0.0
  3
*D29
  1

  0
LINE
  5
F418
330
E325
100
AcDbEntity
  8
寸法引出
 48
25.0
370
    -2
100
AcDbLine
 10
4098.469910207106
 20
3487.250569887546
 30
0.0
 11
3983.737552926137
 21
3487.250569887546
 31
0.0
  0
LINE
  5
F419
330
E325
100
AcDbEntity
  8
寸法引出
 48
25.0
370
    -2
100
AcDbLine
 10
4098.469910207106
 20
3637.250569887545
 30
0.0
 11
3983.737552926137
 21
3637.250569887545
 31
0.0
  0
LINE
  5
F41A
330
E325
100
AcDbEntity
  8
寸法引出
 48
25.0
370
    -2
100
AcDbLine
 10
3996.237552926137
 20
3524.750569887546
 30
0.0
 11
3996.237552926137
 21
3599.750569887545
 31
0.0
  0
SOLID
  5
F41B
330
E325
100
AcDbEntity
  8
寸法引出
 48
25.0
100
AcDbTrace
 10
3989.987552926137
 20
3524.750569887546
 30
0.0
 11
4002.487552926137
 21
3524.750569887546
 31
0.0
 12
3996.237552926137
 22
3487.250569887546
 32
0.0
 13
3996.237552926137
 23
3487.250569887546
 33
0.0
  0
SOLID
  5
F41C
330
E325
100
AcDbEntity
  8
寸法引出
 48
25.0
100
AcDbTrace
 10
3989.987552926137
 20
3599.750569887545
 30
0.0
 11
4002.487552926137
 21
3599.750569887545
 31
0.0
 12
3996.237552926137
 22
3637.250569887545
 32
0.0
 13
3996.237552926137
 23
3637.250569887545
 33
0.0
  0
MTEXT
  5
F41D
330
E325
100
AcDbEntity
  8
寸法引出
 48
25.0
100
AcDbMText
 10
3946.237552926136
 20
3562.250569887546
 30
0.0
 40
50.0
 41
0.0
 71
     5
 72
     1
  1
\A1;150
  7
SANWA
 11
0.0000000000000001
 21
1.0
 31
0.0
 73
     1
 44
1.0
  0
POINT
  5
F41E
330
E325
100
AcDbEntity
  8
DEFPOINTS
 62
     0
 48
25.0
100
AcDbPoint
 10
4123.469910207106
 20
3487.250569887546
 30
0.0
  0
POINT
  5
F41F
330
E325
100
AcDbEntity
  8
DEFPOINTS
 62
     0
 48
25.0
100
AcDbPoint
 10
4123.469910207106
 20
3637.250569887545
 30
0.0
  0
POINT
  5
F420
330
E325
100
AcDbEntity
  8
DEFPOINTS
 62
     0
 48
25.0
100
AcDbPoint
 10
3996.237552926137
 20
3637.250569887545
 30
0.0
  0
ENDBLK
  5
E330
330
E325
100
AcDbEntity
  8
0
 48
25.0
100
AcDbBlockEnd
  0
BLOCK
  5
E355
330
E34B
100
AcDbEntity
  8
0
 48
25.0
100
AcDbBlockBegin
  2
*D30
 70
     1
 10
0.0
 20
0.0
 30
0.0
  3
*D30
  1

  0
LINE
  5
F34B
330
E34B
100
AcDbEntity
  8
寸法引出
 48
25.0
370
    -2
100
AcDbLine
 10
4243.469910207106
 20
3662.250569887545
 30
0.0
 11
4243.469910207106
 21
3859.651702602744
 31
0.0
  0
LINE
  5
F34C
330
E34B
100
AcDbEntity
  8
寸法引出
 48
25.0
370
    -2
100
AcDbLine
 10
5003.469910207106
 20
3662.250569887545
 30
0.0
 11
5003.469910207106
 21
3859.651702602744
 31
0.0
  0
LINE
  5
F34D
330
E34B
100
AcDbEntity
  8
寸法引出
 48
25.0
370
    -2
100
AcDbLine
 10
4280.969910207106
 20
3847.151702602744
 30
0.0
 11
4965.969910207107
 21
3847.151702602744
 31
0.0
  0
SOLID
  5
F34E
330
E34B
100
AcDbEntity
  8
寸法引出
 48
25.0
100
AcDbTrace
 10
4280.969910207106
 20
3853.401702602744
 30
0.0
 11
4280.969910207106
 21
3840.901702602744
 31
0.0
 12
4243.469910207106
 22
3847.151702602744
 32
0.0
 13
4243.469910207106
 23
3847.151702602744
 33
0.0
  0
SOLID
  5
F34F
330
E34B
100
AcDbEntity
  8
寸法引出
 48
25.0
100
AcDbTrace
 10
4965.969910207107
 20
3853.401702602744
 30
0.0
 11
4965.969910207107
 21
3840.901702602744
 31
0.0
 12
5003.469910207106
 22
3847.151702602744
 32
0.0
 13
5003.469910207106
 23
3847.151702602744
 33
0.0
  0
MTEXT
  5
F350
330
E34B
100
AcDbEntity
  8
寸法引出
 48
25.0
100
AcDbMText
 10
4623.469910207106
 20
3897.151702602744
 30
0.0
 40
50.0
 41
0.0
 71
     5
 72
     1
  1
\A1;760
  7
SANWA
 73
     1
 44
1.0
  0
POINT
  5
F351
330
E34B
100
AcDbEntity
  8
DEFPOINTS
 62
     0
 48
25.0
100
AcDbPoint
 10
4243.469910207106
 20
3637.250569887545
 30
0.0
  0
POINT
  5
F352
330
E34B
100
AcDbEntity
  8
DEFPOINTS
 62
     0
 48
25.0
100
AcDbPoint
 10
5003.469910207106
 20
3637.250569887545
 30
0.0
  0
POINT
  5
F353
330
E34B
100
AcDbEntity
  8
DEFPOINTS
 62
     0
 48
25.0
100
AcDbPoint
 10
5003.469910207106
 20
3847.151702602744
 30
0.0
  0
ENDBLK
  5
E356
330
E34B
100
AcDbEntity
  8
0
 48
25.0
100
AcDbBlockEnd
  0
BLOCK
  5
E363
330
E357
100
AcDbEntity
  8
0
 48
25.0
100
AcDbBlockBegin
  2
*D31
 70
     1
 10
0.0
 20
0.0
 30
0.0
  3
*D31
  1

  0
LINE
  5
F340
330
E357
100
AcDbEntity
  8
寸法引出
 48
25.0
370
    -2
100
AcDbLine
 10
4123.469910207106
 20
3662.250569887545
 30
0.0
 11
4123.469910207106
 21
3859.651702602744
 31
0.0
  0
LINE
  5
F341
330
E357
100
AcDbEntity
  8
寸法引出
 48
25.0
370
    -2
100
AcDbLine
 10
4243.469910207106
 20
3662.250569887545
 30
0.0
 11
4243.469910207106
 21
3859.651702602744
 31
0.0
  0
LINE
  5
F342
330
E357
100
AcDbEntity
  8
寸法引出
 48
25.0
370
    -2
100
AcDbLine
 10
4085.969910207106
 20
3847.151702602744
 30
0.0
 11
4048.469910207106
 21
3847.151702602744
 31
0.0
  0
LINE
  5
F343
330
E357
100
AcDbEntity
  8
寸法引出
 48
25.0
370
    -2
100
AcDbLine
 10
4280.969910207106
 20
3847.151702602744
 30
0.0
 11
4318.469910207106
 21
3847.151702602744
 31
0.0
  0
LINE
  5
F344
330
E357
100
AcDbEntity
  8
寸法引出
 48
25.0
370
    -2
100
AcDbLine
 10
4123.469910207106
 20
3847.151702602744
 30
0.0
 11
4243.469910207106
 21
3847.151702602744
 31
0.0
  0
SOLID
  5
F345
330
E357
100
AcDbEntity
  8
寸法引出
 48
25.0
100
AcDbTrace
 10
4085.969910207106
 20
3853.401702602744
 30
0.0
 11
4085.969910207106
 21
3840.901702602744
 31
0.0
 12
4123.469910207106
 22
3847.151702602744
 32
0.0
 13
4123.469910207106
 23
3847.151702602744
 33
0.0
  0
SOLID
  5
F346
330
E357
100
AcDbEntity
  8
寸法引出
 48
25.0
100
AcDbTrace
 10
4280.969910207106
 20
3853.401702602744
 30
0.0
 11
4280.969910207106
 21
3840.901702602744
 31
0.0
 12
4243.469910207106
 22
3847.151702602744
 32
0.0
 13
4243.469910207106
 23
3847.151702602744
 33
0.0
  0
MTEXT
  5
F347
330
E357
100
AcDbEntity
  8
寸法引出
 48
25.0
100
AcDbMText
 10
4183.469910207106
 20
3897.151702602744
 30
0.0
 40
50.0
 41
0.0
 71
     5
 72
     1
  1
\A1;120
  7
SANWA
 73
     1
 44
1.0
  0
POINT
  5
F348
330
E357
100
AcDbEntity
  8
DEFPOINTS
 62
     0
 48
25.0
100
AcDbPoint
 10
4123.469910207106
 20
3637.250569887545
 30
0.0
  0
POINT
  5
F349
330
E357
100
AcDbEntity
  8
DEFPOINTS
 62
     0
 48
25.0
100
AcDbPoint
 10
4243.469910207106
 20
3637.250569887545
 30
0.0
  0
POINT
  5
F34A
330
E357
100
AcDbEntity
  8
DEFPOINTS
 62
     0
 48
25.0
100
AcDbPoint
 10
4243.469910207106
 20
3847.151702602744
 30
0.0
  0
ENDBLK
  5
E364
330
E357
100
AcDbEntity
  8
0
 48
25.0
100
AcDbBlockEnd
  0
BLOCK
  5
E36F
330
E365
100
AcDbEntity
  8
0
 48
25.0
100
AcDbBlockBegin
  2
*D32
 70
     1
 10
0.0
 20
0.0
 30
0.0
  3
*D32
  1

  0
LINE
  5
F337
330
E365
100
AcDbEntity
  8
寸法引出
 48
25.0
370
    -2
100
AcDbLine
 10
5003.469910207106
 20
3662.250569887545
 30
0.0
 11
5003.469910207106
 21
3859.651702602744
 31
0.0
  0
LINE
  5
F338
330
E365
100
AcDbEntity
  8
寸法引出
 48
25.0
370
    -2
100
AcDbLine
 10
5243.469910207107
 20
3662.250569887545
 30
0.0
 11
5243.469910207107
 21
3859.651702602744
 31
0.0
  0
LINE
  5
F339
330
E365
100
AcDbEntity
  8
寸法引出
 48
25.0
370
    -2
100
AcDbLine
 10
5040.969910207106
 20
3847.151702602744
 30
0.0
 11
5205.969910207106
 21
3847.151702602744
 31
0.0
  0
SOLID
  5
F33A
330
E365
100
AcDbEntity
  8
寸法引出
 48
25.0
100
AcDbTrace
 10
5040.969910207106
 20
3853.401702602744
 30
0.0
 11
5040.969910207106
 21
3840.901702602744
 31
0.0
 12
5003.469910207106
 22
3847.151702602744
 32
0.0
 13
5003.469910207106
 23
3847.151702602744
 33
0.0
  0
SOLID
  5
F33B
330
E365
100
AcDbEntity
  8
寸法引出
 48
25.0
100
AcDbTrace
 10
5205.969910207106
 20
3853.401702602744
 30
0.0
 11
5205.969910207106
 21
3840.901702602744
 31
0.0
 12
5243.469910207107
 22
3847.151702602744
 32
0.0
 13
5243.469910207107
 23
3847.151702602744
 33
0.0
  0
MTEXT
  5
F33C
330
E365
100
AcDbEntity
  8
寸法引出
 48
25.0
100
AcDbMText
 10
5123.469910207106
 20
3897.151702602744
 30
0.0
 40
50.0
 41
0.0
 71
     5
 72
     1
  1
\A1;240
  7
SANWA
 73
     1
 44
1.0
  0
POINT
  5
F33D
330
E365
100
AcDbEntity
  8
DEFPOINTS
 62
     0
 48
25.0
100
AcDbPoint
 10
5003.469910207106
 20
3637.250569887545
 30
0.0
  0
POINT
  5
F33E
330
E365
100
AcDbEntity
  8
DEFPOINTS
 62
     0
 48
25.0
100
AcDbPoint
 10
5243.469910207107
 20
3637.250569887545
 30
0.0
  0
POINT
  5
F33F
330
E365
100
AcDbEntity
  8
DEFPOINTS
 62
     0
 48
25.0
100
AcDbPoint
 10
5243.469910207107
 20
3847.151702602744
 30
0.0
  0
ENDBLK
  5
E370
330
E365
100
AcDbEntity
  8
0
 48
25.0
100
AcDbBlockEnd
  0
BLOCK
  5
E397
330
E38B
100
AcDbEntity
  8
0
 48
25.0
100
AcDbBlockBegin
  2
*D33
 70
     1
 10
0.0
 20
0.0
 30
0.0
  3
*D33
  1

  0
LINE
  5
F32C
330
E38B
100
AcDbEntity
  8
寸法引出
 48
25.0
370
    -2
100
AcDbLine
 10
6003.469910207106
 20
3662.250569887545
 30
0.0
 11
6003.469910207106
 21
3859.651702602744
 31
0.0
  0
LINE
  5
F32D
330
E38B
100
AcDbEntity
  8
寸法引出
 48
25.0
370
    -2
100
AcDbLine
 10
6123.469910207106
 20
3662.250569887545
 30
0.0
 11
6123.469910207106
 21
3859.651702602744
 31
0.0
  0
LINE
  5
F32E
330
E38B
100
AcDbEntity
  8
寸法引出
 48
25.0
370
    -2
100
AcDbLine
 10
5965.969910207107
 20
3847.151702602744
 30
0.0
 11
5928.469910207106
 21
3847.151702602744
 31
0.0
  0
LINE
  5
F32F
330
E38B
100
AcDbEntity
  8
寸法引出
 48
25.0
370
    -2
100
AcDbLine
 10
6160.969910207106
 20
3847.151702602744
 30
0.0
 11
6198.469910207106
 21
3847.151702602744
 31
0.0
  0
LINE
  5
F330
330
E38B
100
AcDbEntity
  8
寸法引出
 48
25.0
370
    -2
100
AcDbLine
 10
6003.469910207106
 20
3847.151702602744
 30
0.0
 11
6123.469910207106
 21
3847.151702602744
 31
0.0
  0
SOLID
  5
F331
330
E38B
100
AcDbEntity
  8
寸法引出
 48
25.0
100
AcDbTrace
 10
5965.969910207107
 20
3853.401702602744
 30
0.0
 11
5965.969910207107
 21
3840.901702602744
 31
0.0
 12
6003.469910207106
 22
3847.151702602744
 32
0.0
 13
6003.469910207106
 23
3847.151702602744
 33
0.0
  0
SOLID
  5
F332
330
E38B
100
AcDbEntity
  8
寸法引出
 48
25.0
100
AcDbTrace
 10
6160.969910207106
 20
3853.401702602744
 30
0.0
 11
6160.969910207106
 21
3840.901702602744
 31
0.0
 12
6123.469910207106
 22
3847.151702602744
 32
0.0
 13
6123.469910207106
 23
3847.151702602744
 33
0.0
  0
MTEXT
  5
F333
330
E38B
100
AcDbEntity
  8
寸法引出
 48
25.0
100
AcDbMText
 10
6063.469910207107
 20
3897.151702602744
 30
0.0
 40
50.0
 41
0.0
 71
     5
 72
     1
  1
\A1;120
  7
SANWA
 73
     1
 44
1.0
  0
POINT
  5
F334
330
E38B
100
AcDbEntity
  8
DEFPOINTS
 62
     0
 48
25.0
100
AcDbPoint
 10
6003.469910207106
 20
3637.250569887545
 30
0.0
  0
POINT
  5
F335
330
E38B
100
AcDbEntity
  8
DEFPOINTS
 62
     0
 48
25.0
100
AcDbPoint
 10
6123.469910207106
 20
3637.250569887545
 30
0.0
  0
POINT
  5
F336
330
E38B
100
AcDbEntity
  8
DEFPOINTS
 62
     0
 48
25.0
100
AcDbPoint
 10
6123.469910207106
 20
3847.151702602744
 30
0.0
  0
ENDBLK
  5
E398
330
E38B
100
AcDbEntity
  8
0
 48
25.0
100
AcDbBlockEnd
  0
BLOCK
  5
E9BF
330
E9B3
100
AcDbEntity
  8
0
 48
25.0
100
AcDbBlockBegin
  2
*D34
 70
     1
 10
0.0
 20
0.0
 30
0.0
  3
*D34
  1

  0
LINE
  5
F3A9
330
E9B3
100
AcDbEntity
  8
寸法引出
 48
25.0
370
    -2
100
AcDbLine
 10
2095.124842940756
 20
3662.250569887545
 30
0.0
 11
2095.124842940756
 21
3800.936045495898
 31
0.0
  0
LINE
  5
F3AA
330
E9B3
100
AcDbEntity
  8
寸法引出
 48
25.0
370
    -2
100
AcDbLine
 10
2155.124842940757
 20
3662.250569887545
 30
0.0
 11
2155.124842940757
 21
3800.936045495898
 31
0.0
  0
LINE
  5
F3AB
330
E9B3
100
AcDbEntity
  8
寸法引出
 48
25.0
370
    -2
100
AcDbLine
 10
2057.624842940757
 20
3788.436045495898
 30
0.0
 11
2020.124842940757
 21
3788.436045495898
 31
0.0
  0
LINE
  5
F3AC
330
E9B3
100
AcDbEntity
  8
寸法引出
 48
25.0
370
    -2
100
AcDbLine
 10
2192.624842940757
 20
3788.436045495898
 30
0.0
 11
2230.124842940756
 21
3788.436045495898
 31
0.0
  0
LINE
  5
F3AD
330
E9B3
100
AcDbEntity
  8
寸法引出
 48
25.0
370
    -2
100
AcDbLine
 10
2095.124842940756
 20
3788.436045495898
 30
0.0
 11
2155.124842940757
 21
3788.436045495898
 31
0.0
  0
SOLID
  5
F3AE
330
E9B3
100
AcDbEntity
  8
寸法引出
 48
25.0
100
AcDbTrace
 10
2057.624842940757
 20
3794.686045495898
 30
0.0
 11
2057.624842940757
 21
3782.186045495897
 31
0.0
 12
2095.124842940756
 22
3788.436045495898
 32
0.0
 13
2095.124842940756
 23
3788.436045495898
 33
0.0
  0
SOLID
  5
F3AF
330
E9B3
100
AcDbEntity
  8
寸法引出
 48
25.0
100
AcDbTrace
 10
2192.624842940757
 20
3794.686045495898
 30
0.0
 11
2192.624842940757
 21
3782.186045495897
 31
0.0
 12
2155.124842940757
 22
3788.436045495898
 32
0.0
 13
2155.124842940757
 23
3788.436045495898
 33
0.0
  0
MTEXT
  5
F3B0
330
E9B3
100
AcDbEntity
  8
寸法引出
 48
25.0
100
AcDbMText
 10
2125.124842940757
 20
3838.436045495898
 30
0.0
 40
50.0
 41
0.0
 71
     5
 72
     1
  1
\A1;60
  7
SANWA
 73
     1
 44
1.0
  0
POINT
  5
F3B1
330
E9B3
100
AcDbEntity
  8
DEFPOINTS
 62
     0
 48
25.0
100
AcDbPoint
 10
2095.124842940756
 20
3637.250569887545
 30
0.0
  0
POINT
  5
F3B2
330
E9B3
100
AcDbEntity
  8
DEFPOINTS
 62
     0
 48
25.0
100
AcDbPoint
 10
2155.124842940757
 20
3637.250569887545
 30
0.0
  0
POINT
  5
F3B3
330
E9B3
100
AcDbEntity
  8
DEFPOINTS
 62
     0
 48
25.0
100
AcDbPoint
 10
2155.124842940757
 20
3788.436045495898
 30
0.0
  0
ENDBLK
  5
E9C0
330
E9B3
100
AcDbEntity
  8
0
 48
25.0
100
AcDbBlockEnd
  0
BLOCK
  5
E9CE
330
E9C2
100
AcDbEntity
  8
0
 48
25.0
100
AcDbBlockBegin
  2
*D35
 70
     1
 10
0.0
 20
0.0
 30
0.0
  3
*D35
  1

  0
LINE
  5
F40D
330
E9C2
100
AcDbEntity
  8
寸法引出
 48
25.0
370
    -2
100
AcDbLine
 10
2555.124842940756
 20
3662.250569887545
 30
0.0
 11
2555.124842940756
 21
3800.936045495898
 31
0.0
  0
LINE
  5
F40E
330
E9C2
100
AcDbEntity
  8
寸法引出
 48
25.0
370
    -2
100
AcDbLine
 10
2615.124842940756
 20
3662.250569887545
 30
0.0
 11
2615.124842940756
 21
3800.936045495898
 31
0.0
  0
LINE
  5
F40F
330
E9C2
100
AcDbEntity
  8
寸法引出
 48
25.0
370
    -2
100
AcDbLine
 10
2517.624842940756
 20
3788.436045495898
 30
0.0
 11
2480.124842940757
 21
3788.436045495898
 31
0.0
  0
LINE
  5
F410
330
E9C2
100
AcDbEntity
  8
寸法引出
 48
25.0
370
    -2
100
AcDbLine
 10
2652.624842940757
 20
3788.436045495898
 30
0.0
 11
2690.124842940757
 21
3788.436045495898
 31
0.0
  0
LINE
  5
F411
330
E9C2
100
AcDbEntity
  8
寸法引出
 48
25.0
370
    -2
100
AcDbLine
 10
2555.124842940756
 20
3788.436045495898
 30
0.0
 11
2615.124842940756
 21
3788.436045495898
 31
0.0
  0
SOLID
  5
F412
330
E9C2
100
AcDbEntity
  8
寸法引出
 48
25.0
100
AcDbTrace
 10
2517.624842940756
 20
3794.686045495898
 30
0.0
 11
2517.624842940756
 21
3782.186045495897
 31
0.0
 12
2555.124842940756
 22
3788.436045495898
 32
0.0
 13
2555.124842940756
 23
3788.436045495898
 33
0.0
  0
SOLID
  5
F413
330
E9C2
100
AcDbEntity
  8
寸法引出
 48
25.0
100
AcDbTrace
 10
2652.624842940757
 20
3794.686045495898
 30
0.0
 11
2652.624842940757
 21
3782.186045495897
 31
0.0
 12
2615.124842940756
 22
3788.436045495898
 32
0.0
 13
2615.124842940756
 23
3788.436045495898
 33
0.0
  0
MTEXT
  5
F414
330
E9C2
100
AcDbEntity
  8
寸法引出
 48
25.0
100
AcDbMText
 10
2585.124842940757
 20
3838.436045495898
 30
0.0
 40
50.0
 41
0.0
 71
     5
 72
     1
  1
\A1;60
  7
SANWA
 73
     1
 44
1.0
  0
POINT
  5
F415
330
E9C2
100
AcDbEntity
  8
DEFPOINTS
 62
     0
 48
25.0
100
AcDbPoint
 10
2555.124842940756
 20
3637.250569887545
 30
0.0
  0
POINT
  5
F416
330
E9C2
100
AcDbEntity
  8
DEFPOINTS
 62
     0
 48
25.0
100
AcDbPoint
 10
2615.124842940756
 20
3637.250569887545
 30
0.0
  0
POINT
  5
F417
330
E9C2
100
AcDbEntity
  8
DEFPOINTS
 62
     0
 48
25.0
100
AcDbPoint
 10
2615.124842940756
 20
3788.436045495898
 30
0.0
  0
ENDBLK
  5
E9CF
330
E9C2
100
AcDbEntity
  8
0
 48
25.0
100
AcDbBlockEnd
  0
BLOCK
  5
E9FA
330
E9F0
100
AcDbEntity
  8
0
 48
25.0
100
AcDbBlockBegin
  2
*D36
 70
     1
 10
0.0
 20
0.0
 30
0.0
  3
*D36
  1

  0
LINE
  5
F323
330
E9F0
100
AcDbEntity
  8
寸法引出
 48
25.0
370
    -2
100
AcDbLine
 10
2095.124842940756
 20
3662.250569887545
 30
0.0
 11
2095.124842940756
 21
3907.451680541912
 31
0.0
  0
LINE
  5
F324
330
E9F0
100
AcDbEntity
  8
寸法引出
 48
25.0
370
    -2
100
AcDbLine
 10
2615.124842940756
 20
3662.250569887545
 30
0.0
 11
2615.124842940756
 21
3907.451680541912
 31
0.0
  0
LINE
  5
F325
330
E9F0
100
AcDbEntity
  8
寸法引出
 48
25.0
370
    -2
100
AcDbLine
 10
2132.624842940757
 20
3894.951680541913
 30
0.0
 11
2577.624842940757
 21
3894.951680541913
 31
0.0
  0
SOLID
  5
F326
330
E9F0
100
AcDbEntity
  8
寸法引出
 48
25.0
100
AcDbTrace
 10
2132.624842940757
 20
3901.201680541912
 30
0.0
 11
2132.624842940757
 21
3888.701680541913
 31
0.0
 12
2095.124842940756
 22
3894.951680541913
 32
0.0
 13
2095.124842940756
 23
3894.951680541913
 33
0.0
  0
SOLID
  5
F327
330
E9F0
100
AcDbEntity
  8
寸法引出
 48
25.0
100
AcDbTrace
 10
2577.624842940757
 20
3901.201680541912
 30
0.0
 11
2577.624842940757
 21
3888.701680541913
 31
0.0
 12
2615.124842940756
 22
3894.951680541913
 32
0.0
 13
2615.124842940756
 23
3894.951680541913
 33
0.0
  0
MTEXT
  5
F328
330
E9F0
100
AcDbEntity
  8
寸法引出
 48
25.0
100
AcDbMText
 10
2355.124842940756
 20
3944.951680541913
 30
0.0
 40
50.0
 41
0.0
 71
     5
 72
     1
  1
\A1;520
  7
SANWA
 73
     1
 44
1.0
  0
POINT
  5
F329
330
E9F0
100
AcDbEntity
  8
DEFPOINTS
 62
     0
 48
25.0
100
AcDbPoint
 10
2095.124842940756
 20
3637.250569887545
 30
0.0
  0
POINT
  5
F32A
330
E9F0
100
AcDbEntity
  8
DEFPOINTS
 62
     0
 48
25.0
100
AcDbPoint
 10
2615.124842940756
 20
3637.250569887545
 30
0.0
  0
POINT
  5
F32B
330
E9F0
100
AcDbEntity
  8
DEFPOINTS
 62
     0
 48
25.0
100
AcDbPoint
 10
2615.124842940756
 20
3894.951680541913
 30
0.0
  0
ENDBLK
  5
E9FB
330
E9F0
100
AcDbEntity
  8
0
 48
25.0
100
AcDbBlockEnd
  0
BLOCK
  5
EA41
330
EA35
100
AcDbEntity
  8
0
 48
25.0
100
AcDbBlockBegin
  2
*D37
 70
     1
 10
0.0
 20
0.0
 30
0.0
  3
*D37
  1

  0
LINE
  5
F395
330
EA35
100
AcDbEntity
  8
寸法引出
 48
25.0
370
    -2
100
AcDbLine
 10
2095.12484294076
 20
2127.250569887543
 30
0.0
 11
2095.12484294076
 21
1960.912518249894
 31
0.0
  0
LINE
  5
F396
330
EA35
100
AcDbEntity
  8
寸法引出
 48
25.0
370
    -2
100
AcDbLine
 10
2220.124842940763
 20
2087.250569887543
 30
0.0
 11
2220.124842940763
 21
1960.912518249894
 31
0.0
  0
LINE
  5
F397
330
EA35
100
AcDbEntity
  8
寸法引出
 48
25.0
370
    -2
100
AcDbLine
 10
2057.62484294076
 20
1973.412518249894
 30
0.0
 11
2020.12484294076
 21
1973.412518249894
 31
0.0
  0
LINE
  5
F398
330
EA35
100
AcDbEntity
  8
寸法引出
 48
25.0
370
    -2
100
AcDbLine
 10
2257.624842940763
 20
1973.412518249894
 30
0.0
 11
2295.124842940763
 21
1973.412518249894
 31
0.0
  0
LINE
  5
F399
330
EA35
100
AcDbEntity
  8
寸法引出
 48
25.0
370
    -2
100
AcDbLine
 10
2095.12484294076
 20
1973.412518249894
 30
0.0
 11
2220.124842940763
 21
1973.412518249894
 31
0.0
  0
SOLID
  5
F39A
330
EA35
100
AcDbEntity
  8
寸法引出
 48
25.0
100
AcDbTrace
 10
2057.62484294076
 20
1979.662518249894
 30
0.0
 11
2057.62484294076
 21
1967.162518249894
 31
0.0
 12
2095.12484294076
 22
1973.412518249894
 32
0.0
 13
2095.12484294076
 23
1973.412518249894
 33
0.0
  0
SOLID
  5
F39B
330
EA35
100
AcDbEntity
  8
寸法引出
 48
25.0
100
AcDbTrace
 10
2257.624842940763
 20
1979.662518249894
 30
0.0
 11
2257.624842940763
 21
1967.162518249894
 31
0.0
 12
2220.124842940763
 22
1973.412518249894
 32
0.0
 13
2220.124842940763
 23
1973.412518249894
 33
0.0
  0
MTEXT
  5
F39C
330
EA35
100
AcDbEntity
  8
寸法引出
 48
25.0
100
AcDbMText
 10
2157.624842940762
 20
2023.412518249894
 30
0.0
 40
50.0
 41
0.0
 71
     5
 72
     1
  1
\A1;125
  7
SANWA
 73
     1
 44
1.0
  0
POINT
  5
F39D
330
EA35
100
AcDbEntity
  8
DEFPOINTS
 62
     0
 48
25.0
100
AcDbPoint
 10
2095.12484294076
 20
2152.250569887543
 30
0.0
  0
POINT
  5
F39E
330
EA35
100
AcDbEntity
  8
DEFPOINTS
 62
     0
 48
25.0
100
AcDbPoint
 10
2220.124842940763
 20
2112.250569887544
 30
0.0
  0
POINT
  5
F39F
330
EA35
100
AcDbEntity
  8
DEFPOINTS
 62
     0
 48
25.0
100
AcDbPoint
 10
2220.124842940763
 20
1973.412518249894
 30
0.0
  0
ENDBLK
  5
EA42
330
EA35
100
AcDbEntity
  8
0
 48
25.0
100
AcDbBlockEnd
  0
BLOCK
  5
EA4E
330
EA44
100
AcDbEntity
  8
0
 48
25.0
100
AcDbBlockBegin
  2
*D38
 70
     1
 10
0.0
 20
0.0
 30
0.0
  3
*D38
  1

  0
LINE
  5
F371
330
EA44
100
AcDbEntity
  8
寸法引出
 48
25.0
370
    -2
100
AcDbLine
 10
2220.124842940763
 20
2087.250569887543
 30
0.0
 11
2220.124842940763
 21
1960.912518249894
 31
0.0
  0
LINE
  5
F372
330
EA44
100
AcDbEntity
  8
寸法引出
 48
25.0
370
    -2
100
AcDbLine
 10
2490.124842940735
 20
2087.250569887543
 30
0.0
 11
2490.124842940735
 21
1960.912518249894
 31
0.0
  0
LINE
  5
F373
330
EA44
100
AcDbEntity
  8
寸法引出
 48
25.0
370
    -2
100
AcDbLine
 10
2257.624842940763
 20
1973.412518249894
 30
0.0
 11
2452.624842940735
 21
1973.412518249894
 31
0.0
  0
SOLID
  5
F374
330
EA44
100
AcDbEntity
  8
寸法引出
 48
25.0
100
AcDbTrace
 10
2257.624842940763
 20
1979.662518249894
 30
0.0
 11
2257.624842940763
 21
1967.162518249894
 31
0.0
 12
2220.124842940763
 22
1973.412518249894
 32
0.0
 13
2220.124842940763
 23
1973.412518249894
 33
0.0
  0
SOLID
  5
F375
330
EA44
100
AcDbEntity
  8
寸法引出
 48
25.0
100
AcDbTrace
 10
2452.624842940735
 20
1979.662518249894
 30
0.0
 11
2452.624842940735
 21
1967.162518249894
 31
0.0
 12
2490.124842940735
 22
1973.412518249894
 32
0.0
 13
2490.124842940735
 23
1973.412518249894
 33
0.0
  0
MTEXT
  5
F376
330
EA44
100
AcDbEntity
  8
寸法引出
 48
25.0
100
AcDbMText
 10
2355.124842940749
 20
2023.412518249894
 30
0.0
 40
50.0
 41
0.0
 71
     5
 72
     1
  1
\A1;270
  7
SANWA
 73
     1
 44
1.0
  0
POINT
  5
F377
330
EA44
100
AcDbEntity
  8
DEFPOINTS
 62
     0
 48
25.0
100
AcDbPoint
 10
2220.124842940763
 20
2112.250569887544
 30
0.0
  0
POINT
  5
F378
330
EA44
100
AcDbEntity
  8
DEFPOINTS
 62
     0
 48
25.0
100
AcDbPoint
 10
2490.124842940735
 20
2112.250569887544
 30
0.0
  0
POINT
  5
F379
330
EA44
100
AcDbEntity
  8
DEFPOINTS
 62
     0
 48
25.0
100
AcDbPoint
 10
2490.124842940735
 20
1973.412518249894
 30
0.0
  0
ENDBLK
  5
EA4F
330
EA44
100
AcDbEntity
  8
0
 48
25.0
100
AcDbBlockEnd
  0
BLOCK
  5
EA5D
330
EA51
100
AcDbEntity
  8
0
 48
25.0
100
AcDbBlockBegin
  2
*D39
 70
     1
 10
0.0
 20
0.0
 30
0.0
  3
*D39
  1

  0
LINE
  5
F366
330
EA51
100
AcDbEntity
  8
寸法引出
 48
25.0
370
    -2
100
AcDbLine
 10
2490.124842940735
 20
2087.250569887543
 30
0.0
 11
2490.124842940735
 21
1960.912518249894
 31
0.0
  0
LINE
  5
F367
330
EA51
100
AcDbEntity
  8
寸法引出
 48
25.0
370
    -2
100
AcDbLine
 10
2615.124842940753
 20
2127.250569887543
 30
0.0
 11
2615.124842940753
 21
1960.912518249894
 31
0.0
  0
LINE
  5
F368
330
EA51
100
AcDbEntity
  8
寸法引出
 48
25.0
370
    -2
100
AcDbLine
 10
2452.624842940735
 20
1973.412518249894
 30
0.0
 11
2415.124842940735
 21
1973.412518249894
 31
0.0
  0
LINE
  5
F369
330
EA51
100
AcDbEntity
  8
寸法引出
 48
25.0
370
    -2
100
AcDbLine
 10
2652.624842940753
 20
1973.412518249894
 30
0.0
 11
2690.124842940753
 21
1973.412518249894
 31
0.0
  0
LINE
  5
F36A
330
EA51
100
AcDbEntity
  8
寸法引出
 48
25.0
370
    -2
100
AcDbLine
 10
2490.124842940735
 20
1973.412518249894
 30
0.0
 11
2615.124842940753
 21
1973.412518249894
 31
0.0
  0
SOLID
  5
F36B
330
EA51
100
AcDbEntity
  8
寸法引出
 48
25.0
100
AcDbTrace
 10
2452.624842940735
 20
1979.662518249894
 30
0.0
 11
2452.624842940735
 21
1967.162518249894
 31
0.0
 12
2490.124842940735
 22
1973.412518249894
 32
0.0
 13
2490.124842940735
 23
1973.412518249894
 33
0.0
  0
SOLID
  5
F36C
330
EA51
100
AcDbEntity
  8
寸法引出
 48
25.0
100
AcDbTrace
 10
2652.624842940753
 20
1979.662518249894
 30
0.0
 11
2652.624842940753
 21
1967.162518249894
 31
0.0
 12
2615.124842940753
 22
1973.412518249894
 32
0.0
 13
2615.124842940753
 23
1973.412518249894
 33
0.0
  0
MTEXT
  5
F36D
330
EA51
100
AcDbEntity
  8
寸法引出
 48
25.0
100
AcDbMText
 10
2552.624842940744
 20
2023.412518249894
 30
0.0
 40
50.0
 41
0.0
 71
     5
 72
     1
  1
\A1;125
  7
SANWA
 73
     1
 44
1.0
  0
POINT
  5
F36E
330
EA51
100
AcDbEntity
  8
DEFPOINTS
 62
     0
 48
25.0
100
AcDbPoint
 10
2490.124842940735
 20
2112.250569887544
 30
0.0
  0
POINT
  5
F36F
330
EA51
100
AcDbEntity
  8
DEFPOINTS
 62
     0
 48
25.0
100
AcDbPoint
 10
2615.124842940753
 20
2152.250569887543
 30
0.0
  0
POINT
  5
F370
330
EA51
100
AcDbEntity
  8
DEFPOINTS
 62
     0
 48
25.0
100
AcDbPoint
 10
2615.124842940753
 20
1973.412518249894
 30
0.0
  0
ENDBLK
  5
EA5E
330
EA51
100
AcDbEntity
  8
0
 48
25.0
100
AcDbBlockEnd
  0
BLOCK
  5
EF34
330
EF2A
100
AcDbEntity
  8
0
 48
25.0
100
AcDbBlockBegin
  2
*D40
 70
     1
 10
0.0
 20
0.0
 30
0.0
  3
*D40
  1

  0
LINE
  5
F404
330
EF2A
100
AcDbEntity
  8
寸法引出
 48
25.0
370
    -2
100
AcDbLine
 10
2640.124842940757
 20
3637.250569887545
 30
0.0
 11
2761.212812000573
 21
3637.250569887545
 31
0.0
  0
LINE
  5
F405
330
EF2A
100
AcDbEntity
  8
寸法引出
 48
25.0
370
    -2
100
AcDbLine
 10
2670.124842940755
 20
3012.250569887544
 30
0.0
 11
2761.212812000572
 21
3012.250569887544
 31
0.0
  0
LINE
  5
F406
330
EF2A
100
AcDbEntity
  8
寸法引出
 48
25.0
370
    -2
100
AcDbLine
 10
2748.712812000572
 20
3599.750569887545
 30
0.0
 11
2748.712812000572
 21
3049.750569887544
 31
0.0
  0
SOLID
  5
F407
330
EF2A
100
AcDbEntity
  8
寸法引出
 48
25.0
100
AcDbTrace
 10
2742.462812000573
 20
3599.750569887545
 30
0.0
 11
2754.962812000572
 21
3599.750569887545
 31
0.0
 12
2748.712812000572
 22
3637.250569887545
 32
0.0
 13
2748.712812000572
 23
3637.250569887545
 33
0.0
  0
SOLID
  5
F408
330
EF2A
100
AcDbEntity
  8
寸法引出
 48
25.0
100
AcDbTrace
 10
2742.462812000572
 20
3049.750569887544
 30
0.0
 11
2754.962812000572
 21
3049.750569887544
 31
0.0
 12
2748.712812000572
 22
3012.250569887544
 32
0.0
 13
2748.712812000572
 23
3012.250569887544
 33
0.0
  0
MTEXT
  5
F409
330
EF2A
100
AcDbEntity
  8
寸法引出
 48
25.0
100
AcDbMText
 10
2698.712812000572
 20
3324.750569887545
 30
0.0
 40
50.0
 41
0.0
 71
     5
 72
     1
  1
\A1;625
  7
SANWA
 11
0.0000000000000001
 21
1.0
 31
0.0
 73
     1
 44
1.0
  0
POINT
  5
F40A
330
EF2A
100
AcDbEntity
  8
DEFPOINTS
 62
     0
 48
25.0
100
AcDbPoint
 10
2615.124842940756
 20
3637.250569887545
 30
0.0
  0
POINT
  5
F40B
330
EF2A
100
AcDbEntity
  8
DEFPOINTS
 62
     0
 48
25.0
100
AcDbPoint
 10
2645.124842940755
 20
3012.250569887544
 30
0.0
  0
POINT
  5
F40C
330
EF2A
100
AcDbEntity
  8
DEFPOINTS
 62
     0
 48
25.0
100
AcDbPoint
 10
2748.712812000572
 20
3012.250569887544
 30
0.0
  0
ENDBLK
  5
EF35
330
EF2A
100
AcDbEntity
  8
0
 48
25.0
100
AcDbBlockEnd
  0
ENDSEC
  0
SECTION
  2
ENTITIES
  0
INSERT
  5
81E3
330
747D
100
AcDbEntity
  8
ASHADE
 62
     1
 48
15.0
100
AcDbBlockReference
  2
AVE_RENDER
 10
0.0
 20
0.0
 30
0.0
1001
AVE_RENDER
1002
{
1070
     7
1000
Pref
1070
    30
1070
    20
1070
     1
1070
     0
1000

1070
    10
1070
     1
1070
    10
1040
1.0
1070
     1
1040
0.7
1040
1.0
1040
0.0
1040
10.0
1010
-1.0
1020
-1.0
1030
-1.0
1040
0.3
1070
    49
1070
     0
1070
     0
1010
1.0
1020
1.0
1030
1.0
1040
45.0
1070
     1
1070
     0
1000
WCS
1040
0.0
1070
     0
1040
10.0
1002
}
  0
INSERT
  5
81E4
330
747D
100
AcDbEntity
  8
ASHADE
 62
     3
 48
15.0
100
AcDbBlockReference
  2
AVE_RENDER
 10
0.0
 20
0.0
 30
0.0
1001
AVE_RENDER
1002
{
1070
     0
1000
Full Opt
1070
     0
1070
     1
1070
     1
1070
     1
1070
     0
1070
     0
1070
     0
1070
     1
1070
     1
1040
0.0001
1040
0.0001
1002
}
  0
INSERT
  5
81E5
330
747D
100
AcDbEntity
  8
ASHADE
 62
     4
 48
15.0
100
AcDbBlockReference
  2
AVE_RENDER
 10
0.0
 20
0.0
 30
0.0
1001
AVE_RENDER
1002
{
1070
     0
1000
Quick Opt
1070
     0
1070
     1
1070
     1
1070
     1
1070
     0
1070
     0
1070
     1
1002
}
  0
INSERT
  5
81E6
330
747D
100
AcDbEntity
  8
ASHADE
 62
     5
 48
15.0
100
AcDbBlockReference
  2
AVE_RENDER
 10
0.0
 20
0.0
 30
0.0
1001
AVE_RENDER
1002
{
1070
     1
1000
Scanl Opt
1070
     2
1070
     0
1070
     2
1040
2.0
1040
4.0
1070
     0
1070
     1
1070
     0
1040
0.03
1002
}
  0
INSERT
  5
81E7
330
747D
100
AcDbEntity
  8
ASHADE
 62
     6
 48
15.0
100
AcDbBlockReference
  2
AVE_RENDER
 10
0.0
 20
0.0
 30
0.0
1001
AVE_RENDER
1002
{
1070
     2
1000
Raytr Opt
1070
     2
1070
     0
1070
     2
1040
2.0
1040
4.0
1070
     0
1070
     1
1070
     1
1040
0.03
1070
     3
1040
0.03
1002
}
  0
INSERT
  5
81E8
330
747D
100
AcDbEntity
  8
ASHADE
 62
     7
 48
15.0
100
AcDbBlockReference
  2
AVE_RENDER
 10
0.0
 20
0.0
 30
0.0
1001
AVE_RENDER
1002
{
1070
     0
1000
RFile Opt
1070
     1
1070
   640
1070
   480
1070
 10000
1070
     1
1070
     8
1070
     8
1070
     0
1070
     0
1070
     0
1070
     0
1070
     0
1070
     0
1070
     0
1002
}
  0
INSERT
  5
81E9
330
747D
100
AcDbEntity
  8
ASHADE
 62
     8
 48
15.0
100
AcDbBlockReference
  2
AVE_RENDER
 10
0.0
 20
0.0
 30
0.0
1001
AVE_RENDER
1002
{
1070
     0
1000
Fog Opt
1070
     0
1070
     0
1040
0.0
1040
1.0
1040
0.0
1040
1.0
1010
0.5
1020
0.5
1030
0.5
1002
}
  0
INSERT
  5
81EA
330
747D
100
AcDbEntity
  8
ASHADE
 62
     9
 48
15.0
100
AcDbBlockReference
  2
AVE_RENDER
 10
0.0
 20
0.0
 30
0.0
1001
AVE_RENDER
1002
{
1070
     0
1000
BG Opt
1070
     0
1070
     1
1010
0.0
1020
0.0
1030
0.0
1010
1.0
1020
0.0
1030
0.0
1010
0.0
1020
1.0
1030
0.0
1010
0.0
1020
0.0
1030
1.0
1040
0.5
1040
0.33
1040
0.0
1000

1070
     1
1000

1070
     1
1070
     1
1040
1.0
1040
1.0
1040
0.0
1040
0.0
1070
     0
1002
}
  0
INSERT
  5
81F1
330
747D
100
AcDbEntity
  8
ASHADE
 62
     1
 48
15.0
100
AcDbBlockReference
  2
AVE_GLOBAL
 10
0.0
 20
0.0
 30
0.0
1001
AVE_MATERIAL
1002
{
1000
*GLOBAL*
1000
2
1000
Global finish.
1002
{
1002
}
1002
{
1070
    63
1002
{
1002
{
1010
-1.0
1020
-1.0
1030
-1.0
1002
}
1040
0.6999999880790711
1000

1040
0.0
1002
{
1002
}
1040
0.0
1002
{
1002
}
1040
0.0
1002
}
1002
{
1002
{
1010
-1.0
1020
-1.0
1030
-1.0
1002
}
1040
1.0
1000

1040
0.0
1002
{
1002
}
1040
0.0
1002
{
1002
}
1040
0.0
1002
}
1002
{
1002
{
1010
-1.0
1020
-1.0
1030
-1.0
1002
}
1040
0.2000000029802322
1000

1040
0.0
1002
{
1002
}
1040
0.0
1002
{
1002
}
1040
0.0
1002
}
1002
{
1070
     0
1002
{
1070
     1
1002
{
1040
1.0
1040
1.0
1000

1040
0.0
1002
{
1002
}
1040
0.0
1002
{
1002
}
1040
0.0
1002
}
1002
}
1040
1.0
1040
0.0
1040
0.0
1002
}
1002
{
1040
1.0
1040
1.0
1000

1040
0.0
1002
{
1002
}
1040
0.0
1002
{
1002
}
1040
0.0
1002
}
1002
{
1040
0.5
1040
1.0
1000

1040
0.0
1002
{
1002
}
1040
0.0
1002
{
1002
}
1040
0.0
1002
}
1002
{
1070
     0
1040
0.0
1002
{
1002
}
1040
1.0
1002
{
1002
}
1040
0.0
1002
}
1002
{
1040
0.0
1002
{
1002
{
1010
0.0
1020
0.0
1030
0.0
1002
}
1040
1.0
1000

1040
0.0
1002
{
1002
}
1040
0.0
1002
{
1002
}
1040
0.0
1002
}
1002
}
1002
{
1002
{
1070
     1
1002
{
1040
0.0
1040
1.0
1000

1040
0.0
1002
{
1002
}
1040
0.0
1002
{
1002
}
1040
0.0
1002
}
1002
}
1040
0.0
1002
{
1002
}
1010
1.0
1020
0.0
1030
0.0
1010
0.0
1020
1.0
1030
0.0
1010
0.0
1020
0.0
1030
1.0
1070
     0
1002
}
1002
{
1002
{
1040
1.0
1040
1.0
1002
{
1070
     1
1002
{
1040
1.0
1040
1.0
1000

1040
0.0
1002
{
1002
}
1040
0.0
1002
{
1002
}
1040
0.0
1002
}
1002
}
1002
}
1070
     0
1040
0.0
1002
{
1002
}
1002
}
1002
{
1002
}
1002
}
1002
{
1071
        3
1070
     3
1070
     0
1002
{
1070
     2
1070
     0
1070
     0
1040
0.0
1002
}
1070
     0
1070
     2
1002
{
1002
}
1002
}
1002
{
1040
8030.0
1040
190.3000030517578
1040
0.3050000071525574
1040
228.0
1040
545.0
1040
14.0
1040
17.39999961853027
1040
0.4560000002384186
1002
}
1002
}
  0
LINE
  5
DF74
330
747D
100
AcDbEntity
  8
0
 48
25.0
100
AcDbLine
 10
2493.736277904643
 20
2295.589134689108
 30
0.0
 11
2555.124842940756
 21
3287.250569887545
 31
0.0
  0
LINE
  5
DF75
330
747D
100
AcDbEntity
  8
0
 48
25.0
100
AcDbLine
 10
2155.124842940757
 20
3287.250569887545
 30
0.0
 11
2216.513407976856
 21
2295.589134689113
 31
0.0
  0
LINE
  5
DF7A
330
747D
100
AcDbEntity
  8
0
 48
15.0
100
AcDbLine
 10
2095.124842940756
 20
3637.250569887545
 30
0.0
 11
2095.12484294076
 21
2152.250569887543
 31
0.0
  0
LINE
  5
DF7B
330
747D
100
AcDbEntity
  8
0
 48
15.0
100
AcDbLine
 10
2615.124842940756
 20
3637.250569887545
 30
0.0
 11
2615.124842940753
 21
2152.250569887543
 31
0.0
  0
DIMENSION
  5
DF7C
330
747D
100
AcDbEntity
  8
寸法引出
 48
25.0
100
AcDbDimension
  2
*D10
 10
2865.892109630513
 20
2237.250569887544
 30
0.0
 11
2815.892109630512
 21
2937.250569887545
 31
0.0
 70
    32
 71
     5
 42
1400.000000000001
  3
SANWA
100
AcDbAlignedDimension
 13
2615.124842940756
 23
3637.250569887545
 33
0.0
 14
2615.124842940756
 24
2237.250569887544
 34
0.0
 50
90.0
100
AcDbRotatedDimension
1001
ACAD
1000
DSTYLE
1002
{
1070
    40
1040
25.0
1070
    41
1040
1.5
1070
    43
1040
5.0
1070
    44
1040
0.5
1070
   140
1040
2.0
1070
   147
1040
1.0
1070
   176
1070
   256
1070
   177
1070
   256
1070
   178
1070
   256
1002
}
  0
DIMENSION
  5
DF7D
330
747D
100
AcDbEntity
  8
寸法引出
 48
25.0
100
AcDbDimension
  2
*D11
 10
2973.861510292365
 20
2112.250569887544
 30
0.0
 11
2923.861510292364
 21
2874.750569887545
 31
0.0
 70
    32
 71
     5
 42
1525.000000000001
  3
SANWA
100
AcDbAlignedDimension
 13
2615.124842940756
 23
3637.250569887545
 33
0.0
 14
2575.124842940753
 24
2112.250569887544
 34
0.0
 50
90.0
100
AcDbRotatedDimension
1001
ACAD
1000
DSTYLE
1002
{
1070
    40
1040
25.0
1070
    41
1040
1.5
1070
    43
1040
5.0
1070
    44
1040
0.5
1070
   140
1040
2.0
1070
   147
1040
1.0
1070
   176
1070
   256
1070
   177
1070
   256
1070
   178
1070
   256
1002
}
  0
LINE
  5
DF7E
330
747D
100
AcDbEntity
  8
枠
100
AcDbLine
 10
625.0
 20
250.0
 30
0.0
 11
625.0
 21
5000.0
 31
0.0
  0
LINE
  5
DF7F
330
747D
100
AcDbEntity
  8
0
 48
25.0
100
AcDbLine
 10
6123.469910207106
 20
3637.250569887545
 30
0.0
 11
6123.469910207106
 21
2122.250569887546
 31
0.0
  0
LINE
  5
DF80
330
747D
100
AcDbEntity
  8
0
 48
25.0
100
AcDbLine
 10
4123.469910207106
 20
3637.250569887545
 30
0.0
 11
4123.469910207106
 21
2122.250569887546
 31
0.0
  0
LINE
  5
DF81
330
747D
100
AcDbEntity
  8
枠
100
AcDbLine
 10
7175.0
 20
250.0
 30
0.0
 11
7175.0
 21
5000.0
 31
0.0
  0
DIMENSION
  5
DF82
330
747D
100
AcDbEntity
  8
寸法引出
 48
25.0
100
AcDbDimension
  2
*D12
 10
2865.892109630513
 20
2112.250569887544
 30
0.0
 11
2815.892109630512
 21
2174.750569887544
 31
0.0
 70
    32
 71
     5
 42
125.0
  3
SANWA
100
AcDbAlignedDimension
 13
2615.124842940756
 23
2237.250569887544
 33
0.0
 14
2575.124842940753
 24
2112.250569887544
 34
0.0
 50
90.0
100
AcDbRotatedDimension
1001
ACAD
1000
DSTYLE
1002
{
1070
   279
1070
     1
1070
    40
1040
25.0
1070
    41
1040
1.5
1070
    43
1040
5.0
1070
    44
1040
0.5
1070
   140
1040
2.0
1070
   147
1040
1.0
1070
   176
1070
   256
1070
   177
1070
   256
1070
   178
1070
   256
1002
}
  0
LINE
  5
DF83
330
747D
100
AcDbEntity
  8
枠
100
AcDbLine
 10
625.0
 20
250.0
 30
0.0
 11
7175.0
 21
250.0000000000054
 31
0.0
  0
LINE
  5
DF84
330
747D
100
AcDbEntity
  8
0
 48
25.0
100
AcDbLine
 10
2651.60617996069
 20
1425.742488370167
 30
0.0
 11
2651.60617996069
 21
773.9652226668013
 31
0.0
  0
LINE
  5
DF85
330
747D
100
AcDbEntity
  8
0
 48
25.0
100
AcDbLine
 10
2741.60617996069
 20
1015.465222666804
 30
0.0
 11
2741.60617996069
 21
979.465222666804
 31
0.0
  0
LINE
  5
DF86
330
747D
100
AcDbEntity
  8
0
 48
25.0
100
AcDbLine
 10
2747.606179960691
 20
1027.465222666804
 30
0.0
 11
2747.606179960691
 21
967.465222666804
 31
0.0
  0
DIMENSION
  5
DF87
330
747D
100
AcDbEntity
  8
寸法引出
 48
25.0
100
AcDbDimension
  2
*D13
 10
1868.876008220366
 20
823.2434378874923
 30
0.0
 11
1793.876008220366
 21
873.2434378874923
 31
0.0
 70
    32
  1
50
 71
     5
 42
150.0
  3
SANWA
100
AcDbAlignedDimension
 13
1718.876008220366
 23
923.9652226668013
 33
0.0
 14
1868.876008220366
 24
997.4652226668013
 34
0.0
100
AcDbRotatedDimension
1001
ACAD
1000
DSTYLE
1002
{
1070
    40
1040
25.0
1070
    41
1040
1.5
1070
    43
1040
5.0
1070
    44
1040
0.5
1070
   140
1040
2.0
1070
   147
1040
1.0
1070
   176
1070
   256
1070
   177
1070
   256
1070
   178
1070
   256
1002
}
  0
LINE
  5
DF88
330
747D
100
AcDbEntity
  8
0
 48
25.0
100
AcDbLine
 10
1718.876008220366
 20
1220.965222666801
 30
0.0
 11
1718.876008220359
 21
773.9652226668013
 31
0.0
  0
CIRCLE
  5
DF89
330
747D
100
AcDbEntity
  8
0
 48
25.0
100
AcDbCircle
 10
1868.876008220366
 20
997.4652226668013
 30
0.0
 40
18.0
  0
LINE
  5
DF8A
330
747D
100
AcDbEntity
  8
0
100
AcDbLine
 10
0.0
 20
0.0
 30
0.0
 11
0.0
 21
250.0
 31
0.0
  0
LINE
  5
DF8B
330
747D
100
AcDbEntity
  8
0
100
AcDbLine
 10
625.0
 20
0.0
 30
0.0
 11
0.0
 21
0.0
 31
0.0
  0
LINE
  5
DF8C
330
747D
100
AcDbEntity
  8
0
 48
25.0
100
AcDbLine
 10
2651.60617996069
 20
973.4652226668041
 30
0.0
 11
2741.60617996069
 21
973.4652226668041
 31
0.0
  0
LINE
  5
DF8D
330
747D
100
AcDbEntity
  8
0
 48
25.0
100
AcDbLine
 10
2651.60617996069
 20
979.465222666804
 30
0.0
 11
2741.60617996069
 21
979.465222666804
 31
0.0
  0
LINE
  5
DF8E
330
747D
100
AcDbEntity
  8
0
 48
25.0
100
AcDbLine
 10
2741.60617996069
 20
967.465222666804
 30
0.0
 11
2747.606179960691
 21
967.465222666804
 31
0.0
  0
LINE
  5
DF8F
330
747D
100
AcDbEntity
  8
0
 48
25.0
100
AcDbLine
 10
2741.60617996069
 20
973.4652226668041
 30
0.0
 11
2741.60617996069
 21
967.465222666804
 31
0.0
  0
LINE
  5
DF90
330
747D
100
AcDbEntity
  8
0
100
AcDbLine
 10
1986.64803620187
 20
1529.135985872658
 30
0.0
 11
2544.591592432432
 21
1529.135985872658
 31
0.0
  0
LINE
  5
DF91
330
747D
100
AcDbEntity
  8
寸法引出
 48
25.0
100
AcDbLine
 10
2565.48317640621
 20
1034.965222666801
 30
0.0
 11
2565.48317640621
 21
1425.742488370167
 31
0.0
  0
MTEXT
  5
DF92
330
747D
100
AcDbEntity
  8
寸法引出
 48
25.0
100
AcDbMText
 10
2507.779264468579
 20
1215.909548903701
 30
0.0
 40
50.0
 41
0.0
 71
     5
 72
     1
  1
天端より150
  7
SANWA
 11
0.0000000000000001
 21
1.0
 31
0.0
 73
     1
 44
1.0
  0
LINE
  5
DF93
330
747D
100
AcDbEntity
  8
0
  6
CENTER2
 48
10.0
100
AcDbLine
 10
2621.60617996069
 20
997.4652226668013
 30
0.0
 11
2777.60617996069
 21
997.4652226668013
 31
0.0
  0
LINE
  5
DF94
330
747D
100
AcDbEntity
  8
0
 48
25.0
100
AcDbLine
 10
2651.60617996069
 20
1021.465222666803
 30
0.0
 11
2741.60617996069
 21
1021.465222666803
 31
0.0
  0
LINE
  5
DF95
330
747D
100
AcDbEntity
  8
0
 48
25.0
100
AcDbLine
 10
2651.60617996069
 20
1015.465222666804
 30
0.0
 11
2741.60617996069
 21
1015.465222666804
 31
0.0
  0
LINE
  5
DF96
330
747D
100
AcDbEntity
  8
寸法引出
 48
25.0
100
AcDbLine
 10
2606.206179960692
 20
997.4652226668013
 30
0.0
 11
2552.983176406211
 21
997.4652226668013
 31
0.0
  0
SOLID
  5
DF97
330
747D
100
AcDbEntity
  8
寸法引出
 48
25.0
100
AcDbTrace
 10
2559.233176406211
 20
1034.965222666801
 30
0.0
 11
2571.733176406211
 21
1034.965222666801
 31
0.0
 12
2565.48317640621
 22
997.4652226668013
 32
0.0
 13
2565.48317640621
 23
997.4652226668013
 33
0.0
  0
MTEXT
  5
DF98
330
747D
100
AcDbEntity
  8
寸法引出
 48
25.0
100
AcDbMText
 10
3020.749421196145
 20
1158.217860262669
 30
0.0
 40
50.0
 41
0.0
 71
     5
 72
     1
  1
ｲﾝｻｰﾄM12×32
  7
SANWA
 73
     1
 44
1.0
  0
LEADER
  5
DF99
330
747D
100
AcDbEntity
  8
寸法引出
 48
25.0
100
AcDbLeader
  3
SANWA
 76
     3
 10
2696.60617996069
 20
1021.465222666803
 30
0.0
 10
2775.636358335777
 20
1108.328197048177
 30
0.0
 10
3264.191532006364
 20
1108.328197048177
 30
0.0
1001
ACAD
1000
DSTYLE
1002
{
1070
    77
1070
     0
1070
    40
1040
25.0
1070
    41
1040
1.5
1070
    43
1040
5.0
1070
    44
1040
0.5
1070
   140
1040
2.0
1070
   147
1040
1.0
1070
   176
1070
   256
1070
   177
1070
   256
1070
   178
1070
   256
1002
}
  0
LINE
  5
DF9A
330
747D
100
AcDbEntity
  8
0
 48
25.0
100
AcDbLine
 10
2741.60617996069
 20
1027.465222666804
 30
0.0
 11
2747.606179960691
 21
1027.465222666804
 31
0.0
  0
LINE
  5
DF9B
330
747D
100
AcDbEntity
  8
0
 48
25.0
100
AcDbLine
 10
2741.60617996069
 20
1027.465222666804
 30
0.0
 11
2741.60617996069
 21
1021.465222666803
 31
0.0
  0
TEXT
  5
DF9C
330
747D
100
AcDbEntity
  8
0
100
AcDbText
 10
2004.116033136043
 20
1549.214260489776
 30
0.0
 40
60.0
  1
継手部詳細図
  7
SANWA
 72
     4
 11
2267.430318850329
 21
1579.89997477549
 31
0.0
100
AcDbText
  0
MTEXT
  5
DF9F
330
747D
100
AcDbEntity
  8
寸法引出
 48
25.0
100
AcDbMText
 10
1981.510722164159
 20
2180.318398788319
 30
0.0
 40
50.0
 41
0.0
 71
     5
 72
     1
  1
120r
  7
SANWA
 73
     1
 44
1.0
  0
LINE
  5
DFA2
330
747D
100
AcDbEntity
  8
0
  6
CENTER2
 48
10.0
100
AcDbLine
 10
2355.124842940756
 20
2287.250569887544
 30
0.0
 11
2355.124842940756
 21
2062.250569887543
 31
0.0
  0
LEADER
  5
DFA3
330
747D
100
AcDbEntity
  8
寸法引出
 48
25.0
100
AcDbLeader
  3
SANWA
 76
     3
 10
2164.307939422764
 20
2210.872926438394
 30
0.0
 10
2051.65082969312
 20
2141.011261482607
 30
0.0
 10
1902.014896938235
 20
2141.011261482607
 30
0.0
1001
ACAD
1000
DSTYLE
1002
{
1070
    77
1070
     0
1070
    40
1040
25.0
1070
    41
1040
1.5
1070
    43
1040
5.0
1070
    44
1040
0.5
1070
   140
1040
2.0
1070
   147
1040
1.0
1070
   176
1070
   256
1070
   177
1070
   256
1070
   178
1070
   256
1002
}
  0
LINE
  5
DFA9
330
747D
100
AcDbEntity
  8
0
 48
15.0
100
AcDbLine
 10
2135.124842940761
 20
2112.250569887544
 30
0.0
 11
2575.124842940752
 21
2112.250569887544
 31
0.0
  0
LINE
  5
DFAA
330
747D
100
AcDbEntity
  8
0
 48
25.0
100
AcDbLine
 10
2095.12484294076
 20
2152.250569887543
 30
0.0
 11
2135.12484294076
 21
2112.250569887544
 31
0.0
  0
LINE
  5
DFAB
330
747D
100
AcDbEntity
  8
0
 48
25.0
100
AcDbLine
 10
2615.124842940753
 20
2152.250569887543
 30
0.0
 11
2575.124842940753
 21
2112.250569887544
 31
0.0
  0
LEADER
  5
DFAC
330
747D
100
AcDbEntity
  8
寸法引出
 48
25.0
100
AcDbLeader
  3
SANWA
 76
     3
 10
2340.996793249855
 20
2237.583424187632
 30
0.0
 10
2277.777555858243
 20
2517.569363220868
 30
0.0
 10
2432.552446502435
 20
2517.569363220868
 30
0.0
1001
ACAD
1000
DSTYLE
1002
{
1070
    77
1070
     0
1070
    40
1040
25.0
1070
    41
1040
1.5
1070
    43
1040
5.0
1070
    44
1040
0.5
1070
   140
1040
2.0
1070
   147
1040
1.0
1070
   176
1070
   256
1070
   177
1070
   256
1070
   178
1070
   256
1002
}
  0
MTEXT
  5
DFAE
330
747D
100
AcDbEntity
  8
寸法引出
 48
25.0
100
AcDbMText
 10
2006.487558335569
 20
2306.234203569493
 30
0.0
 40
50.0
 41
0.0
 71
     5
 72
     1
  1
50r
  7
SANWA
 73
     1
 44
1.0
  0
LEADER
  5
DFAF
330
747D
100
AcDbEntity
  8
寸法引出
 48
25.0
100
AcDbLeader
  3
SANWA
 76
     2
 10
2228.436697953287
 20
2266.927066263781
 30
0.0
 10
1937.117466948425
 20
2266.927066263781
 30
0.0
1001
ACAD
1000
DSTYLE
1002
{
1070
    77
1070
     0
1070
    40
1040
25.0
1070
    41
1040
1.5
1070
    43
1040
5.0
1070
    44
1040
0.5
1070
   140
1040
2.0
1070
   147
1040
1.0
1070
   176
1070
   256
1070
   177
1070
   256
1070
   178
1070
   256
1002
}
  0
MTEXT
  5
DFB2
330
747D
100
AcDbEntity
  8
寸法引出
 48
25.0
100
AcDbMText
 10
2358.398225914166
 20
2556.876500526579
 30
0.0
 40
50.0
 41
0.0
 71
     5
 72
     1
  1
400r
  7
SANWA
 73
     1
 44
1.0
  0
MTEXT
  5
DFB8
330
747D
100
AcDbEntity
  8
寸法引出
 48
25.0
100
AcDbMText
 10
3963.88955157862
 20
950.7675487753813
 30
0.0
 40
50.0
 41
0.0
 71
     5
 72
     1
  1
\A1;2
  7
SANWA
 73
     1
 44
1.0
  0
LINE
  5
DFB9
330
747D
100
AcDbEntity
  8
寸法引出
 48
25.0
100
AcDbLine
 10
3920.402604921597
 20
1054.498750889092
 30
0.0
 11
3920.402604921597
 21
888.2675487753813
 31
0.0
  0
LINE
  5
DFBA
330
747D
100
AcDbEntity
  8
寸法引出
 48
25.0
100
AcDbLine
 10
3900.402604921597
 20
1114.498750889092
 30
0.0
 11
3900.402604921597
 21
888.2675487753813
 31
0.0
  0
MTEXT
  5
DFBB
330
747D
100
AcDbEntity
  8
寸法引出
 48
25.0
100
AcDbMText
 10
3758.443832302415
 20
950.7675487753813
 30
0.0
 40
50.0
 41
0.0
 71
     5
 72
     1
  1
\A1;2
  7
SANWA
 73
     1
 44
1.0
  0
LINE
  5
DFBC
330
747D
100
AcDbEntity
  8
寸法引出
 48
25.0
100
AcDbLine
 10
3820.402604921597
 20
1114.498750889092
 30
0.0
 11
3820.402604921597
 21
888.2675487753813
 31
0.0
  0
LINE
  5
DFBD
330
747D
100
AcDbEntity
  8
寸法引出
 48
25.0
100
AcDbLine
 10
3800.402604921597
 20
1054.498750889092
 30
0.0
 11
3800.402604921597
 21
888.2675487753813
 31
0.0
  0
DIMENSION
  5
DFBE
330
747D
100
AcDbEntity
  8
寸法引出
 48
25.0
100
AcDbDimension
  2
*D16
 10
3560.402604921597
 20
773.2349729018251
 30
0.0
 11
3680.402604921597
 21
823.2349729018251
 31
0.0
 70
    32
  1
24
 71
     5
 42
240.0
  3
SANWA
100
AcDbAlignedDimension
 13
3800.402604921597
 23
1079.498750889092
 33
0.0
 14
3560.402604921597
 24
1079.498750889092
 34
0.0
100
AcDbRotatedDimension
1001
ACAD
1000
DSTYLE
1002
{
1070
    40
1040
25.0
1070
    41
1040
1.5
1070
    43
1040
5.0
1070
    44
1040
0.5
1070
   140
1040
2.0
1070
   147
1040
1.0
1070
   176
1070
   256
1070
   177
1070
   256
1070
   178
1070
   256
1002
}
  0
DIMENSION
  5
DFBF
330
747D
100
AcDbEntity
  8
寸法引出
 48
25.0
100
AcDbDimension
  2
*D17
 10
4160.402604921597
 20
773.2349729018251
 30
0.0
 11
4040.402604921597
 21
823.2349729018251
 31
0.0
 70
    32
  1
24
 71
     5
 42
240.0
  3
SANWA
100
AcDbAlignedDimension
 13
3920.402604921597
 23
1079.498750889092
 33
0.0
 14
4160.402604921597
 24
1079.498750889092
 34
0.0
100
AcDbRotatedDimension
1001
ACAD
1000
DSTYLE
1002
{
1070
   279
1070
     1
1070
    40
1040
25.0
1070
    41
1040
1.5
1070
    43
1040
5.0
1070
    44
1040
0.5
1070
   140
1040
2.0
1070
   147
1040
1.0
1070
   176
1070
   256
1070
   177
1070
   256
1070
   178
1070
   256
1002
}
  0
DIMENSION
  5
DFC0
330
747D
100
AcDbEntity
  8
寸法引出
 48
25.0
100
AcDbDimension
  2
*D18
 10
3920.402604921597
 20
773.2349729018251
 30
0.0
 11
3860.402604921597
 21
823.2349729018251
 31
0.0
 70
    32
  1
12
 71
     5
 42
120.0
  3
SANWA
100
AcDbAlignedDimension
 13
3800.402604921597
 23
1079.498750889092
 33
0.0
 14
3920.402604921597
 24
1079.498750889092
 34
0.0
100
AcDbRotatedDimension
1001
ACAD
1000
DSTYLE
1002
{
1070
    40
1040
25.0
1070
    41
1040
1.5
1070
    43
1040
5.0
1070
    44
1040
0.5
1070
   140
1040
2.0
1070
   147
1040
1.0
1070
   176
1070
   256
1070
   177
1070
   256
1070
   178
1070
   256
1002
}
  0
DIMENSION
  5
DFC1
330
747D
100
AcDbEntity
  8
寸法引出
 48
25.0
100
AcDbDimension
  2
*D19
 10
3900.402604921597
 20
900.7675487753813
 30
0.0
 11
3860.402604921597
 21
950.7675487753813
 31
0.0
 70
    32
  1
8
 71
     5
 42
80.0
  3
SANWA
100
AcDbAlignedDimension
 13
3820.402604921597
 23
1139.498750889092
 33
0.0
 14
3900.402604921597
 24
1139.498750889092
 34
0.0
100
AcDbRotatedDimension
1001
ACAD
1000
DSTYLE
1002
{
1070
   279
1070
     1
1070
    40
1040
25.0
1070
    41
1040
1.5
1070
    43
1040
5.0
1070
    44
1040
0.5
1070
   140
1040
2.0
1070
   147
1040
1.0
1070
   176
1070
   256
1070
   177
1070
   256
1070
   178
1070
   256
1002
}
  0
LINE
  5
DFC2
330
747D
100
AcDbEntity
  8
0
100
AcDbLine
 10
6077.553191489325
 20
510.0000000000027
 30
0.0
 11
6077.553191489325
 21
990.000000000009
 31
0.0
  0
LINE
  5
DFC3
330
747D
100
AcDbEntity
  8
0
100
AcDbLine
 10
5997.553191489351
 20
250.0000000000054
 30
0.0
 11
5997.553191489351
 21
990.000000000009
 31
0.0
  0
LINE
  5
DFC4
330
747D
100
AcDbEntity
  8
0
100
AcDbLine
 10
5337.553191489362
 20
990.000000000009
 30
0.0
 11
5337.553191489362
 21
870.0000000000045
 31
0.0
  0
TEXT
  5
DFC5
330
747D
100
AcDbEntity
  8
0
 48
2.0
100
AcDbText
 10
5385.360299888547
 20
459.6196585260768
 30
0.0
 40
40.0
  1
検図
  7
SANWA
100
AcDbText
  0
CIRCLE
  5
DFC6
330
747D
100
AcDbEntity
  8
0
100
AcDbCircle
 10
5449.679092532824
 20
351.6970659978515
 30
0.0
 40
79.97521057257928
  0
CIRCLE
  5
DFC7
330
747D
100
AcDbEntity
  8
0
100
AcDbCircle
 10
5449.679092532824
 20
351.6970659978515
 30
0.0
 40
75.97521057257927
  0
HATCH
  5
DFC8
330
747D
100
AcDbEntity
  8
0
100
AcDbHatch
 10
0.0
 20
0.0
 30
0.0
210
0.0
220
0.0
230
1.0
  2
SOLID
 70
     1
 71
     0
 91
        2
 92
        7
 72
     1
 73
     1
 93
        2
 10
5529.654303105345
 20
351.6970659978515
 42
1.0
 10
5369.703881960217
 20
351.6970659978515
 42
1.0
 97
        0
 92
       22
 72
     1
 73
     1
 93
        2
 10
5525.654303105373
 20
351.6970659978515
 42
-1.0
 10
5373.703881960217
 20
351.6970659978515
 42
-1.0
 97
        0
 75
     0
 76
     1
 47
0.0602706122334892
 98
        2
 10
5487.99623564331
 20
420.4458178324821
 10
5487.99623564331
 20
420.4458178324821
  0
LINE
  5
DFC9
330
747D
100
AcDbEntity
  8
0
 62
     0
100
AcDbLine
 10
5337.553191489362
 20
450.0
 30
0.0
 11
5997.553191489351
 21
450.0
 31
0.0
  0
LINE
  5
DFCA
330
747D
100
AcDbEntity
  8
0
100
AcDbLine
 10
5337.553191489362
 20
510.0000000000027
 30
0.0
 11
7175.0
 21
510.0000000000027
 31
0.0
  0
LINE
  5
DFCB
330
747D
100
AcDbEntity
  8
0
 62
     0
100
AcDbLine
 10
5337.553191489362
 20
570.0000000000045
 30
0.0
 11
5997.553191489351
 21
570.0000000000045
 31
0.0
  0
LINE
  5
DFCC
330
747D
100
AcDbEntity
  8
0
 62
     0
100
AcDbLine
 10
5337.553191489362
 20
710.0000000000027
 30
0.0
 11
5997.553191489351
 21
710.0000000000027
 31
0.0
  0
LINE
  5
DFCD
330
747D
100
AcDbEntity
  8
0
 62
     0
100
AcDbLine
 10
5337.553191489362
 20
790.000000000009
 30
0.0
 11
5997.553191489351
 21
790.000000000009
 31
0.0
  0
LINE
  5
DFCE
330
747D
100
AcDbEntity
  8
0
 62
     0
100
AcDbLine
 10
5337.553191489362
 20
910.0000000000028
 30
0.0
 11
5997.553191489351
 21
910.0000000000028
 31
0.0
  0
LINE
  5
DFCF
330
747D
100
AcDbEntity
  8
0
 62
     0
100
AcDbLine
 10
5337.553191489362
 20
910.0000000000028
 30
0.0
 11
5997.553191489351
 21
910.0000000000028
 31
0.0
  0
LINE
  5
DFD0
330
747D
100
AcDbEntity
  8
寸法引出
 48
25.0
100
AcDbLine
 10
3762.902604921597
 20
900.7675487753813
 30
0.0
 11
3725.402604921597
 21
900.7675487753813
 31
0.0
  0
SOLID
  5
DFD1
330
747D
100
AcDbEntity
  8
寸法引出
 48
25.0
100
AcDbTrace
 10
3862.902604921597
 20
907.0175487753813
 30
0.0
 11
3862.902604921597
 21
894.5175487753813
 31
0.0
 12
3900.402604921597
 22
900.7675487753813
 32
0.0
 13
3900.402604921597
 23
900.7675487753813
 33
0.0
  0
LINE
  5
DFD2
330
747D
100
AcDbEntity
  8
寸法引出
 48
25.0
100
AcDbLine
 10
3862.902604921597
 20
900.7675487753813
 30
0.0
 11
3825.402604921597
 21
900.7675487753813
 31
0.0
  0
SOLID
  5
DFD3
330
747D
100
AcDbEntity
  8
寸法引出
 48
25.0
100
AcDbTrace
 10
3857.902604921597
 20
907.0175487753813
 30
0.0
 11
3857.902604921597
 21
894.5175487753813
 31
0.0
 12
3820.402604921597
 22
900.7675487753813
 32
0.0
 13
3820.402604921597
 23
900.7675487753813
 33
0.0
  0
SOLID
  5
DFD4
330
747D
100
AcDbEntity
  8
寸法引出
 48
25.0
100
AcDbTrace
 10
3762.902604921597
 20
907.0175487753813
 30
0.0
 11
3762.902604921597
 21
894.5175487753813
 31
0.0
 12
3800.402604921597
 22
900.7675487753813
 32
0.0
 13
3800.402604921597
 23
900.7675487753813
 33
0.0
  0
LINE
  5
DFD5
330
747D
100
AcDbEntity
  8
寸法引出
 48
25.0
100
AcDbLine
 10
3800.402604921597
 20
900.7675487753813
 30
0.0
 11
3820.402604921597
 21
900.7675487753813
 31
0.0
  0
LINE
  5
DFD6
330
747D
100
AcDbEntity
  8
寸法引出
 48
25.0
100
AcDbLine
 10
3857.902604921597
 20
900.7675487753813
 30
0.0
 11
3895.402604921597
 21
900.7675487753813
 31
0.0
  0
SOLID
  5
DFD7
330
747D
100
AcDbEntity
  8
寸法引出
 48
25.0
100
AcDbTrace
 10
3957.902604921597
 20
907.0175487753813
 30
0.0
 11
3957.902604921597
 21
894.5175487753813
 31
0.0
 12
3920.402604921597
 22
900.7675487753813
 32
0.0
 13
3920.402604921597
 23
900.7675487753813
 33
0.0
  0
LINE
  5
DFD8
330
747D
100
AcDbEntity
  8
寸法引出
 48
25.0
100
AcDbLine
 10
3900.402604921597
 20
900.7675487753813
 30
0.0
 11
3920.402604921597
 21
900.7675487753813
 31
0.0
  0
LINE
  5
DFD9
330
747D
100
AcDbEntity
  8
寸法引出
 48
25.0
100
AcDbLine
 10
3957.902604921597
 20
900.7675487753813
 30
0.0
 11
3995.402604921597
 21
900.7675487753813
 31
0.0
  0
LINE
  5
DFDC
330
747D
100
AcDbEntity
  8
0
100
AcDbLine
 10
5337.553191489362
 20
630.0000000000063
 30
0.0
 11
5337.553191489362
 21
499.8919161829462
 31
0.0
  0
LINE
  5
DFDD
330
747D
100
AcDbEntity
  8
0
100
AcDbLine
 10
5337.553191489362
 20
570.0000000000045
 30
0.0
 11
5337.553191489362
 21
630.0000000000063
 31
0.0
  0
LINE
  5
DFDE
330
747D
100
AcDbEntity
  8
0
 62
     0
100
AcDbLine
 10
5337.553191489362
 20
630.0000000000063
 30
0.0
 11
5337.553191489362
 21
250.0000000000054
 31
0.0
  0
LINE
  5
DFDF
330
747D
100
AcDbEntity
  8
0
100
AcDbLine
 10
5337.553191489362
 20
570.0000000000045
 30
0.0
 11
5337.553191489362
 21
510.0000000000027
 31
0.0
  0
LINE
  5
DFE5
330
747D
100
AcDbEntity
  8
0
100
AcDbLine
 10
5337.553191489362
 20
726.760945979834
 30
0.0
 11
5337.553191489362
 21
882.1169115701533
 31
0.0
  0
LINE
  5
DFE6
330
747D
100
AcDbEntity
  8
0
 62
     0
100
AcDbLine
 10
5337.553191489362
 20
870.0000000000045
 30
0.0
 11
5337.553191489362
 21
630.0000000000063
 31
0.0
  0
LINE
  5
DFEA
330
747D
100
AcDbEntity
  8
0
100
AcDbLine
 10
5337.553191489362
 20
670.0000000000045
 30
0.0
 11
5337.553191489362
 21
726.760945979834
 31
0.0
  0
LINE
  5
DFEC
330
747D
100
AcDbEntity
  8
0
100
AcDbLine
 10
7425.0
 20
250.0
 30
0.0
 11
7425.0
 21
0.0
 31
0.0
  0
TEXT
  5
DFED
330
747D
100
AcDbEntity
  8
0
 48
2.0
100
AcDbText
 10
5707.082926327487
 20
134.8644897147951
 30
0.0
 40
40.0
  1
大
  7
SANWA
100
AcDbText
  0
CIRCLE
  5
DFEE
330
747D
100
AcDbEntity
  8
0
100
AcDbCircle
 10
5532.353865006328
 20
121.5279938300054
 30
0.0
 40
79.97521057257928
  0
CIRCLE
  5
DFEF
330
747D
100
AcDbEntity
  8
0
100
AcDbCircle
 10
5532.353865006328
 20
121.5279938300054
 30
0.0
 40
75.97521057257927
  0
TEXT
  5
DFF0
330
747D
100
AcDbEntity
  8
0
 48
2.0
100
AcDbText
 10
5504.756708051675
 20
132.7163888296408
 30
0.0
 40
40.0
  1
蒔
  7
SANWA
100
AcDbText
  0
HATCH
  5
DFF1
330
747D
100
AcDbEntity
  8
0
100
AcDbHatch
 10
0.0
 20
0.0
 30
0.0
210
0.0
220
0.0
230
1.0
  2
SOLID
 70
     1
 71
     0
 91
        4
 92
        7
 72
     1
 73
     1
 93
        2
 10
5612.329075578863
 20
121.5279938300054
 42
1.0
 10
5452.378654433735
 20
121.5279938300054
 42
1.0
 97
        0
 92
       22
 72
     1
 73
     1
 93
        2
 10
5608.329075578862
 20
121.5279938300054
 42
-1.0
 10
5456.378654433706
 20
121.5279938300054
 42
-1.0
 97
        0
 92
      136
 93
        4
 72
     1
 10
5491.556708051649
 20
113.8021031153557
 11
5576.470993765935
 21
113.8021031153557
 72
     1
 10
5576.47099376595
 20
113.8021031153557
 11
5576.47099376595
 21
193.0021031153557
 72
     1
 10
5576.47099376595
 20
193.0021031153555
 11
5491.556708051663
 21
193.0021031153555
 72
     1
 10
5491.556708051649
 20
193.0021031153555
 11
5491.556708051649
 21
113.8021031153555
 97
        0
 92
       24
 93
        4
 72
     1
 10
5491.873233304184
 20
54.37358697902709
 11
5574.273233304186
 21
54.37358697902709
 72
     1
 10
5574.27323330415
 20
54.37358697902709
 11
5574.27323330415
 21
126.0307298361699
 72
     1
 10
5574.27323330415
 20
126.0307298361694
 11
5491.873233304148
 21
126.0307298361694
 72
     1
 10
5491.873233304184
 20
126.0307298361694
 11
5491.873233304184
 21
54.37358697902666
 97
        0
 75
     0
 76
     1
 47
0.0602706122334892
 98
        2
 10
5570.671008116798
 20
190.276745664636
 10
5570.671008116798
 20
190.276745664636
  0
CIRCLE
  5
DFF2
330
747D
100
AcDbEntity
  8
0
100
AcDbCircle
 10
5734.680083282139
 20
121.5279938300054
 30
0.0
 40
75.97521057257927
  0
CIRCLE
  5
DFF3
330
747D
100
AcDbEntity
  8
0
100
AcDbCircle
 10
5734.680083282139
 20
121.5279938300054
 30
0.0
 40
79.97521057257928
  0
HATCH
  5
DFF4
330
747D
100
AcDbEntity
  8
0
100
AcDbHatch
 10
0.0
 20
0.0
 30
0.0
210
0.0
220
0.0
230
1.0
  2
SOLID
 70
     1
 71
     0
 91
        4
 92
        7
 72
     1
 73
     1
 93
        2
 10
5814.65529385471
 20
121.5279938300054
 42
1.0
 10
5654.704872709524
 20
121.5279938300054
 42
1.0
 97
        0
 92
       22
 72
     1
 73
     1
 93
        2
 10
5810.65529385471
 20
121.5279938300054
 42
-1.0
 10
5658.704872709524
 20
121.5279938300054
 42
-1.0
 97
        0
 92
      136
 93
        4
 72
     1
 10
5694.397212041746
 20
118.5216325719375
 11
5778.282926327461
 21
118.5216325719375
 72
     1
 10
5778.282926327461
 20
118.5216325719375
 11
5778.282926327461
 21
194.6359182862232
 72
     1
 10
5778.282926327461
 20
194.6359182862233
 11
5694.397212041746
 21
194.6359182862233
 72
     1
 10
5694.397212041746
 20
194.6359182862233
 11
5694.397212041746
 21
118.5216325719376
 97
        0
 92
      136
 93
        4
 72
     1
 10
5692.828023008566
 20
58.98932838059863
 11
5777.970880151421
 21
58.98932838059863
 72
     1
 10
5777.970880151436
 20
58.98932838059863
 11
5777.970880151436
 21
138.8750426663129
 72
     1
 10
5777.970880151436
 20
138.8750426663136
 11
5692.82802300858
 21
138.8750426663136
 72
     1
 10
5692.828023008566
 20
138.8750426663136
 11
5692.828023008566
 21
58.98932838059938
 97
        0
 75
     0
 76
     1
 47
0.0602706122334892
 98
        2
 10
5772.997226392618
 20
190.276745664636
 10
5772.997226392618
 20
190.276745664636
  0
TEXT
  5
DFF5
330
747D
100
AcDbEntity
  8
0
 48
2.0
100
AcDbText
 10
5706.142308722883
 20
78.24647123774139
 30
0.0
 40
40.0
  1
嶋
  7
SANWA
100
AcDbText
  0
TEXT
  5
DFF6
330
747D
100
AcDbEntity
  8
0
 48
2.0
100
AcDbText
 10
5503.816090447028
 20
71.80215840759865
 30
0.0
 40
40.0
  1
田
  7
SANWA
100
AcDbText
  0
LINE
  5
DFF7
330
747D
100
AcDbEntity
  8
0
100
AcDbLine
 10
7425.0
 20
0.0
 30
0.0
 11
7175.0
 21
0.0
 31
0.0
  0
LINE
  5
DFF8
330
747D
100
AcDbEntity
  8
0
 62
     0
100
AcDbLine
 10
5997.553191489351
 20
670.0000000000045
 30
0.0
 11
7175.0
 21
670.0000000000045
 31
0.0
  0
LINE
  5
DFF9
330
747D
100
AcDbEntity
  8
0
 62
     0
100
AcDbLine
 10
5997.553191489351
 20
830.0000000000064
 30
0.0
 11
7175.0
 21
830.0000000000064
 31
0.0
  0
TEXT
  5
DFFA
330
747D
100
AcDbEntity
  8
0
100
AcDbText
 10
6245.933738601829
 20
889.6571428571455
 30
0.0
 40
40.0
  1
マルチスリット側溝（横断）
  7
SANWA
 72
     4
 11
6626.276595744686
 21
910.0000000000028
 31
0.0
100
AcDbText
  0
TEXT
  5
DFFB
330
747D
100
AcDbEntity
  8
0
100
AcDbText
 10
6277.347189020751
 20
344.5314540178005
 30
0.0
 40
40.0
  1
三和コンクリート工業株式会社
  7
SANWA
100
AcDbText
  0
TEXT
  5
DFFC
330
747D
100
AcDbEntity
  8
0
100
AcDbText
 10
6406.848024316115
 20
570.4571428571519
 30
0.0
 40
40.0
  1
400×1400×2000
  7
SANWA
 72
     4
 11
6626.276595744686
 21
590.000000000009
 31
0.0
100
AcDbText
  0
TEXT
  5
DFFD
330
747D
100
AcDbEntity
  8
0
 48
2.0
100
AcDbText
 10
6015.480113215563
 20
541.5684862348999
 30
0.0
 40
27.99999999999999
  1
格
  7
SANWA
100
AcDbText
  0
HATCH
  5
DFFE
330
747D
100
AcDbEntity
  8
0
100
AcDbHatch
 10
0.0
 20
0.0
 30
0.0
210
0.0
220
0.0
230
1.0
  2
SOLID
 70
     1
 71
     0
 91
        6
 92
        7
 72
     1
 73
     1
 93
        4
 10
6084.772249800881
 20
426.4596546829298
 42
0.0
 10
6097.525524441357
 20
413.7063800424439
 42
-0.3722683533228753
 10
6169.595189997956
 20
413.7063800424439
 42
0.0
 10
6182.348464638402
 20
426.4596546829324
 42
0.3824979940290045
 97
        0
 92
       22
 72
     1
 73
     1
 93
        4
 10
6176.440513371781
 20
426.2085576657964
 42
0.0
 10
6169.313383793983
 20
419.0814280879922
 42
0.3367429548951066
 10
6097.8073306453
 20
419.0814280879949
 42
0.0
 10
6090.680201067502
 20
426.2085576657937
 42
-0.347770427523089
 97
        0
 92
        7
 72
     1
 73
     1
 93
        4
 10
6175.252044247463
 20
408.0495257929523
 42
-0.6168583269099046
 10
6137.560357219656
 20
317.0537437817702
 42
0.0
 10
6137.560357219656
 20
299.0178898205276
 42
0.6292889159379735
 10
6188.00531888791
 20
420.8028004334383
 42
0.0
 97
        0
 92
       22
 72
     1
 73
     1
 93
        4
 10
6187.754221870797
 20
414.8948491668106
 42
-0.5873104908889238
 10
6141.560357219656
 20
303.3729946276307
 42
0.0
 10
6141.560357219656
 20
313.4522779373464
 42
0.5741105922167471
 10
6180.627092292969
 20
407.7677195890092
 42
0.0
 97
        0
 92
        7
 72
     1
 73
     1
 93
        4
 10
6079.115395551372
 20
420.8028004334383
 42
0.6292889159379591
 10
6129.560357219656
 20
299.0178898205276
 42
0.0
 10
6129.560357219656
 20
317.0537437817702
 42
-0.6168583269099637
 10
6091.868670191878
 20
408.0495257929523
 42
0.0
 97
        0
 92
       22
 72
     1
 73
     1
 93
        4
 10
6086.493622146313
 20
407.7677195890092
 42
0.5741105922167495
 10
6125.560357219685
 20
313.4522779373464
 42
0.0
 10
6125.560357219685
 20
303.3729946276307
 42
-0.5873104908889167
 10
6079.366492568516
 20
414.8948491668106
 42
0.0
 97
        0
 75
     0
 76
     1
 47
0.0143554168026844
 98
        6
 10
6165.580827973259
 20
434.808876284188
 10
6165.580827973259
 20
434.808876284188
 10
6180.523262244765
 20
411.5531024217716
 10
6180.523262244765
 20
411.5531024217716
 10
6088.282422260032
 20
410.6917769343399
 10
6088.282422260032
 20
410.6917769343399
  0
ARC
  5
DFFF
330
747D
100
AcDbEntity
  8
0
100
AcDbCircle
 10
6133.560357219678
 20
372.0146930146711
 30
0.0
 40
55.10631488841318
100
AcDbArc
 50
139.162587411142
 51
265.837412588873
  0
ARC
  5
E000
330
747D
100
AcDbEntity
  8
0
100
AcDbCircle
 10
6133.560357219678
 20
372.0146930146711
 30
0.0
 40
59.10631488841318
100
AcDbArc
 50
142.7788203118914
 51
262.221179688105
  0
ARC
  5
E001
330
747D
100
AcDbEntity
  8
0
100
AcDbCircle
 10
6133.560357219678
 20
372.0146930146711
 30
0.0
 40
73.1063148884132
100
AcDbArc
 50
138.1364954470877
 51
266.8635045529169
  0
ARC
  5
E002
330
747D
100
AcDbEntity
  8
0
100
AcDbCircle
 10
6133.560357219678
 20
372.0146930146711
 30
0.0
 40
69.10631488841319
100
AcDbArc
 50
141.6476737862072
 51
263.3523262137999
  0
CIRCLE
  5
E003
330
747D
100
AcDbEntity
  8
0
100
AcDbCircle
 10
5893.933050039173
 20
354.8500075675883
 30
0.0
 40
75.97521057257927
  0
TEXT
  5
E004
330
747D
100
AcDbEntity
  8
0
 48
2.0
100
AcDbText
 10
5866.335893084521
 20
368.186503452378
 30
0.0
 40
40.0
  1
中
  7
SANWA
100
AcDbText
  0
TEXT
  5
E005
330
747D
100
AcDbEntity
  8
0
 48
2.0
100
AcDbText
 10
5422.081935578171
 20
356.9821364303525
 30
0.0
 40
40.0
  1
河
  7
SANWA
100
AcDbText
  0
LINE
  5
E006
330
747D
100
AcDbEntity
  8
0
100
AcDbLine
 10
5777.553191489325
 20
250.0000000000054
 30
0.0
 11
5777.553191489325
 21
510.0000000000027
 31
0.0
  0
LINE
  5
E007
330
747D
100
AcDbEntity
  8
0
100
AcDbLine
 10
5557.553191489343
 20
250.0000000000054
 30
0.0
 11
5557.553191489343
 21
570.0000000000045
 31
0.0
  0
CIRCLE
  5
E008
330
747D
100
AcDbEntity
  8
0
100
AcDbCircle
 10
5893.933050039173
 20
354.8500075675883
 30
0.0
 40
79.97521057257928
  0
HATCH
  5
E009
330
747D
100
AcDbEntity
  8
0
100
AcDbHatch
 10
0.0
 20
0.0
 30
0.0
210
0.0
220
0.0
230
1.0
  2
SOLID
 70
     1
 71
     0
 91
        4
 92
        7
 72
     1
 73
     1
 93
        2
 10
5973.908260611745
 20
354.8500075675883
 42
1.0
 10
5813.957839466559
 20
354.8500075675883
 42
1.0
 97
        0
 92
       22
 72
     1
 73
     1
 93
        2
 10
5969.908260611744
 20
354.8500075675883
 42
-1.0
 10
5817.957839466559
 20
354.8500075675883
 42
-1.0
 97
        0
 92
      136
 93
        4
 72
     1
 10
5853.021607370218
 20
348.2436463095209
 11
5938.164464513072
 21
348.2436463095209
 72
     1
 10
5938.164464513087
 20
348.2436463095209
 11
5938.164464513087
 21
428.1293605952352
 72
     1
 10
5938.164464513087
 20
428.1293605952351
 11
5853.021607370232
 21
428.1293605952351
 72
     1
 10
5853.021607370218
 20
428.1293605952351
 11
5853.021607370218
 21
348.2436463095207
 97
        0
 92
      136
 93
        4
 72
     1
 10
5852.880989765588
 20
294.2541992610395
 11
5936.423846908445
 21
294.2541992610395
 72
     1
 10
5936.423846908452
 20
294.2541992610395
 11
5936.423846908452
 21
369.3399135467537
 72
     1
 10
5936.423846908452
 20
369.3399135467534
 11
5852.880989765595
 21
369.3399135467534
 72
     1
 10
5852.880989765588
 20
369.3399135467534
 11
5852.880989765588
 21
294.2541992610391
 97
        0
 75
     0
 76
     1
 47
0.0602706122334892
 98
        2
 10
5932.250193149652
 20
423.598759402219
 10
5932.250193149652
 20
423.598759402219
  0
TEXT
  5
E00A
330
747D
100
AcDbEntity
  8
0
 48
2.0
100
AcDbText
 10
5421.141317973525
 20
300.3641179532996
 30
0.0
 40
40.0
  1
口
  7
SANWA
100
AcDbText
  0
TEXT
  5
E00B
330
747D
100
AcDbEntity
  8
0
 48
2.0
100
AcDbText
 10
5865.395275479918
 20
311.5684849753242
 30
0.0
 40
40.0
  1
川
  7
SANWA
100
AcDbText
  0
TEXT
  5
E00C
330
747D
100
AcDbEntity
  8
0
 48
2.0
100
AcDbText
 10
5615.12664304264
 20
461.8928629188303
 30
0.0
 40
40.0
  1
設計
  7
SANWA
100
AcDbText
  0
TEXT
  5
E00D
330
747D
100
AcDbEntity
  8
0
 48
2.0
100
AcDbText
 10
5648.287171582342
 20
522.0856316808067
 30
0.0
 40
40.0
  1
2003.12.　5
  7
SANWA
100
AcDbText
  0
TEXT
  5
E00E
330
747D
100
AcDbEntity
  8
0
 48
2.0
100
AcDbText
 10
5391.248993407273
 20
522.0856316808067
 30
0.0
 40
40.0
  1
製図
  7
SANWA
100
AcDbText
  0
TEXT
  5
E00F
330
747D
100
AcDbEntity
  8
0
 48
2.0
100
AcDbText
 10
5831.24899340728
 20
462.0856316808048
 30
0.0
 40
40.0
  1
製図
  7
SANWA
100
AcDbText
  0
ARC
  5
E010
330
747D
100
AcDbEntity
  8
0
100
AcDbCircle
 10
6133.560357219678
 20
372.0146930146711
 30
0.0
 40
69.10631488841319
100
AcDbArc
 50
276.6476737862
 51
38.35232621379279
  0
ARC
  5
E011
330
747D
100
AcDbEntity
  8
0
100
AcDbCircle
 10
6133.560357219678
 20
372.0146930146711
 30
0.0
 40
73.1063148884132
100
AcDbArc
 50
273.136495447083
 51
41.86350455291226
  0
ARC
  5
E012
330
747D
100
AcDbEntity
  8
0
100
AcDbCircle
 10
6133.560357219678
 20
372.0146930146711
 30
0.0
 40
59.10631488841318
100
AcDbArc
 50
277.7788203119013
 51
37.22117968810856
  0
ARC
  5
E013
330
747D
100
AcDbEntity
  8
0
100
AcDbCircle
 10
6133.560357219678
 20
372.0146930146711
 30
0.0
 40
55.10631488841318
100
AcDbArc
 50
274.1625874111269
 51
40.837412588858
  0
TEXT
  5
E014
330
747D
100
AcDbEntity
  8
0
100
AcDbText
 10
6111.181671391569
 20
344.5314540178005
 30
0.0
 40
30.0
  1
和
  7
SANWA
100
AcDbText
  0
LINE
  5
E015
330
747D
100
AcDbEntity
  8
0
100
AcDbLine
 10
6125.560357219685
 20
303.3729946276307
 30
0.0
 11
6125.560357219685
 21
313.4522779373464
 31
0.0
  0
LINE
  5
E016
330
747D
100
AcDbEntity
  8
0
100
AcDbLine
 10
6141.56035721967
 20
303.3729946276307
 30
0.0
 11
6141.56035721967
 21
313.4522779373464
 31
0.0
  0
LINE
  5
E017
330
747D
100
AcDbEntity
  8
0
100
AcDbLine
 10
6137.560357219674
 20
299.0178898205276
 30
0.0
 11
6137.560357219674
 21
317.0537437817702
 31
0.0
  0
LINE
  5
E018
330
747D
100
AcDbEntity
  8
0
100
AcDbLine
 10
6129.560357219681
 20
299.0178898205276
 30
0.0
 11
6129.560357219681
 21
317.0537437817702
 31
0.0
  0
LINE
  5
E019
330
747D
100
AcDbEntity
  8
0
100
AcDbLine
 10
6175.252044247463
 20
408.0495257929551
 30
0.0
 11
6188.005318887917
 21
420.8028004334383
 31
0.0
  0
LINE
  5
E01A
330
747D
100
AcDbEntity
  8
0
100
AcDbLine
 10
6180.627092292983
 20
407.7677195890092
 30
0.0
 11
6187.754221870775
 21
414.8948491668079
 31
0.0
  0
LINE
  5
E01B
330
747D
100
AcDbEntity
  8
0
100
AcDbLine
 10
6097.807330645312
 20
419.0814280879976
 30
0.0
 11
6090.680201067517
 21
426.2085576657909
 31
0.0
  0
LINE
  5
E01C
330
747D
100
AcDbEntity
  8
0
100
AcDbLine
 10
6097.525524441382
 20
413.7063800424466
 30
0.0
 11
6084.694813339276
 21
426.5370911445698
 31
0.0
  0
LINE
  5
E01D
330
747D
100
AcDbEntity
  8
0
100
AcDbLine
 10
6086.493622146329
 20
407.7677195890092
 30
0.0
 11
6079.366492568537
 21
414.8948491668079
 31
0.0
  0
LINE
  5
E01E
330
747D
100
AcDbEntity
  8
0
100
AcDbLine
 10
6091.868670191892
 20
408.0495257929551
 30
0.0
 11
6079.037959089786
 21
420.8802368950783
 31
0.0
  0
TEXT
  5
E01F
330
747D
100
AcDbEntity
  8
0
100
AcDbText
 10
6111.181671391569
 20
384.3868193377375
 30
0.0
 40
30.0
  1
三
  7
SANWA
100
AcDbText
  0
ARC
  5
E020
330
747D
100
AcDbEntity
  8
0
100
AcDbCircle
 10
6133.560357219678
 20
372.0146930146711
 30
0.0
 40
59.10631488841318
100
AcDbArc
 50
52.77882031191364
 51
127.2211796880863
  0
ARC
  5
E021
330
747D
100
AcDbEntity
  8
0
100
AcDbCircle
 10
6133.560357219678
 20
372.0146930146711
 30
0.0
 40
55.10631488841318
100
AcDbArc
 50
49.16258741114067
 51
130.8374125888593
  0
LINE
  5
E022
330
747D
100
AcDbEntity
  8
0
100
AcDbLine
 10
6169.313383793997
 20
419.0814280879976
 30
0.0
 11
6176.440513371792
 21
426.2085576657964
 31
0.0
  0
LINE
  5
E023
330
747D
100
AcDbEntity
  8
0
100
AcDbLine
 10
6169.595189997973
 20
413.7063800424466
 30
0.0
 11
6182.348464638428
 21
426.4596546829352
 31
0.0
  0
ARC
  5
E024
330
747D
100
AcDbEntity
  8
0
100
AcDbCircle
 10
6133.560357219678
 20
372.0146930146711
 30
0.0
 40
73.1063148884132
100
AcDbArc
 50
48.1364954470742
 51
131.8635045529258
  0
ARC
  5
E025
330
747D
100
AcDbEntity
  8
0
100
AcDbCircle
 10
6133.560357219678
 20
372.0146930146711
 30
0.0
 40
69.10631488841319
100
AcDbArc
 50
51.64767378621125
 51
128.3523262137938
  0
TEXT
  5
E026
330
747D
100
AcDbEntity
  8
0
 48
2.0
100
AcDbText
 10
6014.605708847332
 20
777.3913655001133
 30
0.0
 40
27.99999999999999
  1
呼
  7
SANWA
100
AcDbText
  0
TEXT
  5
E027
330
747D
100
AcDbEntity
  8
0
 48
2.0
100
AcDbText
 10
5544.098121932351
 20
723.9731911170228
 30
0.0
 40
40.0
  1
縮    尺
  7
SANWA
100
AcDbText
  0
TEXT
  5
E028
330
747D
100
AcDbEntity
  8
0
 48
2.0
100
AcDbText
 10
5572.484217939949
 20
630.9755021622549
 30
0.0
 40
40.0
  1
1 : 25
  7
SANWA
100
AcDbText
  0
TEXT
  5
E029
330
747D
100
AcDbEntity
  8
0
 48
2.0
100
AcDbText
 10
6015.480113215563
 20
601.1410255214623
 30
0.0
 40
27.99999999999999
  1
規
  7
SANWA
100
AcDbText
  0
TEXT
  5
E02A
330
747D
100
AcDbEntity
  8
0
 48
2.0
100
AcDbText
 10
6014.775609774872
 20
699.8772475912174
 30
0.0
 40
27.99999999999999
  1
名
  7
SANWA
100
AcDbText
  0
TEXT
  5
E02B
330
747D
100
AcDbEntity
  8
0
 48
2.0
100
AcDbText
 10
6014.208558144768
 20
739.0543600013415
 30
0.0
 40
27.99999999999999
  1
び
  7
SANWA
100
AcDbText
  0
TEXT
  5
E02C
330
747D
100
AcDbEntity
  8
0
 48
2.0
100
AcDbText
 10
5653.898808185753
 20
931.0686527376557
 30
0.0
 40
40.0
  1
番号
  7
SANWA
100
AcDbText
  0
TEXT
  5
E02D
330
747D
100
AcDbEntity
  8
0
 48
2.0
100
AcDbText
 10
5542.345604725415
 20
928.7954769413772
 30
0.0
 40
40.0
  1
図面
  7
SANWA
100
AcDbText
  0
TEXT
  5
E02E
330
747D
100
AcDbEntity
  8
0
 48
2.0
100
AcDbText
 10
6014.721730996193
 20
868.3271054076557
 30
0.0
 40
27.99999999999999
  1
名
  7
SANWA
100
AcDbText
  0
TEXT
  5
E02F
330
747D
100
AcDbEntity
  8
0
 48
2.0
100
AcDbText
 10
6016.23849543494
 20
933.9614944784161
 30
0.0
 40
27.99999999999999
  1
品
  7
SANWA
100
AcDbText
  0
LINE
  5
E030
330
747D
100
AcDbEntity
  8
0
 48
25.0
100
AcDbLine
 10
4123.469910207106
 20
2152.250569887545
 30
0.0
 11
6123.469910207106
 21
2152.250569887545
 31
0.0
  0
LINE
  5
E031
330
747D
100
AcDbEntity
  8
0
  6
HIDDEN2
 48
25.0
100
AcDbLine
 10
4123.469910207106
 20
2237.250569887546
 30
0.0
 11
6123.469910207106
 21
2237.250569887546
 31
0.0
  0
LINE
  5
E032
330
747D
100
AcDbEntity
  8
0
 48
25.0
100
AcDbLine
 10
4133.469910207106
 20
2112.250569887546
 30
0.0
 11
6113.469910207102
 21
2112.250569887546
 31
0.0
  0
LINE
  5
E033
330
747D
100
AcDbEntity
  8
0
 62
     0
100
AcDbLine
 10
5337.553191489362
 20
990.000000000009
 30
0.0
 11
7175.0
 21
990.000000000009
 31
0.0
  0
LINE
  5
E036
330
747D
100
AcDbEntity
  8
0
 48
25.0
100
AcDbLine
 10
3920.402604921597
 20
1079.498750889092
 30
0.0
 11
4160.402604921597
 21
1079.498750889092
 31
0.0
  0
DIMENSION
  5
E037
330
747D
100
AcDbEntity
  8
寸法引出
 48
25.0
100
AcDbDimension
  2
*D22
 10
3728.907360395526
 20
1139.498750889092
 30
0.0
 11
3678.907360395525
 21
1109.498750889093
 31
0.0
 70
    32
  1
6
 71
     5
 42
60.0
  3
SANWA
100
AcDbAlignedDimension
 13
3800.402604921597
 23
1079.498750889092
 33
0.0
 14
3820.402604921597
 24
1139.498750889092
 34
0.0
 50
90.0
100
AcDbRotatedDimension
1001
ACAD
1000
DSTYLE
1002
{
1070
    40
1040
25.0
1070
    41
1040
1.5
1070
    43
1040
5.0
1070
    44
1040
0.5
1070
   140
1040
2.0
1070
   147
1040
1.0
1070
   176
1070
   256
1070
   177
1070
   256
1070
   178
1070
   256
1002
}
  0
LINE
  5
E038
330
747D
100
AcDbEntity
  8
0
 48
25.0
100
AcDbLine
 10
3560.402604921633
 20
1311.029885753015
 30
0.0
 11
3560.402604921597
 21
1079.498750889092
 31
0.0
  0
LINE
  5
E039
330
747D
100
AcDbEntity
  8
0
 48
25.0
100
AcDbLine
 10
3560.402604921597
 20
1079.498750889092
 30
0.0
 11
3800.402604921597
 21
1079.498750889092
 31
0.0
  0
LINE
  5
E03A
330
747D
100
AcDbEntity
  8
0
 48
25.0
100
AcDbLine
 10
3900.402604921597
 20
1139.498750889092
 30
0.0
 11
3920.402604921597
 21
1079.498750889092
 31
0.0
  0
LINE
  5
E03B
330
747D
100
AcDbEntity
  8
0
 48
25.0
100
AcDbLine
 10
3800.402604921597
 20
1079.498750889092
 30
0.0
 11
3820.402604921597
 21
1139.498750889092
 31
0.0
  0
LINE
  5
E03C
330
747D
100
AcDbEntity
  8
0
 48
25.0
100
AcDbLine
 10
3820.402604921597
 20
1139.498750889092
 30
0.0
 11
3900.402604921597
 21
1139.498750889092
 31
0.0
  0
LINE
  5
E03D
330
747D
100
AcDbEntity
  8
0
 48
25.0
100
AcDbLine
 10
4160.402604921597
 20
1311.029885753015
 30
0.0
 11
4160.402604921597
 21
1079.498750889092
 31
0.0
  0
TEXT
  5
E03E
330
747D
100
AcDbEntity
  8
0
100
AcDbText
 10
3577.70900660708
 20
1548.871403346919
 30
0.0
 40
60.0
  1
目地部詳細図
  7
SANWA
 72
     4
 11
3841.023292321366
 21
1579.89997477549
 31
0.0
100
AcDbText
  0
LINE
  5
E03F
330
747D
100
AcDbEntity
  8
0
100
AcDbLine
 10
3560.241009672907
 20
1529.135985872658
 30
0.0
 11
4118.18456590347
 21
1529.135985872658
 31
0.0
  0
LINE
  5
E049
330
747D
100
AcDbEntity
  8
0
 48
25.0
100
AcDbLine
 10
4123.469910207106
 20
2122.250569887545
 30
0.0
 11
4133.469910207106
 21
2112.250569887546
 31
0.0
  0
LINE
  5
E04A
330
747D
100
AcDbEntity
  8
0
100
AcDbLine
 10
5997.553191489351
 20
990.000000000009
 30
0.0
 11
6035.462120509059
 21
990.000000000009
 31
0.0
  0
LINE
  5
E04B
330
747D
100
AcDbEntity
  8
0
 48
25.0
100
AcDbLine
 10
6113.469910207107
 20
2112.250569887546
 30
0.0
 11
6123.469910207106
 21
2122.250569887545
 31
0.0
  0
TEXT
  5
E04C
330
747D
100
AcDbEntity
  8
0
100
AcDbText
 10
2216.001058842516
 20
4537.348317370436
 30
0.0
 40
70.0
  1
マルチスリット側溝 ４００×１４００×２０００（横断）
  7
SANWA
 72
     4
 11
3572.801058842517
 21
4572.948317370436
 31
0.0
100
AcDbText
  0
LINE
  5
E04D
330
747D
100
AcDbEntity
  8
0
100
AcDbLine
 10
2184.789383255665
 20
4480.000000000001
 30
0.0
 11
5390.522913480181
 21
4480.000000000001
 31
0.0
  0
LINE
  5
E04E
330
747D
100
AcDbEntity
  8
0
100
AcDbLine
 10
2184.789383255665
 20
4500.0
 30
0.0
 11
5390.522913480181
 21
4500.0
 31
0.0
  0
LINE
  5
E04F
330
747D
100
AcDbEntity
  8
枠
100
AcDbLine
 10
625.0
 20
5000.0
 30
0.0
 11
7175.0
 21
5000.0
 31
0.0
  0
LINE
  5
E052
330
747D
100
AcDbEntity
  8
0
  6
CENTER2
 48
5.0
100
AcDbLine
 10
2065.124842940758
 20
3012.250569887544
 30
0.0
 11
2202.20608049146
 21
3012.250569887544
 31
0.0
  0
DIMENSION
  5
E057
330
747D
100
AcDbEntity
  8
寸法引出
 48
25.0
100
AcDbDimension
  2
*D23
 10
2555.124842940756
 20
3788.436045495898
 30
0.0
 11
2355.124842940756
 21
3838.436045495898
 31
0.0
 70
    32
 71
     5
 42
400.0
  3
SANWA
100
AcDbAlignedDimension
 13
2155.124842940757
 23
3637.250569887545
 33
0.0
 14
2555.124842940756
 24
3637.250569887545
 34
0.0
100
AcDbRotatedDimension
1001
ACAD
1000
DSTYLE
1002
{
1070
   279
1070
     1
1070
    40
1040
25.0
1070
    41
1040
1.5
1070
    43
1040
5.0
1070
    44
1040
0.5
1070
   140
1040
2.0
1070
   147
1040
1.0
1070
   176
1070
   256
1070
   177
1070
   256
1070
   178
1070
   256
1002
}
  0
DIMENSION
  5
E05A
330
747D
100
AcDbEntity
  8
寸法引出
 48
25.0
100
AcDbDimension
  2
*D24
 10
1960.129864571674
 20
3487.250569887546
 30
0.0
 11
1910.129864571674
 21
3562.250569887546
 31
0.0
 70
    32
 71
     5
 42
150.0
  3
SANWA
100
AcDbAlignedDimension
 13
2095.124842940756
 23
3637.250569887545
 33
0.0
 14
2095.124842940756
 24
3487.250569887546
 34
0.0
 50
90.0
100
AcDbRotatedDimension
1001
ACAD
1000
DSTYLE
1002
{
1070
    40
1040
25.0
1070
    41
1040
1.5
1070
    43
1040
5.0
1070
    44
1040
0.5
1070
   140
1040
2.0
1070
   147
1040
1.0
1070
   176
1070
   256
1070
   177
1070
   256
1070
   178
1070
   256
1002
}
  0
DIMENSION
  5
E05B
330
747D
100
AcDbEntity
  8
寸法引出
 48
25.0
100
AcDbDimension
  2
*D25
 10
2489.005812903037
 20
3287.250569887545
 30
0.0
 11
2439.005812903035
 21
3462.250569887546
 31
0.0
 70
    32
 71
     5
 42
350.0
  3
SANWA
100
AcDbAlignedDimension
 13
2555.124842940756
 23
3637.250569887545
 33
0.0
 14
2555.124842940756
 24
3287.250569887545
 34
0.0
 50
90.0
100
AcDbRotatedDimension
1001
ACAD
1000
DSTYLE
1002
{
1070
    40
1040
25.0
1070
    41
1040
1.5
1070
    43
1040
5.0
1070
    44
1040
0.5
1070
   140
1040
2.0
1070
   147
1040
1.0
1070
   176
1070
   256
1070
   177
1070
   256
1070
   178
1070
   256
1002
}
  0
LINE
  5
E05F
330
747D
100
AcDbEntity
  8
0
 48
25.0
100
AcDbLine
 10
2555.124842940756
 20
3637.250569887545
 30
0.0
 11
2555.124842940756
 21
3287.250569887545
 31
0.0
  0
LINE
  5
E060
330
747D
100
AcDbEntity
  8
0
 48
25.0
100
AcDbLine
 10
2155.124842940757
 20
3637.250569887545
 30
0.0
 11
2155.124842940757
 21
3287.250569887545
 31
0.0
  0
LINE
  5
E061
330
747D
100
AcDbEntity
  8
0
 48
25.0
100
AcDbLine
 10
2095.124842940756
 20
3479.250569887545
 30
0.0
 11
2125.124842940757
 21
3479.250569887545
 31
0.0
  0
LINE
  5
E062
330
747D
100
AcDbEntity
  8
0
 48
25.0
100
AcDbLine
 10
2095.124842940756
 20
3481.250569887545
 30
0.0
 11
2125.124842940757
 21
3481.250569887545
 31
0.0
  0
LINE
  5
E063
330
747D
100
AcDbEntity
  8
0
 48
25.0
100
AcDbLine
 10
2095.124842940756
 20
3493.250569887546
 30
0.0
 11
2125.124842940757
 21
3493.250569887546
 31
0.0
  0
LINE
  5
E064
330
747D
100
AcDbEntity
  8
0
 48
25.0
100
AcDbLine
 10
2095.124842940756
 20
3495.250569887545
 30
0.0
 11
2125.124842940757
 21
3495.250569887545
 31
0.0
  0
LINE
  5
E066
330
747D
100
AcDbEntity
  8
0
 48
25.0
100
AcDbLine
 10
2127.124842940756
 20
3497.250569887546
 30
0.0
 11
2127.124842940756
 21
3477.250569887545
 31
0.0
  0
LINE
  5
E067
330
747D
100
AcDbEntity
  8
0
 48
25.0
100
AcDbLine
 10
2125.124842940757
 20
3493.250569887546
 30
0.0
 11
2125.124842940757
 21
3481.250569887545
 31
0.0
  0
LINE
  5
E068
330
747D
100
AcDbEntity
  8
0
 48
25.0
100
AcDbLine
 10
2125.124842940757
 20
3479.250569887545
 30
0.0
 11
2125.124842940757
 21
3477.250569887545
 31
0.0
  0
LINE
  5
E069
330
747D
100
AcDbEntity
  8
0
 48
25.0
100
AcDbLine
 10
2125.124842940757
 20
3477.250569887545
 30
0.0
 11
2127.124842940756
 21
3477.250569887545
 31
0.0
  0
LINE
  5
E06A
330
747D
100
AcDbEntity
  8
0
 48
25.0
100
AcDbLine
 10
2125.124842940757
 20
3497.250569887546
 30
0.0
 11
2125.124842940757
 21
3495.250569887545
 31
0.0
  0
LINE
  5
E06B
330
747D
100
AcDbEntity
  8
0
 48
25.0
100
AcDbLine
 10
2125.124842940757
 20
3497.250569887546
 30
0.0
 11
2127.124842940756
 21
3497.250569887546
 31
0.0
  0
LINE
  5
E06C
330
747D
100
AcDbEntity
  8
0
 48
25.0
100
AcDbLine
 10
2585.124842940757
 20
3493.250569887546
 30
0.0
 11
2585.124842940757
 21
3481.250569887545
 31
0.0
  0
LINE
  5
E06D
330
747D
100
AcDbEntity
  8
0
 48
25.0
100
AcDbLine
 10
2583.124842940756
 20
3497.250569887546
 30
0.0
 11
2583.124842940756
 21
3477.250569887545
 31
0.0
  0
LINE
  5
E06E
330
747D
100
AcDbEntity
  8
0
 48
25.0
100
AcDbLine
 10
2615.124842940756
 20
3481.250569887545
 30
0.0
 11
2585.124842940757
 21
3481.250569887545
 31
0.0
  0
LINE
  5
E06F
330
747D
100
AcDbEntity
  8
0
 48
25.0
100
AcDbLine
 10
2615.124842940756
 20
3479.250569887545
 30
0.0
 11
2585.124842940757
 21
3479.250569887545
 31
0.0
  0
LINE
  5
E070
330
747D
100
AcDbEntity
  8
0
 48
25.0
100
AcDbLine
 10
2585.124842940757
 20
3477.250569887545
 30
0.0
 11
2583.124842940756
 21
3477.250569887545
 31
0.0
  0
LINE
  5
E071
330
747D
100
AcDbEntity
  8
0
 48
25.0
100
AcDbLine
 10
2585.124842940757
 20
3479.250569887545
 30
0.0
 11
2585.124842940757
 21
3477.250569887545
 31
0.0
  0
LINE
  5
E072
330
747D
100
AcDbEntity
  8
0
 48
25.0
100
AcDbLine
 10
2615.124842940756
 20
3495.250569887545
 30
0.0
 11
2585.124842940757
 21
3495.250569887545
 31
0.0
  0
LINE
  5
E073
330
747D
100
AcDbEntity
  8
0
 48
25.0
100
AcDbLine
 10
2615.124842940756
 20
3493.250569887546
 30
0.0
 11
2585.124842940757
 21
3493.250569887546
 31
0.0
  0
LINE
  5
E074
330
747D
100
AcDbEntity
  8
0
 48
25.0
100
AcDbLine
 10
2585.124842940757
 20
3497.250569887546
 30
0.0
 11
2583.124842940756
 21
3497.250569887546
 31
0.0
  0
LINE
  5
E075
330
747D
100
AcDbEntity
  8
0
 48
25.0
100
AcDbLine
 10
2585.124842940757
 20
3497.250569887546
 30
0.0
 11
2585.124842940757
 21
3495.250569887545
 31
0.0
  0
LINE
  5
E079
330
747D
100
AcDbEntity
  8
0
 48
15.0
100
AcDbLine
 10
2095.124842940756
 20
3637.250569887545
 30
0.0
 11
2155.124842940757
 21
3637.250569887545
 31
0.0
  0
LINE
  5
E07F
330
747D
100
AcDbEntity
  8
0
 48
15.0
100
AcDbLine
 10
2555.124842940756
 20
3637.250569887545
 30
0.0
 11
2615.124842940757
 21
3637.250569887545
 31
0.0
  0
LINE
  5
E081
330
747D
100
AcDbEntity
  8
0
100
AcDbLine
 10
2040.481683970028
 20
4165.869518345186
 30
0.0
 11
2287.461465192609
 21
4165.869518345186
 31
0.0
  0
TEXT
  5
E082
330
747D
100
AcDbEntity
  8
0
100
AcDbText
 10
2035.761433941302
 20
4186.804935819441
 30
0.0
 40
60.0
  1
正面図
  7
SANWA
 72
     4
 11
2167.418576798445
 21
4216.633507248011
 31
0.0
100
AcDbText
  0
LINE
  5
E083
330
747D
100
AcDbEntity
  8
0
100
AcDbLine
 10
0.0
 20
5000.0
 30
0.0
 11
0.0
 21
5250.0
 31
0.0
  0
LINE
  5
E084
330
747D
100
AcDbEntity
  8
0
100
AcDbLine
 10
0.0
 20
5250.0
 30
0.0
 11
625.0
 21
5250.0
 31
0.0
  0
DIMENSION
  5
E086
330
747D
100
AcDbEntity
  8
寸法引出
 48
25.0
100
AcDbDimension
  2
*D26
 10
6003.469910207106
 20
3847.151702602744
 30
0.0
 11
5623.469910207106
 21
3897.151702602744
 31
0.0
 70
    32
 71
     5
 42
760.0
  3
SANWA
100
AcDbAlignedDimension
 13
5243.469910207107
 23
3637.250569887545
 33
0.0
 14
6003.469910207106
 24
3637.250569887545
 34
0.0
100
AcDbRotatedDimension
1001
ACAD
1000
DSTYLE
1002
{
1070
   279
1070
     1
1070
    40
1040
25.0
1070
    41
1040
1.5
1070
    43
1040
5.0
1070
    44
1040
0.5
1070
   140
1040
2.0
1070
   147
1040
1.0
1070
   176
1070
   256
1070
   177
1070
   256
1070
   178
1070
   256
1002
}
  0
DIMENSION
  5
E087
330
747D
100
AcDbEntity
  8
寸法引出
 48
25.0
100
AcDbDimension
  2
*D27
 10
6123.469910207106
 20
3970.279774099494
 30
0.0
 11
5123.469910207106
 21
4020.279774099495
 31
0.0
 70
    32
 71
     5
 42
2000.0
  3
SANWA
100
AcDbAlignedDimension
 13
4123.469910207106
 23
3637.250569887545
 33
0.0
 14
6123.469910207106
 24
3637.250569887545
 34
0.0
100
AcDbRotatedDimension
1001
ACAD
1000
DSTYLE
1002
{
1070
    40
1040
25.0
1070
    41
1040
1.5
1070
    43
1040
5.0
1070
    44
1040
0.5
1070
   140
1040
2.0
1070
   147
1040
1.0
1070
   176
1070
   256
1070
   177
1070
   256
1070
   178
1070
   256
1002
}
  0
LINE
  5
E088
330
747D
100
AcDbEntity
  8
0
 48
25.0
100
AcDbLine
 10
4123.469910207106
 20
3637.250569887545
 30
0.0
 11
6123.469910207106
 21
3637.250569887545
 31
0.0
  0
DIMENSION
  5
E089
330
747D
100
AcDbEntity
  8
寸法引出
 48
25.0
100
AcDbDimension
  2
*D28
 10
4173.469910207106
 20
3352.175576881783
 30
0.0
 11
4148.469910207106
 21
3402.175576881783
 31
0.0
 70
    32
 71
     5
 42
50.0
  3
SANWA
100
AcDbAlignedDimension
 13
4123.469910207106
 23
3462.750569887546
 33
0.0
 14
4173.469910207106
 24
3487.250569887546
 34
0.0
100
AcDbRotatedDimension
1001
ACAD
1000
DSTYLE
1002
{
1070
    40
1040
25.0
1070
    41
1040
1.5
1070
    43
1040
5.0
1070
    44
1040
0.5
1070
   140
1040
2.0
1070
   147
1040
1.0
1070
   176
1070
   256
1070
   177
1070
   256
1070
   178
1070
   256
1002
}
  0
CIRCLE
  5
E08A
330
747D
100
AcDbEntity
  8
0
 48
25.0
100
AcDbCircle
 10
5123.469910207106
 20
3012.250569887544
 30
0.0
 40
17.5
  0
CIRCLE
  5
E08B
330
747D
100
AcDbEntity
  8
0
 48
25.0
100
AcDbCircle
 10
5123.469910207106
 20
3012.250569887544
 30
0.0
 40
16.0
  0
LINE
  5
E08C
330
747D
100
AcDbEntity
  8
0
 48
25.0
100
AcDbLine
 10
5123.469910207109
 20
3042.250569887544
 30
0.0
 11
5123.469910207106
 21
2982.250569887543
 31
0.0
  0
LINE
  5
E08D
330
747D
100
AcDbEntity
  8
0
 48
25.0
100
AcDbLine
 10
5093.46991020711
 20
3012.250569887544
 30
0.0
 11
5153.469910207107
 21
3012.250569887544
 31
0.0
  0
DIMENSION
  5
E08E
330
747D
100
AcDbEntity
  8
寸法引出
 48
25.0
100
AcDbDimension
  2
*D29
 10
3996.237552926137
 20
3637.250569887545
 30
0.0
 11
3946.237552926136
 21
3562.250569887546
 31
0.0
 70
    32
 71
     5
 42
150.0
  3
SANWA
100
AcDbAlignedDimension
 13
4123.469910207106
 23
3487.250569887546
 33
0.0
 14
4123.469910207106
 24
3637.250569887545
 34
0.0
 50
90.0
100
AcDbRotatedDimension
1001
ACAD
1000
DSTYLE
1002
{
1070
    40
1040
25.0
1070
    41
1040
1.5
1070
    43
1040
5.0
1070
    44
1040
0.5
1070
   140
1040
2.0
1070
   147
1040
1.0
1070
   176
1070
   256
1070
   177
1070
   256
1070
   178
1070
   256
1002
}
  0
DIMENSION
  5
E091
330
747D
100
AcDbEntity
  8
寸法引出
 48
25.0
100
AcDbDimension
  2
*D30
 10
5003.469910207106
 20
3847.151702602744
 30
0.0
 11
4623.469910207106
 21
3897.151702602744
 31
0.0
 70
    32
 71
     5
 42
760.0
  3
SANWA
100
AcDbAlignedDimension
 13
4243.469910207106
 23
3637.250569887545
 33
0.0
 14
5003.469910207106
 24
3637.250569887545
 34
0.0
100
AcDbRotatedDimension
1001
ACAD
1000
DSTYLE
1002
{
1070
   279
1070
     1
1070
    40
1040
25.0
1070
    41
1040
1.5
1070
    43
1040
5.0
1070
    44
1040
0.5
1070
   140
1040
2.0
1070
   147
1040
1.0
1070
   176
1070
   256
1070
   177
1070
   256
1070
   178
1070
   256
1002
}
  0
DIMENSION
  5
E092
330
747D
100
AcDbEntity
  8
寸法引出
 48
25.0
100
AcDbDimension
  2
*D31
 10
4243.469910207106
 20
3847.151702602744
 30
0.0
 11
4183.469910207106
 21
3897.151702602744
 31
0.0
 70
    32
 71
     5
 42
120.0
  3
SANWA
100
AcDbAlignedDimension
 13
4123.469910207106
 23
3637.250569887545
 33
0.0
 14
4243.469910207106
 24
3637.250569887545
 34
0.0
100
AcDbRotatedDimension
1001
ACAD
1000
DSTYLE
1002
{
1070
    40
1040
25.0
1070
    41
1040
1.5
1070
    43
1040
5.0
1070
    44
1040
0.5
1070
   140
1040
2.0
1070
   147
1040
1.0
1070
   176
1070
   256
1070
   177
1070
   256
1070
   178
1070
   256
1002
}
  0
DIMENSION
  5
E093
330
747D
100
AcDbEntity
  8
寸法引出
 48
25.0
100
AcDbDimension
  2
*D32
 10
5243.469910207107
 20
3847.151702602744
 30
0.0
 11
5123.469910207106
 21
3897.151702602744
 31
0.0
 70
    32
 71
     5
 42
240.0
  3
SANWA
100
AcDbAlignedDimension
 13
5003.469910207106
 23
3637.250569887545
 33
0.0
 14
5243.469910207107
 24
3637.250569887545
 34
0.0
100
AcDbRotatedDimension
1001
ACAD
1000
DSTYLE
1002
{
1070
   279
1070
     1
1070
    40
1040
25.0
1070
    41
1040
1.5
1070
    43
1040
5.0
1070
    44
1040
0.5
1070
   140
1040
2.0
1070
   147
1040
1.0
1070
   176
1070
   256
1070
   177
1070
   256
1070
   178
1070
   256
1002
}
  0
CIRCLE
  5
E094
330
747D
100
AcDbEntity
  8
0
 48
25.0
100
AcDbCircle
 10
4173.469910207106
 20
3487.250569887546
 30
0.0
 40
6.0
  0
LINE
  5
E095
330
747D
100
AcDbEntity
  8
0
  6
HIDDEN2
 48
10.0
100
AcDbLine
 10
4253.469910207106
 20
3637.250569887545
 30
0.0
 11
4253.469910207106
 21
3604.250569887545
 31
0.0
  0
LINE
  5
E096
330
747D
100
AcDbEntity
  8
0
  6
HIDDEN2
 48
10.0
100
AcDbLine
 10
4233.469910207106
 20
3637.250569887545
 30
0.0
 11
4233.469910207106
 21
3604.250569887545
 31
0.0
  0
LINE
  5
E097
330
747D
100
AcDbEntity
  8
0
  6
HIDDEN2
 48
10.0
100
AcDbLine
 10
4233.469910207106
 20
3604.250569887545
 30
0.0
 11
4253.469910207106
 21
3604.250569887545
 31
0.0
  0
LINE
  5
E09B
330
747D
100
AcDbEntity
  8
0
  6
HIDDEN2
 48
10.0
100
AcDbLine
 10
4993.469910207107
 20
3604.250569887545
 30
0.0
 11
5013.469910207106
 21
3604.250569887545
 31
0.0
  0
LINE
  5
E09C
330
747D
100
AcDbEntity
  8
0
  6
HIDDEN2
 48
10.0
100
AcDbLine
 10
5013.469910207106
 20
3637.250569887545
 30
0.0
 11
5013.469910207106
 21
3604.250569887545
 31
0.0
  0
LINE
  5
E09D
330
747D
100
AcDbEntity
  8
0
  6
HIDDEN2
 48
10.0
100
AcDbLine
 10
4993.469910207107
 20
3637.250569887545
 30
0.0
 11
4993.469910207107
 21
3604.250569887545
 31
0.0
  0
LINE
  5
E09E
330
747D
100
AcDbEntity
  8
0
  6
HIDDEN2
 48
10.0
100
AcDbLine
 10
5253.469910207106
 20
3637.250569887545
 30
0.0
 11
5253.469910207106
 21
3604.250569887545
 31
0.0
  0
LINE
  5
E09F
330
747D
100
AcDbEntity
  8
0
  6
HIDDEN2
 48
10.0
100
AcDbLine
 10
5233.469910207106
 20
3637.250569887545
 30
0.0
 11
5233.469910207106
 21
3604.250569887545
 31
0.0
  0
LINE
  5
E0A0
330
747D
100
AcDbEntity
  8
0
  6
HIDDEN2
 48
10.0
100
AcDbLine
 10
5233.469910207106
 20
3604.250569887545
 30
0.0
 11
5253.469910207106
 21
3604.250569887545
 31
0.0
  0
LINE
  5
E0A1
330
747D
100
AcDbEntity
  8
0
100
AcDbLine
 10
4138.163786169985
 20
4165.869518345186
 30
0.0
 11
4385.143567392566
 21
4165.869518345186
 31
0.0
  0
TEXT
  5
E0A2
330
747D
100
AcDbEntity
  8
0
100
AcDbText
 10
4130.877350444881
 20
4186.462078676586
 30
0.0
 40
60.0
  1
側面図
  7
SANWA
 72
     4
 11
4262.534493302024
 21
4216.633507248015
 31
0.0
100
AcDbText
  0
DIMENSION
  5
E0A5
330
747D
100
AcDbEntity
  8
寸法引出
 48
25.0
100
AcDbDimension
  2
*D33
 10
6123.469910207106
 20
3847.151702602744
 30
0.0
 11
6063.469910207107
 21
3897.151702602744
 31
0.0
 70
    32
 71
     5
 42
120.0
  3
SANWA
100
AcDbAlignedDimension
 13
6003.469910207106
 23
3637.250569887545
 33
0.0
 14
6123.469910207106
 24
3637.250569887545
 34
0.0
100
AcDbRotatedDimension
1001
ACAD
1000
DSTYLE
1002
{
1070
   279
1070
     1
1070
    40
1040
25.0
1070
    41
1040
1.5
1070
    43
1040
5.0
1070
    44
1040
0.5
1070
   140
1040
2.0
1070
   147
1040
1.0
1070
   176
1070
   256
1070
   177
1070
   256
1070
   178
1070
   256
1002
}
  0
CIRCLE
  5
E0A6
330
747D
100
AcDbEntity
  8
0
 48
25.0
100
AcDbCircle
 10
6073.469910207106
 20
3487.250569887546
 30
0.0
 40
6.0
  0
LINE
  5
E0AA
330
747D
100
AcDbEntity
  8
0
  6
HIDDEN2
 48
10.0
100
AcDbLine
 10
6013.469910207106
 20
3637.250569887545
 30
0.0
 11
6013.469910207106
 21
3604.250569887545
 31
0.0
  0
LINE
  5
E0AB
330
747D
100
AcDbEntity
  8
0
  6
HIDDEN2
 48
10.0
100
AcDbLine
 10
5993.469910207107
 20
3637.250569887545
 30
0.0
 11
5993.469910207107
 21
3604.250569887545
 31
0.0
  0
LINE
  5
E0AC
330
747D
100
AcDbEntity
  8
0
  6
HIDDEN2
 48
10.0
100
AcDbLine
 10
5993.469910207107
 20
3604.250569887545
 30
0.0
 11
6013.469910207106
 21
3604.250569887545
 31
0.0
  0
TEXT
  5
E0AD
330
747D
100
AcDbEntity
  8
0
100
AcDbText
 10
5022.477681127955
 20
4544.491174513294
 30
0.0
 40
60.0
  1
W=1515㎏
  7
SANWA
 72
     4
 11
5198.020538270812
 21
4572.948317370436
 31
0.0
100
AcDbText
  0
LINE
  5
E0AE
330
747D
100
AcDbEntity
  8
0
100
AcDbLine
 10
7425.0
 20
5250.0
 30
0.0
 11
7425.0
 21
5000.0
 31
0.0
  0
LINE
  5
E0AF
330
747D
100
AcDbEntity
  8
0
100
AcDbLine
 10
7175.0
 20
5250.0
 30
0.0
 11
7425.0
 21
5250.0
 31
0.0
  0
DIMENSION
  5
E9B2
330
747D
100
AcDbEntity
  8
寸法引出
 48
25.0
100
AcDbDimension
  2
*D34
 10
2155.124842940757
 20
3788.436045495898
 30
0.0
 11
2125.124842940757
 21
3838.436045495898
 31
0.0
 70
    32
 71
     5
 42
60.0
  3
SANWA
100
AcDbAlignedDimension
 13
2095.124842940756
 23
3637.250569887545
 33
0.0
 14
2155.124842940757
 24
3637.250569887545
 34
0.0
100
AcDbRotatedDimension
1001
ACAD
1000
DSTYLE
1002
{
1070
    40
1040
25.0
1070
    41
1040
1.5
1070
    43
1040
5.0
1070
    44
1040
0.5
1070
   140
1040
2.0
1070
   147
1040
1.0
1070
   176
1070
   256
1070
   177
1070
   256
1070
   178
1070
   256
1002
}
  0
DIMENSION
  5
E9C1
330
747D
100
AcDbEntity
  8
寸法引出
 48
25.0
100
AcDbDimension
  2
*D35
 10
2615.124842940756
 20
3788.436045495898
 30
0.0
 11
2585.124842940757
 21
3838.436045495898
 31
0.0
 70
    32
 71
     5
 42
60.0
  3
SANWA
100
AcDbAlignedDimension
 13
2555.124842940756
 23
3637.250569887545
 33
0.0
 14
2615.124842940756
 24
3637.250569887545
 34
0.0
100
AcDbRotatedDimension
1001
ACAD
1000
DSTYLE
1002
{
1070
    40
1040
25.0
1070
    41
1040
1.5
1070
    43
1040
5.0
1070
    44
1040
0.5
1070
   140
1040
2.0
1070
   147
1040
1.0
1070
   176
1070
   256
1070
   177
1070
   256
1070
   178
1070
   256
1002
}
  0
DIMENSION
  5
E9EF
330
747D
100
AcDbEntity
  8
寸法引出
 48
25.0
100
AcDbDimension
  2
*D36
 10
2615.124842940756
 20
3894.951680541913
 30
0.0
 11
2355.124842940756
 21
3944.951680541913
 31
0.0
 70
    32
 71
     5
 42
520.0
  3
SANWA
100
AcDbAlignedDimension
 13
2095.124842940756
 23
3637.250569887545
 33
0.0
 14
2615.124842940756
 24
3637.250569887545
 34
0.0
100
AcDbRotatedDimension
1001
ACAD
1000
DSTYLE
1002
{
1070
    40
1040
25.0
1070
    41
1040
1.5
1070
    43
1040
5.0
1070
    44
1040
0.5
1070
   140
1040
2.0
1070
   147
1040
1.0
1070
   176
1070
   256
1070
   177
1070
   256
1070
   178
1070
   256
1002
}
  0
DIMENSION
  5
EA34
330
747D
100
AcDbEntity
  8
寸法引出
 48
25.0
100
AcDbDimension
  2
*D37
 10
2220.124842940763
 20
1973.412518249894
 30
0.0
 11
2157.624842940762
 21
2023.412518249894
 31
0.0
 70
    32
 71
     5
 42
125.0000000000027
  3
SANWA
100
AcDbAlignedDimension
 13
2095.12484294076
 23
2152.250569887543
 33
0.0
 14
2220.124842940763
 24
2112.250569887544
 34
0.0
100
AcDbRotatedDimension
1001
ACAD
1000
DSTYLE
1002
{
1070
    40
1040
25.0
1070
    41
1040
1.5
1070
    43
1040
5.0
1070
    44
1040
0.5
1070
   140
1040
2.0
1070
   147
1040
1.0
1070
   176
1070
   256
1070
   177
1070
   256
1070
   178
1070
   256
1002
}
  0
DIMENSION
  5
EA43
330
747D
100
AcDbEntity
  8
寸法引出
 48
25.0
100
AcDbDimension
  2
*D38
 10
2490.124842940735
 20
1973.412518249894
 30
0.0
 11
2355.124842940749
 21
2023.412518249894
 31
0.0
 70
    32
 71
     5
 42
269.9999999999718
  3
SANWA
100
AcDbAlignedDimension
 13
2220.124842940763
 23
2112.250569887544
 33
0.0
 14
2490.124842940735
 24
2112.250569887544
 34
0.0
100
AcDbRotatedDimension
1001
ACAD
1000
DSTYLE
1002
{
1070
   279
1070
     1
1070
    40
1040
25.0
1070
    41
1040
1.5
1070
    43
1040
5.0
1070
    44
1040
0.5
1070
   140
1040
2.0
1070
   147
1040
1.0
1070
   176
1070
   256
1070
   177
1070
   256
1070
   178
1070
   256
1002
}
  0
DIMENSION
  5
EA50
330
747D
100
AcDbEntity
  8
寸法引出
 48
25.0
100
AcDbDimension
  2
*D39
 10
2615.124842940753
 20
1973.412518249894
 30
0.0
 11
2552.624842940744
 21
2023.412518249894
 31
0.0
 70
    32
 71
     5
 42
125.0000000000181
  3
SANWA
100
AcDbAlignedDimension
 13
2490.124842940735
 23
2112.250569887544
 33
0.0
 14
2615.124842940753
 24
2152.250569887543
 34
0.0
100
AcDbRotatedDimension
1001
ACAD
1000
DSTYLE
1002
{
1070
   279
1070
     1
1070
    40
1040
25.0
1070
    41
1040
1.5
1070
    43
1040
5.0
1070
    44
1040
0.5
1070
   140
1040
2.0
1070
   147
1040
1.0
1070
   176
1070
   256
1070
   177
1070
   256
1070
   178
1070
   256
1002
}
  0
LINE
  5
EAA3
330
747D
100
AcDbEntity
  8
0
 48
15.0
100
AcDbLine
 10
2119.124842940756
 20
3637.250569887545
 30
0.0
 11
2119.12484294076
 21
2294.750569887543
 31
0.0
  0
LINE
  5
EAA4
330
747D
100
AcDbEntity
  8
0
 48
15.0
100
AcDbLine
 10
2131.124842940756
 20
3637.250569887545
 30
0.0
 11
2131.12484294076
 21
2294.750569887543
 31
0.0
  0
LINE
  5
EAA5
330
747D
100
AcDbEntity
  8
0
 48
15.0
100
AcDbLine
 10
2579.124842940757
 20
3637.250569887545
 30
0.0
 11
2579.124842940754
 21
2294.750569887543
 31
0.0
  0
LINE
  5
EAA6
330
747D
100
AcDbEntity
  8
0
 48
15.0
100
AcDbLine
 10
2591.124842940757
 20
3637.250569887545
 30
0.0
 11
2591.124842940754
 21
2294.750569887543
 31
0.0
  0
ARC
  5
EAA7
330
747D
100
AcDbEntity
  8
0
 48
15.0
100
AcDbCircle
 10
2465.124842940754
 20
2294.750569887543
 30
0.0
 40
114.0
100
AcDbArc
 50
270.0
 51
359.9999999999998
  0
ARC
  5
EAA8
330
747D
100
AcDbEntity
  8
0
 48
15.0
100
AcDbCircle
 10
2465.124842940754
 20
2294.750569887543
 30
0.0
 40
126.0
100
AcDbArc
 50
270.0
 51
359.9999999999998
  0
LINE
  5
EAA9
330
747D
100
AcDbEntity
  8
0
 48
15.0
100
AcDbLine
 10
2245.12484294076
 20
2180.750569887544
 30
0.0
 11
2465.124842940754
 21
2180.750569887544
 31
0.0
  0
LINE
  5
EAAA
330
747D
100
AcDbEntity
  8
0
 48
15.0
100
AcDbLine
 10
2245.12484294076
 20
2168.750569887543
 30
0.0
 11
2465.124842940754
 21
2168.750569887543
 31
0.0
  0
ARC
  5
EAAB
330
747D
100
AcDbEntity
  8
0
 48
15.0
100
AcDbCircle
 10
2245.12484294076
 20
2294.750569887543
 30
0.0
 40
126.0
100
AcDbArc
 50
180.0000000000001
 51
270.0
  0
ARC
  5
EAAC
330
747D
100
AcDbEntity
  8
0
 48
15.0
100
AcDbCircle
 10
2245.12484294076
 20
2294.750569887543
 30
0.0
 40
114.0
100
AcDbArc
 50
180.0000000000001
 51
270.0
  0
ARC
  5
ED61
330
747D
100
AcDbEntity
  8
0
 48
25.0
100
AcDbCircle
 10
2355.124842940756
 20
2637.250569887543
 30
0.0
 40
400.0
100
AcDbArc
 50
255.3183306894776
 51
284.6816693105198
  0
ARC
  5
ED62
330
747D
100
AcDbEntity
  8
0
 48
25.0
100
AcDbCircle
 10
2266.417877469652
 20
2298.678458991048
 30
0.0
 40
50.0
100
AcDbArc
 50
183.5423611921942
 51
255.3183306894773
  0
ARC
  5
ED63
330
747D
100
AcDbEntity
  8
0
 48
25.0
100
AcDbCircle
 10
2443.831808411847
 20
2298.678458991044
 30
0.0
 40
50.0
100
AcDbArc
 50
284.6816693105194
 51
356.4576388078047
  0
LINE
  5
EF07
330
747D
100
AcDbEntity
  8
0
  6
HIDDEN2
 48
15.0
100
AcDbLine
 10
2095.124842940758
 20
3029.750569887544
 30
0.0
 11
2171.158176274091
 21
3028.250569887544
 31
0.0
  0
LINE
  5
EF08
330
747D
100
AcDbEntity
  8
0
  6
HIDDEN2
 48
15.0
100
AcDbLine
 10
2095.124842940758
 20
2994.750569887544
 30
0.0
 11
2173.139128655044
 21
2996.250569887544
 31
0.0
  0
LINE
  5
EF09
330
747D
100
AcDbEntity
  8
0
  6
CENTER2
 48
5.0
100
AcDbLine
 10
2645.124842940755
 20
3012.250569887544
 30
0.0
 11
2508.043605390053
 21
3012.250569887544
 31
0.0
  0
LINE
  5
EF0A
330
747D
100
AcDbEntity
  8
0
  6
HIDDEN2
 48
15.0
100
AcDbLine
 10
2615.124842940755
 20
2994.750569887544
 30
0.0
 11
2537.110557226469
 21
2996.250569887544
 31
0.0
  0
LINE
  5
EF0B
330
747D
100
AcDbEntity
  8
0
  6
HIDDEN2
 48
15.0
100
AcDbLine
 10
2615.124842940755
 20
3029.750569887544
 30
0.0
 11
2539.091509607422
 21
3028.250569887544
 31
0.0
  0
DIMENSION
  5
EF29
330
747D
100
AcDbEntity
  8
寸法引出
 48
25.0
100
AcDbDimension
  2
*D40
 10
2748.712812000572
 20
3012.250569887544
 30
0.0
 11
2698.712812000572
 21
3324.750569887545
 31
0.0
 70
    32
 71
     5
 42
625.0000000000018
  3
SANWA
100
AcDbAlignedDimension
 13
2615.124842940756
 23
3637.250569887545
 33
0.0
 14
2645.124842940755
 24
3012.250569887544
 34
0.0
 50
90.0
100
AcDbRotatedDimension
1001
ACAD
1000
DSTYLE
1002
{
1070
    40
1040
25.0
1070
    41
1040
1.5
1070
    43
1040
5.0
1070
    44
1040
0.5
1070
   140
1040
2.0
1070
   147
1040
1.0
1070
   176
1070
   256
1070
   177
1070
   256
1070
   178
1070
   256
1002
}
  0
MTEXT
  5
EF5B
330
747D
100
AcDbEntity
  8
寸法引出
 48
25.0
100
AcDbMText
 10
5592.542277187251
 20
2839.805506039062
 30
0.0
 40
50.0
 41
0.0
 71
     5
 72
     1
  1
吊り用ｲﾝﾊﾞｰﾄﾊﾝｶﾞｰ
  7
SANWA
 73
     1
 44
1.0
  0
LEADER
  5
EF5C
330
747D
100
AcDbEntity
  8
寸法引出
 48
25.0
100
AcDbLeader
  3
SANWA
 76
     3
 10
5135.579312085314
 20
2999.616790320365
 30
0.0
 10
5278.838179482482
 20
2800.230319201045
 30
0.0
 10
5916.245815884693
 20
2800.230319201045
 30
0.0
1001
ACAD
1000
DSTYLE
1002
{
1070
    77
1070
     0
1070
    40
1040
25.0
1070
    41
1040
1.5
1070
    43
1040
5.0
1070
    44
1040
0.5
1070
   140
1040
2.0
1070
   147
1040
1.0
1070
   176
1070
   256
1070
   177
1070
   256
1070
   178
1070
   256
1002
}
  0
VIEWPORT
  5
7540
330
747A
100
AcDbEntity
 67
     1
  8
0
100
AcDbViewport
 10
2878.243789599006
 20
970.3639114717196
 30
0.0
 40
6257.342359533289
 41
4285.736489239756
 68
     1
 69
     1
 12
2878.243789599006
 22
970.3639114717196
 13
0.0
 23
0.0
 14
10.0
 24
10.0
 15
10.0
 25
10.0
 16
0.0
 26
0.0
 36
1.0
 17
0.0
 27
0.0
 37
0.0
 42
50.0
 43
0.0
 44
0.0
 45
4285.736489239756
 50
0.0
 51
0.0
 72
   100
 90
    32800
  1

281
     0
 71
     1
 74
     0
110
0.0
120
0.0
130
0.0
111
1.0
121
0.0
131
0.0
112
0.0
122
1.0
132
0.0
 79
     0
146
0.0
  0
TEXT
  5
7737
330
747A
100
AcDbEntity
 67
     1
  8
0
 48
2.0
100
AcDbText
 10
331.8711968111849
 20
20.60428158404022
 30
0.0
 40
2.0
  1

  7
SANWA
100
AcDbText
  0
ENDSEC
  0
SECTION
  2
OBJECTS
  0
DICTIONARY
  5
7471
330
0
100
AcDbDictionary
281
     1
  3
ACAD_GROUP
350
7472
  3
ACAD_LAYOUT
350
7F6B
  3
ACAD_MLINESTYLE
350
7473
  3
ACAD_PLOTSETTINGS
350
7F6C
  3
ACAD_PLOTSTYLENAME
350
7F69
  3
AcadDim
350
F269
  3
ACDBVARIABLEDICTIONARY
350
789B
  0
DICTIONARY
  5
7472
102
{ACAD_REACTORS
330
7471
102
}
330
0
100
AcDbDictionary
281
     1
  0
DICTIONARY
  5
7F6B
102
{ACAD_REACTORS
330
7471
102
}
330
7471
100
AcDbDictionary
281
     1
  3
Model
350
7F6D
  3
ﾚｲｱｳﾄ1
350
7F6E
  0
DICTIONARY
  5
7473
102
{ACAD_REACTORS
330
7471
102
}
330
0
100
AcDbDictionary
281
     1
  3
STANDARD
350
7480
  0
DICTIONARY
  5
7F6C
102
{ACAD_REACTORS
330
7471
102
}
330
7471
100
AcDbDictionary
281
     1
  0
ACDBDICTIONARYWDFLT
  5
7F69
102
{ACAD_REACTORS
330
7471
102
}
330
7471
100
AcDbDictionary
281
     1
  3
Normal
350
7F6A
100
AcDbDictionaryWithDefault
340
7F6A
  0
XRECORD
  5
F269
102
{ACAD_REACTORS
330
7471
102
}
330
7471
100
AcDbXrecord
280
     1
 90
   990106
  3

 60
     4
 61
     0
 62
     1
 63
     3
 64
     0
 65
     0
 66
     0
 67
     3
 68
     1
 69
     0
 70
     0
 71
     0
 72
     0
 40
0.0
170
     0
  0
DICTIONARY
  5
789B
102
{ACAD_REACTORS
330
7471
102
}
330
7471
100
AcDbDictionary
281
     1
  3
DIMASSOC
350
7F75
  3
SORTENTS
350
789C
  0
LAYOUT
  5
7F6D
102
{ACAD_REACTORS
330
7F6B
102
}
330
7F6B
100
AcDbPlotSettings
  1

  2
DocuCentre Color f360
  4
A4
  6

 40
4.857749938964843
 41
4.942390441894531
 42
4.942413330078125
 43
4.857757568359375
 44
209.9733276367187
 45
297.0106506347656
 46
5.089999999999999
 47
12.61
 48
1303.460042403167
 49
183.8475284143851
140
7853.460042403167
141
4933.847528414386
142
1.0
143
25.0
 70
 11940
 72
     1
 73
     1
 74
     4
  7
sanwa3.ctb
 75
     0
147
0.04
148
-1303.460042403167
149
-183.8475284143851
100
AcDbLayout
  1
Model
 70
     1
 71
     0
 10
0.0
 20
0.0
 11
12.0
 21
9.0
 12
0.0
 22
0.0
 32
0.0
 14
0.0
 24
0.0
 34
0.0
 15
0.0
 25
0.0
 35
0.0
146
0.0
 13
0.0
 23
0.0
 33
0.0
 16
1.0
 26
0.0
 36
0.0
 17
0.0
 27
1.0
 37
0.0
 76
     0
330
747D
  0
LAYOUT
  5
7F6E
102
{ACAD_REACTORS
330
7F6B
102
}
330
7F6B
100
AcDbPlotSettings
  1

  2
RICOH NX-510
  4
A4
  6

 40
5.873749732971191
 41
4.92125654220581
 42
7.588241577148437
 43
5.81024169921875
 44
209.9944915771484
 45
296.989501953125
 46
0.0
 47
0.0
 48
0.0
 49
0.0
140
0.0
141
0.0
142
1.0
143
20.17331812743451
 70
   688
 72
     1
 73
     1
 74
     1
  7
sanwa3.ctb
 75
     0
147
0.0495704273180553
148
0.1762079097297828
149
1029.28590836146
100
AcDbLayout
  1
ﾚｲｱｳﾄ1
 70
     1
 71
     1
 10
-117.3880621053552
 20
-1147.778930325621
 11
5873.875641303368
 21
3088.506753269061
 12
0.0
 22
0.0
 32
0.0
 14
1.000000000000000E+20
 24
1.000000000000000E+20
 34
1.000000000000000E+20
 15
-1.000000000000000E+20
 25
-1.000000000000000E+20
 35
-1.000000000000000E+20
146
0.0
 13
0.0
 23
0.0
 33
0.0
 16
1.0
 26
0.0
 36
0.0
 17
0.0
 27
1.0
 37
0.0
 76
     0
330
747A
331
7540
  0
MLINESTYLE
  5
7480
102
{ACAD_REACTORS
330
7473
102
}
330
0
100
AcDbMlineStyle
  2
STANDARD
 70
     0
  3

 62
     0
 51
90.0
 52
90.0
 71
     2
 49
0.5
 62
   256
  6
BYLAYER
 49
-0.5
 62
   256
  6
BYLAYER
  0
ACDBPLACEHOLDER
  5
7F6A
102
{ACAD_REACTORS
330
7F69
102
}
330
7F69
  0
DICTIONARYVAR
  5
7F75
102
{ACAD_REACTORS
330
789B
102
}
330
789B
100
DictionaryVariables
280
     0
  1
1
  0
DICTIONARYVAR
  5
789C
102
{ACAD_REACTORS
330
789B
102
}
330
789B
100
DictionaryVariables
280
     0
  1
96
  0
ENDSEC
  0
EOF
