  0
SECTION
  2
HEADER
  9
$ACADVER
  1
AC1015
  9
$ACADMAINTVER
 70
    13
  9
$DWGCODEPAGE
  3
ANSI_932
  9
$INSBASE
 10
0.0
 20
0.0
 30
0.0
  9
$EXTMIN
 10
-0.4472577154574538
 20
-0.1699162403856462
 30
-0.0000000000000053
  9
$EXTMAX
 10
7425.157927612064
 20
5250.040481620316
 30
0.0000000000000099
  9
$LIMMIN
 10
0.0
 20
0.0
  9
$LIMMAX
 10
420.0
 20
297.0
  9
$ORTHOMODE
 70
     1
  9
$REGENMODE
 70
     1
  9
$FILLMODE
 70
     1
  9
$QTEXTMODE
 70
     0
  9
$MIRRTEXT
 70
     1
  9
$LTSCALE
 40
0.5
  9
$ATTMODE
 70
     1
  9
$TEXTSIZE
 40
2.799999999999999
  9
$TRACEWID
 40
1.0
  9
$TEXTSTYLE
  7
SANWA
  9
$CLAYER
  8
0
  9
$CELTYPE
  6
BYLAYER
  9
$CECOLOR
 62
   256
  9
$CELTSCALE
 40
25.0
  9
$DISPSILH
 70
     0
  9
$DIMSCALE
 40
25.0
  9
$DIMASZ
 40
1.5
  9
$DIMEXO
 40
1.0
  9
$DIMDLI
 40
5.0
  9
$DIMRND
 40
0.0
  9
$DIMDLE
 40
0.0
  9
$DIMEXE
 40
0.5
  9
$DIMTP
 40
0.0
  9
$DIMTM
 40
0.0
  9
$DIMTXT
 40
2.0
  9
$DIMCEN
 40
0.0
  9
$DIMTSZ
 40
0.0
  9
$DIMTOL
 70
     0
  9
$DIMLIM
 70
     0
  9
$DIMTIH
 70
     0
  9
$DIMTOH
 70
     0
  9
$DIMSE1
 70
     0
  9
$DIMSE2
 70
     0
  9
$DIMTAD
 70
     1
  9
$DIMZIN
 70
     8
  9
$DIMBLK
  1

  9
$DIMASO
 70
     1
  9
$DIMSHO
 70
     1
  9
$DIMPOST
  1

  9
$DIMAPOST
  1

  9
$DIMALT
 70
     0
  9
$DIMALTD
 70
     2
  9
$DIMALTF
 40
0.0394
  9
$DIMLFAC
 40
1.0
  9
$DIMTOFL
 70
     1
  9
$DIMTVP
 40
0.0
  9
$DIMTIX
 70
     1
  9
$DIMSOXD
 70
     0
  9
$DIMSAH
 70
     0
  9
$DIMBLK1
  1

  9
$DIMBLK2
  1

  9
$DIMSTYLE
  2
SANWA
  9
$DIMCLRD
 70
   256
  9
$DIMCLRE
 70
   256
  9
$DIMCLRT
 70
   256
  9
$DIMTFAC
 40
1.0
  9
$DIMGAP
 40
1.0
  9
$DIMJUST
 70
     0
  9
$DIMSD1
 70
     0
  9
$DIMSD2
 70
     0
  9
$DIMTOLJ
 70
     1
  9
$DIMTZIN
 70
     0
  9
$DIMALTZ
 70
     0
  9
$DIMALTTZ
 70
     0
  9
$DIMUPT
 70
     0
  9
$DIMDEC
 70
     4
  9
$DIMTDEC
 70
     4
  9
$DIMALTU
 70
     2
  9
$DIMALTTD
 70
     2
  9
$DIMTXSTY
  7
SANWA
  9
$DIMAUNIT
 70
     0
  9
$DIMADEC
 70
     0
  9
$DIMALTRND
 40
0.0
  9
$DIMAZIN
 70
     0
  9
$DIMDSEP
 70
    46
  9
$DIMATFIT
 70
     3
  9
$DIMFRAC
 70
     0
  9
$DIMLDRBLK
  1

  9
$DIMLUNIT
 70
     2
  9
$DIMLWD
 70
    -2
  9
$DIMLWE
 70
    -2
  9
$DIMTMOVE
 70
     0
  9
$LUNITS
 70
     2
  9
$LUPREC
 70
     4
  9
$SKETCHINC
 40
1.0
  9
$FILLETRAD
 40
60.0
  9
$AUNITS
 70
     0
  9
$AUPREC
 70
     0
  9
$MENU
  1
acad
  9
$ELEVATION
 40
0.0
  9
$PELEVATION
 40
0.0
  9
$THICKNESS
 40
0.0
  9
$LIMCHECK
 70
     0
  9
$CHAMFERA
 40
0.0
  9
$CHAMFERB
 40
0.0
  9
$CHAMFERC
 40
0.0
  9
$CHAMFERD
 40
0.0
  9
$SKPOLY
 70
     1
  9
$TDCREATE
 40
2451806.361679282
  9
$TDUCREATE
 40
2451805.986679282
  9
$TDUPDATE
 40
2454167.402638518
  9
$TDUUPDATE
 40
2454167.027638518
  9
$TDINDWG
 40
0.5466614699
  9
$TDUSRTIMER
 40
0.5466614699
  9
$USRTIMER
 70
     1
  9
$ANGBASE
 50
0.0
  9
$ANGDIR
 70
     0
  9
$PDMODE
 70
     0
  9
$PDSIZE
 40
0.0
  9
$PLINEWID
 40
0.0
  9
$SPLFRAME
 70
     0
  9
$SPLINETYPE
 70
     6
  9
$SPLINESEGS
 70
     8
  9
$HANDSEED
  5
CC4D
  9
$SURFTAB1
 70
     6
  9
$SURFTAB2
 70
     6
  9
$SURFTYPE
 70
     6
  9
$SURFU
 70
     6
  9
$SURFV
 70
     6
  9
$UCSBASE
  2

  9
$UCSNAME
  2

  9
$UCSORG
 10
0.0
 20
0.0
 30
0.0
  9
$UCSXDIR
 10
1.0
 20
0.0
 30
0.0
  9
$UCSYDIR
 10
0.0
 20
1.0
 30
0.0
  9
$UCSORTHOREF
  2

  9
$UCSORTHOVIEW
 70
     0
  9
$UCSORGTOP
 10
0.0
 20
0.0
 30
0.0
  9
$UCSORGBOTTOM
 10
0.0
 20
0.0
 30
0.0
  9
$UCSORGLEFT
 10
0.0
 20
0.0
 30
0.0
  9
$UCSORGRIGHT
 10
0.0
 20
0.0
 30
0.0
  9
$UCSORGFRONT
 10
0.0
 20
0.0
 30
0.0
  9
$UCSORGBACK
 10
0.0
 20
0.0
 30
0.0
  9
$PUCSBASE
  2

  9
$PUCSNAME
  2

  9
$PUCSORG
 10
0.0
 20
0.0
 30
0.0
  9
$PUCSXDIR
 10
1.0
 20
0.0
 30
0.0
  9
$PUCSYDIR
 10
0.0
 20
1.0
 30
0.0
  9
$PUCSORTHOREF
  2

  9
$PUCSORTHOVIEW
 70
     0
  9
$PUCSORGTOP
 10
0.0
 20
0.0
 30
0.0
  9
$PUCSORGBOTTOM
 10
0.0
 20
0.0
 30
0.0
  9
$PUCSORGLEFT
 10
0.0
 20
0.0
 30
0.0
  9
$PUCSORGRIGHT
 10
0.0
 20
0.0
 30
0.0
  9
$PUCSORGFRONT
 10
0.0
 20
0.0
 30
0.0
  9
$PUCSORGBACK
 10
0.0
 20
0.0
 30
0.0
  9
$USERI1
 70
     0
  9
$USERI2
 70
     0
  9
$USERI3
 70
     0
  9
$USERI4
 70
     0
  9
$USERI5
 70
     0
  9
$USERR1
 40
0.0
  9
$USERR2
 40
0.0
  9
$USERR3
 40
0.0
  9
$USERR4
 40
0.0
  9
$USERR5
 40
0.0
  9
$WORLDVIEW
 70
     1
  9
$SHADEDGE
 70
     3
  9
$SHADEDIF
 70
    70
  9
$TILEMODE
 70
     1
  9
$MAXACTVP
 70
    48
  9
$PINSBASE
 10
0.0
 20
0.0
 30
0.0
  9
$PLIMCHECK
 70
     0
  9
$PEXTMIN
 10
1.000000000000000E+20
 20
1.000000000000000E+20
 30
1.000000000000000E+20
  9
$PEXTMAX
 10
-1.000000000000000E+20
 20
-1.000000000000000E+20
 30
-1.000000000000000E+20
  9
$PLIMMIN
 10
-117.3880621053552
 20
-1147.778930325621
  9
$PLIMMAX
 10
5873.875641303368
 20
3088.506753269061
  9
$UNITMODE
 70
     0
  9
$VISRETAIN
 70
     1
  9
$PLINEGEN
 70
     0
  9
$PSLTSCALE
 70
     1
  9
$TREEDEPTH
 70
  3020
  9
$CMLSTYLE
  2
STANDARD
  9
$CMLJUST
 70
     0
  9
$CMLSCALE
 40
1.0
  9
$PROXYGRAPHICS
 70
     1
  9
$MEASUREMENT
 70
     1
  9
$CELWEIGHT
370
    -1
  9
$ENDCAPS
280
     0
  9
$JOINSTYLE
280
     0
  9
$LWDISPLAY
290
     0
  9
$INSUNITS
 70
     0
  9
$HYPERLINKBASE
  1

  9
$STYLESHEET
  1
sanwa3.ctb
  9
$XEDIT
290
     1
  9
$CEPSNTYPE
380
     0
  9
$PSTYLEMODE
290
     1
  9
$FINGERPRINTGUID
  2
{FF69E217-7CBD-426C-8D1A-915AA093CE5F}
  9
$VERSIONGUID
  2
{BFEF4BE8-CD53-454A-B6A9-7931CB90EB53}
  9
$EXTNAMES
290
     1
  9
$PSVPSCALE
 40
0.0
  9
$OLESTARTUP
290
     0
  0
ENDSEC
  0
SECTION
  2
CLASSES
  0
CLASS
  1
LWPOLYLINE
  2
AcDbPolyline
  3
AutoCAD 2000
 90
    32768
280
     0
281
     1
  0
CLASS
  1
DICTIONARYVAR
  2
AcDbDictionaryVar
  3
AutoCAD 2000
 90
        0
280
     0
281
     0
  0
CLASS
  1
HATCH
  2
AcDbHatch
  3
AutoCAD 2000
 90
    32768
280
     0
281
     1
  0
CLASS
  1
ACDBDICTIONARYWDFLT
  2
AcDbDictionaryWithDefault
  3
AutoCAD 2000
 90
        0
280
     0
281
     0
  0
CLASS
  1
ACDBPLACEHOLDER
  2
AcDbPlaceHolder
  3
AutoCAD 2000
 90
        0
280
     0
281
     0
  0
CLASS
  1
LAYOUT
  2
AcDbLayout
  3
AutoCAD 2000
 90
        0
280
     0
281
     0
  0
ENDSEC
  0
SECTION
  2
TABLES
  0
TABLE
  2
VPORT
  5
746D
330
0
100
AcDbSymbolTable
 70
     2
  0
VPORT
  5
CC4C
330
746D
100
AcDbSymbolTableRecord
100
AcDbViewportTableRecord
  2
*Active
 70
     0
 10
0.0
 20
0.0
 11
1.0
 21
1.0
 12
3712.355322905145
 22
2624.9352824103
 13
0.0
 23
0.0
 14
10.0
 24
10.0
 15
10.0
 25
10.0
 16
0.0
 26
0.0
 36
1.0
 17
0.0
 27
0.0
 37
0.0
 40
5588.841996184903
 41
1.393129770992366
 42
50.0
 43
0.0
 44
0.0
 50
0.0
 51
0.0
 71
     0
 72
   100
 73
     1
 74
     0
 75
     0
 76
     0
 77
     0
 78
     0
281
     0
 65
     1
110
0.0
120
0.0
130
0.0
111
1.0
121
0.0
131
0.0
112
0.0
122
1.0
132
0.0
 79
     0
146
0.0
  0
ENDTAB
  0
TABLE
  2
LTYPE
  5
746A
330
0
100
AcDbSymbolTable
 70
     5
  0
LTYPE
  5
7477
330
746A
100
AcDbSymbolTableRecord
100
AcDbLinetypeTableRecord
  2
BYBLOCK
 70
     0
  3

 72
    65
 73
     0
 40
0.0
  0
LTYPE
  5
7478
330
746A
100
AcDbSymbolTableRecord
100
AcDbLinetypeTableRecord
  2
BYLAYER
 70
     0
  3

 72
    65
 73
     0
 40
0.0
  0
LTYPE
  5
7479
330
746A
100
AcDbSymbolTableRecord
100
AcDbLinetypeTableRecord
  2
CONTINUOUS
 70
     0
  3
Solid line
 72
    65
 73
     0
 40
0.0
  0
LTYPE
  5
7D54
330
746A
100
AcDbSymbolTableRecord
100
AcDbLinetypeTableRecord
  2
CENTER2
 70
     0
  3
Center (.5x) ___ _ ___ _ ___ _ ___ _ ___ _ ___
 72
    65
 73
     4
 40
28.57499999999999
 49
19.05
 74
     0
 49
-3.174999999999999
 74
     0
 49
3.174999999999999
 74
     0
 49
-3.174999999999999
 74
     0
  0
LTYPE
  5
7D55
330
746A
100
AcDbSymbolTableRecord
100
AcDbLinetypeTableRecord
  2
DOT
 70
     0
  3
Dot . . . . . . . . . . . . . . . . . . . . . .
 72
    65
 73
     2
 40
6.349999999999999
 49
0.0
 74
     0
 49
-6.349999999999999
 74
     0
  0
LTYPE
  5
7D56
330
746A
100
AcDbSymbolTableRecord
100
AcDbLinetypeTableRecord
  2
HIDDEN2
 70
     0
  3
Hidden (.5x) _ _ _ _ _ _ _ _ _ _ _ _ _ _ _ _ _
 72
    65
 73
     2
 40
4.762499999999999
 49
3.174999999999999
 74
     0
 49
-1.587499999999999
 74
     0
  0
LTYPE
  5
7D57
330
746A
100
AcDbSymbolTableRecord
100
AcDbLinetypeTableRecord
  2
PHANTOM2
 70
     0
  3
Phantom (.5x) ___ _ _ ___ _ _ ___ _ _ ___ _ _
 72
    65
 73
     6
 40
31.75
 49
15.875
 74
     0
 49
-3.174999999999999
 74
     0
 49
3.174999999999999
 74
     0
 49
-3.174999999999999
 74
     0
 49
3.174999999999999
 74
     0
 49
-3.174999999999999
 74
     0
  0
ENDTAB
  0
TABLE
  2
LAYER
  5
7467
330
0
100
AcDbSymbolTable
 70
     8
  0
LAYER
  5
7474
330
7467
100
AcDbSymbolTableRecord
100
AcDbLayerTableRecord
  2
0
 70
     0
 62
     7
  6
CONTINUOUS
370
    -3
390
7F6A
  0
LAYER
  5
7485
330
7467
100
AcDbSymbolTableRecord
100
AcDbLayerTableRecord
  2
DEFPOINTS
 70
     0
 62
     7
  6
CONTINUOUS
290
     0
370
    -3
390
7F6A
  0
LAYER
  5
7486
330
7467
100
AcDbSymbolTableRecord
100
AcDbLayerTableRecord
  2
OBJECT
 70
     0
 62
     7
  6
CONTINUOUS
370
    -3
390
7F6A
  0
LAYER
  5
7950
330
7467
100
AcDbSymbolTableRecord
100
AcDbLayerTableRecord
  2
枠
 70
     0
 62
     3
  6
CONTINUOUS
370
    -3
390
7F6A
  0
LAYER
  5
7D58
330
7467
100
AcDbSymbolTableRecord
100
AcDbLayerTableRecord
  2
寸法引出
 70
     0
 62
     2
  6
CONTINUOUS
370
    -3
390
7F6A
  0
LAYER
  5
7D59
330
7467
100
AcDbSymbolTableRecord
100
AcDbLayerTableRecord
  2
鉄筋
 70
     0
 62
     4
  6
CONTINUOUS
370
    -3
390
7F6A
  0
LAYER
  5
7D5A
330
7467
100
AcDbSymbolTableRecord
100
AcDbLayerTableRecord
  2
補助線
 70
     0
 62
     6
  6
CONTINUOUS
370
    -3
390
7F6A
  0
LAYER
  5
81DF
330
7467
100
AcDbSymbolTableRecord
100
AcDbLayerTableRecord
  2
ASHADE
 70
     4
 62
     7
  6
CONTINUOUS
370
    -3
390
7F6A
  0
ENDTAB
  0
TABLE
  2
STYLE
  5
7468
330
0
100
AcDbSymbolTable
 70
     5
  0
STYLE
  5
7475
330
7468
100
AcDbSymbolTableRecord
100
AcDbTextStyleTableRecord
  2
STANDARD
 70
     0
 40
0.0
 41
1.0
 50
0.0
 71
     0
 42
3.5
  3
txt
  4

  0
STYLE
  5
7481
330
7468
100
AcDbSymbolTableRecord
100
AcDbTextStyleTableRecord
  2
ADESK1
 70
     0
 40
0.0
 41
1.0
 50
0.0
 71
     0
 42
5.0
  3
romans
  4
bigfont
  0
STYLE
  5
7731
330
7468
100
AcDbSymbolTableRecord
100
AcDbTextStyleTableRecord
  2
SANWA
 70
     0
 40
0.0
 41
1.0
 50
0.0
 71
     0
 42
2.799999999999999
  3
MS Mincho.ttf
  4

1001
ACAD
1000
MS Mincho
1071
    32785
  0
STYLE
  5
7D45
330
7468
100
AcDbSymbolTableRecord
100
AcDbTextStyleTableRecord
  2

 70
     1
 40
0.0
 41
1.0
 50
0.0
 71
     0
 42
3.5
  3
ltypeshp.shx
  4

  0
STYLE
  5
81DC
330
7468
100
AcDbSymbolTableRecord
100
AcDbTextStyleTableRecord
  2
ASHADE
 70
     0
 40
0.2
 41
1.0
 50
0.0
 71
     0
 42
2.799999999999999
  3
txt.shx
  4
bigfont.shx
  0
ENDTAB
  0
TABLE
  2
VIEW
  5
746B
330
0
100
AcDbSymbolTable
 70
     0
  0
ENDTAB
  0
TABLE
  2
UCS
  5
746C
330
0
100
AcDbSymbolTable
 70
     0
  0
ENDTAB
  0
TABLE
  2
APPID
  5
746E
330
0
100
AcDbSymbolTable
 70
     6
  0
APPID
  5
7476
330
746E
100
AcDbSymbolTableRecord
100
AcDbRegAppTableRecord
  2
ACAD
 70
     0
  0
APPID
  5
81DD
330
746E
100
AcDbSymbolTableRecord
100
AcDbRegAppTableRecord
  2
AVE_RENDER
 70
     0
  0
APPID
  5
81DE
330
746E
100
AcDbSymbolTableRecord
100
AcDbRegAppTableRecord
  2
AVE_ENTITY_MATERIAL
 70
     0
  0
APPID
  5
81EB
330
746E
100
AcDbSymbolTableRecord
100
AcDbRegAppTableRecord
  2
AVE_FINISH
 70
     0
  0
APPID
  5
81EC
330
746E
100
AcDbSymbolTableRecord
100
AcDbRegAppTableRecord
  2
AVE_MATERIAL
 70
     0
  0
APPID
  5
81ED
330
746E
100
AcDbSymbolTableRecord
100
AcDbRegAppTableRecord
  2
AVE_GLOBAL
 70
     0
  0
ENDTAB
  0
TABLE
  2
DIMSTYLE
  5
746F
330
0
100
AcDbSymbolTable
 70
     4
100
AcDbDimStyleTable
 71
     1
340
796F
  0
DIMSTYLE
105
7484
330
746F
100
AcDbSymbolTableRecord
100
AcDbDimStyleTableRecord
  2
JIS
 70
     0
 41
2.5
 42
1.0
 43
7.0
 44
1.0
 73
     0
 74
     0
 77
     1
 78
     8
140
2.5
141
0.0
143
0.0394
147
0.0
172
     1
174
     1
176
     2
177
     2
178
     2
340
7731
  0
DIMSTYLE
105
796F
102
{ACAD_REACTORS
330
C196
330
C195
330
C1C6
330
C1C5
330
C1C7
330
C1C8
330
C1C4
330
C1E5
330
C0EF
330
C0EE
330
C105
330
C101
330
C114
330
C142
330
C141
330
C157
330
C19B
330
C19A
330
C199
330
C198
330
C1A4
330
C647
330
C656
330
C663
102
}
330
746F
100
AcDbSymbolTableRecord
100
AcDbDimStyleTableRecord
  2
SANWA
 70
     0
 41
2.5
 42
1.0
 43
7.0
 44
1.0
 73
     0
 74
     0
 77
     1
 78
     8
140
2.5
141
0.0
143
0.0394
147
0.0
172
     1
174
     1
176
     2
177
     2
178
     2
340
7731
  0
DIMSTYLE
105
7C9D
330
746F
100
AcDbSymbolTableRecord
100
AcDbDimStyleTableRecord
  2
SANWA$4
 70
     0
 41
2.5
 42
1.0
 43
5.0
 44
1.0
 73
     0
 74
     0
 77
     1
 78
     8
140
2.5
141
0.0
143
0.0394
147
1.0
172
     1
174
     1
176
     2
177
     2
178
     2
289
     2
340
7731
  0
DIMSTYLE
105
7CB5
330
746F
100
AcDbSymbolTableRecord
100
AcDbDimStyleTableRecord
  2
SANWA$3
 70
     0
 41
2.5
 42
1.0
 43
7.0
 44
1.0
 73
     0
 74
     0
 77
     1
 78
     8
140
2.5
141
0.0
143
0.0394
147
0.0
172
     1
174
     1
176
     2
177
     2
178
     2
289
     0
340
7731
  0
ENDTAB
  0
TABLE
  2
BLOCK_RECORD
  5
7466
330
0
100
AcDbSymbolTable
 70
    34
  0
BLOCK_RECORD
  5
747D
330
7466
100
AcDbSymbolTableRecord
100
AcDbBlockTableRecord
  2
*MODEL_SPACE
340
7F6D
  0
BLOCK_RECORD
  5
747A
330
7466
100
AcDbSymbolTableRecord
100
AcDbBlockTableRecord
  2
*PAPER_SPACE
340
7F6E
  0
BLOCK_RECORD
  5
7493
330
7466
100
AcDbSymbolTableRecord
100
AcDbBlockTableRecord
  2
TITLE_BLOCK
340
0
  0
BLOCK_RECORD
  5
81E0
330
7466
100
AcDbSymbolTableRecord
100
AcDbBlockTableRecord
  2
AVE_RENDER
340
0
102
{BLKREFS
331
81E3
331
81E4
331
81E5
331
81E6
331
81E7
331
81E8
331
81E9
331
81EA
102
}
  0
BLOCK_RECORD
  5
81EE
330
7466
100
AcDbSymbolTableRecord
100
AcDbBlockTableRecord
  2
AVE_GLOBAL
340
0
102
{BLKREFS
331
81F1
102
}
  0
BLOCK_RECORD
  5
B5E5
330
7466
100
AcDbSymbolTableRecord
100
AcDbBlockTableRecord
  2
*D3
340
0
  0
BLOCK_RECORD
  5
B5F1
330
7466
100
AcDbSymbolTableRecord
100
AcDbBlockTableRecord
  2
*D4
340
0
  0
BLOCK_RECORD
  5
B5FF
330
7466
100
AcDbSymbolTableRecord
100
AcDbBlockTableRecord
  2
*D5
340
0
  0
BLOCK_RECORD
  5
B60B
330
7466
100
AcDbSymbolTableRecord
100
AcDbBlockTableRecord
  2
*D6
340
0
  0
BLOCK_RECORD
  5
B617
330
7466
100
AcDbSymbolTableRecord
100
AcDbBlockTableRecord
  2
*D7
340
0
  0
BLOCK_RECORD
  5
B623
330
7466
100
AcDbSymbolTableRecord
100
AcDbBlockTableRecord
  2
*D8
340
0
  0
BLOCK_RECORD
  5
B62F
330
7466
100
AcDbSymbolTableRecord
100
AcDbBlockTableRecord
  2
A$C2A7F6572
340
0
  0
BLOCK_RECORD
  5
C1F4
330
7466
100
AcDbSymbolTableRecord
100
AcDbBlockTableRecord
  2
*D10
340
0
  0
BLOCK_RECORD
  5
C200
330
7466
100
AcDbSymbolTableRecord
100
AcDbBlockTableRecord
  2
*D11
340
0
  0
BLOCK_RECORD
  5
C20C
330
7466
100
AcDbSymbolTableRecord
100
AcDbBlockTableRecord
  2
*D12
340
0
  0
BLOCK_RECORD
  5
C218
330
7466
100
AcDbSymbolTableRecord
100
AcDbBlockTableRecord
  2
*D13
340
0
  0
BLOCK_RECORD
  5
C226
330
7466
100
AcDbSymbolTableRecord
100
AcDbBlockTableRecord
  2
*D14
340
0
  0
BLOCK_RECORD
  5
C234
330
7466
100
AcDbSymbolTableRecord
100
AcDbBlockTableRecord
  2
*D15
340
0
  0
BLOCK_RECORD
  5
C240
330
7466
100
AcDbSymbolTableRecord
100
AcDbBlockTableRecord
  2
*D16
340
0
  0
BLOCK_RECORD
  5
C24C
330
7466
100
AcDbSymbolTableRecord
100
AcDbBlockTableRecord
  2
*D17
340
0
  0
BLOCK_RECORD
  5
C25A
330
7466
100
AcDbSymbolTableRecord
100
AcDbBlockTableRecord
  2
*D18
340
0
  0
BLOCK_RECORD
  5
C266
330
7466
100
AcDbSymbolTableRecord
100
AcDbBlockTableRecord
  2
*D19
340
0
  0
BLOCK_RECORD
  5
C272
330
7466
100
AcDbSymbolTableRecord
100
AcDbBlockTableRecord
  2
*D20
340
0
  0
BLOCK_RECORD
  5
C27E
330
7466
100
AcDbSymbolTableRecord
100
AcDbBlockTableRecord
  2
*D21
340
0
  0
BLOCK_RECORD
  5
C28A
330
7466
100
AcDbSymbolTableRecord
100
AcDbBlockTableRecord
  2
*D22
340
0
  0
BLOCK_RECORD
  5
C298
330
7466
100
AcDbSymbolTableRecord
100
AcDbBlockTableRecord
  2
*D23
340
0
  0
BLOCK_RECORD
  5
C2A4
330
7466
100
AcDbSymbolTableRecord
100
AcDbBlockTableRecord
  2
*D24
340
0
  0
BLOCK_RECORD
  5
C2C0
330
7466
100
AcDbSymbolTableRecord
100
AcDbBlockTableRecord
  2
*D25
340
0
  0
BLOCK_RECORD
  5
C2E8
330
7466
100
AcDbSymbolTableRecord
100
AcDbBlockTableRecord
  2
*D26
340
0
  0
BLOCK_RECORD
  5
C2F4
330
7466
100
AcDbSymbolTableRecord
100
AcDbBlockTableRecord
  2
*D27
340
0
  0
BLOCK_RECORD
  5
C302
330
7466
100
AcDbSymbolTableRecord
100
AcDbBlockTableRecord
  2
*D28
340
0
  0
BLOCK_RECORD
  5
C30E
330
7466
100
AcDbSymbolTableRecord
100
AcDbBlockTableRecord
  2
*D29
340
0
  0
BLOCK_RECORD
  5
C32A
330
7466
100
AcDbSymbolTableRecord
100
AcDbBlockTableRecord
  2
*D30
340
0
  0
BLOCK_RECORD
  5
C648
330
7466
100
AcDbSymbolTableRecord
100
AcDbBlockTableRecord
  2
*D31
340
0
  0
BLOCK_RECORD
  5
C657
330
7466
100
AcDbSymbolTableRecord
100
AcDbBlockTableRecord
  2
*D32
340
0
  0
BLOCK_RECORD
  5
C664
330
7466
100
AcDbSymbolTableRecord
100
AcDbBlockTableRecord
  2
*D33
340
0
  0
ENDTAB
  0
ENDSEC
  0
SECTION
  2
BLOCKS
  0
BLOCK
  5
7489
330
747D
100
AcDbEntity
  8
0
100
AcDbBlockBegin
  2
*MODEL_SPACE
 70
     0
 10
0.0
 20
0.0
 30
0.0
  3
*MODEL_SPACE
  1

  0
ENDBLK
  5
748A
330
747D
100
AcDbEntity
  8
0
100
AcDbBlockEnd
  0
BLOCK
  5
7487
330
747A
100
AcDbEntity
 67
     1
  8
0
100
AcDbBlockBegin
  2
*PAPER_SPACE
 70
     2
 10
0.0
 20
0.0
 30
0.0
  3
*PAPER_SPACE
  1

  0
ENDBLK
  5
7488
330
747A
100
AcDbEntity
 67
     1
  8
0
100
AcDbBlockEnd
  0
BLOCK
  5
7494
330
7493
100
AcDbEntity
  8
0
100
AcDbBlockBegin
  2
TITLE_BLOCK
 70
     2
 10
0.0
 20
0.0
 30
0.0
  3
TITLE_BLOCK
  1

  0
LINE
  5
7495
330
7493
100
AcDbEntity
  8
0
 62
     0
100
AcDbLine
 10
402.7943262411347
 20
16.00000000000008
 30
0.0
 11
410.0
 21
16.00000000000008
 31
0.0
  0
LINE
  5
7496
330
7493
100
AcDbEntity
  8
0
 62
     0
100
AcDbLine
 10
410.0
 20
10.0
 30
0.0
 11
410.0
 21
49.00000000000036
 31
0.0
  0
LINE
  5
7497
330
7493
100
AcDbEntity
  8
0
 62
     0
100
AcDbLine
 10
410.0
 20
49.00000000000036
 30
0.0
 11
410.0
 21
10.0
 31
0.0
  0
LINE
  5
7498
330
7493
100
AcDbEntity
  8
0
 62
     0
100
AcDbLine
 10
402.7943262411347
 20
22.00000000000012
 30
0.0
 11
402.7943262411347
 21
10.0
 31
0.0
  0
LINE
  5
7499
330
7493
100
AcDbEntity
  8
0
 62
     0
100
AcDbLine
 10
336.1418439716306
 20
49.00000000000036
 30
0.0
 11
336.1418439716306
 21
22.00000000000012
 31
0.0
  0
LINE
  5
749A
330
7493
100
AcDbEntity
  8
0
 62
     0
100
AcDbLine
 10
325.3333333333325
 20
37.00000000000024
 30
0.0
 11
325.3333333333325
 21
25.00000000000012
 31
0.0
  0
LINE
  5
749B
330
7493
100
AcDbEntity
  8
0
 62
     0
100
AcDbLine
 10
318.1276595744673
 20
49.00000000000036
 30
0.0
 11
318.1276595744673
 21
25.00000000000012
 31
0.0
  0
LINE
  5
749C
330
7493
100
AcDbEntity
  8
0
 62
     0
100
AcDbLine
 10
318.1276595744673
 20
25.00000000000012
 30
0.0
 11
348.7517730496447
 21
25.00000000000012
 31
0.0
  0
LINE
  5
749D
330
7493
100
AcDbEntity
  8
0
 62
     0
100
AcDbLine
 10
280.2978723404241
 20
28.00000000000015
 30
0.0
 11
348.7517730496447
 21
28.00000000000015
 31
0.0
  0
LINE
  5
749E
330
7493
100
AcDbEntity
  8
0
 62
     0
100
AcDbLine
 10
280.2978723404241
 20
31.0000000000002
 30
0.0
 11
348.7517730496447
 21
31.0000000000002
 31
0.0
  0
LINE
  5
749F
330
7493
100
AcDbEntity
  8
0
 62
     0
100
AcDbLine
 10
280.2978723404241
 20
34.00000000000024
 30
0.0
 11
348.7517730496447
 21
34.00000000000024
 31
0.0
  0
LINE
  5
74A0
330
7493
100
AcDbEntity
  8
0
 62
     0
100
AcDbLine
 10
280.2978723404241
 20
19.00000000000007
 30
0.0
 11
318.1276595744673
 21
19.00000000000012
 31
0.0
  0
LINE
  5
74A1
330
7493
100
AcDbEntity
  8
0
 62
     0
100
AcDbLine
 10
280.2978723404241
 20
22.00000000000007
 30
0.0
 11
318.1276595744673
 21
22.00000000000012
 31
0.0
  0
LINE
  5
74A2
330
7493
100
AcDbEntity
  8
0
 62
     0
100
AcDbLine
 10
280.2978723404241
 20
25.00000000000012
 30
0.0
 11
318.1276595744673
 21
25.00000000000012
 31
0.0
  0
TEXT
  5
74A3
330
7493
100
AcDbEntity
  8
0
 62
     0
100
AcDbText
 10
342.2447163844405
 20
10.55220101068186
 30
0.0
 40
1.791674070777747
  1
照査
  7
ADESK1
 72
     1
 11
344.1558353932701
 21
10.55220101068186
 31
0.0
100
AcDbText
  0
TEXT
  5
74A4
330
7493
100
AcDbEntity
  8
0
 62
     0
100
AcDbText
 10
332.2960689314087
 20
10.48329012996929
 30
0.0
 40
1.791674070777747
  1
設計
  7
ADESK1
 72
     1
 11
334.2071879402383
 21
10.48329012996929
 31
0.0
100
AcDbText
  0
TEXT
  5
74A5
330
7493
100
AcDbEntity
  8
0
 62
     0
100
AcDbText
 10
321.7174935280942
 20
10.48329012996929
 30
0.0
 40
1.791674070777747
  1
製図
  7
ADESK1
 72
     1
 11
323.5688900678979
 21
10.48329012996929
 31
0.0
100
AcDbText
  0
LINE
  5
74A6
330
7493
100
AcDbEntity
  8
0
 62
     0
100
AcDbLine
 10
280.2978723404241
 20
10.0
 30
0.0
 11
280.2978723404241
 21
13.00000000000004
 31
0.0
  0
LINE
  5
74A7
330
7493
100
AcDbEntity
  8
0
 62
     0
100
AcDbLine
 10
280.2978723404241
 20
16.00000000000008
 30
0.0
 11
318.1276595744673
 21
16.00000000000008
 31
0.0
  0
LINE
  5
74A8
330
7493
100
AcDbEntity
  8
0
 62
     0
100
AcDbLine
 10
339.4042553191484
 20
22.00000000000007
 30
0.0
 11
339.4042553191484
 21
10.0
 31
0.0
  0
LINE
  5
74A9
330
7493
100
AcDbEntity
  8
0
 62
     0
100
AcDbLine
 10
328.7659574468077
 20
22.00000000000007
 30
0.0
 11
328.7659574468077
 21
10.0
 31
0.0
  0
LINE
  5
74AA
330
7493
100
AcDbEntity
  8
0
 62
     0
100
AcDbLine
 10
348.7517730496447
 20
49.00000000000036
 30
0.0
 11
348.7517730496447
 21
10.0
 31
0.0
  0
LINE
  5
74AB
330
7493
100
AcDbEntity
  8
0
 62
     0
100
AcDbLine
 10
280.2978723404241
 20
49.00000000000036
 30
0.0
 11
280.2978723404241
 21
10.0
 31
0.0
  0
LINE
  5
74AC
330
7493
100
AcDbEntity
  8
0
 62
     0
100
AcDbLine
 10
318.1276595744673
 20
25.00000000000012
 30
0.0
 11
318.1276595744673
 21
10.0
 31
0.0
  0
LINE
  5
74AD
330
7493
100
AcDbEntity
  8
0
 62
     0
100
AcDbLine
 10
312.7234042553184
 20
37.00000000000024
 30
0.0
 11
312.7234042553184
 21
10.0
 31
0.0
  0
LINE
  5
74AE
330
7493
100
AcDbEntity
  8
0
 62
     0
100
AcDbLine
 10
285.702127659573
 20
37.00000000000024
 30
0.0
 11
285.702127659573
 21
10.0
 31
0.0
  0
LINE
  5
74AF
330
7493
100
AcDbEntity
  8
0
 62
     0
100
AcDbLine
 10
303.7163120567365
 20
37.00000000000024
 30
0.0
 11
303.7163120567365
 21
10.0
 31
0.0
  0
LINE
  5
74B0
330
7493
100
AcDbEntity
  8
0
 62
     0
100
AcDbLine
 10
410.0
 20
49.00000000000036
 30
0.0
 11
280.2978723404241
 21
49.00000000000036
 31
0.0
  0
LINE
  5
74B1
330
7493
100
AcDbEntity
  8
0
 62
     0
100
AcDbLine
 10
280.2978723404241
 20
10.0
 30
0.0
 11
410.0
 21
10.0
 31
0.0
  0
LINE
  5
74B2
330
7493
100
AcDbEntity
  8
0
 62
     0
100
AcDbLine
 10
318.1276595744673
 20
22.00000000000012
 30
0.0
 11
410.0
 21
22.00000000000012
 31
0.0
  0
LINE
  5
74B3
330
7493
100
AcDbEntity
  8
0
 62
     0
100
AcDbLine
 10
280.2978723404241
 20
37.00000000000024
 30
0.0
 11
410.0
 21
37.00000000000024
 31
0.0
  0
LINE
  5
74B4
330
7493
100
AcDbEntity
  8
0
 62
     0
100
AcDbLine
 10
280.2978723404241
 20
13.00000000000004
 30
0.0
 11
410.0
 21
13.00000000000004
 31
0.0
  0
LINE
  5
74B5
330
7493
100
AcDbEntity
  8
0
 62
     0
100
AcDbLine
 10
280.2978723404241
 20
49.00000000000036
 30
0.0
 11
410.0
 21
49.00000000000036
 31
0.0
  0
TEXT
  5
74B6
330
7493
100
AcDbEntity
  8
0
100
AcDbText
 10
411.3708251683467
 20
33.08333333333334
 30
0.0
 40
3.0
  1
F
  7
ADESK1
 72
     1
 11
412.8708251683468
 21
33.08333333333334
 31
0.0
100
AcDbText
  0
TEXT
  5
74B7
330
7493
100
AcDbEntity
  8
0
100
AcDbText
 10
411.3708251683467
 20
79.25
 30
0.0
 40
3.0
  1
E
  7
ADESK1
 72
     1
 11
412.8708251683468
 21
79.25
 31
0.0
100
AcDbText
  0
TEXT
  5
74B8
330
7493
100
AcDbEntity
  8
0
100
AcDbText
 10
411.2993965969182
 20
125.4166666666666
 30
0.0
 40
3.0
  1
D
  7
ADESK1
 72
     1
 11
412.8708251683468
 21
125.4166666666666
 31
0.0
100
AcDbText
  0
TEXT
  5
74B9
330
7493
100
AcDbEntity
  8
0
100
AcDbText
 10
411.3708251683467
 20
171.5833333333333
 30
0.0
 40
3.0
  1
C
  7
ADESK1
 72
     1
 11
412.8708251683468
 21
171.5833333333333
 31
0.0
100
AcDbText
  0
TEXT
  5
74BA
330
7493
100
AcDbEntity
  8
0
100
AcDbText
 10
411.2993965969182
 20
217.7499999999999
 30
0.0
 40
3.0
  1
B
  7
ADESK1
 72
     1
 11
412.8708251683468
 21
217.7499999999999
 31
0.0
100
AcDbText
  0
TEXT
  5
74BB
330
7493
100
AcDbEntity
  8
0
100
AcDbText
 10
411.5851108826324
 20
263.9166666666666
 30
0.0
 40
3.0
  1
A
  7
ADESK1
 72
     1
 11
412.8708251683468
 21
263.9166666666666
 31
0.0
100
AcDbText
  0
TEXT
  5
74BC
330
7493
100
AcDbEntity
  8
0
100
AcDbText
 10
384.5089285714285
 20
6.019997240728748
 30
0.0
 40
3.0
  1
8
  7
ADESK1
 72
     1
 11
385.9375
 21
6.019997240728748
 31
0.0
100
AcDbText
  0
TEXT
  5
74BD
330
7493
100
AcDbEntity
  8
0
100
AcDbText
 10
336.3839285714285
 20
6.019997240728748
 30
0.0
 40
3.0
  1
7
  7
ADESK1
 72
     1
 11
337.8125
 21
6.019997240728748
 31
0.0
100
AcDbText
  0
TEXT
  5
74BE
330
7493
100
AcDbEntity
  8
0
100
AcDbText
 10
288.1874999999999
 20
6.019997240728748
 30
0.0
 40
3.0
  1
6
  7
ADESK1
 72
     1
 11
289.6875
 21
6.019997240728748
 31
0.0
100
AcDbText
  0
TEXT
  5
74BF
330
7493
100
AcDbEntity
  8
0
100
AcDbText
 10
240.1339285714285
 20
6.019997240728748
 30
0.0
 40
3.0
  1
5
  7
ADESK1
 72
     1
 11
241.5624999999999
 21
6.019997240728748
 31
0.0
100
AcDbText
  0
TEXT
  5
74C0
330
7493
100
AcDbEntity
  8
0
100
AcDbText
 10
191.9375
 20
6.019997240728748
 30
0.0
 40
3.0
  1
4
  7
ADESK1
 72
     1
 11
193.4375
 21
6.019997240728748
 31
0.0
100
AcDbText
  0
TEXT
  5
74C1
330
7493
100
AcDbEntity
  8
0
100
AcDbText
 10
143.8839285714285
 20
6.019997240728748
 30
0.0
 40
3.0
  1
3
  7
ADESK1
 72
     1
 11
145.3125
 21
6.019997240728748
 31
0.0
100
AcDbText
  0
TEXT
  5
74C2
330
7493
100
AcDbEntity
  8
0
100
AcDbText
 10
95.75892857142857
 20
6.019997240728748
 30
0.0
 40
3.0
  1
2
  7
ADESK1
 72
     1
 11
97.1875
 21
6.019997240728748
 31
0.0
100
AcDbText
  0
TEXT
  5
74C3
330
7493
100
AcDbEntity
  8
0
100
AcDbText
 10
47.84821428571429
 20
6.019997240728748
 30
0.0
 40
3.0
  1
1
  7
ADESK1
 72
     1
 11
49.0625
 21
6.019997240728748
 31
0.0
100
AcDbText
  0
TEXT
  5
74C4
330
7493
100
AcDbEntity
  8
0
100
AcDbText
 10
21.10716135953389
 20
33.08333333333334
 30
0.0
 40
3.0
  1
F
  7
ADESK1
 72
     1
 11
22.60716135953389
 21
33.08333333333334
 31
0.0
100
AcDbText
  0
TEXT
  5
74C5
330
7493
100
AcDbEntity
  8
0
100
AcDbText
 10
21.10716135953389
 20
79.25
 30
0.0
 40
3.0
  1
E
  7
ADESK1
 72
     1
 11
22.60716135953389
 21
79.25
 31
0.0
100
AcDbText
  0
TEXT
  5
74C6
330
7493
100
AcDbEntity
  8
0
100
AcDbText
 10
21.03573278810532
 20
125.4166666666666
 30
0.0
 40
3.0
  1
D
  7
ADESK1
 72
     1
 11
22.60716135953389
 21
125.4166666666666
 31
0.0
100
AcDbText
  0
TEXT
  5
74C7
330
7493
100
AcDbEntity
  8
0
100
AcDbText
 10
21.10716135953389
 20
171.5833333333333
 30
0.0
 40
3.0
  1
C
  7
ADESK1
 72
     1
 11
22.60716135953389
 21
171.5833333333333
 31
0.0
100
AcDbText
  0
TEXT
  5
74C8
330
7493
100
AcDbEntity
  8
0
100
AcDbText
 10
21.03573278810532
 20
217.7499999999999
 30
0.0
 40
3.0
  1
B
  7
ADESK1
 72
     1
 11
22.60716135953389
 21
217.7499999999999
 31
0.0
100
AcDbText
  0
TEXT
  5
74C9
330
7493
100
AcDbEntity
  8
0
100
AcDbText
 10
384.5089285714285
 20
288.0
 30
0.0
 40
3.0
  1
8
  7
ADESK1
 72
     1
 11
385.9375
 21
288.0
 31
0.0
100
AcDbText
  0
TEXT
  5
74CA
330
7493
100
AcDbEntity
  8
0
100
AcDbText
 10
336.3839285714285
 20
288.0
 30
0.0
 40
3.0
  1
7
  7
ADESK1
 72
     1
 11
337.8125
 21
288.0
 31
0.0
100
AcDbText
  0
TEXT
  5
74CB
330
7493
100
AcDbEntity
  8
0
100
AcDbText
 10
288.1874999999999
 20
288.0
 30
0.0
 40
3.0
  1
6
  7
ADESK1
 72
     1
 11
289.6875
 21
288.0
 31
0.0
100
AcDbText
  0
TEXT
  5
74CC
330
7493
100
AcDbEntity
  8
0
100
AcDbText
 10
240.1339285714285
 20
288.0
 30
0.0
 40
3.0
  1
5
  7
ADESK1
 72
     1
 11
241.5624999999999
 21
288.0
 31
0.0
100
AcDbText
  0
TEXT
  5
74CD
330
7493
100
AcDbEntity
  8
0
100
AcDbText
 10
191.9375
 20
288.0
 30
0.0
 40
3.0
  1
4
  7
ADESK1
 72
     1
 11
193.4375
 21
288.0
 31
0.0
100
AcDbText
  0
TEXT
  5
74CE
330
7493
100
AcDbEntity
  8
0
100
AcDbText
 10
143.8839285714285
 20
288.0
 30
0.0
 40
3.0
  1
3
  7
ADESK1
 72
     1
 11
145.3125
 21
288.0
 31
0.0
100
AcDbText
  0
TEXT
  5
74CF
330
7493
100
AcDbEntity
  8
0
100
AcDbText
 10
95.75892857142857
 20
288.0
 30
0.0
 40
3.0
  1
2
  7
ADESK1
 72
     1
 11
97.1875
 21
288.0
 31
0.0
100
AcDbText
  0
TEXT
  5
74D0
330
7493
100
AcDbEntity
  8
0
100
AcDbText
 10
21.32144707381961
 20
263.9166666666666
 30
0.0
 40
3.0
  1
A
  7
ADESK1
 72
     1
 11
22.60716135953389
 21
263.9166666666666
 31
0.0
100
AcDbText
  0
TEXT
  5
74D1
330
7493
100
AcDbEntity
  8
0
100
AcDbText
 10
47.84821428571429
 20
288.0
 30
0.0
 40
3.0
  1
1
  7
ADESK1
 72
     1
 11
49.0625
 21
288.0
 31
0.0
100
AcDbText
  0
LINE
  5
74D2
330
7493
100
AcDbEntity
  8
0
100
AcDbLine
 10
73.125
 20
287.0
 30
0.0
 11
73.125
 21
292.0
 31
0.0
  0
LINE
  5
74D3
330
7493
100
AcDbEntity
  8
0
100
AcDbLine
 10
121.25
 20
287.0
 30
0.0
 11
121.25
 21
292.0
 31
0.0
  0
LINE
  5
74D4
330
7493
100
AcDbEntity
  8
0
100
AcDbLine
 10
169.375
 20
287.0
 30
0.0
 11
169.375
 21
292.0
 31
0.0
  0
LINE
  5
74D5
330
7493
100
AcDbEntity
  8
0
100
AcDbLine
 10
217.5
 20
287.0
 30
0.0
 11
217.5
 21
292.0
 31
0.0
  0
LINE
  5
74D6
330
7493
100
AcDbEntity
  8
0
100
AcDbLine
 10
265.625
 20
287.0
 30
0.0
 11
265.625
 21
292.0
 31
0.0
  0
LINE
  5
74D7
330
7493
100
AcDbEntity
  8
0
100
AcDbLine
 10
313.75
 20
287.0
 30
0.0
 11
313.75
 21
292.0
 31
0.0
  0
LINE
  5
74D8
330
7493
100
AcDbEntity
  8
0
100
AcDbLine
 10
361.8749999999999
 20
287.0
 30
0.0
 11
361.8749999999999
 21
292.0
 31
0.0
  0
LINE
  5
74D9
330
7493
100
AcDbEntity
  8
0
100
AcDbLine
 10
361.8749999999999
 20
10.0
 30
0.0
 11
361.8749999999999
 21
5.0
 31
0.0
  0
LINE
  5
74DA
330
7493
100
AcDbEntity
  8
0
100
AcDbLine
 10
313.75
 20
10.0
 30
0.0
 11
313.75
 21
5.0
 31
0.0
  0
LINE
  5
74DB
330
7493
100
AcDbEntity
  8
0
100
AcDbLine
 10
265.625
 20
10.0
 30
0.0
 11
265.625
 21
5.0
 31
0.0
  0
LINE
  5
74DC
330
7493
100
AcDbEntity
  8
0
100
AcDbLine
 10
217.5
 20
10.0
 30
0.0
 11
217.5
 21
5.0
 31
0.0
  0
LINE
  5
74DD
330
7493
100
AcDbEntity
  8
0
100
AcDbLine
 10
169.375
 20
10.0
 30
0.0
 11
169.375
 21
5.0
 31
0.0
  0
LINE
  5
74DE
330
7493
100
AcDbEntity
  8
0
100
AcDbLine
 10
121.25
 20
10.0
 30
0.0
 11
121.25
 21
5.0
 31
0.0
  0
LINE
  5
74DF
330
7493
100
AcDbEntity
  8
0
100
AcDbLine
 10
73.125
 20
10.0
 30
0.0
 11
73.125
 21
5.0
 31
0.0
  0
LINE
  5
74E0
330
7493
100
AcDbEntity
  8
0
100
AcDbLine
 10
410.0
 20
240.8333333333333
 30
0.0
 11
415.0
 21
240.8333333333333
 31
0.0
  0
LINE
  5
74E1
330
7493
100
AcDbEntity
  8
0
100
AcDbLine
 10
410.0
 20
194.6666666666667
 30
0.0
 11
415.0
 21
194.6666666666667
 31
0.0
  0
LINE
  5
74E2
330
7493
100
AcDbEntity
  8
0
100
AcDbLine
 10
410.0
 20
148.5
 30
0.0
 11
415.0
 21
148.5
 31
0.0
  0
LINE
  5
74E3
330
7493
100
AcDbEntity
  8
0
100
AcDbLine
 10
410.0
 20
102.3333333333333
 30
0.0
 11
415.0
 21
102.3333333333333
 31
0.0
  0
LINE
  5
74E4
330
7493
100
AcDbEntity
  8
0
100
AcDbLine
 10
410.0
 20
56.16666666666668
 30
0.0
 11
415.0
 21
56.16666666666668
 31
0.0
  0
LINE
  5
74E5
330
7493
100
AcDbEntity
  8
0
100
AcDbLine
 10
25.0
 20
56.16666666666667
 30
0.0
 11
20.0
 21
56.16666666666667
 31
0.0
  0
LINE
  5
74E6
330
7493
100
AcDbEntity
  8
0
100
AcDbLine
 10
25.0
 20
102.3333333333333
 30
0.0
 11
20.0
 21
102.3333333333333
 31
0.0
  0
LINE
  5
74E7
330
7493
100
AcDbEntity
  8
0
100
AcDbLine
 10
25.0
 20
148.5
 30
0.0
 11
20.0
 21
148.5
 31
0.0
  0
LINE
  5
74E8
330
7493
100
AcDbEntity
  8
0
100
AcDbLine
 10
25.0
 20
194.6666666666666
 30
0.0
 11
20.0
 21
194.6666666666666
 31
0.0
  0
LINE
  5
74E9
330
7493
100
AcDbEntity
  8
0
100
AcDbLine
 10
25.0
 20
240.8333333333333
 30
0.0
 11
20.0
 21
240.8333333333333
 31
0.0
  0
TEXT
  5
74EA
330
7493
100
AcDbEntity
  8
0
100
AcDbText
 10
1.0
 20
1.0
 30
0.0
 40
3.0
  1
この図枠はサンプルです。社内の規格やプロッタの出力範囲に合わせて適当に変更してご利用ください。
  7
ADESK1
100
AcDbText
  0
LINE
  5
74EB
330
7493
100
AcDbEntity
  8
0
100
AcDbLine
 10
25.0
 20
148.5
 30
0.0
 11
0.0
 21
148.5
 31
0.0
  0
LINE
  5
74EC
330
7493
100
AcDbEntity
  8
0
100
AcDbLine
 10
410.0
 20
148.5
 30
0.0
 11
420.0
 21
148.5
 31
0.0
  0
LINE
  5
74ED
330
7493
100
AcDbEntity
  8
0
100
AcDbLine
 10
217.5
 20
287.0
 30
0.0
 11
217.5
 21
297.0
 31
0.0
  0
LINE
  5
74EE
330
7493
100
AcDbEntity
  8
0
100
AcDbLine
 10
217.5
 20
10.0
 30
0.0
 11
217.5
 21
0.0
 31
0.0
  0
LINE
  5
74EF
330
7493
100
AcDbEntity
  8
OBJECT
100
AcDbLine
 10
130.0
 20
40.0
 30
0.0
 11
130.0
 21
10.0
 31
0.0
  0
LINE
  5
74F0
330
7493
100
AcDbEntity
  8
OBJECT
100
AcDbLine
 10
120.0
 20
10.0
 30
0.0
 11
120.0
 21
40.0
 31
0.0
  0
LINE
  5
74F1
330
7493
100
AcDbEntity
  8
OBJECT
100
AcDbLine
 10
44.5
 20
37.0
 30
0.0
 11
45.49999999999999
 21
37.0
 31
0.0
  0
LINE
  5
74F2
330
7493
100
AcDbEntity
  8
OBJECT
100
AcDbLine
 10
44.5
 20
31.0
 30
0.0
 11
45.49999999999999
 21
31.0
 31
0.0
  0
LINE
  5
74F3
330
7493
100
AcDbEntity
  8
OBJECT
100
AcDbLine
 10
39.5
 20
37.0
 30
0.0
 11
40.49999999999999
 21
37.0
 31
0.0
  0
LINE
  5
74F4
330
7493
100
AcDbEntity
  8
OBJECT
100
AcDbLine
 10
39.5
 20
31.0
 30
0.0
 11
40.49999999999999
 21
31.0
 31
0.0
  0
LINE
  5
74F5
330
7493
100
AcDbEntity
  8
OBJECT
100
AcDbLine
 10
44.5
 20
25.0
 30
0.0
 11
45.49999999999999
 21
25.0
 31
0.0
  0
LINE
  5
74F6
330
7493
100
AcDbEntity
  8
OBJECT
100
AcDbLine
 10
39.5
 20
25.0
 30
0.0
 11
40.49999999999999
 21
25.0
 31
0.0
  0
LINE
  5
74F7
330
7493
100
AcDbEntity
  8
OBJECT
100
AcDbLine
 10
44.5
 20
19.0
 30
0.0
 11
45.49999999999999
 21
19.0
 31
0.0
  0
LINE
  5
74F8
330
7493
100
AcDbEntity
  8
OBJECT
100
AcDbLine
 10
39.5
 20
19.0
 30
0.0
 11
40.49999999999999
 21
19.0
 31
0.0
  0
LINE
  5
74F9
330
7493
100
AcDbEntity
  8
OBJECT
100
AcDbLine
 10
28.0
 20
29.535898
 30
0.0
 11
30.0
 21
33.0
 31
0.0
  0
LINE
  5
74FA
330
7493
100
AcDbEntity
  8
OBJECT
100
AcDbLine
 10
28.0
 20
29.535898
 30
0.0
 11
32.0
 21
29.535898
 31
0.0
  0
LINE
  5
74FB
330
7493
100
AcDbEntity
  8
OBJECT
100
AcDbLine
 10
32.0
 20
29.535898
 30
0.0
 11
30.0
 21
33.0
 31
0.0
  0
LINE
  5
74FC
330
7493
100
AcDbEntity
  8
OBJECT
100
AcDbLine
 10
28.0
 20
35.53589799999999
 30
0.0
 11
32.0
 21
35.53589799999999
 31
0.0
  0
LINE
  5
74FD
330
7493
100
AcDbEntity
  8
OBJECT
100
AcDbLine
 10
32.0
 20
35.53589799999999
 30
0.0
 11
30.0
 21
39.0
 31
0.0
  0
LINE
  5
74FE
330
7493
100
AcDbEntity
  8
OBJECT
100
AcDbLine
 10
28.0
 20
35.53589799999999
 30
0.0
 11
30.0
 21
39.0
 31
0.0
  0
LINE
  5
74FF
330
7493
100
AcDbEntity
  8
OBJECT
100
AcDbLine
 10
28.0
 20
23.53589799999999
 30
0.0
 11
30.0
 21
26.99999999999999
 31
0.0
  0
LINE
  5
7500
330
7493
100
AcDbEntity
  8
OBJECT
100
AcDbLine
 10
28.0
 20
23.53589799999999
 30
0.0
 11
32.0
 21
23.53589799999999
 31
0.0
  0
LINE
  5
7501
330
7493
100
AcDbEntity
  8
OBJECT
100
AcDbLine
 10
32.0
 20
23.53589799999999
 30
0.0
 11
30.0
 21
26.99999999999999
 31
0.0
  0
LINE
  5
7502
330
7493
100
AcDbEntity
  8
OBJECT
100
AcDbLine
 10
28.0
 20
17.535898
 30
0.0
 11
30.0
 21
20.99999999999999
 31
0.0
  0
LINE
  5
7503
330
7493
100
AcDbEntity
  8
OBJECT
100
AcDbLine
 10
28.0
 20
17.535898
 30
0.0
 11
32.0
 21
17.535898
 31
0.0
  0
LINE
  5
7504
330
7493
100
AcDbEntity
  8
OBJECT
100
AcDbLine
 10
32.0
 20
17.535898
 30
0.0
 11
30.0
 21
20.99999999999999
 31
0.0
  0
LINE
  5
7505
330
7493
100
AcDbEntity
  8
OBJECT
100
AcDbLine
 10
44.5
 20
13.0
 30
0.0
 11
45.49999999999999
 21
13.0
 31
0.0
  0
LINE
  5
7506
330
7493
100
AcDbEntity
  8
OBJECT
100
AcDbLine
 10
39.5
 20
13.0
 30
0.0
 11
40.49999999999999
 21
13.0
 31
0.0
  0
LINE
  5
7507
330
7493
100
AcDbEntity
  8
OBJECT
100
AcDbLine
 10
28.0
 20
11.53589799999999
 30
0.0
 11
32.0
 21
11.53589799999999
 31
0.0
  0
LINE
  5
7508
330
7493
100
AcDbEntity
  8
OBJECT
100
AcDbLine
 10
80.0
 20
10.0
 30
0.0
 11
80.0
 21
40.0
 31
0.0
  0
LINE
  5
7509
330
7493
100
AcDbEntity
  8
OBJECT
100
AcDbLine
 10
50.0
 20
10.0
 30
0.0
 11
50.0
 21
40.0
 31
0.0
  0
LINE
  5
750A
330
7493
100
AcDbEntity
  8
OBJECT
100
AcDbLine
 10
35.0
 20
10.0
 30
0.0
 11
35.0
 21
40.0
 31
0.0
  0
LINE
  5
750B
330
7493
100
AcDbEntity
  8
OBJECT
100
AcDbLine
 10
32.0
 20
11.53589799999999
 30
0.0
 11
30.0
 21
15.0
 31
0.0
  0
LINE
  5
750C
330
7493
100
AcDbEntity
  8
OBJECT
100
AcDbLine
 10
28.0
 20
11.53589799999999
 30
0.0
 11
30.0
 21
15.0
 31
0.0
  0
LINE
  5
750D
330
7493
100
AcDbEntity
  8
OBJECT
100
AcDbLine
 10
130.0
 20
40.0
 30
0.0
 11
25.0
 21
40.0
 31
0.0
  0
LINE
  5
750E
330
7493
100
AcDbEntity
  8
OBJECT
100
AcDbLine
 10
130.0
 20
34.0
 30
0.0
 11
25.0
 21
34.0
 31
0.0
  0
LINE
  5
750F
330
7493
100
AcDbEntity
  8
OBJECT
100
AcDbLine
 10
130.0
 20
28.0
 30
0.0
 11
25.0
 21
28.0
 31
0.0
  0
LINE
  5
7510
330
7493
100
AcDbEntity
  8
OBJECT
100
AcDbLine
 10
130.0
 20
22.0
 30
0.0
 11
25.0
 21
22.0
 31
0.0
  0
LINE
  5
7511
330
7493
100
AcDbEntity
  8
OBJECT
100
AcDbLine
 10
130.0
 20
16.0
 30
0.0
 11
25.0
 21
16.0
 31
0.0
  0
ATTDEF
  5
7512
330
7493
100
AcDbEntity
  8
0
 62
     0
100
AcDbText
 10
19.0
 20
118.0
 30
0.0
 40
3.0
  1

 50
90.0
  7
ADESK1
100
AcDbAttributeDefinition
  3

  2
FNAME
 70
     8
  0
ATTDEF
  5
7513
330
7493
100
AcDbEntity
  8
0
 62
     0
100
AcDbText
 10
19.0
 20
70.0
 30
0.0
 40
3.0
  1

 50
90.0
  7
ADESK1
100
AcDbAttributeDefinition
  3

  2
REVDATE
 70
     8
  0
ATTDEF
  5
7514
330
7493
100
AcDbEntity
  8
0
 62
     0
100
AcDbText
 10
19.0
 20
10.0
 30
0.0
 40
3.0
  1

 50
90.0
  7
ADESK1
100
AcDbAttributeDefinition
  3

  2
USER
 70
     8
  0
LINE
  5
7515
330
7493
100
AcDbEntity
  8
0
100
AcDbLine
 10
410.0
 20
297.0
 30
0.0
 11
420.0
 21
297.0
 31
0.0
  0
LINE
  5
7516
330
7493
100
AcDbEntity
  8
0
100
AcDbLine
 10
420.0
 20
10.0
 30
0.0
 11
420.0
 21
0.0
 31
0.0
  0
LINE
  5
7517
330
7493
100
AcDbEntity
  8
0
100
AcDbLine
 10
25.0
 20
0.0
 30
0.0
 11
0.0
 21
0.0
 31
0.0
  0
LINE
  5
7518
330
7493
100
AcDbEntity
  8
0
100
AcDbLine
 10
0.0
 20
287.0
 30
0.0
 11
0.0
 21
297.0
 31
0.0
  0
LINE
  5
7519
330
7493
100
AcDbEntity
  8
0
100
AcDbLine
 10
25.0
 20
287.0
 30
0.0
 11
410.0
 21
287.0
 31
0.0
  0
LINE
  5
751A
330
7493
100
AcDbEntity
  8
0
100
AcDbLine
 10
410.0
 20
287.0
 30
0.0
 11
410.0
 21
10.0
 31
0.0
  0
LINE
  5
751B
330
7493
100
AcDbEntity
  8
0
100
AcDbLine
 10
410.0
 20
10.0
 30
0.0
 11
25.0
 21
10.0
 31
0.0
  0
LINE
  5
751C
330
7493
100
AcDbEntity
  8
0
100
AcDbLine
 10
25.0
 20
10.0
 30
0.0
 11
25.0
 21
287.0
 31
0.0
  0
LINE
  5
751D
330
7493
100
AcDbEntity
  8
0
100
AcDbLine
 10
420.0
 20
0.0
 30
0.0
 11
410.0
 21
0.0
 31
0.0
  0
LINE
  5
751E
330
7493
100
AcDbEntity
  8
0
100
AcDbLine
 10
420.0
 20
297.0
 30
0.0
 11
420.0
 21
287.0
 31
0.0
  0
LINE
  5
751F
330
7493
100
AcDbEntity
  8
0
100
AcDbLine
 10
0.0
 20
297.0
 30
0.0
 11
25.0
 21
297.0
 31
0.0
  0
LINE
  5
7520
330
7493
100
AcDbEntity
  8
0
100
AcDbLine
 10
0.0
 20
0.0
 30
0.0
 11
0.0
 21
10.0
 31
0.0
  0
ENDBLK
  5
7521
330
7493
100
AcDbEntity
  8
0
100
AcDbBlockEnd
  0
BLOCK
  5
81E1
330
81E0
100
AcDbEntity
  8
ASHADE
 48
15.0
100
AcDbBlockBegin
  2
AVE_RENDER
 70
     0
 10
0.0
 20
0.0
 30
0.0
  3
AVE_RENDER
  1
AVE_RENDER
  0
ENDBLK
  5
81E2
330
81E0
100
AcDbEntity
  8
0
 48
15.0
100
AcDbBlockEnd
  0
BLOCK
  5
81EF
330
81EE
100
AcDbEntity
  8
ASHADE
 48
15.0
100
AcDbBlockBegin
  2
AVE_GLOBAL
 70
     0
 10
0.0
 20
0.0
 30
0.0
  3
AVE_GLOBAL
  1
AVE_GLOBAL
  0
ENDBLK
  5
81F0
330
81EE
100
AcDbEntity
  8
0
 48
15.0
100
AcDbBlockEnd
  0
BLOCK
  5
B5EF
330
B5E5
100
AcDbEntity
  8
0
 48
15.0
100
AcDbBlockBegin
  2
*D3
 70
     1
 10
0.0
 20
0.0
 30
0.0
  3
*D3
  1

  0
LINE
  5
B5E6
330
B5E5
100
AcDbEntity
  8
寸法引出
 48
15.0
370
    -2
100
AcDbLine
 10
6973.274595131051
 20
7531.629990087882
 30
0.0
 11
7004.415281902786
 21
7531.629990087882
 31
0.0
  0
LINE
  5
B5E7
330
B5E5
100
AcDbEntity
  8
寸法引出
 48
15.0
370
    -2
100
AcDbLine
 10
6885.712134144798
 20
8331.629990087884
 30
0.0
 11
7004.415281902786
 21
8331.629990087884
 31
0.0
  0
LINE
  5
B5E8
330
B5E5
100
AcDbEntity
  8
寸法引出
 48
15.0
370
    -2
100
AcDbLine
 10
6991.915281902786
 20
7569.129990087882
 30
0.0
 11
6991.915281902786
 21
8294.129990087885
 31
0.0
  0
SOLID
  5
B5E9
330
B5E5
100
AcDbEntity
  8
寸法引出
 48
15.0
100
AcDbTrace
 10
6985.665281902786
 20
7569.129990087882
 30
0.0
 11
6998.165281902785
 21
7569.129990087882
 31
0.0
 12
6991.915281902786
 22
7531.629990087882
 32
0.0
 13
6991.915281902786
 23
7531.629990087882
 33
0.0
  0
SOLID
  5
B5EA
330
B5E5
100
AcDbEntity
  8
寸法引出
 48
15.0
100
AcDbTrace
 10
6985.665281902786
 20
8294.129990087885
 30
0.0
 11
6998.165281902785
 21
8294.129990087885
 31
0.0
 12
6991.915281902786
 22
8331.629990087884
 32
0.0
 13
6991.915281902786
 23
8331.629990087884
 33
0.0
  0
MTEXT
  5
B5EB
330
B5E5
100
AcDbEntity
  8
寸法引出
 48
15.0
100
AcDbMText
 10
6941.915281902784
 20
7931.629990087884
 30
0.0
 40
50.0
 41
0.0
 71
     5
 72
     1
  1
\A1;800
  7
SANWA
 11
0.0000000000000001
 21
1.0
 31
0.0
 73
     1
 44
1.0
  0
POINT
  5
B5EC
330
B5E5
100
AcDbEntity
  8
DEFPOINTS
 62
     0
 48
15.0
100
AcDbPoint
 10
6948.27459513105
 20
7531.629990087882
 30
0.0
  0
POINT
  5
B5ED
330
B5E5
100
AcDbEntity
  8
DEFPOINTS
 62
     0
 48
15.0
100
AcDbPoint
 10
6860.712134144797
 20
8331.629990087884
 30
0.0
  0
POINT
  5
B5EE
330
B5E5
100
AcDbEntity
  8
DEFPOINTS
 62
     0
 48
15.0
100
AcDbPoint
 10
6991.915281902786
 20
8331.629990087884
 30
0.0
  0
ENDBLK
  5
B5F0
330
B5E5
100
AcDbEntity
  8
0
 48
15.0
100
AcDbBlockEnd
  0
BLOCK
  5
B5FD
330
B5F1
100
AcDbEntity
  8
0
 48
15.0
100
AcDbBlockBegin
  2
*D4
 70
     1
 10
0.0
 20
0.0
 30
0.0
  3
*D4
  1

  0
LINE
  5
B5F2
330
B5F1
100
AcDbEntity
  8
寸法引出
 48
15.0
370
    -2
100
AcDbLine
 10
6885.712134144798
 20
8331.629990087884
 30
0.0
 11
7004.415281902786
 21
8331.629990087884
 31
0.0
  0
LINE
  5
B5F3
330
B5F1
100
AcDbEntity
  8
寸法引出
 48
15.0
370
    -2
100
AcDbLine
 10
6885.712134144798
 20
8431.629990087884
 30
0.0
 11
7004.415281902786
 21
8431.629990087884
 31
0.0
  0
LINE
  5
B5F4
330
B5F1
100
AcDbEntity
  8
寸法引出
 48
15.0
370
    -2
100
AcDbLine
 10
6991.915281902786
 20
8294.129990087885
 30
0.0
 11
6991.915281902786
 21
8256.629990087885
 31
0.0
  0
LINE
  5
B5F5
330
B5F1
100
AcDbEntity
  8
寸法引出
 48
15.0
370
    -2
100
AcDbLine
 10
6991.915281902786
 20
8469.129990087884
 30
0.0
 11
6991.915281902786
 21
8506.629990087885
 31
0.0
  0
LINE
  5
B5F6
330
B5F1
100
AcDbEntity
  8
寸法引出
 48
15.0
370
    -2
100
AcDbLine
 10
6991.915281902786
 20
8331.629990087884
 30
0.0
 11
6991.915281902786
 21
8431.629990087884
 31
0.0
  0
SOLID
  5
B5F7
330
B5F1
100
AcDbEntity
  8
寸法引出
 48
15.0
100
AcDbTrace
 10
6985.665281902786
 20
8294.129990087885
 30
0.0
 11
6998.165281902785
 21
8294.129990087885
 31
0.0
 12
6991.915281902786
 22
8331.629990087884
 32
0.0
 13
6991.915281902786
 23
8331.629990087884
 33
0.0
  0
SOLID
  5
B5F8
330
B5F1
100
AcDbEntity
  8
寸法引出
 48
15.0
100
AcDbTrace
 10
6985.665281902786
 20
8469.129990087884
 30
0.0
 11
6998.165281902785
 21
8469.129990087884
 31
0.0
 12
6991.915281902786
 22
8431.629990087884
 32
0.0
 13
6991.915281902786
 23
8431.629990087884
 33
0.0
  0
MTEXT
  5
B5F9
330
B5F1
100
AcDbEntity
  8
寸法引出
 48
15.0
100
AcDbMText
 10
6941.915281902784
 20
8381.629990087885
 30
0.0
 40
50.0
 41
0.0
 71
     5
 72
     1
  1
\A1;100
  7
SANWA
 11
0.0000000000000001
 21
1.0
 31
0.0
 73
     1
 44
1.0
  0
POINT
  5
B5FA
330
B5F1
100
AcDbEntity
  8
DEFPOINTS
 62
     0
 48
15.0
100
AcDbPoint
 10
6860.712134144797
 20
8331.629990087884
 30
0.0
  0
POINT
  5
B5FB
330
B5F1
100
AcDbEntity
  8
DEFPOINTS
 62
     0
 48
15.0
100
AcDbPoint
 10
6860.712134144797
 20
8431.629990087884
 30
0.0
  0
POINT
  5
B5FC
330
B5F1
100
AcDbEntity
  8
DEFPOINTS
 62
     0
 48
15.0
100
AcDbPoint
 10
6991.915281902786
 20
8431.629990087884
 30
0.0
  0
ENDBLK
  5
B5FE
330
B5F1
100
AcDbEntity
  8
0
 48
15.0
100
AcDbBlockEnd
  0
BLOCK
  5
B609
330
B5FF
100
AcDbEntity
  8
0
 48
15.0
100
AcDbBlockBegin
  2
*D5
 70
     1
 10
0.0
 20
0.0
 30
0.0
  3
*D5
  1

  0
LINE
  5
B600
330
B5FF
100
AcDbEntity
  8
寸法引出
 48
15.0
370
    -2
100
AcDbLine
 10
6973.274595131049
 20
7531.629990087882
 30
0.0
 11
7081.18475167752
 21
7531.629990087882
 31
0.0
  0
LINE
  5
B601
330
B5FF
100
AcDbEntity
  8
寸法引出
 48
15.0
370
    -2
100
AcDbLine
 10
6885.712134144798
 20
8431.629990087884
 30
0.0
 11
7081.18475167752
 21
8431.629990087884
 31
0.0
  0
LINE
  5
B602
330
B5FF
100
AcDbEntity
  8
寸法引出
 48
15.0
370
    -2
100
AcDbLine
 10
7068.68475167752
 20
7569.129990087882
 30
0.0
 11
7068.68475167752
 21
8394.129990087884
 31
0.0
  0
SOLID
  5
B603
330
B5FF
100
AcDbEntity
  8
寸法引出
 48
15.0
100
AcDbTrace
 10
7062.43475167752
 20
7569.129990087882
 30
0.0
 11
7074.93475167752
 21
7569.129990087882
 31
0.0
 12
7068.68475167752
 22
7531.629990087882
 32
0.0
 13
7068.68475167752
 23
7531.629990087882
 33
0.0
  0
SOLID
  5
B604
330
B5FF
100
AcDbEntity
  8
寸法引出
 48
15.0
100
AcDbTrace
 10
7062.43475167752
 20
8394.129990087884
 30
0.0
 11
7074.93475167752
 21
8394.129990087884
 31
0.0
 12
7068.68475167752
 22
8431.629990087884
 32
0.0
 13
7068.68475167752
 23
8431.629990087884
 33
0.0
  0
MTEXT
  5
B605
330
B5FF
100
AcDbEntity
  8
寸法引出
 48
15.0
100
AcDbMText
 10
7018.68475167752
 20
7981.629990087885
 30
0.0
 40
50.0
 41
0.0
 71
     5
 72
     1
  1
\A1;900
  7
SANWA
 11
0.0000000000000001
 21
1.0
 31
0.0
 73
     1
 44
1.0
  0
POINT
  5
B606
330
B5FF
100
AcDbEntity
  8
DEFPOINTS
 62
     0
 48
15.0
100
AcDbPoint
 10
6948.274595131049
 20
7531.629990087882
 30
0.0
  0
POINT
  5
B607
330
B5FF
100
AcDbEntity
  8
DEFPOINTS
 62
     0
 48
15.0
100
AcDbPoint
 10
6860.712134144797
 20
8431.629990087884
 30
0.0
  0
POINT
  5
B608
330
B5FF
100
AcDbEntity
  8
DEFPOINTS
 62
     0
 48
15.0
100
AcDbPoint
 10
7068.68475167752
 20
8431.629990087884
 30
0.0
  0
ENDBLK
  5
B60A
330
B5FF
100
AcDbEntity
  8
0
 48
15.0
100
AcDbBlockEnd
  0
BLOCK
  5
B615
330
B60B
100
AcDbEntity
  8
0
 48
15.0
100
AcDbBlockBegin
  2
*D6
 70
     1
 10
0.0
 20
0.0
 30
0.0
  3
*D6
  1

  0
LINE
  5
B60C
330
B60B
100
AcDbEntity
  8
寸法引出
 48
15.0
370
    -2
100
AcDbLine
 10
6860.712134144797
 20
8456.629990087884
 30
0.0
 11
6860.712134144797
 21
8536.895361818416
 31
0.0
  0
LINE
  5
B60D
330
B60B
100
AcDbEntity
  8
寸法引出
 48
15.0
370
    -2
100
AcDbLine
 10
7160.712134144798
 20
8456.629990087884
 30
0.0
 11
7160.712134144798
 21
8536.895361818416
 31
0.0
  0
LINE
  5
B60E
330
B60B
100
AcDbEntity
  8
寸法引出
 48
15.0
370
    -2
100
AcDbLine
 10
6898.212134144798
 20
8524.395361818417
 30
0.0
 11
7123.212134144798
 21
8524.395361818417
 31
0.0
  0
SOLID
  5
B60F
330
B60B
100
AcDbEntity
  8
寸法引出
 48
15.0
100
AcDbTrace
 10
6898.212134144798
 20
8530.645361818416
 30
0.0
 11
6898.212134144798
 21
8518.145361818417
 31
0.0
 12
6860.712134144797
 22
8524.395361818417
 32
0.0
 13
6860.712134144797
 23
8524.395361818417
 33
0.0
  0
SOLID
  5
B610
330
B60B
100
AcDbEntity
  8
寸法引出
 48
15.0
100
AcDbTrace
 10
7123.212134144798
 20
8530.645361818416
 30
0.0
 11
7123.212134144798
 21
8518.145361818417
 31
0.0
 12
7160.712134144798
 22
8524.395361818417
 32
0.0
 13
7160.712134144798
 23
8524.395361818417
 33
0.0
  0
MTEXT
  5
B611
330
B60B
100
AcDbEntity
  8
寸法引出
 48
15.0
100
AcDbMText
 10
7010.712134144798
 20
8574.395361818416
 30
0.0
 40
50.0
 41
0.0
 71
     5
 72
     1
  1
\A1;300
  7
SANWA
 73
     1
 44
1.0
  0
POINT
  5
B612
330
B60B
100
AcDbEntity
  8
DEFPOINTS
 62
     0
 48
15.0
100
AcDbPoint
 10
6860.712134144797
 20
8431.629990087884
 30
0.0
  0
POINT
  5
B613
330
B60B
100
AcDbEntity
  8
DEFPOINTS
 62
     0
 48
15.0
100
AcDbPoint
 10
7160.712134144798
 20
8431.629990087884
 30
0.0
  0
POINT
  5
B614
330
B60B
100
AcDbEntity
  8
DEFPOINTS
 62
     0
 48
15.0
100
AcDbPoint
 10
7160.712134144798
 20
8524.395361818417
 30
0.0
  0
ENDBLK
  5
B616
330
B60B
100
AcDbEntity
  8
0
 48
15.0
100
AcDbBlockEnd
  0
BLOCK
  5
B621
330
B617
100
AcDbEntity
  8
0
 48
15.0
100
AcDbBlockBegin
  2
*D7
 70
     1
 10
0.0
 20
0.0
 30
0.0
  3
*D7
  1

  0
LINE
  5
B618
330
B617
100
AcDbEntity
  8
寸法引出
 48
15.0
370
    -2
100
AcDbLine
 10
6810.712134144798
 20
8456.629990087884
 30
0.0
 11
6810.712134144798
 21
8647.401181367939
 31
0.0
  0
LINE
  5
B619
330
B617
100
AcDbEntity
  8
寸法引出
 48
15.0
370
    -2
100
AcDbLine
 10
7210.712134144798
 20
8456.629990087884
 30
0.0
 11
7210.712134144798
 21
8647.401181367939
 31
0.0
  0
LINE
  5
B61A
330
B617
100
AcDbEntity
  8
寸法引出
 48
15.0
370
    -2
100
AcDbLine
 10
6848.212134144798
 20
8634.90118136794
 30
0.0
 11
7173.212134144797
 21
8634.90118136794
 31
0.0
  0
SOLID
  5
B61B
330
B617
100
AcDbEntity
  8
寸法引出
 48
15.0
100
AcDbTrace
 10
6848.212134144798
 20
8641.15118136794
 30
0.0
 11
6848.212134144798
 21
8628.65118136794
 31
0.0
 12
6810.712134144798
 22
8634.90118136794
 32
0.0
 13
6810.712134144798
 23
8634.90118136794
 33
0.0
  0
SOLID
  5
B61C
330
B617
100
AcDbEntity
  8
寸法引出
 48
15.0
100
AcDbTrace
 10
7173.212134144797
 20
8641.15118136794
 30
0.0
 11
7173.212134144797
 21
8628.65118136794
 31
0.0
 12
7210.712134144798
 22
8634.90118136794
 32
0.0
 13
7210.712134144798
 23
8634.90118136794
 33
0.0
  0
MTEXT
  5
B61D
330
B617
100
AcDbEntity
  8
寸法引出
 48
15.0
100
AcDbMText
 10
7010.712134144798
 20
8684.901181367939
 30
0.0
 40
50.0
 41
0.0
 71
     5
 72
     1
  1
\A1;400
  7
SANWA
 73
     1
 44
1.0
  0
POINT
  5
B61E
330
B617
100
AcDbEntity
  8
DEFPOINTS
 62
     0
 48
15.0
100
AcDbPoint
 10
6810.712134144798
 20
8431.629990087884
 30
0.0
  0
POINT
  5
B61F
330
B617
100
AcDbEntity
  8
DEFPOINTS
 62
     0
 48
15.0
100
AcDbPoint
 10
7210.712134144798
 20
8431.629990087884
 30
0.0
  0
POINT
  5
B620
330
B617
100
AcDbEntity
  8
DEFPOINTS
 62
     0
 48
15.0
100
AcDbPoint
 10
7210.712134144798
 20
8634.90118136794
 30
0.0
  0
ENDBLK
  5
B622
330
B617
100
AcDbEntity
  8
0
 48
15.0
100
AcDbBlockEnd
  0
BLOCK
  5
B62D
330
B623
100
AcDbEntity
  8
0
 48
15.0
100
AcDbBlockBegin
  2
*D8
 70
     1
 10
0.0
 20
0.0
 30
0.0
  3
*D8
  1

  0
LINE
  5
B624
330
B623
100
AcDbEntity
  8
寸法引出
 48
15.0
370
    -2
100
AcDbLine
 10
7185.712134144798
 20
7381.629990087882
 30
0.0
 11
7371.715787046937
 21
7381.629990087882
 31
0.0
  0
LINE
  5
B625
330
B623
100
AcDbEntity
  8
寸法引出
 48
15.0
370
    -2
100
AcDbLine
 10
7235.712134144797
 20
8431.629990087884
 30
0.0
 11
7371.715787046937
 21
8431.629990087884
 31
0.0
  0
LINE
  5
B626
330
B623
100
AcDbEntity
  8
寸法引出
 48
15.0
370
    -2
100
AcDbLine
 10
7359.215787046938
 20
7419.129990087881
 30
0.0
 11
7359.215787046938
 21
8394.129990087884
 31
0.0
  0
SOLID
  5
B627
330
B623
100
AcDbEntity
  8
寸法引出
 48
15.0
100
AcDbTrace
 10
7352.965787046938
 20
7419.129990087881
 30
0.0
 11
7365.465787046938
 21
7419.129990087881
 31
0.0
 12
7359.215787046938
 22
7381.629990087882
 32
0.0
 13
7359.215787046938
 23
7381.629990087882
 33
0.0
  0
SOLID
  5
B628
330
B623
100
AcDbEntity
  8
寸法引出
 48
15.0
100
AcDbTrace
 10
7352.965787046938
 20
8394.129990087884
 30
0.0
 11
7365.465787046938
 21
8394.129990087884
 31
0.0
 12
7359.215787046938
 22
8431.629990087884
 32
0.0
 13
7359.215787046938
 23
8431.629990087884
 33
0.0
  0
MTEXT
  5
B629
330
B623
100
AcDbEntity
  8
寸法引出
 48
15.0
100
AcDbMText
 10
7309.215787046937
 20
7906.629990087885
 30
0.0
 40
50.0
 41
0.0
 71
     5
 72
     1
  1
\A1;1050
  7
SANWA
 11
0.0000000000000001
 21
1.0
 31
0.0
 73
     1
 44
1.0
  0
POINT
  5
B62A
330
B623
100
AcDbEntity
  8
DEFPOINTS
 62
     0
 48
15.0
100
AcDbPoint
 10
7160.712134144798
 20
7381.629990087882
 30
0.0
  0
POINT
  5
B62B
330
B623
100
AcDbEntity
  8
DEFPOINTS
 62
     0
 48
15.0
100
AcDbPoint
 10
7210.712134144798
 20
8431.629990087884
 30
0.0
  0
POINT
  5
B62C
330
B623
100
AcDbEntity
  8
DEFPOINTS
 62
     0
 48
15.0
100
AcDbPoint
 10
7359.215787046938
 20
8431.629990087884
 30
0.0
  0
ENDBLK
  5
B62E
330
B623
100
AcDbEntity
  8
0
 48
15.0
100
AcDbBlockEnd
  0
BLOCK
  5
B645
330
B62F
100
AcDbEntity
  8
0
 48
25.0
100
AcDbBlockBegin
  2
A$C2A7F6572
 70
     0
 10
0.0
 20
0.0
 30
0.0
  3
A$C2A7F6572
  1

  0
DIMENSION
  5
B630
330
B62F
100
AcDbEntity
  8
寸法引出
 48
15.0
100
AcDbDimension
  2
*D7
 10
532.7046336285029
 20
1633.75853985067
 30
0.0
 11
332.7046336285029
 21
1683.75853985067
 31
0.0
 12
-6678.007500516294
 22
-7001.142641517268
 32
0.0
 71
     5
 42
400.0
  3
SANWA
100
AcDbAlignedDimension
 13
132.7046336285029
 23
1430.487348570615
 33
0.0
 14
532.7046336285029
 24
1430.487348570615
 34
0.0
100
AcDbRotatedDimension
1001
ACAD
1000
DSTYLE
1002
{
1070
    40
1040
25.0
1070
    41
1040
1.5
1070
    43
1040
5.0
1070
    44
1040
0.5
1070
   140
1040
2.0
1070
   147
1040
1.0
1070
   176
1070
   256
1070
   177
1070
   256
1070
   178
1070
   256
1002
}
  0
DIMENSION
  5
B631
330
B62F
100
AcDbEntity
  8
寸法引出
 48
15.0
100
AcDbDimension
  2
*D6
 10
482.7046336285029
 20
1523.252720301148
 30
0.0
 11
332.7046336285029
 21
1573.252720301148
 31
0.0
 12
-6678.007500516294
 22
-7001.142641517268
 32
0.0
 71
     5
 42
300.0
  3
SANWA
100
AcDbAlignedDimension
 13
182.7046336285029
 23
1430.487348570615
 33
0.0
 14
482.7046336285029
 24
1430.487348570615
 34
0.0
100
AcDbRotatedDimension
1001
ACAD
1000
DSTYLE
1002
{
1070
    40
1040
25.0
1070
    41
1040
1.5
1070
    43
1040
5.0
1070
    44
1040
0.5
1070
   140
1040
2.0
1070
   147
1040
1.0
1070
   176
1070
   256
1070
   177
1070
   256
1070
   178
1070
   256
1002
}
  0
MTEXT
  5
B632
330
B62F
100
AcDbEntity
  8
寸法引出
 48
15.0
100
AcDbMText
 10
382.0571102726644
 20
132.8144646556593
 30
0.0
 40
200.0
 41
0.0
 71
     5
 72
     1
  1
902kg
  7
SANWA
 73
     1
 44
1.0
  0
DIMENSION
  5
B633
330
B62F
100
AcDbEntity
  8
寸法引出
 48
15.0
100
AcDbDimension
  2
*D5
 10
390.6772511612262
 20
1430.487348570615
 30
0.0
 11
340.6772511612253
 21
980.4873485706165
 31
0.0
 12
-6678.007500516294
 22
-7001.142641517268
 32
0.0
 71
     5
 42
900.0000000000017
  3
SANWA
100
AcDbAlignedDimension
 13
270.2670946147545
 23
530.4873485706139
 33
0.0
 14
182.7046336285029
 24
1430.487348570615
 34
0.0
 50
90.0
100
AcDbRotatedDimension
1001
ACAD
1000
DSTYLE
1002
{
1070
    40
1040
25.0
1070
    41
1040
1.5
1070
    43
1040
5.0
1070
    44
1040
0.5
1070
   140
1040
2.0
1070
   147
1040
1.0
1070
   176
1070
   256
1070
   177
1070
   256
1070
   178
1070
   256
1002
}
  0
DIMENSION
  5
B634
330
B62F
100
AcDbEntity
  8
寸法引出
 48
15.0
100
AcDbDimension
  2
*D4
 10
313.9077813864905
 20
1430.487348570615
 30
0.0
 11
263.9077813864896
 21
1380.487348570617
 31
0.0
 12
-6678.007500516294
 22
-7001.142641517268
 32
0.0
 71
     5
 42
100.0
  3
SANWA
100
AcDbAlignedDimension
 13
182.7046336285029
 23
1330.487348570615
 33
0.0
 14
182.7046336285029
 24
1430.487348570615
 34
0.0
 50
90.0
100
AcDbRotatedDimension
1001
ACAD
1000
DSTYLE
1002
{
1070
   279
1070
     1
1070
    40
1040
25.0
1070
    41
1040
1.5
1070
    43
1040
5.0
1070
    44
1040
0.5
1070
   140
1040
2.0
1070
   147
1040
1.0
1070
   176
1070
   256
1070
   177
1070
   256
1070
   178
1070
   256
1002
}
  0
DIMENSION
  5
B635
330
B62F
100
AcDbEntity
  8
寸法引出
 48
15.0
100
AcDbDimension
  2
*D3
 10
313.9077813864905
 20
1330.487348570615
 30
0.0
 11
263.9077813864896
 21
930.4873485706165
 31
0.0
 12
-6678.007500516294
 22
-7001.142641517268
 32
0.0
 71
     5
 42
800.0000000000017
  3
SANWA
100
AcDbAlignedDimension
 13
270.2670946147554
 23
530.4873485706139
 33
0.0
 14
182.7046336285029
 24
1330.487348570615
 34
0.0
 50
90.0
100
AcDbRotatedDimension
1001
ACAD
1000
DSTYLE
1002
{
1070
    40
1040
25.0
1070
    41
1040
1.5
1070
    43
1040
5.0
1070
    44
1040
0.5
1070
   140
1040
2.0
1070
   147
1040
1.0
1070
   176
1070
   256
1070
   177
1070
   256
1070
   178
1070
   256
1002
}
  0
LINE
  5
B636
330
B62F
100
AcDbEntity
  8
0
 48
15.0
100
AcDbLine
 10
182.7046336285029
 20
1330.487348570615
 30
0.0
 11
220.3294776708626
 21
577.9904677234189
 31
0.0
  0
LINE
  5
B637
330
B62F
100
AcDbEntity
  8
0
 48
15.0
100
AcDbLine
 10
182.7046336285038
 20
380.4873485706139
 30
0.0
 11
482.7046336285039
 21
380.4873485706139
 31
0.0
  0
LINE
  5
B638
330
B62F
100
AcDbEntity
  8
0
 48
15.0
100
AcDbLine
 10
132.7046336285029
 20
1430.487348570615
 30
0.0
 11
132.7046336285029
 21
430.4873485706139
 31
0.0
  0
LINE
  5
B639
330
B62F
100
AcDbEntity
  8
0
 48
15.0
100
AcDbLine
 10
182.7046336285029
 20
380.4873485706139
 30
0.0
 11
132.7046336285029
 21
430.4873485706139
 31
0.0
  0
LINE
  5
B63A
330
B62F
100
AcDbEntity
  8
0
 48
15.0
100
AcDbLine
 10
182.7046336285029
 20
1330.487348570615
 30
0.0
 11
182.7046336285029
 21
1430.487348570615
 31
0.0
  0
LINE
  5
B63B
330
B62F
100
AcDbEntity
  8
0
 48
15.0
100
AcDbLine
 10
132.7046336285029
 20
1430.487348570615
 30
0.0
 11
182.7046336285029
 21
1430.487348570615
 31
0.0
  0
DIMENSION
  5
B63C
330
B62F
100
AcDbEntity
  8
寸法引出
 48
15.0
100
AcDbDimension
  2
*D8
 10
681.2082865306438
 20
1430.487348570615
 30
0.0
 11
631.2082865306429
 21
905.4873485706165
 31
0.0
 12
-6678.007500516294
 22
-7001.142641517268
 32
0.0
 71
     5
 42
1050.000000000001
  3
SANWA
100
AcDbAlignedDimension
 13
482.7046336285039
 23
380.4873485706139
 33
0.0
 14
532.7046336285029
 24
1430.487348570615
 34
0.0
 50
90.0
100
AcDbRotatedDimension
1001
ACAD
1000
DSTYLE
1002
{
1070
    40
1040
25.0
1070
    41
1040
1.5
1070
    43
1040
5.0
1070
    44
1040
0.5
1070
   140
1040
2.0
1070
   147
1040
1.0
1070
   176
1070
   256
1070
   177
1070
   256
1070
   178
1070
   256
1002
}
  0
LINE
  5
B63D
330
B62F
100
AcDbEntity
  8
0
 48
15.0
100
AcDbLine
 10
445.0797895861433
 20
577.9904677234172
 30
0.0
 11
482.7046336285029
 21
1330.487348570615
 31
0.0
  0
LINE
  5
B63E
330
B62F
100
AcDbEntity
  8
0
 48
15.0
100
AcDbLine
 10
532.7046336285029
 20
1430.487348570615
 30
0.0
 11
532.7046336285029
 21
430.4873485706139
 31
0.0
  0
LINE
  5
B63F
330
B62F
100
AcDbEntity
  8
0
 48
15.0
100
AcDbLine
 10
482.7046336285029
 20
380.4873485706139
 30
0.0
 11
532.7046336285029
 21
430.4873485706139
 31
0.0
  0
ARC
  5
B640
330
B62F
100
AcDbEntity
  8
0
 48
15.0
100
AcDbCircle
 10
395.1421726422504
 20
580.4873485706139
 30
0.0
 40
50.0
100
AcDbArc
 50
270.0
 51
357.1375947739012
  0
ARC
  5
B641
330
B62F
100
AcDbEntity
  8
0
 48
15.0
100
AcDbCircle
 10
270.2670946147554
 20
580.4873485706139
 30
0.0
 40
50.0
100
AcDbArc
 50
182.8624052260987
 51
270.0
  0
LINE
  5
B642
330
B62F
100
AcDbEntity
  8
0
 48
15.0
100
AcDbLine
 10
270.2670946147554
 20
530.4873485706139
 30
0.0
 11
395.1421726422504
 21
530.4873485706139
 31
0.0
  0
LINE
  5
B643
330
B62F
100
AcDbEntity
  8
0
 48
15.0
100
AcDbLine
 10
482.7046336285029
 20
1430.487348570615
 30
0.0
 11
532.7046336285029
 21
1430.487348570615
 31
0.0
  0
LINE
  5
B644
330
B62F
100
AcDbEntity
  8
0
 48
15.0
100
AcDbLine
 10
482.7046336285029
 20
1330.487348570615
 30
0.0
 11
482.7046336285029
 21
1430.487348570615
 31
0.0
  0
ENDBLK
  5
B646
330
B62F
100
AcDbEntity
  8
0
 48
25.0
100
AcDbBlockEnd
  0
BLOCK
  5
C1FE
330
C1F4
100
AcDbEntity
  8
0
 48
25.0
100
AcDbBlockBegin
  2
*D10
 70
     1
 10
0.0
 20
0.0
 30
0.0
  3
*D10
  1

  0
LINE
  5
CB9F
330
C1F4
100
AcDbEntity
  8
寸法引出
 48
25.0
370
    -2
100
AcDbLine
 10
5243.469910207107
 20
3310.075433030023
 30
0.0
 11
5243.469910207107
 21
3443.860045059736
 31
0.0
  0
LINE
  5
CBA0
330
C1F4
100
AcDbEntity
  8
寸法引出
 48
25.0
370
    -2
100
AcDbLine
 10
6003.469910207106
 20
3310.075433030023
 30
0.0
 11
6003.469910207106
 21
3443.860045059736
 31
0.0
  0
LINE
  5
CBA1
330
C1F4
100
AcDbEntity
  8
寸法引出
 48
25.0
370
    -2
100
AcDbLine
 10
5280.969910207106
 20
3431.360045059736
 30
0.0
 11
5965.969910207107
 21
3431.360045059736
 31
0.0
  0
SOLID
  5
CBA2
330
C1F4
100
AcDbEntity
  8
寸法引出
 48
25.0
100
AcDbTrace
 10
5280.969910207106
 20
3437.610045059736
 30
0.0
 11
5280.969910207106
 21
3425.110045059736
 31
0.0
 12
5243.469910207107
 22
3431.360045059736
 32
0.0
 13
5243.469910207107
 23
3431.360045059736
 33
0.0
  0
SOLID
  5
CBA3
330
C1F4
100
AcDbEntity
  8
寸法引出
 48
25.0
100
AcDbTrace
 10
5965.969910207107
 20
3437.610045059736
 30
0.0
 11
5965.969910207107
 21
3425.110045059736
 31
0.0
 12
6003.469910207106
 22
3431.360045059736
 32
0.0
 13
6003.469910207106
 23
3431.360045059736
 33
0.0
  0
MTEXT
  5
CBA4
330
C1F4
100
AcDbEntity
  8
寸法引出
 48
25.0
100
AcDbMText
 10
5623.469910207106
 20
3481.360045059736
 30
0.0
 40
50.0
 41
0.0
 71
     5
 72
     1
  1
\A1;760
  7
SANWA
 73
     1
 44
1.0
  0
POINT
  5
CBA5
330
C1F4
100
AcDbEntity
  8
DEFPOINTS
 62
     0
 48
25.0
100
AcDbPoint
 10
5243.469910207107
 20
3285.075433030023
 30
0.0
  0
POINT
  5
CBA6
330
C1F4
100
AcDbEntity
  8
DEFPOINTS
 62
     0
 48
25.0
100
AcDbPoint
 10
6003.469910207106
 20
3285.075433030023
 30
0.0
  0
POINT
  5
CBA7
330
C1F4
100
AcDbEntity
  8
DEFPOINTS
 62
     0
 48
25.0
100
AcDbPoint
 10
6003.469910207106
 20
3431.360045059736
 30
0.0
  0
ENDBLK
  5
C1FF
330
C1F4
100
AcDbEntity
  8
0
 48
25.0
100
AcDbBlockEnd
  0
BLOCK
  5
C20A
330
C200
100
AcDbEntity
  8
0
 48
25.0
100
AcDbBlockBegin
  2
*D11
 70
     1
 10
0.0
 20
0.0
 30
0.0
  3
*D11
  1

  0
LINE
  5
CBA8
330
C200
100
AcDbEntity
  8
寸法引出
 48
25.0
370
    -2
100
AcDbLine
 10
4123.469910207106
 20
3310.075433030023
 30
0.0
 11
4123.469910207106
 21
3566.988116556486
 31
0.0
  0
LINE
  5
CBA9
330
C200
100
AcDbEntity
  8
寸法引出
 48
25.0
370
    -2
100
AcDbLine
 10
6123.469910207106
 20
3310.075433030023
 30
0.0
 11
6123.469910207106
 21
3566.988116556486
 31
0.0
  0
LINE
  5
CBAA
330
C200
100
AcDbEntity
  8
寸法引出
 48
25.0
370
    -2
100
AcDbLine
 10
4160.969910207106
 20
3554.488116556486
 30
0.0
 11
6085.969910207106
 21
3554.488116556486
 31
0.0
  0
SOLID
  5
CBAB
330
C200
100
AcDbEntity
  8
寸法引出
 48
25.0
100
AcDbTrace
 10
4160.969910207106
 20
3560.738116556486
 30
0.0
 11
4160.969910207106
 21
3548.238116556486
 31
0.0
 12
4123.469910207106
 22
3554.488116556486
 32
0.0
 13
4123.469910207106
 23
3554.488116556486
 33
0.0
  0
SOLID
  5
CBAC
330
C200
100
AcDbEntity
  8
寸法引出
 48
25.0
100
AcDbTrace
 10
6085.969910207106
 20
3560.738116556486
 30
0.0
 11
6085.969910207106
 21
3548.238116556486
 31
0.0
 12
6123.469910207106
 22
3554.488116556486
 32
0.0
 13
6123.469910207106
 23
3554.488116556486
 33
0.0
  0
MTEXT
  5
CBAD
330
C200
100
AcDbEntity
  8
寸法引出
 48
25.0
100
AcDbMText
 10
5123.469910207106
 20
3604.488116556487
 30
0.0
 40
50.0
 41
0.0
 71
     5
 72
     1
  1
\A1;2000
  7
SANWA
 73
     1
 44
1.0
  0
POINT
  5
CBAE
330
C200
100
AcDbEntity
  8
DEFPOINTS
 62
     0
 48
25.0
100
AcDbPoint
 10
4123.469910207106
 20
3285.075433030023
 30
0.0
  0
POINT
  5
CBAF
330
C200
100
AcDbEntity
  8
DEFPOINTS
 62
     0
 48
25.0
100
AcDbPoint
 10
6123.469910207106
 20
3285.075433030023
 30
0.0
  0
POINT
  5
CBB0
330
C200
100
AcDbEntity
  8
DEFPOINTS
 62
     0
 48
25.0
100
AcDbPoint
 10
6123.469910207106
 20
3554.488116556486
 30
0.0
  0
ENDBLK
  5
C20B
330
C200
100
AcDbEntity
  8
0
 48
25.0
100
AcDbBlockEnd
  0
BLOCK
  5
C216
330
C20C
100
AcDbEntity
  8
0
 48
25.0
100
AcDbBlockBegin
  2
*D12
 70
     1
 10
0.0
 20
0.0
 30
0.0
  3
*D12
  1

  0
LINE
  5
CB5A
330
C20C
100
AcDbEntity
  8
寸法引出
 48
25.0
370
    -2
100
AcDbLine
 10
4243.469910207106
 20
3310.075433030023
 30
0.0
 11
4243.469910207106
 21
3443.860045059736
 31
0.0
  0
LINE
  5
CB5B
330
C20C
100
AcDbEntity
  8
寸法引出
 48
25.0
370
    -2
100
AcDbLine
 10
5003.469910207106
 20
3310.075433030023
 30
0.0
 11
5003.469910207106
 21
3443.860045059736
 31
0.0
  0
LINE
  5
CB5C
330
C20C
100
AcDbEntity
  8
寸法引出
 48
25.0
370
    -2
100
AcDbLine
 10
4280.969910207106
 20
3431.360045059736
 30
0.0
 11
4965.969910207107
 21
3431.360045059736
 31
0.0
  0
SOLID
  5
CB5D
330
C20C
100
AcDbEntity
  8
寸法引出
 48
25.0
100
AcDbTrace
 10
4280.969910207106
 20
3437.610045059736
 30
0.0
 11
4280.969910207106
 21
3425.110045059736
 31
0.0
 12
4243.469910207106
 22
3431.360045059736
 32
0.0
 13
4243.469910207106
 23
3431.360045059736
 33
0.0
  0
SOLID
  5
CB5E
330
C20C
100
AcDbEntity
  8
寸法引出
 48
25.0
100
AcDbTrace
 10
4965.969910207107
 20
3437.610045059736
 30
0.0
 11
4965.969910207107
 21
3425.110045059736
 31
0.0
 12
5003.469910207106
 22
3431.360045059736
 32
0.0
 13
5003.469910207106
 23
3431.360045059736
 33
0.0
  0
MTEXT
  5
CB5F
330
C20C
100
AcDbEntity
  8
寸法引出
 48
25.0
100
AcDbMText
 10
4623.469910207106
 20
3481.360045059736
 30
0.0
 40
50.0
 41
0.0
 71
     5
 72
     1
  1
\A1;760
  7
SANWA
 73
     1
 44
1.0
  0
POINT
  5
CB60
330
C20C
100
AcDbEntity
  8
DEFPOINTS
 62
     0
 48
25.0
100
AcDbPoint
 10
4243.469910207106
 20
3285.075433030023
 30
0.0
  0
POINT
  5
CB61
330
C20C
100
AcDbEntity
  8
DEFPOINTS
 62
     0
 48
25.0
100
AcDbPoint
 10
5003.469910207106
 20
3285.075433030023
 30
0.0
  0
POINT
  5
CB62
330
C20C
100
AcDbEntity
  8
DEFPOINTS
 62
     0
 48
25.0
100
AcDbPoint
 10
5003.469910207106
 20
3431.360045059736
 30
0.0
  0
ENDBLK
  5
C217
330
C20C
100
AcDbEntity
  8
0
 48
25.0
100
AcDbBlockEnd
  0
BLOCK
  5
C224
330
C218
100
AcDbEntity
  8
0
 48
25.0
100
AcDbBlockBegin
  2
*D13
 70
     1
 10
0.0
 20
0.0
 30
0.0
  3
*D13
  1

  0
LINE
  5
CB63
330
C218
100
AcDbEntity
  8
寸法引出
 48
25.0
370
    -2
100
AcDbLine
 10
4123.469910207106
 20
3310.075433030023
 30
0.0
 11
4123.469910207106
 21
3443.860045059736
 31
0.0
  0
LINE
  5
CB64
330
C218
100
AcDbEntity
  8
寸法引出
 48
25.0
370
    -2
100
AcDbLine
 10
4243.469910207106
 20
3310.075433030023
 30
0.0
 11
4243.469910207106
 21
3443.860045059736
 31
0.0
  0
LINE
  5
CB65
330
C218
100
AcDbEntity
  8
寸法引出
 48
25.0
370
    -2
100
AcDbLine
 10
4085.969910207106
 20
3431.360045059736
 30
0.0
 11
4048.469910207106
 21
3431.360045059736
 31
0.0
  0
LINE
  5
CB66
330
C218
100
AcDbEntity
  8
寸法引出
 48
25.0
370
    -2
100
AcDbLine
 10
4280.969910207106
 20
3431.360045059736
 30
0.0
 11
4318.469910207106
 21
3431.360045059736
 31
0.0
  0
LINE
  5
CB67
330
C218
100
AcDbEntity
  8
寸法引出
 48
25.0
370
    -2
100
AcDbLine
 10
4123.469910207106
 20
3431.360045059736
 30
0.0
 11
4243.469910207106
 21
3431.360045059736
 31
0.0
  0
SOLID
  5
CB68
330
C218
100
AcDbEntity
  8
寸法引出
 48
25.0
100
AcDbTrace
 10
4085.969910207106
 20
3437.610045059736
 30
0.0
 11
4085.969910207106
 21
3425.110045059736
 31
0.0
 12
4123.469910207106
 22
3431.360045059736
 32
0.0
 13
4123.469910207106
 23
3431.360045059736
 33
0.0
  0
SOLID
  5
CB69
330
C218
100
AcDbEntity
  8
寸法引出
 48
25.0
100
AcDbTrace
 10
4280.969910207106
 20
3437.610045059736
 30
0.0
 11
4280.969910207106
 21
3425.110045059736
 31
0.0
 12
4243.469910207106
 22
3431.360045059736
 32
0.0
 13
4243.469910207106
 23
3431.360045059736
 33
0.0
  0
MTEXT
  5
CB6A
330
C218
100
AcDbEntity
  8
寸法引出
 48
25.0
100
AcDbMText
 10
4183.469910207106
 20
3481.360045059736
 30
0.0
 40
50.0
 41
0.0
 71
     5
 72
     1
  1
\A1;120
  7
SANWA
 73
     1
 44
1.0
  0
POINT
  5
CB6B
330
C218
100
AcDbEntity
  8
DEFPOINTS
 62
     0
 48
25.0
100
AcDbPoint
 10
4123.469910207106
 20
3285.075433030023
 30
0.0
  0
POINT
  5
CB6C
330
C218
100
AcDbEntity
  8
DEFPOINTS
 62
     0
 48
25.0
100
AcDbPoint
 10
4243.469910207106
 20
3285.075433030023
 30
0.0
  0
POINT
  5
CB6D
330
C218
100
AcDbEntity
  8
DEFPOINTS
 62
     0
 48
25.0
100
AcDbPoint
 10
4243.469910207106
 20
3431.360045059736
 30
0.0
  0
ENDBLK
  5
C225
330
C218
100
AcDbEntity
  8
0
 48
25.0
100
AcDbBlockEnd
  0
BLOCK
  5
C232
330
C226
100
AcDbEntity
  8
0
 48
25.0
100
AcDbBlockBegin
  2
*D14
 70
     1
 10
0.0
 20
0.0
 30
0.0
  3
*D14
  1

  0
LINE
  5
CC30
330
C226
100
AcDbEntity
  8
寸法引出
 48
25.0
370
    -2
100
AcDbLine
 10
4123.469910207106
 20
3085.575433030023
 30
0.0
 11
4123.469910207106
 21
2987.50044002426
 31
0.0
  0
LINE
  5
CC31
330
C226
100
AcDbEntity
  8
寸法引出
 48
25.0
370
    -2
100
AcDbLine
 10
4173.469910207106
 20
3110.075433030023
 30
0.0
 11
4173.469910207106
 21
2987.50044002426
 31
0.0
  0
LINE
  5
CC32
330
C226
100
AcDbEntity
  8
寸法引出
 48
25.0
370
    -2
100
AcDbLine
 10
4085.969910207106
 20
3000.00044002426
 30
0.0
 11
4048.469910207106
 21
3000.00044002426
 31
0.0
  0
LINE
  5
CC33
330
C226
100
AcDbEntity
  8
寸法引出
 48
25.0
370
    -2
100
AcDbLine
 10
4210.969910207106
 20
3000.00044002426
 30
0.0
 11
4248.469910207106
 21
3000.00044002426
 31
0.0
  0
LINE
  5
CC34
330
C226
100
AcDbEntity
  8
寸法引出
 48
25.0
370
    -2
100
AcDbLine
 10
4123.469910207106
 20
3000.00044002426
 30
0.0
 11
4173.469910207106
 21
3000.00044002426
 31
0.0
  0
SOLID
  5
CC35
330
C226
100
AcDbEntity
  8
寸法引出
 48
25.0
100
AcDbTrace
 10
4085.969910207106
 20
3006.25044002426
 30
0.0
 11
4085.969910207106
 21
2993.75044002426
 31
0.0
 12
4123.469910207106
 22
3000.00044002426
 32
0.0
 13
4123.469910207106
 23
3000.00044002426
 33
0.0
  0
SOLID
  5
CC36
330
C226
100
AcDbEntity
  8
寸法引出
 48
25.0
100
AcDbTrace
 10
4210.969910207106
 20
3006.25044002426
 30
0.0
 11
4210.969910207106
 21
2993.75044002426
 31
0.0
 12
4173.469910207106
 22
3000.00044002426
 32
0.0
 13
4173.469910207106
 23
3000.00044002426
 33
0.0
  0
MTEXT
  5
CC37
330
C226
100
AcDbEntity
  8
寸法引出
 48
25.0
100
AcDbMText
 10
4148.469910207106
 20
3050.00044002426
 30
0.0
 40
50.0
 41
0.0
 71
     5
 72
     1
  1
\A1;50
  7
SANWA
 73
     1
 44
1.0
  0
POINT
  5
CC38
330
C226
100
AcDbEntity
  8
DEFPOINTS
 62
     0
 48
25.0
100
AcDbPoint
 10
4123.469910207106
 20
3110.575433030023
 30
0.0
  0
POINT
  5
CC39
330
C226
100
AcDbEntity
  8
DEFPOINTS
 62
     0
 48
25.0
100
AcDbPoint
 10
4173.469910207106
 20
3135.075433030023
 30
0.0
  0
POINT
  5
CC3A
330
C226
100
AcDbEntity
  8
DEFPOINTS
 62
     0
 48
25.0
100
AcDbPoint
 10
4173.469910207106
 20
3000.00044002426
 30
0.0
  0
ENDBLK
  5
C233
330
C226
100
AcDbEntity
  8
0
 48
25.0
100
AcDbBlockEnd
  0
BLOCK
  5
C23E
330
C234
100
AcDbEntity
  8
0
 48
25.0
100
AcDbBlockBegin
  2
*D15
 70
     1
 10
0.0
 20
0.0
 30
0.0
  3
*D15
  1

  0
LINE
  5
CC27
330
C234
100
AcDbEntity
  8
寸法引出
 48
25.0
370
    -2
100
AcDbLine
 10
4098.469910207106
 20
3135.075433030023
 30
0.0
 11
3983.737552926137
 21
3135.075433030023
 31
0.0
  0
LINE
  5
CC28
330
C234
100
AcDbEntity
  8
寸法引出
 48
25.0
370
    -2
100
AcDbLine
 10
4098.469910207106
 20
3285.075433030023
 30
0.0
 11
3983.737552926137
 21
3285.075433030023
 31
0.0
  0
LINE
  5
CC29
330
C234
100
AcDbEntity
  8
寸法引出
 48
25.0
370
    -2
100
AcDbLine
 10
3996.237552926137
 20
3172.575433030023
 30
0.0
 11
3996.237552926137
 21
3247.575433030023
 31
0.0
  0
SOLID
  5
CC2A
330
C234
100
AcDbEntity
  8
寸法引出
 48
25.0
100
AcDbTrace
 10
3989.987552926137
 20
3172.575433030023
 30
0.0
 11
4002.487552926137
 21
3172.575433030023
 31
0.0
 12
3996.237552926137
 22
3135.075433030023
 32
0.0
 13
3996.237552926137
 23
3135.075433030023
 33
0.0
  0
SOLID
  5
CC2B
330
C234
100
AcDbEntity
  8
寸法引出
 48
25.0
100
AcDbTrace
 10
3989.987552926137
 20
3247.575433030023
 30
0.0
 11
4002.487552926137
 21
3247.575433030023
 31
0.0
 12
3996.237552926137
 22
3285.075433030023
 32
0.0
 13
3996.237552926137
 23
3285.075433030023
 33
0.0
  0
MTEXT
  5
CC2C
330
C234
100
AcDbEntity
  8
寸法引出
 48
25.0
100
AcDbMText
 10
3946.237552926136
 20
3210.075433030024
 30
0.0
 40
50.0
 41
0.0
 71
     5
 72
     1
  1
\A1;150
  7
SANWA
 11
0.0000000000000001
 21
1.0
 31
0.0
 73
     1
 44
1.0
  0
POINT
  5
CC2D
330
C234
100
AcDbEntity
  8
DEFPOINTS
 62
     0
 48
25.0
100
AcDbPoint
 10
4123.469910207106
 20
3135.075433030023
 30
0.0
  0
POINT
  5
CC2E
330
C234
100
AcDbEntity
  8
DEFPOINTS
 62
     0
 48
25.0
100
AcDbPoint
 10
4123.469910207106
 20
3285.075433030023
 30
0.0
  0
POINT
  5
CC2F
330
C234
100
AcDbEntity
  8
DEFPOINTS
 62
     0
 48
25.0
100
AcDbPoint
 10
3996.237552926137
 20
3285.075433030023
 30
0.0
  0
ENDBLK
  5
C23F
330
C234
100
AcDbEntity
  8
0
 48
25.0
100
AcDbBlockEnd
  0
BLOCK
  5
C24A
330
C240
100
AcDbEntity
  8
0
 48
25.0
100
AcDbBlockBegin
  2
*D16
 70
     1
 10
0.0
 20
0.0
 30
0.0
  3
*D16
  1

  0
LINE
  5
CB6E
330
C240
100
AcDbEntity
  8
寸法引出
 48
25.0
370
    -2
100
AcDbLine
 10
5003.469910207106
 20
3310.075433030023
 30
0.0
 11
5003.469910207106
 21
3443.860045059736
 31
0.0
  0
LINE
  5
CB6F
330
C240
100
AcDbEntity
  8
寸法引出
 48
25.0
370
    -2
100
AcDbLine
 10
5243.469910207107
 20
3310.075433030023
 30
0.0
 11
5243.469910207107
 21
3443.860045059736
 31
0.0
  0
LINE
  5
CB70
330
C240
100
AcDbEntity
  8
寸法引出
 48
25.0
370
    -2
100
AcDbLine
 10
5040.969910207106
 20
3431.360045059736
 30
0.0
 11
5205.969910207106
 21
3431.360045059736
 31
0.0
  0
SOLID
  5
CB71
330
C240
100
AcDbEntity
  8
寸法引出
 48
25.0
100
AcDbTrace
 10
5040.969910207106
 20
3437.610045059736
 30
0.0
 11
5040.969910207106
 21
3425.110045059736
 31
0.0
 12
5003.469910207106
 22
3431.360045059736
 32
0.0
 13
5003.469910207106
 23
3431.360045059736
 33
0.0
  0
SOLID
  5
CB72
330
C240
100
AcDbEntity
  8
寸法引出
 48
25.0
100
AcDbTrace
 10
5205.969910207106
 20
3437.610045059736
 30
0.0
 11
5205.969910207106
 21
3425.110045059736
 31
0.0
 12
5243.469910207107
 22
3431.360045059736
 32
0.0
 13
5243.469910207107
 23
3431.360045059736
 33
0.0
  0
MTEXT
  5
CB73
330
C240
100
AcDbEntity
  8
寸法引出
 48
25.0
100
AcDbMText
 10
5123.469910207106
 20
3481.360045059736
 30
0.0
 40
50.0
 41
0.0
 71
     5
 72
     1
  1
\A1;240
  7
SANWA
 73
     1
 44
1.0
  0
POINT
  5
CB74
330
C240
100
AcDbEntity
  8
DEFPOINTS
 62
     0
 48
25.0
100
AcDbPoint
 10
5003.469910207106
 20
3285.075433030023
 30
0.0
  0
POINT
  5
CB75
330
C240
100
AcDbEntity
  8
DEFPOINTS
 62
     0
 48
25.0
100
AcDbPoint
 10
5243.469910207107
 20
3285.075433030023
 30
0.0
  0
POINT
  5
CB76
330
C240
100
AcDbEntity
  8
DEFPOINTS
 62
     0
 48
25.0
100
AcDbPoint
 10
5243.469910207107
 20
3431.360045059736
 30
0.0
  0
ENDBLK
  5
C24B
330
C240
100
AcDbEntity
  8
0
 48
25.0
100
AcDbBlockEnd
  0
BLOCK
  5
C258
330
C24C
100
AcDbEntity
  8
0
 48
25.0
100
AcDbBlockBegin
  2
*D17
 70
     1
 10
0.0
 20
0.0
 30
0.0
  3
*D17
  1

  0
LINE
  5
CB4F
330
C24C
100
AcDbEntity
  8
寸法引出
 48
25.0
370
    -2
100
AcDbLine
 10
6003.469910207106
 20
3310.075433030023
 30
0.0
 11
6003.469910207106
 21
3443.860045059736
 31
0.0
  0
LINE
  5
CB50
330
C24C
100
AcDbEntity
  8
寸法引出
 48
25.0
370
    -2
100
AcDbLine
 10
6123.469910207106
 20
3310.075433030023
 30
0.0
 11
6123.469910207106
 21
3443.860045059736
 31
0.0
  0
LINE
  5
CB51
330
C24C
100
AcDbEntity
  8
寸法引出
 48
25.0
370
    -2
100
AcDbLine
 10
5965.969910207107
 20
3431.360045059736
 30
0.0
 11
5928.469910207106
 21
3431.360045059736
 31
0.0
  0
LINE
  5
CB52
330
C24C
100
AcDbEntity
  8
寸法引出
 48
25.0
370
    -2
100
AcDbLine
 10
6160.969910207106
 20
3431.360045059736
 30
0.0
 11
6198.469910207106
 21
3431.360045059736
 31
0.0
  0
LINE
  5
CB53
330
C24C
100
AcDbEntity
  8
寸法引出
 48
25.0
370
    -2
100
AcDbLine
 10
6003.469910207106
 20
3431.360045059736
 30
0.0
 11
6123.469910207106
 21
3431.360045059736
 31
0.0
  0
SOLID
  5
CB54
330
C24C
100
AcDbEntity
  8
寸法引出
 48
25.0
100
AcDbTrace
 10
5965.969910207107
 20
3437.610045059736
 30
0.0
 11
5965.969910207107
 21
3425.110045059736
 31
0.0
 12
6003.469910207106
 22
3431.360045059736
 32
0.0
 13
6003.469910207106
 23
3431.360045059736
 33
0.0
  0
SOLID
  5
CB55
330
C24C
100
AcDbEntity
  8
寸法引出
 48
25.0
100
AcDbTrace
 10
6160.969910207106
 20
3437.610045059736
 30
0.0
 11
6160.969910207106
 21
3425.110045059736
 31
0.0
 12
6123.469910207106
 22
3431.360045059736
 32
0.0
 13
6123.469910207106
 23
3431.360045059736
 33
0.0
  0
MTEXT
  5
CB56
330
C24C
100
AcDbEntity
  8
寸法引出
 48
25.0
100
AcDbMText
 10
6063.469910207107
 20
3481.360045059736
 30
0.0
 40
50.0
 41
0.0
 71
     5
 72
     1
  1
\A1;120
  7
SANWA
 73
     1
 44
1.0
  0
POINT
  5
CB57
330
C24C
100
AcDbEntity
  8
DEFPOINTS
 62
     0
 48
25.0
100
AcDbPoint
 10
6003.469910207106
 20
3285.075433030023
 30
0.0
  0
POINT
  5
CB58
330
C24C
100
AcDbEntity
  8
DEFPOINTS
 62
     0
 48
25.0
100
AcDbPoint
 10
6123.469910207106
 20
3285.075433030023
 30
0.0
  0
POINT
  5
CB59
330
C24C
100
AcDbEntity
  8
DEFPOINTS
 62
     0
 48
25.0
100
AcDbPoint
 10
6123.469910207106
 20
3431.360045059736
 30
0.0
  0
ENDBLK
  5
C259
330
C24C
100
AcDbEntity
  8
0
 48
25.0
100
AcDbBlockEnd
  0
BLOCK
  5
C264
330
C25A
100
AcDbEntity
  8
0
 48
25.0
100
AcDbBlockBegin
  2
*D18
 70
     1
 10
0.0
 20
0.0
 30
0.0
  3
*D18
  1

  0
LINE
  5
CBED
330
C25A
100
AcDbEntity
  8
寸法引出
 48
25.0
370
    -2
100
AcDbLine
 10
2584.562192101643
 20
3285.075433030025
 30
0.0
 11
2811.774464005634
 21
3285.075433030025
 31
0.0
  0
LINE
  5
CBEE
330
C25A
100
AcDbEntity
  8
寸法引出
 48
25.0
370
    -2
100
AcDbLine
 10
2554.562192101639
 20
2290.075433030022
 30
0.0
 11
2811.774464005633
 21
2290.075433030022
 31
0.0
  0
LINE
  5
CBEF
330
C25A
100
AcDbEntity
  8
寸法引出
 48
25.0
370
    -2
100
AcDbLine
 10
2799.274464005634
 20
3247.575433030025
 30
0.0
 11
2799.274464005633
 21
2327.575433030022
 31
0.0
  0
SOLID
  5
CBF0
330
C25A
100
AcDbEntity
  8
寸法引出
 48
25.0
100
AcDbTrace
 10
2793.024464005634
 20
3247.575433030025
 30
0.0
 11
2805.524464005634
 21
3247.575433030025
 31
0.0
 12
2799.274464005634
 22
3285.075433030025
 32
0.0
 13
2799.274464005634
 23
3285.075433030025
 33
0.0
  0
SOLID
  5
CBF1
330
C25A
100
AcDbEntity
  8
寸法引出
 48
25.0
100
AcDbTrace
 10
2793.024464005633
 20
2327.575433030022
 30
0.0
 11
2805.524464005634
 21
2327.575433030022
 31
0.0
 12
2799.274464005633
 22
2290.075433030022
 32
0.0
 13
2799.274464005633
 23
2290.075433030022
 33
0.0
  0
MTEXT
  5
CBF2
330
C25A
100
AcDbEntity
  8
寸法引出
 48
25.0
100
AcDbMText
 10
2749.274464005633
 20
2787.575433030024
 30
0.0
 40
50.0
 41
0.0
 71
     5
 72
     1
  1
\A1;995
  7
SANWA
 11
0.0000000000000001
 21
1.0
 31
0.0
 73
     1
 44
1.0
  0
POINT
  5
CBF3
330
C25A
100
AcDbEntity
  8
DEFPOINTS
 62
     0
 48
25.0
100
AcDbPoint
 10
2559.562192101642
 20
3285.075433030025
 30
0.0
  0
POINT
  5
CBF4
330
C25A
100
AcDbEntity
  8
DEFPOINTS
 62
     0
 48
25.0
100
AcDbPoint
 10
2529.562192101639
 20
2290.075433030022
 30
0.0
  0
POINT
  5
CBF5
330
C25A
100
AcDbEntity
  8
DEFPOINTS
 62
     0
 48
25.0
100
AcDbPoint
 10
2799.274464005633
 20
2290.075433030022
 30
0.0
  0
ENDBLK
  5
C265
330
C25A
100
AcDbEntity
  8
0
 48
25.0
100
AcDbBlockEnd
  0
BLOCK
  5
C270
330
C266
100
AcDbEntity
  8
0
 48
25.0
100
AcDbBlockBegin
  2
*D19
 70
     1
 10
0.0
 20
0.0
 30
0.0
  3
*D19
  1

  0
LINE
  5
CBF6
330
C266
100
AcDbEntity
  8
寸法引出
 48
25.0
370
    -2
100
AcDbLine
 10
2584.562192101643
 20
3285.075433030025
 30
0.0
 11
2703.805063343782
 21
3285.075433030025
 31
0.0
  0
LINE
  5
CBF7
330
C266
100
AcDbEntity
  8
寸法引出
 48
25.0
370
    -2
100
AcDbLine
 10
2584.562192101643
 20
2385.075433030023
 30
0.0
 11
2703.805063343781
 21
2385.075433030023
 31
0.0
  0
LINE
  5
CBF8
330
C266
100
AcDbEntity
  8
寸法引出
 48
25.0
370
    -2
100
AcDbLine
 10
2691.305063343782
 20
3247.575433030025
 30
0.0
 11
2691.305063343781
 21
2422.575433030023
 31
0.0
  0
SOLID
  5
CBF9
330
C266
100
AcDbEntity
  8
寸法引出
 48
25.0
100
AcDbTrace
 10
2685.055063343781
 20
3247.575433030025
 30
0.0
 11
2697.555063343782
 21
3247.575433030025
 31
0.0
 12
2691.305063343782
 22
3285.075433030025
 32
0.0
 13
2691.305063343782
 23
3285.075433030025
 33
0.0
  0
SOLID
  5
CBFA
330
C266
100
AcDbEntity
  8
寸法引出
 48
25.0
100
AcDbTrace
 10
2685.055063343781
 20
2422.575433030023
 30
0.0
 11
2697.555063343781
 21
2422.575433030023
 31
0.0
 12
2691.305063343781
 22
2385.075433030023
 32
0.0
 13
2691.305063343781
 23
2385.075433030023
 33
0.0
  0
MTEXT
  5
CBFB
330
C266
100
AcDbEntity
  8
寸法引出
 48
25.0
100
AcDbMText
 10
2641.305063343781
 20
2835.075433030024
 30
0.0
 40
50.0
 41
0.0
 71
     5
 72
     1
  1
\A1;900
  7
SANWA
 11
0.0000000000000001
 21
1.0
 31
0.0
 73
     1
 44
1.0
  0
POINT
  5
CBFC
330
C266
100
AcDbEntity
  8
DEFPOINTS
 62
     0
 48
25.0
100
AcDbPoint
 10
2559.562192101642
 20
3285.075433030025
 30
0.0
  0
POINT
  5
CBFD
330
C266
100
AcDbEntity
  8
DEFPOINTS
 62
     0
 48
25.0
100
AcDbPoint
 10
2559.562192101642
 20
2385.075433030023
 30
0.0
  0
POINT
  5
CBFE
330
C266
100
AcDbEntity
  8
DEFPOINTS
 62
     0
 48
25.0
100
AcDbPoint
 10
2691.305063343781
 20
2385.075433030023
 30
0.0
  0
ENDBLK
  5
C271
330
C266
100
AcDbEntity
  8
0
 48
25.0
100
AcDbBlockEnd
  0
BLOCK
  5
C27C
330
C272
100
AcDbEntity
  8
0
 48
25.0
100
AcDbBlockBegin
  2
*D20
 70
     1
 10
0.0
 20
0.0
 30
0.0
  3
*D20
  1

  0
LINE
  5
CBC3
330
C272
100
AcDbEntity
  8
寸法引出
 48
25.0
370
    -2
100
AcDbLine
 10
2123.631977939767
 20
929.9652226668014
 30
0.0
 11
2349.73173669241
 21
929.9652226668012
 31
0.0
  0
LINE
  5
CBC4
330
C272
100
AcDbEntity
  8
寸法引出
 48
25.0
370
    -2
100
AcDbLine
 10
2123.63197793976
 20
1064.965222666801
 30
0.0
 11
2349.73173669241
 21
1064.965222666801
 31
0.0
  0
LINE
  5
CBC5
330
C272
100
AcDbEntity
  8
寸法引出
 48
25.0
370
    -2
100
AcDbLine
 10
2337.23173669241
 20
967.4652226668012
 30
0.0
 11
2337.23173669241
 21
1027.465222666801
 31
0.0
  0
SOLID
  5
CBC6
330
C272
100
AcDbEntity
  8
寸法引出
 48
25.0
100
AcDbTrace
 10
2330.98173669241
 20
967.4652226668012
 30
0.0
 11
2343.48173669241
 21
967.4652226668012
 31
0.0
 12
2337.23173669241
 22
929.9652226668012
 32
0.0
 13
2337.23173669241
 23
929.9652226668012
 33
0.0
  0
SOLID
  5
CBC7
330
C272
100
AcDbEntity
  8
寸法引出
 48
25.0
100
AcDbTrace
 10
2330.981736692411
 20
1027.465222666801
 30
0.0
 11
2343.48173669241
 21
1027.465222666801
 31
0.0
 12
2337.23173669241
 22
1064.965222666801
 32
0.0
 13
2337.23173669241
 23
1064.965222666801
 33
0.0
  0
MTEXT
  5
CBC8
330
C272
100
AcDbEntity
  8
寸法引出
 48
25.0
100
AcDbMText
 10
2287.23173669241
 20
997.4652226668016
 30
0.0
 40
50.0
 41
0.0
 71
     5
 72
     1
  1
\A1;45
  7
SANWA
 11
0.0000000000000001
 21
1.0
 31
0.0
 73
     1
 44
1.0
  0
POINT
  5
CBC9
330
C272
100
AcDbEntity
  8
DEFPOINTS
 62
     0
 48
25.0
100
AcDbPoint
 10
2098.631977939767
 20
929.9652226668014
 30
0.0
  0
POINT
  5
CBCA
330
C272
100
AcDbEntity
  8
DEFPOINTS
 62
     0
 48
25.0
100
AcDbPoint
 10
2098.631977939759
 20
1064.965222666801
 30
0.0
  0
POINT
  5
CBCB
330
C272
100
AcDbEntity
  8
DEFPOINTS
 62
     0
 48
25.0
100
AcDbPoint
 10
2337.23173669241
 20
1064.965222666801
 30
0.0
  0
ENDBLK
  5
C27D
330
C272
100
AcDbEntity
  8
0
 48
25.0
100
AcDbBlockEnd
  0
BLOCK
  5
C288
330
C27E
100
AcDbEntity
  8
0
 48
25.0
100
AcDbBlockBegin
  2
*D21
 70
     1
 10
0.0
 20
0.0
 30
0.0
  3
*D21
  1

  0
LINE
  5
CBBA
330
C27E
100
AcDbEntity
  8
寸法引出
 48
25.0
370
    -2
100
AcDbLine
 10
1843.631977939759
 20
898.9652226668013
 30
0.0
 11
1843.631977939759
 21
810.7434378874923
 31
0.0
  0
LINE
  5
CBBB
330
C27E
100
AcDbEntity
  8
寸法引出
 48
25.0
370
    -2
100
AcDbLine
 10
1993.631977939759
 20
972.4652226668013
 30
0.0
 11
1993.631977939759
 21
810.7434378874923
 31
0.0
  0
LINE
  5
CBBC
330
C27E
100
AcDbEntity
  8
寸法引出
 48
25.0
370
    -2
100
AcDbLine
 10
1881.13197793976
 20
823.2434378874923
 30
0.0
 11
1956.13197793976
 21
823.2434378874923
 31
0.0
  0
SOLID
  5
CBBD
330
C27E
100
AcDbEntity
  8
寸法引出
 48
25.0
100
AcDbTrace
 10
1881.13197793976
 20
829.4934378874923
 30
0.0
 11
1881.13197793976
 21
816.9934378874923
 31
0.0
 12
1843.631977939759
 22
823.2434378874923
 32
0.0
 13
1843.631977939759
 23
823.2434378874923
 33
0.0
  0
SOLID
  5
CBBE
330
C27E
100
AcDbEntity
  8
寸法引出
 48
25.0
100
AcDbTrace
 10
1956.13197793976
 20
829.4934378874923
 30
0.0
 11
1956.13197793976
 21
816.9934378874923
 31
0.0
 12
1993.631977939759
 22
823.2434378874923
 32
0.0
 13
1993.631977939759
 23
823.2434378874923
 33
0.0
  0
MTEXT
  5
CBBF
330
C27E
100
AcDbEntity
  8
寸法引出
 48
25.0
100
AcDbMText
 10
1918.631977939759
 20
873.2434378874923
 30
0.0
 40
50.0
 41
0.0
 71
     5
 72
     1
  1
\A1;50
  7
SANWA
 73
     1
 44
1.0
  0
POINT
  5
CBC0
330
C27E
100
AcDbEntity
  8
DEFPOINTS
 62
     0
 48
25.0
100
AcDbPoint
 10
1843.631977939759
 20
923.9652226668013
 30
0.0
  0
POINT
  5
CBC1
330
C27E
100
AcDbEntity
  8
DEFPOINTS
 62
     0
 48
25.0
100
AcDbPoint
 10
1993.631977939759
 20
997.4652226668013
 30
0.0
  0
POINT
  5
CBC2
330
C27E
100
AcDbEntity
  8
DEFPOINTS
 62
     0
 48
25.0
100
AcDbPoint
 10
1993.631977939759
 20
823.2434378874923
 30
0.0
  0
ENDBLK
  5
C289
330
C27E
100
AcDbEntity
  8
0
 48
25.0
100
AcDbBlockEnd
  0
BLOCK
  5
C296
330
C28A
100
AcDbEntity
  8
0
 48
25.0
100
AcDbBlockBegin
  2
*D22
 70
     1
 10
0.0
 20
0.0
 30
0.0
  3
*D22
  1

  0
LINE
  5
CBCC
330
C28A
100
AcDbEntity
  8
寸法引出
 48
25.0
370
    -2
100
AcDbLine
 10
2776.362149680084
 20
898.9652226668013
 30
0.0
 11
2776.362149680084
 21
799.7532168494408
 31
0.0
  0
LINE
  5
CBCD
330
C28A
100
AcDbEntity
  8
寸法引出
 48
25.0
370
    -2
100
AcDbLine
 10
2785.962149680086
 20
904.9652226668014
 30
0.0
 11
2785.962149680086
 21
799.7532168494408
 31
0.0
  0
LINE
  5
CBCE
330
C28A
100
AcDbEntity
  8
寸法引出
 48
25.0
370
    -2
100
AcDbLine
 10
2738.862149680084
 20
812.2532168494409
 30
0.0
 11
2701.362149680084
 21
812.2532168494409
 31
0.0
  0
LINE
  5
CBCF
330
C28A
100
AcDbEntity
  8
寸法引出
 48
25.0
370
    -2
100
AcDbLine
 10
2823.462149680086
 20
812.2532168494409
 30
0.0
 11
2860.962149680086
 21
812.2532168494409
 31
0.0
  0
LINE
  5
CBD0
330
C28A
100
AcDbEntity
  8
寸法引出
 48
25.0
370
    -2
100
AcDbLine
 10
2776.362149680084
 20
812.2532168494409
 30
0.0
 11
2785.962149680086
 21
812.2532168494409
 31
0.0
  0
SOLID
  5
CBD1
330
C28A
100
AcDbEntity
  8
寸法引出
 48
25.0
100
AcDbTrace
 10
2738.862149680084
 20
818.5032168494409
 30
0.0
 11
2738.862149680084
 21
806.0032168494409
 31
0.0
 12
2776.362149680084
 22
812.2532168494409
 32
0.0
 13
2776.362149680084
 23
812.2532168494409
 33
0.0
  0
SOLID
  5
CBD2
330
C28A
100
AcDbEntity
  8
寸法引出
 48
25.0
100
AcDbTrace
 10
2823.462149680086
 20
818.5032168494409
 30
0.0
 11
2823.462149680086
 21
806.0032168494409
 31
0.0
 12
2785.962149680086
 22
812.2532168494409
 32
0.0
 13
2785.962149680086
 23
812.2532168494409
 33
0.0
  0
MTEXT
  5
CBD3
330
C28A
100
AcDbEntity
  8
寸法引出
 48
25.0
100
AcDbMText
 10
2781.162149680085
 20
862.2532168494409
 30
0.0
 40
50.0
 41
0.0
 71
     5
 72
     1
  1
\A1;3.2
  7
SANWA
 73
     1
 44
1.0
  0
POINT
  5
CBD4
330
C28A
100
AcDbEntity
  8
DEFPOINTS
 62
     0
 48
25.0
100
AcDbPoint
 10
2776.362149680084
 20
923.9652226668013
 30
0.0
  0
POINT
  5
CBD5
330
C28A
100
AcDbEntity
  8
DEFPOINTS
 62
     0
 48
25.0
100
AcDbPoint
 10
2785.962149680086
 20
929.9652226668014
 30
0.0
  0
POINT
  5
CBD6
330
C28A
100
AcDbEntity
  8
DEFPOINTS
 62
     0
 48
25.0
100
AcDbPoint
 10
2785.962149680086
 20
812.2532168494409
 30
0.0
  0
ENDBLK
  5
C297
330
C28A
100
AcDbEntity
  8
0
 48
25.0
100
AcDbBlockEnd
  0
BLOCK
  5
C2A2
330
C298
100
AcDbEntity
  8
0
 48
25.0
100
AcDbBlockBegin
  2
*D23
 70
     1
 10
0.0
 20
0.0
 30
0.0
  3
*D23
  1

  0
LINE
  5
CBB1
330
C298
100
AcDbEntity
  8
寸法引出
 48
25.0
370
    -2
100
AcDbLine
 10
1843.631977939759
 20
1095.965222666801
 30
0.0
 11
1843.631977939759
 21
1163.960115882503
 31
0.0
  0
LINE
  5
CBB2
330
C298
100
AcDbEntity
  8
寸法引出
 48
25.0
370
    -2
100
AcDbLine
 10
2098.631977939759
 20
1089.965222666801
 30
0.0
 11
2098.631977939759
 21
1163.960115882503
 31
0.0
  0
LINE
  5
CBB3
330
C298
100
AcDbEntity
  8
寸法引出
 48
25.0
370
    -2
100
AcDbLine
 10
1881.13197793976
 20
1151.460115882503
 30
0.0
 11
2061.13197793976
 21
1151.460115882503
 31
0.0
  0
SOLID
  5
CBB4
330
C298
100
AcDbEntity
  8
寸法引出
 48
25.0
100
AcDbTrace
 10
1881.13197793976
 20
1157.710115882503
 30
0.0
 11
1881.13197793976
 21
1145.210115882503
 31
0.0
 12
1843.631977939759
 22
1151.460115882503
 32
0.0
 13
1843.631977939759
 23
1151.460115882503
 33
0.0
  0
SOLID
  5
CBB5
330
C298
100
AcDbEntity
  8
寸法引出
 48
25.0
100
AcDbTrace
 10
2061.13197793976
 20
1157.710115882503
 30
0.0
 11
2061.13197793976
 21
1145.210115882503
 31
0.0
 12
2098.631977939759
 22
1151.460115882503
 32
0.0
 13
2098.631977939759
 23
1151.460115882503
 33
0.0
  0
MTEXT
  5
CBB6
330
C298
100
AcDbEntity
  8
寸法引出
 48
25.0
100
AcDbMText
 10
1971.13197793976
 20
1201.460115882503
 30
0.0
 40
50.0
 41
0.0
 71
     5
 72
     1
  1
\A1;85
  7
SANWA
 73
     1
 44
1.0
  0
POINT
  5
CBB7
330
C298
100
AcDbEntity
  8
DEFPOINTS
 62
     0
 48
25.0
100
AcDbPoint
 10
1843.631977939759
 20
1070.965222666801
 30
0.0
  0
POINT
  5
CBB8
330
C298
100
AcDbEntity
  8
DEFPOINTS
 62
     0
 48
25.0
100
AcDbPoint
 10
2098.631977939759
 20
1064.965222666801
 30
0.0
  0
POINT
  5
CBB9
330
C298
100
AcDbEntity
  8
DEFPOINTS
 62
     0
 48
25.0
100
AcDbPoint
 10
2098.631977939759
 20
1151.460115882503
 30
0.0
  0
ENDBLK
  5
C2A3
330
C298
100
AcDbEntity
  8
0
 48
25.0
100
AcDbBlockEnd
  0
BLOCK
  5
C2B0
330
C2A4
100
AcDbEntity
  8
0
 48
25.0
100
AcDbBlockBegin
  2
*D24
 70
     1
 10
0.0
 20
0.0
 30
0.0
  3
*D24
  1

  0
LINE
  5
CBD7
330
C2A4
100
AcDbEntity
  8
寸法引出
 48
25.0
370
    -2
100
AcDbLine
 10
2098.631977939759
 20
1089.965222666801
 30
0.0
 11
2098.631977939759
 21
1163.960115882503
 31
0.0
  0
LINE
  5
CBD8
330
C2A4
100
AcDbEntity
  8
寸法引出
 48
25.0
370
    -2
100
AcDbLine
 10
2104.63197793976
 20
1095.965222666801
 30
0.0
 11
2104.63197793976
 21
1163.960115882503
 31
0.0
  0
LINE
  5
CBD9
330
C2A4
100
AcDbEntity
  8
寸法引出
 48
25.0
370
    -2
100
AcDbLine
 10
2061.13197793976
 20
1151.460115882503
 30
0.0
 11
2023.63197793976
 21
1151.460115882503
 31
0.0
  0
LINE
  5
CBDA
330
C2A4
100
AcDbEntity
  8
寸法引出
 48
25.0
370
    -2
100
AcDbLine
 10
2142.131977939759
 20
1151.460115882503
 30
0.0
 11
2179.631977939759
 21
1151.460115882503
 31
0.0
  0
LINE
  5
CBDB
330
C2A4
100
AcDbEntity
  8
寸法引出
 48
25.0
370
    -2
100
AcDbLine
 10
2098.631977939759
 20
1151.460115882503
 30
0.0
 11
2104.63197793976
 21
1151.460115882503
 31
0.0
  0
SOLID
  5
CBDC
330
C2A4
100
AcDbEntity
  8
寸法引出
 48
25.0
100
AcDbTrace
 10
2061.13197793976
 20
1157.710115882503
 30
0.0
 11
2061.13197793976
 21
1145.210115882503
 31
0.0
 12
2098.631977939759
 22
1151.460115882503
 32
0.0
 13
2098.631977939759
 23
1151.460115882503
 33
0.0
  0
SOLID
  5
CBDD
330
C2A4
100
AcDbEntity
  8
寸法引出
 48
25.0
100
AcDbTrace
 10
2142.131977939759
 20
1157.710115882503
 30
0.0
 11
2142.131977939759
 21
1145.210115882503
 31
0.0
 12
2104.63197793976
 22
1151.460115882503
 32
0.0
 13
2104.63197793976
 23
1151.460115882503
 33
0.0
  0
MTEXT
  5
CBDE
330
C2A4
100
AcDbEntity
  8
寸法引出
 48
25.0
100
AcDbMText
 10
2101.63197793976
 20
1201.460115882503
 30
0.0
 40
50.0
 41
0.0
 71
     5
 72
     1
  1
\A1;2
  7
SANWA
 73
     1
 44
1.0
  0
POINT
  5
CBDF
330
C2A4
100
AcDbEntity
  8
DEFPOINTS
 62
     0
 48
25.0
100
AcDbPoint
 10
2098.631977939759
 20
1064.965222666801
 30
0.0
  0
POINT
  5
CBE0
330
C2A4
100
AcDbEntity
  8
DEFPOINTS
 62
     0
 48
25.0
100
AcDbPoint
 10
2104.63197793976
 20
1070.965222666801
 30
0.0
  0
POINT
  5
CBE1
330
C2A4
100
AcDbEntity
  8
DEFPOINTS
 62
     0
 48
25.0
100
AcDbPoint
 10
2104.63197793976
 20
1151.460115882503
 30
0.0
  0
ENDBLK
  5
C2B1
330
C2A4
100
AcDbEntity
  8
0
 48
25.0
100
AcDbBlockEnd
  0
BLOCK
  5
C2CC
330
C2C0
100
AcDbEntity
  8
0
 48
25.0
100
AcDbBlockBegin
  2
*D25
 70
     1
 10
0.0
 20
0.0
 30
0.0
  3
*D25
  1

  0
LINE
  5
CBE2
330
C2C0
100
AcDbEntity
  8
寸法引出
 48
25.0
370
    -2
100
AcDbLine
 10
2584.562192101643
 20
2385.075433030023
 30
0.0
 11
2703.805063343781
 21
2385.075433030023
 31
0.0
  0
LINE
  5
CBE3
330
C2C0
100
AcDbEntity
  8
寸法引出
 48
25.0
370
    -2
100
AcDbLine
 10
2554.562192101639
 20
2290.075433030022
 30
0.0
 11
2703.805063343781
 21
2290.075433030022
 31
0.0
  0
LINE
  5
CBE4
330
C2C0
100
AcDbEntity
  8
寸法引出
 48
25.0
370
    -2
100
AcDbLine
 10
2691.305063343781
 20
2422.575433030023
 30
0.0
 11
2691.305063343781
 21
2460.075433030023
 31
0.0
  0
LINE
  5
CBE5
330
C2C0
100
AcDbEntity
  8
寸法引出
 48
25.0
370
    -2
100
AcDbLine
 10
2691.305063343781
 20
2252.575433030022
 30
0.0
 11
2691.305063343781
 21
2215.075433030022
 31
0.0
  0
LINE
  5
CBE6
330
C2C0
100
AcDbEntity
  8
寸法引出
 48
25.0
370
    -2
100
AcDbLine
 10
2691.305063343781
 20
2385.075433030023
 30
0.0
 11
2691.305063343781
 21
2290.075433030022
 31
0.0
  0
SOLID
  5
CBE7
330
C2C0
100
AcDbEntity
  8
寸法引出
 48
25.0
100
AcDbTrace
 10
2685.055063343781
 20
2422.575433030023
 30
0.0
 11
2697.555063343781
 21
2422.575433030023
 31
0.0
 12
2691.305063343781
 22
2385.075433030023
 32
0.0
 13
2691.305063343781
 23
2385.075433030023
 33
0.0
  0
SOLID
  5
CBE8
330
C2C0
100
AcDbEntity
  8
寸法引出
 48
25.0
100
AcDbTrace
 10
2685.055063343781
 20
2252.575433030022
 30
0.0
 11
2697.555063343781
 21
2252.575433030022
 31
0.0
 12
2691.305063343781
 22
2290.075433030022
 32
0.0
 13
2691.305063343781
 23
2290.075433030022
 33
0.0
  0
MTEXT
  5
CBE9
330
C2C0
100
AcDbEntity
  8
寸法引出
 48
25.0
100
AcDbMText
 10
2641.305063343781
 20
2337.575433030023
 30
0.0
 40
50.0
 41
0.0
 71
     5
 72
     1
  1
\A1;95
  7
SANWA
 11
0.0000000000000001
 21
1.0
 31
0.0
 73
     1
 44
1.0
  0
POINT
  5
CBEA
330
C2C0
100
AcDbEntity
  8
DEFPOINTS
 62
     0
 48
25.0
100
AcDbPoint
 10
2559.562192101642
 20
2385.075433030023
 30
0.0
  0
POINT
  5
CBEB
330
C2C0
100
AcDbEntity
  8
DEFPOINTS
 62
     0
 48
25.0
100
AcDbPoint
 10
2529.562192101639
 20
2290.075433030022
 30
0.0
  0
POINT
  5
CBEC
330
C2C0
100
AcDbEntity
  8
DEFPOINTS
 62
     0
 48
25.0
100
AcDbPoint
 10
2691.305063343781
 20
2290.075433030022
 30
0.0
  0
ENDBLK
  5
C2CD
330
C2C0
100
AcDbEntity
  8
0
 48
25.0
100
AcDbBlockEnd
  0
BLOCK
  5
C2F2
330
C2E8
100
AcDbEntity
  8
0
 48
25.0
100
AcDbBlockBegin
  2
*D26
 70
     1
 10
0.0
 20
0.0
 30
0.0
  3
*D26
  1

  0
LINE
  5
CB77
330
C2E8
100
AcDbEntity
  8
寸法引出
 48
25.0
370
    -2
100
AcDbLine
 10
2159.562192101642
 20
3310.075433030025
 30
0.0
 11
2159.562192101642
 21
3579.322907436358
 31
0.0
  0
LINE
  5
CB78
330
C2E8
100
AcDbEntity
  8
寸法引出
 48
25.0
370
    -2
100
AcDbLine
 10
2559.562192101642
 20
3310.075433030025
 30
0.0
 11
2559.562192101642
 21
3579.322907436358
 31
0.0
  0
LINE
  5
CB79
330
C2E8
100
AcDbEntity
  8
寸法引出
 48
25.0
370
    -2
100
AcDbLine
 10
2197.062192101642
 20
3566.822907436358
 30
0.0
 11
2522.062192101643
 21
3566.822907436358
 31
0.0
  0
SOLID
  5
CB7A
330
C2E8
100
AcDbEntity
  8
寸法引出
 48
25.0
100
AcDbTrace
 10
2197.062192101642
 20
3573.072907436358
 30
0.0
 11
2197.062192101642
 21
3560.572907436358
 31
0.0
 12
2159.562192101642
 22
3566.822907436358
 32
0.0
 13
2159.562192101642
 23
3566.822907436358
 33
0.0
  0
SOLID
  5
CB7B
330
C2E8
100
AcDbEntity
  8
寸法引出
 48
25.0
100
AcDbTrace
 10
2522.062192101643
 20
3573.072907436358
 30
0.0
 11
2522.062192101643
 21
3560.572907436358
 31
0.0
 12
2559.562192101642
 22
3566.822907436358
 32
0.0
 13
2559.562192101642
 23
3566.822907436358
 33
0.0
  0
MTEXT
  5
CB7C
330
C2E8
100
AcDbEntity
  8
寸法引出
 48
25.0
100
AcDbMText
 10
2359.562192101642
 20
3616.822907436358
 30
0.0
 40
50.0
 41
0.0
 71
     5
 72
     1
  1
\A1;400
  7
SANWA
 73
     1
 44
1.0
  0
POINT
  5
CB7D
330
C2E8
100
AcDbEntity
  8
DEFPOINTS
 62
     0
 48
25.0
100
AcDbPoint
 10
2159.562192101642
 20
3285.075433030025
 30
0.0
  0
POINT
  5
CB7E
330
C2E8
100
AcDbEntity
  8
DEFPOINTS
 62
     0
 48
25.0
100
AcDbPoint
 10
2559.562192101642
 20
3285.075433030025
 30
0.0
  0
POINT
  5
CB7F
330
C2E8
100
AcDbEntity
  8
DEFPOINTS
 62
     0
 48
25.0
100
AcDbPoint
 10
2559.562192101642
 20
3566.822907436358
 30
0.0
  0
ENDBLK
  5
C2F3
330
C2E8
100
AcDbEntity
  8
0
 48
25.0
100
AcDbBlockEnd
  0
BLOCK
  5
C300
330
C2F4
100
AcDbEntity
  8
0
 48
25.0
100
AcDbBlockBegin
  2
*D27
 70
     1
 10
0.0
 20
0.0
 30
0.0
  3
*D27
  1

  0
LINE
  5
CB80
330
C2F4
100
AcDbEntity
  8
寸法引出
 48
25.0
370
    -2
100
AcDbLine
 10
2509.562192101642
 20
3310.075433030025
 30
0.0
 11
2509.562192101642
 21
3448.760908638377
 31
0.0
  0
LINE
  5
CB81
330
C2F4
100
AcDbEntity
  8
寸法引出
 48
25.0
370
    -2
100
AcDbLine
 10
2559.562192101642
 20
3310.075433030025
 30
0.0
 11
2559.562192101642
 21
3448.760908638377
 31
0.0
  0
LINE
  5
CB82
330
C2F4
100
AcDbEntity
  8
寸法引出
 48
25.0
370
    -2
100
AcDbLine
 10
2472.062192101642
 20
3436.260908638377
 30
0.0
 11
2434.562192101642
 21
3436.260908638377
 31
0.0
  0
LINE
  5
CB83
330
C2F4
100
AcDbEntity
  8
寸法引出
 48
25.0
370
    -2
100
AcDbLine
 10
2597.062192101642
 20
3436.260908638377
 30
0.0
 11
2634.562192101642
 21
3436.260908638377
 31
0.0
  0
LINE
  5
CB84
330
C2F4
100
AcDbEntity
  8
寸法引出
 48
25.0
370
    -2
100
AcDbLine
 10
2509.562192101642
 20
3436.260908638377
 30
0.0
 11
2559.562192101642
 21
3436.260908638377
 31
0.0
  0
SOLID
  5
CB85
330
C2F4
100
AcDbEntity
  8
寸法引出
 48
25.0
100
AcDbTrace
 10
2472.062192101642
 20
3442.510908638377
 30
0.0
 11
2472.062192101642
 21
3430.010908638377
 31
0.0
 12
2509.562192101642
 22
3436.260908638377
 32
0.0
 13
2509.562192101642
 23
3436.260908638377
 33
0.0
  0
SOLID
  5
CB86
330
C2F4
100
AcDbEntity
  8
寸法引出
 48
25.0
100
AcDbTrace
 10
2597.062192101642
 20
3442.510908638377
 30
0.0
 11
2597.062192101642
 21
3430.010908638377
 31
0.0
 12
2559.562192101642
 22
3436.260908638377
 32
0.0
 13
2559.562192101642
 23
3436.260908638377
 33
0.0
  0
MTEXT
  5
CB87
330
C2F4
100
AcDbEntity
  8
寸法引出
 48
25.0
100
AcDbMText
 10
2534.562192101642
 20
3486.260908638377
 30
0.0
 40
50.0
 41
0.0
 71
     5
 72
     1
  1
\A1;50
  7
SANWA
 73
     1
 44
1.0
  0
POINT
  5
CB88
330
C2F4
100
AcDbEntity
  8
DEFPOINTS
 62
     0
 48
25.0
100
AcDbPoint
 10
2509.562192101642
 20
3285.075433030025
 30
0.0
  0
POINT
  5
CB89
330
C2F4
100
AcDbEntity
  8
DEFPOINTS
 62
     0
 48
25.0
100
AcDbPoint
 10
2559.562192101642
 20
3285.075433030025
 30
0.0
  0
POINT
  5
CB8A
330
C2F4
100
AcDbEntity
  8
DEFPOINTS
 62
     0
 48
25.0
100
AcDbPoint
 10
2559.562192101642
 20
3436.260908638377
 30
0.0
  0
ENDBLK
  5
C301
330
C2F4
100
AcDbEntity
  8
0
 48
25.0
100
AcDbBlockEnd
  0
BLOCK
  5
C30C
330
C302
100
AcDbEntity
  8
0
 48
25.0
100
AcDbBlockBegin
  2
*D28
 70
     1
 10
0.0
 20
0.0
 30
0.0
  3
*D28
  1

  0
LINE
  5
CB8B
330
C302
100
AcDbEntity
  8
寸法引出
 48
25.0
370
    -2
100
AcDbLine
 10
2209.562192101642
 20
3310.075433030025
 30
0.0
 11
2209.562192101642
 21
3448.760908638377
 31
0.0
  0
LINE
  5
CB8C
330
C302
100
AcDbEntity
  8
寸法引出
 48
25.0
370
    -2
100
AcDbLine
 10
2509.562192101642
 20
3310.075433030025
 30
0.0
 11
2509.562192101642
 21
3448.760908638377
 31
0.0
  0
LINE
  5
CB8D
330
C302
100
AcDbEntity
  8
寸法引出
 48
25.0
370
    -2
100
AcDbLine
 10
2247.062192101642
 20
3436.260908638377
 30
0.0
 11
2472.062192101642
 21
3436.260908638377
 31
0.0
  0
SOLID
  5
CB8E
330
C302
100
AcDbEntity
  8
寸法引出
 48
25.0
100
AcDbTrace
 10
2247.062192101642
 20
3442.510908638377
 30
0.0
 11
2247.062192101642
 21
3430.010908638377
 31
0.0
 12
2209.562192101642
 22
3436.260908638377
 32
0.0
 13
2209.562192101642
 23
3436.260908638377
 33
0.0
  0
SOLID
  5
CB8F
330
C302
100
AcDbEntity
  8
寸法引出
 48
25.0
100
AcDbTrace
 10
2472.062192101642
 20
3442.510908638377
 30
0.0
 11
2472.062192101642
 21
3430.010908638377
 31
0.0
 12
2509.562192101642
 22
3436.260908638377
 32
0.0
 13
2509.562192101642
 23
3436.260908638377
 33
0.0
  0
MTEXT
  5
CB90
330
C302
100
AcDbEntity
  8
寸法引出
 48
25.0
100
AcDbMText
 10
2359.562192101642
 20
3486.260908638377
 30
0.0
 40
50.0
 41
0.0
 71
     5
 72
     1
  1
\A1;300
  7
SANWA
 73
     1
 44
1.0
  0
POINT
  5
CB91
330
C302
100
AcDbEntity
  8
DEFPOINTS
 62
     0
 48
25.0
100
AcDbPoint
 10
2209.562192101642
 20
3285.075433030025
 30
0.0
  0
POINT
  5
CB92
330
C302
100
AcDbEntity
  8
DEFPOINTS
 62
     0
 48
25.0
100
AcDbPoint
 10
2509.562192101642
 20
3285.075433030025
 30
0.0
  0
POINT
  5
CB93
330
C302
100
AcDbEntity
  8
DEFPOINTS
 62
     0
 48
25.0
100
AcDbPoint
 10
2509.562192101642
 20
3436.260908638377
 30
0.0
  0
ENDBLK
  5
C30D
330
C302
100
AcDbEntity
  8
0
 48
25.0
100
AcDbBlockEnd
  0
BLOCK
  5
C31A
330
C30E
100
AcDbEntity
  8
0
 48
25.0
100
AcDbBlockBegin
  2
*D29
 70
     1
 10
0.0
 20
0.0
 30
0.0
  3
*D29
  1

  0
LINE
  5
CB94
330
C30E
100
AcDbEntity
  8
寸法引出
 48
25.0
370
    -2
100
AcDbLine
 10
2159.562192101642
 20
3310.075433030025
 30
0.0
 11
2159.562192101642
 21
3448.760908638377
 31
0.0
  0
LINE
  5
CB95
330
C30E
100
AcDbEntity
  8
寸法引出
 48
25.0
370
    -2
100
AcDbLine
 10
2209.562192101642
 20
3310.075433030025
 30
0.0
 11
2209.562192101642
 21
3448.760908638377
 31
0.0
  0
LINE
  5
CB96
330
C30E
100
AcDbEntity
  8
寸法引出
 48
25.0
370
    -2
100
AcDbLine
 10
2122.062192101642
 20
3436.260908638377
 30
0.0
 11
2084.562192101642
 21
3436.260908638377
 31
0.0
  0
LINE
  5
CB97
330
C30E
100
AcDbEntity
  8
寸法引出
 48
25.0
370
    -2
100
AcDbLine
 10
2247.062192101642
 20
3436.260908638377
 30
0.0
 11
2284.562192101642
 21
3436.260908638377
 31
0.0
  0
LINE
  5
CB98
330
C30E
100
AcDbEntity
  8
寸法引出
 48
25.0
370
    -2
100
AcDbLine
 10
2159.562192101642
 20
3436.260908638377
 30
0.0
 11
2209.562192101642
 21
3436.260908638377
 31
0.0
  0
SOLID
  5
CB99
330
C30E
100
AcDbEntity
  8
寸法引出
 48
25.0
100
AcDbTrace
 10
2122.062192101642
 20
3442.510908638377
 30
0.0
 11
2122.062192101642
 21
3430.010908638377
 31
0.0
 12
2159.562192101642
 22
3436.260908638377
 32
0.0
 13
2159.562192101642
 23
3436.260908638377
 33
0.0
  0
SOLID
  5
CB9A
330
C30E
100
AcDbEntity
  8
寸法引出
 48
25.0
100
AcDbTrace
 10
2247.062192101642
 20
3442.510908638377
 30
0.0
 11
2247.062192101642
 21
3430.010908638377
 31
0.0
 12
2209.562192101642
 22
3436.260908638377
 32
0.0
 13
2209.562192101642
 23
3436.260908638377
 33
0.0
  0
MTEXT
  5
CB9B
330
C30E
100
AcDbEntity
  8
寸法引出
 48
25.0
100
AcDbMText
 10
2184.562192101642
 20
3486.260908638377
 30
0.0
 40
50.0
 41
0.0
 71
     5
 72
     1
  1
\A1;50
  7
SANWA
 73
     1
 44
1.0
  0
POINT
  5
CB9C
330
C30E
100
AcDbEntity
  8
DEFPOINTS
 62
     0
 48
25.0
100
AcDbPoint
 10
2159.562192101642
 20
3285.075433030025
 30
0.0
  0
POINT
  5
CB9D
330
C30E
100
AcDbEntity
  8
DEFPOINTS
 62
     0
 48
25.0
100
AcDbPoint
 10
2209.562192101642
 20
3285.075433030025
 30
0.0
  0
POINT
  5
CB9E
330
C30E
100
AcDbEntity
  8
DEFPOINTS
 62
     0
 48
25.0
100
AcDbPoint
 10
2209.562192101642
 20
3436.260908638377
 30
0.0
  0
ENDBLK
  5
C31B
330
C30E
100
AcDbEntity
  8
0
 48
25.0
100
AcDbBlockEnd
  0
BLOCK
  5
C334
330
C32A
100
AcDbEntity
  8
0
 48
25.0
100
AcDbBlockBegin
  2
*D30
 70
     1
 10
0.0
 20
0.0
 30
0.0
  3
*D30
  1

  0
LINE
  5
CC1E
330
C32A
100
AcDbEntity
  8
寸法引出
 48
25.0
370
    -2
100
AcDbLine
 10
2134.562192101642
 20
3285.075433030025
 30
0.0
 11
2012.06721373256
 21
3285.075433030025
 31
0.0
  0
LINE
  5
CC1F
330
C32A
100
AcDbEntity
  8
寸法引出
 48
25.0
370
    -2
100
AcDbLine
 10
2134.562192101642
 20
3135.075433030025
 30
0.0
 11
2012.06721373256
 21
3135.075433030025
 31
0.0
  0
LINE
  5
CC20
330
C32A
100
AcDbEntity
  8
寸法引出
 48
25.0
370
    -2
100
AcDbLine
 10
2024.56721373256
 20
3247.575433030025
 30
0.0
 11
2024.56721373256
 21
3172.575433030025
 31
0.0
  0
SOLID
  5
CC21
330
C32A
100
AcDbEntity
  8
寸法引出
 48
25.0
100
AcDbTrace
 10
2018.31721373256
 20
3247.575433030025
 30
0.0
 11
2030.81721373256
 21
3247.575433030025
 31
0.0
 12
2024.56721373256
 22
3285.075433030025
 32
0.0
 13
2024.56721373256
 23
3285.075433030025
 33
0.0
  0
SOLID
  5
CC22
330
C32A
100
AcDbEntity
  8
寸法引出
 48
25.0
100
AcDbTrace
 10
2018.31721373256
 20
3172.575433030025
 30
0.0
 11
2030.81721373256
 21
3172.575433030025
 31
0.0
 12
2024.56721373256
 22
3135.075433030025
 32
0.0
 13
2024.56721373256
 23
3135.075433030025
 33
0.0
  0
MTEXT
  5
CC23
330
C32A
100
AcDbEntity
  8
寸法引出
 48
25.0
100
AcDbMText
 10
1974.567213732559
 20
3210.075433030025
 30
0.0
 40
50.0
 41
0.0
 71
     5
 72
     1
  1
\A1;150
  7
SANWA
 11
0.0000000000000001
 21
1.0
 31
0.0
 73
     1
 44
1.0
  0
POINT
  5
CC24
330
C32A
100
AcDbEntity
  8
DEFPOINTS
 62
     0
 48
25.0
100
AcDbPoint
 10
2159.562192101642
 20
3285.075433030025
 30
0.0
  0
POINT
  5
CC25
330
C32A
100
AcDbEntity
  8
DEFPOINTS
 62
     0
 48
25.0
100
AcDbPoint
 10
2159.562192101642
 20
3135.075433030025
 30
0.0
  0
POINT
  5
CC26
330
C32A
100
AcDbEntity
  8
DEFPOINTS
 62
     0
 48
25.0
100
AcDbPoint
 10
2024.56721373256
 20
3135.075433030025
 30
0.0
  0
ENDBLK
  5
C335
330
C32A
100
AcDbEntity
  8
0
 48
25.0
100
AcDbBlockEnd
  0
BLOCK
  5
C654
330
C648
100
AcDbEntity
  8
0
 48
25.0
100
AcDbBlockBegin
  2
*D31
 70
     1
 10
0.0
 20
0.0
 30
0.0
  3
*D31
  1

  0
LINE
  5
CC13
330
C648
100
AcDbEntity
  8
寸法引出
 48
25.0
370
    -2
100
AcDbLine
 10
2159.562192101646
 20
2295.075433030023
 30
0.0
 11
2159.562192101646
 21
2084.159339928935
 31
0.0
  0
LINE
  5
CC14
330
C648
100
AcDbEntity
  8
寸法引出
 48
25.0
370
    -2
100
AcDbLine
 10
2254.562192101638
 20
2265.075433030023
 30
0.0
 11
2254.562192101638
 21
2084.159339928935
 31
0.0
  0
LINE
  5
CC15
330
C648
100
AcDbEntity
  8
寸法引出
 48
25.0
370
    -2
100
AcDbLine
 10
2122.062192101646
 20
2096.659339928935
 30
0.0
 11
2084.562192101646
 21
2096.659339928935
 31
0.0
  0
LINE
  5
CC16
330
C648
100
AcDbEntity
  8
寸法引出
 48
25.0
370
    -2
100
AcDbLine
 10
2292.062192101639
 20
2096.659339928935
 30
0.0
 11
2329.562192101639
 21
2096.659339928935
 31
0.0
  0
LINE
  5
CC17
330
C648
100
AcDbEntity
  8
寸法引出
 48
25.0
370
    -2
100
AcDbLine
 10
2159.562192101646
 20
2096.659339928935
 30
0.0
 11
2254.562192101638
 21
2096.659339928935
 31
0.0
  0
SOLID
  5
CC18
330
C648
100
AcDbEntity
  8
寸法引出
 48
25.0
100
AcDbTrace
 10
2122.062192101646
 20
2102.909339928935
 30
0.0
 11
2122.062192101646
 21
2090.409339928935
 31
0.0
 12
2159.562192101646
 22
2096.659339928935
 32
0.0
 13
2159.562192101646
 23
2096.659339928935
 33
0.0
  0
SOLID
  5
CC19
330
C648
100
AcDbEntity
  8
寸法引出
 48
25.0
100
AcDbTrace
 10
2292.062192101639
 20
2102.909339928935
 30
0.0
 11
2292.062192101639
 21
2090.409339928935
 31
0.0
 12
2254.562192101638
 22
2096.659339928935
 32
0.0
 13
2254.562192101638
 23
2096.659339928935
 33
0.0
  0
MTEXT
  5
CC1A
330
C648
100
AcDbEntity
  8
寸法引出
 48
25.0
100
AcDbMText
 10
2207.062192101643
 20
2146.659339928935
 30
0.0
 40
50.0
 41
0.0
 71
     5
 72
     1
  1
\A1;95
  7
SANWA
 73
     1
 44
1.0
  0
POINT
  5
CC1B
330
C648
100
AcDbEntity
  8
DEFPOINTS
 62
     0
 48
25.0
100
AcDbPoint
 10
2159.562192101646
 20
2320.075433030023
 30
0.0
  0
POINT
  5
CC1C
330
C648
100
AcDbEntity
  8
DEFPOINTS
 62
     0
 48
25.0
100
AcDbPoint
 10
2254.562192101638
 20
2290.075433030023
 30
0.0
  0
POINT
  5
CC1D
330
C648
100
AcDbEntity
  8
DEFPOINTS
 62
     0
 48
25.0
100
AcDbPoint
 10
2254.562192101638
 20
2096.659339928935
 30
0.0
  0
ENDBLK
  5
C655
330
C648
100
AcDbEntity
  8
0
 48
25.0
100
AcDbBlockEnd
  0
BLOCK
  5
C661
330
C657
100
AcDbEntity
  8
0
 48
25.0
100
AcDbBlockBegin
  2
*D32
 70
     1
 10
0.0
 20
0.0
 30
0.0
  3
*D32
  1

  0
LINE
  5
CC0A
330
C657
100
AcDbEntity
  8
寸法引出
 48
25.0
370
    -2
100
AcDbLine
 10
2254.562192101638
 20
2265.075433030023
 30
0.0
 11
2254.562192101638
 21
2084.159339928935
 31
0.0
  0
LINE
  5
CC0B
330
C657
100
AcDbEntity
  8
寸法引出
 48
25.0
370
    -2
100
AcDbLine
 10
2464.562192101635
 20
2265.075433030023
 30
0.0
 11
2464.562192101635
 21
2084.159339928935
 31
0.0
  0
LINE
  5
CC0C
330
C657
100
AcDbEntity
  8
寸法引出
 48
25.0
370
    -2
100
AcDbLine
 10
2292.062192101639
 20
2096.659339928935
 30
0.0
 11
2427.062192101635
 21
2096.659339928935
 31
0.0
  0
SOLID
  5
CC0D
330
C657
100
AcDbEntity
  8
寸法引出
 48
25.0
100
AcDbTrace
 10
2292.062192101639
 20
2102.909339928935
 30
0.0
 11
2292.062192101639
 21
2090.409339928935
 31
0.0
 12
2254.562192101638
 22
2096.659339928935
 32
0.0
 13
2254.562192101638
 23
2096.659339928935
 33
0.0
  0
SOLID
  5
CC0E
330
C657
100
AcDbEntity
  8
寸法引出
 48
25.0
100
AcDbTrace
 10
2427.062192101635
 20
2102.909339928935
 30
0.0
 11
2427.062192101635
 21
2090.409339928935
 31
0.0
 12
2464.562192101635
 22
2096.659339928935
 32
0.0
 13
2464.562192101635
 23
2096.659339928935
 33
0.0
  0
MTEXT
  5
CC0F
330
C657
100
AcDbEntity
  8
寸法引出
 48
25.0
100
AcDbMText
 10
2359.562192101637
 20
2146.659339928935
 30
0.0
 40
50.0
 41
0.0
 71
     5
 72
     1
  1
\A1;210
  7
SANWA
 73
     1
 44
1.0
  0
POINT
  5
CC10
330
C657
100
AcDbEntity
  8
DEFPOINTS
 62
     0
 48
25.0
100
AcDbPoint
 10
2254.562192101638
 20
2290.075433030023
 30
0.0
  0
POINT
  5
CC11
330
C657
100
AcDbEntity
  8
DEFPOINTS
 62
     0
 48
25.0
100
AcDbPoint
 10
2464.562192101635
 20
2290.075433030023
 30
0.0
  0
POINT
  5
CC12
330
C657
100
AcDbEntity
  8
DEFPOINTS
 62
     0
 48
25.0
100
AcDbPoint
 10
2464.562192101635
 20
2096.659339928935
 30
0.0
  0
ENDBLK
  5
C662
330
C657
100
AcDbEntity
  8
0
 48
25.0
100
AcDbBlockEnd
  0
BLOCK
  5
C670
330
C664
100
AcDbEntity
  8
0
 48
25.0
100
AcDbBlockBegin
  2
*D33
 70
     1
 10
0.0
 20
0.0
 30
0.0
  3
*D33
  1

  0
LINE
  5
CBFF
330
C664
100
AcDbEntity
  8
寸法引出
 48
25.0
370
    -2
100
AcDbLine
 10
2464.562192101635
 20
2265.075433030023
 30
0.0
 11
2464.562192101635
 21
2084.159339928935
 31
0.0
  0
LINE
  5
CC00
330
C664
100
AcDbEntity
  8
寸法引出
 48
25.0
370
    -2
100
AcDbLine
 10
2559.562192101639
 20
2295.075433030023
 30
0.0
 11
2559.562192101639
 21
2084.159339928935
 31
0.0
  0
LINE
  5
CC01
330
C664
100
AcDbEntity
  8
寸法引出
 48
25.0
370
    -2
100
AcDbLine
 10
2427.062192101635
 20
2096.659339928935
 30
0.0
 11
2389.562192101635
 21
2096.659339928935
 31
0.0
  0
LINE
  5
CC02
330
C664
100
AcDbEntity
  8
寸法引出
 48
25.0
370
    -2
100
AcDbLine
 10
2597.062192101639
 20
2096.659339928935
 30
0.0
 11
2634.562192101639
 21
2096.659339928935
 31
0.0
  0
LINE
  5
CC03
330
C664
100
AcDbEntity
  8
寸法引出
 48
25.0
370
    -2
100
AcDbLine
 10
2464.562192101635
 20
2096.659339928935
 30
0.0
 11
2559.562192101639
 21
2096.659339928935
 31
0.0
  0
SOLID
  5
CC04
330
C664
100
AcDbEntity
  8
寸法引出
 48
25.0
100
AcDbTrace
 10
2427.062192101635
 20
2102.909339928935
 30
0.0
 11
2427.062192101635
 21
2090.409339928935
 31
0.0
 12
2464.562192101635
 22
2096.659339928935
 32
0.0
 13
2464.562192101635
 23
2096.659339928935
 33
0.0
  0
SOLID
  5
CC05
330
C664
100
AcDbEntity
  8
寸法引出
 48
25.0
100
AcDbTrace
 10
2597.062192101639
 20
2102.909339928935
 30
0.0
 11
2597.062192101639
 21
2090.409339928935
 31
0.0
 12
2559.562192101639
 22
2096.659339928935
 32
0.0
 13
2559.562192101639
 23
2096.659339928935
 33
0.0
  0
MTEXT
  5
CC06
330
C664
100
AcDbEntity
  8
寸法引出
 48
25.0
100
AcDbMText
 10
2512.062192101637
 20
2146.659339928935
 30
0.0
 40
50.0
 41
0.0
 71
     5
 72
     1
  1
\A1;95
  7
SANWA
 73
     1
 44
1.0
  0
POINT
  5
CC07
330
C664
100
AcDbEntity
  8
DEFPOINTS
 62
     0
 48
25.0
100
AcDbPoint
 10
2464.562192101635
 20
2290.075433030023
 30
0.0
  0
POINT
  5
CC08
330
C664
100
AcDbEntity
  8
DEFPOINTS
 62
     0
 48
25.0
100
AcDbPoint
 10
2559.562192101639
 20
2320.075433030023
 30
0.0
  0
POINT
  5
CC09
330
C664
100
AcDbEntity
  8
DEFPOINTS
 62
     0
 48
25.0
100
AcDbPoint
 10
2559.562192101639
 20
2096.659339928935
 30
0.0
  0
ENDBLK
  5
C671
330
C664
100
AcDbEntity
  8
0
 48
25.0
100
AcDbBlockEnd
  0
ENDSEC
  0
SECTION
  2
ENTITIES
  0
INSERT
  5
81E3
330
747D
100
AcDbEntity
  8
ASHADE
 62
     1
 48
15.0
100
AcDbBlockReference
  2
AVE_RENDER
 10
0.0
 20
0.0
 30
0.0
1001
AVE_RENDER
1002
{
1070
     7
1000
Pref
1070
    30
1070
    20
1070
     1
1070
     0
1000

1070
    10
1070
     1
1070
    10
1040
1.0
1070
     1
1040
0.7
1040
1.0
1040
0.0
1040
10.0
1010
-1.0
1020
-1.0
1030
-1.0
1040
0.3
1070
    49
1070
     0
1070
     0
1010
1.0
1020
1.0
1030
1.0
1040
45.0
1070
     1
1070
     0
1000
WCS
1040
0.0
1070
     0
1040
10.0
1002
}
  0
INSERT
  5
81E4
330
747D
100
AcDbEntity
  8
ASHADE
 62
     3
 48
15.0
100
AcDbBlockReference
  2
AVE_RENDER
 10
0.0
 20
0.0
 30
0.0
1001
AVE_RENDER
1002
{
1070
     0
1000
Full Opt
1070
     0
1070
     1
1070
     1
1070
     1
1070
     0
1070
     0
1070
     0
1070
     1
1070
     1
1040
0.0001
1040
0.0001
1002
}
  0
INSERT
  5
81E5
330
747D
100
AcDbEntity
  8
ASHADE
 62
     4
 48
15.0
100
AcDbBlockReference
  2
AVE_RENDER
 10
0.0
 20
0.0
 30
0.0
1001
AVE_RENDER
1002
{
1070
     0
1000
Quick Opt
1070
     0
1070
     1
1070
     1
1070
     1
1070
     0
1070
     0
1070
     1
1002
}
  0
INSERT
  5
81E6
330
747D
100
AcDbEntity
  8
ASHADE
 62
     5
 48
15.0
100
AcDbBlockReference
  2
AVE_RENDER
 10
0.0
 20
0.0
 30
0.0
1001
AVE_RENDER
1002
{
1070
     1
1000
Scanl Opt
1070
     2
1070
     0
1070
     2
1040
2.0
1040
4.0
1070
     0
1070
     1
1070
     0
1040
0.03
1002
}
  0
INSERT
  5
81E7
330
747D
100
AcDbEntity
  8
ASHADE
 62
     6
 48
15.0
100
AcDbBlockReference
  2
AVE_RENDER
 10
0.0
 20
0.0
 30
0.0
1001
AVE_RENDER
1002
{
1070
     2
1000
Raytr Opt
1070
     2
1070
     0
1070
     2
1040
2.0
1040
4.0
1070
     0
1070
     1
1070
     1
1040
0.03
1070
     3
1040
0.03
1002
}
  0
INSERT
  5
81E8
330
747D
100
AcDbEntity
  8
ASHADE
 62
     7
 48
15.0
100
AcDbBlockReference
  2
AVE_RENDER
 10
0.0
 20
0.0
 30
0.0
1001
AVE_RENDER
1002
{
1070
     0
1000
RFile Opt
1070
     1
1070
   640
1070
   480
1070
 10000
1070
     1
1070
     8
1070
     8
1070
     0
1070
     0
1070
     0
1070
     0
1070
     0
1070
     0
1070
     0
1002
}
  0
INSERT
  5
81E9
330
747D
100
AcDbEntity
  8
ASHADE
 62
     8
 48
15.0
100
AcDbBlockReference
  2
AVE_RENDER
 10
0.0
 20
0.0
 30
0.0
1001
AVE_RENDER
1002
{
1070
     0
1000
Fog Opt
1070
     0
1070
     0
1040
0.0
1040
1.0
1040
0.0
1040
1.0
1010
0.5
1020
0.5
1030
0.5
1002
}
  0
INSERT
  5
81EA
330
747D
100
AcDbEntity
  8
ASHADE
 62
     9
 48
15.0
100
AcDbBlockReference
  2
AVE_RENDER
 10
0.0
 20
0.0
 30
0.0
1001
AVE_RENDER
1002
{
1070
     0
1000
BG Opt
1070
     0
1070
     1
1010
0.0
1020
0.0
1030
0.0
1010
1.0
1020
0.0
1030
0.0
1010
0.0
1020
1.0
1030
0.0
1010
0.0
1020
0.0
1030
1.0
1040
0.5
1040
0.33
1040
0.0
1000

1070
     1
1000

1070
     1
1070
     1
1040
1.0
1040
1.0
1040
0.0
1040
0.0
1070
     0
1002
}
  0
INSERT
  5
81F1
330
747D
100
AcDbEntity
  8
ASHADE
 62
     1
 48
15.0
100
AcDbBlockReference
  2
AVE_GLOBAL
 10
0.0
 20
0.0
 30
0.0
1001
AVE_MATERIAL
1002
{
1000
*GLOBAL*
1000
2
1000
Global finish.
1002
{
1002
}
1002
{
1070
    63
1002
{
1002
{
1010
-1.0
1020
-1.0
1030
-1.0
1002
}
1040
0.6999999880790711
1000

1040
0.0
1002
{
1002
}
1040
0.0
1002
{
1002
}
1040
0.0
1002
}
1002
{
1002
{
1010
-1.0
1020
-1.0
1030
-1.0
1002
}
1040
1.0
1000

1040
0.0
1002
{
1002
}
1040
0.0
1002
{
1002
}
1040
0.0
1002
}
1002
{
1002
{
1010
-1.0
1020
-1.0
1030
-1.0
1002
}
1040
0.2000000029802322
1000

1040
0.0
1002
{
1002
}
1040
0.0
1002
{
1002
}
1040
0.0
1002
}
1002
{
1070
     0
1002
{
1070
     1
1002
{
1040
1.0
1040
1.0
1000

1040
0.0
1002
{
1002
}
1040
0.0
1002
{
1002
}
1040
0.0
1002
}
1002
}
1040
1.0
1040
0.0
1040
0.0
1002
}
1002
{
1040
1.0
1040
1.0
1000

1040
0.0
1002
{
1002
}
1040
0.0
1002
{
1002
}
1040
0.0
1002
}
1002
{
1040
0.5
1040
1.0
1000

1040
0.0
1002
{
1002
}
1040
0.0
1002
{
1002
}
1040
0.0
1002
}
1002
{
1070
     0
1040
0.0
1002
{
1002
}
1040
1.0
1002
{
1002
}
1040
0.0
1002
}
1002
{
1040
0.0
1002
{
1002
{
1010
0.0
1020
0.0
1030
0.0
1002
}
1040
1.0
1000

1040
0.0
1002
{
1002
}
1040
0.0
1002
{
1002
}
1040
0.0
1002
}
1002
}
1002
{
1002
{
1070
     1
1002
{
1040
0.0
1040
1.0
1000

1040
0.0
1002
{
1002
}
1040
0.0
1002
{
1002
}
1040
0.0
1002
}
1002
}
1040
0.0
1002
{
1002
}
1010
1.0
1020
0.0
1030
0.0
1010
0.0
1020
1.0
1030
0.0
1010
0.0
1020
0.0
1030
1.0
1070
     0
1002
}
1002
{
1002
{
1040
1.0
1040
1.0
1002
{
1070
     1
1002
{
1040
1.0
1040
1.0
1000

1040
0.0
1002
{
1002
}
1040
0.0
1002
{
1002
}
1040
0.0
1002
}
1002
}
1002
}
1070
     0
1040
0.0
1002
{
1002
}
1002
}
1002
{
1002
}
1002
}
1002
{
1071
        3
1070
     3
1070
     0
1002
{
1070
     2
1070
     0
1070
     0
1040
0.0
1002
}
1070
     0
1070
     2
1002
{
1002
}
1002
}
1002
{
1040
8030.0
1040
190.3000030517578
1040
0.3050000071525574
1040
228.0
1040
545.0
1040
14.0
1040
17.39999961853027
1040
0.4560000002384186
1002
}
1002
}
  0
LINE
  5
C0E2
330
747D
100
AcDbEntity
  8
0
100
AcDbLine
 10
0.0
 20
5250.0
 30
0.0
 11
625.0
 21
5250.0
 31
0.0
  0
LINE
  5
C0E3
330
747D
100
AcDbEntity
  8
0
100
AcDbLine
 10
625.0
 20
0.0
 30
0.0
 11
0.0
 21
0.0
 31
0.0
  0
LINE
  5
C0E4
330
747D
100
AcDbEntity
  8
0
100
AcDbLine
 10
0.0
 20
0.0
 30
0.0
 11
0.0
 21
250.0
 31
0.0
  0
LINE
  5
C0E5
330
747D
100
AcDbEntity
  8
0
100
AcDbLine
 10
0.0
 20
5000.0
 30
0.0
 11
0.0
 21
5250.0
 31
0.0
  0
LINE
  5
C0E6
330
747D
100
AcDbEntity
  8
枠
100
AcDbLine
 10
7175.0
 20
250.0
 30
0.0
 11
7175.0
 21
5000.0
 31
0.0
  0
LINE
  5
C0E7
330
747D
100
AcDbEntity
  8
0
 48
25.0
100
AcDbLine
 10
4123.469910207106
 20
3285.075433030023
 30
0.0
 11
4123.469910207106
 21
2300.075433030024
 31
0.0
  0
LINE
  5
C0E8
330
747D
100
AcDbEntity
  8
0
 48
25.0
100
AcDbLine
 10
6123.469910207106
 20
3285.075433030023
 30
0.0
 11
6123.469910207106
 21
2300.075433030024
 31
0.0
  0
LINE
  5
C0E9
330
747D
100
AcDbEntity
  8
枠
100
AcDbLine
 10
625.0
 20
250.0
 30
0.0
 11
625.0
 21
5000.0
 31
0.0
  0
LINE
  5
C0EA
330
747D
100
AcDbEntity
  8
0
 48
15.0
100
AcDbLine
 10
2209.562192101642
 20
3285.075433030025
 30
0.0
 11
2251.848650191306
 21
2439.346271236669
 31
0.0
  0
LINE
  5
C0EB
330
747D
100
AcDbEntity
  8
0
 48
15.0
100
AcDbLine
 10
2159.562192101642
 20
3285.075433030025
 30
0.0
 11
2159.562192101646
 21
2320.075433030023
 31
0.0
  0
LINE
  5
C0EC
330
747D
100
AcDbEntity
  8
0
 48
15.0
100
AcDbLine
 10
2467.275734011968
 20
2439.346271236667
 30
0.0
 11
2509.562192101642
 21
3285.075433030025
 31
0.0
  0
LINE
  5
C0ED
330
747D
100
AcDbEntity
  8
0
 48
15.0
100
AcDbLine
 10
2559.562192101642
 20
3285.075433030025
 30
0.0
 11
2559.562192101639
 21
2320.075433030023
 31
0.0
  0
DIMENSION
  5
C0EE
330
747D
100
AcDbEntity
  8
寸法引出
 48
25.0
100
AcDbDimension
  2
*D19
 10
2691.305063343781
 20
2385.075433030023
 30
0.0
 11
2641.305063343781
 21
2835.075433030024
 31
0.0
 70
    32
 71
     5
 42
900.0000000000017
  3
SANWA
100
AcDbAlignedDimension
 13
2559.562192101642
 23
3285.075433030025
 33
0.0
 14
2559.562192101642
 24
2385.075433030023
 34
0.0
 50
90.0
100
AcDbRotatedDimension
1001
ACAD
1000
DSTYLE
1002
{
1070
    40
1040
25.0
1070
    41
1040
1.5
1070
    43
1040
5.0
1070
    44
1040
0.5
1070
   140
1040
2.0
1070
   147
1040
1.0
1070
   176
1070
   256
1070
   177
1070
   256
1070
   178
1070
   256
1002
}
  0
DIMENSION
  5
C0EF
330
747D
100
AcDbEntity
  8
寸法引出
 48
25.0
100
AcDbDimension
  2
*D18
 10
2799.274464005633
 20
2290.075433030022
 30
0.0
 11
2749.274464005633
 21
2787.575433030024
 31
0.0
 70
    32
 71
     5
 42
995.0000000000018
  3
SANWA
100
AcDbAlignedDimension
 13
2559.562192101642
 23
3285.075433030025
 33
0.0
 14
2529.562192101639
 24
2290.075433030022
 34
0.0
 50
90.0
100
AcDbRotatedDimension
1001
ACAD
1000
DSTYLE
1002
{
1070
    40
1040
25.0
1070
    41
1040
1.5
1070
    43
1040
5.0
1070
    44
1040
0.5
1070
   140
1040
2.0
1070
   147
1040
1.0
1070
   176
1070
   256
1070
   177
1070
   256
1070
   178
1070
   256
1002
}
  0
LINE
  5
C0F0
330
747D
100
AcDbEntity
  8
0
 62
     0
100
AcDbLine
 10
5337.553191489362
 20
990.000000000009
 30
0.0
 11
7175.0
 21
990.000000000009
 31
0.0
  0
LINE
  5
C0F1
330
747D
100
AcDbEntity
  8
0
 62
     0
100
AcDbLine
 10
5337.553191489362
 20
910.0000000000028
 30
0.0
 11
5997.553191489351
 21
910.0000000000028
 31
0.0
  0
LINE
  5
C0F2
330
747D
100
AcDbEntity
  8
0
 62
     0
100
AcDbLine
 10
5337.553191489362
 20
910.0000000000028
 30
0.0
 11
5997.553191489351
 21
910.0000000000028
 31
0.0
  0
LINE
  5
C0F3
330
747D
100
AcDbEntity
  8
0
 62
     0
100
AcDbLine
 10
5337.553191489362
 20
790.000000000009
 30
0.0
 11
5997.553191489351
 21
790.000000000009
 31
0.0
  0
LINE
  5
C0F4
330
747D
100
AcDbEntity
  8
0
 62
     0
100
AcDbLine
 10
5337.553191489362
 20
710.0000000000022
 30
0.0
 11
5997.553191489351
 21
710.0000000000022
 31
0.0
  0
LINE
  5
C0F5
330
747D
100
AcDbEntity
  8
0
 62
     0
100
AcDbLine
 10
5337.553191489362
 20
570.0000000000045
 30
0.0
 11
5997.553191489351
 21
570.0000000000045
 31
0.0
  0
LINE
  5
C0F6
330
747D
100
AcDbEntity
  8
0
100
AcDbLine
 10
5337.553191489362
 20
510.0000000000022
 30
0.0
 11
7175.0
 21
510.0000000000022
 31
0.0
  0
HATCH
  5
C0F7
330
747D
100
AcDbEntity
  8
0
100
AcDbHatch
 10
0.0
 20
0.0
 30
0.0
210
0.0
220
0.0
230
1.0
  2
SOLID
 70
     1
 71
     0
 91
        4
 92
        7
 72
     1
 73
     1
 93
        2
 10
5973.908260611745
 20
354.8500075675885
 42
1.0
 10
5813.957839466559
 20
354.8500075675885
 42
1.0
 97
        0
 92
       22
 72
     1
 73
     1
 93
        2
 10
5969.908260611744
 20
354.8500075675885
 42
-1.0
 10
5817.957839466559
 20
354.8500075675885
 42
-1.0
 97
        0
 92
      136
 93
        4
 72
     1
 10
5853.021607370218
 20
348.2436463095206
 11
5938.164464513072
 21
348.2436463095206
 72
     1
 10
5938.164464513087
 20
348.2436463095206
 11
5938.164464513087
 21
428.1293605952349
 72
     1
 10
5938.164464513087
 20
428.1293605952349
 11
5853.021607370232
 21
428.1293605952349
 72
     1
 10
5853.021607370218
 20
428.1293605952349
 11
5853.021607370218
 21
348.2436463095206
 97
        0
 92
      136
 93
        4
 72
     1
 10
5852.880989765588
 20
294.254199261039
 11
5936.423846908445
 21
294.254199261039
 72
     1
 10
5936.423846908452
 20
294.254199261039
 11
5936.423846908452
 21
369.3399135467533
 72
     1
 10
5936.423846908452
 20
369.3399135467533
 11
5852.880989765595
 21
369.3399135467533
 72
     1
 10
5852.880989765588
 20
369.3399135467533
 11
5852.880989765588
 21
294.254199261039
 97
        0
 75
     0
 76
     1
 47
0.0602706122334892
 98
        2
 10
5932.250193149652
 20
423.5987594022187
 10
5932.250193149652
 20
423.5987594022187
  0
CIRCLE
  5
C0F8
330
747D
100
AcDbEntity
  8
0
100
AcDbCircle
 10
5893.933050039173
 20
354.8500075675883
 30
0.0
 40
79.97521057257928
  0
LINE
  5
C0F9
330
747D
100
AcDbEntity
  8
0
 62
     0
100
AcDbLine
 10
5337.553191489362
 20
450.0
 30
0.0
 11
5997.553191489351
 21
450.0
 31
0.0
  0
TEXT
  5
C0FA
330
747D
100
AcDbEntity
  8
0
 48
2.0
100
AcDbText
 10
5648.287171582342
 20
522.0856316808067
 30
0.0
 40
40.0
  1
2003. 7. 4
  7
SANWA
100
AcDbText
  0
LINE
  5
C0FB
330
747D
100
AcDbEntity
  8
0
 48
25.0
100
AcDbLine
 10
4133.469910207106
 20
2290.075433030023
 30
0.0
 11
6113.469910207102
 21
2290.075433030023
 31
0.0
  0
LINE
  5
C0FC
330
747D
100
AcDbEntity
  8
0
  6
HIDDEN2
 48
25.0
100
AcDbLine
 10
4123.469910207106
 20
2385.075433030024
 30
0.0
 11
6123.469910207106
 21
2385.075433030024
 31
0.0
  0
LINE
  5
C0FD
330
747D
100
AcDbEntity
  8
枠
100
AcDbLine
 10
625.0
 20
250.0
 30
0.0
 11
7175.0
 21
250.0000000000054
 31
0.0
  0
LINE
  5
C0FE
330
747D
100
AcDbEntity
  8
0
100
AcDbLine
 10
5337.553191489362
 20
990.000000000009
 30
0.0
 11
5337.553191489362
 21
870.0000000000045
 31
0.0
  0
CIRCLE
  5
C0FF
330
747D
100
AcDbEntity
  8
0
 48
25.0
100
AcDbCircle
 10
1993.631977939759
 20
997.4652226668013
 30
0.0
 40
18.0
  0
LINE
  5
C100
330
747D
100
AcDbEntity
  8
0
 48
25.0
100
AcDbLine
 10
1843.631977939759
 20
1220.965222666801
 30
0.0
 11
1843.631977939752
 21
773.9652226668013
 31
0.0
  0
DIMENSION
  5
C101
330
747D
100
AcDbEntity
  8
寸法引出
 48
25.0
100
AcDbDimension
  2
*D21
 10
1993.631977939759
 20
823.2434378874923
 30
0.0
 11
1918.631977939759
 21
873.2434378874923
 31
0.0
 70
    32
  1
50
 71
     5
 42
150.0
  3
SANWA
100
AcDbAlignedDimension
 13
1843.631977939759
 23
923.9652226668013
 33
0.0
 14
1993.631977939759
 24
997.4652226668013
 34
0.0
100
AcDbRotatedDimension
1001
ACAD
1000
DSTYLE
1002
{
1070
    40
1040
25.0
1070
    41
1040
1.5
1070
    43
1040
5.0
1070
    44
1040
0.5
1070
   140
1040
2.0
1070
   147
1040
1.0
1070
   176
1070
   256
1070
   177
1070
   256
1070
   178
1070
   256
1002
}
  0
LINE
  5
C102
330
747D
100
AcDbEntity
  8
0
 48
25.0
100
AcDbLine
 10
2785.962149680086
 20
1064.965222666801
 30
0.0
 11
2785.962149680086
 21
929.9652226668014
 31
0.0
  0
LINE
  5
C103
330
747D
100
AcDbEntity
  8
0
 48
25.0
100
AcDbLine
 10
2104.63197793976
 20
1070.965222666801
 30
0.0
 11
2104.63197793976
 21
923.9652226668013
 31
0.0
  0
LINE
  5
C104
330
747D
100
AcDbEntity
  8
0
 48
25.0
100
AcDbLine
 10
2098.631977939759
 20
1064.965222666801
 30
0.0
 11
2098.631977939767
 21
929.9652226668014
 31
0.0
  0
DIMENSION
  5
C105
330
747D
100
AcDbEntity
  8
寸法引出
 48
25.0
100
AcDbDimension
  2
*D20
 10
2337.23173669241
 20
1064.965222666801
 30
0.0
 11
2287.23173669241
 21
997.4652226668016
 31
0.0
 70
    32
  1
45
 71
     5
 42
135.0
  3
SANWA
100
AcDbAlignedDimension
 13
2098.631977939767
 23
929.9652226668014
 33
0.0
 14
2098.631977939759
 24
1064.965222666801
 34
0.0
 50
90.0
100
AcDbRotatedDimension
1001
ACAD
1000
DSTYLE
1002
{
1070
   279
1070
     1
1070
    40
1040
25.0
1070
    41
1040
1.5
1070
    43
1040
5.0
1070
    44
1040
0.5
1070
   140
1040
2.0
1070
   147
1040
1.0
1070
   176
1070
   256
1070
   177
1070
   256
1070
   178
1070
   256
1002
}
  0
LINE
  5
C106
330
747D
100
AcDbEntity
  8
寸法引出
 48
25.0
100
AcDbLine
 10
2337.23173669241
 20
967.4652226668014
 30
0.0
 11
2337.23173669241
 21
1004.965222666801
 31
0.0
  0
LINE
  5
C107
330
747D
100
AcDbEntity
  8
0
 48
25.0
100
AcDbLine
 10
2881.962149680086
 20
1027.465222666804
 30
0.0
 11
2881.962149680086
 21
967.465222666804
 31
0.0
  0
LINE
  5
C108
330
747D
100
AcDbEntity
  8
0
 48
25.0
100
AcDbLine
 10
2875.962149680086
 20
1015.465222666804
 30
0.0
 11
2875.962149680086
 21
979.465222666804
 31
0.0
  0
MTEXT
  5
C109
330
747D
100
AcDbEntity
  8
寸法引出
 48
25.0
100
AcDbMText
 10
2287.23173669241
 20
889.2150609020763
 30
0.0
 40
50.0
 41
0.0
 71
     5
 72
     1
  1
\A1;2
  7
SANWA
 11
0.0000000000000001
 21
1.0
 31
0.0
 73
     1
 44
1.0
  0
LINE
  5
C10A
330
747D
100
AcDbEntity
  8
寸法引出
 48
25.0
100
AcDbLine
 10
2129.63197793976
 20
923.9652226668013
 30
0.0
 11
2349.73173669241
 21
923.9652226668013
 31
0.0
  0
LINE
  5
C10B
330
747D
100
AcDbEntity
  8
寸法引出
 48
25.0
100
AcDbLine
 10
2123.631977939767
 20
929.9652226668014
 30
0.0
 11
2349.73173669241
 21
929.9652226668014
 31
0.0
  0
LINE
  5
C10C
330
747D
100
AcDbEntity
  8
0
 48
25.0
100
AcDbLine
 10
1843.631977939759
 20
929.9652226668014
 30
0.0
 11
2098.631977939767
 21
929.9652226668014
 31
0.0
  0
LINE
  5
C10D
330
747D
100
AcDbEntity
  8
0
 48
25.0
100
AcDbLine
 10
1843.631977939759
 20
923.9652226668013
 30
0.0
 11
2104.63197793976
 21
923.9652226668013
 31
0.0
  0
LINE
  5
C10E
330
747D
100
AcDbEntity
  8
0
 48
25.0
100
AcDbLine
 10
2098.631977939767
 20
929.9652226668014
 30
0.0
 11
2104.63197793976
 21
923.9652226668013
 31
0.0
  0
LINE
  5
C10F
330
747D
100
AcDbEntity
  8
0
 48
25.0
100
AcDbLine
 10
2776.362149680084
 20
923.9652226668013
 30
0.0
 11
2776.362149680076
 21
773.9652226668013
 31
0.0
  0
LINE
  5
C110
330
747D
100
AcDbEntity
  8
寸法引出
 48
25.0
100
AcDbLine
 10
2337.23173669241
 20
886.4652226668013
 30
0.0
 11
2337.23173669241
 21
848.9652226668013
 31
0.0
  0
SOLID
  5
C111
330
747D
100
AcDbEntity
  8
寸法引出
 48
25.0
100
AcDbTrace
 10
2330.981736692411
 20
886.4652226668013
 30
0.0
 11
2343.48173669241
 21
886.4652226668013
 31
0.0
 12
2337.23173669241
 22
923.9652226668013
 32
0.0
 13
2337.23173669241
 23
923.9652226668013
 33
0.0
  0
LINE
  5
C112
330
747D
100
AcDbEntity
  8
寸法引出
 48
25.0
100
AcDbLine
 10
2337.23173669241
 20
923.9652226668013
 30
0.0
 11
2337.23173669241
 21
929.9652226668014
 31
0.0
  0
SOLID
  5
C113
330
747D
100
AcDbEntity
  8
寸法引出
 48
25.0
100
AcDbTrace
 10
2330.981736692411
 20
967.4652226668014
 30
0.0
 11
2343.48173669241
 21
967.4652226668014
 31
0.0
 12
2337.23173669241
 22
929.9652226668014
 32
0.0
 13
2337.23173669241
 23
929.9652226668014
 33
0.0
  0
DIMENSION
  5
C114
330
747D
100
AcDbEntity
  8
寸法引出
 48
25.0
100
AcDbDimension
  2
*D22
 10
2785.962149680086
 20
812.2532168494409
 30
0.0
 11
2781.162149680085
 21
862.2532168494409
 31
0.0
 70
    32
  1
3.2
 71
     5
 42
9.600000000002182
  3
SANWA
100
AcDbAlignedDimension
 13
2776.362149680084
 23
923.9652226668013
 33
0.0
 14
2785.962149680086
 24
929.9652226668014
 34
0.0
100
AcDbRotatedDimension
1001
ACAD
1000
DSTYLE
1002
{
1070
    40
1040
25.0
1070
    41
1040
1.5
1070
    43
1040
5.0
1070
    44
1040
0.5
1070
   140
1040
2.0
1070
   147
1040
1.0
1070
   176
1070
   256
1070
   177
1070
   256
1070
   178
1070
   256
1002
}
  0
LINE
  5
C115
330
747D
100
AcDbEntity
  8
0
 48
25.0
100
AcDbLine
 10
2785.962149680086
 20
979.465222666804
 30
0.0
 11
2875.962149680086
 21
979.465222666804
 31
0.0
  0
LINE
  5
C116
330
747D
100
AcDbEntity
  8
0
 48
25.0
100
AcDbLine
 10
2785.962149680086
 20
973.4652226668041
 30
0.0
 11
2875.962149680086
 21
973.4652226668041
 31
0.0
  0
LINE
  5
C117
330
747D
100
AcDbEntity
  8
0
 48
25.0
100
AcDbLine
 10
2785.962149680083
 20
929.9652226668014
 30
0.0
 11
2776.362149680076
 21
923.9652226668013
 31
0.0
  0
LINE
  5
C118
330
747D
100
AcDbEntity
  8
0
 48
25.0
100
AcDbLine
 10
2875.962149680086
 20
973.4652226668041
 30
0.0
 11
2875.962149680086
 21
967.465222666804
 31
0.0
  0
LINE
  5
C119
330
747D
100
AcDbEntity
  8
0
 48
25.0
100
AcDbLine
 10
2875.962149680086
 20
967.465222666804
 30
0.0
 11
2881.962149680086
 21
967.465222666804
 31
0.0
  0
HATCH
  5
C11A
330
747D
100
AcDbEntity
  8
0
100
AcDbHatch
 10
0.0
 20
0.0
 30
0.0
210
0.0
220
0.0
230
1.0
  2
SOLID
 70
     1
 71
     0
 91
        4
 92
        7
 72
     1
 73
     1
 93
        2
 10
5814.65529385471
 20
121.5279938300056
 42
1.0
 10
5654.704872709524
 20
121.5279938300056
 42
1.0
 97
        0
 92
       22
 72
     1
 73
     1
 93
        2
 10
5810.65529385471
 20
121.5279938300056
 42
-1.0
 10
5658.704872709524
 20
121.5279938300056
 42
-1.0
 97
        0
 92
      136
 93
        4
 72
     1
 10
5694.397212041746
 20
118.5216325719377
 11
5778.282926327461
 21
118.5216325719377
 72
     1
 10
5778.282926327461
 20
118.5216325719377
 11
5778.282926327461
 21
194.6359182862235
 72
     1
 10
5778.282926327461
 20
194.6359182862235
 11
5694.397212041746
 21
194.6359182862235
 72
     1
 10
5694.397212041746
 20
194.6359182862235
 11
5694.397212041746
 21
118.5216325719377
 97
        0
 92
      136
 93
        4
 72
     1
 10
5692.828023008566
 20
58.98932838059899
 11
5777.970880151421
 21
58.98932838059899
 72
     1
 10
5777.970880151436
 20
58.98932838059899
 11
5777.970880151436
 21
138.8750426663132
 72
     1
 10
5777.970880151436
 20
138.8750426663132
 11
5692.82802300858
 21
138.8750426663132
 72
     1
 10
5692.828023008566
 20
138.8750426663132
 11
5692.828023008566
 21
58.98932838059898
 97
        0
 75
     0
 76
     1
 47
0.0602706122334892
 98
        2
 10
5772.997226392618
 20
190.2767456646358
 10
5772.997226392618
 20
190.2767456646358
  0
CIRCLE
  5
C11B
330
747D
100
AcDbEntity
  8
0
100
AcDbCircle
 10
5734.680083282139
 20
121.5279938300054
 30
0.0
 40
79.97521057257928
  0
CIRCLE
  5
C11C
330
747D
100
AcDbEntity
  8
0
100
AcDbCircle
 10
5734.680083282139
 20
121.5279938300054
 30
0.0
 40
75.97521057257927
  0
HATCH
  5
C11D
330
747D
100
AcDbEntity
  8
0
100
AcDbHatch
 10
0.0
 20
0.0
 30
0.0
210
0.0
220
0.0
230
1.0
  2
SOLID
 70
     1
 71
     0
 91
        4
 92
        7
 72
     1
 73
     1
 93
        2
 10
5612.329075578863
 20
121.5279938300056
 42
1.0
 10
5452.378654433735
 20
121.5279938300056
 42
1.0
 97
        0
 92
       22
 72
     1
 73
     1
 93
        2
 10
5608.329075578862
 20
121.5279938300056
 42
-1.0
 10
5456.378654433706
 20
121.5279938300056
 42
-1.0
 97
        0
 92
      136
 93
        4
 72
     1
 10
5491.556708051649
 20
113.8021031153554
 11
5576.470993765935
 21
113.8021031153554
 72
     1
 10
5576.47099376595
 20
113.8021031153554
 11
5576.47099376595
 21
193.0021031153554
 72
     1
 10
5576.47099376595
 20
193.0021031153554
 11
5491.556708051663
 21
193.0021031153554
 72
     1
 10
5491.556708051649
 20
193.0021031153554
 11
5491.556708051649
 21
113.8021031153554
 97
        0
 92
       24
 93
        4
 72
     1
 10
5491.873233304184
 20
54.37358697902701
 11
5574.273233304186
 21
54.37358697902701
 72
     1
 10
5574.27323330415
 20
54.37358697902701
 11
5574.27323330415
 21
126.0307298361698
 72
     1
 10
5574.27323330415
 20
126.0307298361698
 11
5491.873233304148
 21
126.0307298361698
 72
     1
 10
5491.873233304184
 20
126.0307298361698
 11
5491.873233304184
 21
54.37358697902702
 97
        0
 75
     0
 76
     1
 47
0.0602706122334892
 98
        2
 10
5570.671008116798
 20
190.2767456646358
 10
5570.671008116798
 20
190.2767456646358
  0
TEXT
  5
C11E
330
747D
100
AcDbEntity
  8
0
 48
2.0
100
AcDbText
 10
5504.756708051675
 20
132.7163888296408
 30
0.0
 40
40.0
  1
蒔
  7
SANWA
100
AcDbText
  0
CIRCLE
  5
C11F
330
747D
100
AcDbEntity
  8
0
100
AcDbCircle
 10
5532.353865006328
 20
121.5279938300054
 30
0.0
 40
75.97521057257927
  0
CIRCLE
  5
C120
330
747D
100
AcDbEntity
  8
0
100
AcDbCircle
 10
5532.353865006328
 20
121.5279938300054
 30
0.0
 40
79.97521057257928
  0
TEXT
  5
C121
330
747D
100
AcDbEntity
  8
0
 48
2.0
100
AcDbText
 10
5707.082926327487
 20
134.8644897147951
 30
0.0
 40
40.0
  1
大
  7
SANWA
100
AcDbText
  0
TEXT
  5
C122
330
747D
100
AcDbEntity
  8
0
 48
2.0
100
AcDbText
 10
5503.816090447028
 20
71.80215840759865
 30
0.0
 40
40.0
  1
田
  7
SANWA
100
AcDbText
  0
TEXT
  5
C123
330
747D
100
AcDbEntity
  8
0
 48
2.0
100
AcDbText
 10
5706.142308722883
 20
78.24647123774184
 30
0.0
 40
40.0
  1
嶋
  7
SANWA
100
AcDbText
  0
LINE
  5
C124
330
747D
100
AcDbEntity
  8
0
 62
     0
100
AcDbLine
 10
5337.553191489362
 20
630.0000000000068
 30
0.0
 11
5337.553191489362
 21
250.0000000000054
 31
0.0
  0
LINE
  5
C125
330
747D
100
AcDbEntity
  8
0
100
AcDbLine
 10
5337.553191489362
 20
570.0000000000045
 30
0.0
 11
5337.553191489362
 21
630.0000000000068
 31
0.0
  0
LINE
  5
C126
330
747D
100
AcDbEntity
  8
0
100
AcDbLine
 10
5337.553191489362
 20
630.0000000000068
 30
0.0
 11
5337.553191489362
 21
499.8919161829462
 31
0.0
  0
LINE
  5
C127
330
747D
100
AcDbEntity
  8
0
100
AcDbLine
 10
5557.553191489343
 20
250.0000000000054
 30
0.0
 11
5557.553191489343
 21
570.0000000000045
 31
0.0
  0
LINE
  5
C128
330
747D
100
AcDbEntity
  8
0
100
AcDbLine
 10
5777.553191489325
 20
250.0000000000054
 30
0.0
 11
5777.553191489325
 21
510.0000000000022
 31
0.0
  0
TEXT
  5
C129
330
747D
100
AcDbEntity
  8
0
 48
2.0
100
AcDbText
 10
5422.081935578171
 20
356.9821364303525
 30
0.0
 40
40.0
  1
河
  7
SANWA
100
AcDbText
  0
HATCH
  5
C12A
330
747D
100
AcDbEntity
  8
0
100
AcDbHatch
 10
0.0
 20
0.0
 30
0.0
210
0.0
220
0.0
230
1.0
  2
SOLID
 70
     1
 71
     0
 91
        2
 92
        7
 72
     1
 73
     1
 93
        2
 10
5529.654303105345
 20
351.6970659978517
 42
1.0
 10
5369.703881960217
 20
351.6970659978517
 42
1.0
 97
        0
 92
       22
 72
     1
 73
     1
 93
        2
 10
5525.654303105373
 20
351.6970659978517
 42
-1.0
 10
5373.703881960217
 20
351.6970659978517
 42
-1.0
 97
        0
 75
     0
 76
     1
 47
0.0602706122334892
 98
        2
 10
5487.99623564331
 20
420.4458178324818
 10
5487.99623564331
 20
420.4458178324818
  0
CIRCLE
  5
C12B
330
747D
100
AcDbEntity
  8
0
100
AcDbCircle
 10
5449.679092532824
 20
351.6970659978515
 30
0.0
 40
75.97521057257927
  0
CIRCLE
  5
C12C
330
747D
100
AcDbEntity
  8
0
100
AcDbCircle
 10
5449.679092532824
 20
351.6970659978515
 30
0.0
 40
79.97521057257928
  0
TEXT
  5
C12D
330
747D
100
AcDbEntity
  8
0
 48
2.0
100
AcDbText
 10
5421.141317973525
 20
300.3641179532996
 30
0.0
 40
40.0
  1
口
  7
SANWA
100
AcDbText
  0
TEXT
  5
C12E
330
747D
100
AcDbEntity
  8
0
 48
2.0
100
AcDbText
 10
5391.248993407273
 20
522.0856316808067
 30
0.0
 40
40.0
  1
製図
  7
SANWA
100
AcDbText
  0
TEXT
  5
C12F
330
747D
100
AcDbEntity
  8
0
 48
2.0
100
AcDbText
 10
5385.360299888547
 20
459.6196585260768
 30
0.0
 40
40.0
  1
検図
  7
SANWA
100
AcDbText
  0
LINE
  5
C130
330
747D
100
AcDbEntity
  8
0
100
AcDbLine
 10
5337.553191489362
 20
570.0000000000045
 30
0.0
 11
5337.553191489362
 21
510.0000000000022
 31
0.0
  0
TEXT
  5
C131
330
747D
100
AcDbEntity
  8
0
 48
2.0
100
AcDbText
 10
5615.12664304264
 20
461.8928629188303
 30
0.0
 40
40.0
  1
設計
  7
SANWA
100
AcDbText
  0
LINE
  5
C132
330
747D
100
AcDbEntity
  8
0
 62
     0
100
AcDbLine
 10
5337.553191489362
 20
870.0000000000045
 30
0.0
 11
5337.553191489362
 21
630.0000000000068
 31
0.0
  0
LINE
  5
C133
330
747D
100
AcDbEntity
  8
0
100
AcDbLine
 10
5337.553191489362
 20
726.7609459798336
 30
0.0
 11
5337.553191489362
 21
882.1169115701533
 31
0.0
  0
LINE
  5
C134
330
747D
100
AcDbEntity
  8
0
100
AcDbLine
 10
5337.553191489362
 20
670.0000000000045
 30
0.0
 11
5337.553191489362
 21
726.7609459798336
 31
0.0
  0
TEXT
  5
C135
330
747D
100
AcDbEntity
  8
0
 48
2.0
100
AcDbText
 10
5572.484217939949
 20
630.9755021622549
 30
0.0
 40
40.0
  1
1 : 25
  7
SANWA
100
AcDbText
  0
TEXT
  5
C136
330
747D
100
AcDbEntity
  8
0
 48
2.0
100
AcDbText
 10
5544.098121932351
 20
723.9731911170224
 30
0.0
 40
40.0
  1
縮    尺
  7
SANWA
100
AcDbText
  0
TEXT
  5
C137
330
747D
100
AcDbEntity
  8
0
 48
2.0
100
AcDbText
 10
5542.345604725415
 20
928.7954769413772
 30
0.0
 40
40.0
  1
図面
  7
SANWA
100
AcDbText
  0
TEXT
  5
C138
330
747D
100
AcDbEntity
  8
0
 48
2.0
100
AcDbText
 10
5653.898808185753
 20
931.0686527376557
 30
0.0
 40
40.0
  1
番号
  7
SANWA
100
AcDbText
  0
LEADER
  5
C139
330
747D
100
AcDbEntity
  8
寸法引出
 48
25.0
100
AcDbLeader
  3
SANWA
 76
     3
 10
2830.962149680086
 20
1021.465222666803
 30
0.0
 10
2909.992328055174
 20
1108.328197048177
 30
0.0
 10
3398.54750172576
 20
1108.328197048177
 30
0.0
1001
ACAD
1000
DSTYLE
1002
{
1070
    77
1070
     0
1070
    40
1040
25.0
1070
    41
1040
1.5
1070
    43
1040
5.0
1070
    44
1040
0.5
1070
   140
1040
2.0
1070
   147
1040
1.0
1070
   176
1070
   256
1070
   177
1070
   256
1070
   178
1070
   256
1002
}
  0
MTEXT
  5
C13A
330
747D
100
AcDbEntity
  8
寸法引出
 48
25.0
100
AcDbMText
 10
3155.105390915541
 20
1158.217860262669
 30
0.0
 40
50.0
 41
0.0
 71
     5
 72
     1
  1
ｲﾝｻｰﾄM12×32
  7
SANWA
 73
     1
 44
1.0
  0
LINE
  5
C13B
330
747D
100
AcDbEntity
  8
0
 48
25.0
100
AcDbLine
 10
2776.362149680084
 20
1425.742488370167
 30
0.0
 11
2776.362149680084
 21
1070.965222666801
 31
0.0
  0
MTEXT
  5
C13C
330
747D
100
AcDbEntity
  8
寸法引出
 48
25.0
100
AcDbMText
 10
2632.535234187973
 20
1215.909548903701
 30
0.0
 40
50.0
 41
0.0
 71
     5
 72
     1
  1
天端より150
  7
SANWA
 11
0.0000000000000001
 21
1.0
 31
0.0
 73
     1
 44
1.0
  0
LINE
  5
C13D
330
747D
100
AcDbEntity
  8
寸法引出
 48
25.0
100
AcDbLine
 10
2690.239146125604
 20
1034.965222666801
 30
0.0
 11
2690.239146125604
 21
1425.742488370167
 31
0.0
  0
MTEXT
  5
C13E
330
747D
100
AcDbEntity
  8
寸法引出
 48
25.0
100
AcDbMText
 10
2287.23173669241
 20
1107.81261564068
 30
0.0
 40
50.0
 41
0.0
 71
     5
 72
     1
  1
\A1;2
  7
SANWA
 11
0.0000000000000001
 21
1.0
 31
0.0
 73
     1
 44
1.0
  0
LINE
  5
C13F
330
747D
100
AcDbEntity
  8
寸法引出
 48
25.0
100
AcDbLine
 10
2123.63197793976
 20
1064.965222666801
 30
0.0
 11
2349.73173669241
 21
1064.965222666801
 31
0.0
  0
LINE
  5
C140
330
747D
100
AcDbEntity
  8
寸法引出
 48
25.0
100
AcDbLine
 10
2129.63197793976
 20
1070.965222666801
 30
0.0
 11
2349.73173669241
 21
1070.965222666801
 31
0.0
  0
DIMENSION
  5
C141
330
747D
100
AcDbEntity
  8
寸法引出
 48
25.0
100
AcDbDimension
  2
*D24
 10
2104.63197793976
 20
1151.460115882503
 30
0.0
 11
2101.63197793976
 21
1201.460115882503
 31
0.0
 70
    32
  1
2
 71
     5
 42
6.0
  3
SANWA
100
AcDbAlignedDimension
 13
2098.631977939759
 23
1064.965222666801
 33
0.0
 14
2104.63197793976
 24
1070.965222666801
 34
0.0
100
AcDbRotatedDimension
1001
ACAD
1000
DSTYLE
1002
{
1070
   279
1070
     1
1070
    40
1040
25.0
1070
    41
1040
1.5
1070
    43
1040
5.0
1070
    44
1040
0.5
1070
   140
1040
2.0
1070
   147
1040
1.0
1070
   176
1070
   256
1070
   177
1070
   256
1070
   178
1070
   256
1002
}
  0
DIMENSION
  5
C142
330
747D
100
AcDbEntity
  8
寸法引出
 48
25.0
100
AcDbDimension
  2
*D23
 10
2098.631977939759
 20
1151.460115882503
 30
0.0
 11
1971.13197793976
 21
1201.460115882503
 31
0.0
 70
    32
  1
85
 71
     5
 42
255.0
  3
SANWA
100
AcDbAlignedDimension
 13
1843.631977939759
 23
1070.965222666801
 33
0.0
 14
2098.631977939759
 24
1064.965222666801
 34
0.0
100
AcDbRotatedDimension
1001
ACAD
1000
DSTYLE
1002
{
1070
    40
1040
25.0
1070
    41
1040
1.5
1070
    43
1040
5.0
1070
    44
1040
0.5
1070
   140
1040
2.0
1070
   147
1040
1.0
1070
   176
1070
   256
1070
   177
1070
   256
1070
   178
1070
   256
1002
}
  0
LINE
  5
C143
330
747D
100
AcDbEntity
  8
0
 48
25.0
100
AcDbLine
 10
1843.631977939759
 20
1064.965222666801
 30
0.0
 11
2098.631977939759
 21
1064.965222666801
 31
0.0
  0
LINE
  5
C144
330
747D
100
AcDbEntity
  8
0
 48
25.0
100
AcDbLine
 10
1843.631977939759
 20
1070.965222666801
 30
0.0
 11
2104.63197793976
 21
1070.965222666801
 31
0.0
  0
LINE
  5
C145
330
747D
100
AcDbEntity
  8
0
 48
25.0
100
AcDbLine
 10
2098.631977939759
 20
1064.965222666801
 30
0.0
 11
2104.63197793976
 21
1070.965222666801
 31
0.0
  0
SOLID
  5
C146
330
747D
100
AcDbEntity
  8
寸法引出
 48
25.0
100
AcDbTrace
 10
2330.981736692411
 20
1108.465222666801
 30
0.0
 11
2343.48173669241
 21
1108.465222666801
 31
0.0
 12
2337.23173669241
 22
1070.965222666801
 32
0.0
 13
2337.23173669241
 23
1070.965222666801
 33
0.0
  0
LINE
  5
C147
330
747D
100
AcDbEntity
  8
寸法引出
 48
25.0
100
AcDbLine
 10
2337.23173669241
 20
1027.465222666801
 30
0.0
 11
2337.23173669241
 21
989.9652226668013
 31
0.0
  0
LINE
  5
C148
330
747D
100
AcDbEntity
  8
寸法引出
 48
25.0
100
AcDbLine
 10
2337.23173669241
 20
1064.965222666801
 30
0.0
 11
2337.23173669241
 21
1070.965222666801
 31
0.0
  0
SOLID
  5
C149
330
747D
100
AcDbEntity
  8
寸法引出
 48
25.0
100
AcDbTrace
 10
2330.981736692411
 20
1027.465222666801
 30
0.0
 11
2343.48173669241
 21
1027.465222666801
 31
0.0
 12
2337.23173669241
 22
1064.965222666801
 32
0.0
 13
2337.23173669241
 23
1064.965222666801
 33
0.0
  0
LINE
  5
C14A
330
747D
100
AcDbEntity
  8
寸法引出
 48
25.0
100
AcDbLine
 10
2337.23173669241
 20
1108.465222666801
 30
0.0
 11
2337.23173669241
 21
1145.965222666801
 31
0.0
  0
LINE
  5
C14B
330
747D
100
AcDbEntity
  8
0
 48
25.0
100
AcDbLine
 10
2785.962149680086
 20
1015.465222666804
 30
0.0
 11
2875.962149680086
 21
1015.465222666804
 31
0.0
  0
LINE
  5
C14C
330
747D
100
AcDbEntity
  8
0
 48
25.0
100
AcDbLine
 10
2785.962149680086
 20
1021.465222666803
 30
0.0
 11
2875.962149680086
 21
1021.465222666803
 31
0.0
  0
LINE
  5
C14D
330
747D
100
AcDbEntity
  8
0
  6
CENTER2
 48
10.0
100
AcDbLine
 10
2755.962149680086
 20
997.4652226668013
 30
0.0
 11
2911.962149680086
 21
997.4652226668013
 31
0.0
  0
LINE
  5
C14E
330
747D
100
AcDbEntity
  8
0
 48
25.0
100
AcDbLine
 10
2776.362149680084
 20
1070.965222666801
 30
0.0
 11
2785.962149680086
 21
1064.965222666801
 31
0.0
  0
SOLID
  5
C14F
330
747D
100
AcDbEntity
  8
寸法引出
 48
25.0
100
AcDbTrace
 10
2683.989146125604
 20
1034.965222666801
 30
0.0
 11
2696.489146125605
 21
1034.965222666801
 31
0.0
 12
2690.239146125604
 22
997.4652226668013
 32
0.0
 13
2690.239146125604
 23
997.4652226668013
 33
0.0
  0
LINE
  5
C150
330
747D
100
AcDbEntity
  8
寸法引出
 48
25.0
100
AcDbLine
 10
2730.962149680086
 20
997.4652226668013
 30
0.0
 11
2677.739146125604
 21
997.4652226668013
 31
0.0
  0
LINE
  5
C151
330
747D
100
AcDbEntity
  8
0
 48
25.0
100
AcDbLine
 10
2875.962149680086
 20
1027.465222666804
 30
0.0
 11
2875.962149680086
 21
1021.465222666803
 31
0.0
  0
LINE
  5
C152
330
747D
100
AcDbEntity
  8
0
 48
25.0
100
AcDbLine
 10
2875.962149680086
 20
1027.465222666804
 30
0.0
 11
2881.962149680086
 21
1027.465222666804
 31
0.0
  0
LINE
  5
C153
330
747D
100
AcDbEntity
  8
0
100
AcDbLine
 10
2111.404005921263
 20
1529.135985872658
 30
0.0
 11
2669.347562151826
 21
1529.135985872658
 31
0.0
  0
TEXT
  5
C154
330
747D
100
AcDbEntity
  8
0
100
AcDbText
 10
2128.872002855437
 20
1549.214260489776
 30
0.0
 40
60.0
  1
継手部詳細図
  7
SANWA
 72
     4
 11
2392.186288569722
 21
1579.89997477549
 31
0.0
100
AcDbText
  0
DIMENSION
  5
C157
330
747D
100
AcDbEntity
  8
寸法引出
 48
25.0
100
AcDbDimension
  2
*D25
 10
2691.305063343781
 20
2290.075433030022
 30
0.0
 11
2641.305063343781
 21
2337.575433030023
 31
0.0
 70
    32
 71
     5
 42
95.0
  3
SANWA
100
AcDbAlignedDimension
 13
2559.562192101642
 23
2385.075433030023
 33
0.0
 14
2529.562192101639
 24
2290.075433030022
 34
0.0
 50
90.0
100
AcDbRotatedDimension
1001
ACAD
1000
DSTYLE
1002
{
1070
   279
1070
     1
1070
    40
1040
25.0
1070
    41
1040
1.5
1070
    43
1040
5.0
1070
    44
1040
0.5
1070
   140
1040
2.0
1070
   147
1040
1.0
1070
   176
1070
   256
1070
   177
1070
   256
1070
   178
1070
   256
1002
}
  0
LEADER
  5
C159
330
747D
100
AcDbEntity
  8
寸法引出
 48
25.0
100
AcDbLeader
  3
SANWA
 76
     2
 10
2263.344271888021
 20
2409.871086129095
 30
0.0
 10
1972.02504088316
 20
2409.871086129095
 30
0.0
1001
ACAD
1000
DSTYLE
1002
{
1070
    77
1070
     0
1070
    40
1040
25.0
1070
    41
1040
1.5
1070
    43
1040
5.0
1070
    44
1040
0.5
1070
   140
1040
2.0
1070
   147
1040
1.0
1070
   176
1070
   256
1070
   177
1070
   256
1070
   178
1070
   256
1002
}
  0
LINE
  5
C15A
330
747D
100
AcDbEntity
  8
0
 48
15.0
100
AcDbLine
 10
2189.562192101646
 20
2290.075433030023
 30
0.0
 11
2529.562192101639
 21
2290.075433030023
 31
0.0
  0
MTEXT
  5
C15B
330
747D
100
AcDbEntity
  8
寸法引出
 48
25.0
100
AcDbMText
 10
2041.395132270303
 20
2449.178223434807
 30
0.0
 40
50.0
 41
0.0
 71
     5
 72
     1
  1
50r
  7
SANWA
 73
     1
 44
1.0
  0
LEADER
  5
C15F
330
747D
100
AcDbEntity
  8
寸法引出
 48
25.0
100
AcDbLeader
  3
SANWA
 76
     3
 10
2342.390147086596
 20
2385.56730147096
 30
0.0
 10
2258.083843076288
 20
2504.477763809219
 30
0.0
 10
2427.920959073963
 20
2504.477763809219
 30
0.0
1001
ACAD
1000
DSTYLE
1002
{
1070
    77
1070
     0
1070
    40
1040
25.0
1070
    41
1040
1.5
1070
    43
1040
5.0
1070
    44
1040
0.5
1070
   140
1040
2.0
1070
   147
1040
1.0
1070
   176
1070
   256
1070
   177
1070
   256
1070
   178
1070
   256
1002
}
  0
LINE
  5
C160
330
747D
100
AcDbEntity
  8
0
  6
CENTER2
 48
10.0
100
AcDbLine
 10
2359.562192101642
 20
2435.075433030023
 30
0.0
 11
2359.562192101642
 21
2240.075433030023
 31
0.0
  0
MTEXT
  5
C163
330
747D
100
AcDbEntity
  8
寸法引出
 48
25.0
100
AcDbMText
 10
2353.766738485694
 20
2543.784901114931
 30
0.0
 40
50.0
 41
0.0
 71
     5
 72
     1
  1
300r
  7
SANWA
 73
     1
 44
1.0
  0
LINE
  5
C164
330
747D
100
AcDbEntity
  8
0
100
AcDbLine
 10
5997.553191489351
 20
250.0000000000054
 30
0.0
 11
5997.553191489351
 21
990.000000000009
 31
0.0
  0
LINE
  5
C165
330
747D
100
AcDbEntity
  8
0
100
AcDbLine
 10
6077.553191489325
 20
510.0000000000022
 30
0.0
 11
6077.553191489325
 21
990.000000000009
 31
0.0
  0
LINE
  5
C166
330
747D
100
AcDbEntity
  8
0
100
AcDbLine
 10
7425.0
 20
250.0
 30
0.0
 11
7425.0
 21
0.0
 31
0.0
  0
LINE
  5
C167
330
747D
100
AcDbEntity
  8
0
100
AcDbLine
 10
7425.0
 20
0.0
 30
0.0
 11
7175.0
 21
0.0
 31
0.0
  0
TEXT
  5
C168
330
747D
100
AcDbEntity
  8
0
 48
2.0
100
AcDbText
 10
6015.480113215563
 20
541.5684862348999
 30
0.0
 40
27.99999999999999
  1
格
  7
SANWA
100
AcDbText
  0
TEXT
  5
C169
330
747D
100
AcDbEntity
  8
0
100
AcDbText
 10
6421.476595744685
 20
570.4571428571519
 30
0.0
 40
40.0
  1
300×900×2000
  7
SANWA
 72
     4
 11
6626.276595744686
 21
590.000000000009
 31
0.0
100
AcDbText
  0
TEXT
  5
C16A
330
747D
100
AcDbEntity
  8
0
100
AcDbText
 10
6277.347189020751
 20
344.5314540178005
 30
0.0
 40
40.0
  1
三和コンクリート工業株式会社
  7
SANWA
100
AcDbText
  0
ARC
  5
C16B
330
747D
100
AcDbEntity
  8
0
100
AcDbCircle
 10
6133.560357219678
 20
372.0146930146711
 30
0.0
 40
69.10631488841319
100
AcDbArc
 50
141.6476737862061
 51
263.3523262137979
  0
ARC
  5
C16C
330
747D
100
AcDbEntity
  8
0
100
AcDbCircle
 10
6133.560357219678
 20
372.0146930146711
 30
0.0
 40
73.1063148884132
100
AcDbArc
 50
138.1364954470877
 51
266.8635045529165
  0
ARC
  5
C16D
330
747D
100
AcDbEntity
  8
0
100
AcDbCircle
 10
6133.560357219678
 20
372.0146930146711
 30
0.0
 40
59.10631488841318
100
AcDbArc
 50
142.7788203119019
 51
262.2211796880995
  0
ARC
  5
C16E
330
747D
100
AcDbEntity
  8
0
100
AcDbCircle
 10
6133.560357219678
 20
372.0146930146711
 30
0.0
 40
55.10631488841318
100
AcDbArc
 50
139.1625874111294
 51
265.8374125888726
  0
TEXT
  5
C16F
330
747D
100
AcDbEntity
  8
0
100
AcDbText
 10
6111.181671391569
 20
344.5314540178005
 30
0.0
 40
30.0
  1
和
  7
SANWA
100
AcDbText
  0
TEXT
  5
C170
330
747D
100
AcDbEntity
  8
0
 48
2.0
100
AcDbText
 10
5866.335893084521
 20
368.186503452378
 30
0.0
 40
40.0
  1
中
  7
SANWA
100
AcDbText
  0
ARC
  5
C171
330
747D
100
AcDbEntity
  8
0
100
AcDbCircle
 10
6133.560357219678
 20
372.0146930146711
 30
0.0
 40
55.10631488841318
100
AcDbArc
 50
274.1625874111285
 51
40.8374125888707
  0
ARC
  5
C172
330
747D
100
AcDbEntity
  8
0
100
AcDbCircle
 10
6133.560357219678
 20
372.0146930146711
 30
0.0
 40
59.10631488841318
100
AcDbArc
 50
277.7788203119025
 51
37.2211796880979
  0
ARC
  5
C173
330
747D
100
AcDbEntity
  8
0
100
AcDbCircle
 10
6133.560357219678
 20
372.0146930146711
 30
0.0
 40
73.1063148884132
100
AcDbArc
 50
273.1364954470843
 51
41.86350455291269
  0
ARC
  5
C174
330
747D
100
AcDbEntity
  8
0
100
AcDbCircle
 10
6133.560357219678
 20
372.0146930146711
 30
0.0
 40
69.10631488841319
100
AcDbArc
 50
276.6476737862029
 51
38.35232621379395
  0
HATCH
  5
C175
330
747D
100
AcDbEntity
  8
0
100
AcDbHatch
 10
0.0
 20
0.0
 30
0.0
210
0.0
220
0.0
230
1.0
  2
SOLID
 70
     1
 71
     0
 91
        6
 92
        7
 72
     1
 73
     1
 93
        4
 10
6084.772249800881
 20
426.4596546829295
 42
0.0
 10
6097.525524441357
 20
413.7063800424442
 42
-0.3722683533228753
 10
6169.595189997956
 20
413.7063800424442
 42
0.0
 10
6182.348464638402
 20
426.4596546829324
 42
0.3824979940290045
 97
        0
 92
       22
 72
     1
 73
     1
 93
        4
 10
6176.440513371781
 20
426.2085576657966
 42
0.0
 10
6169.313383793983
 20
419.0814280879919
 42
0.3367429548951066
 10
6097.8073306453
 20
419.0814280879948
 42
0.0
 10
6090.680201067502
 20
426.2085576657938
 42
-0.347770427523089
 97
        0
 92
        7
 72
     1
 73
     1
 93
        4
 10
6175.252044247463
 20
408.0495257929527
 42
-0.6168583269099046
 10
6137.560357219656
 20
317.0537437817699
 42
0.0
 10
6137.560357219656
 20
299.0178898205272
 42
0.6292889159379735
 10
6188.00531888791
 20
420.802800433438
 42
0.0
 97
        0
 92
       22
 72
     1
 73
     1
 93
        4
 10
6187.754221870797
 20
414.8948491668107
 42
-0.5873104908889238
 10
6141.560357219656
 20
303.3729946276309
 42
0.0
 10
6141.560357219656
 20
313.4522779373469
 42
0.5741105922167471
 10
6180.627092292969
 20
407.7677195890089
 42
0.0
 97
        0
 92
        7
 72
     1
 73
     1
 93
        4
 10
6079.115395551372
 20
420.802800433438
 42
0.6292889159379591
 10
6129.560357219656
 20
299.0178898205272
 42
0.0
 10
6129.560357219656
 20
317.0537437817699
 42
-0.6168583269099637
 10
6091.868670191878
 20
408.0495257929527
 42
0.0
 97
        0
 92
       22
 72
     1
 73
     1
 93
        4
 10
6086.493622146313
 20
407.7677195890089
 42
0.5741105922167495
 10
6125.560357219685
 20
313.4522779373469
 42
0.0
 10
6125.560357219685
 20
303.3729946276309
 42
-0.5873104908889167
 10
6079.366492568516
 20
414.8948491668107
 42
0.0
 97
        0
 75
     0
 76
     1
 47
0.0143554168026844
 98
        6
 10
6165.580827973259
 20
434.8088762841882
 10
6165.580827973259
 20
434.8088762841882
 10
6180.523262244765
 20
411.5531024217716
 10
6180.523262244765
 20
411.5531024217716
 10
6088.282422260032
 20
410.6917769343397
 10
6088.282422260032
 20
410.6917769343397
  0
CIRCLE
  5
C176
330
747D
100
AcDbEntity
  8
0
100
AcDbCircle
 10
5893.933050039173
 20
354.8500075675883
 30
0.0
 40
75.97521057257927
  0
TEXT
  5
C177
330
747D
100
AcDbEntity
  8
0
 48
2.0
100
AcDbText
 10
5865.395275479918
 20
311.5684849753247
 30
0.0
 40
40.0
  1
川
  7
SANWA
100
AcDbText
  0
LINE
  5
C178
330
747D
100
AcDbEntity
  8
0
100
AcDbLine
 10
6129.560357219681
 20
299.0178898205272
 30
0.0
 11
6129.560357219681
 21
317.0537437817702
 31
0.0
  0
LINE
  5
C179
330
747D
100
AcDbEntity
  8
0
100
AcDbLine
 10
6137.560357219674
 20
299.0178898205272
 30
0.0
 11
6137.560357219674
 21
317.0537437817702
 31
0.0
  0
LINE
  5
C17A
330
747D
100
AcDbEntity
  8
0
100
AcDbLine
 10
6141.56035721967
 20
303.3729946276307
 30
0.0
 11
6141.56035721967
 21
313.4522779373469
 31
0.0
  0
LINE
  5
C17B
330
747D
100
AcDbEntity
  8
0
100
AcDbLine
 10
6125.560357219685
 20
303.3729946276307
 30
0.0
 11
6125.560357219685
 21
313.4522779373469
 31
0.0
  0
ARC
  5
C17C
330
747D
100
AcDbEntity
  8
0
100
AcDbCircle
 10
6133.560357219678
 20
372.0146930146711
 30
0.0
 40
69.10631488841319
100
AcDbArc
 50
51.64767378620884
 51
128.3523262138006
  0
ARC
  5
C17D
330
747D
100
AcDbEntity
  8
0
100
AcDbCircle
 10
6133.560357219678
 20
372.0146930146711
 30
0.0
 40
73.1063148884132
100
AcDbArc
 50
48.13649544708379
 51
131.8635045529163
  0
LINE
  5
C17E
330
747D
100
AcDbEntity
  8
0
100
AcDbLine
 10
6169.595189997973
 20
413.7063800424471
 30
0.0
 11
6182.348464638428
 21
426.4596546829352
 31
0.0
  0
LINE
  5
C17F
330
747D
100
AcDbEntity
  8
0
100
AcDbLine
 10
6169.313383793997
 20
419.0814280879976
 30
0.0
 11
6176.440513371792
 21
426.2085576657964
 31
0.0
  0
TEXT
  5
C180
330
747D
100
AcDbEntity
  8
0
 48
2.0
100
AcDbText
 10
5831.24899340728
 20
462.0856316808044
 30
0.0
 40
40.0
  1
製図
  7
SANWA
100
AcDbText
  0
ARC
  5
C181
330
747D
100
AcDbEntity
  8
0
100
AcDbCircle
 10
6133.560357219678
 20
372.0146930146711
 30
0.0
 40
55.10631488841318
100
AcDbArc
 50
49.16258741113066
 51
130.83741258887
  0
ARC
  5
C182
330
747D
100
AcDbEntity
  8
0
100
AcDbCircle
 10
6133.560357219678
 20
372.0146930146711
 30
0.0
 40
59.10631488841318
100
AcDbArc
 50
52.77882031190561
 51
127.2211796880944
  0
TEXT
  5
C183
330
747D
100
AcDbEntity
  8
0
100
AcDbText
 10
6111.181671391569
 20
384.3868193377375
 30
0.0
 40
30.0
  1
三
  7
SANWA
100
AcDbText
  0
LINE
  5
C184
330
747D
100
AcDbEntity
  8
0
100
AcDbLine
 10
6091.868670191892
 20
408.0495257929555
 30
0.0
 11
6079.037959089786
 21
420.8802368950783
 31
0.0
  0
LINE
  5
C185
330
747D
100
AcDbEntity
  8
0
100
AcDbLine
 10
6086.493622146329
 20
407.7677195890092
 30
0.0
 11
6079.366492568537
 21
414.8948491668079
 31
0.0
  0
LINE
  5
C186
330
747D
100
AcDbEntity
  8
0
100
AcDbLine
 10
6097.525524441382
 20
413.7063800424471
 30
0.0
 11
6084.694813339276
 21
426.5370911445698
 31
0.0
  0
LINE
  5
C187
330
747D
100
AcDbEntity
  8
0
100
AcDbLine
 10
6097.807330645312
 20
419.0814280879976
 30
0.0
 11
6090.680201067517
 21
426.2085576657909
 31
0.0
  0
LINE
  5
C188
330
747D
100
AcDbEntity
  8
0
100
AcDbLine
 10
6180.627092292983
 20
407.7677195890092
 30
0.0
 11
6187.754221870775
 21
414.8948491668079
 31
0.0
  0
LINE
  5
C189
330
747D
100
AcDbEntity
  8
0
100
AcDbLine
 10
6175.252044247463
 20
408.0495257929555
 30
0.0
 11
6188.005318887917
 21
420.8028004334383
 31
0.0
  0
TEXT
  5
C18A
330
747D
100
AcDbEntity
  8
0
100
AcDbText
 10
6362.9623100304
 20
890.0000000000027
 30
0.0
 40
40.0
  1
マルチスリット側溝
  7
SANWA
 72
     4
 11
6626.276595744686
 21
910.0000000000028
 31
0.0
100
AcDbText
  0
LINE
  5
C18B
330
747D
100
AcDbEntity
  8
0
 62
     0
100
AcDbLine
 10
5997.553191489351
 20
830.0000000000064
 30
0.0
 11
7175.0
 21
830.0000000000064
 31
0.0
  0
LINE
  5
C18C
330
747D
100
AcDbEntity
  8
0
 62
     0
100
AcDbLine
 10
5997.553191489351
 20
670.0000000000045
 30
0.0
 11
7175.0
 21
670.0000000000045
 31
0.0
  0
TEXT
  5
C18D
330
747D
100
AcDbEntity
  8
0
 48
2.0
100
AcDbText
 10
6014.605708847332
 20
777.3913655001133
 30
0.0
 40
27.99999999999999
  1
呼
  7
SANWA
100
AcDbText
  0
TEXT
  5
C18E
330
747D
100
AcDbEntity
  8
0
 48
2.0
100
AcDbText
 10
6015.480113215563
 20
601.1410255214627
 30
0.0
 40
27.99999999999999
  1
規
  7
SANWA
100
AcDbText
  0
TEXT
  5
C18F
330
747D
100
AcDbEntity
  8
0
 48
2.0
100
AcDbText
 10
6014.208558144768
 20
739.0543600013415
 30
0.0
 40
27.99999999999999
  1
び
  7
SANWA
100
AcDbText
  0
TEXT
  5
C190
330
747D
100
AcDbEntity
  8
0
 48
2.0
100
AcDbText
 10
6014.775609774872
 20
699.8772475912174
 30
0.0
 40
27.99999999999999
  1
名
  7
SANWA
100
AcDbText
  0
TEXT
  5
C191
330
747D
100
AcDbEntity
  8
0
 48
2.0
100
AcDbText
 10
6014.721730996193
 20
868.3271054076557
 30
0.0
 40
27.99999999999999
  1
名
  7
SANWA
100
AcDbText
  0
TEXT
  5
C192
330
747D
100
AcDbEntity
  8
0
 48
2.0
100
AcDbText
 10
6016.23849543494
 20
933.9614944784161
 30
0.0
 40
27.99999999999999
  1
品
  7
SANWA
100
AcDbText
  0
LINE
  5
C193
330
747D
100
AcDbEntity
  8
0
100
AcDbLine
 10
5997.553191489351
 20
990.000000000009
 30
0.0
 11
6035.462120509059
 21
990.000000000009
 31
0.0
  0
LINE
  5
C194
330
747D
100
AcDbEntity
  8
0
 48
25.0
100
AcDbLine
 10
4123.469910207106
 20
3285.075433030023
 30
0.0
 11
6123.469910207106
 21
3285.075433030023
 31
0.0
  0
DIMENSION
  5
C195
330
747D
100
AcDbEntity
  8
寸法引出
 48
25.0
100
AcDbDimension
  2
*D11
 10
6123.469910207106
 20
3554.488116556486
 30
0.0
 11
5123.469910207106
 21
3604.488116556487
 31
0.0
 70
    32
 71
     5
 42
2000.0
  3
SANWA
100
AcDbAlignedDimension
 13
4123.469910207106
 23
3285.075433030023
 33
0.0
 14
6123.469910207106
 24
3285.075433030023
 34
0.0
100
AcDbRotatedDimension
1001
ACAD
1000
DSTYLE
1002
{
1070
    40
1040
25.0
1070
    41
1040
1.5
1070
    43
1040
5.0
1070
    44
1040
0.5
1070
   140
1040
2.0
1070
   147
1040
1.0
1070
   176
1070
   256
1070
   177
1070
   256
1070
   178
1070
   256
1002
}
  0
DIMENSION
  5
C196
330
747D
100
AcDbEntity
  8
寸法引出
 48
25.0
100
AcDbDimension
  2
*D10
 10
6003.469910207106
 20
3431.360045059736
 30
0.0
 11
5623.469910207106
 21
3481.360045059736
 31
0.0
 70
    32
 71
     5
 42
760.0
  3
SANWA
100
AcDbAlignedDimension
 13
5243.469910207107
 23
3285.075433030023
 33
0.0
 14
6003.469910207106
 24
3285.075433030023
 34
0.0
100
AcDbRotatedDimension
1001
ACAD
1000
DSTYLE
1002
{
1070
   279
1070
     1
1070
    40
1040
25.0
1070
    41
1040
1.5
1070
    43
1040
5.0
1070
    44
1040
0.5
1070
   140
1040
2.0
1070
   147
1040
1.0
1070
   176
1070
   256
1070
   177
1070
   256
1070
   178
1070
   256
1002
}
  0
LINE
  5
C197
330
747D
100
AcDbEntity
  8
枠
100
AcDbLine
 10
625.0
 20
5000.0
 30
0.0
 11
7175.0
 21
5000.0
 31
0.0
  0
DIMENSION
  5
C198
330
747D
100
AcDbEntity
  8
寸法引出
 48
25.0
100
AcDbDimension
  2
*D29
 10
2209.562192101642
 20
3436.260908638377
 30
0.0
 11
2184.562192101642
 21
3486.260908638377
 31
0.0
 70
    32
 71
     5
 42
50.0
  3
SANWA
100
AcDbAlignedDimension
 13
2159.562192101642
 23
3285.075433030025
 33
0.0
 14
2209.562192101642
 24
3285.075433030025
 34
0.0
100
AcDbRotatedDimension
1001
ACAD
1000
DSTYLE
1002
{
1070
    40
1040
25.0
1070
    41
1040
1.5
1070
    43
1040
5.0
1070
    44
1040
0.5
1070
   140
1040
2.0
1070
   147
1040
1.0
1070
   176
1070
   256
1070
   177
1070
   256
1070
   178
1070
   256
1002
}
  0
DIMENSION
  5
C199
330
747D
100
AcDbEntity
  8
寸法引出
 48
25.0
100
AcDbDimension
  2
*D28
 10
2509.562192101642
 20
3436.260908638377
 30
0.0
 11
2359.562192101642
 21
3486.260908638377
 31
0.0
 70
    32
 71
     5
 42
300.0
  3
SANWA
100
AcDbAlignedDimension
 13
2209.562192101642
 23
3285.075433030025
 33
0.0
 14
2509.562192101642
 24
3285.075433030025
 34
0.0
100
AcDbRotatedDimension
1001
ACAD
1000
DSTYLE
1002
{
1070
   279
1070
     1
1070
    40
1040
25.0
1070
    41
1040
1.5
1070
    43
1040
5.0
1070
    44
1040
0.5
1070
   140
1040
2.0
1070
   147
1040
1.0
1070
   176
1070
   256
1070
   177
1070
   256
1070
   178
1070
   256
1002
}
  0
DIMENSION
  5
C19A
330
747D
100
AcDbEntity
  8
寸法引出
 48
25.0
100
AcDbDimension
  2
*D27
 10
2559.562192101642
 20
3436.260908638377
 30
0.0
 11
2534.562192101642
 21
3486.260908638377
 31
0.0
 70
    32
 71
     5
 42
50.0
  3
SANWA
100
AcDbAlignedDimension
 13
2509.562192101642
 23
3285.075433030025
 33
0.0
 14
2559.562192101642
 24
3285.075433030025
 34
0.0
100
AcDbRotatedDimension
1001
ACAD
1000
DSTYLE
1002
{
1070
   279
1070
     1
1070
    40
1040
25.0
1070
    41
1040
1.5
1070
    43
1040
5.0
1070
    44
1040
0.5
1070
   140
1040
2.0
1070
   147
1040
1.0
1070
   176
1070
   256
1070
   177
1070
   256
1070
   178
1070
   256
1002
}
  0
DIMENSION
  5
C19B
330
747D
100
AcDbEntity
  8
寸法引出
 48
25.0
100
AcDbDimension
  2
*D26
 10
2559.562192101642
 20
3566.822907436358
 30
0.0
 11
2359.562192101642
 21
3616.822907436358
 31
0.0
 70
    32
 71
     5
 42
400.0
  3
SANWA
100
AcDbAlignedDimension
 13
2159.562192101642
 23
3285.075433030025
 33
0.0
 14
2559.562192101642
 24
3285.075433030025
 34
0.0
100
AcDbRotatedDimension
1001
ACAD
1000
DSTYLE
1002
{
1070
    40
1040
25.0
1070
    41
1040
1.5
1070
    43
1040
5.0
1070
    44
1040
0.5
1070
   140
1040
2.0
1070
   147
1040
1.0
1070
   176
1070
   256
1070
   177
1070
   256
1070
   178
1070
   256
1002
}
  0
LINE
  5
C19C
330
747D
100
AcDbEntity
  8
0
  6
HIDDEN2
 48
15.0
100
AcDbLine
 10
2159.562192101642
 20
2967.575433030023
 30
0.0
 11
2223.610249915553
 21
2968.994132217015
 31
0.0
  0
LINE
  5
C19D
330
747D
100
AcDbEntity
  8
0
  6
HIDDEN2
 48
15.0
100
AcDbLine
 10
2159.562192101642
 20
3002.575433030023
 30
0.0
 11
2222.180754671531
 21
3001.157775207516
 31
0.0
  0
LINE
  5
C19E
330
747D
100
AcDbEntity
  8
0
  6
CENTER2
 48
5.0
100
AcDbLine
 10
2129.562192101642
 20
2985.075433030023
 30
0.0
 11
2249.599668693394
 21
2985.075433030023
 31
0.0
  0
LINE
  5
C19F
330
747D
100
AcDbEntity
  8
0
  6
CENTER2
 48
5.0
100
AcDbLine
 10
2589.562192101642
 20
2985.075433030023
 30
0.0
 11
2469.524715509891
 21
2985.075433030023
 31
0.0
  0
LINE
  5
C1A0
330
747D
100
AcDbEntity
  8
0
  6
HIDDEN2
 48
15.0
100
AcDbLine
 10
2559.562192101642
 20
2967.575433030023
 30
0.0
 11
2495.514134287728
 21
2968.994132217015
 31
0.0
  0
LINE
  5
C1A1
330
747D
100
AcDbEntity
  8
0
  6
HIDDEN2
 48
15.0
100
AcDbLine
 10
2559.562192101642
 20
3002.575433030023
 30
0.0
 11
2496.943629531753
 21
3001.157775207516
 31
0.0
  0
DIMENSION
  5
C1A4
330
747D
100
AcDbEntity
  8
寸法引出
 48
25.0
100
AcDbDimension
  2
*D30
 10
2024.56721373256
 20
3135.075433030025
 30
0.0
 11
1974.567213732559
 21
3210.075433030025
 31
0.0
 70
    32
 71
     5
 42
150.0
  3
SANWA
100
AcDbAlignedDimension
 13
2159.562192101642
 23
3285.075433030025
 33
0.0
 14
2159.562192101642
 24
3135.075433030025
 34
0.0
 50
90.0
100
AcDbRotatedDimension
1001
ACAD
1000
DSTYLE
1002
{
1070
    40
1040
25.0
1070
    41
1040
1.5
1070
    43
1040
5.0
1070
    44
1040
0.5
1070
   140
1040
2.0
1070
   147
1040
1.0
1070
   176
1070
   256
1070
   177
1070
   256
1070
   178
1070
   256
1002
}
  0
LINE
  5
C1A5
330
747D
100
AcDbEntity
  8
0
 48
25.0
100
AcDbLine
 10
2162.762192101643
 20
3157.575433030025
 30
0.0
 11
2162.762192101643
 21
3112.575433030025
 31
0.0
  0
LINE
  5
C1A6
330
747D
100
AcDbEntity
  8
0
 48
25.0
100
AcDbLine
 10
2194.762192101643
 20
3145.075433030025
 30
0.0
 11
2194.762192101643
 21
3125.075433030025
 31
0.0
  0
LINE
  5
C1A7
330
747D
100
AcDbEntity
  8
0
 48
25.0
100
AcDbLine
 10
2192.762192101643
 20
3141.075433030025
 30
0.0
 11
2192.762192101643
 21
3129.075433030025
 31
0.0
  0
LINE
  5
C1A8
330
747D
100
AcDbEntity
  8
0
 48
25.0
100
AcDbLine
 10
2162.762192101643
 20
3127.075433030025
 30
0.0
 11
2192.762192101643
 21
3127.075433030025
 31
0.0
  0
LINE
  5
C1A9
330
747D
100
AcDbEntity
  8
0
 48
25.0
100
AcDbLine
 10
2162.762192101643
 20
3129.075433030025
 30
0.0
 11
2192.762192101643
 21
3129.075433030025
 31
0.0
  0
LINE
  5
C1AA
330
747D
100
AcDbEntity
  8
0
 48
25.0
100
AcDbLine
 10
2159.562192101642
 20
3110.575433030025
 30
0.0
 11
2162.762192101643
 21
3112.575433030025
 31
0.0
  0
LINE
  5
C1AB
330
747D
100
AcDbEntity
  8
0
 48
25.0
100
AcDbLine
 10
2192.762192101643
 20
3127.075433030025
 30
0.0
 11
2192.762192101643
 21
3125.075433030025
 31
0.0
  0
LINE
  5
C1AC
330
747D
100
AcDbEntity
  8
0
 48
25.0
100
AcDbLine
 10
2192.762192101643
 20
3125.075433030025
 30
0.0
 11
2194.762192101643
 21
3125.075433030025
 31
0.0
  0
LINE
  5
C1AD
330
747D
100
AcDbEntity
  8
0
 48
25.0
100
AcDbLine
 10
2162.762192101643
 20
3141.075433030025
 30
0.0
 11
2192.762192101643
 21
3141.075433030025
 31
0.0
  0
LINE
  5
C1AE
330
747D
100
AcDbEntity
  8
0
 48
25.0
100
AcDbLine
 10
2162.762192101643
 20
3143.075433030025
 30
0.0
 11
2192.762192101643
 21
3143.075433030025
 31
0.0
  0
LINE
  5
C1AF
330
747D
100
AcDbEntity
  8
0
 48
25.0
100
AcDbLine
 10
2159.562192101642
 20
3159.575433030025
 30
0.0
 11
2162.762192101643
 21
3157.575433030025
 31
0.0
  0
LINE
  5
C1B0
330
747D
100
AcDbEntity
  8
0
 48
25.0
100
AcDbLine
 10
2192.762192101643
 20
3145.075433030025
 30
0.0
 11
2192.762192101643
 21
3143.075433030025
 31
0.0
  0
LINE
  5
C1B1
330
747D
100
AcDbEntity
  8
0
 48
25.0
100
AcDbLine
 10
2192.762192101643
 20
3145.075433030025
 30
0.0
 11
2194.762192101643
 21
3145.075433030025
 31
0.0
  0
LINE
  5
C1B2
330
747D
100
AcDbEntity
  8
0
 48
15.0
100
AcDbLine
 10
2159.562192101642
 20
3285.075433030025
 30
0.0
 11
2209.562192101642
 21
3285.075433030025
 31
0.0
  0
LINE
  5
C1B4
330
747D
100
AcDbEntity
  8
0
 48
25.0
100
AcDbLine
 10
2556.362192101642
 20
3157.575433030025
 30
0.0
 11
2556.362192101642
 21
3112.575433030025
 31
0.0
  0
LINE
  5
C1B5
330
747D
100
AcDbEntity
  8
0
 48
25.0
100
AcDbLine
 10
2526.362192101641
 20
3141.075433030025
 30
0.0
 11
2526.362192101641
 21
3129.075433030025
 31
0.0
  0
LINE
  5
C1B6
330
747D
100
AcDbEntity
  8
0
 48
25.0
100
AcDbLine
 10
2524.362192101642
 20
3145.075433030025
 30
0.0
 11
2524.362192101642
 21
3125.075433030025
 31
0.0
  0
LINE
  5
C1B7
330
747D
100
AcDbEntity
  8
0
 48
25.0
100
AcDbLine
 10
2556.362192101642
 20
3129.075433030025
 30
0.0
 11
2526.362192101641
 21
3129.075433030025
 31
0.0
  0
LINE
  5
C1B8
330
747D
100
AcDbEntity
  8
0
 48
25.0
100
AcDbLine
 10
2556.362192101642
 20
3127.075433030025
 30
0.0
 11
2526.362192101641
 21
3127.075433030025
 31
0.0
  0
LINE
  5
C1B9
330
747D
100
AcDbEntity
  8
0
 48
25.0
100
AcDbLine
 10
2526.362192101641
 20
3125.075433030025
 30
0.0
 11
2524.362192101642
 21
3125.075433030025
 31
0.0
  0
LINE
  5
C1BA
330
747D
100
AcDbEntity
  8
0
 48
25.0
100
AcDbLine
 10
2526.362192101641
 20
3127.075433030025
 30
0.0
 11
2526.362192101641
 21
3125.075433030025
 31
0.0
  0
LINE
  5
C1BB
330
747D
100
AcDbEntity
  8
0
 48
25.0
100
AcDbLine
 10
2559.562192101642
 20
3110.575433030025
 30
0.0
 11
2556.362192101642
 21
3112.575433030025
 31
0.0
  0
LINE
  5
C1BC
330
747D
100
AcDbEntity
  8
0
 48
25.0
100
AcDbLine
 10
2556.362192101642
 20
3143.075433030025
 30
0.0
 11
2526.362192101641
 21
3143.075433030025
 31
0.0
  0
LINE
  5
C1BD
330
747D
100
AcDbEntity
  8
0
 48
25.0
100
AcDbLine
 10
2556.362192101642
 20
3141.075433030025
 30
0.0
 11
2526.362192101641
 21
3141.075433030025
 31
0.0
  0
LINE
  5
C1BE
330
747D
100
AcDbEntity
  8
0
 48
25.0
100
AcDbLine
 10
2526.362192101641
 20
3145.075433030025
 30
0.0
 11
2524.362192101642
 21
3145.075433030025
 31
0.0
  0
LINE
  5
C1BF
330
747D
100
AcDbEntity
  8
0
 48
25.0
100
AcDbLine
 10
2526.362192101641
 20
3145.075433030025
 30
0.0
 11
2526.362192101641
 21
3143.075433030025
 31
0.0
  0
LINE
  5
C1C0
330
747D
100
AcDbEntity
  8
0
 48
25.0
100
AcDbLine
 10
2559.562192101642
 20
3159.575433030025
 30
0.0
 11
2556.362192101642
 21
3157.575433030025
 31
0.0
  0
LINE
  5
C1C1
330
747D
100
AcDbEntity
  8
0
 48
15.0
100
AcDbLine
 10
2509.562192101642
 20
3285.075433030025
 30
0.0
 11
2559.562192101642
 21
3285.075433030025
 31
0.0
  0
TEXT
  5
C1C2
330
747D
100
AcDbEntity
  8
0
100
AcDbText
 10
2090.198783102188
 20
3734.62979896192
 30
0.0
 40
60.0
  1
正面図
  7
SANWA
 72
     4
 11
2221.855925959331
 21
3764.458370390492
 31
0.0
100
AcDbText
  0
LINE
  5
C1C3
330
747D
100
AcDbEntity
  8
0
100
AcDbLine
 10
2094.919033130914
 20
3713.694381487665
 30
0.0
 11
2341.898814353495
 21
3713.694381487665
 31
0.0
  0
DIMENSION
  5
C1C4
330
747D
100
AcDbEntity
  8
寸法引出
 48
25.0
100
AcDbDimension
  2
*D16
 10
5243.469910207107
 20
3431.360045059736
 30
0.0
 11
5123.469910207106
 21
3481.360045059736
 31
0.0
 70
    32
 71
     5
 42
240.0
  3
SANWA
100
AcDbAlignedDimension
 13
5003.469910207106
 23
3285.075433030023
 33
0.0
 14
5243.469910207107
 24
3285.075433030023
 34
0.0
100
AcDbRotatedDimension
1001
ACAD
1000
DSTYLE
1002
{
1070
   279
1070
     1
1070
    40
1040
25.0
1070
    41
1040
1.5
1070
    43
1040
5.0
1070
    44
1040
0.5
1070
   140
1040
2.0
1070
   147
1040
1.0
1070
   176
1070
   256
1070
   177
1070
   256
1070
   178
1070
   256
1002
}
  0
DIMENSION
  5
C1C5
330
747D
100
AcDbEntity
  8
寸法引出
 48
25.0
100
AcDbDimension
  2
*D13
 10
4243.469910207106
 20
3431.360045059736
 30
0.0
 11
4183.469910207106
 21
3481.360045059736
 31
0.0
 70
    32
 71
     5
 42
120.0
  3
SANWA
100
AcDbAlignedDimension
 13
4123.469910207106
 23
3285.075433030023
 33
0.0
 14
4243.469910207106
 24
3285.075433030023
 34
0.0
100
AcDbRotatedDimension
1001
ACAD
1000
DSTYLE
1002
{
1070
    40
1040
25.0
1070
    41
1040
1.5
1070
    43
1040
5.0
1070
    44
1040
0.5
1070
   140
1040
2.0
1070
   147
1040
1.0
1070
   176
1070
   256
1070
   177
1070
   256
1070
   178
1070
   256
1002
}
  0
DIMENSION
  5
C1C6
330
747D
100
AcDbEntity
  8
寸法引出
 48
25.0
100
AcDbDimension
  2
*D12
 10
5003.469910207106
 20
3431.360045059736
 30
0.0
 11
4623.469910207106
 21
3481.360045059736
 31
0.0
 70
    32
 71
     5
 42
760.0
  3
SANWA
100
AcDbAlignedDimension
 13
4243.469910207106
 23
3285.075433030023
 33
0.0
 14
5003.469910207106
 24
3285.075433030023
 34
0.0
100
AcDbRotatedDimension
1001
ACAD
1000
DSTYLE
1002
{
1070
   279
1070
     1
1070
    40
1040
25.0
1070
    41
1040
1.5
1070
    43
1040
5.0
1070
    44
1040
0.5
1070
   140
1040
2.0
1070
   147
1040
1.0
1070
   176
1070
   256
1070
   177
1070
   256
1070
   178
1070
   256
1002
}
  0
DIMENSION
  5
C1C7
330
747D
100
AcDbEntity
  8
寸法引出
 48
25.0
100
AcDbDimension
  2
*D14
 10
4173.469910207106
 20
3000.00044002426
 30
0.0
 11
4148.469910207106
 21
3050.00044002426
 31
0.0
 70
    32
 71
     5
 42
50.0
  3
SANWA
100
AcDbAlignedDimension
 13
4123.469910207106
 23
3110.575433030023
 33
0.0
 14
4173.469910207106
 24
3135.075433030023
 34
0.0
100
AcDbRotatedDimension
1001
ACAD
1000
DSTYLE
1002
{
1070
    40
1040
25.0
1070
    41
1040
1.5
1070
    43
1040
5.0
1070
    44
1040
0.5
1070
   140
1040
2.0
1070
   147
1040
1.0
1070
   176
1070
   256
1070
   177
1070
   256
1070
   178
1070
   256
1002
}
  0
DIMENSION
  5
C1C8
330
747D
100
AcDbEntity
  8
寸法引出
 48
25.0
100
AcDbDimension
  2
*D15
 10
3996.237552926137
 20
3285.075433030023
 30
0.0
 11
3946.237552926136
 21
3210.075433030024
 31
0.0
 70
    32
 71
     5
 42
150.0
  3
SANWA
100
AcDbAlignedDimension
 13
4123.469910207106
 23
3135.075433030023
 33
0.0
 14
4123.469910207106
 24
3285.075433030023
 34
0.0
 50
90.0
100
AcDbRotatedDimension
1001
ACAD
1000
DSTYLE
1002
{
1070
    40
1040
25.0
1070
    41
1040
1.5
1070
    43
1040
5.0
1070
    44
1040
0.5
1070
   140
1040
2.0
1070
   147
1040
1.0
1070
   176
1070
   256
1070
   177
1070
   256
1070
   178
1070
   256
1002
}
  0
LINE
  5
C1C9
330
747D
100
AcDbEntity
  8
0
 48
25.0
100
AcDbLine
 10
4208.469910207102
 20
3157.575433030023
 30
0.0
 11
4208.469910207106
 21
3112.575433030023
 31
0.0
  0
LINE
  5
C1CA
330
747D
100
AcDbEntity
  8
0
 48
25.0
100
AcDbLine
 10
4210.469910207106
 20
3159.575433030023
 30
0.0
 11
4210.469910207103
 21
3110.575433030023
 31
0.0
  0
CIRCLE
  5
C1CB
330
747D
100
AcDbEntity
  8
0
 48
25.0
100
AcDbCircle
 10
4173.469910207106
 20
3135.075433030023
 30
0.0
 40
6.0
  0
LINE
  5
C1CC
330
747D
100
AcDbEntity
  8
0
 48
25.0
100
AcDbLine
 10
4210.469910207103
 20
3110.575433030023
 30
0.0
 11
4208.469910207106
 21
3112.575433030023
 31
0.0
  0
LINE
  5
C1CD
330
747D
100
AcDbEntity
  8
0
 48
25.0
100
AcDbLine
 10
4123.469910207106
 20
3112.575433030023
 30
0.0
 11
4208.469910207106
 21
3112.575433030023
 31
0.0
  0
LINE
  5
C1CE
330
747D
100
AcDbEntity
  8
0
 48
25.0
100
AcDbLine
 10
4123.469910207106
 20
3110.575433030023
 30
0.0
 11
4210.469910207103
 21
3110.575433030023
 31
0.0
  0
LINE
  5
C1CF
330
747D
100
AcDbEntity
  8
0
 48
25.0
100
AcDbLine
 10
4210.469910207106
 20
3159.575433030023
 30
0.0
 11
4208.469910207102
 21
3157.575433030023
 31
0.0
  0
LINE
  5
C1D0
330
747D
100
AcDbEntity
  8
0
 48
25.0
100
AcDbLine
 10
4123.469910207106
 20
3159.575433030023
 30
0.0
 11
4210.469910207106
 21
3159.575433030023
 31
0.0
  0
LINE
  5
C1D1
330
747D
100
AcDbEntity
  8
0
 48
25.0
100
AcDbLine
 10
4123.469910207106
 20
3157.575433030023
 30
0.0
 11
4208.469910207102
 21
3157.575433030023
 31
0.0
  0
LINE
  5
C1D2
330
747D
100
AcDbEntity
  8
0
  6
HIDDEN2
 48
10.0
100
AcDbLine
 10
4233.469910207106
 20
3252.075433030023
 30
0.0
 11
4253.469910207106
 21
3252.075433030023
 31
0.0
  0
LINE
  5
C1D3
330
747D
100
AcDbEntity
  8
0
  6
HIDDEN2
 48
10.0
100
AcDbLine
 10
4233.469910207106
 20
3285.075433030023
 30
0.0
 11
4233.469910207106
 21
3252.075433030023
 31
0.0
  0
LINE
  5
C1D4
330
747D
100
AcDbEntity
  8
0
  6
HIDDEN2
 48
10.0
100
AcDbLine
 10
4253.469910207106
 20
3285.075433030023
 30
0.0
 11
4253.469910207106
 21
3252.075433030023
 31
0.0
  0
LINE
  5
C1D5
330
747D
100
AcDbEntity
  8
0
 48
25.0
100
AcDbLine
 10
5093.46991020711
 20
2985.075433030025
 30
0.0
 11
5153.469910207107
 21
2985.075433030025
 31
0.0
  0
LINE
  5
C1D6
330
747D
100
AcDbEntity
  8
0
 48
25.0
100
AcDbLine
 10
5123.469910207109
 20
3015.075433030025
 30
0.0
 11
5123.469910207106
 21
2955.075433030025
 31
0.0
  0
CIRCLE
  5
C1D7
330
747D
100
AcDbEntity
  8
0
 48
25.0
100
AcDbCircle
 10
5123.469910207106
 20
2985.075433030025
 30
0.0
 40
16.0
  0
CIRCLE
  5
C1D8
330
747D
100
AcDbEntity
  8
0
 48
25.0
100
AcDbCircle
 10
5123.469910207106
 20
2985.075433030025
 30
0.0
 40
17.5
  0
LINE
  5
C1D9
330
747D
100
AcDbEntity
  8
0
  6
HIDDEN2
 48
10.0
100
AcDbLine
 10
4993.469910207107
 20
3285.075433030023
 30
0.0
 11
4993.469910207107
 21
3252.075433030023
 31
0.0
  0
LINE
  5
C1DA
330
747D
100
AcDbEntity
  8
0
  6
HIDDEN2
 48
10.0
100
AcDbLine
 10
5013.469910207106
 20
3285.075433030023
 30
0.0
 11
5013.469910207106
 21
3252.075433030023
 31
0.0
  0
LINE
  5
C1DB
330
747D
100
AcDbEntity
  8
0
  6
HIDDEN2
 48
10.0
100
AcDbLine
 10
4993.469910207107
 20
3252.075433030023
 30
0.0
 11
5013.469910207106
 21
3252.075433030023
 31
0.0
  0
LINE
  5
C1DC
330
747D
100
AcDbEntity
  8
0
  6
HIDDEN2
 48
10.0
100
AcDbLine
 10
5233.469910207106
 20
3252.075433030023
 30
0.0
 11
5253.469910207106
 21
3252.075433030023
 31
0.0
  0
LINE
  5
C1DD
330
747D
100
AcDbEntity
  8
0
  6
HIDDEN2
 48
10.0
100
AcDbLine
 10
5233.469910207106
 20
3285.075433030023
 30
0.0
 11
5233.469910207106
 21
3252.075433030023
 31
0.0
  0
LINE
  5
C1DE
330
747D
100
AcDbEntity
  8
0
  6
HIDDEN2
 48
10.0
100
AcDbLine
 10
5253.469910207106
 20
3285.075433030023
 30
0.0
 11
5253.469910207106
 21
3252.075433030023
 31
0.0
  0
TEXT
  5
C1DF
330
747D
100
AcDbEntity
  8
0
100
AcDbText
 10
4130.877350444881
 20
3734.286941819064
 30
0.0
 40
60.0
  1
側面図
  7
SANWA
 72
     4
 11
4262.534493302024
 21
3764.458370390492
 31
0.0
100
AcDbText
  0
LINE
  5
C1E0
330
747D
100
AcDbEntity
  8
0
100
AcDbLine
 10
4138.163786169985
 20
3713.694381487665
 30
0.0
 11
4385.143567392566
 21
3713.694381487665
 31
0.0
  0
LINE
  5
C1E1
330
747D
100
AcDbEntity
  8
0
100
AcDbLine
 10
2384.312133845662
 20
4500.0
 30
0.0
 11
5290.761576616435
 21
4500.0
 31
0.0
  0
LINE
  5
C1E2
330
747D
100
AcDbEntity
  8
0
100
AcDbLine
 10
2384.312133845662
 20
4480.000000000001
 30
0.0
 11
5290.761576616435
 21
4480.000000000001
 31
0.0
  0
TEXT
  5
C1E3
330
747D
100
AcDbEntity
  8
0
100
AcDbText
 10
2472.001058842517
 20
4537.948317370435
 30
0.0
 40
70.0
  1
マルチスリット側溝 ３００×９００×２０００
  7
SANWA
 72
     4
 11
3572.801058842517
 21
4572.948317370435
 31
0.0
100
AcDbText
  0
TEXT
  5
C1E4
330
747D
100
AcDbEntity
  8
0
100
AcDbText
 10
4930.407548914025
 20
4544.491174513293
 30
0.0
 40
60.0
  1
W=830㎏
  7
SANWA
 72
     4
 11
5084.007548914025
 21
4572.948317370435
 31
0.0
100
AcDbText
  0
DIMENSION
  5
C1E5
330
747D
100
AcDbEntity
  8
寸法引出
 48
25.0
100
AcDbDimension
  2
*D17
 10
6123.469910207106
 20
3431.360045059736
 30
0.0
 11
6063.469910207107
 21
3481.360045059736
 31
0.0
 70
    32
 71
     5
 42
120.0
  3
SANWA
100
AcDbAlignedDimension
 13
6003.469910207106
 23
3285.075433030023
 33
0.0
 14
6123.469910207106
 24
3285.075433030023
 34
0.0
100
AcDbRotatedDimension
1001
ACAD
1000
DSTYLE
1002
{
1070
   279
1070
     1
1070
    40
1040
25.0
1070
    41
1040
1.5
1070
    43
1040
5.0
1070
    44
1040
0.5
1070
   140
1040
2.0
1070
   147
1040
1.0
1070
   176
1070
   256
1070
   177
1070
   256
1070
   178
1070
   256
1002
}
  0
LINE
  5
C1E6
330
747D
100
AcDbEntity
  8
0
 48
25.0
100
AcDbLine
 10
6038.46991020711
 20
3157.575433030023
 30
0.0
 11
6038.469910207107
 21
3112.575433030023
 31
0.0
  0
LINE
  5
C1E7
330
747D
100
AcDbEntity
  8
0
 48
25.0
100
AcDbLine
 10
6036.469910207106
 20
3159.575433030023
 30
0.0
 11
6036.469910207109
 21
3110.575433030023
 31
0.0
  0
CIRCLE
  5
C1E8
330
747D
100
AcDbEntity
  8
0
 48
25.0
100
AcDbCircle
 10
6073.469910207106
 20
3135.075433030023
 30
0.0
 40
6.0
  0
LINE
  5
C1E9
330
747D
100
AcDbEntity
  8
0
 48
25.0
100
AcDbLine
 10
6036.469910207109
 20
3110.575433030023
 30
0.0
 11
6038.469910207107
 21
3112.575433030023
 31
0.0
  0
LINE
  5
C1EA
330
747D
100
AcDbEntity
  8
0
 48
25.0
100
AcDbLine
 10
6123.469910207106
 20
3112.575433030023
 30
0.0
 11
6038.469910207107
 21
3112.575433030023
 31
0.0
  0
LINE
  5
C1EB
330
747D
100
AcDbEntity
  8
0
 48
25.0
100
AcDbLine
 10
6123.469910207106
 20
3110.575433030023
 30
0.0
 11
6036.469910207109
 21
3110.575433030023
 31
0.0
  0
LINE
  5
C1EC
330
747D
100
AcDbEntity
  8
0
 48
25.0
100
AcDbLine
 10
6036.469910207106
 20
3159.575433030023
 30
0.0
 11
6038.46991020711
 21
3157.575433030023
 31
0.0
  0
LINE
  5
C1ED
330
747D
100
AcDbEntity
  8
0
 48
25.0
100
AcDbLine
 10
6123.469910207106
 20
3157.575433030023
 30
0.0
 11
6038.46991020711
 21
3157.575433030023
 31
0.0
  0
LINE
  5
C1EE
330
747D
100
AcDbEntity
  8
0
 48
25.0
100
AcDbLine
 10
6123.469910207106
 20
3159.575433030023
 30
0.0
 11
6036.469910207106
 21
3159.575433030023
 31
0.0
  0
LINE
  5
C1EF
330
747D
100
AcDbEntity
  8
0
  6
HIDDEN2
 48
10.0
100
AcDbLine
 10
5993.469910207107
 20
3252.075433030023
 30
0.0
 11
6013.469910207106
 21
3252.075433030023
 31
0.0
  0
LINE
  5
C1F0
330
747D
100
AcDbEntity
  8
0
  6
HIDDEN2
 48
10.0
100
AcDbLine
 10
5993.469910207107
 20
3285.075433030023
 30
0.0
 11
5993.469910207107
 21
3252.075433030023
 31
0.0
  0
LINE
  5
C1F1
330
747D
100
AcDbEntity
  8
0
  6
HIDDEN2
 48
10.0
100
AcDbLine
 10
6013.469910207106
 20
3285.075433030023
 30
0.0
 11
6013.469910207106
 21
3252.075433030023
 31
0.0
  0
LINE
  5
C1F2
330
747D
100
AcDbEntity
  8
0
100
AcDbLine
 10
7425.0
 20
5250.0
 30
0.0
 11
7425.0
 21
5000.0
 31
0.0
  0
LINE
  5
C1F3
330
747D
100
AcDbEntity
  8
0
100
AcDbLine
 10
7175.0
 20
5250.0
 30
0.0
 11
7425.0
 21
5250.0
 31
0.0
  0
LINE
  5
C5E3
330
747D
100
AcDbEntity
  8
0
 48
25.0
100
AcDbLine
 10
2159.562192101646
 20
2320.075433030023
 30
0.0
 11
2189.562192101646
 21
2290.075433030023
 31
0.0
  0
LINE
  5
C5E4
330
747D
100
AcDbEntity
  8
0
 48
25.0
100
AcDbLine
 10
2559.562192101639
 20
2320.075433030023
 30
0.0
 11
2529.562192101639
 21
2290.075433030023
 31
0.0
  0
LINE
  5
C604
330
747D
100
AcDbEntity
  8
0
 48
25.0
100
AcDbLine
 10
4123.469910207106
 20
2320.075433030023
 30
0.0
 11
6123.469910207106
 21
2320.075433030023
 31
0.0
  0
LINE
  5
C607
330
747D
100
AcDbEntity
  8
0
 48
25.0
100
AcDbLine
 10
4123.469910207106
 20
2300.075433030023
 30
0.0
 11
4133.469910207106
 21
2290.075433030023
 31
0.0
  0
LINE
  5
C608
330
747D
100
AcDbEntity
  8
0
 48
15.0
100
AcDbLine
 10
2179.562192101642
 20
2300.075433030023
 30
0.0
 11
2539.562192101643
 21
2300.075433030023
 31
0.0
  0
DIMENSION
  5
C647
330
747D
100
AcDbEntity
  8
寸法引出
 48
25.0
100
AcDbDimension
  2
*D31
 10
2254.562192101638
 20
2096.659339928935
 30
0.0
 11
2207.062192101643
 21
2146.659339928935
 31
0.0
 70
    32
 71
     5
 42
94.99999999999273
  3
SANWA
100
AcDbAlignedDimension
 13
2159.562192101646
 23
2320.075433030023
 33
0.0
 14
2254.562192101638
 24
2290.075433030023
 34
0.0
100
AcDbRotatedDimension
1001
ACAD
1000
DSTYLE
1002
{
1070
    40
1040
25.0
1070
    41
1040
1.5
1070
    43
1040
5.0
1070
    44
1040
0.5
1070
   140
1040
2.0
1070
   147
1040
1.0
1070
   176
1070
   256
1070
   177
1070
   256
1070
   178
1070
   256
1002
}
  0
DIMENSION
  5
C656
330
747D
100
AcDbEntity
  8
寸法引出
 48
25.0
100
AcDbDimension
  2
*D32
 10
2464.562192101635
 20
2096.659339928935
 30
0.0
 11
2359.562192101637
 21
2146.659339928935
 31
0.0
 70
    32
 71
     5
 42
209.9999999999963
  3
SANWA
100
AcDbAlignedDimension
 13
2254.562192101638
 23
2290.075433030023
 33
0.0
 14
2464.562192101635
 24
2290.075433030023
 34
0.0
100
AcDbRotatedDimension
1001
ACAD
1000
DSTYLE
1002
{
1070
   279
1070
     1
1070
    40
1040
25.0
1070
    41
1040
1.5
1070
    43
1040
5.0
1070
    44
1040
0.5
1070
   140
1040
2.0
1070
   147
1040
1.0
1070
   176
1070
   256
1070
   177
1070
   256
1070
   178
1070
   256
1002
}
  0
DIMENSION
  5
C663
330
747D
100
AcDbEntity
  8
寸法引出
 48
25.0
100
AcDbDimension
  2
*D33
 10
2559.562192101639
 20
2096.659339928935
 30
0.0
 11
2512.062192101637
 21
2146.659339928935
 31
0.0
 70
    32
 71
     5
 42
95.00000000000364
  3
SANWA
100
AcDbAlignedDimension
 13
2464.562192101635
 23
2290.075433030023
 33
0.0
 14
2559.562192101639
 24
2320.075433030023
 34
0.0
100
AcDbRotatedDimension
1001
ACAD
1000
DSTYLE
1002
{
1070
   279
1070
     1
1070
    40
1040
25.0
1070
    41
1040
1.5
1070
    43
1040
5.0
1070
    44
1040
0.5
1070
   140
1040
2.0
1070
   147
1040
1.0
1070
   176
1070
   256
1070
   177
1070
   256
1070
   178
1070
   256
1002
}
  0
ARC
  5
C691
330
747D
100
AcDbEntity
  8
0
 48
25.0
100
AcDbCircle
 10
2359.562192101642
 20
2685.075433030023
 30
0.0
 40
300.0
100
AcDbArc
 50
256.6379401272716
 51
283.3620598727269
  0
ARC
  5
C693
330
747D
100
AcDbEntity
  8
0
 48
25.0
100
AcDbCircle
 10
2301.786267135197
 20
2441.843152083863
 30
0.0
 40
50.0
100
AcDbArc
 50
182.8624052261111
 51
256.6379401272716
  0
ARC
  5
C694
330
747D
100
AcDbEntity
  8
0
 48
25.0
100
AcDbCircle
 10
2417.33811706808
 20
2441.843152083861
 30
0.0
 40
50.0
100
AcDbArc
 50
283.3620598727282
 51
357.1375947738876
  0
LINE
  5
C6A6
330
747D
100
AcDbEntity
  8
0
 48
25.0
100
AcDbLine
 10
6113.469910207107
 20
2290.075433030023
 30
0.0
 11
6123.469910207106
 21
2300.075433030023
 31
0.0
  0
ARC
  5
CB11
330
747D
100
AcDbEntity
  8
0
 48
25.0
100
AcDbCircle
 10
2359.562192101642
 20
2685.075433030023
 30
0.0
 40
320.0
100
AcDbArc
 50
256.6379401272716
 51
283.3620598727269
  0
ARC
  5
CB12
330
747D
100
AcDbEntity
  8
0
 48
25.0
100
AcDbCircle
 10
2417.33811706808
 20
2441.843152083861
 30
0.0
 40
70.0
100
AcDbArc
 50
283.3620598727282
 51
357.1375947738876
  0
ARC
  5
CB13
330
747D
100
AcDbEntity
  8
0
 48
25.0
100
AcDbCircle
 10
2301.786267135197
 20
2441.843152083863
 30
0.0
 40
70.0
100
AcDbArc
 50
182.8624052261111
 51
256.6379401272716
  0
LINE
  5
CB14
330
747D
100
AcDbEntity
  8
0
 48
15.0
100
AcDbLine
 10
2189.53720770714
 20
3285.075433030025
 30
0.0
 11
2231.873603413751
 21
2438.347518897792
 31
0.0
  0
LINE
  5
CB15
330
747D
100
AcDbEntity
  8
0
 48
15.0
100
AcDbLine
 10
2487.250780789523
 20
2438.347518897789
 30
0.0
 11
2529.587176496141
 21
3285.075433030025
 31
0.0
  0
VIEWPORT
  5
7540
330
747A
100
AcDbEntity
 67
     1
  8
0
100
AcDbViewport
 10
2878.243789599006
 20
970.3639114717196
 30
0.0
 40
6257.342359533289
 41
4285.736489239756
 68
     1
 69
     1
 12
2878.243789599006
 22
970.3639114717196
 13
0.0
 23
0.0
 14
10.0
 24
10.0
 15
10.0
 25
10.0
 16
0.0
 26
0.0
 36
1.0
 17
0.0
 27
0.0
 37
0.0
 42
50.0
 43
0.0
 44
0.0
 45
4285.736489239756
 50
0.0
 51
0.0
 72
   100
 90
    32800
  1

281
     0
 71
     1
 74
     0
110
0.0
120
0.0
130
0.0
111
1.0
121
0.0
131
0.0
112
0.0
122
1.0
132
0.0
 79
     0
146
0.0
  0
TEXT
  5
7737
330
747A
100
AcDbEntity
 67
     1
  8
0
 48
2.0
100
AcDbText
 10
331.8711968111849
 20
20.60428158404022
 30
0.0
 40
2.0
  1

  7
SANWA
100
AcDbText
  0
ENDSEC
  0
SECTION
  2
OBJECTS
  0
DICTIONARY
  5
7471
330
0
100
AcDbDictionary
281
     1
  3
ACAD_GROUP
350
7472
  3
ACAD_LAYOUT
350
7F6B
  3
ACAD_MLINESTYLE
350
7473
  3
ACAD_PLOTSETTINGS
350
7F6C
  3
ACAD_PLOTSTYLENAME
350
7F69
  3
AcadDim
350
BDFE
  3
ACDBVARIABLEDICTIONARY
350
789B
  0
DICTIONARY
  5
7472
102
{ACAD_REACTORS
330
7471
102
}
330
0
100
AcDbDictionary
281
     1
  0
DICTIONARY
  5
7F6B
102
{ACAD_REACTORS
330
7471
102
}
330
7471
100
AcDbDictionary
281
     1
  3
Model
350
7F6D
  3
ﾚｲｱｳﾄ1
350
7F6E
  0
DICTIONARY
  5
7473
102
{ACAD_REACTORS
330
7471
102
}
330
0
100
AcDbDictionary
281
     1
  3
STANDARD
350
7480
  0
DICTIONARY
  5
7F6C
102
{ACAD_REACTORS
330
7471
102
}
330
7471
100
AcDbDictionary
281
     1
  0
ACDBDICTIONARYWDFLT
  5
7F69
102
{ACAD_REACTORS
330
7471
102
}
330
7471
100
AcDbDictionary
281
     1
  3
Normal
350
7F6A
100
AcDbDictionaryWithDefault
340
7F6A
  0
XRECORD
  5
BDFE
102
{ACAD_REACTORS
330
7471
102
}
330
7471
100
AcDbXrecord
280
     1
 90
   990106
  3

 60
     4
 61
     0
 62
     1
 63
     3
 64
     0
 65
     0
 66
     0
 67
     3
 68
     1
 69
     0
 70
     0
 71
     0
 72
     0
 40
0.0
170
     0
  0
DICTIONARY
  5
789B
102
{ACAD_REACTORS
330
7471
102
}
330
7471
100
AcDbDictionary
281
     1
  3
DIMASSOC
350
7F75
  3
SORTENTS
350
789C
  0
LAYOUT
  5
7F6D
102
{ACAD_REACTORS
330
7F6B
102
}
330
7F6B
100
AcDbPlotSettings
  1

  2
DocuPrint 205
  4
A4
  6

 40
4.900083065032958
 41
4.900057315826416
 42
4.90008544921875
 43
4.90008544921875
 44
210.0156707763671
 45
297.0106506347656
 46
5.11
 47
12.61
 48
625.0
 49
250.0
140
7175.0
141
5000.0
142
1.0
143
25.0
 70
 11940
 72
     1
 73
     1
 74
     4
  7
sanwa3.ctb
 75
     0
147
0.04
148
-625.0
149
-250.0
100
AcDbLayout
  1
Model
 70
     1
 71
     0
 10
0.0
 20
0.0
 11
12.0
 21
9.0
 12
0.0
 22
0.0
 32
0.0
 14
0.0
 24
0.0
 34
0.0
 15
0.0
 25
0.0
 35
0.0
146
0.0
 13
0.0
 23
0.0
 33
0.0
 16
1.0
 26
0.0
 36
0.0
 17
0.0
 27
1.0
 37
0.0
 76
     0
330
747D
  0
LAYOUT
  5
7F6E
102
{ACAD_REACTORS
330
7F6B
102
}
330
7F6B
100
AcDbPlotSettings
  1

  2
RICOH NX-510
  4
A4
  6

 40
5.873749732971191
 41
4.92125654220581
 42
7.588241577148437
 43
5.81024169921875
 44
209.9944915771484
 45
296.989501953125
 46
0.0
 47
0.0
 48
0.0
 49
0.0
140
0.0
141
0.0
142
1.0
143
20.17331812743451
 70
   688
 72
     1
 73
     1
 74
     1
  7
sanwa3.ctb
 75
     0
147
0.0495704273180553
148
0.1762079097297828
149
1029.28590836146
100
AcDbLayout
  1
ﾚｲｱｳﾄ1
 70
     1
 71
     1
 10
-117.3880621053552
 20
-1147.778930325621
 11
5873.875641303368
 21
3088.506753269061
 12
0.0
 22
0.0
 32
0.0
 14
1.000000000000000E+20
 24
1.000000000000000E+20
 34
1.000000000000000E+20
 15
-1.000000000000000E+20
 25
-1.000000000000000E+20
 35
-1.000000000000000E+20
146
0.0
 13
0.0
 23
0.0
 33
0.0
 16
1.0
 26
0.0
 36
0.0
 17
0.0
 27
1.0
 37
0.0
 76
     0
330
747A
331
7540
  0
MLINESTYLE
  5
7480
102
{ACAD_REACTORS
330
7473
102
}
330
0
100
AcDbMlineStyle
  2
STANDARD
 70
     0
  3

 62
     0
 51
90.0
 52
90.0
 71
     2
 49
0.5
 62
   256
  6
BYLAYER
 49
-0.5
 62
   256
  6
BYLAYER
  0
ACDBPLACEHOLDER
  5
7F6A
102
{ACAD_REACTORS
330
7F69
102
}
330
7F69
  0
DICTIONARYVAR
  5
7F75
102
{ACAD_REACTORS
330
789B
102
}
330
789B
100
DictionaryVariables
280
     0
  1
1
  0
DICTIONARYVAR
  5
789C
102
{ACAD_REACTORS
330
789B
102
}
330
789B
100
DictionaryVariables
280
     0
  1
96
  0
ENDSEC
  0
EOF
