  0
SECTION
  2
HEADER
  9
$ACADVER
  1
AC1015
  9
$ACADMAINTVER
 70
    13
  9
$DWGCODEPAGE
  3
ANSI_932
  9
$INSBASE
 10
0.0
 20
0.0
 30
0.0
  9
$EXTMIN
 10
-0.1778880160745757
 20
-0.4422648947875132
 30
-0.0000000000000015
  9
$EXTMAX
 10
7425.623012119647
 20
5250.051153428031
 30
0.0000000000000137
  9
$LIMMIN
 10
0.0
 20
0.0
  9
$LIMMAX
 10
420.0
 20
297.0
  9
$ORTHOMODE
 70
     1
  9
$REGENMODE
 70
     1
  9
$FILLMODE
 70
     1
  9
$QTEXTMODE
 70
     0
  9
$MIRRTEXT
 70
     1
  9
$LTSCALE
 40
0.5
  9
$ATTMODE
 70
     1
  9
$TEXTSIZE
 40
2.799999999999999
  9
$TRACEWID
 40
1.0
  9
$TEXTSTYLE
  7
SANWA
  9
$CLAYER
  8
0
  9
$CELTYPE
  6
BYLAYER
  9
$CECOLOR
 62
   256
  9
$CELTSCALE
 40
25.0
  9
$DISPSILH
 70
     0
  9
$DIMSCALE
 40
20.0
  9
$DIMASZ
 40
1.5
  9
$DIMEXO
 40
1.0
  9
$DIMDLI
 40
5.0
  9
$DIMRND
 40
0.0
  9
$DIMDLE
 40
0.0
  9
$DIMEXE
 40
0.5
  9
$DIMTP
 40
0.0
  9
$DIMTM
 40
0.0
  9
$DIMTXT
 40
2.0
  9
$DIMCEN
 40
0.0
  9
$DIMTSZ
 40
0.0
  9
$DIMTOL
 70
     0
  9
$DIMLIM
 70
     0
  9
$DIMTIH
 70
     0
  9
$DIMTOH
 70
     0
  9
$DIMSE1
 70
     0
  9
$DIMSE2
 70
     0
  9
$DIMTAD
 70
     1
  9
$DIMZIN
 70
     8
  9
$DIMBLK
  1

  9
$DIMASO
 70
     1
  9
$DIMSHO
 70
     1
  9
$DIMPOST
  1

  9
$DIMAPOST
  1

  9
$DIMALT
 70
     0
  9
$DIMALTD
 70
     2
  9
$DIMALTF
 40
0.0394
  9
$DIMLFAC
 40
1.0
  9
$DIMTOFL
 70
     1
  9
$DIMTVP
 40
0.0
  9
$DIMTIX
 70
     1
  9
$DIMSOXD
 70
     0
  9
$DIMSAH
 70
     0
  9
$DIMBLK1
  1

  9
$DIMBLK2
  1

  9
$DIMSTYLE
  2
SANWA
  9
$DIMCLRD
 70
   256
  9
$DIMCLRE
 70
   256
  9
$DIMCLRT
 70
   256
  9
$DIMTFAC
 40
1.0
  9
$DIMGAP
 40
1.0
  9
$DIMJUST
 70
     0
  9
$DIMSD1
 70
     0
  9
$DIMSD2
 70
     0
  9
$DIMTOLJ
 70
     1
  9
$DIMTZIN
 70
     0
  9
$DIMALTZ
 70
     0
  9
$DIMALTTZ
 70
     0
  9
$DIMUPT
 70
     0
  9
$DIMDEC
 70
     4
  9
$DIMTDEC
 70
     4
  9
$DIMALTU
 70
     2
  9
$DIMALTTD
 70
     2
  9
$DIMTXSTY
  7
SANWA
  9
$DIMAUNIT
 70
     0
  9
$DIMADEC
 70
     0
  9
$DIMALTRND
 40
0.0
  9
$DIMAZIN
 70
     0
  9
$DIMDSEP
 70
    46
  9
$DIMATFIT
 70
     3
  9
$DIMFRAC
 70
     0
  9
$DIMLDRBLK
  1

  9
$DIMLUNIT
 70
     2
  9
$DIMLWD
 70
    -2
  9
$DIMLWE
 70
    -2
  9
$DIMTMOVE
 70
     0
  9
$LUNITS
 70
     2
  9
$LUPREC
 70
     4
  9
$SKETCHINC
 40
1.0
  9
$FILLETRAD
 40
100.0
  9
$AUNITS
 70
     0
  9
$AUPREC
 70
     0
  9
$MENU
  1
acad
  9
$ELEVATION
 40
0.0
  9
$PELEVATION
 40
0.0
  9
$THICKNESS
 40
0.0
  9
$LIMCHECK
 70
     0
  9
$CHAMFERA
 40
30.0
  9
$CHAMFERB
 40
30.0
  9
$CHAMFERC
 40
0.0
  9
$CHAMFERD
 40
0.0
  9
$SKPOLY
 70
     1
  9
$TDCREATE
 40
2451589.862323842
  9
$TDUCREATE
 40
2451589.487323842
  9
$TDUPDATE
 40
2454145.372556053
  9
$TDUUPDATE
 40
2454144.997556053
  9
$TDINDWG
 40
0.1719711343
  9
$TDUSRTIMER
 40
0.1719711343
  9
$USRTIMER
 70
     1
  9
$ANGBASE
 50
0.0
  9
$ANGDIR
 70
     0
  9
$PDMODE
 70
     0
  9
$PDSIZE
 40
0.0
  9
$PLINEWID
 40
0.0
  9
$SPLFRAME
 70
     0
  9
$SPLINETYPE
 70
     6
  9
$SPLINESEGS
 70
     8
  9
$HANDSEED
  5
C4F0
  9
$SURFTAB1
 70
     6
  9
$SURFTAB2
 70
     6
  9
$SURFTYPE
 70
     6
  9
$SURFU
 70
     6
  9
$SURFV
 70
     6
  9
$UCSBASE
  2

  9
$UCSNAME
  2

  9
$UCSORG
 10
0.0
 20
0.0
 30
0.0
  9
$UCSXDIR
 10
1.0
 20
0.0
 30
0.0
  9
$UCSYDIR
 10
0.0
 20
1.0
 30
0.0
  9
$UCSORTHOREF
  2

  9
$UCSORTHOVIEW
 70
     0
  9
$UCSORGTOP
 10
0.0
 20
0.0
 30
0.0
  9
$UCSORGBOTTOM
 10
0.0
 20
0.0
 30
0.0
  9
$UCSORGLEFT
 10
0.0
 20
0.0
 30
0.0
  9
$UCSORGRIGHT
 10
0.0
 20
0.0
 30
0.0
  9
$UCSORGFRONT
 10
0.0
 20
0.0
 30
0.0
  9
$UCSORGBACK
 10
0.0
 20
0.0
 30
0.0
  9
$PUCSBASE
  2

  9
$PUCSNAME
  2

  9
$PUCSORG
 10
0.0
 20
0.0
 30
0.0
  9
$PUCSXDIR
 10
1.0
 20
0.0
 30
0.0
  9
$PUCSYDIR
 10
0.0
 20
1.0
 30
0.0
  9
$PUCSORTHOREF
  2

  9
$PUCSORTHOVIEW
 70
     0
  9
$PUCSORGTOP
 10
0.0
 20
0.0
 30
0.0
  9
$PUCSORGBOTTOM
 10
0.0
 20
0.0
 30
0.0
  9
$PUCSORGLEFT
 10
0.0
 20
0.0
 30
0.0
  9
$PUCSORGRIGHT
 10
0.0
 20
0.0
 30
0.0
  9
$PUCSORGFRONT
 10
0.0
 20
0.0
 30
0.0
  9
$PUCSORGBACK
 10
0.0
 20
0.0
 30
0.0
  9
$USERI1
 70
     0
  9
$USERI2
 70
     0
  9
$USERI3
 70
     0
  9
$USERI4
 70
     0
  9
$USERI5
 70
     0
  9
$USERR1
 40
0.0
  9
$USERR2
 40
0.0
  9
$USERR3
 40
0.0
  9
$USERR4
 40
0.0
  9
$USERR5
 40
0.0
  9
$WORLDVIEW
 70
     1
  9
$SHADEDGE
 70
     3
  9
$SHADEDIF
 70
    70
  9
$TILEMODE
 70
     1
  9
$MAXACTVP
 70
    48
  9
$PINSBASE
 10
0.0
 20
0.0
 30
0.0
  9
$PLIMCHECK
 70
     0
  9
$PEXTMIN
 10
1.000000000000000E+20
 20
1.000000000000000E+20
 30
1.000000000000000E+20
  9
$PEXTMAX
 10
-1.000000000000000E+20
 20
-1.000000000000000E+20
 30
-1.000000000000000E+20
  9
$PLIMMIN
 10
-6996.302392501092
 20
-3651.249582209533
  9
$PLIMMAX
 10
938.1879353110262
 20
1959.047251029004
  9
$UNITMODE
 70
     0
  9
$VISRETAIN
 70
     1
  9
$PLINEGEN
 70
     0
  9
$PSLTSCALE
 70
     1
  9
$TREEDEPTH
 70
  3020
  9
$CMLSTYLE
  2
STANDARD
  9
$CMLJUST
 70
     0
  9
$CMLSCALE
 40
1.0
  9
$PROXYGRAPHICS
 70
     1
  9
$MEASUREMENT
 70
     1
  9
$CELWEIGHT
370
    -1
  9
$ENDCAPS
280
     0
  9
$JOINSTYLE
280
     0
  9
$LWDISPLAY
290
     0
  9
$INSUNITS
 70
     0
  9
$HYPERLINKBASE
  1

  9
$STYLESHEET
  1
sanwa3.ctb
  9
$XEDIT
290
     1
  9
$CEPSNTYPE
380
     0
  9
$PSTYLEMODE
290
     1
  9
$FINGERPRINTGUID
  2
{00F35F9B-9642-449C-AF6B-00AE4CECD546}
  9
$VERSIONGUID
  2
{9610B83F-8102-49C0-A14B-14EB3D725008}
  9
$EXTNAMES
290
     1
  9
$PSVPSCALE
 40
0.0
  9
$OLESTARTUP
290
     0
  0
ENDSEC
  0
SECTION
  2
CLASSES
  0
CLASS
  1
LWPOLYLINE
  2
AcDbPolyline
  3
AutoCAD 2000
 90
    32768
280
     0
281
     1
  0
CLASS
  1
DICTIONARYVAR
  2
AcDbDictionaryVar
  3
AutoCAD 2000
 90
        0
280
     0
281
     0
  0
CLASS
  1
HATCH
  2
AcDbHatch
  3
AutoCAD 2000
 90
    32768
280
     0
281
     1
  0
CLASS
  1
ACDBDICTIONARYWDFLT
  2
AcDbDictionaryWithDefault
  3
AutoCAD 2000
 90
        0
280
     0
281
     0
  0
CLASS
  1
ACDBPLACEHOLDER
  2
AcDbPlaceHolder
  3
AutoCAD 2000
 90
        0
280
     0
281
     0
  0
CLASS
  1
LAYOUT
  2
AcDbLayout
  3
AutoCAD 2000
 90
        0
280
     0
281
     0
  0
ENDSEC
  0
SECTION
  2
TABLES
  0
TABLE
  2
VPORT
  5
746D
330
0
100
AcDbSymbolTable
 70
     2
  0
VPORT
  5
C4EF
330
746D
100
AcDbSymbolTableRecord
100
AcDbViewportTableRecord
  2
*Active
 70
     0
 10
0.0
 20
0.0
 11
1.0
 21
1.0
 12
3712.722562051785
 22
2624.80444426662
 13
0.0
 23
0.0
 14
10.0
 24
10.0
 15
10.0
 25
10.0
 16
0.0
 26
0.0
 36
1.0
 17
0.0
 27
0.0
 37
0.0
 40
5472.272413296361
 41
1.368320610687022
 42
50.0
 43
0.0
 44
0.0
 50
0.0
 51
0.0
 71
     0
 72
   100
 73
     1
 74
     0
 75
     0
 76
     0
 77
     0
 78
     0
281
     0
 65
     1
110
0.0
120
0.0
130
0.0
111
1.0
121
0.0
131
0.0
112
0.0
122
1.0
132
0.0
 79
     0
146
0.0
  0
ENDTAB
  0
TABLE
  2
LTYPE
  5
746A
330
0
100
AcDbSymbolTable
 70
     5
  0
LTYPE
  5
7477
330
746A
100
AcDbSymbolTableRecord
100
AcDbLinetypeTableRecord
  2
BYBLOCK
 70
     0
  3

 72
    65
 73
     0
 40
0.0
  0
LTYPE
  5
7478
330
746A
100
AcDbSymbolTableRecord
100
AcDbLinetypeTableRecord
  2
BYLAYER
 70
     0
  3

 72
    65
 73
     0
 40
0.0
  0
LTYPE
  5
7479
330
746A
100
AcDbSymbolTableRecord
100
AcDbLinetypeTableRecord
  2
CONTINUOUS
 70
     0
  3
Solid line
 72
    65
 73
     0
 40
0.0
  0
LTYPE
  5
7D54
330
746A
100
AcDbSymbolTableRecord
100
AcDbLinetypeTableRecord
  2
CENTER2
 70
     0
  3
Center (.5x) ___ _ ___ _ ___ _ ___ _ ___ _ ___
 72
    65
 73
     4
 40
28.57499999999999
 49
19.05
 74
     0
 49
-3.174999999999999
 74
     0
 49
3.174999999999999
 74
     0
 49
-3.174999999999999
 74
     0
  0
LTYPE
  5
7D55
330
746A
100
AcDbSymbolTableRecord
100
AcDbLinetypeTableRecord
  2
DOT
 70
     0
  3
Dot . . . . . . . . . . . . . . . . . . . . . .
 72
    65
 73
     2
 40
6.349999999999999
 49
0.0
 74
     0
 49
-6.349999999999999
 74
     0
  0
LTYPE
  5
7D56
330
746A
100
AcDbSymbolTableRecord
100
AcDbLinetypeTableRecord
  2
HIDDEN2
 70
     0
  3
Hidden (.5x) _ _ _ _ _ _ _ _ _ _ _ _ _ _ _ _ _
 72
    65
 73
     2
 40
4.762499999999999
 49
3.174999999999999
 74
     0
 49
-1.587499999999999
 74
     0
  0
LTYPE
  5
7D57
330
746A
100
AcDbSymbolTableRecord
100
AcDbLinetypeTableRecord
  2
PHANTOM2
 70
     0
  3
Phantom (.5x) ___ _ _ ___ _ _ ___ _ _ ___ _ _
 72
    65
 73
     6
 40
31.75
 49
15.875
 74
     0
 49
-3.174999999999999
 74
     0
 49
3.174999999999999
 74
     0
 49
-3.174999999999999
 74
     0
 49
3.174999999999999
 74
     0
 49
-3.174999999999999
 74
     0
  0
ENDTAB
  0
TABLE
  2
LAYER
  5
7467
330
0
100
AcDbSymbolTable
 70
     7
  0
LAYER
  5
7474
330
7467
100
AcDbSymbolTableRecord
100
AcDbLayerTableRecord
  2
0
 70
     0
 62
     7
  6
CONTINUOUS
370
    -3
390
859F
  0
LAYER
  5
7485
330
7467
100
AcDbSymbolTableRecord
100
AcDbLayerTableRecord
  2
DEFPOINTS
 70
     0
 62
     7
  6
CONTINUOUS
290
     0
370
    -3
390
859F
  0
LAYER
  5
7486
330
7467
100
AcDbSymbolTableRecord
100
AcDbLayerTableRecord
  2
OBJECT
 70
     0
 62
     7
  6
CONTINUOUS
370
    -3
390
859F
  0
LAYER
  5
7950
330
7467
100
AcDbSymbolTableRecord
100
AcDbLayerTableRecord
  2
枠
 70
     0
 62
     3
  6
CONTINUOUS
370
    -3
390
859F
  0
LAYER
  5
7D58
330
7467
100
AcDbSymbolTableRecord
100
AcDbLayerTableRecord
  2
寸法引出
 70
     0
 62
     2
  6
CONTINUOUS
370
    -3
390
859F
  0
LAYER
  5
7D59
330
7467
100
AcDbSymbolTableRecord
100
AcDbLayerTableRecord
  2
鉄筋
 70
     0
 62
     4
  6
CONTINUOUS
370
    -3
390
859F
  0
LAYER
  5
7D5A
330
7467
100
AcDbSymbolTableRecord
100
AcDbLayerTableRecord
  2
補助線
 70
     0
 62
     6
  6
CONTINUOUS
370
    -3
390
859F
  0
ENDTAB
  0
TABLE
  2
STYLE
  5
7468
330
0
100
AcDbSymbolTable
 70
     4
  0
STYLE
  5
7475
330
7468
100
AcDbSymbolTableRecord
100
AcDbTextStyleTableRecord
  2
STANDARD
 70
     0
 40
0.0
 41
1.0
 50
0.0
 71
     0
 42
3.5
  3
txt
  4

  0
STYLE
  5
7481
330
7468
100
AcDbSymbolTableRecord
100
AcDbTextStyleTableRecord
  2
ADESK1
 70
     0
 40
0.0
 41
1.0
 50
0.0
 71
     0
 42
5.0
  3
romans
  4
bigfont
  0
STYLE
  5
7731
330
7468
100
AcDbSymbolTableRecord
100
AcDbTextStyleTableRecord
  2
SANWA
 70
     0
 40
0.0
 41
1.0
 50
0.0
 71
     0
 42
2.799999999999999
  3
MS Mincho.ttf
  4

1001
ACAD
1000
MS Mincho
1071
    32785
  0
STYLE
  5
7D45
330
7468
100
AcDbSymbolTableRecord
100
AcDbTextStyleTableRecord
  2

 70
     1
 40
0.0
 41
1.0
 50
0.0
 71
     0
 42
3.5
  3
ltypeshp.shx
  4

  0
ENDTAB
  0
TABLE
  2
VIEW
  5
746B
330
0
100
AcDbSymbolTable
 70
     0
  0
ENDTAB
  0
TABLE
  2
UCS
  5
746C
330
0
100
AcDbSymbolTable
 70
     0
  0
ENDTAB
  0
TABLE
  2
APPID
  5
746E
330
0
100
AcDbSymbolTable
 70
     1
  0
APPID
  5
7476
330
746E
100
AcDbSymbolTableRecord
100
AcDbRegAppTableRecord
  2
ACAD
 70
     0
  0
ENDTAB
  0
TABLE
  2
DIMSTYLE
  5
746F
330
0
100
AcDbSymbolTable
 70
     4
100
AcDbDimStyleTable
 71
     1
340
796F
  0
DIMSTYLE
105
7484
330
746F
100
AcDbSymbolTableRecord
100
AcDbDimStyleTableRecord
  2
JIS
 70
     0
 41
2.5
 42
1.0
 43
7.0
 44
1.0
 73
     0
 74
     0
 77
     1
 78
     8
140
2.5
141
0.0
143
0.0394
147
0.0
172
     1
174
     1
176
     2
177
     2
178
     2
340
7731
  0
DIMSTYLE
105
796F
102
{ACAD_REACTORS
330
B527
330
B329
330
B417
330
B3FF
330
B3D1
330
B3D0
330
B3CD
330
B3C7
330
B3C3
330
B422
330
B3A1
330
B39A
330
B399
330
B398
330
B397
330
B395
330
B36C
330
B50C
330
B318
330
B332
330
B330
330
B34E
330
B343
330
B33F
330
B311
330
B364
330
B363
330
B367
330
B368
330
B30E
330
B30D
330
B3AE
330
B418
330
B3C0
330
B30B
102
}
330
746F
100
AcDbSymbolTableRecord
100
AcDbDimStyleTableRecord
  2
SANWA
 70
     0
 41
2.5
 42
1.0
 43
7.0
 44
1.0
 73
     0
 74
     0
 77
     1
 78
     8
140
2.5
141
0.0
143
0.0394
147
0.0
172
     1
174
     1
176
     2
177
     2
178
     2
340
7731
  0
DIMSTYLE
105
7C9D
330
746F
100
AcDbSymbolTableRecord
100
AcDbDimStyleTableRecord
  2
SANWA$4
 70
     0
 41
2.5
 42
1.0
 43
5.0
 44
1.0
 73
     0
 74
     0
 77
     1
 78
     8
140
2.5
141
0.0
143
0.0394
147
1.0
172
     1
174
     1
176
     2
177
     2
178
     2
289
     2
340
7731
  0
DIMSTYLE
105
7CB5
330
746F
100
AcDbSymbolTableRecord
100
AcDbDimStyleTableRecord
  2
SANWA$3
 70
     0
 41
2.5
 42
1.0
 43
7.0
 44
1.0
 73
     0
 74
     0
 77
     1
 78
     8
140
2.5
141
0.0
143
0.0394
147
0.0
172
     1
174
     1
176
     2
177
     2
178
     2
289
     0
340
7731
  0
ENDTAB
  0
TABLE
  2
BLOCK_RECORD
  5
7466
330
0
100
AcDbSymbolTable
 70
    87
  0
BLOCK_RECORD
  5
747D
330
7466
100
AcDbSymbolTableRecord
100
AcDbBlockTableRecord
  2
*MODEL_SPACE
340
85A2
  0
BLOCK_RECORD
  5
747A
330
7466
100
AcDbSymbolTableRecord
100
AcDbBlockTableRecord
  2
*PAPER_SPACE
340
85A3
  0
BLOCK_RECORD
  5
7493
330
7466
100
AcDbSymbolTableRecord
100
AcDbBlockTableRecord
  2
TITLE_BLOCK
340
0
  0
BLOCK_RECORD
  5
96AE
330
7466
100
AcDbSymbolTableRecord
100
AcDbBlockTableRecord
  2
*D1
340
0
  0
BLOCK_RECORD
  5
96C6
330
7466
100
AcDbSymbolTableRecord
100
AcDbBlockTableRecord
  2
*D2
340
0
  0
BLOCK_RECORD
  5
974E
330
7466
100
AcDbSymbolTableRecord
100
AcDbBlockTableRecord
  2
*D3
340
0
  0
BLOCK_RECORD
  5
979C
330
7466
100
AcDbSymbolTableRecord
100
AcDbBlockTableRecord
  2
*D4
340
0
  0
BLOCK_RECORD
  5
97AA
330
7466
100
AcDbSymbolTableRecord
100
AcDbBlockTableRecord
  2
*D5
340
0
  0
BLOCK_RECORD
  5
97B7
330
7466
100
AcDbSymbolTableRecord
100
AcDbBlockTableRecord
  2
*D6
340
0
  0
BLOCK_RECORD
  5
97C3
330
7466
100
AcDbSymbolTableRecord
100
AcDbBlockTableRecord
  2
*D7
340
0
  0
BLOCK_RECORD
  5
97D0
330
7466
100
AcDbSymbolTableRecord
100
AcDbBlockTableRecord
  2
*D8
340
0
  0
BLOCK_RECORD
  5
97DC
330
7466
100
AcDbSymbolTableRecord
100
AcDbBlockTableRecord
  2
*D9
340
0
  0
BLOCK_RECORD
  5
97E8
330
7466
100
AcDbSymbolTableRecord
100
AcDbBlockTableRecord
  2
*D10
340
0
  0
BLOCK_RECORD
  5
9819
330
7466
100
AcDbSymbolTableRecord
100
AcDbBlockTableRecord
  2
*D11
340
0
  0
BLOCK_RECORD
  5
9830
330
7466
100
AcDbSymbolTableRecord
100
AcDbBlockTableRecord
  2
*D12
340
0
  0
BLOCK_RECORD
  5
983C
330
7466
100
AcDbSymbolTableRecord
100
AcDbBlockTableRecord
  2
*D13
340
0
  0
BLOCK_RECORD
  5
9849
330
7466
100
AcDbSymbolTableRecord
100
AcDbBlockTableRecord
  2
*D14
340
0
  0
BLOCK_RECORD
  5
9856
330
7466
100
AcDbSymbolTableRecord
100
AcDbBlockTableRecord
  2
*D15
340
0
  0
BLOCK_RECORD
  5
9896
330
7466
100
AcDbSymbolTableRecord
100
AcDbBlockTableRecord
  2
*D16
340
0
  0
BLOCK_RECORD
  5
98D3
330
7466
100
AcDbSymbolTableRecord
100
AcDbBlockTableRecord
  2
*D17
340
0
  0
BLOCK_RECORD
  5
98DE
330
7466
100
AcDbSymbolTableRecord
100
AcDbBlockTableRecord
  2
*D18
340
0
  0
BLOCK_RECORD
  5
98E9
330
7466
100
AcDbSymbolTableRecord
100
AcDbBlockTableRecord
  2
*D19
340
0
  0
BLOCK_RECORD
  5
98F5
330
7466
100
AcDbSymbolTableRecord
100
AcDbBlockTableRecord
  2
*D20
340
0
  0
BLOCK_RECORD
  5
993C
330
7466
100
AcDbSymbolTableRecord
100
AcDbBlockTableRecord
  2
*D21
340
0
  0
BLOCK_RECORD
  5
9948
330
7466
100
AcDbSymbolTableRecord
100
AcDbBlockTableRecord
  2
*D22
340
0
  0
BLOCK_RECORD
  5
9954
330
7466
100
AcDbSymbolTableRecord
100
AcDbBlockTableRecord
  2
*D23
340
0
  0
BLOCK_RECORD
  5
99D0
330
7466
100
AcDbSymbolTableRecord
100
AcDbBlockTableRecord
  2
*D24
340
0
  0
BLOCK_RECORD
  5
99DB
330
7466
100
AcDbSymbolTableRecord
100
AcDbBlockTableRecord
  2
*D25
340
0
  0
BLOCK_RECORD
  5
99E7
330
7466
100
AcDbSymbolTableRecord
100
AcDbBlockTableRecord
  2
*D26
340
0
  0
BLOCK_RECORD
  5
99F4
330
7466
100
AcDbSymbolTableRecord
100
AcDbBlockTableRecord
  2
*D27
340
0
  0
BLOCK_RECORD
  5
A71B
330
7466
100
AcDbSymbolTableRecord
100
AcDbBlockTableRecord
  2
*D28
340
0
  0
BLOCK_RECORD
  5
A729
330
7466
100
AcDbSymbolTableRecord
100
AcDbBlockTableRecord
  2
*D29
340
0
  0
BLOCK_RECORD
  5
A735
330
7466
100
AcDbSymbolTableRecord
100
AcDbBlockTableRecord
  2
*D30
340
0
  0
BLOCK_RECORD
  5
A743
330
7466
100
AcDbSymbolTableRecord
100
AcDbBlockTableRecord
  2
*D31
340
0
  0
BLOCK_RECORD
  5
A751
330
7466
100
AcDbSymbolTableRecord
100
AcDbBlockTableRecord
  2
*D32
340
0
  0
BLOCK_RECORD
  5
A75F
330
7466
100
AcDbSymbolTableRecord
100
AcDbBlockTableRecord
  2
*D33
340
0
  0
BLOCK_RECORD
  5
A76B
330
7466
100
AcDbSymbolTableRecord
100
AcDbBlockTableRecord
  2
*D34
340
0
  0
BLOCK_RECORD
  5
A779
330
7466
100
AcDbSymbolTableRecord
100
AcDbBlockTableRecord
  2
*D35
340
0
  0
BLOCK_RECORD
  5
A785
330
7466
100
AcDbSymbolTableRecord
100
AcDbBlockTableRecord
  2
*D36
340
0
  0
BLOCK_RECORD
  5
A791
330
7466
100
AcDbSymbolTableRecord
100
AcDbBlockTableRecord
  2
*D37
340
0
  0
BLOCK_RECORD
  5
A79F
330
7466
100
AcDbSymbolTableRecord
100
AcDbBlockTableRecord
  2
*D38
340
0
  0
BLOCK_RECORD
  5
A7AD
330
7466
100
AcDbSymbolTableRecord
100
AcDbBlockTableRecord
  2
*D39
340
0
  0
BLOCK_RECORD
  5
A848
330
7466
100
AcDbSymbolTableRecord
100
AcDbBlockTableRecord
  2
*D40
340
0
  0
BLOCK_RECORD
  5
A875
330
7466
100
AcDbSymbolTableRecord
100
AcDbBlockTableRecord
  2
*D41
340
0
  0
BLOCK_RECORD
  5
A881
330
7466
100
AcDbSymbolTableRecord
100
AcDbBlockTableRecord
  2
*D42
340
0
  0
BLOCK_RECORD
  5
A8E7
330
7466
100
AcDbSymbolTableRecord
100
AcDbBlockTableRecord
  2
*D43
340
0
  0
BLOCK_RECORD
  5
B567
330
7466
100
AcDbSymbolTableRecord
100
AcDbBlockTableRecord
  2
*D44
340
0
  0
BLOCK_RECORD
  5
B5AF
330
7466
100
AcDbSymbolTableRecord
100
AcDbBlockTableRecord
  2
*D45
340
0
  0
BLOCK_RECORD
  5
B5BA
330
7466
100
AcDbSymbolTableRecord
100
AcDbBlockTableRecord
  2
*D46
340
0
  0
BLOCK_RECORD
  5
B5C5
330
7466
100
AcDbSymbolTableRecord
100
AcDbBlockTableRecord
  2
*D47
340
0
  0
BLOCK_RECORD
  5
B5D2
330
7466
100
AcDbSymbolTableRecord
100
AcDbBlockTableRecord
  2
*D48
340
0
  0
BLOCK_RECORD
  5
B5DE
330
7466
100
AcDbSymbolTableRecord
100
AcDbBlockTableRecord
  2
*D49
340
0
  0
BLOCK_RECORD
  5
B5EB
330
7466
100
AcDbSymbolTableRecord
100
AcDbBlockTableRecord
  2
*D50
340
0
  0
BLOCK_RECORD
  5
B5F8
330
7466
100
AcDbSymbolTableRecord
100
AcDbBlockTableRecord
  2
*D51
340
0
  0
BLOCK_RECORD
  5
B604
330
7466
100
AcDbSymbolTableRecord
100
AcDbBlockTableRecord
  2
*D52
340
0
  0
BLOCK_RECORD
  5
B610
330
7466
100
AcDbSymbolTableRecord
100
AcDbBlockTableRecord
  2
*D53
340
0
  0
BLOCK_RECORD
  5
B61C
330
7466
100
AcDbSymbolTableRecord
100
AcDbBlockTableRecord
  2
*D54
340
0
  0
BLOCK_RECORD
  5
B628
330
7466
100
AcDbSymbolTableRecord
100
AcDbBlockTableRecord
  2
*D55
340
0
  0
BLOCK_RECORD
  5
B634
330
7466
100
AcDbSymbolTableRecord
100
AcDbBlockTableRecord
  2
*D56
340
0
  0
BLOCK_RECORD
  5
B641
330
7466
100
AcDbSymbolTableRecord
100
AcDbBlockTableRecord
  2
*D57
340
0
  0
BLOCK_RECORD
  5
B64D
330
7466
100
AcDbSymbolTableRecord
100
AcDbBlockTableRecord
  2
*D58
340
0
  0
BLOCK_RECORD
  5
B65A
330
7466
100
AcDbSymbolTableRecord
100
AcDbBlockTableRecord
  2
*D59
340
0
  0
BLOCK_RECORD
  5
B668
330
7466
100
AcDbSymbolTableRecord
100
AcDbBlockTableRecord
  2
*D60
340
0
  0
BLOCK_RECORD
  5
B674
330
7466
100
AcDbSymbolTableRecord
100
AcDbBlockTableRecord
  2
*D61
340
0
  0
BLOCK_RECORD
  5
B67F
330
7466
100
AcDbSymbolTableRecord
100
AcDbBlockTableRecord
  2
*D62
340
0
  0
BLOCK_RECORD
  5
B68B
330
7466
100
AcDbSymbolTableRecord
100
AcDbBlockTableRecord
  2
*D63
340
0
  0
BLOCK_RECORD
  5
B697
330
7466
100
AcDbSymbolTableRecord
100
AcDbBlockTableRecord
  2
*D64
340
0
  0
BLOCK_RECORD
  5
B6A3
330
7466
100
AcDbSymbolTableRecord
100
AcDbBlockTableRecord
  2
*D65
340
0
  0
BLOCK_RECORD
  5
B6B1
330
7466
100
AcDbSymbolTableRecord
100
AcDbBlockTableRecord
  2
*D66
340
0
  0
BLOCK_RECORD
  5
B6BF
330
7466
100
AcDbSymbolTableRecord
100
AcDbBlockTableRecord
  2
*D67
340
0
  0
BLOCK_RECORD
  5
B6CB
330
7466
100
AcDbSymbolTableRecord
100
AcDbBlockTableRecord
  2
*D68
340
0
  0
BLOCK_RECORD
  5
B6D9
330
7466
100
AcDbSymbolTableRecord
100
AcDbBlockTableRecord
  2
*D69
340
0
  0
BLOCK_RECORD
  5
B6E7
330
7466
100
AcDbSymbolTableRecord
100
AcDbBlockTableRecord
  2
*D70
340
0
  0
BLOCK_RECORD
  5
B6F5
330
7466
100
AcDbSymbolTableRecord
100
AcDbBlockTableRecord
  2
*D71
340
0
  0
BLOCK_RECORD
  5
B703
330
7466
100
AcDbSymbolTableRecord
100
AcDbBlockTableRecord
  2
*D72
340
0
  0
BLOCK_RECORD
  5
B711
330
7466
100
AcDbSymbolTableRecord
100
AcDbBlockTableRecord
  2
*D73
340
0
  0
BLOCK_RECORD
  5
B71F
330
7466
100
AcDbSymbolTableRecord
100
AcDbBlockTableRecord
  2
*D74
340
0
  0
BLOCK_RECORD
  5
B72B
330
7466
100
AcDbSymbolTableRecord
100
AcDbBlockTableRecord
  2
*D75
340
0
  0
BLOCK_RECORD
  5
B737
330
7466
100
AcDbSymbolTableRecord
100
AcDbBlockTableRecord
  2
*D76
340
0
  0
BLOCK_RECORD
  5
B745
330
7466
100
AcDbSymbolTableRecord
100
AcDbBlockTableRecord
  2
*D77
340
0
  0
BLOCK_RECORD
  5
B751
330
7466
100
AcDbSymbolTableRecord
100
AcDbBlockTableRecord
  2
*D78
340
0
  0
BLOCK_RECORD
  5
BCD1
330
7466
100
AcDbSymbolTableRecord
100
AcDbBlockTableRecord
  2
*D79
340
0
  0
BLOCK_RECORD
  5
BCDD
330
7466
100
AcDbSymbolTableRecord
100
AcDbBlockTableRecord
  2
*D80
340
0
  0
BLOCK_RECORD
  5
BCE9
330
7466
100
AcDbSymbolTableRecord
100
AcDbBlockTableRecord
  2
*D81
340
0
  0
BLOCK_RECORD
  5
BCF5
330
7466
100
AcDbSymbolTableRecord
100
AcDbBlockTableRecord
  2
*D82
340
0
  0
BLOCK_RECORD
  5
BD01
330
7466
100
AcDbSymbolTableRecord
100
AcDbBlockTableRecord
  2
*D83
340
0
  0
BLOCK_RECORD
  5
BD24
330
7466
100
AcDbSymbolTableRecord
100
AcDbBlockTableRecord
  2
*D84
340
0
  0
BLOCK_RECORD
  5
BD30
330
7466
100
AcDbSymbolTableRecord
100
AcDbBlockTableRecord
  2
*D85
340
0
  0
BLOCK_RECORD
  5
BD3D
330
7466
100
AcDbSymbolTableRecord
100
AcDbBlockTableRecord
  2
*D86
340
0
  0
ENDTAB
  0
ENDSEC
  0
SECTION
  2
BLOCKS
  0
BLOCK
  5
7489
330
747D
100
AcDbEntity
  8
0
100
AcDbBlockBegin
  2
*MODEL_SPACE
 70
     0
 10
0.0
 20
0.0
 30
0.0
  3
*MODEL_SPACE
  1

  0
ENDBLK
  5
748A
330
747D
100
AcDbEntity
  8
0
100
AcDbBlockEnd
  0
BLOCK
  5
7487
330
747A
100
AcDbEntity
 67
     1
  8
0
100
AcDbBlockBegin
  2
*PAPER_SPACE
 70
     2
 10
0.0
 20
0.0
 30
0.0
  3
*PAPER_SPACE
  1

  0
ENDBLK
  5
7488
330
747A
100
AcDbEntity
 67
     1
  8
0
100
AcDbBlockEnd
  0
BLOCK
  5
7494
330
7493
100
AcDbEntity
  8
0
100
AcDbBlockBegin
  2
TITLE_BLOCK
 70
     2
 10
0.0
 20
0.0
 30
0.0
  3
TITLE_BLOCK
  1

  0
LINE
  5
7495
330
7493
100
AcDbEntity
  8
0
 62
     0
100
AcDbLine
 10
402.7943262411347
 20
16.00000000000008
 30
0.0
 11
410.0
 21
16.00000000000008
 31
0.0
  0
LINE
  5
7496
330
7493
100
AcDbEntity
  8
0
 62
     0
100
AcDbLine
 10
410.0
 20
10.0
 30
0.0
 11
410.0
 21
49.00000000000036
 31
0.0
  0
LINE
  5
7497
330
7493
100
AcDbEntity
  8
0
 62
     0
100
AcDbLine
 10
410.0
 20
49.00000000000036
 30
0.0
 11
410.0
 21
10.0
 31
0.0
  0
LINE
  5
7498
330
7493
100
AcDbEntity
  8
0
 62
     0
100
AcDbLine
 10
402.7943262411347
 20
22.00000000000012
 30
0.0
 11
402.7943262411347
 21
10.0
 31
0.0
  0
LINE
  5
7499
330
7493
100
AcDbEntity
  8
0
 62
     0
100
AcDbLine
 10
336.1418439716306
 20
49.00000000000036
 30
0.0
 11
336.1418439716306
 21
22.00000000000012
 31
0.0
  0
LINE
  5
749A
330
7493
100
AcDbEntity
  8
0
 62
     0
100
AcDbLine
 10
325.3333333333325
 20
37.00000000000024
 30
0.0
 11
325.3333333333325
 21
25.00000000000012
 31
0.0
  0
LINE
  5
749B
330
7493
100
AcDbEntity
  8
0
 62
     0
100
AcDbLine
 10
318.1276595744673
 20
49.00000000000036
 30
0.0
 11
318.1276595744673
 21
25.00000000000012
 31
0.0
  0
LINE
  5
749C
330
7493
100
AcDbEntity
  8
0
 62
     0
100
AcDbLine
 10
318.1276595744673
 20
25.00000000000012
 30
0.0
 11
348.7517730496447
 21
25.00000000000012
 31
0.0
  0
LINE
  5
749D
330
7493
100
AcDbEntity
  8
0
 62
     0
100
AcDbLine
 10
280.2978723404241
 20
28.00000000000015
 30
0.0
 11
348.7517730496447
 21
28.00000000000015
 31
0.0
  0
LINE
  5
749E
330
7493
100
AcDbEntity
  8
0
 62
     0
100
AcDbLine
 10
280.2978723404241
 20
31.0000000000002
 30
0.0
 11
348.7517730496447
 21
31.0000000000002
 31
0.0
  0
LINE
  5
749F
330
7493
100
AcDbEntity
  8
0
 62
     0
100
AcDbLine
 10
280.2978723404241
 20
34.00000000000024
 30
0.0
 11
348.7517730496447
 21
34.00000000000024
 31
0.0
  0
LINE
  5
74A0
330
7493
100
AcDbEntity
  8
0
 62
     0
100
AcDbLine
 10
280.2978723404241
 20
19.00000000000007
 30
0.0
 11
318.1276595744673
 21
19.00000000000012
 31
0.0
  0
LINE
  5
74A1
330
7493
100
AcDbEntity
  8
0
 62
     0
100
AcDbLine
 10
280.2978723404241
 20
22.00000000000007
 30
0.0
 11
318.1276595744673
 21
22.00000000000012
 31
0.0
  0
LINE
  5
74A2
330
7493
100
AcDbEntity
  8
0
 62
     0
100
AcDbLine
 10
280.2978723404241
 20
25.00000000000012
 30
0.0
 11
318.1276595744673
 21
25.00000000000012
 31
0.0
  0
TEXT
  5
74A3
330
7493
100
AcDbEntity
  8
0
 62
     0
100
AcDbText
 10
342.2447163844405
 20
10.55220101068186
 30
0.0
 40
1.791674070777747
  1
照査
  7
ADESK1
 72
     1
 11
344.1558353932701
 21
10.55220101068186
 31
0.0
100
AcDbText
  0
TEXT
  5
74A4
330
7493
100
AcDbEntity
  8
0
 62
     0
100
AcDbText
 10
332.2960689314087
 20
10.48329012996929
 30
0.0
 40
1.791674070777747
  1
設計
  7
ADESK1
 72
     1
 11
334.2071879402383
 21
10.48329012996929
 31
0.0
100
AcDbText
  0
TEXT
  5
74A5
330
7493
100
AcDbEntity
  8
0
 62
     0
100
AcDbText
 10
321.7174935280942
 20
10.48329012996929
 30
0.0
 40
1.791674070777747
  1
製図
  7
ADESK1
 72
     1
 11
323.5688900678979
 21
10.48329012996929
 31
0.0
100
AcDbText
  0
LINE
  5
74A6
330
7493
100
AcDbEntity
  8
0
 62
     0
100
AcDbLine
 10
280.2978723404241
 20
10.0
 30
0.0
 11
280.2978723404241
 21
13.00000000000004
 31
0.0
  0
LINE
  5
74A7
330
7493
100
AcDbEntity
  8
0
 62
     0
100
AcDbLine
 10
280.2978723404241
 20
16.00000000000008
 30
0.0
 11
318.1276595744673
 21
16.00000000000008
 31
0.0
  0
LINE
  5
74A8
330
7493
100
AcDbEntity
  8
0
 62
     0
100
AcDbLine
 10
339.4042553191484
 20
22.00000000000007
 30
0.0
 11
339.4042553191484
 21
10.0
 31
0.0
  0
LINE
  5
74A9
330
7493
100
AcDbEntity
  8
0
 62
     0
100
AcDbLine
 10
328.7659574468077
 20
22.00000000000007
 30
0.0
 11
328.7659574468077
 21
10.0
 31
0.0
  0
LINE
  5
74AA
330
7493
100
AcDbEntity
  8
0
 62
     0
100
AcDbLine
 10
348.7517730496447
 20
49.00000000000036
 30
0.0
 11
348.7517730496447
 21
10.0
 31
0.0
  0
LINE
  5
74AB
330
7493
100
AcDbEntity
  8
0
 62
     0
100
AcDbLine
 10
280.2978723404241
 20
49.00000000000036
 30
0.0
 11
280.2978723404241
 21
10.0
 31
0.0
  0
LINE
  5
74AC
330
7493
100
AcDbEntity
  8
0
 62
     0
100
AcDbLine
 10
318.1276595744673
 20
25.00000000000012
 30
0.0
 11
318.1276595744673
 21
10.0
 31
0.0
  0
LINE
  5
74AD
330
7493
100
AcDbEntity
  8
0
 62
     0
100
AcDbLine
 10
312.7234042553184
 20
37.00000000000024
 30
0.0
 11
312.7234042553184
 21
10.0
 31
0.0
  0
LINE
  5
74AE
330
7493
100
AcDbEntity
  8
0
 62
     0
100
AcDbLine
 10
285.702127659573
 20
37.00000000000024
 30
0.0
 11
285.702127659573
 21
10.0
 31
0.0
  0
LINE
  5
74AF
330
7493
100
AcDbEntity
  8
0
 62
     0
100
AcDbLine
 10
303.7163120567365
 20
37.00000000000024
 30
0.0
 11
303.7163120567365
 21
10.0
 31
0.0
  0
LINE
  5
74B0
330
7493
100
AcDbEntity
  8
0
 62
     0
100
AcDbLine
 10
410.0
 20
49.00000000000036
 30
0.0
 11
280.2978723404241
 21
49.00000000000036
 31
0.0
  0
LINE
  5
74B1
330
7493
100
AcDbEntity
  8
0
 62
     0
100
AcDbLine
 10
280.2978723404241
 20
10.0
 30
0.0
 11
410.0
 21
10.0
 31
0.0
  0
LINE
  5
74B2
330
7493
100
AcDbEntity
  8
0
 62
     0
100
AcDbLine
 10
318.1276595744673
 20
22.00000000000012
 30
0.0
 11
410.0
 21
22.00000000000012
 31
0.0
  0
LINE
  5
74B3
330
7493
100
AcDbEntity
  8
0
 62
     0
100
AcDbLine
 10
280.2978723404241
 20
37.00000000000024
 30
0.0
 11
410.0
 21
37.00000000000024
 31
0.0
  0
LINE
  5
74B4
330
7493
100
AcDbEntity
  8
0
 62
     0
100
AcDbLine
 10
280.2978723404241
 20
13.00000000000004
 30
0.0
 11
410.0
 21
13.00000000000004
 31
0.0
  0
LINE
  5
74B5
330
7493
100
AcDbEntity
  8
0
 62
     0
100
AcDbLine
 10
280.2978723404241
 20
49.00000000000036
 30
0.0
 11
410.0
 21
49.00000000000036
 31
0.0
  0
TEXT
  5
74B6
330
7493
100
AcDbEntity
  8
0
100
AcDbText
 10
411.3708251683467
 20
33.08333333333334
 30
0.0
 40
3.0
  1
F
  7
ADESK1
 72
     1
 11
412.8708251683468
 21
33.08333333333334
 31
0.0
100
AcDbText
  0
TEXT
  5
74B7
330
7493
100
AcDbEntity
  8
0
100
AcDbText
 10
411.3708251683467
 20
79.25
 30
0.0
 40
3.0
  1
E
  7
ADESK1
 72
     1
 11
412.8708251683468
 21
79.25
 31
0.0
100
AcDbText
  0
TEXT
  5
74B8
330
7493
100
AcDbEntity
  8
0
100
AcDbText
 10
411.2993965969182
 20
125.4166666666666
 30
0.0
 40
3.0
  1
D
  7
ADESK1
 72
     1
 11
412.8708251683468
 21
125.4166666666666
 31
0.0
100
AcDbText
  0
TEXT
  5
74B9
330
7493
100
AcDbEntity
  8
0
100
AcDbText
 10
411.3708251683467
 20
171.5833333333333
 30
0.0
 40
3.0
  1
C
  7
ADESK1
 72
     1
 11
412.8708251683468
 21
171.5833333333333
 31
0.0
100
AcDbText
  0
TEXT
  5
74BA
330
7493
100
AcDbEntity
  8
0
100
AcDbText
 10
411.2993965969182
 20
217.7499999999999
 30
0.0
 40
3.0
  1
B
  7
ADESK1
 72
     1
 11
412.8708251683468
 21
217.7499999999999
 31
0.0
100
AcDbText
  0
TEXT
  5
74BB
330
7493
100
AcDbEntity
  8
0
100
AcDbText
 10
411.5851108826324
 20
263.9166666666666
 30
0.0
 40
3.0
  1
A
  7
ADESK1
 72
     1
 11
412.8708251683468
 21
263.9166666666666
 31
0.0
100
AcDbText
  0
TEXT
  5
74BC
330
7493
100
AcDbEntity
  8
0
100
AcDbText
 10
384.5089285714285
 20
6.019997240728748
 30
0.0
 40
3.0
  1
8
  7
ADESK1
 72
     1
 11
385.9375
 21
6.019997240728748
 31
0.0
100
AcDbText
  0
TEXT
  5
74BD
330
7493
100
AcDbEntity
  8
0
100
AcDbText
 10
336.3839285714285
 20
6.019997240728748
 30
0.0
 40
3.0
  1
7
  7
ADESK1
 72
     1
 11
337.8125
 21
6.019997240728748
 31
0.0
100
AcDbText
  0
TEXT
  5
74BE
330
7493
100
AcDbEntity
  8
0
100
AcDbText
 10
288.1874999999999
 20
6.019997240728748
 30
0.0
 40
3.0
  1
6
  7
ADESK1
 72
     1
 11
289.6875
 21
6.019997240728748
 31
0.0
100
AcDbText
  0
TEXT
  5
74BF
330
7493
100
AcDbEntity
  8
0
100
AcDbText
 10
240.1339285714285
 20
6.019997240728748
 30
0.0
 40
3.0
  1
5
  7
ADESK1
 72
     1
 11
241.5624999999999
 21
6.019997240728748
 31
0.0
100
AcDbText
  0
TEXT
  5
74C0
330
7493
100
AcDbEntity
  8
0
100
AcDbText
 10
191.9375
 20
6.019997240728748
 30
0.0
 40
3.0
  1
4
  7
ADESK1
 72
     1
 11
193.4375
 21
6.019997240728748
 31
0.0
100
AcDbText
  0
TEXT
  5
74C1
330
7493
100
AcDbEntity
  8
0
100
AcDbText
 10
143.8839285714285
 20
6.019997240728748
 30
0.0
 40
3.0
  1
3
  7
ADESK1
 72
     1
 11
145.3125
 21
6.019997240728748
 31
0.0
100
AcDbText
  0
TEXT
  5
74C2
330
7493
100
AcDbEntity
  8
0
100
AcDbText
 10
95.75892857142857
 20
6.019997240728748
 30
0.0
 40
3.0
  1
2
  7
ADESK1
 72
     1
 11
97.1875
 21
6.019997240728748
 31
0.0
100
AcDbText
  0
TEXT
  5
74C3
330
7493
100
AcDbEntity
  8
0
100
AcDbText
 10
47.84821428571429
 20
6.019997240728748
 30
0.0
 40
3.0
  1
1
  7
ADESK1
 72
     1
 11
49.0625
 21
6.019997240728748
 31
0.0
100
AcDbText
  0
TEXT
  5
74C4
330
7493
100
AcDbEntity
  8
0
100
AcDbText
 10
21.10716135953389
 20
33.08333333333334
 30
0.0
 40
3.0
  1
F
  7
ADESK1
 72
     1
 11
22.60716135953389
 21
33.08333333333334
 31
0.0
100
AcDbText
  0
TEXT
  5
74C5
330
7493
100
AcDbEntity
  8
0
100
AcDbText
 10
21.10716135953389
 20
79.25
 30
0.0
 40
3.0
  1
E
  7
ADESK1
 72
     1
 11
22.60716135953389
 21
79.25
 31
0.0
100
AcDbText
  0
TEXT
  5
74C6
330
7493
100
AcDbEntity
  8
0
100
AcDbText
 10
21.03573278810532
 20
125.4166666666666
 30
0.0
 40
3.0
  1
D
  7
ADESK1
 72
     1
 11
22.60716135953389
 21
125.4166666666666
 31
0.0
100
AcDbText
  0
TEXT
  5
74C7
330
7493
100
AcDbEntity
  8
0
100
AcDbText
 10
21.10716135953389
 20
171.5833333333333
 30
0.0
 40
3.0
  1
C
  7
ADESK1
 72
     1
 11
22.60716135953389
 21
171.5833333333333
 31
0.0
100
AcDbText
  0
TEXT
  5
74C8
330
7493
100
AcDbEntity
  8
0
100
AcDbText
 10
21.03573278810532
 20
217.7499999999999
 30
0.0
 40
3.0
  1
B
  7
ADESK1
 72
     1
 11
22.60716135953389
 21
217.7499999999999
 31
0.0
100
AcDbText
  0
TEXT
  5
74C9
330
7493
100
AcDbEntity
  8
0
100
AcDbText
 10
384.5089285714285
 20
288.0
 30
0.0
 40
3.0
  1
8
  7
ADESK1
 72
     1
 11
385.9375
 21
288.0
 31
0.0
100
AcDbText
  0
TEXT
  5
74CA
330
7493
100
AcDbEntity
  8
0
100
AcDbText
 10
336.3839285714285
 20
288.0
 30
0.0
 40
3.0
  1
7
  7
ADESK1
 72
     1
 11
337.8125
 21
288.0
 31
0.0
100
AcDbText
  0
TEXT
  5
74CB
330
7493
100
AcDbEntity
  8
0
100
AcDbText
 10
288.1874999999999
 20
288.0
 30
0.0
 40
3.0
  1
6
  7
ADESK1
 72
     1
 11
289.6875
 21
288.0
 31
0.0
100
AcDbText
  0
TEXT
  5
74CC
330
7493
100
AcDbEntity
  8
0
100
AcDbText
 10
240.1339285714285
 20
288.0
 30
0.0
 40
3.0
  1
5
  7
ADESK1
 72
     1
 11
241.5624999999999
 21
288.0
 31
0.0
100
AcDbText
  0
TEXT
  5
74CD
330
7493
100
AcDbEntity
  8
0
100
AcDbText
 10
191.9375
 20
288.0
 30
0.0
 40
3.0
  1
4
  7
ADESK1
 72
     1
 11
193.4375
 21
288.0
 31
0.0
100
AcDbText
  0
TEXT
  5
74CE
330
7493
100
AcDbEntity
  8
0
100
AcDbText
 10
143.8839285714285
 20
288.0
 30
0.0
 40
3.0
  1
3
  7
ADESK1
 72
     1
 11
145.3125
 21
288.0
 31
0.0
100
AcDbText
  0
TEXT
  5
74CF
330
7493
100
AcDbEntity
  8
0
100
AcDbText
 10
95.75892857142857
 20
288.0
 30
0.0
 40
3.0
  1
2
  7
ADESK1
 72
     1
 11
97.1875
 21
288.0
 31
0.0
100
AcDbText
  0
TEXT
  5
74D0
330
7493
100
AcDbEntity
  8
0
100
AcDbText
 10
21.32144707381961
 20
263.9166666666666
 30
0.0
 40
3.0
  1
A
  7
ADESK1
 72
     1
 11
22.60716135953389
 21
263.9166666666666
 31
0.0
100
AcDbText
  0
TEXT
  5
74D1
330
7493
100
AcDbEntity
  8
0
100
AcDbText
 10
47.84821428571429
 20
288.0
 30
0.0
 40
3.0
  1
1
  7
ADESK1
 72
     1
 11
49.0625
 21
288.0
 31
0.0
100
AcDbText
  0
LINE
  5
74D2
330
7493
100
AcDbEntity
  8
0
100
AcDbLine
 10
73.125
 20
287.0
 30
0.0
 11
73.125
 21
292.0
 31
0.0
  0
LINE
  5
74D3
330
7493
100
AcDbEntity
  8
0
100
AcDbLine
 10
121.25
 20
287.0
 30
0.0
 11
121.25
 21
292.0
 31
0.0
  0
LINE
  5
74D4
330
7493
100
AcDbEntity
  8
0
100
AcDbLine
 10
169.375
 20
287.0
 30
0.0
 11
169.375
 21
292.0
 31
0.0
  0
LINE
  5
74D5
330
7493
100
AcDbEntity
  8
0
100
AcDbLine
 10
217.5
 20
287.0
 30
0.0
 11
217.5
 21
292.0
 31
0.0
  0
LINE
  5
74D6
330
7493
100
AcDbEntity
  8
0
100
AcDbLine
 10
265.625
 20
287.0
 30
0.0
 11
265.625
 21
292.0
 31
0.0
  0
LINE
  5
74D7
330
7493
100
AcDbEntity
  8
0
100
AcDbLine
 10
313.75
 20
287.0
 30
0.0
 11
313.75
 21
292.0
 31
0.0
  0
LINE
  5
74D8
330
7493
100
AcDbEntity
  8
0
100
AcDbLine
 10
361.8749999999999
 20
287.0
 30
0.0
 11
361.8749999999999
 21
292.0
 31
0.0
  0
LINE
  5
74D9
330
7493
100
AcDbEntity
  8
0
100
AcDbLine
 10
361.8749999999999
 20
10.0
 30
0.0
 11
361.8749999999999
 21
5.0
 31
0.0
  0
LINE
  5
74DA
330
7493
100
AcDbEntity
  8
0
100
AcDbLine
 10
313.75
 20
10.0
 30
0.0
 11
313.75
 21
5.0
 31
0.0
  0
LINE
  5
74DB
330
7493
100
AcDbEntity
  8
0
100
AcDbLine
 10
265.625
 20
10.0
 30
0.0
 11
265.625
 21
5.0
 31
0.0
  0
LINE
  5
74DC
330
7493
100
AcDbEntity
  8
0
100
AcDbLine
 10
217.5
 20
10.0
 30
0.0
 11
217.5
 21
5.0
 31
0.0
  0
LINE
  5
74DD
330
7493
100
AcDbEntity
  8
0
100
AcDbLine
 10
169.375
 20
10.0
 30
0.0
 11
169.375
 21
5.0
 31
0.0
  0
LINE
  5
74DE
330
7493
100
AcDbEntity
  8
0
100
AcDbLine
 10
121.25
 20
10.0
 30
0.0
 11
121.25
 21
5.0
 31
0.0
  0
LINE
  5
74DF
330
7493
100
AcDbEntity
  8
0
100
AcDbLine
 10
73.125
 20
10.0
 30
0.0
 11
73.125
 21
5.0
 31
0.0
  0
LINE
  5
74E0
330
7493
100
AcDbEntity
  8
0
100
AcDbLine
 10
410.0
 20
240.8333333333333
 30
0.0
 11
415.0
 21
240.8333333333333
 31
0.0
  0
LINE
  5
74E1
330
7493
100
AcDbEntity
  8
0
100
AcDbLine
 10
410.0
 20
194.6666666666667
 30
0.0
 11
415.0
 21
194.6666666666667
 31
0.0
  0
LINE
  5
74E2
330
7493
100
AcDbEntity
  8
0
100
AcDbLine
 10
410.0
 20
148.5
 30
0.0
 11
415.0
 21
148.5
 31
0.0
  0
LINE
  5
74E3
330
7493
100
AcDbEntity
  8
0
100
AcDbLine
 10
410.0
 20
102.3333333333333
 30
0.0
 11
415.0
 21
102.3333333333333
 31
0.0
  0
LINE
  5
74E4
330
7493
100
AcDbEntity
  8
0
100
AcDbLine
 10
410.0
 20
56.16666666666668
 30
0.0
 11
415.0
 21
56.16666666666668
 31
0.0
  0
LINE
  5
74E5
330
7493
100
AcDbEntity
  8
0
100
AcDbLine
 10
25.0
 20
56.16666666666667
 30
0.0
 11
20.0
 21
56.16666666666667
 31
0.0
  0
LINE
  5
74E6
330
7493
100
AcDbEntity
  8
0
100
AcDbLine
 10
25.0
 20
102.3333333333333
 30
0.0
 11
20.0
 21
102.3333333333333
 31
0.0
  0
LINE
  5
74E7
330
7493
100
AcDbEntity
  8
0
100
AcDbLine
 10
25.0
 20
148.5
 30
0.0
 11
20.0
 21
148.5
 31
0.0
  0
LINE
  5
74E8
330
7493
100
AcDbEntity
  8
0
100
AcDbLine
 10
25.0
 20
194.6666666666666
 30
0.0
 11
20.0
 21
194.6666666666666
 31
0.0
  0
LINE
  5
74E9
330
7493
100
AcDbEntity
  8
0
100
AcDbLine
 10
25.0
 20
240.8333333333333
 30
0.0
 11
20.0
 21
240.8333333333333
 31
0.0
  0
TEXT
  5
74EA
330
7493
100
AcDbEntity
  8
0
100
AcDbText
 10
1.0
 20
1.0
 30
0.0
 40
3.0
  1
この図枠はサンプルです。社内の規格やプロッタの出力範囲に合わせて適当に変更してご利用ください。
  7
ADESK1
100
AcDbText
  0
LINE
  5
74EB
330
7493
100
AcDbEntity
  8
0
100
AcDbLine
 10
25.0
 20
148.5
 30
0.0
 11
0.0
 21
148.5
 31
0.0
  0
LINE
  5
74EC
330
7493
100
AcDbEntity
  8
0
100
AcDbLine
 10
410.0
 20
148.5
 30
0.0
 11
420.0
 21
148.5
 31
0.0
  0
LINE
  5
74ED
330
7493
100
AcDbEntity
  8
0
100
AcDbLine
 10
217.5
 20
287.0
 30
0.0
 11
217.5
 21
297.0
 31
0.0
  0
LINE
  5
74EE
330
7493
100
AcDbEntity
  8
0
100
AcDbLine
 10
217.5
 20
10.0
 30
0.0
 11
217.5
 21
0.0
 31
0.0
  0
LINE
  5
74EF
330
7493
100
AcDbEntity
  8
OBJECT
100
AcDbLine
 10
130.0
 20
40.0
 30
0.0
 11
130.0
 21
10.0
 31
0.0
  0
LINE
  5
74F0
330
7493
100
AcDbEntity
  8
OBJECT
100
AcDbLine
 10
120.0
 20
10.0
 30
0.0
 11
120.0
 21
40.0
 31
0.0
  0
LINE
  5
74F1
330
7493
100
AcDbEntity
  8
OBJECT
100
AcDbLine
 10
44.5
 20
37.0
 30
0.0
 11
45.49999999999999
 21
37.0
 31
0.0
  0
LINE
  5
74F2
330
7493
100
AcDbEntity
  8
OBJECT
100
AcDbLine
 10
44.5
 20
31.0
 30
0.0
 11
45.49999999999999
 21
31.0
 31
0.0
  0
LINE
  5
74F3
330
7493
100
AcDbEntity
  8
OBJECT
100
AcDbLine
 10
39.5
 20
37.0
 30
0.0
 11
40.49999999999999
 21
37.0
 31
0.0
  0
LINE
  5
74F4
330
7493
100
AcDbEntity
  8
OBJECT
100
AcDbLine
 10
39.5
 20
31.0
 30
0.0
 11
40.49999999999999
 21
31.0
 31
0.0
  0
LINE
  5
74F5
330
7493
100
AcDbEntity
  8
OBJECT
100
AcDbLine
 10
44.5
 20
25.0
 30
0.0
 11
45.49999999999999
 21
25.0
 31
0.0
  0
LINE
  5
74F6
330
7493
100
AcDbEntity
  8
OBJECT
100
AcDbLine
 10
39.5
 20
25.0
 30
0.0
 11
40.49999999999999
 21
25.0
 31
0.0
  0
LINE
  5
74F7
330
7493
100
AcDbEntity
  8
OBJECT
100
AcDbLine
 10
44.5
 20
19.0
 30
0.0
 11
45.49999999999999
 21
19.0
 31
0.0
  0
LINE
  5
74F8
330
7493
100
AcDbEntity
  8
OBJECT
100
AcDbLine
 10
39.5
 20
19.0
 30
0.0
 11
40.49999999999999
 21
19.0
 31
0.0
  0
LINE
  5
74F9
330
7493
100
AcDbEntity
  8
OBJECT
100
AcDbLine
 10
28.0
 20
29.535898
 30
0.0
 11
30.0
 21
33.0
 31
0.0
  0
LINE
  5
74FA
330
7493
100
AcDbEntity
  8
OBJECT
100
AcDbLine
 10
28.0
 20
29.535898
 30
0.0
 11
32.0
 21
29.535898
 31
0.0
  0
LINE
  5
74FB
330
7493
100
AcDbEntity
  8
OBJECT
100
AcDbLine
 10
32.0
 20
29.535898
 30
0.0
 11
30.0
 21
33.0
 31
0.0
  0
LINE
  5
74FC
330
7493
100
AcDbEntity
  8
OBJECT
100
AcDbLine
 10
28.0
 20
35.53589799999999
 30
0.0
 11
32.0
 21
35.53589799999999
 31
0.0
  0
LINE
  5
74FD
330
7493
100
AcDbEntity
  8
OBJECT
100
AcDbLine
 10
32.0
 20
35.53589799999999
 30
0.0
 11
30.0
 21
39.0
 31
0.0
  0
LINE
  5
74FE
330
7493
100
AcDbEntity
  8
OBJECT
100
AcDbLine
 10
28.0
 20
35.53589799999999
 30
0.0
 11
30.0
 21
39.0
 31
0.0
  0
LINE
  5
74FF
330
7493
100
AcDbEntity
  8
OBJECT
100
AcDbLine
 10
28.0
 20
23.53589799999999
 30
0.0
 11
30.0
 21
26.99999999999999
 31
0.0
  0
LINE
  5
7500
330
7493
100
AcDbEntity
  8
OBJECT
100
AcDbLine
 10
28.0
 20
23.53589799999999
 30
0.0
 11
32.0
 21
23.53589799999999
 31
0.0
  0
LINE
  5
7501
330
7493
100
AcDbEntity
  8
OBJECT
100
AcDbLine
 10
32.0
 20
23.53589799999999
 30
0.0
 11
30.0
 21
26.99999999999999
 31
0.0
  0
LINE
  5
7502
330
7493
100
AcDbEntity
  8
OBJECT
100
AcDbLine
 10
28.0
 20
17.535898
 30
0.0
 11
30.0
 21
20.99999999999999
 31
0.0
  0
LINE
  5
7503
330
7493
100
AcDbEntity
  8
OBJECT
100
AcDbLine
 10
28.0
 20
17.535898
 30
0.0
 11
32.0
 21
17.535898
 31
0.0
  0
LINE
  5
7504
330
7493
100
AcDbEntity
  8
OBJECT
100
AcDbLine
 10
32.0
 20
17.535898
 30
0.0
 11
30.0
 21
20.99999999999999
 31
0.0
  0
LINE
  5
7505
330
7493
100
AcDbEntity
  8
OBJECT
100
AcDbLine
 10
44.5
 20
13.0
 30
0.0
 11
45.49999999999999
 21
13.0
 31
0.0
  0
LINE
  5
7506
330
7493
100
AcDbEntity
  8
OBJECT
100
AcDbLine
 10
39.5
 20
13.0
 30
0.0
 11
40.49999999999999
 21
13.0
 31
0.0
  0
LINE
  5
7507
330
7493
100
AcDbEntity
  8
OBJECT
100
AcDbLine
 10
28.0
 20
11.53589799999999
 30
0.0
 11
32.0
 21
11.53589799999999
 31
0.0
  0
LINE
  5
7508
330
7493
100
AcDbEntity
  8
OBJECT
100
AcDbLine
 10
80.0
 20
10.0
 30
0.0
 11
80.0
 21
40.0
 31
0.0
  0
LINE
  5
7509
330
7493
100
AcDbEntity
  8
OBJECT
100
AcDbLine
 10
50.0
 20
10.0
 30
0.0
 11
50.0
 21
40.0
 31
0.0
  0
LINE
  5
750A
330
7493
100
AcDbEntity
  8
OBJECT
100
AcDbLine
 10
35.0
 20
10.0
 30
0.0
 11
35.0
 21
40.0
 31
0.0
  0
LINE
  5
750B
330
7493
100
AcDbEntity
  8
OBJECT
100
AcDbLine
 10
32.0
 20
11.53589799999999
 30
0.0
 11
30.0
 21
15.0
 31
0.0
  0
LINE
  5
750C
330
7493
100
AcDbEntity
  8
OBJECT
100
AcDbLine
 10
28.0
 20
11.53589799999999
 30
0.0
 11
30.0
 21
15.0
 31
0.0
  0
LINE
  5
750D
330
7493
100
AcDbEntity
  8
OBJECT
100
AcDbLine
 10
130.0
 20
40.0
 30
0.0
 11
25.0
 21
40.0
 31
0.0
  0
LINE
  5
750E
330
7493
100
AcDbEntity
  8
OBJECT
100
AcDbLine
 10
130.0
 20
34.0
 30
0.0
 11
25.0
 21
34.0
 31
0.0
  0
LINE
  5
750F
330
7493
100
AcDbEntity
  8
OBJECT
100
AcDbLine
 10
130.0
 20
28.0
 30
0.0
 11
25.0
 21
28.0
 31
0.0
  0
LINE
  5
7510
330
7493
100
AcDbEntity
  8
OBJECT
100
AcDbLine
 10
130.0
 20
22.0
 30
0.0
 11
25.0
 21
22.0
 31
0.0
  0
LINE
  5
7511
330
7493
100
AcDbEntity
  8
OBJECT
100
AcDbLine
 10
130.0
 20
16.0
 30
0.0
 11
25.0
 21
16.0
 31
0.0
  0
ATTDEF
  5
7512
330
7493
100
AcDbEntity
  8
0
 62
     0
100
AcDbText
 10
19.0
 20
118.0
 30
0.0
 40
3.0
  1

 50
90.0
  7
ADESK1
100
AcDbAttributeDefinition
  3

  2
FNAME
 70
     8
  0
ATTDEF
  5
7513
330
7493
100
AcDbEntity
  8
0
 62
     0
100
AcDbText
 10
19.0
 20
70.0
 30
0.0
 40
3.0
  1

 50
90.0
  7
ADESK1
100
AcDbAttributeDefinition
  3

  2
REVDATE
 70
     8
  0
ATTDEF
  5
7514
330
7493
100
AcDbEntity
  8
0
 62
     0
100
AcDbText
 10
19.0
 20
10.0
 30
0.0
 40
3.0
  1

 50
90.0
  7
ADESK1
100
AcDbAttributeDefinition
  3

  2
USER
 70
     8
  0
LINE
  5
7515
330
7493
100
AcDbEntity
  8
0
100
AcDbLine
 10
410.0
 20
297.0
 30
0.0
 11
420.0
 21
297.0
 31
0.0
  0
LINE
  5
7516
330
7493
100
AcDbEntity
  8
0
100
AcDbLine
 10
420.0
 20
10.0
 30
0.0
 11
420.0
 21
0.0
 31
0.0
  0
LINE
  5
7517
330
7493
100
AcDbEntity
  8
0
100
AcDbLine
 10
25.0
 20
0.0
 30
0.0
 11
0.0
 21
0.0
 31
0.0
  0
LINE
  5
7518
330
7493
100
AcDbEntity
  8
0
100
AcDbLine
 10
0.0
 20
287.0
 30
0.0
 11
0.0
 21
297.0
 31
0.0
  0
LINE
  5
7519
330
7493
100
AcDbEntity
  8
0
100
AcDbLine
 10
25.0
 20
287.0
 30
0.0
 11
410.0
 21
287.0
 31
0.0
  0
LINE
  5
751A
330
7493
100
AcDbEntity
  8
0
100
AcDbLine
 10
410.0
 20
287.0
 30
0.0
 11
410.0
 21
10.0
 31
0.0
  0
LINE
  5
751B
330
7493
100
AcDbEntity
  8
0
100
AcDbLine
 10
410.0
 20
10.0
 30
0.0
 11
25.0
 21
10.0
 31
0.0
  0
LINE
  5
751C
330
7493
100
AcDbEntity
  8
0
100
AcDbLine
 10
25.0
 20
10.0
 30
0.0
 11
25.0
 21
287.0
 31
0.0
  0
LINE
  5
751D
330
7493
100
AcDbEntity
  8
0
100
AcDbLine
 10
420.0
 20
0.0
 30
0.0
 11
410.0
 21
0.0
 31
0.0
  0
LINE
  5
751E
330
7493
100
AcDbEntity
  8
0
100
AcDbLine
 10
420.0
 20
297.0
 30
0.0
 11
420.0
 21
287.0
 31
0.0
  0
LINE
  5
751F
330
7493
100
AcDbEntity
  8
0
100
AcDbLine
 10
0.0
 20
297.0
 30
0.0
 11
25.0
 21
297.0
 31
0.0
  0
LINE
  5
7520
330
7493
100
AcDbEntity
  8
0
100
AcDbLine
 10
0.0
 20
0.0
 30
0.0
 11
0.0
 21
10.0
 31
0.0
  0
ENDBLK
  5
7521
330
7493
100
AcDbEntity
  8
0
100
AcDbBlockEnd
  0
BLOCK
  5
96B8
330
96AE
100
AcDbEntity
  8
0
 48
25.0
100
AcDbBlockBegin
  2
*D1
 70
     1
 10
0.0
 20
0.0
 30
0.0
  3
*D1
  1

  0
LINE
  5
B161
330
96AE
100
AcDbEntity
  8
寸法引出
 48
25.0
370
    -2
100
AcDbLine
 10
2694.559327814689
 20
2235.093926774949
 30
0.0
 11
2694.559327814689
 21
2318.231178839789
 31
0.0
  0
LINE
  5
B162
330
96AE
100
AcDbEntity
  8
寸法引出
 48
25.0
370
    -2
100
AcDbLine
 10
4694.559327814689
 20
2235.093926774949
 30
0.0
 11
4694.559327814689
 21
2318.231178839789
 31
0.0
  0
LINE
  5
B163
330
96AE
100
AcDbEntity
  8
寸法引出
 48
25.0
370
    -2
100
AcDbLine
 10
2724.55932781469
 20
2308.231178839789
 30
0.0
 11
4664.559327814689
 21
2308.231178839789
 31
0.0
  0
SOLID
  5
B164
330
96AE
100
AcDbEntity
  8
寸法引出
 48
25.0
100
AcDbTrace
 10
2724.55932781469
 20
2313.231178839789
 30
0.0
 11
2724.55932781469
 21
2303.231178839789
 31
0.0
 12
2694.559327814689
 22
2308.231178839789
 32
0.0
 13
2694.559327814689
 23
2308.231178839789
 33
0.0
  0
SOLID
  5
B165
330
96AE
100
AcDbEntity
  8
寸法引出
 48
25.0
100
AcDbTrace
 10
4664.559327814689
 20
2313.231178839789
 30
0.0
 11
4664.559327814689
 21
2303.231178839789
 31
0.0
 12
4694.559327814689
 22
2308.231178839789
 32
0.0
 13
4694.559327814689
 23
2308.231178839789
 33
0.0
  0
MTEXT
  5
B166
330
96AE
100
AcDbEntity
  8
寸法引出
 48
25.0
100
AcDbMText
 10
3694.55932781469
 20
2348.231178839789
 30
0.0
 40
40.0
 41
0.0
 71
     5
 72
     1
  1
\A1;2000
  7
SANWA
 73
     1
 44
1.0
  0
POINT
  5
B167
330
96AE
100
AcDbEntity
  8
DEFPOINTS
 62
     0
 48
25.0
100
AcDbPoint
 10
2694.559327814689
 20
2215.093926774949
 30
0.0
  0
POINT
  5
B168
330
96AE
100
AcDbEntity
  8
DEFPOINTS
 62
     0
 48
25.0
100
AcDbPoint
 10
4694.559327814689
 20
2215.093926774949
 30
0.0
  0
POINT
  5
B169
330
96AE
100
AcDbEntity
  8
DEFPOINTS
 62
     0
 48
25.0
100
AcDbPoint
 10
4694.559327814689
 20
2308.231178839789
 30
0.0
  0
ENDBLK
  5
96B9
330
96AE
100
AcDbEntity
  8
0
 48
25.0
100
AcDbBlockEnd
  0
BLOCK
  5
96CF
330
96C6
100
AcDbEntity
  8
0
 48
25.0
100
AcDbBlockBegin
  2
*D2
 70
     1
 10
0.0
 20
0.0
 30
0.0
  3
*D2
  1

  0
LINE
  5
B20A
330
96C6
100
AcDbEntity
  8
寸法引出
 48
25.0
370
    -2
100
AcDbLine
 10
4574.559327814689
 20
3901.911041539227
 30
0.0
 11
4574.559327814689
 21
3993.656336629143
 31
0.0
  0
LINE
  5
B20B
330
96C6
100
AcDbEntity
  8
寸法引出
 48
25.0
370
    -2
100
AcDbLine
 10
3844.55932781469
 20
3983.656336629143
 30
0.0
 11
4544.55932781469
 21
3983.656336629143
 31
0.0
  0
SOLID
  5
B20C
330
96C6
100
AcDbEntity
  8
寸法引出
 48
25.0
100
AcDbTrace
 10
3844.55932781469
 20
3988.656336629143
 30
0.0
 11
3844.55932781469
 21
3978.656336629143
 31
0.0
 12
3814.55932781469
 22
3983.656336629143
 32
0.0
 13
3814.55932781469
 23
3983.656336629143
 33
0.0
  0
SOLID
  5
B20D
330
96C6
100
AcDbEntity
  8
寸法引出
 48
25.0
100
AcDbTrace
 10
4544.55932781469
 20
3988.656336629143
 30
0.0
 11
4544.55932781469
 21
3978.656336629143
 31
0.0
 12
4574.559327814689
 22
3983.656336629143
 32
0.0
 13
4574.559327814689
 23
3983.656336629143
 33
0.0
  0
MTEXT
  5
B20E
330
96C6
100
AcDbEntity
  8
寸法引出
 48
25.0
100
AcDbMText
 10
4194.559327814689
 20
4023.656336629144
 30
0.0
 40
40.0
 41
0.0
 71
     5
 72
     1
  1
\A1;760
  7
SANWA
 73
     1
 44
1.0
  0
POINT
  5
B20F
330
96C6
100
AcDbEntity
  8
DEFPOINTS
 62
     0
 48
25.0
100
AcDbPoint
 10
3814.55932781469
 20
3881.911041539226
 30
0.0
  0
POINT
  5
B210
330
96C6
100
AcDbEntity
  8
DEFPOINTS
 62
     0
 48
25.0
100
AcDbPoint
 10
4574.559327814689
 20
3881.911041539226
 30
0.0
  0
POINT
  5
B211
330
96C6
100
AcDbEntity
  8
DEFPOINTS
 62
     0
 48
25.0
100
AcDbPoint
 10
4574.559327814689
 20
3983.656336629143
 30
0.0
  0
ENDBLK
  5
96D0
330
96C6
100
AcDbEntity
  8
0
 48
25.0
100
AcDbBlockEnd
  0
BLOCK
  5
9758
330
974E
100
AcDbEntity
  8
0
 48
25.0
100
AcDbBlockBegin
  2
*D3
 70
     1
 10
0.0
 20
0.0
 30
0.0
  3
*D3
  1

  0
LINE
  5
B1E6
330
974E
100
AcDbEntity
  8
寸法引出
 48
25.0
370
    -2
100
AcDbLine
 10
2674.559327814689
 20
2215.093926774949
 30
0.0
 11
2371.307080469361
 21
2215.093926774949
 31
0.0
  0
LINE
  5
B1E7
330
974E
100
AcDbEntity
  8
寸法引出
 48
25.0
370
    -2
100
AcDbLine
 10
2674.559327814689
 20
1815.093926774949
 30
0.0
 11
2371.307080469361
 21
1815.093926774949
 31
0.0
  0
LINE
  5
B1E8
330
974E
100
AcDbEntity
  8
寸法引出
 48
25.0
370
    -2
100
AcDbLine
 10
2381.307080469361
 20
2185.093926774949
 30
0.0
 11
2381.307080469361
 21
1845.093926774949
 31
0.0
  0
SOLID
  5
B1E9
330
974E
100
AcDbEntity
  8
寸法引出
 48
25.0
100
AcDbTrace
 10
2376.307080469361
 20
2185.093926774949
 30
0.0
 11
2386.307080469361
 21
2185.093926774949
 31
0.0
 12
2381.307080469361
 22
2215.093926774949
 32
0.0
 13
2381.307080469361
 23
2215.093926774949
 33
0.0
  0
SOLID
  5
B1EA
330
974E
100
AcDbEntity
  8
寸法引出
 48
25.0
100
AcDbTrace
 10
2376.307080469361
 20
1845.093926774949
 30
0.0
 11
2386.307080469361
 21
1845.093926774949
 31
0.0
 12
2381.307080469361
 22
1815.093926774949
 32
0.0
 13
2381.307080469361
 23
1815.093926774949
 33
0.0
  0
MTEXT
  5
B1EB
330
974E
100
AcDbEntity
  8
寸法引出
 48
25.0
100
AcDbMText
 10
2341.30708046936
 20
2015.093926774949
 30
0.0
 40
40.0
 41
0.0
 71
     5
 72
     1
  1
\A1;400
  7
SANWA
 11
0.0000000000000001
 21
1.0
 31
0.0
 73
     1
 44
1.0
  0
POINT
  5
B1EC
330
974E
100
AcDbEntity
  8
DEFPOINTS
 62
     0
 48
25.0
100
AcDbPoint
 10
2694.559327814689
 20
2215.093926774949
 30
0.0
  0
POINT
  5
B1ED
330
974E
100
AcDbEntity
  8
DEFPOINTS
 62
     0
 48
25.0
100
AcDbPoint
 10
2694.559327814689
 20
1815.093926774949
 30
0.0
  0
POINT
  5
B1EE
330
974E
100
AcDbEntity
  8
DEFPOINTS
 62
     0
 48
25.0
100
AcDbPoint
 10
2381.307080469361
 20
1815.093926774949
 30
0.0
  0
ENDBLK
  5
9759
330
974E
100
AcDbEntity
  8
0
 48
25.0
100
AcDbBlockEnd
  0
BLOCK
  5
97A8
330
979C
100
AcDbEntity
  8
0
 48
25.0
100
AcDbBlockBegin
  2
*D4
 70
     1
 10
0.0
 20
0.0
 30
0.0
  3
*D4
  1

  0
LINE
  5
B224
330
979C
100
AcDbEntity
  8
寸法引出
 48
25.0
370
    -2
100
AcDbLine
 10
1298.329158204454
 20
3136.053177162955
 30
0.0
 11
1234.261484996966
 21
3200.120850370444
 31
0.0
  0
LINE
  5
B225
330
979C
100
AcDbEntity
  8
寸法引出
 48
25.0
370
    -2
100
AcDbLine
 10
1322.471293828185
 20
3091.911041539226
 30
0.0
 11
1189.439514597276
 21
3091.911041539226
 31
0.0
  0
ARC
  5
B226
330
979C
100
AcDbEntity
  8
寸法引出
 48
25.0
370
    -2
100
AcDbCircle
 10
1342.471293828185
 20
3091.911041539226
 30
0.0
 40
143.031779230909
100
AcDbArc
 50
147.0395608079801
 51
167.9604391920201
  0
SOLID
  5
B227
330
979C
100
AcDbEntity
  8
寸法引出
 48
25.0
100
AcDbTrace
 10
1218.574175212256
 20
3172.874147520948
 30
0.0
 11
1226.347806986438
 21
3166.583626951119
 31
0.0
 12
1241.332552808832
 22
3193.049782558578
 32
0.0
 13
1241.332552808832
 23
3193.049782558578
 33
0.0
  0
SOLID
  5
B228
330
979C
100
AcDbEntity
  8
寸法引出
 48
25.0
100
AcDbTrace
 10
1207.558097313877
 20
3121.22125502657
 30
0.0
 11
1197.613239819787
 21
3122.269973016422
 31
0.0
 12
1199.439514597276
 22
3091.911041539226
 32
0.0
 13
1199.439514597276
 23
3091.911041539226
 33
0.0
  0
MTEXT
  5
B229
330
979C
100
AcDbEntity
  8
寸法引出
 48
25.0
100
AcDbMText
 10
1191.828630522158
 20
3195.869784319711
 30
0.0
 40
40.0
 41
0.0
 71
     5
 72
     1
  1
\A1;45°
  7
SANWA
 11
0.5679819276046798
 21
0.8230410256569669
 31
0.0
 73
     1
 44
1.0
  0
POINT
  5
B22A
330
979C
100
AcDbEntity
  8
DEFPOINTS
 62
     0
 48
25.0
100
AcDbPoint
 10
1204.313204288973
 20
3128.930390059084
 30
0.0
  0
POINT
  5
B22B
330
979C
100
AcDbEntity
  8
DEFPOINTS
 62
     0
 48
25.0
100
AcDbPoint
 10
1312.471293828186
 20
3121.911041539225
 30
0.0
  0
POINT
  5
B22C
330
979C
100
AcDbEntity
  8
DEFPOINTS
 62
     0
 48
25.0
100
AcDbPoint
 10
1682.471293828186
 20
3091.911041539226
 30
0.0
  0
POINT
  5
B22D
330
979C
100
AcDbEntity
  8
DEFPOINTS
 62
     0
 48
25.0
100
AcDbPoint
 10
1342.471293828186
 20
3091.911041539226
 30
0.0
  0
POINT
  5
B22E
330
979C
100
AcDbEntity
  8
DEFPOINTS
 62
     0
 48
25.0
100
AcDbPoint
 10
1342.471293828184
 20
3091.911041539227
 30
0.0
  0
ENDBLK
  5
97A9
330
979C
100
AcDbEntity
  8
0
 48
25.0
100
AcDbBlockEnd
  0
BLOCK
  5
97B5
330
97AA
100
AcDbEntity
  8
0
 48
25.0
100
AcDbBlockBegin
  2
*D5
 70
     1
 10
0.0
 20
0.0
 30
0.0
  3
*D5
  1

  0
LINE
  5
B22F
330
97AA
100
AcDbEntity
  8
寸法引出
 48
25.0
370
    -2
100
AcDbLine
 10
1312.471293828186
 20
3101.911041539226
 30
0.0
 11
1312.471293828186
 21
2868.533284157462
 31
0.0
  0
LINE
  5
B230
330
97AA
100
AcDbEntity
  8
寸法引出
 48
25.0
370
    -2
100
AcDbLine
 10
1432.471293828186
 20
2878.533284157462
 30
0.0
 11
1462.471293828186
 21
2878.533284157462
 31
0.0
  0
LINE
  5
B231
330
97AA
100
AcDbEntity
  8
寸法引出
 48
25.0
370
    -2
100
AcDbLine
 10
1282.471293828186
 20
2878.533284157462
 30
0.0
 11
1252.471293828186
 21
2878.533284157462
 31
0.0
  0
LINE
  5
B232
330
97AA
100
AcDbEntity
  8
寸法引出
 48
25.0
370
    -2
100
AcDbLine
 10
1402.471293828186
 20
2878.533284157462
 30
0.0
 11
1312.471293828186
 21
2878.533284157462
 31
0.0
  0
SOLID
  5
B233
330
97AA
100
AcDbEntity
  8
寸法引出
 48
25.0
100
AcDbTrace
 10
1432.471293828186
 20
2883.533284157462
 30
0.0
 11
1432.471293828186
 21
2873.533284157462
 31
0.0
 12
1402.471293828186
 22
2878.533284157462
 32
0.0
 13
1402.471293828186
 23
2878.533284157462
 33
0.0
  0
SOLID
  5
B234
330
97AA
100
AcDbEntity
  8
寸法引出
 48
25.0
100
AcDbTrace
 10
1282.471293828186
 20
2883.533284157462
 30
0.0
 11
1282.471293828186
 21
2873.533284157462
 31
0.0
 12
1312.471293828186
 22
2878.533284157462
 32
0.0
 13
1312.471293828186
 23
2878.533284157462
 33
0.0
  0
MTEXT
  5
B235
330
97AA
100
AcDbEntity
  8
寸法引出
 48
25.0
100
AcDbMText
 10
1357.471293828186
 20
2918.533284157462
 30
0.0
 40
40.0
 41
0.0
 71
     5
 72
     1
  1
\A1;90
  7
SANWA
 73
     1
 44
1.0
  0
POINT
  5
B236
330
97AA
100
AcDbEntity
  8
DEFPOINTS
 62
     0
 48
25.0
100
AcDbPoint
 10
1402.471293828186
 20
3091.911041539226
 30
0.0
  0
POINT
  5
B237
330
97AA
100
AcDbEntity
  8
DEFPOINTS
 62
     0
 48
25.0
100
AcDbPoint
 10
1312.471293828186
 20
3121.911041539226
 30
0.0
  0
POINT
  5
B238
330
97AA
100
AcDbEntity
  8
DEFPOINTS
 62
     0
 48
25.0
100
AcDbPoint
 10
1312.471293828186
 20
2878.533284157462
 30
0.0
  0
ENDBLK
  5
97B6
330
97AA
100
AcDbEntity
  8
0
 48
25.0
100
AcDbBlockEnd
  0
BLOCK
  5
97C1
330
97B7
100
AcDbEntity
  8
0
 48
25.0
100
AcDbBlockBegin
  2
*D6
 70
     1
 10
0.0
 20
0.0
 30
0.0
  3
*D6
  1

  0
LINE
  5
B256
330
97B7
100
AcDbEntity
  8
寸法引出
 48
25.0
370
    -2
100
AcDbLine
 10
1312.471293828186
 20
3901.911041539227
 30
0.0
 11
1312.471293828186
 21
4107.05084047641
 31
0.0
  0
LINE
  5
B257
330
97B7
100
AcDbEntity
  8
寸法引出
 48
25.0
370
    -2
100
AcDbLine
 10
1712.471293828186
 20
3901.911041539227
 30
0.0
 11
1712.471293828186
 21
4107.05084047641
 31
0.0
  0
LINE
  5
B258
330
97B7
100
AcDbEntity
  8
寸法引出
 48
25.0
370
    -2
100
AcDbLine
 10
1342.471293828186
 20
4097.050840476409
 30
0.0
 11
1682.471293828186
 21
4097.050840476409
 31
0.0
  0
SOLID
  5
B259
330
97B7
100
AcDbEntity
  8
寸法引出
 48
25.0
100
AcDbTrace
 10
1342.471293828186
 20
4102.050840476409
 30
0.0
 11
1342.471293828186
 21
4092.050840476409
 31
0.0
 12
1312.471293828186
 22
4097.050840476409
 32
0.0
 13
1312.471293828186
 23
4097.050840476409
 33
0.0
  0
SOLID
  5
B25A
330
97B7
100
AcDbEntity
  8
寸法引出
 48
25.0
100
AcDbTrace
 10
1682.471293828186
 20
4102.050840476409
 30
0.0
 11
1682.471293828186
 21
4092.050840476409
 31
0.0
 12
1712.471293828186
 22
4097.050840476409
 32
0.0
 13
1712.471293828186
 23
4097.050840476409
 33
0.0
  0
MTEXT
  5
B25B
330
97B7
100
AcDbEntity
  8
寸法引出
 48
25.0
100
AcDbMText
 10
1512.471293828186
 20
4137.050840476409
 30
0.0
 40
40.0
 41
0.0
 71
     5
 72
     1
  1
\A1;400
  7
SANWA
 73
     1
 44
1.0
  0
POINT
  5
B25C
330
97B7
100
AcDbEntity
  8
DEFPOINTS
 62
     0
 48
25.0
100
AcDbPoint
 10
1312.471293828186
 20
3881.911041539226
 30
0.0
  0
POINT
  5
B25D
330
97B7
100
AcDbEntity
  8
DEFPOINTS
 62
     0
 48
25.0
100
AcDbPoint
 10
1712.471293828186
 20
3881.911041539226
 30
0.0
  0
POINT
  5
B25E
330
97B7
100
AcDbEntity
  8
DEFPOINTS
 62
     0
 48
25.0
100
AcDbPoint
 10
1712.471293828186
 20
4097.050840476409
 30
0.0
  0
ENDBLK
  5
97C2
330
97B7
100
AcDbEntity
  8
0
 48
25.0
100
AcDbBlockEnd
  0
BLOCK
  5
97CE
330
97C3
100
AcDbEntity
  8
0
 48
25.0
100
AcDbBlockBegin
  2
*D7
 70
     1
 10
0.0
 20
0.0
 30
0.0
  3
*D7
  1

  0
LINE
  5
B25F
330
97C3
100
AcDbEntity
  8
寸法引出
 48
25.0
370
    -2
100
AcDbLine
 10
1312.471293828186
 20
3901.911041539227
 30
0.0
 11
1312.471293828186
 21
4028.157138493049
 31
0.0
  0
LINE
  5
B260
330
97C3
100
AcDbEntity
  8
寸法引出
 48
25.0
370
    -2
100
AcDbLine
 10
1392.471293828186
 20
4018.157138493049
 30
0.0
 11
1422.471293828186
 21
4018.157138493049
 31
0.0
  0
LINE
  5
B261
330
97C3
100
AcDbEntity
  8
寸法引出
 48
25.0
370
    -2
100
AcDbLine
 10
1282.471293828186
 20
4018.157138493049
 30
0.0
 11
1252.471293828186
 21
4018.157138493049
 31
0.0
  0
LINE
  5
B262
330
97C3
100
AcDbEntity
  8
寸法引出
 48
25.0
370
    -2
100
AcDbLine
 10
1362.471293828186
 20
4018.157138493049
 30
0.0
 11
1312.471293828186
 21
4018.157138493049
 31
0.0
  0
SOLID
  5
B263
330
97C3
100
AcDbEntity
  8
寸法引出
 48
25.0
100
AcDbTrace
 10
1392.471293828186
 20
4023.157138493049
 30
0.0
 11
1392.471293828186
 21
4013.157138493048
 31
0.0
 12
1362.471293828186
 22
4018.157138493049
 32
0.0
 13
1362.471293828186
 23
4018.157138493049
 33
0.0
  0
SOLID
  5
B264
330
97C3
100
AcDbEntity
  8
寸法引出
 48
25.0
100
AcDbTrace
 10
1282.471293828186
 20
4023.157138493049
 30
0.0
 11
1282.471293828186
 21
4013.157138493048
 31
0.0
 12
1312.471293828186
 22
4018.157138493049
 32
0.0
 13
1312.471293828186
 23
4018.157138493049
 33
0.0
  0
MTEXT
  5
B265
330
97C3
100
AcDbEntity
  8
寸法引出
 48
25.0
100
AcDbMText
 10
1337.471293828186
 20
4058.157138493049
 30
0.0
 40
40.0
 41
0.0
 71
     5
 72
     1
  1
\A1;50
  7
SANWA
 73
     1
 44
1.0
  0
POINT
  5
B266
330
97C3
100
AcDbEntity
  8
DEFPOINTS
 62
     0
 48
25.0
100
AcDbPoint
 10
1362.471293828186
 20
3881.911041539226
 30
0.0
  0
POINT
  5
B267
330
97C3
100
AcDbEntity
  8
DEFPOINTS
 62
     0
 48
25.0
100
AcDbPoint
 10
1312.471293828186
 20
3881.911041539226
 30
0.0
  0
POINT
  5
B268
330
97C3
100
AcDbEntity
  8
DEFPOINTS
 62
     0
 48
25.0
100
AcDbPoint
 10
1312.471293828186
 20
4018.157138493049
 30
0.0
  0
ENDBLK
  5
97CF
330
97C3
100
AcDbEntity
  8
0
 48
25.0
100
AcDbBlockEnd
  0
BLOCK
  5
97DA
330
97D0
100
AcDbEntity
  8
0
 48
25.0
100
AcDbBlockBegin
  2
*D8
 70
     1
 10
0.0
 20
0.0
 30
0.0
  3
*D8
  1

  0
LINE
  5
B269
330
97D0
100
AcDbEntity
  8
寸法引出
 48
25.0
370
    -2
100
AcDbLine
 10
1362.471293828186
 20
3901.911041539227
 30
0.0
 11
1362.471293828186
 21
4028.157138493049
 31
0.0
  0
LINE
  5
B26A
330
97D0
100
AcDbEntity
  8
寸法引出
 48
25.0
370
    -2
100
AcDbLine
 10
1662.471293828186
 20
3901.911041539227
 30
0.0
 11
1662.471293828186
 21
4028.157138493049
 31
0.0
  0
LINE
  5
B26B
330
97D0
100
AcDbEntity
  8
寸法引出
 48
25.0
370
    -2
100
AcDbLine
 10
1392.471293828186
 20
4018.157138493049
 30
0.0
 11
1632.471293828186
 21
4018.157138493049
 31
0.0
  0
SOLID
  5
B26C
330
97D0
100
AcDbEntity
  8
寸法引出
 48
25.0
100
AcDbTrace
 10
1392.471293828186
 20
4023.157138493049
 30
0.0
 11
1392.471293828186
 21
4013.157138493048
 31
0.0
 12
1362.471293828186
 22
4018.157138493049
 32
0.0
 13
1362.471293828186
 23
4018.157138493049
 33
0.0
  0
SOLID
  5
B26D
330
97D0
100
AcDbEntity
  8
寸法引出
 48
25.0
100
AcDbTrace
 10
1632.471293828186
 20
4023.157138493049
 30
0.0
 11
1632.471293828186
 21
4013.157138493048
 31
0.0
 12
1662.471293828186
 22
4018.157138493049
 32
0.0
 13
1662.471293828186
 23
4018.157138493049
 33
0.0
  0
MTEXT
  5
B26E
330
97D0
100
AcDbEntity
  8
寸法引出
 48
25.0
100
AcDbMText
 10
1512.471293828186
 20
4058.157138493049
 30
0.0
 40
40.0
 41
0.0
 71
     5
 72
     1
  1
\A1;300
  7
SANWA
 73
     1
 44
1.0
  0
POINT
  5
B26F
330
97D0
100
AcDbEntity
  8
DEFPOINTS
 62
     0
 48
25.0
100
AcDbPoint
 10
1362.471293828186
 20
3881.911041539226
 30
0.0
  0
POINT
  5
B270
330
97D0
100
AcDbEntity
  8
DEFPOINTS
 62
     0
 48
25.0
100
AcDbPoint
 10
1662.471293828186
 20
3881.911041539226
 30
0.0
  0
POINT
  5
B271
330
97D0
100
AcDbEntity
  8
DEFPOINTS
 62
     0
 48
25.0
100
AcDbPoint
 10
1662.471293828186
 20
4018.157138493049
 30
0.0
  0
ENDBLK
  5
97DB
330
97D0
100
AcDbEntity
  8
0
 48
25.0
100
AcDbBlockEnd
  0
BLOCK
  5
97E6
330
97DC
100
AcDbEntity
  8
0
 48
25.0
100
AcDbBlockBegin
  2
*D9
 70
     1
 10
0.0
 20
0.0
 30
0.0
  3
*D9
  1

  0
LINE
  5
B212
330
97DC
100
AcDbEntity
  8
寸法引出
 48
25.0
370
    -2
100
AcDbLine
 10
1292.471293828186
 20
3881.911041539226
 30
0.0
 11
1083.921343069623
 21
3881.911041539226
 31
0.0
  0
LINE
  5
B213
330
97DC
100
AcDbEntity
  8
寸法引出
 48
25.0
370
    -2
100
AcDbLine
 10
1322.471293828186
 20
3091.911041539226
 30
0.0
 11
1083.921343069623
 21
3091.911041539226
 31
0.0
  0
LINE
  5
B214
330
97DC
100
AcDbEntity
  8
寸法引出
 48
25.0
370
    -2
100
AcDbLine
 10
1093.921343069623
 20
3851.911041539226
 30
0.0
 11
1093.921343069623
 21
3121.911041539226
 31
0.0
  0
SOLID
  5
B215
330
97DC
100
AcDbEntity
  8
寸法引出
 48
25.0
100
AcDbTrace
 10
1088.921343069624
 20
3851.911041539226
 30
0.0
 11
1098.921343069623
 21
3851.911041539226
 31
0.0
 12
1093.921343069623
 22
3881.911041539226
 32
0.0
 13
1093.921343069623
 23
3881.911041539226
 33
0.0
  0
SOLID
  5
B216
330
97DC
100
AcDbEntity
  8
寸法引出
 48
25.0
100
AcDbTrace
 10
1088.921343069623
 20
3121.911041539226
 30
0.0
 11
1098.921343069623
 21
3121.911041539226
 31
0.0
 12
1093.921343069623
 22
3091.911041539226
 32
0.0
 13
1093.921343069623
 23
3091.911041539226
 33
0.0
  0
MTEXT
  5
B217
330
97DC
100
AcDbEntity
  8
寸法引出
 48
25.0
100
AcDbMText
 10
1053.921343069623
 20
3486.911041539227
 30
0.0
 40
40.0
 41
0.0
 71
     5
 72
     1
  1
\A1;790
  7
SANWA
 11
0.0000000000000001
 21
1.0
 31
0.0
 73
     1
 44
1.0
  0
POINT
  5
B218
330
97DC
100
AcDbEntity
  8
DEFPOINTS
 62
     0
 48
25.0
100
AcDbPoint
 10
1312.471293828186
 20
3881.911041539226
 30
0.0
  0
POINT
  5
B219
330
97DC
100
AcDbEntity
  8
DEFPOINTS
 62
     0
 48
25.0
100
AcDbPoint
 10
1342.471293828186
 20
3091.911041539226
 30
0.0
  0
POINT
  5
B21A
330
97DC
100
AcDbEntity
  8
DEFPOINTS
 62
     0
 48
25.0
100
AcDbPoint
 10
1093.921343069623
 20
3091.911041539226
 30
0.0
  0
ENDBLK
  5
97E7
330
97DC
100
AcDbEntity
  8
0
 48
25.0
100
AcDbBlockEnd
  0
BLOCK
  5
97F2
330
97E8
100
AcDbEntity
  8
0
 48
25.0
100
AcDbBlockBegin
  2
*D10
 70
     1
 10
0.0
 20
0.0
 30
0.0
  3
*D10
  1

  0
LINE
  5
B2AA
330
97E8
100
AcDbEntity
  8
寸法引出
 48
25.0
370
    -2
100
AcDbLine
 10
2694.559327814689
 20
3901.911041539227
 30
0.0
 11
2694.559327814689
 21
3993.656336629143
 31
0.0
  0
LINE
  5
B2AB
330
97E8
100
AcDbEntity
  8
寸法引出
 48
25.0
370
    -2
100
AcDbLine
 10
2814.55932781469
 20
3901.911041539227
 30
0.0
 11
2814.55932781469
 21
3993.656336629143
 31
0.0
  0
LINE
  5
B2AC
330
97E8
100
AcDbEntity
  8
寸法引出
 48
25.0
370
    -2
100
AcDbLine
 10
2724.55932781469
 20
3983.656336629143
 30
0.0
 11
2784.55932781469
 21
3983.656336629143
 31
0.0
  0
SOLID
  5
B2AD
330
97E8
100
AcDbEntity
  8
寸法引出
 48
25.0
100
AcDbTrace
 10
2724.55932781469
 20
3988.656336629143
 30
0.0
 11
2724.55932781469
 21
3978.656336629143
 31
0.0
 12
2694.559327814689
 22
3983.656336629143
 32
0.0
 13
2694.559327814689
 23
3983.656336629143
 33
0.0
  0
SOLID
  5
B2AE
330
97E8
100
AcDbEntity
  8
寸法引出
 48
25.0
100
AcDbTrace
 10
2784.55932781469
 20
3988.656336629143
 30
0.0
 11
2784.55932781469
 21
3978.656336629143
 31
0.0
 12
2814.55932781469
 22
3983.656336629143
 32
0.0
 13
2814.55932781469
 23
3983.656336629143
 33
0.0
  0
MTEXT
  5
B2AF
330
97E8
100
AcDbEntity
  8
寸法引出
 48
25.0
100
AcDbMText
 10
2754.55932781469
 20
4023.656336629144
 30
0.0
 40
40.0
 41
0.0
 71
     5
 72
     1
  1
\A1;120
  7
SANWA
 73
     1
 44
1.0
  0
POINT
  5
B2B0
330
97E8
100
AcDbEntity
  8
DEFPOINTS
 62
     0
 48
25.0
100
AcDbPoint
 10
2694.559327814689
 20
3881.911041539226
 30
0.0
  0
POINT
  5
B2B1
330
97E8
100
AcDbEntity
  8
DEFPOINTS
 62
     0
 48
25.0
100
AcDbPoint
 10
2814.55932781469
 20
3881.911041539226
 30
0.0
  0
POINT
  5
B2B2
330
97E8
100
AcDbEntity
  8
DEFPOINTS
 62
     0
 48
25.0
100
AcDbPoint
 10
2814.55932781469
 20
3983.656336629143
 30
0.0
  0
ENDBLK
  5
97F3
330
97E8
100
AcDbEntity
  8
0
 48
25.0
100
AcDbBlockEnd
  0
BLOCK
  5
9823
330
9819
100
AcDbEntity
  8
0
 48
25.0
100
AcDbBlockBegin
  2
*D11
 70
     1
 10
0.0
 20
0.0
 30
0.0
  3
*D11
  1

  0
LINE
  5
B285
330
9819
100
AcDbEntity
  8
寸法引出
 48
25.0
370
    -2
100
AcDbLine
 10
2674.559327814689
 20
3881.911041539226
 30
0.0
 11
2371.307080469361
 21
3881.911041539226
 31
0.0
  0
LINE
  5
B286
330
9819
100
AcDbEntity
  8
寸法引出
 48
25.0
370
    -2
100
AcDbLine
 10
2684.55932781469
 20
3091.911041539226
 30
0.0
 11
2371.307080469361
 21
3091.911041539226
 31
0.0
  0
LINE
  5
B287
330
9819
100
AcDbEntity
  8
寸法引出
 48
25.0
370
    -2
100
AcDbLine
 10
2381.307080469361
 20
3851.911041539226
 30
0.0
 11
2381.307080469361
 21
3121.911041539226
 31
0.0
  0
SOLID
  5
B288
330
9819
100
AcDbEntity
  8
寸法引出
 48
25.0
100
AcDbTrace
 10
2376.307080469361
 20
3851.911041539226
 30
0.0
 11
2386.307080469361
 21
3851.911041539226
 31
0.0
 12
2381.307080469361
 22
3881.911041539226
 32
0.0
 13
2381.307080469361
 23
3881.911041539226
 33
0.0
  0
SOLID
  5
B289
330
9819
100
AcDbEntity
  8
寸法引出
 48
25.0
100
AcDbTrace
 10
2376.307080469361
 20
3121.911041539226
 30
0.0
 11
2386.307080469361
 21
3121.911041539226
 31
0.0
 12
2381.307080469361
 22
3091.911041539226
 32
0.0
 13
2381.307080469361
 23
3091.911041539226
 33
0.0
  0
MTEXT
  5
B28A
330
9819
100
AcDbEntity
  8
寸法引出
 48
25.0
100
AcDbMText
 10
2341.30708046936
 20
3486.911041539227
 30
0.0
 40
40.0
 41
0.0
 71
     5
 72
     1
  1
\A1;790
  7
SANWA
 11
0.0000000000000001
 21
1.0
 31
0.0
 73
     1
 44
1.0
  0
POINT
  5
B28B
330
9819
100
AcDbEntity
  8
DEFPOINTS
 62
     0
 48
25.0
100
AcDbPoint
 10
2694.559327814689
 20
3881.911041539226
 30
0.0
  0
POINT
  5
B28C
330
9819
100
AcDbEntity
  8
DEFPOINTS
 62
     0
 48
25.0
100
AcDbPoint
 10
2704.55932781469
 20
3091.911041539226
 30
0.0
  0
POINT
  5
B28D
330
9819
100
AcDbEntity
  8
DEFPOINTS
 62
     0
 48
25.0
100
AcDbPoint
 10
2381.307080469361
 20
3091.911041539226
 30
0.0
  0
ENDBLK
  5
9824
330
9819
100
AcDbEntity
  8
0
 48
25.0
100
AcDbBlockEnd
  0
BLOCK
  5
983A
330
9830
100
AcDbEntity
  8
0
 48
25.0
100
AcDbBlockBegin
  2
*D12
 70
     1
 10
0.0
 20
0.0
 30
0.0
  3
*D12
  1

  0
LINE
  5
B21B
330
9830
100
AcDbEntity
  8
寸法引出
 48
25.0
370
    -2
100
AcDbLine
 10
1732.471293828186
 20
3881.911041539226
 30
0.0
 11
2012.193910465916
 21
3881.911041539226
 31
0.0
  0
LINE
  5
B21C
330
9830
100
AcDbEntity
  8
寸法引出
 48
25.0
370
    -2
100
AcDbLine
 10
1732.471293828186
 20
3181.911041539226
 30
0.0
 11
2012.193910465915
 21
3181.911041539226
 31
0.0
  0
LINE
  5
B21D
330
9830
100
AcDbEntity
  8
寸法引出
 48
25.0
370
    -2
100
AcDbLine
 10
2002.193910465916
 20
3851.911041539226
 30
0.0
 11
2002.193910465916
 21
3211.911041539226
 31
0.0
  0
SOLID
  5
B21E
330
9830
100
AcDbEntity
  8
寸法引出
 48
25.0
100
AcDbTrace
 10
1997.193910465916
 20
3851.911041539226
 30
0.0
 11
2007.193910465916
 21
3851.911041539226
 31
0.0
 12
2002.193910465916
 22
3881.911041539226
 32
0.0
 13
2002.193910465916
 23
3881.911041539226
 33
0.0
  0
SOLID
  5
B21F
330
9830
100
AcDbEntity
  8
寸法引出
 48
25.0
100
AcDbTrace
 10
1997.193910465916
 20
3211.911041539226
 30
0.0
 11
2007.193910465915
 21
3211.911041539226
 31
0.0
 12
2002.193910465916
 22
3181.911041539226
 32
0.0
 13
2002.193910465916
 23
3181.911041539226
 33
0.0
  0
MTEXT
  5
B220
330
9830
100
AcDbEntity
  8
寸法引出
 48
25.0
100
AcDbMText
 10
1962.193910465915
 20
3531.911041539227
 30
0.0
 40
40.0
 41
0.0
 71
     5
 72
     1
  1
\A1;700
  7
SANWA
 11
0.0000000000000001
 21
1.0
 31
0.0
 73
     1
 44
1.0
  0
POINT
  5
B221
330
9830
100
AcDbEntity
  8
DEFPOINTS
 62
     0
 48
25.0
100
AcDbPoint
 10
1712.471293828186
 20
3881.911041539226
 30
0.0
  0
POINT
  5
B222
330
9830
100
AcDbEntity
  8
DEFPOINTS
 62
     0
 48
25.0
100
AcDbPoint
 10
1712.471293828186
 20
3181.911041539226
 30
0.0
  0
POINT
  5
B223
330
9830
100
AcDbEntity
  8
DEFPOINTS
 62
     0
 48
25.0
100
AcDbPoint
 10
2002.193910465916
 20
3181.911041539226
 30
0.0
  0
ENDBLK
  5
983B
330
9830
100
AcDbEntity
  8
0
 48
25.0
100
AcDbBlockEnd
  0
BLOCK
  5
9847
330
983C
100
AcDbEntity
  8
0
 48
25.0
100
AcDbBlockBegin
  2
*D13
 70
     1
 10
0.0
 20
0.0
 30
0.0
  3
*D13
  1

  0
LINE
  5
B242
330
983C
100
AcDbEntity
  8
寸法引出
 48
25.0
370
    -2
100
AcDbLine
 10
1702.471293828186
 20
3091.911041539226
 30
0.0
 11
2012.193910465915
 21
3091.911041539226
 31
0.0
  0
LINE
  5
B243
330
983C
100
AcDbEntity
  8
寸法引出
 48
25.0
370
    -2
100
AcDbLine
 10
2002.193910465916
 20
3211.911041539226
 30
0.0
 11
2002.193910465916
 21
3241.911041539227
 31
0.0
  0
LINE
  5
B244
330
983C
100
AcDbEntity
  8
寸法引出
 48
25.0
370
    -2
100
AcDbLine
 10
2002.193910465916
 20
3061.911041539226
 30
0.0
 11
2002.193910465916
 21
3031.911041539226
 31
0.0
  0
LINE
  5
B245
330
983C
100
AcDbEntity
  8
寸法引出
 48
25.0
370
    -2
100
AcDbLine
 10
2002.193910465916
 20
3181.911041539226
 30
0.0
 11
2002.193910465916
 21
3091.911041539226
 31
0.0
  0
SOLID
  5
B246
330
983C
100
AcDbEntity
  8
寸法引出
 48
25.0
100
AcDbTrace
 10
1997.193910465916
 20
3211.911041539226
 30
0.0
 11
2007.193910465915
 21
3211.911041539226
 31
0.0
 12
2002.193910465916
 22
3181.911041539226
 32
0.0
 13
2002.193910465916
 23
3181.911041539226
 33
0.0
  0
SOLID
  5
B247
330
983C
100
AcDbEntity
  8
寸法引出
 48
25.0
100
AcDbTrace
 10
1997.193910465916
 20
3061.911041539226
 30
0.0
 11
2007.193910465915
 21
3061.911041539226
 31
0.0
 12
2002.193910465916
 22
3091.911041539226
 32
0.0
 13
2002.193910465916
 23
3091.911041539226
 33
0.0
  0
MTEXT
  5
B248
330
983C
100
AcDbEntity
  8
寸法引出
 48
25.0
100
AcDbMText
 10
1962.193910465915
 20
3136.911041539227
 30
0.0
 40
40.0
 41
0.0
 71
     5
 72
     1
  1
\A1;90
  7
SANWA
 11
0.0000000000000001
 21
1.0
 31
0.0
 73
     1
 44
1.0
  0
POINT
  5
B249
330
983C
100
AcDbEntity
  8
DEFPOINTS
 62
     0
 48
25.0
100
AcDbPoint
 10
1712.471293828186
 20
3181.911041539226
 30
0.0
  0
POINT
  5
B24A
330
983C
100
AcDbEntity
  8
DEFPOINTS
 62
     0
 48
25.0
100
AcDbPoint
 10
1682.471293828186
 20
3091.911041539226
 30
0.0
  0
POINT
  5
B24B
330
983C
100
AcDbEntity
  8
DEFPOINTS
 62
     0
 48
25.0
100
AcDbPoint
 10
2002.193910465916
 20
3091.911041539226
 30
0.0
  0
ENDBLK
  5
9848
330
983C
100
AcDbEntity
  8
0
 48
25.0
100
AcDbBlockEnd
  0
BLOCK
  5
9854
330
9849
100
AcDbEntity
  8
0
 48
25.0
100
AcDbBlockBegin
  2
*D14
 70
     1
 10
0.0
 20
0.0
 30
0.0
  3
*D14
  1

  0
LINE
  5
B24C
330
9849
100
AcDbEntity
  8
寸法引出
 48
25.0
370
    -2
100
AcDbLine
 10
1712.471293828186
 20
3101.911041539226
 30
0.0
 11
1712.471293828186
 21
2868.533284157462
 31
0.0
  0
LINE
  5
B24D
330
9849
100
AcDbEntity
  8
寸法引出
 48
25.0
370
    -2
100
AcDbLine
 10
1592.471293828186
 20
2878.533284157462
 30
0.0
 11
1562.471293828186
 21
2878.533284157462
 31
0.0
  0
LINE
  5
B24E
330
9849
100
AcDbEntity
  8
寸法引出
 48
25.0
370
    -2
100
AcDbLine
 10
1742.471293828186
 20
2878.533284157462
 30
0.0
 11
1772.471293828186
 21
2878.533284157462
 31
0.0
  0
LINE
  5
B24F
330
9849
100
AcDbEntity
  8
寸法引出
 48
25.0
370
    -2
100
AcDbLine
 10
1622.471293828186
 20
2878.533284157462
 30
0.0
 11
1712.471293828186
 21
2878.533284157462
 31
0.0
  0
SOLID
  5
B250
330
9849
100
AcDbEntity
  8
寸法引出
 48
25.0
100
AcDbTrace
 10
1592.471293828186
 20
2883.533284157462
 30
0.0
 11
1592.471293828186
 21
2873.533284157462
 31
0.0
 12
1622.471293828186
 22
2878.533284157462
 32
0.0
 13
1622.471293828186
 23
2878.533284157462
 33
0.0
  0
SOLID
  5
B251
330
9849
100
AcDbEntity
  8
寸法引出
 48
25.0
100
AcDbTrace
 10
1742.471293828186
 20
2883.533284157462
 30
0.0
 11
1742.471293828186
 21
2873.533284157462
 31
0.0
 12
1712.471293828186
 22
2878.533284157462
 32
0.0
 13
1712.471293828186
 23
2878.533284157462
 33
0.0
  0
MTEXT
  5
B252
330
9849
100
AcDbEntity
  8
寸法引出
 48
25.0
100
AcDbMText
 10
1667.471293828186
 20
2918.533284157462
 30
0.0
 40
40.0
 41
0.0
 71
     5
 72
     1
  1
\A1;90
  7
SANWA
 73
     1
 44
1.0
  0
POINT
  5
B253
330
9849
100
AcDbEntity
  8
DEFPOINTS
 62
     0
 48
25.0
100
AcDbPoint
 10
1622.471293828186
 20
3091.911041539226
 30
0.0
  0
POINT
  5
B254
330
9849
100
AcDbEntity
  8
DEFPOINTS
 62
     0
 48
25.0
100
AcDbPoint
 10
1712.471293828186
 20
3121.911041539226
 30
0.0
  0
POINT
  5
B255
330
9849
100
AcDbEntity
  8
DEFPOINTS
 62
     0
 48
25.0
100
AcDbPoint
 10
1712.471293828186
 20
2878.533284157462
 30
0.0
  0
ENDBLK
  5
9855
330
9849
100
AcDbEntity
  8
0
 48
25.0
100
AcDbBlockEnd
  0
BLOCK
  5
9860
330
9856
100
AcDbEntity
  8
0
 48
25.0
100
AcDbBlockBegin
  2
*D15
 70
     1
 10
0.0
 20
0.0
 30
0.0
  3
*D15
  1

  0
LINE
  5
B239
330
9856
100
AcDbEntity
  8
寸法引出
 48
25.0
370
    -2
100
AcDbLine
 10
1402.471293828186
 20
3071.911041539226
 30
0.0
 11
1402.471293828186
 21
2868.533284157462
 31
0.0
  0
LINE
  5
B23A
330
9856
100
AcDbEntity
  8
寸法引出
 48
25.0
370
    -2
100
AcDbLine
 10
1622.471293828186
 20
3071.911041539226
 30
0.0
 11
1622.471293828186
 21
2868.533284157462
 31
0.0
  0
LINE
  5
B23B
330
9856
100
AcDbEntity
  8
寸法引出
 48
25.0
370
    -2
100
AcDbLine
 10
1432.471293828186
 20
2878.533284157462
 30
0.0
 11
1592.471293828186
 21
2878.533284157462
 31
0.0
  0
SOLID
  5
B23C
330
9856
100
AcDbEntity
  8
寸法引出
 48
25.0
100
AcDbTrace
 10
1432.471293828186
 20
2883.533284157462
 30
0.0
 11
1432.471293828186
 21
2873.533284157462
 31
0.0
 12
1402.471293828186
 22
2878.533284157462
 32
0.0
 13
1402.471293828186
 23
2878.533284157462
 33
0.0
  0
SOLID
  5
B23D
330
9856
100
AcDbEntity
  8
寸法引出
 48
25.0
100
AcDbTrace
 10
1592.471293828186
 20
2883.533284157462
 30
0.0
 11
1592.471293828186
 21
2873.533284157462
 31
0.0
 12
1622.471293828186
 22
2878.533284157462
 32
0.0
 13
1622.471293828186
 23
2878.533284157462
 33
0.0
  0
MTEXT
  5
B23E
330
9856
100
AcDbEntity
  8
寸法引出
 48
25.0
100
AcDbMText
 10
1512.471293828186
 20
2918.533284157462
 30
0.0
 40
40.0
 41
0.0
 71
     5
 72
     1
  1
\A1;220
  7
SANWA
 73
     1
 44
1.0
  0
POINT
  5
B23F
330
9856
100
AcDbEntity
  8
DEFPOINTS
 62
     0
 48
25.0
100
AcDbPoint
 10
1402.471293828186
 20
3091.911041539226
 30
0.0
  0
POINT
  5
B240
330
9856
100
AcDbEntity
  8
DEFPOINTS
 62
     0
 48
25.0
100
AcDbPoint
 10
1622.471293828186
 20
3091.911041539226
 30
0.0
  0
POINT
  5
B241
330
9856
100
AcDbEntity
  8
DEFPOINTS
 62
     0
 48
25.0
100
AcDbPoint
 10
1622.471293828186
 20
2878.533284157462
 30
0.0
  0
ENDBLK
  5
9861
330
9856
100
AcDbEntity
  8
0
 48
25.0
100
AcDbBlockEnd
  0
BLOCK
  5
98A1
330
9896
100
AcDbEntity
  8
0
 48
25.0
100
AcDbBlockBegin
  2
*D16
 70
     1
 10
0.0
 20
0.0
 30
0.0
  3
*D16
  1

  0
LINE
  5
B27B
330
9896
100
AcDbEntity
  8
寸法引出
 48
25.0
370
    -2
100
AcDbLine
 10
1712.471293828186
 20
3901.911041539227
 30
0.0
 11
1712.471293828186
 21
4028.157138493049
 31
0.0
  0
LINE
  5
B27C
330
9896
100
AcDbEntity
  8
寸法引出
 48
25.0
370
    -2
100
AcDbLine
 10
1632.471293828186
 20
4018.157138493049
 30
0.0
 11
1602.471293828186
 21
4018.157138493049
 31
0.0
  0
LINE
  5
B27D
330
9896
100
AcDbEntity
  8
寸法引出
 48
25.0
370
    -2
100
AcDbLine
 10
1742.471293828186
 20
4018.157138493049
 30
0.0
 11
1772.471293828186
 21
4018.157138493049
 31
0.0
  0
LINE
  5
B27E
330
9896
100
AcDbEntity
  8
寸法引出
 48
25.0
370
    -2
100
AcDbLine
 10
1662.471293828186
 20
4018.157138493049
 30
0.0
 11
1712.471293828186
 21
4018.157138493049
 31
0.0
  0
SOLID
  5
B27F
330
9896
100
AcDbEntity
  8
寸法引出
 48
25.0
100
AcDbTrace
 10
1632.471293828186
 20
4023.157138493049
 30
0.0
 11
1632.471293828186
 21
4013.157138493048
 31
0.0
 12
1662.471293828186
 22
4018.157138493049
 32
0.0
 13
1662.471293828186
 23
4018.157138493049
 33
0.0
  0
SOLID
  5
B280
330
9896
100
AcDbEntity
  8
寸法引出
 48
25.0
100
AcDbTrace
 10
1742.471293828186
 20
4023.157138493049
 30
0.0
 11
1742.471293828186
 21
4013.157138493048
 31
0.0
 12
1712.471293828186
 22
4018.157138493049
 32
0.0
 13
1712.471293828186
 23
4018.157138493049
 33
0.0
  0
MTEXT
  5
B281
330
9896
100
AcDbEntity
  8
寸法引出
 48
25.0
100
AcDbMText
 10
1687.471293828186
 20
4058.157138493049
 30
0.0
 40
40.0
 41
0.0
 71
     5
 72
     1
  1
\A1;50
  7
SANWA
 73
     1
 44
1.0
  0
POINT
  5
B282
330
9896
100
AcDbEntity
  8
DEFPOINTS
 62
     0
 48
25.0
100
AcDbPoint
 10
1662.471293828186
 20
3881.911041539226
 30
0.0
  0
POINT
  5
B283
330
9896
100
AcDbEntity
  8
DEFPOINTS
 62
     0
 48
25.0
100
AcDbPoint
 10
1712.471293828186
 20
3881.911041539226
 30
0.0
  0
POINT
  5
B284
330
9896
100
AcDbEntity
  8
DEFPOINTS
 62
     0
 48
25.0
100
AcDbPoint
 10
1712.471293828186
 20
4018.157138493049
 30
0.0
  0
ENDBLK
  5
98A2
330
9896
100
AcDbEntity
  8
0
 48
25.0
100
AcDbBlockEnd
  0
BLOCK
  5
98DC
330
98D3
100
AcDbEntity
  8
0
 48
25.0
100
AcDbBlockBegin
  2
*D17
 70
     1
 10
0.0
 20
0.0
 30
0.0
  3
*D17
  1

  0
LINE
  5
B28E
330
98D3
100
AcDbEntity
  8
寸法引出
 48
25.0
370
    -2
100
AcDbLine
 10
3574.559327814689
 20
3901.911041539227
 30
0.0
 11
3574.559327814689
 21
3993.656336629143
 31
0.0
  0
LINE
  5
B28F
330
98D3
100
AcDbEntity
  8
寸法引出
 48
25.0
370
    -2
100
AcDbLine
 10
2844.559327814689
 20
3983.656336629143
 30
0.0
 11
3544.55932781469
 21
3983.656336629143
 31
0.0
  0
SOLID
  5
B290
330
98D3
100
AcDbEntity
  8
寸法引出
 48
25.0
100
AcDbTrace
 10
2844.559327814689
 20
3988.656336629143
 30
0.0
 11
2844.559327814689
 21
3978.656336629143
 31
0.0
 12
2814.55932781469
 22
3983.656336629143
 32
0.0
 13
2814.55932781469
 23
3983.656336629143
 33
0.0
  0
SOLID
  5
B291
330
98D3
100
AcDbEntity
  8
寸法引出
 48
25.0
100
AcDbTrace
 10
3544.55932781469
 20
3988.656336629143
 30
0.0
 11
3544.55932781469
 21
3978.656336629143
 31
0.0
 12
3574.559327814689
 22
3983.656336629143
 32
0.0
 13
3574.559327814689
 23
3983.656336629143
 33
0.0
  0
MTEXT
  5
B292
330
98D3
100
AcDbEntity
  8
寸法引出
 48
25.0
100
AcDbMText
 10
3194.559327814689
 20
4023.656336629144
 30
0.0
 40
40.0
 41
0.0
 71
     5
 72
     1
  1
\A1;760
  7
SANWA
 73
     1
 44
1.0
  0
POINT
  5
B293
330
98D3
100
AcDbEntity
  8
DEFPOINTS
 62
     0
 48
25.0
100
AcDbPoint
 10
2814.55932781469
 20
3881.911041539226
 30
0.0
  0
POINT
  5
B294
330
98D3
100
AcDbEntity
  8
DEFPOINTS
 62
     0
 48
25.0
100
AcDbPoint
 10
3574.559327814689
 20
3881.911041539226
 30
0.0
  0
POINT
  5
B295
330
98D3
100
AcDbEntity
  8
DEFPOINTS
 62
     0
 48
25.0
100
AcDbPoint
 10
3574.559327814689
 20
3983.656336629143
 30
0.0
  0
ENDBLK
  5
98DD
330
98D3
100
AcDbEntity
  8
0
 48
25.0
100
AcDbBlockEnd
  0
BLOCK
  5
98E7
330
98DE
100
AcDbEntity
  8
0
 48
25.0
100
AcDbBlockBegin
  2
*D18
 70
     1
 10
0.0
 20
0.0
 30
0.0
  3
*D18
  1

  0
LINE
  5
B2B3
330
98DE
100
AcDbEntity
  8
寸法引出
 48
25.0
370
    -2
100
AcDbLine
 10
3814.55932781469
 20
3901.911041539227
 30
0.0
 11
3814.55932781469
 21
3993.656336629143
 31
0.0
  0
LINE
  5
B2B4
330
98DE
100
AcDbEntity
  8
寸法引出
 48
25.0
370
    -2
100
AcDbLine
 10
3604.559327814689
 20
3983.656336629143
 30
0.0
 11
3784.55932781469
 21
3983.656336629143
 31
0.0
  0
SOLID
  5
B2B5
330
98DE
100
AcDbEntity
  8
寸法引出
 48
25.0
100
AcDbTrace
 10
3604.559327814689
 20
3988.656336629143
 30
0.0
 11
3604.559327814689
 21
3978.656336629143
 31
0.0
 12
3574.559327814689
 22
3983.656336629143
 32
0.0
 13
3574.559327814689
 23
3983.656336629143
 33
0.0
  0
SOLID
  5
B2B6
330
98DE
100
AcDbEntity
  8
寸法引出
 48
25.0
100
AcDbTrace
 10
3784.55932781469
 20
3988.656336629143
 30
0.0
 11
3784.55932781469
 21
3978.656336629143
 31
0.0
 12
3814.55932781469
 22
3983.656336629143
 32
0.0
 13
3814.55932781469
 23
3983.656336629143
 33
0.0
  0
MTEXT
  5
B2B7
330
98DE
100
AcDbEntity
  8
寸法引出
 48
25.0
100
AcDbMText
 10
3694.55932781469
 20
4023.656336629144
 30
0.0
 40
40.0
 41
0.0
 71
     5
 72
     1
  1
\A1;240
  7
SANWA
 73
     1
 44
1.0
  0
POINT
  5
B2B8
330
98DE
100
AcDbEntity
  8
DEFPOINTS
 62
     0
 48
25.0
100
AcDbPoint
 10
3574.559327814689
 20
3881.911041539226
 30
0.0
  0
POINT
  5
B2B9
330
98DE
100
AcDbEntity
  8
DEFPOINTS
 62
     0
 48
25.0
100
AcDbPoint
 10
3814.55932781469
 20
3881.911041539226
 30
0.0
  0
POINT
  5
B2BA
330
98DE
100
AcDbEntity
  8
DEFPOINTS
 62
     0
 48
25.0
100
AcDbPoint
 10
3814.55932781469
 20
3983.656336629143
 30
0.0
  0
ENDBLK
  5
98E8
330
98DE
100
AcDbEntity
  8
0
 48
25.0
100
AcDbBlockEnd
  0
BLOCK
  5
98F3
330
98E9
100
AcDbEntity
  8
0
 48
25.0
100
AcDbBlockBegin
  2
*D19
 70
     1
 10
0.0
 20
0.0
 30
0.0
  3
*D19
  1

  0
LINE
  5
B1F8
330
98E9
100
AcDbEntity
  8
寸法引出
 48
25.0
370
    -2
100
AcDbLine
 10
6270.590295574077
 20
2638.783782090883
 30
0.0
 11
6144.146573431672
 21
2646.009137641877
 31
0.0
  0
LINE
  5
B1F9
330
98E9
100
AcDbEntity
  8
寸法引出
 48
25.0
370
    -2
100
AcDbLine
 10
6238.585363081972
 20
2078.697463479033
 30
0.0
 11
6112.141640939566
 21
2085.922819030027
 31
0.0
  0
LINE
  5
B1FA
330
98E9
100
AcDbEntity
  8
寸法引出
 48
25.0
370
    -2
100
AcDbLine
 10
6152.418793059756
 20
2615.487499703773
 30
0.0
 11
6123.836847999962
 21
2115.303461157361
 31
0.0
  0
SOLID
  5
B1FB
330
98E9
100
AcDbEntity
  8
寸法引出
 48
25.0
100
AcDbTrace
 10
6147.426936387637
 20
2615.772748656466
 30
0.0
 11
6157.410649731876
 21
2615.202250751081
 31
0.0
 12
6154.130286775911
 22
2645.438639736493
 32
0.0
 13
6154.130286775911
 23
2645.438639736493
 33
0.0
  0
SOLID
  5
B1FC
330
98E9
100
AcDbEntity
  8
寸法引出
 48
25.0
100
AcDbTrace
 10
6118.844991327842
 20
2115.588710110054
 30
0.0
 11
6128.828704672081
 21
2115.018212204669
 31
0.0
 12
6122.125354283806
 22
2085.352321124642
 32
0.0
 13
6122.125354283806
 23
2085.352321124642
 33
0.0
  0
MTEXT
  5
B1FD
330
98E9
100
AcDbEntity
  8
寸法引出
 48
25.0
100
AcDbMText
 10
6098.192967152899
 20
2367.677472052108
 30
0.0
 40
40.0
 41
0.0
 71
     5
 72
     1
  1
\A1;561
  7
SANWA
 11
0.0570497905385127
 21
0.9983713344239768
 31
0.0
 73
     1
 44
1.0
  0
POINT
  5
B1FE
330
98E9
100
AcDbEntity
  8
DEFPOINTS
 62
     0
 48
25.0
100
AcDbPoint
 10
6290.557722262557
 20
2637.642786280113
 30
0.0
  0
POINT
  5
B1FF
330
98E9
100
AcDbEntity
  8
DEFPOINTS
 62
     0
 48
25.0
100
AcDbPoint
 10
6258.552789770451
 20
2077.556467668262
 30
0.0
  0
POINT
  5
B200
330
98E9
100
AcDbEntity
  8
DEFPOINTS
 62
     0
 48
25.0
100
AcDbPoint
 10
6122.125354283806
 20
2085.352321124642
 30
0.0
  0
ENDBLK
  5
98F4
330
98E9
100
AcDbEntity
  8
0
 48
25.0
100
AcDbBlockEnd
  0
BLOCK
  5
98FF
330
98F5
100
AcDbEntity
  8
0
 48
25.0
100
AcDbBlockBegin
  2
*D20
 70
     1
 10
0.0
 20
0.0
 30
0.0
  3
*D20
  1

  0
LINE
  5
B158
330
98F5
100
AcDbEntity
  8
寸法引出
 48
25.0
370
    -2
100
AcDbLine
 10
6671.219741013172
 20
3899.92496040016
 30
0.0
 11
6873.255372851854
 21
3899.92496040016
 31
0.0
  0
LINE
  5
B159
330
98F5
100
AcDbEntity
  8
寸法引出
 48
25.0
370
    -2
100
AcDbLine
 10
6671.219741013172
 20
1959.92496040016
 30
0.0
 11
6873.255372851852
 21
1959.92496040016
 31
0.0
  0
LINE
  5
B15A
330
98F5
100
AcDbEntity
  8
寸法引出
 48
25.0
370
    -2
100
AcDbLine
 10
6863.255372851853
 20
3869.92496040016
 30
0.0
 11
6863.255372851853
 21
1989.92496040016
 31
0.0
  0
SOLID
  5
B15B
330
98F5
100
AcDbEntity
  8
寸法引出
 48
25.0
100
AcDbTrace
 10
6858.255372851854
 20
3869.92496040016
 30
0.0
 11
6868.255372851852
 21
3869.92496040016
 31
0.0
 12
6863.255372851853
 22
3899.92496040016
 32
0.0
 13
6863.255372851853
 23
3899.92496040016
 33
0.0
  0
SOLID
  5
B15C
330
98F5
100
AcDbEntity
  8
寸法引出
 48
25.0
100
AcDbTrace
 10
6858.255372851852
 20
1989.92496040016
 30
0.0
 11
6868.255372851852
 21
1989.92496040016
 31
0.0
 12
6863.255372851853
 22
1959.92496040016
 32
0.0
 13
6863.255372851853
 23
1959.92496040016
 33
0.0
  0
MTEXT
  5
B15D
330
98F5
100
AcDbEntity
  8
寸法引出
 48
25.0
100
AcDbMText
 10
6823.255372851853
 20
2929.924960400161
 30
0.0
 40
40.0
 41
0.0
 71
     5
 72
     1
  1
\A1;1940
  7
SANWA
 11
0.0000000000000001
 21
1.0
 31
0.0
 73
     1
 44
1.0
  0
POINT
  5
B15E
330
98F5
100
AcDbEntity
  8
DEFPOINTS
 62
     0
 48
25.0
100
AcDbPoint
 10
6651.219741013171
 20
3899.92496040016
 30
0.0
  0
POINT
  5
B15F
330
98F5
100
AcDbEntity
  8
DEFPOINTS
 62
     0
 48
25.0
100
AcDbPoint
 10
6651.219741013171
 20
1959.92496040016
 30
0.0
  0
POINT
  5
B160
330
98F5
100
AcDbEntity
  8
DEFPOINTS
 62
     0
 48
25.0
100
AcDbPoint
 10
6863.255372851853
 20
1959.92496040016
 30
0.0
  0
ENDBLK
  5
9900
330
98F5
100
AcDbEntity
  8
0
 48
25.0
100
AcDbBlockEnd
  0
BLOCK
  5
9946
330
993C
100
AcDbEntity
  8
0
 48
25.0
100
AcDbBlockBegin
  2
*D21
 70
     1
 10
0.0
 20
0.0
 30
0.0
  3
*D21
  1

  0
LINE
  5
B1EF
330
993C
100
AcDbEntity
  8
寸法引出
 48
25.0
370
    -2
100
AcDbLine
 10
5361.308962110992
 20
2334.558723180144
 30
0.0
 11
5361.308962110992
 21
2420.827917149555
 31
0.0
  0
LINE
  5
B1F0
330
993C
100
AcDbEntity
  8
寸法引出
 48
25.0
370
    -2
100
AcDbLine
 10
5731.308962110992
 20
2334.558723180144
 30
0.0
 11
5731.308962110992
 21
2420.827917149555
 31
0.0
  0
LINE
  5
B1F1
330
993C
100
AcDbEntity
  8
寸法引出
 48
25.0
370
    -2
100
AcDbLine
 10
5391.308962110992
 20
2410.827917149554
 30
0.0
 11
5701.308962110992
 21
2410.827917149554
 31
0.0
  0
SOLID
  5
B1F2
330
993C
100
AcDbEntity
  8
寸法引出
 48
25.0
100
AcDbTrace
 10
5391.308962110992
 20
2415.827917149554
 30
0.0
 11
5391.308962110992
 21
2405.827917149554
 31
0.0
 12
5361.308962110992
 22
2410.827917149554
 32
0.0
 13
5361.308962110992
 23
2410.827917149554
 33
0.0
  0
SOLID
  5
B1F3
330
993C
100
AcDbEntity
  8
寸法引出
 48
25.0
100
AcDbTrace
 10
5701.308962110992
 20
2415.827917149554
 30
0.0
 11
5701.308962110992
 21
2405.827917149554
 31
0.0
 12
5731.308962110992
 22
2410.827917149554
 32
0.0
 13
5731.308962110992
 23
2410.827917149554
 33
0.0
  0
MTEXT
  5
B1F4
330
993C
100
AcDbEntity
  8
寸法引出
 48
25.0
100
AcDbMText
 10
5546.308962110992
 20
2450.827917149554
 30
0.0
 40
40.0
 41
0.0
 71
     5
 72
     1
  1
\A1;370
  7
SANWA
 73
     1
 44
1.0
  0
POINT
  5
B1F5
330
993C
100
AcDbEntity
  8
DEFPOINTS
 62
     0
 48
25.0
100
AcDbPoint
 10
5361.308962110992
 20
2314.558723180144
 30
0.0
  0
POINT
  5
B1F6
330
993C
100
AcDbEntity
  8
DEFPOINTS
 62
     0
 48
25.0
100
AcDbPoint
 10
5731.308962110992
 20
2314.558723180144
 30
0.0
  0
POINT
  5
B1F7
330
993C
100
AcDbEntity
  8
DEFPOINTS
 62
     0
 48
25.0
100
AcDbPoint
 10
5731.308962110992
 20
2410.827917149554
 30
0.0
  0
ENDBLK
  5
9947
330
993C
100
AcDbEntity
  8
0
 48
25.0
100
AcDbBlockEnd
  0
BLOCK
  5
9952
330
9948
100
AcDbEntity
  8
0
 48
25.0
100
AcDbBlockBegin
  2
*D22
 70
     1
 10
0.0
 20
0.0
 30
0.0
  3
*D22
  1

  0
LINE
  5
B2BB
330
9948
100
AcDbEntity
  8
寸法引出
 48
25.0
370
    -2
100
AcDbLine
 10
6033.180683735534
 20
3861.911041539226
 30
0.0
 11
6145.067040324588
 21
3861.911041539226
 31
0.0
  0
LINE
  5
B2BC
330
9948
100
AcDbEntity
  8
寸法引出
 48
25.0
370
    -2
100
AcDbLine
 10
6033.180683735534
 20
3211.911041539226
 30
0.0
 11
6145.067040324588
 21
3211.911041539226
 31
0.0
  0
LINE
  5
B2BD
330
9948
100
AcDbEntity
  8
寸法引出
 48
25.0
370
    -2
100
AcDbLine
 10
6135.067040324588
 20
3831.911041539227
 30
0.0
 11
6135.067040324588
 21
3241.911041539227
 31
0.0
  0
SOLID
  5
B2BE
330
9948
100
AcDbEntity
  8
寸法引出
 48
25.0
100
AcDbTrace
 10
6130.067040324587
 20
3831.911041539227
 30
0.0
 11
6140.067040324588
 21
3831.911041539227
 31
0.0
 12
6135.067040324588
 22
3861.911041539226
 32
0.0
 13
6135.067040324588
 23
3861.911041539226
 33
0.0
  0
SOLID
  5
B2BF
330
9948
100
AcDbEntity
  8
寸法引出
 48
25.0
100
AcDbTrace
 10
6130.067040324587
 20
3241.911041539227
 30
0.0
 11
6140.067040324588
 21
3241.911041539227
 31
0.0
 12
6135.067040324588
 22
3211.911041539226
 32
0.0
 13
6135.067040324588
 23
3211.911041539226
 33
0.0
  0
MTEXT
  5
B2C0
330
9948
100
AcDbEntity
  8
寸法引出
 48
25.0
100
AcDbMText
 10
6095.067040324586
 20
3536.911041539227
 30
0.0
 40
40.0
 41
0.0
 71
     5
 72
     1
  1
\A1;650
  7
SANWA
 11
0.0000000000000001
 21
1.0
 31
0.0
 73
     1
 44
1.0
  0
POINT
  5
B2C1
330
9948
100
AcDbEntity
  8
DEFPOINTS
 62
     0
 48
25.0
100
AcDbPoint
 10
6013.180683735534
 20
3861.911041539226
 30
0.0
  0
POINT
  5
B2C2
330
9948
100
AcDbEntity
  8
DEFPOINTS
 62
     0
 48
25.0
100
AcDbPoint
 10
6013.180683735534
 20
3211.911041539226
 30
0.0
  0
POINT
  5
B2C3
330
9948
100
AcDbEntity
  8
DEFPOINTS
 62
     0
 48
25.0
100
AcDbPoint
 10
6135.067040324588
 20
3211.911041539226
 30
0.0
  0
ENDBLK
  5
9953
330
9948
100
AcDbEntity
  8
0
 48
25.0
100
AcDbBlockEnd
  0
BLOCK
  5
995F
330
9954
100
AcDbEntity
  8
0
 48
25.0
100
AcDbBlockBegin
  2
*D23
 70
     1
 10
0.0
 20
0.0
 30
0.0
  3
*D23
  1

  0
LINE
  5
B2D7
330
9954
100
AcDbEntity
  8
寸法引出
 48
25.0
370
    -2
100
AcDbLine
 10
5913.180683735534
 20
3091.911041539227
 30
0.0
 11
5913.180683735534
 21
2980.024684950175
 31
0.0
  0
LINE
  5
B2D8
330
9954
100
AcDbEntity
  8
寸法引出
 48
25.0
370
    -2
100
AcDbLine
 10
6033.180683735534
 20
3211.911041539226
 30
0.0
 11
6145.067040324586
 21
3211.911041539226
 31
0.0
  0
ARC
  5
B2D9
330
9954
100
AcDbEntity
  8
寸法引出
 48
25.0
370
    -2
100
AcDbCircle
 10
5913.180683735534
 20
3211.911041539226
 30
0.0
 40
221.8863565890517
100
AcDbArc
 50
277.7525510609594
 51
352.2474489390405
  0
SOLID
  5
B2DA
330
9954
100
AcDbEntity
  8
寸法引出
 48
25.0
100
AcDbTrace
 10
5943.450065295738
 20
2987.064188376473
 30
0.0
 11
5942.77404355963
 21
2997.041311940522
 31
0.0
 12
5913.180683735534
 22
2990.024684950175
 32
0.0
 13
5913.180683735534
 23
2990.024684950175
 33
0.0
  0
SOLID
  5
B2DB
330
9954
100
AcDbEntity
  8
寸法引出
 48
25.0
100
AcDbTrace
 10
6128.050413334238
 20
3182.317681715132
 30
0.0
 11
6138.027536898288
 21
3181.641659979023
 31
0.0
 12
6135.067040324585
 22
3211.911041539226
 32
0.0
 13
6135.067040324585
 23
3211.911041539226
 33
0.0
  0
MTEXT
  5
B2DC
330
9954
100
AcDbEntity
  8
寸法引出
 48
25.0
100
AcDbMText
 10
6041.793759884967
 20
3083.297965389792
 30
0.0
 40
40.0
 41
0.0
 71
     5
 72
     1
  1
\A1;157
  7
SANWA
 11
0.7071067811865476
 21
0.7071067811865475
 31
0.0
 73
     1
 44
1.0
  0
POINT
  5
B2DD
330
9954
100
AcDbEntity
  8
DEFPOINTS
 62
     0
 48
25.0
100
AcDbPoint
 10
5913.180683735534
 20
3211.911041539226
 30
0.0
  0
POINT
  5
B2DE
330
9954
100
AcDbEntity
  8
DEFPOINTS
 62
     0
 48
25.0
100
AcDbPoint
 10
5913.180683735534
 20
3111.911041539226
 30
0.0
  0
POINT
  5
B2DF
330
9954
100
AcDbEntity
  8
DEFPOINTS
 62
     0
 48
25.0
100
AcDbPoint
 10
6013.180683735534
 20
3211.911041539227
 30
0.0
  0
POINT
  5
B2E0
330
9954
100
AcDbEntity
  8
DEFPOINTS
 62
     0
 48
25.0
100
AcDbPoint
 10
6024.123862030061
 20
3019.751819979934
 30
0.0
  0
ENDBLK
  5
9960
330
9954
100
AcDbEntity
  8
0
 48
25.0
100
AcDbBlockEnd
  0
BLOCK
  5
99D9
330
99D0
100
AcDbEntity
  8
0
 48
25.0
100
AcDbBlockBegin
  2
*D24
 70
     1
 10
0.0
 20
0.0
 30
0.0
  3
*D24
  1

  0
LINE
  5
B2EA
330
99D0
100
AcDbEntity
  8
寸法引出
 48
25.0
370
    -2
100
AcDbLine
 10
4694.559327814689
 20
3901.911041539227
 30
0.0
 11
4694.559327814689
 21
3993.656336629143
 31
0.0
  0
LINE
  5
B2EB
330
99D0
100
AcDbEntity
  8
寸法引出
 48
25.0
370
    -2
100
AcDbLine
 10
4604.55932781469
 20
3983.656336629143
 30
0.0
 11
4664.559327814689
 21
3983.656336629143
 31
0.0
  0
SOLID
  5
B2EC
330
99D0
100
AcDbEntity
  8
寸法引出
 48
25.0
100
AcDbTrace
 10
4604.55932781469
 20
3988.656336629143
 30
0.0
 11
4604.55932781469
 21
3978.656336629143
 31
0.0
 12
4574.559327814689
 22
3983.656336629143
 32
0.0
 13
4574.559327814689
 23
3983.656336629143
 33
0.0
  0
SOLID
  5
B2ED
330
99D0
100
AcDbEntity
  8
寸法引出
 48
25.0
100
AcDbTrace
 10
4664.559327814689
 20
3988.656336629143
 30
0.0
 11
4664.559327814689
 21
3978.656336629143
 31
0.0
 12
4694.559327814689
 22
3983.656336629143
 32
0.0
 13
4694.559327814689
 23
3983.656336629143
 33
0.0
  0
MTEXT
  5
B2EE
330
99D0
100
AcDbEntity
  8
寸法引出
 48
25.0
100
AcDbMText
 10
4634.55932781469
 20
4023.656336629144
 30
0.0
 40
40.0
 41
0.0
 71
     5
 72
     1
  1
\A1;120
  7
SANWA
 73
     1
 44
1.0
  0
POINT
  5
B2EF
330
99D0
100
AcDbEntity
  8
DEFPOINTS
 62
     0
 48
25.0
100
AcDbPoint
 10
4574.559327814689
 20
3881.911041539226
 30
0.0
  0
POINT
  5
B2F0
330
99D0
100
AcDbEntity
  8
DEFPOINTS
 62
     0
 48
25.0
100
AcDbPoint
 10
4694.559327814689
 20
3881.911041539226
 30
0.0
  0
POINT
  5
B2F1
330
99D0
100
AcDbEntity
  8
DEFPOINTS
 62
     0
 48
25.0
100
AcDbPoint
 10
4694.559327814689
 20
3983.656336629143
 30
0.0
  0
ENDBLK
  5
99DA
330
99D0
100
AcDbEntity
  8
0
 48
25.0
100
AcDbBlockEnd
  0
BLOCK
  5
99E5
330
99DB
100
AcDbEntity
  8
0
 48
25.0
100
AcDbBlockBegin
  2
*D25
 70
     1
 10
0.0
 20
0.0
 30
0.0
  3
*D25
  1

  0
LINE
  5
B2C4
330
99DB
100
AcDbEntity
  8
寸法引出
 48
25.0
370
    -2
100
AcDbLine
 10
5633.180683735535
 20
3211.911041539226
 30
0.0
 11
5521.746818842938
 21
3211.911041539226
 31
0.0
  0
LINE
  5
B2C5
330
99DB
100
AcDbEntity
  8
寸法引出
 48
25.0
370
    -2
100
AcDbLine
 10
5633.180683735535
 20
3861.911041539226
 30
0.0
 11
5521.746818842938
 21
3861.911041539226
 31
0.0
  0
LINE
  5
B2C6
330
99DB
100
AcDbEntity
  8
寸法引出
 48
25.0
370
    -2
100
AcDbLine
 10
5531.746818842937
 20
3241.911041539227
 30
0.0
 11
5531.746818842937
 21
3831.911041539227
 31
0.0
  0
SOLID
  5
B2C7
330
99DB
100
AcDbEntity
  8
寸法引出
 48
25.0
100
AcDbTrace
 10
5526.746818842937
 20
3241.911041539227
 30
0.0
 11
5536.746818842938
 21
3241.911041539227
 31
0.0
 12
5531.746818842937
 22
3211.911041539226
 32
0.0
 13
5531.746818842937
 23
3211.911041539226
 33
0.0
  0
SOLID
  5
B2C8
330
99DB
100
AcDbEntity
  8
寸法引出
 48
25.0
100
AcDbTrace
 10
5526.746818842937
 20
3831.911041539227
 30
0.0
 11
5536.746818842938
 21
3831.911041539227
 31
0.0
 12
5531.746818842937
 22
3861.911041539226
 32
0.0
 13
5531.746818842937
 23
3861.911041539226
 33
0.0
  0
MTEXT
  5
B2C9
330
99DB
100
AcDbEntity
  8
寸法引出
 48
25.0
100
AcDbMText
 10
5491.746818842937
 20
3536.911041539227
 30
0.0
 40
40.0
 41
0.0
 71
     5
 72
     1
  1
\A1;650
  7
SANWA
 11
0.0000000000000001
 21
1.0
 31
0.0
 73
     1
 44
1.0
  0
POINT
  5
B2CA
330
99DB
100
AcDbEntity
  8
DEFPOINTS
 62
     0
 48
25.0
100
AcDbPoint
 10
5653.180683735534
 20
3211.911041539226
 30
0.0
  0
POINT
  5
B2CB
330
99DB
100
AcDbEntity
  8
DEFPOINTS
 62
     0
 48
25.0
100
AcDbPoint
 10
5653.180683735534
 20
3861.911041539226
 30
0.0
  0
POINT
  5
B2CC
330
99DB
100
AcDbEntity
  8
DEFPOINTS
 62
     0
 48
25.0
100
AcDbPoint
 10
5531.746818842937
 20
3861.911041539226
 30
0.0
  0
ENDBLK
  5
99E6
330
99DB
100
AcDbEntity
  8
0
 48
25.0
100
AcDbBlockEnd
  0
BLOCK
  5
99F2
330
99E7
100
AcDbEntity
  8
0
 48
25.0
100
AcDbBlockBegin
  2
*D26
 70
     1
 10
0.0
 20
0.0
 30
0.0
  3
*D26
  1

  0
LINE
  5
B2CD
330
99E7
100
AcDbEntity
  8
寸法引出
 48
25.0
370
    -2
100
AcDbLine
 10
5633.180683735535
 20
3211.911041539227
 30
0.0
 11
5521.746818842938
 21
3211.911041539227
 31
0.0
  0
LINE
  5
B2CE
330
99E7
100
AcDbEntity
  8
寸法引出
 48
25.0
370
    -2
100
AcDbLine
 10
5753.180683735535
 20
3091.911041539227
 30
0.0
 11
5753.180683735536
 21
2980.47717664663
 31
0.0
  0
ARC
  5
B2CF
330
99E7
100
AcDbEntity
  8
寸法引出
 48
25.0
370
    -2
100
AcDbCircle
 10
5753.180683735533
 20
3211.911041539227
 30
0.0
 40
221.4338648925963
100
AcDbArc
 50
187.7684173933967
 51
262.2315826066032
  0
SOLID
  5
B2D0
330
99E7
100
AcDbEntity
  8
寸法引出
 48
25.0
100
AcDbTrace
 10
5528.790513392255
 20
3181.641250359203
 30
0.0
 11
5538.767543258787
 21
3182.318653520065
 31
0.0
 12
5531.746818842937
 22
3211.911041539227
 32
0.0
 13
5531.746818842937
 23
3211.911041539227
 33
0.0
  0
SOLID
  5
B2D1
330
99E7
100
AcDbEntity
  8
寸法引出
 48
25.0
100
AcDbTrace
 10
5723.588295716371
 20
2997.497901062479
 30
0.0
 11
5722.91089255551
 21
2987.520871195947
 31
0.0
 12
5753.180683735535
 22
2990.477176646629
 32
0.0
 13
5753.180683735535
 23
2990.477176646629
 33
0.0
  0
MTEXT
  5
B2D2
330
99E7
100
AcDbEntity
  8
寸法引出
 48
25.0
100
AcDbMText
 10
5624.887567533093
 20
3083.617925336788
 30
0.0
 40
40.0
 41
0.0
 71
     5
 72
     1
  1
\A1;157
  7
SANWA
 11
0.7071067811865476
 21
-0.7071067811865475
 31
0.0
 73
     1
 44
1.0
  0
POINT
  5
B2D3
330
99E7
100
AcDbEntity
  8
DEFPOINTS
 62
     0
 48
25.0
100
AcDbPoint
 10
5753.180683735533
 20
3211.911041539227
 30
0.0
  0
POINT
  5
B2D4
330
99E7
100
AcDbEntity
  8
DEFPOINTS
 62
     0
 48
25.0
100
AcDbPoint
 10
5653.180683735534
 20
3211.911041539227
 30
0.0
  0
POINT
  5
B2D5
330
99E7
100
AcDbEntity
  8
DEFPOINTS
 62
     0
 48
25.0
100
AcDbPoint
 10
5753.180683735535
 20
3111.911041539226
 30
0.0
  0
POINT
  5
B2D6
330
99E7
100
AcDbEntity
  8
DEFPOINTS
 62
     0
 48
25.0
100
AcDbPoint
 10
5561.413331480373
 20
3101.194109092929
 30
0.0
  0
ENDBLK
  5
99F3
330
99E7
100
AcDbEntity
  8
0
 48
25.0
100
AcDbBlockEnd
  0
BLOCK
  5
99FE
330
99F4
100
AcDbEntity
  8
0
 48
25.0
100
AcDbBlockBegin
  2
*D27
 70
     1
 10
0.0
 20
0.0
 30
0.0
  3
*D27
  1

  0
LINE
  5
B2E1
330
99F4
100
AcDbEntity
  8
寸法引出
 48
25.0
370
    -2
100
AcDbLine
 10
5753.180683735535
 20
3091.911041539226
 30
0.0
 11
5753.180683735535
 21
2980.47717664663
 31
0.0
  0
LINE
  5
B2E2
330
99F4
100
AcDbEntity
  8
寸法引出
 48
25.0
370
    -2
100
AcDbLine
 10
5913.180683735534
 20
3091.911041539226
 30
0.0
 11
5913.180683735534
 21
2980.47717664663
 31
0.0
  0
LINE
  5
B2E3
330
99F4
100
AcDbEntity
  8
寸法引出
 48
25.0
370
    -2
100
AcDbLine
 10
5783.180683735534
 20
2990.47717664663
 30
0.0
 11
5883.180683735535
 21
2990.47717664663
 31
0.0
  0
SOLID
  5
B2E4
330
99F4
100
AcDbEntity
  8
寸法引出
 48
25.0
100
AcDbTrace
 10
5783.180683735534
 20
2995.477176646629
 30
0.0
 11
5783.180683735534
 21
2985.477176646629
 31
0.0
 12
5753.180683735535
 22
2990.47717664663
 32
0.0
 13
5753.180683735535
 23
2990.47717664663
 33
0.0
  0
SOLID
  5
B2E5
330
99F4
100
AcDbEntity
  8
寸法引出
 48
25.0
100
AcDbTrace
 10
5883.180683735535
 20
2995.477176646629
 30
0.0
 11
5883.180683735535
 21
2985.477176646629
 31
0.0
 12
5913.180683735534
 22
2990.47717664663
 32
0.0
 13
5913.180683735534
 23
2990.47717664663
 33
0.0
  0
MTEXT
  5
B2E6
330
99F4
100
AcDbEntity
  8
寸法引出
 48
25.0
100
AcDbMText
 10
5833.180683735534
 20
3030.47717664663
 30
0.0
 40
40.0
 41
0.0
 71
     5
 72
     1
  1
\A1;160
  7
SANWA
 73
     1
 44
1.0
  0
POINT
  5
B2E7
330
99F4
100
AcDbEntity
  8
DEFPOINTS
 62
     0
 48
25.0
100
AcDbPoint
 10
5753.180683735535
 20
3111.911041539226
 30
0.0
  0
POINT
  5
B2E8
330
99F4
100
AcDbEntity
  8
DEFPOINTS
 62
     0
 48
25.0
100
AcDbPoint
 10
5913.180683735534
 20
3111.911041539226
 30
0.0
  0
POINT
  5
B2E9
330
99F4
100
AcDbEntity
  8
DEFPOINTS
 62
     0
 48
25.0
100
AcDbPoint
 10
5913.180683735534
 20
2990.47717664663
 30
0.0
  0
ENDBLK
  5
99FF
330
99F4
100
AcDbEntity
  8
0
 48
25.0
100
AcDbBlockEnd
  0
BLOCK
  5
A727
330
A71B
100
AcDbEntity
  8
0
 48
25.0
100
AcDbBlockBegin
  2
*D28
 70
     1
 10
0.0
 20
0.0
 30
0.0
  3
*D28
  1

  0
LINE
  5
B1DB
330
A71B
100
AcDbEntity
  8
寸法引出
 48
25.0
370
    -2
100
AcDbLine
 10
3699.631789356667
 20
782.677873433879
 30
0.0
 11
3699.631789356667
 21
870.5678830541497
 31
0.0
  0
LINE
  5
B1DC
330
A71B
100
AcDbEntity
  8
寸法引出
 48
25.0
370
    -2
100
AcDbLine
 10
3749.631789356667
 20
782.677873433879
 30
0.0
 11
3749.631789356667
 21
870.5678830541497
 31
0.0
  0
LINE
  5
B1DD
330
A71B
100
AcDbEntity
  8
寸法引出
 48
25.0
370
    -2
100
AcDbLine
 10
3669.631789356666
 20
860.5678830541496
 30
0.0
 11
3639.631789356666
 21
860.5678830541496
 31
0.0
  0
LINE
  5
B1DE
330
A71B
100
AcDbEntity
  8
寸法引出
 48
25.0
370
    -2
100
AcDbLine
 10
3779.631789356666
 20
860.5678830541496
 30
0.0
 11
3809.631789356666
 21
860.5678830541496
 31
0.0
  0
LINE
  5
B1DF
330
A71B
100
AcDbEntity
  8
寸法引出
 48
25.0
370
    -2
100
AcDbLine
 10
3699.631789356667
 20
860.5678830541496
 30
0.0
 11
3749.631789356667
 21
860.5678830541496
 31
0.0
  0
SOLID
  5
B1E0
330
A71B
100
AcDbEntity
  8
寸法引出
 48
25.0
100
AcDbTrace
 10
3669.631789356666
 20
865.5678830541496
 30
0.0
 11
3669.631789356666
 21
855.5678830541497
 31
0.0
 12
3699.631789356667
 22
860.5678830541496
 32
0.0
 13
3699.631789356667
 23
860.5678830541496
 33
0.0
  0
SOLID
  5
B1E1
330
A71B
100
AcDbEntity
  8
寸法引出
 48
25.0
100
AcDbTrace
 10
3779.631789356666
 20
865.5678830541496
 30
0.0
 11
3779.631789356666
 21
855.5678830541497
 31
0.0
 12
3749.631789356667
 22
860.5678830541496
 32
0.0
 13
3749.631789356667
 23
860.5678830541496
 33
0.0
  0
MTEXT
  5
B1E2
330
A71B
100
AcDbEntity
  8
寸法引出
 48
25.0
100
AcDbMText
 10
3724.631789356667
 20
900.5678830541496
 30
0.0
 40
40.0
 41
0.0
 71
     5
 72
     1
  1
\A1;5
  7
SANWA
 73
     1
 44
1.0
  0
POINT
  5
B1E3
330
A71B
100
AcDbEntity
  8
DEFPOINTS
 62
     0
 48
25.0
100
AcDbPoint
 10
3699.631789356667
 20
762.6778734338791
 30
0.0
  0
POINT
  5
B1E4
330
A71B
100
AcDbEntity
  8
DEFPOINTS
 62
     0
 48
25.0
100
AcDbPoint
 10
3749.631789356667
 20
762.6778734338791
 30
0.0
  0
POINT
  5
B1E5
330
A71B
100
AcDbEntity
  8
DEFPOINTS
 62
     0
 48
25.0
100
AcDbPoint
 10
3749.631789356667
 20
860.5678830541496
 30
0.0
  0
ENDBLK
  5
A728
330
A71B
100
AcDbEntity
  8
0
 48
25.0
100
AcDbBlockEnd
  0
BLOCK
  5
A733
330
A729
100
AcDbEntity
  8
0
 48
25.0
100
AcDbBlockBegin
  2
*D29
 70
     1
 10
0.0
 20
0.0
 30
0.0
  3
*D29
  1

  0
LINE
  5
B1BC
330
A729
100
AcDbEntity
  8
寸法引出
 48
25.0
370
    -2
100
AcDbLine
 10
3549.631789356666
 20
782.677873433879
 30
0.0
 11
3549.631789356666
 21
956.8510785285676
 31
0.0
  0
LINE
  5
B1BD
330
A729
100
AcDbEntity
  8
寸法引出
 48
25.0
370
    -2
100
AcDbLine
 10
3749.631789356667
 20
782.677873433879
 30
0.0
 11
3749.631789356667
 21
956.8510785285676
 31
0.0
  0
LINE
  5
B1BE
330
A729
100
AcDbEntity
  8
寸法引出
 48
25.0
370
    -2
100
AcDbLine
 10
3579.631789356666
 20
946.8510785285674
 30
0.0
 11
3719.631789356666
 21
946.8510785285674
 31
0.0
  0
SOLID
  5
B1BF
330
A729
100
AcDbEntity
  8
寸法引出
 48
25.0
100
AcDbTrace
 10
3579.631789356666
 20
951.8510785285675
 30
0.0
 11
3579.631789356666
 21
941.8510785285675
 31
0.0
 12
3549.631789356666
 22
946.8510785285674
 32
0.0
 13
3549.631789356666
 23
946.8510785285674
 33
0.0
  0
SOLID
  5
B1C0
330
A729
100
AcDbEntity
  8
寸法引出
 48
25.0
100
AcDbTrace
 10
3719.631789356666
 20
951.8510785285675
 30
0.0
 11
3719.631789356666
 21
941.8510785285675
 31
0.0
 12
3749.631789356667
 22
946.8510785285674
 32
0.0
 13
3749.631789356667
 23
946.8510785285674
 33
0.0
  0
MTEXT
  5
B1C1
330
A729
100
AcDbEntity
  8
寸法引出
 48
25.0
100
AcDbMText
 10
3649.631789356666
 20
986.8510785285675
 30
0.0
 40
40.0
 41
0.0
 71
     5
 72
     1
  1
\A1;20
  7
SANWA
 73
     1
 44
1.0
  0
POINT
  5
B1C2
330
A729
100
AcDbEntity
  8
DEFPOINTS
 62
     0
 48
25.0
100
AcDbPoint
 10
3549.631789356666
 20
762.6778734338791
 30
0.0
  0
POINT
  5
B1C3
330
A729
100
AcDbEntity
  8
DEFPOINTS
 62
     0
 48
25.0
100
AcDbPoint
 10
3749.631789356667
 20
762.6778734338791
 30
0.0
  0
POINT
  5
B1C4
330
A729
100
AcDbEntity
  8
DEFPOINTS
 62
     0
 48
25.0
100
AcDbPoint
 10
3749.631789356667
 20
946.8510785285674
 30
0.0
  0
ENDBLK
  5
A734
330
A729
100
AcDbEntity
  8
0
 48
25.0
100
AcDbBlockEnd
  0
BLOCK
  5
A741
330
A735
100
AcDbEntity
  8
0
 48
25.0
100
AcDbBlockBegin
  2
*D30
 70
     1
 10
0.0
 20
0.0
 30
0.0
  3
*D30
  1

  0
LINE
  5
B1D0
330
A735
100
AcDbEntity
  8
寸法引出
 48
25.0
370
    -2
100
AcDbLine
 10
3549.631789356666
 20
782.677873433879
 30
0.0
 11
3549.631789356666
 21
870.5678830541497
 31
0.0
  0
LINE
  5
B1D1
330
A735
100
AcDbEntity
  8
寸法引出
 48
25.0
370
    -2
100
AcDbLine
 10
3599.631789356667
 20
782.677873433879
 30
0.0
 11
3599.631789356667
 21
870.5678830541497
 31
0.0
  0
LINE
  5
B1D2
330
A735
100
AcDbEntity
  8
寸法引出
 48
25.0
370
    -2
100
AcDbLine
 10
3519.631789356666
 20
860.5678830541496
 30
0.0
 11
3489.631789356666
 21
860.5678830541496
 31
0.0
  0
LINE
  5
B1D3
330
A735
100
AcDbEntity
  8
寸法引出
 48
25.0
370
    -2
100
AcDbLine
 10
3629.631789356666
 20
860.5678830541496
 30
0.0
 11
3659.631789356666
 21
860.5678830541496
 31
0.0
  0
LINE
  5
B1D4
330
A735
100
AcDbEntity
  8
寸法引出
 48
25.0
370
    -2
100
AcDbLine
 10
3549.631789356666
 20
860.5678830541496
 30
0.0
 11
3599.631789356667
 21
860.5678830541496
 31
0.0
  0
SOLID
  5
B1D5
330
A735
100
AcDbEntity
  8
寸法引出
 48
25.0
100
AcDbTrace
 10
3519.631789356666
 20
865.5678830541496
 30
0.0
 11
3519.631789356666
 21
855.5678830541497
 31
0.0
 12
3549.631789356666
 22
860.5678830541496
 32
0.0
 13
3549.631789356666
 23
860.5678830541496
 33
0.0
  0
SOLID
  5
B1D6
330
A735
100
AcDbEntity
  8
寸法引出
 48
25.0
100
AcDbTrace
 10
3629.631789356666
 20
865.5678830541496
 30
0.0
 11
3629.631789356666
 21
855.5678830541497
 31
0.0
 12
3599.631789356667
 22
860.5678830541496
 32
0.0
 13
3599.631789356667
 23
860.5678830541496
 33
0.0
  0
MTEXT
  5
B1D7
330
A735
100
AcDbEntity
  8
寸法引出
 48
25.0
100
AcDbMText
 10
3574.631789356667
 20
900.5678830541496
 30
0.0
 40
40.0
 41
0.0
 71
     5
 72
     1
  1
\A1;5
  7
SANWA
 73
     1
 44
1.0
  0
POINT
  5
B1D8
330
A735
100
AcDbEntity
  8
DEFPOINTS
 62
     0
 48
25.0
100
AcDbPoint
 10
3549.631789356666
 20
762.6778734338791
 30
0.0
  0
POINT
  5
B1D9
330
A735
100
AcDbEntity
  8
DEFPOINTS
 62
     0
 48
25.0
100
AcDbPoint
 10
3599.631789356667
 20
762.6778734338791
 30
0.0
  0
POINT
  5
B1DA
330
A735
100
AcDbEntity
  8
DEFPOINTS
 62
     0
 48
25.0
100
AcDbPoint
 10
3599.631789356667
 20
860.5678830541496
 30
0.0
  0
ENDBLK
  5
A742
330
A735
100
AcDbEntity
  8
0
 48
25.0
100
AcDbBlockEnd
  0
BLOCK
  5
A74F
330
A743
100
AcDbEntity
  8
0
 48
25.0
100
AcDbBlockBegin
  2
*D31
 70
     1
 10
0.0
 20
0.0
 30
0.0
  3
*D31
  1

  0
LINE
  5
B1C5
330
A743
100
AcDbEntity
  8
寸法引出
 48
25.0
370
    -2
100
AcDbLine
 10
3599.631789356667
 20
782.677873433879
 30
0.0
 11
3599.631789356667
 21
870.5678830541497
 31
0.0
  0
LINE
  5
B1C6
330
A743
100
AcDbEntity
  8
寸法引出
 48
25.0
370
    -2
100
AcDbLine
 10
3699.631789356667
 20
782.677873433879
 30
0.0
 11
3699.631789356667
 21
870.5678830541497
 31
0.0
  0
LINE
  5
B1C7
330
A743
100
AcDbEntity
  8
寸法引出
 48
25.0
370
    -2
100
AcDbLine
 10
3569.631789356666
 20
860.5678830541496
 30
0.0
 11
3539.631789356667
 21
860.5678830541496
 31
0.0
  0
LINE
  5
B1C8
330
A743
100
AcDbEntity
  8
寸法引出
 48
25.0
370
    -2
100
AcDbLine
 10
3729.631789356666
 20
860.5678830541496
 30
0.0
 11
3759.631789356666
 21
860.5678830541496
 31
0.0
  0
LINE
  5
B1C9
330
A743
100
AcDbEntity
  8
寸法引出
 48
25.0
370
    -2
100
AcDbLine
 10
3599.631789356667
 20
860.5678830541496
 30
0.0
 11
3699.631789356667
 21
860.5678830541496
 31
0.0
  0
SOLID
  5
B1CA
330
A743
100
AcDbEntity
  8
寸法引出
 48
25.0
100
AcDbTrace
 10
3569.631789356666
 20
865.5678830541496
 30
0.0
 11
3569.631789356666
 21
855.5678830541497
 31
0.0
 12
3599.631789356667
 22
860.5678830541496
 32
0.0
 13
3599.631789356667
 23
860.5678830541496
 33
0.0
  0
SOLID
  5
B1CB
330
A743
100
AcDbEntity
  8
寸法引出
 48
25.0
100
AcDbTrace
 10
3729.631789356666
 20
865.5678830541496
 30
0.0
 11
3729.631789356666
 21
855.5678830541497
 31
0.0
 12
3699.631789356667
 22
860.5678830541496
 32
0.0
 13
3699.631789356667
 23
860.5678830541496
 33
0.0
  0
MTEXT
  5
B1CC
330
A743
100
AcDbEntity
  8
寸法引出
 48
25.0
100
AcDbMText
 10
3649.631789356666
 20
900.5678830541496
 30
0.0
 40
40.0
 41
0.0
 71
     5
 72
     1
  1
\A1;10
  7
SANWA
 73
     1
 44
1.0
  0
POINT
  5
B1CD
330
A743
100
AcDbEntity
  8
DEFPOINTS
 62
     0
 48
25.0
100
AcDbPoint
 10
3599.631789356667
 20
762.6778734338791
 30
0.0
  0
POINT
  5
B1CE
330
A743
100
AcDbEntity
  8
DEFPOINTS
 62
     0
 48
25.0
100
AcDbPoint
 10
3699.631789356667
 20
762.6778734338791
 30
0.0
  0
POINT
  5
B1CF
330
A743
100
AcDbEntity
  8
DEFPOINTS
 62
     0
 48
25.0
100
AcDbPoint
 10
3699.631789356667
 20
860.5678830541496
 30
0.0
  0
ENDBLK
  5
A750
330
A743
100
AcDbEntity
  8
0
 48
25.0
100
AcDbBlockEnd
  0
BLOCK
  5
A75D
330
A751
100
AcDbEntity
  8
0
 48
25.0
100
AcDbBlockBegin
  2
*D32
 70
     1
 10
0.0
 20
0.0
 30
0.0
  3
*D32
  1

  0
LINE
  5
B19B
330
A751
100
AcDbEntity
  8
寸法引出
 48
25.0
370
    -2
100
AcDbLine
 10
3579.631789356666
 20
662.6778734338791
 30
0.0
 11
3455.514492224123
 21
662.6778734338791
 31
0.0
  0
LINE
  5
B19C
330
A751
100
AcDbEntity
  8
寸法引出
 48
25.0
370
    -2
100
AcDbLine
 10
3579.631789356666
 20
762.6778734338791
 30
0.0
 11
3455.514492224123
 21
762.6778734338791
 31
0.0
  0
LINE
  5
B19D
330
A751
100
AcDbEntity
  8
寸法引出
 48
25.0
370
    -2
100
AcDbLine
 10
3465.514492224123
 20
632.677873433879
 30
0.0
 11
3465.514492224123
 21
602.677873433879
 31
0.0
  0
LINE
  5
B19E
330
A751
100
AcDbEntity
  8
寸法引出
 48
25.0
370
    -2
100
AcDbLine
 10
3465.514492224123
 20
792.6778734338791
 30
0.0
 11
3465.514492224123
 21
822.677873433879
 31
0.0
  0
LINE
  5
B19F
330
A751
100
AcDbEntity
  8
寸法引出
 48
25.0
370
    -2
100
AcDbLine
 10
3465.514492224123
 20
662.6778734338791
 30
0.0
 11
3465.514492224123
 21
762.6778734338791
 31
0.0
  0
SOLID
  5
B1A0
330
A751
100
AcDbEntity
  8
寸法引出
 48
25.0
100
AcDbTrace
 10
3460.514492224123
 20
632.677873433879
 30
0.0
 11
3470.514492224123
 21
632.677873433879
 31
0.0
 12
3465.514492224123
 22
662.6778734338791
 32
0.0
 13
3465.514492224123
 23
662.6778734338791
 33
0.0
  0
SOLID
  5
B1A1
330
A751
100
AcDbEntity
  8
寸法引出
 48
25.0
100
AcDbTrace
 10
3460.514492224123
 20
792.6778734338791
 30
0.0
 11
3470.514492224123
 21
792.6778734338791
 31
0.0
 12
3465.514492224123
 22
762.6778734338791
 32
0.0
 13
3465.514492224123
 23
762.6778734338791
 33
0.0
  0
MTEXT
  5
B1A2
330
A751
100
AcDbEntity
  8
寸法引出
 48
25.0
100
AcDbMText
 10
3425.514492224123
 20
712.6778734338796
 30
0.0
 40
40.0
 41
0.0
 71
     5
 72
     1
  1
\A1;10
  7
SANWA
 11
0.0000000000000001
 21
1.0
 31
0.0
 73
     1
 44
1.0
  0
POINT
  5
B1A3
330
A751
100
AcDbEntity
  8
DEFPOINTS
 62
     0
 48
25.0
100
AcDbPoint
 10
3599.631789356667
 20
662.6778734338791
 30
0.0
  0
POINT
  5
B1A4
330
A751
100
AcDbEntity
  8
DEFPOINTS
 62
     0
 48
25.0
100
AcDbPoint
 10
3599.631789356667
 20
762.6778734338791
 30
0.0
  0
POINT
  5
B1A5
330
A751
100
AcDbEntity
  8
DEFPOINTS
 62
     0
 48
25.0
100
AcDbPoint
 10
3465.514492224123
 20
762.6778734338791
 30
0.0
  0
ENDBLK
  5
A75E
330
A751
100
AcDbEntity
  8
0
 48
25.0
100
AcDbBlockEnd
  0
BLOCK
  5
A769
330
A75F
100
AcDbEntity
  8
0
 48
25.0
100
AcDbBlockBegin
  2
*D33
 70
     1
 10
0.0
 20
0.0
 30
0.0
  3
*D33
  1

  0
LINE
  5
B17C
330
A75F
100
AcDbEntity
  8
寸法引出
 48
25.0
370
    -2
100
AcDbLine
 10
1544.463170910155
 20
729.371277183402
 30
0.0
 11
1544.463170910155
 21
793.7789168020194
 31
0.0
  0
LINE
  5
B17D
330
A75F
100
AcDbEntity
  8
寸法引出
 48
25.0
370
    -2
100
AcDbLine
 10
1799.463170910155
 20
723.3712771834021
 30
0.0
 11
1799.463170910155
 21
793.7789168020194
 31
0.0
  0
LINE
  5
B17E
330
A75F
100
AcDbEntity
  8
寸法引出
 48
25.0
370
    -2
100
AcDbLine
 10
1574.463170910155
 20
783.7789168020194
 30
0.0
 11
1769.463170910156
 21
783.7789168020194
 31
0.0
  0
SOLID
  5
B17F
330
A75F
100
AcDbEntity
  8
寸法引出
 48
25.0
100
AcDbTrace
 10
1574.463170910155
 20
788.7789168020194
 30
0.0
 11
1574.463170910155
 21
778.7789168020195
 31
0.0
 12
1544.463170910155
 22
783.7789168020194
 32
0.0
 13
1544.463170910155
 23
783.7789168020194
 33
0.0
  0
SOLID
  5
B180
330
A75F
100
AcDbEntity
  8
寸法引出
 48
25.0
100
AcDbTrace
 10
1769.463170910156
 20
788.7789168020194
 30
0.0
 11
1769.463170910156
 21
778.7789168020195
 31
0.0
 12
1799.463170910155
 22
783.7789168020194
 32
0.0
 13
1799.463170910155
 23
783.7789168020194
 33
0.0
  0
MTEXT
  5
B181
330
A75F
100
AcDbEntity
  8
寸法引出
 48
25.0
100
AcDbMText
 10
1671.963170910156
 20
823.7789168020194
 30
0.0
 40
40.0
 41
0.0
 71
     5
 72
     1
  1
\A1;85
  7
SANWA
 73
     1
 44
1.0
  0
POINT
  5
B182
330
A75F
100
AcDbEntity
  8
DEFPOINTS
 62
     0
 48
25.0
100
AcDbPoint
 10
1544.463170910155
 20
709.371277183402
 30
0.0
  0
POINT
  5
B183
330
A75F
100
AcDbEntity
  8
DEFPOINTS
 62
     0
 48
25.0
100
AcDbPoint
 10
1799.463170910155
 20
703.3712771834021
 30
0.0
  0
POINT
  5
B184
330
A75F
100
AcDbEntity
  8
DEFPOINTS
 62
     0
 48
25.0
100
AcDbPoint
 10
1799.463170910155
 20
783.7789168020194
 30
0.0
  0
ENDBLK
  5
A76A
330
A75F
100
AcDbEntity
  8
0
 48
25.0
100
AcDbBlockEnd
  0
BLOCK
  5
A777
330
A76B
100
AcDbEntity
  8
0
 48
25.0
100
AcDbBlockBegin
  2
*D34
 70
     1
 10
0.0
 20
0.0
 30
0.0
  3
*D34
  1

  0
LINE
  5
B185
330
A76B
100
AcDbEntity
  8
寸法引出
 48
25.0
370
    -2
100
AcDbLine
 10
1799.463170910155
 20
723.3712771834021
 30
0.0
 11
1799.463170910155
 21
793.7789168020194
 31
0.0
  0
LINE
  5
B186
330
A76B
100
AcDbEntity
  8
寸法引出
 48
25.0
370
    -2
100
AcDbLine
 10
1805.463170910156
 20
729.371277183402
 30
0.0
 11
1805.463170910156
 21
793.7789168020194
 31
0.0
  0
LINE
  5
B187
330
A76B
100
AcDbEntity
  8
寸法引出
 48
25.0
370
    -2
100
AcDbLine
 10
1769.463170910156
 20
783.7789168020194
 30
0.0
 11
1739.463170910156
 21
783.7789168020194
 31
0.0
  0
LINE
  5
B188
330
A76B
100
AcDbEntity
  8
寸法引出
 48
25.0
370
    -2
100
AcDbLine
 10
1835.463170910156
 20
783.7789168020194
 30
0.0
 11
1865.463170910155
 21
783.7789168020194
 31
0.0
  0
LINE
  5
B189
330
A76B
100
AcDbEntity
  8
寸法引出
 48
25.0
370
    -2
100
AcDbLine
 10
1799.463170910155
 20
783.7789168020194
 30
0.0
 11
1805.463170910156
 21
783.7789168020194
 31
0.0
  0
SOLID
  5
B18A
330
A76B
100
AcDbEntity
  8
寸法引出
 48
25.0
100
AcDbTrace
 10
1769.463170910156
 20
788.7789168020194
 30
0.0
 11
1769.463170910156
 21
778.7789168020195
 31
0.0
 12
1799.463170910155
 22
783.7789168020194
 32
0.0
 13
1799.463170910155
 23
783.7789168020194
 33
0.0
  0
SOLID
  5
B18B
330
A76B
100
AcDbEntity
  8
寸法引出
 48
25.0
100
AcDbTrace
 10
1835.463170910156
 20
788.7789168020194
 30
0.0
 11
1835.463170910156
 21
778.7789168020195
 31
0.0
 12
1805.463170910156
 22
783.7789168020194
 32
0.0
 13
1805.463170910156
 23
783.7789168020194
 33
0.0
  0
MTEXT
  5
B18C
330
A76B
100
AcDbEntity
  8
寸法引出
 48
25.0
100
AcDbMText
 10
1802.463170910155
 20
823.7789168020194
 30
0.0
 40
40.0
 41
0.0
 71
     5
 72
     1
  1
\A1;2
  7
SANWA
 73
     1
 44
1.0
  0
POINT
  5
B18D
330
A76B
100
AcDbEntity
  8
DEFPOINTS
 62
     0
 48
25.0
100
AcDbPoint
 10
1799.463170910155
 20
703.3712771834021
 30
0.0
  0
POINT
  5
B18E
330
A76B
100
AcDbEntity
  8
DEFPOINTS
 62
     0
 48
25.0
100
AcDbPoint
 10
1805.463170910156
 20
709.371277183402
 30
0.0
  0
POINT
  5
B18F
330
A76B
100
AcDbEntity
  8
DEFPOINTS
 62
     0
 48
25.0
100
AcDbPoint
 10
1805.463170910156
 20
783.7789168020194
 30
0.0
  0
ENDBLK
  5
A778
330
A76B
100
AcDbEntity
  8
0
 48
25.0
100
AcDbBlockEnd
  0
BLOCK
  5
A783
330
A779
100
AcDbEntity
  8
0
 48
25.0
100
AcDbBlockBegin
  2
*D35
 70
     1
 10
0.0
 20
0.0
 30
0.0
  3
*D35
  1

  0
LINE
  5
B16A
330
A779
100
AcDbEntity
  8
寸法引出
 48
25.0
370
    -2
100
AcDbLine
 10
1544.463170910155
 20
512.371277183402
 30
0.0
 11
1544.463170910155
 21
428.7005753087419
 31
0.0
  0
LINE
  5
B16B
330
A779
100
AcDbEntity
  8
寸法引出
 48
25.0
370
    -2
100
AcDbLine
 10
1694.463170910156
 20
600.871277183402
 30
0.0
 11
1694.463170910156
 21
428.7005753087419
 31
0.0
  0
LINE
  5
B16C
330
A779
100
AcDbEntity
  8
寸法引出
 48
25.0
370
    -2
100
AcDbLine
 10
1574.463170910155
 20
438.7005753087419
 30
0.0
 11
1664.463170910156
 21
438.7005753087419
 31
0.0
  0
SOLID
  5
B16D
330
A779
100
AcDbEntity
  8
寸法引出
 48
25.0
100
AcDbTrace
 10
1574.463170910155
 20
443.7005753087419
 30
0.0
 11
1574.463170910155
 21
433.7005753087419
 31
0.0
 12
1544.463170910155
 22
438.7005753087419
 32
0.0
 13
1544.463170910155
 23
438.7005753087419
 33
0.0
  0
SOLID
  5
B16E
330
A779
100
AcDbEntity
  8
寸法引出
 48
25.0
100
AcDbTrace
 10
1664.463170910156
 20
443.7005753087419
 30
0.0
 11
1664.463170910156
 21
433.7005753087419
 31
0.0
 12
1694.463170910156
 22
438.7005753087419
 32
0.0
 13
1694.463170910156
 23
438.7005753087419
 33
0.0
  0
MTEXT
  5
B16F
330
A779
100
AcDbEntity
  8
寸法引出
 48
25.0
100
AcDbMText
 10
1619.463170910156
 20
478.7005753087419
 30
0.0
 40
40.0
 41
0.0
 71
     5
 72
     1
  1
\A1;50
  7
SANWA
 73
     1
 44
1.0
  0
POINT
  5
B170
330
A779
100
AcDbEntity
  8
DEFPOINTS
 62
     0
 48
25.0
100
AcDbPoint
 10
1544.463170910155
 20
532.3712771834021
 30
0.0
  0
POINT
  5
B171
330
A779
100
AcDbEntity
  8
DEFPOINTS
 62
     0
 48
25.0
100
AcDbPoint
 10
1694.463170910156
 20
620.871277183402
 30
0.0
  0
POINT
  5
B172
330
A779
100
AcDbEntity
  8
DEFPOINTS
 62
     0
 48
25.0
100
AcDbPoint
 10
1694.463170910156
 20
438.7005753087419
 30
0.0
  0
ENDBLK
  5
A784
330
A779
100
AcDbEntity
  8
0
 48
25.0
100
AcDbBlockEnd
  0
BLOCK
  5
A78F
330
A785
100
AcDbEntity
  8
0
 48
25.0
100
AcDbBlockBegin
  2
*D36
 70
     1
 10
0.0
 20
0.0
 30
0.0
  3
*D36
  1

  0
LINE
  5
B173
330
A785
100
AcDbEntity
  8
寸法引出
 48
25.0
370
    -2
100
AcDbLine
 10
1819.463170910161
 20
538.371277183402
 30
0.0
 11
1962.138017486453
 21
538.371277183402
 31
0.0
  0
LINE
  5
B174
330
A785
100
AcDbEntity
  8
寸法引出
 48
25.0
370
    -2
100
AcDbLine
 10
1819.463170910156
 20
703.3712771834021
 30
0.0
 11
1962.138017486453
 21
703.3712771834021
 31
0.0
  0
LINE
  5
B175
330
A785
100
AcDbEntity
  8
寸法引出
 48
25.0
370
    -2
100
AcDbLine
 10
1952.138017486453
 20
568.371277183402
 30
0.0
 11
1952.138017486453
 21
673.3712771834021
 31
0.0
  0
SOLID
  5
B176
330
A785
100
AcDbEntity
  8
寸法引出
 48
25.0
100
AcDbTrace
 10
1947.138017486453
 20
568.371277183402
 30
0.0
 11
1957.138017486453
 21
568.371277183402
 31
0.0
 12
1952.138017486453
 22
538.371277183402
 32
0.0
 13
1952.138017486453
 23
538.371277183402
 33
0.0
  0
SOLID
  5
B177
330
A785
100
AcDbEntity
  8
寸法引出
 48
25.0
100
AcDbTrace
 10
1947.138017486453
 20
673.3712771834021
 30
0.0
 11
1957.138017486453
 21
673.3712771834021
 31
0.0
 12
1952.138017486453
 22
703.3712771834021
 32
0.0
 13
1952.138017486453
 23
703.3712771834021
 33
0.0
  0
MTEXT
  5
B178
330
A785
100
AcDbEntity
  8
寸法引出
 48
25.0
100
AcDbMText
 10
1912.138017486453
 20
620.8712771834024
 30
0.0
 40
40.0
 41
0.0
 71
     5
 72
     1
  1
\A1;55
  7
SANWA
 11
0.0000000000000001
 21
1.0
 31
0.0
 73
     1
 44
1.0
  0
POINT
  5
B179
330
A785
100
AcDbEntity
  8
DEFPOINTS
 62
     0
 48
25.0
100
AcDbPoint
 10
1799.463170910161
 20
538.371277183402
 30
0.0
  0
POINT
  5
B17A
330
A785
100
AcDbEntity
  8
DEFPOINTS
 62
     0
 48
25.0
100
AcDbPoint
 10
1799.463170910155
 20
703.3712771834021
 30
0.0
  0
POINT
  5
B17B
330
A785
100
AcDbEntity
  8
DEFPOINTS
 62
     0
 48
25.0
100
AcDbPoint
 10
1952.138017486453
 20
703.3712771834021
 30
0.0
  0
ENDBLK
  5
A790
330
A785
100
AcDbEntity
  8
0
 48
25.0
100
AcDbBlockEnd
  0
BLOCK
  5
A79D
330
A791
100
AcDbEntity
  8
0
 48
25.0
100
AcDbBlockBegin
  2
*D37
 70
     1
 10
0.0
 20
0.0
 30
0.0
  3
*D37
  1

  0
LINE
  5
B190
330
A791
100
AcDbEntity
  8
寸法引出
 48
25.0
370
    -2
100
AcDbLine
 10
2377.54022515401
 20
512.371277183402
 30
0.0
 11
2377.54022515401
 21
433.7706937497955
 31
0.0
  0
LINE
  5
B191
330
A791
100
AcDbEntity
  8
寸法引出
 48
25.0
370
    -2
100
AcDbLine
 10
2387.140225154012
 20
518.371277183402
 30
0.0
 11
2387.140225154012
 21
433.7706937497955
 31
0.0
  0
LINE
  5
B192
330
A791
100
AcDbEntity
  8
寸法引出
 48
25.0
370
    -2
100
AcDbLine
 10
2347.54022515401
 20
443.7706937497956
 30
0.0
 11
2317.540225154011
 21
443.7706937497956
 31
0.0
  0
LINE
  5
B193
330
A791
100
AcDbEntity
  8
寸法引出
 48
25.0
370
    -2
100
AcDbLine
 10
2417.140225154013
 20
443.7706937497956
 30
0.0
 11
2447.140225154013
 21
443.7706937497956
 31
0.0
  0
LINE
  5
B194
330
A791
100
AcDbEntity
  8
寸法引出
 48
25.0
370
    -2
100
AcDbLine
 10
2377.54022515401
 20
443.7706937497956
 30
0.0
 11
2387.140225154012
 21
443.7706937497956
 31
0.0
  0
SOLID
  5
B195
330
A791
100
AcDbEntity
  8
寸法引出
 48
25.0
100
AcDbTrace
 10
2347.54022515401
 20
448.7706937497955
 30
0.0
 11
2347.54022515401
 21
438.7706937497955
 31
0.0
 12
2377.54022515401
 22
443.7706937497956
 32
0.0
 13
2377.54022515401
 23
443.7706937497956
 33
0.0
  0
SOLID
  5
B196
330
A791
100
AcDbEntity
  8
寸法引出
 48
25.0
100
AcDbTrace
 10
2417.140225154013
 20
448.7706937497955
 30
0.0
 11
2417.140225154013
 21
438.7706937497955
 31
0.0
 12
2387.140225154012
 22
443.7706937497956
 32
0.0
 13
2387.140225154012
 23
443.7706937497956
 33
0.0
  0
MTEXT
  5
B197
330
A791
100
AcDbEntity
  8
寸法引出
 48
25.0
100
AcDbMText
 10
2382.340225154012
 20
483.7706937497955
 30
0.0
 40
40.0
 41
0.0
 71
     5
 72
     1
  1
\A1;3.2
  7
SANWA
 73
     1
 44
1.0
  0
POINT
  5
B198
330
A791
100
AcDbEntity
  8
DEFPOINTS
 62
     0
 48
25.0
100
AcDbPoint
 10
2377.54022515401
 20
532.3712771834021
 30
0.0
  0
POINT
  5
B199
330
A791
100
AcDbEntity
  8
DEFPOINTS
 62
     0
 48
25.0
100
AcDbPoint
 10
2387.140225154012
 20
538.371277183402
 30
0.0
  0
POINT
  5
B19A
330
A791
100
AcDbEntity
  8
DEFPOINTS
 62
     0
 48
25.0
100
AcDbPoint
 10
2387.140225154012
 20
443.7706937497956
 30
0.0
  0
ENDBLK
  5
A79E
330
A791
100
AcDbEntity
  8
0
 48
25.0
100
AcDbBlockEnd
  0
BLOCK
  5
A7AB
330
A79F
100
AcDbEntity
  8
0
 48
25.0
100
AcDbBlockBegin
  2
*D38
 70
     1
 10
0.0
 20
0.0
 30
0.0
  3
*D38
  1

  0
LINE
  5
B1A6
330
A79F
100
AcDbEntity
  8
寸法引出
 48
25.0
370
    -2
100
AcDbLine
 10
3629.631789356666
 20
562.6778734338791
 30
0.0
 11
3455.514492224123
 21
562.6778734338791
 31
0.0
  0
LINE
  5
B1A7
330
A79F
100
AcDbEntity
  8
寸法引出
 48
25.0
370
    -2
100
AcDbLine
 10
3529.631789356666
 20
592.6778734338791
 30
0.0
 11
3455.514492224123
 21
592.6778734338791
 31
0.0
  0
LINE
  5
B1A8
330
A79F
100
AcDbEntity
  8
寸法引出
 48
25.0
370
    -2
100
AcDbLine
 10
3465.514492224123
 20
532.677873433879
 30
0.0
 11
3465.514492224123
 21
502.677873433879
 31
0.0
  0
LINE
  5
B1A9
330
A79F
100
AcDbEntity
  8
寸法引出
 48
25.0
370
    -2
100
AcDbLine
 10
3465.514492224123
 20
622.6778734338791
 30
0.0
 11
3465.514492224123
 21
652.677873433879
 31
0.0
  0
LINE
  5
B1AA
330
A79F
100
AcDbEntity
  8
寸法引出
 48
25.0
370
    -2
100
AcDbLine
 10
3465.514492224123
 20
562.6778734338791
 30
0.0
 11
3465.514492224123
 21
592.6778734338791
 31
0.0
  0
SOLID
  5
B1AB
330
A79F
100
AcDbEntity
  8
寸法引出
 48
25.0
100
AcDbTrace
 10
3460.514492224123
 20
532.677873433879
 30
0.0
 11
3470.514492224123
 21
532.677873433879
 31
0.0
 12
3465.514492224123
 22
562.6778734338791
 32
0.0
 13
3465.514492224123
 23
562.6778734338791
 33
0.0
  0
SOLID
  5
B1AC
330
A79F
100
AcDbEntity
  8
寸法引出
 48
25.0
100
AcDbTrace
 10
3460.514492224123
 20
622.6778734338791
 30
0.0
 11
3470.514492224123
 21
622.6778734338791
 31
0.0
 12
3465.514492224123
 22
592.6778734338791
 32
0.0
 13
3465.514492224123
 23
592.6778734338791
 33
0.0
  0
MTEXT
  5
B1AD
330
A79F
100
AcDbEntity
  8
寸法引出
 48
25.0
100
AcDbMText
 10
3425.514492224123
 20
577.6778734338797
 30
0.0
 40
40.0
 41
0.0
 71
     5
 72
     1
  1
\A1;3
  7
SANWA
 11
0.0000000000000001
 21
1.0
 31
0.0
 73
     1
 44
1.0
  0
POINT
  5
B1AE
330
A79F
100
AcDbEntity
  8
DEFPOINTS
 62
     0
 48
25.0
100
AcDbPoint
 10
3649.631789356666
 20
562.6778734338791
 30
0.0
  0
POINT
  5
B1AF
330
A79F
100
AcDbEntity
  8
DEFPOINTS
 62
     0
 48
25.0
100
AcDbPoint
 10
3549.631789356666
 20
592.6778734338791
 30
0.0
  0
POINT
  5
B1B0
330
A79F
100
AcDbEntity
  8
DEFPOINTS
 62
     0
 48
25.0
100
AcDbPoint
 10
3465.514492224123
 20
592.6778734338791
 30
0.0
  0
ENDBLK
  5
A7AC
330
A79F
100
AcDbEntity
  8
0
 48
25.0
100
AcDbBlockEnd
  0
BLOCK
  5
A7B9
330
A7AD
100
AcDbEntity
  8
0
 48
25.0
100
AcDbBlockBegin
  2
*D39
 70
     1
 10
0.0
 20
0.0
 30
0.0
  3
*D39
  1

  0
LINE
  5
B1B1
330
A7AD
100
AcDbEntity
  8
寸法引出
 48
25.0
370
    -2
100
AcDbLine
 10
3529.631789356666
 20
592.6778734338791
 30
0.0
 11
3455.514492224123
 21
592.6778734338791
 31
0.0
  0
LINE
  5
B1B2
330
A7AD
100
AcDbEntity
  8
寸法引出
 48
25.0
370
    -2
100
AcDbLine
 10
3579.631789356666
 20
662.6778734338791
 30
0.0
 11
3455.514492224123
 21
662.6778734338791
 31
0.0
  0
LINE
  5
B1B3
330
A7AD
100
AcDbEntity
  8
寸法引出
 48
25.0
370
    -2
100
AcDbLine
 10
3465.514492224123
 20
562.6778734338791
 30
0.0
 11
3465.514492224123
 21
532.677873433879
 31
0.0
  0
LINE
  5
B1B4
330
A7AD
100
AcDbEntity
  8
寸法引出
 48
25.0
370
    -2
100
AcDbLine
 10
3465.514492224123
 20
692.6778734338791
 30
0.0
 11
3465.514492224123
 21
722.6778734338791
 31
0.0
  0
LINE
  5
B1B5
330
A7AD
100
AcDbEntity
  8
寸法引出
 48
25.0
370
    -2
100
AcDbLine
 10
3465.514492224123
 20
592.6778734338791
 30
0.0
 11
3465.514492224123
 21
662.6778734338791
 31
0.0
  0
SOLID
  5
B1B6
330
A7AD
100
AcDbEntity
  8
寸法引出
 48
25.0
100
AcDbTrace
 10
3460.514492224123
 20
562.6778734338791
 30
0.0
 11
3470.514492224123
 21
562.6778734338791
 31
0.0
 12
3465.514492224123
 22
592.6778734338791
 32
0.0
 13
3465.514492224123
 23
592.6778734338791
 33
0.0
  0
SOLID
  5
B1B7
330
A7AD
100
AcDbEntity
  8
寸法引出
 48
25.0
100
AcDbTrace
 10
3460.514492224123
 20
692.6778734338791
 30
0.0
 11
3470.514492224123
 21
692.6778734338791
 31
0.0
 12
3465.514492224123
 22
662.6778734338791
 32
0.0
 13
3465.514492224123
 23
662.6778734338791
 33
0.0
  0
MTEXT
  5
B1B8
330
A7AD
100
AcDbEntity
  8
寸法引出
 48
25.0
100
AcDbMText
 10
3425.514492224123
 20
627.6778734338797
 30
0.0
 40
40.0
 41
0.0
 71
     5
 72
     1
  1
\A1;7
  7
SANWA
 11
0.0000000000000001
 21
1.0
 31
0.0
 73
     1
 44
1.0
  0
POINT
  5
B1B9
330
A7AD
100
AcDbEntity
  8
DEFPOINTS
 62
     0
 48
25.0
100
AcDbPoint
 10
3549.631789356666
 20
592.6778734338791
 30
0.0
  0
POINT
  5
B1BA
330
A7AD
100
AcDbEntity
  8
DEFPOINTS
 62
     0
 48
25.0
100
AcDbPoint
 10
3599.631789356667
 20
662.6778734338791
 30
0.0
  0
POINT
  5
B1BB
330
A7AD
100
AcDbEntity
  8
DEFPOINTS
 62
     0
 48
25.0
100
AcDbPoint
 10
3465.514492224123
 20
662.6778734338791
 30
0.0
  0
ENDBLK
  5
A7BA
330
A7AD
100
AcDbEntity
  8
0
 48
25.0
100
AcDbBlockEnd
  0
BLOCK
  5
A852
330
A848
100
AcDbEntity
  8
0
 48
25.0
100
AcDbBlockBegin
  2
*D40
 70
     1
 10
0.0
 20
0.0
 30
0.0
  3
*D40
  1

  0
LINE
  5
B272
330
A848
100
AcDbEntity
  8
寸法引出
 48
25.0
370
    -2
100
AcDbLine
 10
1292.471293828186
 20
3881.911041539226
 30
0.0
 11
1203.746096240984
 21
3881.911041539226
 31
0.0
  0
LINE
  5
B273
330
A848
100
AcDbEntity
  8
寸法引出
 48
25.0
370
    -2
100
AcDbLine
 10
1292.471293828186
 20
3731.911041539226
 30
0.0
 11
1203.746096240984
 21
3731.911041539226
 31
0.0
  0
LINE
  5
B274
330
A848
100
AcDbEntity
  8
寸法引出
 48
25.0
370
    -2
100
AcDbLine
 10
1213.746096240984
 20
3851.911041539226
 30
0.0
 11
1213.746096240984
 21
3761.911041539226
 31
0.0
  0
SOLID
  5
B275
330
A848
100
AcDbEntity
  8
寸法引出
 48
25.0
100
AcDbTrace
 10
1208.746096240984
 20
3851.911041539226
 30
0.0
 11
1218.746096240984
 21
3851.911041539226
 31
0.0
 12
1213.746096240984
 22
3881.911041539226
 32
0.0
 13
1213.746096240984
 23
3881.911041539226
 33
0.0
  0
SOLID
  5
B276
330
A848
100
AcDbEntity
  8
寸法引出
 48
25.0
100
AcDbTrace
 10
1208.746096240984
 20
3761.911041539226
 30
0.0
 11
1218.746096240984
 21
3761.911041539226
 31
0.0
 12
1213.746096240984
 22
3731.911041539226
 32
0.0
 13
1213.746096240984
 23
3731.911041539226
 33
0.0
  0
MTEXT
  5
B277
330
A848
100
AcDbEntity
  8
寸法引出
 48
25.0
100
AcDbMText
 10
1173.746096240983
 20
3806.911041539227
 30
0.0
 40
40.0
 41
0.0
 71
     5
 72
     1
  1
\A1;150
  7
SANWA
 11
0.0000000000000001
 21
1.0
 31
0.0
 73
     1
 44
1.0
  0
POINT
  5
B278
330
A848
100
AcDbEntity
  8
DEFPOINTS
 62
     0
 48
25.0
100
AcDbPoint
 10
1312.471293828186
 20
3881.911041539226
 30
0.0
  0
POINT
  5
B279
330
A848
100
AcDbEntity
  8
DEFPOINTS
 62
     0
 48
25.0
100
AcDbPoint
 10
1312.471293828186
 20
3731.911041539226
 30
0.0
  0
POINT
  5
B27A
330
A848
100
AcDbEntity
  8
DEFPOINTS
 62
     0
 48
25.0
100
AcDbPoint
 10
1213.746096240984
 20
3731.911041539226
 30
0.0
  0
ENDBLK
  5
A853
330
A848
100
AcDbEntity
  8
0
 48
25.0
100
AcDbBlockEnd
  0
BLOCK
  5
A87F
330
A875
100
AcDbEntity
  8
0
 48
25.0
100
AcDbBlockBegin
  2
*D41
 70
     1
 10
0.0
 20
0.0
 30
0.0
  3
*D41
  1

  0
LINE
  5
B296
330
A875
100
AcDbEntity
  8
寸法引出
 48
25.0
370
    -2
100
AcDbLine
 10
2674.559327814689
 20
3881.911041539226
 30
0.0
 11
2597.653450119267
 21
3881.911041539226
 31
0.0
  0
LINE
  5
B297
330
A875
100
AcDbEntity
  8
寸法引出
 48
25.0
370
    -2
100
AcDbLine
 10
2674.559327814689
 20
3731.911041539226
 30
0.0
 11
2597.653450119267
 21
3731.911041539226
 31
0.0
  0
LINE
  5
B298
330
A875
100
AcDbEntity
  8
寸法引出
 48
25.0
370
    -2
100
AcDbLine
 10
2607.653450119267
 20
3851.911041539226
 30
0.0
 11
2607.653450119267
 21
3761.911041539226
 31
0.0
  0
SOLID
  5
B299
330
A875
100
AcDbEntity
  8
寸法引出
 48
25.0
100
AcDbTrace
 10
2602.653450119267
 20
3851.911041539226
 30
0.0
 11
2612.653450119267
 21
3851.911041539226
 31
0.0
 12
2607.653450119267
 22
3881.911041539226
 32
0.0
 13
2607.653450119267
 23
3881.911041539226
 33
0.0
  0
SOLID
  5
B29A
330
A875
100
AcDbEntity
  8
寸法引出
 48
25.0
100
AcDbTrace
 10
2602.653450119267
 20
3761.911041539226
 30
0.0
 11
2612.653450119267
 21
3761.911041539226
 31
0.0
 12
2607.653450119267
 22
3731.911041539226
 32
0.0
 13
2607.653450119267
 23
3731.911041539226
 33
0.0
  0
MTEXT
  5
B29B
330
A875
100
AcDbEntity
  8
寸法引出
 48
25.0
100
AcDbMText
 10
2567.653450119267
 20
3806.911041539227
 30
0.0
 40
40.0
 41
0.0
 71
     5
 72
     1
  1
\A1;150
  7
SANWA
 11
0.0000000000000001
 21
1.0
 31
0.0
 73
     1
 44
1.0
  0
POINT
  5
B29C
330
A875
100
AcDbEntity
  8
DEFPOINTS
 62
     0
 48
25.0
100
AcDbPoint
 10
2694.559327814689
 20
3881.911041539226
 30
0.0
  0
POINT
  5
B29D
330
A875
100
AcDbEntity
  8
DEFPOINTS
 62
     0
 48
25.0
100
AcDbPoint
 10
2694.559327814689
 20
3731.911041539226
 30
0.0
  0
POINT
  5
B29E
330
A875
100
AcDbEntity
  8
DEFPOINTS
 62
     0
 48
25.0
100
AcDbPoint
 10
2607.653450119267
 20
3731.911041539226
 30
0.0
  0
ENDBLK
  5
A880
330
A875
100
AcDbEntity
  8
0
 48
25.0
100
AcDbBlockEnd
  0
BLOCK
  5
A88D
330
A881
100
AcDbEntity
  8
0
 48
25.0
100
AcDbBlockBegin
  2
*D42
 70
     1
 10
0.0
 20
0.0
 30
0.0
  3
*D42
  1

  0
LINE
  5
B29F
330
A881
100
AcDbEntity
  8
寸法引出
 48
25.0
370
    -2
100
AcDbLine
 10
2694.559327814689
 20
3776.411041539226
 30
0.0
 11
2694.559327814689
 21
3796.969532476582
 31
0.0
  0
LINE
  5
B2A0
330
A881
100
AcDbEntity
  8
寸法引出
 48
25.0
370
    -2
100
AcDbLine
 10
2744.559327814689
 20
3751.911041539226
 30
0.0
 11
2744.559327814689
 21
3796.969532476582
 31
0.0
  0
LINE
  5
B2A1
330
A881
100
AcDbEntity
  8
寸法引出
 48
25.0
370
    -2
100
AcDbLine
 10
2664.559327814689
 20
3786.969532476582
 30
0.0
 11
2634.55932781469
 21
3786.969532476582
 31
0.0
  0
LINE
  5
B2A2
330
A881
100
AcDbEntity
  8
寸法引出
 48
25.0
370
    -2
100
AcDbLine
 10
2774.55932781469
 20
3786.969532476582
 30
0.0
 11
2804.55932781469
 21
3786.969532476582
 31
0.0
  0
LINE
  5
B2A3
330
A881
100
AcDbEntity
  8
寸法引出
 48
25.0
370
    -2
100
AcDbLine
 10
2694.559327814689
 20
3786.969532476582
 30
0.0
 11
2744.559327814689
 21
3786.969532476582
 31
0.0
  0
SOLID
  5
B2A4
330
A881
100
AcDbEntity
  8
寸法引出
 48
25.0
100
AcDbTrace
 10
2664.559327814689
 20
3791.969532476581
 30
0.0
 11
2664.559327814689
 21
3781.969532476582
 31
0.0
 12
2694.559327814689
 22
3786.969532476582
 32
0.0
 13
2694.559327814689
 23
3786.969532476582
 33
0.0
  0
SOLID
  5
B2A5
330
A881
100
AcDbEntity
  8
寸法引出
 48
25.0
100
AcDbTrace
 10
2774.55932781469
 20
3791.969532476581
 30
0.0
 11
2774.55932781469
 21
3781.969532476582
 31
0.0
 12
2744.559327814689
 22
3786.969532476582
 32
0.0
 13
2744.559327814689
 23
3786.969532476582
 33
0.0
  0
MTEXT
  5
B2A6
330
A881
100
AcDbEntity
  8
寸法引出
 48
25.0
100
AcDbMText
 10
2719.559327814689
 20
3826.969532476582
 30
0.0
 40
40.0
 41
0.0
 71
     5
 72
     1
  1
\A1;50
  7
SANWA
 73
     1
 44
1.0
  0
POINT
  5
B2A7
330
A881
100
AcDbEntity
  8
DEFPOINTS
 62
     0
 48
25.0
100
AcDbPoint
 10
2694.559327814689
 20
3756.411041539226
 30
0.0
  0
POINT
  5
B2A8
330
A881
100
AcDbEntity
  8
DEFPOINTS
 62
     0
 48
25.0
100
AcDbPoint
 10
2744.559327814689
 20
3731.911041539226
 30
0.0
  0
POINT
  5
B2A9
330
A881
100
AcDbEntity
  8
DEFPOINTS
 62
     0
 48
25.0
100
AcDbPoint
 10
2744.559327814689
 20
3786.969532476582
 30
0.0
  0
ENDBLK
  5
A88E
330
A881
100
AcDbEntity
  8
0
 48
25.0
100
AcDbBlockEnd
  0
BLOCK
  5
A8F1
330
A8E7
100
AcDbEntity
  8
0
 48
25.0
100
AcDbBlockBegin
  2
*D43
 70
     1
 10
0.0
 20
0.0
 30
0.0
  3
*D43
  1

  0
LINE
  5
B201
330
A8E7
100
AcDbEntity
  8
寸法引出
 48
25.0
370
    -2
100
AcDbLine
 10
2694.559327814689
 20
3081.911041539227
 30
0.0
 11
2694.559327814689
 21
2933.382755420979
 31
0.0
  0
LINE
  5
B202
330
A8E7
100
AcDbEntity
  8
寸法引出
 48
25.0
370
    -2
100
AcDbLine
 10
4694.559327814689
 20
3081.911041539227
 30
0.0
 11
4694.559327814689
 21
2933.382755420979
 31
0.0
  0
LINE
  5
B203
330
A8E7
100
AcDbEntity
  8
寸法引出
 48
25.0
370
    -2
100
AcDbLine
 10
2724.55932781469
 20
2943.382755420978
 30
0.0
 11
4664.559327814689
 21
2943.382755420978
 31
0.0
  0
SOLID
  5
B204
330
A8E7
100
AcDbEntity
  8
寸法引出
 48
25.0
100
AcDbTrace
 10
2724.55932781469
 20
2948.382755420979
 30
0.0
 11
2724.55932781469
 21
2938.382755420978
 31
0.0
 12
2694.559327814689
 22
2943.382755420978
 32
0.0
 13
2694.559327814689
 23
2943.382755420978
 33
0.0
  0
SOLID
  5
B205
330
A8E7
100
AcDbEntity
  8
寸法引出
 48
25.0
100
AcDbTrace
 10
4664.559327814689
 20
2948.382755420979
 30
0.0
 11
4664.559327814689
 21
2938.382755420978
 31
0.0
 12
4694.559327814689
 22
2943.382755420978
 32
0.0
 13
4694.559327814689
 23
2943.382755420978
 33
0.0
  0
MTEXT
  5
B206
330
A8E7
100
AcDbEntity
  8
寸法引出
 48
25.0
100
AcDbMText
 10
3694.55932781469
 20
2983.382755420979
 30
0.0
 40
40.0
 41
0.0
 71
     5
 72
     1
  1
\A1;2000
  7
SANWA
 73
     1
 44
1.0
  0
POINT
  5
B207
330
A8E7
100
AcDbEntity
  8
DEFPOINTS
 62
     0
 48
25.0
100
AcDbPoint
 10
2694.559327814689
 20
3101.911041539226
 30
0.0
  0
POINT
  5
B208
330
A8E7
100
AcDbEntity
  8
DEFPOINTS
 62
     0
 48
25.0
100
AcDbPoint
 10
4694.559327814689
 20
3101.911041539226
 30
0.0
  0
POINT
  5
B209
330
A8E7
100
AcDbEntity
  8
DEFPOINTS
 62
     0
 48
25.0
100
AcDbPoint
 10
4694.559327814689
 20
2943.382755420978
 30
0.0
  0
ENDBLK
  5
A8F2
330
A8E7
100
AcDbEntity
  8
0
 48
25.0
100
AcDbBlockEnd
  0
BLOCK
  5
B570
330
B567
100
AcDbEntity
  8
0
 48
25.0
100
AcDbBlockBegin
  2
*D44
 70
     1
 10
0.0
 20
0.0
 30
0.0
  3
*D44
  1

  0
LINE
  5
C4E7
330
B567
100
AcDbEntity
  8
寸法引出
 48
25.0
370
    -2
100
AcDbLine
 10
5989.665391358565
 20
3901.911041539227
 30
0.0
 11
5989.665391358565
 21
3993.656336629143
 31
0.0
  0
LINE
  5
C4E8
330
B567
100
AcDbEntity
  8
寸法引出
 48
25.0
370
    -2
100
AcDbLine
 10
5899.665391358565
 20
3983.656336629143
 30
0.0
 11
5959.665391358566
 21
3983.656336629143
 31
0.0
  0
SOLID
  5
C4E9
330
B567
100
AcDbEntity
  8
寸法引出
 48
25.0
100
AcDbTrace
 10
5899.665391358565
 20
3988.656336629143
 30
0.0
 11
5899.665391358565
 21
3978.656336629143
 31
0.0
 12
5869.665391358565
 22
3983.656336629143
 32
0.0
 13
5869.665391358565
 23
3983.656336629143
 33
0.0
  0
SOLID
  5
C4EA
330
B567
100
AcDbEntity
  8
寸法引出
 48
25.0
100
AcDbTrace
 10
5959.665391358566
 20
3988.656336629143
 30
0.0
 11
5959.665391358566
 21
3978.656336629143
 31
0.0
 12
5989.665391358565
 22
3983.656336629143
 32
0.0
 13
5989.665391358565
 23
3983.656336629143
 33
0.0
  0
MTEXT
  5
C4EB
330
B567
100
AcDbEntity
  8
寸法引出
 48
25.0
100
AcDbMText
 10
5929.665391358565
 20
4023.656336629144
 30
0.0
 40
40.0
 41
0.0
 71
     5
 72
     1
  1
\A1;120
  7
SANWA
 73
     1
 44
1.0
  0
POINT
  5
C4EC
330
B567
100
AcDbEntity
  8
DEFPOINTS
 62
     0
 48
25.0
100
AcDbPoint
 10
5869.665391358565
 20
3881.911041539226
 30
0.0
  0
POINT
  5
C4ED
330
B567
100
AcDbEntity
  8
DEFPOINTS
 62
     0
 48
25.0
100
AcDbPoint
 10
5989.665391358565
 20
3881.911041539226
 30
0.0
  0
POINT
  5
C4EE
330
B567
100
AcDbEntity
  8
DEFPOINTS
 62
     0
 48
25.0
100
AcDbPoint
 10
5989.665391358565
 20
3983.656336629143
 30
0.0
  0
ENDBLK
  5
B571
330
B567
100
AcDbEntity
  8
0
 48
25.0
100
AcDbBlockEnd
  0
BLOCK
  5
B5B8
330
B5AF
100
AcDbEntity
  8
0
 48
25.0
100
AcDbBlockBegin
  2
*D45
 70
     1
 10
0.0
 20
0.0
 30
0.0
  3
*D45
  1

  0
LINE
  5
C4DF
330
B5AF
100
AcDbEntity
  8
寸法引出
 48
25.0
370
    -2
100
AcDbLine
 10
5109.665391358565
 20
3901.911041539227
 30
0.0
 11
5109.665391358565
 21
3993.656336629143
 31
0.0
  0
LINE
  5
C4E0
330
B5AF
100
AcDbEntity
  8
寸法引出
 48
25.0
370
    -2
100
AcDbLine
 10
4899.665391358565
 20
3983.656336629143
 30
0.0
 11
5079.665391358565
 21
3983.656336629143
 31
0.0
  0
SOLID
  5
C4E1
330
B5AF
100
AcDbEntity
  8
寸法引出
 48
25.0
100
AcDbTrace
 10
4899.665391358565
 20
3988.656336629143
 30
0.0
 11
4899.665391358565
 21
3978.656336629143
 31
0.0
 12
4869.665391358565
 22
3983.656336629143
 32
0.0
 13
4869.665391358565
 23
3983.656336629143
 33
0.0
  0
SOLID
  5
C4E2
330
B5AF
100
AcDbEntity
  8
寸法引出
 48
25.0
100
AcDbTrace
 10
5079.665391358565
 20
3988.656336629143
 30
0.0
 11
5079.665391358565
 21
3978.656336629143
 31
0.0
 12
5109.665391358565
 22
3983.656336629143
 32
0.0
 13
5109.665391358565
 23
3983.656336629143
 33
0.0
  0
MTEXT
  5
C4E3
330
B5AF
100
AcDbEntity
  8
寸法引出
 48
25.0
100
AcDbMText
 10
4989.665391358565
 20
4023.656336629144
 30
0.0
 40
40.0
 41
0.0
 71
     5
 72
     1
  1
\A1;240
  7
SANWA
 73
     1
 44
1.0
  0
POINT
  5
C4E4
330
B5AF
100
AcDbEntity
  8
DEFPOINTS
 62
     0
 48
25.0
100
AcDbPoint
 10
4869.665391358565
 20
3881.911041539226
 30
0.0
  0
POINT
  5
C4E5
330
B5AF
100
AcDbEntity
  8
DEFPOINTS
 62
     0
 48
25.0
100
AcDbPoint
 10
5109.665391358565
 20
3881.911041539226
 30
0.0
  0
POINT
  5
C4E6
330
B5AF
100
AcDbEntity
  8
DEFPOINTS
 62
     0
 48
25.0
100
AcDbPoint
 10
5109.665391358565
 20
3983.656336629143
 30
0.0
  0
ENDBLK
  5
B5B9
330
B5AF
100
AcDbEntity
  8
0
 48
25.0
100
AcDbBlockEnd
  0
BLOCK
  5
B5C3
330
B5BA
100
AcDbEntity
  8
0
 48
25.0
100
AcDbBlockBegin
  2
*D46
 70
     1
 10
0.0
 20
0.0
 30
0.0
  3
*D46
  1

  0
LINE
  5
C4D7
330
B5BA
100
AcDbEntity
  8
寸法引出
 48
25.0
370
    -2
100
AcDbLine
 10
4869.665391358565
 20
3901.911041539227
 30
0.0
 11
4869.665391358565
 21
3993.656336629143
 31
0.0
  0
LINE
  5
C4D8
330
B5BA
100
AcDbEntity
  8
寸法引出
 48
25.0
370
    -2
100
AcDbLine
 10
4139.665391358565
 20
3983.656336629143
 30
0.0
 11
4839.665391358565
 21
3983.656336629143
 31
0.0
  0
SOLID
  5
C4D9
330
B5BA
100
AcDbEntity
  8
寸法引出
 48
25.0
100
AcDbTrace
 10
4139.665391358565
 20
3988.656336629143
 30
0.0
 11
4139.665391358565
 21
3978.656336629143
 31
0.0
 12
4109.665391358565
 22
3983.656336629143
 32
0.0
 13
4109.665391358565
 23
3983.656336629143
 33
0.0
  0
SOLID
  5
C4DA
330
B5BA
100
AcDbEntity
  8
寸法引出
 48
25.0
100
AcDbTrace
 10
4839.665391358565
 20
3988.656336629143
 30
0.0
 11
4839.665391358565
 21
3978.656336629143
 31
0.0
 12
4869.665391358565
 22
3983.656336629143
 32
0.0
 13
4869.665391358565
 23
3983.656336629143
 33
0.0
  0
MTEXT
  5
C4DB
330
B5BA
100
AcDbEntity
  8
寸法引出
 48
25.0
100
AcDbMText
 10
4489.665391358565
 20
4023.656336629144
 30
0.0
 40
40.0
 41
0.0
 71
     5
 72
     1
  1
\A1;760
  7
SANWA
 73
     1
 44
1.0
  0
POINT
  5
C4DC
330
B5BA
100
AcDbEntity
  8
DEFPOINTS
 62
     0
 48
25.0
100
AcDbPoint
 10
4109.665391358565
 20
3881.911041539226
 30
0.0
  0
POINT
  5
C4DD
330
B5BA
100
AcDbEntity
  8
DEFPOINTS
 62
     0
 48
25.0
100
AcDbPoint
 10
4869.665391358565
 20
3881.911041539226
 30
0.0
  0
POINT
  5
C4DE
330
B5BA
100
AcDbEntity
  8
DEFPOINTS
 62
     0
 48
25.0
100
AcDbPoint
 10
4869.665391358565
 20
3983.656336629143
 30
0.0
  0
ENDBLK
  5
B5C4
330
B5BA
100
AcDbEntity
  8
0
 48
25.0
100
AcDbBlockEnd
  0
BLOCK
  5
B5D0
330
B5C5
100
AcDbEntity
  8
0
 48
25.0
100
AcDbBlockBegin
  2
*D47
 70
     1
 10
0.0
 20
0.0
 30
0.0
  3
*D47
  1

  0
LINE
  5
C439
330
B5C5
100
AcDbEntity
  8
寸法引出
 48
25.0
370
    -2
100
AcDbLine
 10
2596.346071278629
 20
3901.911041539227
 30
0.0
 11
2596.346071278629
 21
4028.157138493049
 31
0.0
  0
LINE
  5
C43A
330
B5C5
100
AcDbEntity
  8
寸法引出
 48
25.0
370
    -2
100
AcDbLine
 10
2516.346071278629
 20
4018.157138493049
 30
0.0
 11
2486.346071278629
 21
4018.157138493049
 31
0.0
  0
LINE
  5
C43B
330
B5C5
100
AcDbEntity
  8
寸法引出
 48
25.0
370
    -2
100
AcDbLine
 10
2626.346071278629
 20
4018.157138493049
 30
0.0
 11
2656.346071278629
 21
4018.157138493049
 31
0.0
  0
LINE
  5
C43C
330
B5C5
100
AcDbEntity
  8
寸法引出
 48
25.0
370
    -2
100
AcDbLine
 10
2546.346071278628
 20
4018.157138493049
 30
0.0
 11
2596.346071278629
 21
4018.157138493049
 31
0.0
  0
SOLID
  5
C43D
330
B5C5
100
AcDbEntity
  8
寸法引出
 48
25.0
100
AcDbTrace
 10
2516.346071278629
 20
4023.157138493049
 30
0.0
 11
2516.346071278629
 21
4013.157138493048
 31
0.0
 12
2546.346071278628
 22
4018.157138493049
 32
0.0
 13
2546.346071278628
 23
4018.157138493049
 33
0.0
  0
SOLID
  5
C43E
330
B5C5
100
AcDbEntity
  8
寸法引出
 48
25.0
100
AcDbTrace
 10
2626.346071278629
 20
4023.157138493049
 30
0.0
 11
2626.346071278629
 21
4013.157138493048
 31
0.0
 12
2596.346071278629
 22
4018.157138493049
 32
0.0
 13
2596.346071278629
 23
4018.157138493049
 33
0.0
  0
MTEXT
  5
C43F
330
B5C5
100
AcDbEntity
  8
寸法引出
 48
25.0
100
AcDbMText
 10
2571.346071278629
 20
4058.157138493049
 30
0.0
 40
40.0
 41
0.0
 71
     5
 72
     1
  1
\A1;50
  7
SANWA
 73
     1
 44
1.0
  0
POINT
  5
C440
330
B5C5
100
AcDbEntity
  8
DEFPOINTS
 62
     0
 48
25.0
100
AcDbPoint
 10
2546.346071278628
 20
3881.911041539226
 30
0.0
  0
POINT
  5
C441
330
B5C5
100
AcDbEntity
  8
DEFPOINTS
 62
     0
 48
25.0
100
AcDbPoint
 10
2596.346071278629
 20
3881.911041539226
 30
0.0
  0
POINT
  5
C442
330
B5C5
100
AcDbEntity
  8
DEFPOINTS
 62
     0
 48
25.0
100
AcDbPoint
 10
2596.346071278629
 20
4018.157138493049
 30
0.0
  0
ENDBLK
  5
B5D1
330
B5C5
100
AcDbEntity
  8
0
 48
25.0
100
AcDbBlockEnd
  0
BLOCK
  5
B5DC
330
B5D2
100
AcDbEntity
  8
0
 48
25.0
100
AcDbBlockBegin
  2
*D48
 70
     1
 10
0.0
 20
0.0
 30
0.0
  3
*D48
  1

  0
LINE
  5
C3F5
330
B5D2
100
AcDbEntity
  8
寸法引出
 48
25.0
370
    -2
100
AcDbLine
 10
2286.346071278629
 20
3071.911041539226
 30
0.0
 11
2286.346071278629
 21
2868.533284157462
 31
0.0
  0
LINE
  5
C3F6
330
B5D2
100
AcDbEntity
  8
寸法引出
 48
25.0
370
    -2
100
AcDbLine
 10
2506.346071278629
 20
3071.911041539226
 30
0.0
 11
2506.346071278629
 21
2868.533284157462
 31
0.0
  0
LINE
  5
C3F7
330
B5D2
100
AcDbEntity
  8
寸法引出
 48
25.0
370
    -2
100
AcDbLine
 10
2316.346071278629
 20
2878.533284157462
 30
0.0
 11
2476.346071278629
 21
2878.533284157462
 31
0.0
  0
SOLID
  5
C3F8
330
B5D2
100
AcDbEntity
  8
寸法引出
 48
25.0
100
AcDbTrace
 10
2316.346071278629
 20
2883.533284157462
 30
0.0
 11
2316.346071278629
 21
2873.533284157462
 31
0.0
 12
2286.346071278629
 22
2878.533284157462
 32
0.0
 13
2286.346071278629
 23
2878.533284157462
 33
0.0
  0
SOLID
  5
C3F9
330
B5D2
100
AcDbEntity
  8
寸法引出
 48
25.0
100
AcDbTrace
 10
2476.346071278629
 20
2883.533284157462
 30
0.0
 11
2476.346071278629
 21
2873.533284157462
 31
0.0
 12
2506.346071278629
 22
2878.533284157462
 32
0.0
 13
2506.346071278629
 23
2878.533284157462
 33
0.0
  0
MTEXT
  5
C3FA
330
B5D2
100
AcDbEntity
  8
寸法引出
 48
25.0
100
AcDbMText
 10
2396.346071278629
 20
2918.533284157462
 30
0.0
 40
40.0
 41
0.0
 71
     5
 72
     1
  1
\A1;220
  7
SANWA
 73
     1
 44
1.0
  0
POINT
  5
C3FB
330
B5D2
100
AcDbEntity
  8
DEFPOINTS
 62
     0
 48
25.0
100
AcDbPoint
 10
2286.346071278629
 20
3091.911041539226
 30
0.0
  0
POINT
  5
C3FC
330
B5D2
100
AcDbEntity
  8
DEFPOINTS
 62
     0
 48
25.0
100
AcDbPoint
 10
2506.346071278629
 20
3091.911041539226
 30
0.0
  0
POINT
  5
C3FD
330
B5D2
100
AcDbEntity
  8
DEFPOINTS
 62
     0
 48
25.0
100
AcDbPoint
 10
2506.346071278629
 20
2878.533284157462
 30
0.0
  0
ENDBLK
  5
B5DD
330
B5D2
100
AcDbEntity
  8
0
 48
25.0
100
AcDbBlockEnd
  0
BLOCK
  5
B5E9
330
B5DE
100
AcDbEntity
  8
0
 48
25.0
100
AcDbBlockBegin
  2
*D49
 70
     1
 10
0.0
 20
0.0
 30
0.0
  3
*D49
  1

  0
LINE
  5
C3FE
330
B5DE
100
AcDbEntity
  8
寸法引出
 48
25.0
370
    -2
100
AcDbLine
 10
2596.346071278629
 20
3101.911041539226
 30
0.0
 11
2596.346071278629
 21
2868.533284157462
 31
0.0
  0
LINE
  5
C3FF
330
B5DE
100
AcDbEntity
  8
寸法引出
 48
25.0
370
    -2
100
AcDbLine
 10
2476.346071278629
 20
2878.533284157462
 30
0.0
 11
2446.346071278629
 21
2878.533284157462
 31
0.0
  0
LINE
  5
C400
330
B5DE
100
AcDbEntity
  8
寸法引出
 48
25.0
370
    -2
100
AcDbLine
 10
2626.346071278629
 20
2878.533284157462
 30
0.0
 11
2656.346071278629
 21
2878.533284157462
 31
0.0
  0
LINE
  5
C401
330
B5DE
100
AcDbEntity
  8
寸法引出
 48
25.0
370
    -2
100
AcDbLine
 10
2506.346071278629
 20
2878.533284157462
 30
0.0
 11
2596.346071278629
 21
2878.533284157462
 31
0.0
  0
SOLID
  5
C402
330
B5DE
100
AcDbEntity
  8
寸法引出
 48
25.0
100
AcDbTrace
 10
2476.346071278629
 20
2883.533284157462
 30
0.0
 11
2476.346071278629
 21
2873.533284157462
 31
0.0
 12
2506.346071278629
 22
2878.533284157462
 32
0.0
 13
2506.346071278629
 23
2878.533284157462
 33
0.0
  0
SOLID
  5
C403
330
B5DE
100
AcDbEntity
  8
寸法引出
 48
25.0
100
AcDbTrace
 10
2626.346071278629
 20
2883.533284157462
 30
0.0
 11
2626.346071278629
 21
2873.533284157462
 31
0.0
 12
2596.346071278629
 22
2878.533284157462
 32
0.0
 13
2596.346071278629
 23
2878.533284157462
 33
0.0
  0
MTEXT
  5
C404
330
B5DE
100
AcDbEntity
  8
寸法引出
 48
25.0
100
AcDbMText
 10
2551.346071278629
 20
2918.533284157462
 30
0.0
 40
40.0
 41
0.0
 71
     5
 72
     1
  1
\A1;90
  7
SANWA
 73
     1
 44
1.0
  0
POINT
  5
C405
330
B5DE
100
AcDbEntity
  8
DEFPOINTS
 62
     0
 48
25.0
100
AcDbPoint
 10
2506.346071278629
 20
3091.911041539226
 30
0.0
  0
POINT
  5
C406
330
B5DE
100
AcDbEntity
  8
DEFPOINTS
 62
     0
 48
25.0
100
AcDbPoint
 10
2596.346071278629
 20
3121.911041539226
 30
0.0
  0
POINT
  5
C407
330
B5DE
100
AcDbEntity
  8
DEFPOINTS
 62
     0
 48
25.0
100
AcDbPoint
 10
2596.346071278629
 20
2878.533284157462
 30
0.0
  0
ENDBLK
  5
B5EA
330
B5DE
100
AcDbEntity
  8
0
 48
25.0
100
AcDbBlockEnd
  0
BLOCK
  5
B5F6
330
B5EB
100
AcDbEntity
  8
0
 48
25.0
100
AcDbBlockBegin
  2
*D50
 70
     1
 10
0.0
 20
0.0
 30
0.0
  3
*D50
  1

  0
LINE
  5
C39F
330
B5EB
100
AcDbEntity
  8
寸法引出
 48
25.0
370
    -2
100
AcDbLine
 10
2586.346071278629
 20
3091.911041539226
 30
0.0
 11
2896.068687916358
 21
3091.911041539226
 31
0.0
  0
LINE
  5
C3A0
330
B5EB
100
AcDbEntity
  8
寸法引出
 48
25.0
370
    -2
100
AcDbLine
 10
2886.068687916358
 20
3211.911041539226
 30
0.0
 11
2886.068687916358
 21
3241.911041539227
 31
0.0
  0
LINE
  5
C3A1
330
B5EB
100
AcDbEntity
  8
寸法引出
 48
25.0
370
    -2
100
AcDbLine
 10
2886.068687916358
 20
3061.911041539226
 30
0.0
 11
2886.068687916358
 21
3031.911041539226
 31
0.0
  0
LINE
  5
C3A2
330
B5EB
100
AcDbEntity
  8
寸法引出
 48
25.0
370
    -2
100
AcDbLine
 10
2886.068687916358
 20
3181.911041539226
 30
0.0
 11
2886.068687916358
 21
3091.911041539226
 31
0.0
  0
SOLID
  5
C3A3
330
B5EB
100
AcDbEntity
  8
寸法引出
 48
25.0
100
AcDbTrace
 10
2881.068687916359
 20
3211.911041539226
 30
0.0
 11
2891.068687916359
 21
3211.911041539226
 31
0.0
 12
2886.068687916358
 22
3181.911041539226
 32
0.0
 13
2886.068687916358
 23
3181.911041539226
 33
0.0
  0
SOLID
  5
C3A4
330
B5EB
100
AcDbEntity
  8
寸法引出
 48
25.0
100
AcDbTrace
 10
2881.068687916358
 20
3061.911041539226
 30
0.0
 11
2891.068687916358
 21
3061.911041539226
 31
0.0
 12
2886.068687916358
 22
3091.911041539226
 32
0.0
 13
2886.068687916358
 23
3091.911041539226
 33
0.0
  0
MTEXT
  5
C3A5
330
B5EB
100
AcDbEntity
  8
寸法引出
 48
25.0
100
AcDbMText
 10
2846.068687916357
 20
3136.911041539227
 30
0.0
 40
40.0
 41
0.0
 71
     5
 72
     1
  1
\A1;90
  7
SANWA
 11
0.0000000000000001
 21
1.0
 31
0.0
 73
     1
 44
1.0
  0
POINT
  5
C3A6
330
B5EB
100
AcDbEntity
  8
DEFPOINTS
 62
     0
 48
25.0
100
AcDbPoint
 10
2596.346071278629
 20
3181.911041539226
 30
0.0
  0
POINT
  5
C3A7
330
B5EB
100
AcDbEntity
  8
DEFPOINTS
 62
     0
 48
25.0
100
AcDbPoint
 10
2566.346071278629
 20
3091.911041539226
 30
0.0
  0
POINT
  5
C3A8
330
B5EB
100
AcDbEntity
  8
DEFPOINTS
 62
     0
 48
25.0
100
AcDbPoint
 10
2886.068687916358
 20
3091.911041539226
 30
0.0
  0
ENDBLK
  5
B5F7
330
B5EB
100
AcDbEntity
  8
0
 48
25.0
100
AcDbBlockEnd
  0
BLOCK
  5
B602
330
B5F8
100
AcDbEntity
  8
0
 48
25.0
100
AcDbBlockBegin
  2
*D51
 70
     1
 10
0.0
 20
0.0
 30
0.0
  3
*D51
  1

  0
LINE
  5
C3A9
330
B5F8
100
AcDbEntity
  8
寸法引出
 48
25.0
370
    -2
100
AcDbLine
 10
2616.346071278629
 20
3881.911041539226
 30
0.0
 11
2896.068687916358
 21
3881.911041539226
 31
0.0
  0
LINE
  5
C3AA
330
B5F8
100
AcDbEntity
  8
寸法引出
 48
25.0
370
    -2
100
AcDbLine
 10
2616.346071278629
 20
3181.911041539226
 30
0.0
 11
2896.068687916358
 21
3181.911041539226
 31
0.0
  0
LINE
  5
C3AB
330
B5F8
100
AcDbEntity
  8
寸法引出
 48
25.0
370
    -2
100
AcDbLine
 10
2886.068687916358
 20
3851.911041539226
 30
0.0
 11
2886.068687916358
 21
3211.911041539226
 31
0.0
  0
SOLID
  5
C3AC
330
B5F8
100
AcDbEntity
  8
寸法引出
 48
25.0
100
AcDbTrace
 10
2881.068687916359
 20
3851.911041539226
 30
0.0
 11
2891.068687916359
 21
3851.911041539226
 31
0.0
 12
2886.068687916358
 22
3881.911041539226
 32
0.0
 13
2886.068687916358
 23
3881.911041539226
 33
0.0
  0
SOLID
  5
C3AD
330
B5F8
100
AcDbEntity
  8
寸法引出
 48
25.0
100
AcDbTrace
 10
2881.068687916359
 20
3211.911041539226
 30
0.0
 11
2891.068687916359
 21
3211.911041539226
 31
0.0
 12
2886.068687916358
 22
3181.911041539226
 32
0.0
 13
2886.068687916358
 23
3181.911041539226
 33
0.0
  0
MTEXT
  5
C3AE
330
B5F8
100
AcDbEntity
  8
寸法引出
 48
25.0
100
AcDbMText
 10
2846.068687916357
 20
3531.911041539227
 30
0.0
 40
40.0
 41
0.0
 71
     5
 72
     1
  1
\A1;700
  7
SANWA
 11
0.0000000000000001
 21
1.0
 31
0.0
 73
     1
 44
1.0
  0
POINT
  5
C3AF
330
B5F8
100
AcDbEntity
  8
DEFPOINTS
 62
     0
 48
25.0
100
AcDbPoint
 10
2596.346071278629
 20
3881.911041539226
 30
0.0
  0
POINT
  5
C3B0
330
B5F8
100
AcDbEntity
  8
DEFPOINTS
 62
     0
 48
25.0
100
AcDbPoint
 10
2596.346071278629
 20
3181.911041539226
 30
0.0
  0
POINT
  5
C3B1
330
B5F8
100
AcDbEntity
  8
DEFPOINTS
 62
     0
 48
25.0
100
AcDbPoint
 10
2886.068687916358
 20
3181.911041539226
 30
0.0
  0
ENDBLK
  5
B603
330
B5F8
100
AcDbEntity
  8
0
 48
25.0
100
AcDbBlockEnd
  0
BLOCK
  5
B60E
330
B604
100
AcDbEntity
  8
0
 48
25.0
100
AcDbBlockBegin
  2
*D52
 70
     1
 10
0.0
 20
0.0
 30
0.0
  3
*D52
  1

  0
LINE
  5
C4BC
330
B604
100
AcDbEntity
  8
寸法引出
 48
25.0
370
    -2
100
AcDbLine
 10
3969.665391358565
 20
3881.911041539226
 30
0.0
 11
3666.413144013237
 21
3881.911041539226
 31
0.0
  0
LINE
  5
C4BD
330
B604
100
AcDbEntity
  8
寸法引出
 48
25.0
370
    -2
100
AcDbLine
 10
3979.665391358565
 20
3091.911041539226
 30
0.0
 11
3666.413144013237
 21
3091.911041539226
 31
0.0
  0
LINE
  5
C4BE
330
B604
100
AcDbEntity
  8
寸法引出
 48
25.0
370
    -2
100
AcDbLine
 10
3676.413144013237
 20
3851.911041539226
 30
0.0
 11
3676.413144013237
 21
3121.911041539226
 31
0.0
  0
SOLID
  5
C4BF
330
B604
100
AcDbEntity
  8
寸法引出
 48
25.0
100
AcDbTrace
 10
3671.413144013237
 20
3851.911041539226
 30
0.0
 11
3681.413144013237
 21
3851.911041539226
 31
0.0
 12
3676.413144013237
 22
3881.911041539226
 32
0.0
 13
3676.413144013237
 23
3881.911041539226
 33
0.0
  0
SOLID
  5
C4C0
330
B604
100
AcDbEntity
  8
寸法引出
 48
25.0
100
AcDbTrace
 10
3671.413144013237
 20
3121.911041539226
 30
0.0
 11
3681.413144013237
 21
3121.911041539226
 31
0.0
 12
3676.413144013237
 22
3091.911041539226
 32
0.0
 13
3676.413144013237
 23
3091.911041539226
 33
0.0
  0
MTEXT
  5
C4C1
330
B604
100
AcDbEntity
  8
寸法引出
 48
25.0
100
AcDbMText
 10
3636.413144013236
 20
3486.911041539228
 30
0.0
 40
40.0
 41
0.0
 71
     5
 72
     1
  1
\A1;790
  7
SANWA
 11
0.0000000000000001
 21
1.0
 31
0.0
 73
     1
 44
1.0
  0
POINT
  5
C4C2
330
B604
100
AcDbEntity
  8
DEFPOINTS
 62
     0
 48
25.0
100
AcDbPoint
 10
3989.665391358565
 20
3881.911041539226
 30
0.0
  0
POINT
  5
C4C3
330
B604
100
AcDbEntity
  8
DEFPOINTS
 62
     0
 48
25.0
100
AcDbPoint
 10
3999.665391358565
 20
3091.911041539226
 30
0.0
  0
POINT
  5
C4C4
330
B604
100
AcDbEntity
  8
DEFPOINTS
 62
     0
 48
25.0
100
AcDbPoint
 10
3676.413144013237
 20
3091.911041539226
 30
0.0
  0
ENDBLK
  5
B60F
330
B604
100
AcDbEntity
  8
0
 48
25.0
100
AcDbBlockEnd
  0
BLOCK
  5
B61A
330
B610
100
AcDbEntity
  8
0
 48
25.0
100
AcDbBlockBegin
  2
*D53
 70
     1
 10
0.0
 20
0.0
 30
0.0
  3
*D53
  1

  0
LINE
  5
C4CE
330
B610
100
AcDbEntity
  8
寸法引出
 48
25.0
370
    -2
100
AcDbLine
 10
3989.665391358565
 20
3901.911041539227
 30
0.0
 11
3989.665391358565
 21
3993.656336629143
 31
0.0
  0
LINE
  5
C4CF
330
B610
100
AcDbEntity
  8
寸法引出
 48
25.0
370
    -2
100
AcDbLine
 10
4109.665391358565
 20
3901.911041539227
 30
0.0
 11
4109.665391358565
 21
3993.656336629143
 31
0.0
  0
LINE
  5
C4D0
330
B610
100
AcDbEntity
  8
寸法引出
 48
25.0
370
    -2
100
AcDbLine
 10
4019.665391358564
 20
3983.656336629143
 30
0.0
 11
4079.665391358565
 21
3983.656336629143
 31
0.0
  0
SOLID
  5
C4D1
330
B610
100
AcDbEntity
  8
寸法引出
 48
25.0
100
AcDbTrace
 10
4019.665391358564
 20
3988.656336629143
 30
0.0
 11
4019.665391358564
 21
3978.656336629143
 31
0.0
 12
3989.665391358565
 22
3983.656336629143
 32
0.0
 13
3989.665391358565
 23
3983.656336629143
 33
0.0
  0
SOLID
  5
C4D2
330
B610
100
AcDbEntity
  8
寸法引出
 48
25.0
100
AcDbTrace
 10
4079.665391358565
 20
3988.656336629143
 30
0.0
 11
4079.665391358565
 21
3978.656336629143
 31
0.0
 12
4109.665391358565
 22
3983.656336629143
 32
0.0
 13
4109.665391358565
 23
3983.656336629143
 33
0.0
  0
MTEXT
  5
C4D3
330
B610
100
AcDbEntity
  8
寸法引出
 48
25.0
100
AcDbMText
 10
4049.665391358565
 20
4023.656336629144
 30
0.0
 40
40.0
 41
0.0
 71
     5
 72
     1
  1
\A1;120
  7
SANWA
 73
     1
 44
1.0
  0
POINT
  5
C4D4
330
B610
100
AcDbEntity
  8
DEFPOINTS
 62
     0
 48
25.0
100
AcDbPoint
 10
3989.665391358565
 20
3881.911041539226
 30
0.0
  0
POINT
  5
C4D5
330
B610
100
AcDbEntity
  8
DEFPOINTS
 62
     0
 48
25.0
100
AcDbPoint
 10
4109.665391358565
 20
3881.911041539226
 30
0.0
  0
POINT
  5
C4D6
330
B610
100
AcDbEntity
  8
DEFPOINTS
 62
     0
 48
25.0
100
AcDbPoint
 10
4109.665391358565
 20
3983.656336629143
 30
0.0
  0
ENDBLK
  5
B61B
330
B610
100
AcDbEntity
  8
0
 48
25.0
100
AcDbBlockEnd
  0
BLOCK
  5
B626
330
B61C
100
AcDbEntity
  8
0
 48
25.0
100
AcDbBlockBegin
  2
*D54
 70
     1
 10
0.0
 20
0.0
 30
0.0
  3
*D54
  1

  0
LINE
  5
C3EC
330
B61C
100
AcDbEntity
  8
寸法引出
 48
25.0
370
    -2
100
AcDbLine
 10
2176.346071278629
 20
3881.911041539226
 30
0.0
 11
1967.796120520066
 21
3881.911041539226
 31
0.0
  0
LINE
  5
C3ED
330
B61C
100
AcDbEntity
  8
寸法引出
 48
25.0
370
    -2
100
AcDbLine
 10
2206.346071278629
 20
3091.911041539226
 30
0.0
 11
1967.796120520066
 21
3091.911041539226
 31
0.0
  0
LINE
  5
C3EE
330
B61C
100
AcDbEntity
  8
寸法引出
 48
25.0
370
    -2
100
AcDbLine
 10
1977.796120520066
 20
3851.911041539226
 30
0.0
 11
1977.796120520066
 21
3121.911041539226
 31
0.0
  0
SOLID
  5
C3EF
330
B61C
100
AcDbEntity
  8
寸法引出
 48
25.0
100
AcDbTrace
 10
1972.796120520066
 20
3851.911041539226
 30
0.0
 11
1982.796120520066
 21
3851.911041539226
 31
0.0
 12
1977.796120520066
 22
3881.911041539226
 32
0.0
 13
1977.796120520066
 23
3881.911041539226
 33
0.0
  0
SOLID
  5
C3F0
330
B61C
100
AcDbEntity
  8
寸法引出
 48
25.0
100
AcDbTrace
 10
1972.796120520066
 20
3121.911041539226
 30
0.0
 11
1982.796120520066
 21
3121.911041539226
 31
0.0
 12
1977.796120520066
 22
3091.911041539226
 32
0.0
 13
1977.796120520066
 23
3091.911041539226
 33
0.0
  0
MTEXT
  5
C3F1
330
B61C
100
AcDbEntity
  8
寸法引出
 48
25.0
100
AcDbMText
 10
1937.796120520065
 20
3486.911041539227
 30
0.0
 40
40.0
 41
0.0
 71
     5
 72
     1
  1
\A1;790
  7
SANWA
 11
0.0000000000000001
 21
1.0
 31
0.0
 73
     1
 44
1.0
  0
POINT
  5
C3F2
330
B61C
100
AcDbEntity
  8
DEFPOINTS
 62
     0
 48
25.0
100
AcDbPoint
 10
2196.346071278628
 20
3881.911041539226
 30
0.0
  0
POINT
  5
C3F3
330
B61C
100
AcDbEntity
  8
DEFPOINTS
 62
     0
 48
25.0
100
AcDbPoint
 10
2226.346071278629
 20
3091.911041539226
 30
0.0
  0
POINT
  5
C3F4
330
B61C
100
AcDbEntity
  8
DEFPOINTS
 62
     0
 48
25.0
100
AcDbPoint
 10
1977.796120520066
 20
3091.911041539226
 30
0.0
  0
ENDBLK
  5
B627
330
B61C
100
AcDbEntity
  8
0
 48
25.0
100
AcDbBlockEnd
  0
BLOCK
  5
B632
330
B628
100
AcDbEntity
  8
0
 48
25.0
100
AcDbBlockBegin
  2
*D55
 70
     1
 10
0.0
 20
0.0
 30
0.0
  3
*D55
  1

  0
LINE
  5
C41D
330
B628
100
AcDbEntity
  8
寸法引出
 48
25.0
370
    -2
100
AcDbLine
 10
2246.346071278629
 20
3901.911041539227
 30
0.0
 11
2246.346071278629
 21
4028.157138493049
 31
0.0
  0
LINE
  5
C41E
330
B628
100
AcDbEntity
  8
寸法引出
 48
25.0
370
    -2
100
AcDbLine
 10
2546.346071278628
 20
3901.911041539227
 30
0.0
 11
2546.346071278628
 21
4028.157138493049
 31
0.0
  0
LINE
  5
C41F
330
B628
100
AcDbEntity
  8
寸法引出
 48
25.0
370
    -2
100
AcDbLine
 10
2276.346071278628
 20
4018.157138493049
 30
0.0
 11
2516.346071278629
 21
4018.157138493049
 31
0.0
  0
SOLID
  5
C420
330
B628
100
AcDbEntity
  8
寸法引出
 48
25.0
100
AcDbTrace
 10
2276.346071278628
 20
4023.157138493049
 30
0.0
 11
2276.346071278628
 21
4013.157138493048
 31
0.0
 12
2246.346071278629
 22
4018.157138493049
 32
0.0
 13
2246.346071278629
 23
4018.157138493049
 33
0.0
  0
SOLID
  5
C421
330
B628
100
AcDbEntity
  8
寸法引出
 48
25.0
100
AcDbTrace
 10
2516.346071278629
 20
4023.157138493049
 30
0.0
 11
2516.346071278629
 21
4013.157138493048
 31
0.0
 12
2546.346071278628
 22
4018.157138493049
 32
0.0
 13
2546.346071278628
 23
4018.157138493049
 33
0.0
  0
MTEXT
  5
C422
330
B628
100
AcDbEntity
  8
寸法引出
 48
25.0
100
AcDbMText
 10
2396.346071278629
 20
4058.157138493049
 30
0.0
 40
40.0
 41
0.0
 71
     5
 72
     1
  1
\A1;300
  7
SANWA
 73
     1
 44
1.0
  0
POINT
  5
C423
330
B628
100
AcDbEntity
  8
DEFPOINTS
 62
     0
 48
25.0
100
AcDbPoint
 10
2246.346071278629
 20
3881.911041539226
 30
0.0
  0
POINT
  5
C424
330
B628
100
AcDbEntity
  8
DEFPOINTS
 62
     0
 48
25.0
100
AcDbPoint
 10
2546.346071278628
 20
3881.911041539226
 30
0.0
  0
POINT
  5
C425
330
B628
100
AcDbEntity
  8
DEFPOINTS
 62
     0
 48
25.0
100
AcDbPoint
 10
2546.346071278628
 20
4018.157138493049
 30
0.0
  0
ENDBLK
  5
B633
330
B628
100
AcDbEntity
  8
0
 48
25.0
100
AcDbBlockEnd
  0
BLOCK
  5
B63F
330
B634
100
AcDbEntity
  8
0
 48
25.0
100
AcDbBlockBegin
  2
*D56
 70
     1
 10
0.0
 20
0.0
 30
0.0
  3
*D56
  1

  0
LINE
  5
C426
330
B634
100
AcDbEntity
  8
寸法引出
 48
25.0
370
    -2
100
AcDbLine
 10
2196.346071278628
 20
3901.911041539227
 30
0.0
 11
2196.346071278628
 21
4028.157138493049
 31
0.0
  0
LINE
  5
C427
330
B634
100
AcDbEntity
  8
寸法引出
 48
25.0
370
    -2
100
AcDbLine
 10
2276.346071278628
 20
4018.157138493049
 30
0.0
 11
2306.346071278629
 21
4018.157138493049
 31
0.0
  0
LINE
  5
C428
330
B634
100
AcDbEntity
  8
寸法引出
 48
25.0
370
    -2
100
AcDbLine
 10
2166.346071278629
 20
4018.157138493049
 30
0.0
 11
2136.346071278629
 21
4018.157138493049
 31
0.0
  0
LINE
  5
C429
330
B634
100
AcDbEntity
  8
寸法引出
 48
25.0
370
    -2
100
AcDbLine
 10
2246.346071278629
 20
4018.157138493049
 30
0.0
 11
2196.346071278628
 21
4018.157138493049
 31
0.0
  0
SOLID
  5
C42A
330
B634
100
AcDbEntity
  8
寸法引出
 48
25.0
100
AcDbTrace
 10
2276.346071278628
 20
4023.157138493049
 30
0.0
 11
2276.346071278628
 21
4013.157138493048
 31
0.0
 12
2246.346071278629
 22
4018.157138493049
 32
0.0
 13
2246.346071278629
 23
4018.157138493049
 33
0.0
  0
SOLID
  5
C42B
330
B634
100
AcDbEntity
  8
寸法引出
 48
25.0
100
AcDbTrace
 10
2166.346071278629
 20
4023.157138493049
 30
0.0
 11
2166.346071278629
 21
4013.157138493048
 31
0.0
 12
2196.346071278628
 22
4018.157138493049
 32
0.0
 13
2196.346071278628
 23
4018.157138493049
 33
0.0
  0
MTEXT
  5
C42C
330
B634
100
AcDbEntity
  8
寸法引出
 48
25.0
100
AcDbMText
 10
2221.346071278629
 20
4058.157138493049
 30
0.0
 40
40.0
 41
0.0
 71
     5
 72
     1
  1
\A1;50
  7
SANWA
 73
     1
 44
1.0
  0
POINT
  5
C42D
330
B634
100
AcDbEntity
  8
DEFPOINTS
 62
     0
 48
25.0
100
AcDbPoint
 10
2246.346071278629
 20
3881.911041539226
 30
0.0
  0
POINT
  5
C42E
330
B634
100
AcDbEntity
  8
DEFPOINTS
 62
     0
 48
25.0
100
AcDbPoint
 10
2196.346071278628
 20
3881.911041539226
 30
0.0
  0
POINT
  5
C42F
330
B634
100
AcDbEntity
  8
DEFPOINTS
 62
     0
 48
25.0
100
AcDbPoint
 10
2196.346071278628
 20
4018.157138493049
 30
0.0
  0
ENDBLK
  5
B640
330
B634
100
AcDbEntity
  8
0
 48
25.0
100
AcDbBlockEnd
  0
BLOCK
  5
B64B
330
B641
100
AcDbEntity
  8
0
 48
25.0
100
AcDbBlockBegin
  2
*D57
 70
     1
 10
0.0
 20
0.0
 30
0.0
  3
*D57
  1

  0
LINE
  5
C430
330
B641
100
AcDbEntity
  8
寸法引出
 48
25.0
370
    -2
100
AcDbLine
 10
2196.346071278628
 20
3901.911041539227
 30
0.0
 11
2196.346071278628
 21
4107.05084047641
 31
0.0
  0
LINE
  5
C431
330
B641
100
AcDbEntity
  8
寸法引出
 48
25.0
370
    -2
100
AcDbLine
 10
2596.346071278629
 20
3901.911041539227
 30
0.0
 11
2596.346071278629
 21
4107.05084047641
 31
0.0
  0
LINE
  5
C432
330
B641
100
AcDbEntity
  8
寸法引出
 48
25.0
370
    -2
100
AcDbLine
 10
2226.346071278629
 20
4097.050840476409
 30
0.0
 11
2566.346071278629
 21
4097.050840476409
 31
0.0
  0
SOLID
  5
C433
330
B641
100
AcDbEntity
  8
寸法引出
 48
25.0
100
AcDbTrace
 10
2226.346071278629
 20
4102.050840476409
 30
0.0
 11
2226.346071278629
 21
4092.050840476409
 31
0.0
 12
2196.346071278628
 22
4097.050840476409
 32
0.0
 13
2196.346071278628
 23
4097.050840476409
 33
0.0
  0
SOLID
  5
C434
330
B641
100
AcDbEntity
  8
寸法引出
 48
25.0
100
AcDbTrace
 10
2566.346071278629
 20
4102.050840476409
 30
0.0
 11
2566.346071278629
 21
4092.050840476409
 31
0.0
 12
2596.346071278629
 22
4097.050840476409
 32
0.0
 13
2596.346071278629
 23
4097.050840476409
 33
0.0
  0
MTEXT
  5
C435
330
B641
100
AcDbEntity
  8
寸法引出
 48
25.0
100
AcDbMText
 10
2396.346071278629
 20
4137.050840476409
 30
0.0
 40
40.0
 41
0.0
 71
     5
 72
     1
  1
\A1;400
  7
SANWA
 73
     1
 44
1.0
  0
POINT
  5
C436
330
B641
100
AcDbEntity
  8
DEFPOINTS
 62
     0
 48
25.0
100
AcDbPoint
 10
2196.346071278628
 20
3881.911041539226
 30
0.0
  0
POINT
  5
C437
330
B641
100
AcDbEntity
  8
DEFPOINTS
 62
     0
 48
25.0
100
AcDbPoint
 10
2596.346071278629
 20
3881.911041539226
 30
0.0
  0
POINT
  5
C438
330
B641
100
AcDbEntity
  8
DEFPOINTS
 62
     0
 48
25.0
100
AcDbPoint
 10
2596.346071278629
 20
4097.050840476409
 30
0.0
  0
ENDBLK
  5
B64C
330
B641
100
AcDbEntity
  8
0
 48
25.0
100
AcDbBlockEnd
  0
BLOCK
  5
B658
330
B64D
100
AcDbEntity
  8
0
 48
25.0
100
AcDbBlockBegin
  2
*D58
 70
     1
 10
0.0
 20
0.0
 30
0.0
  3
*D58
  1

  0
LINE
  5
C408
330
B64D
100
AcDbEntity
  8
寸法引出
 48
25.0
370
    -2
100
AcDbLine
 10
2196.346071278628
 20
3101.911041539226
 30
0.0
 11
2196.346071278628
 21
2868.533284157462
 31
0.0
  0
LINE
  5
C409
330
B64D
100
AcDbEntity
  8
寸法引出
 48
25.0
370
    -2
100
AcDbLine
 10
2316.346071278629
 20
2878.533284157462
 30
0.0
 11
2346.346071278629
 21
2878.533284157462
 31
0.0
  0
LINE
  5
C40A
330
B64D
100
AcDbEntity
  8
寸法引出
 48
25.0
370
    -2
100
AcDbLine
 10
2166.346071278629
 20
2878.533284157462
 30
0.0
 11
2136.346071278629
 21
2878.533284157462
 31
0.0
  0
LINE
  5
C40B
330
B64D
100
AcDbEntity
  8
寸法引出
 48
25.0
370
    -2
100
AcDbLine
 10
2286.346071278629
 20
2878.533284157462
 30
0.0
 11
2196.346071278628
 21
2878.533284157462
 31
0.0
  0
SOLID
  5
C40C
330
B64D
100
AcDbEntity
  8
寸法引出
 48
25.0
100
AcDbTrace
 10
2316.346071278629
 20
2883.533284157462
 30
0.0
 11
2316.346071278629
 21
2873.533284157462
 31
0.0
 12
2286.346071278629
 22
2878.533284157462
 32
0.0
 13
2286.346071278629
 23
2878.533284157462
 33
0.0
  0
SOLID
  5
C40D
330
B64D
100
AcDbEntity
  8
寸法引出
 48
25.0
100
AcDbTrace
 10
2166.346071278629
 20
2883.533284157462
 30
0.0
 11
2166.346071278629
 21
2873.533284157462
 31
0.0
 12
2196.346071278628
 22
2878.533284157462
 32
0.0
 13
2196.346071278628
 23
2878.533284157462
 33
0.0
  0
MTEXT
  5
C40E
330
B64D
100
AcDbEntity
  8
寸法引出
 48
25.0
100
AcDbMText
 10
2241.346071278629
 20
2918.533284157462
 30
0.0
 40
40.0
 41
0.0
 71
     5
 72
     1
  1
\A1;90
  7
SANWA
 73
     1
 44
1.0
  0
POINT
  5
C40F
330
B64D
100
AcDbEntity
  8
DEFPOINTS
 62
     0
 48
25.0
100
AcDbPoint
 10
2286.346071278629
 20
3091.911041539226
 30
0.0
  0
POINT
  5
C410
330
B64D
100
AcDbEntity
  8
DEFPOINTS
 62
     0
 48
25.0
100
AcDbPoint
 10
2196.346071278628
 20
3121.911041539226
 30
0.0
  0
POINT
  5
C411
330
B64D
100
AcDbEntity
  8
DEFPOINTS
 62
     0
 48
25.0
100
AcDbPoint
 10
2196.346071278628
 20
2878.533284157462
 30
0.0
  0
ENDBLK
  5
B659
330
B64D
100
AcDbEntity
  8
0
 48
25.0
100
AcDbBlockEnd
  0
BLOCK
  5
B666
330
B65A
100
AcDbEntity
  8
0
 48
25.0
100
AcDbBlockBegin
  2
*D59
 70
     1
 10
0.0
 20
0.0
 30
0.0
  3
*D59
  1

  0
LINE
  5
C412
330
B65A
100
AcDbEntity
  8
寸法引出
 48
25.0
370
    -2
100
AcDbLine
 10
2182.203935654898
 20
3136.053177162956
 30
0.0
 11
2118.136262447408
 21
3200.120850370447
 31
0.0
  0
LINE
  5
C413
330
B65A
100
AcDbEntity
  8
寸法引出
 48
25.0
370
    -2
100
AcDbLine
 10
2206.346071278627
 20
3091.911041539227
 30
0.0
 11
2073.314292047717
 21
3091.911041539227
 31
0.0
  0
ARC
  5
C414
330
B65A
100
AcDbEntity
  8
寸法引出
 48
25.0
370
    -2
100
AcDbCircle
 10
2226.346071278627
 20
3091.911041539227
 30
0.0
 40
143.0317792309112
100
AcDbArc
 50
147.039560807979
 51
167.9604391920202
  0
SOLID
  5
C415
330
B65A
100
AcDbEntity
  8
寸法引出
 48
25.0
100
AcDbTrace
 10
2102.448952662697
 20
3172.874147520952
 30
0.0
 11
2110.222584436879
 21
3166.583626951123
 31
0.0
 12
2125.207330259274
 22
3193.049782558582
 32
0.0
 13
2125.207330259274
 23
3193.049782558582
 33
0.0
  0
SOLID
  5
C416
330
B65A
100
AcDbEntity
  8
寸法引出
 48
25.0
100
AcDbTrace
 10
2091.432874764317
 20
3121.22125502657
 30
0.0
 11
2081.488017270227
 21
3122.269973016424
 31
0.0
 12
2083.314292047716
 22
3091.911041539226
 32
0.0
 13
2083.314292047716
 23
3091.911041539226
 33
0.0
  0
MTEXT
  5
C417
330
B65A
100
AcDbEntity
  8
寸法引出
 48
25.0
100
AcDbMText
 10
2075.703407972598
 20
3195.869784319714
 30
0.0
 40
40.0
 41
0.0
 71
     5
 72
     1
  1
\A1;45°
  7
SANWA
 11
0.5679819276046809
 21
0.8230410256569662
 31
0.0
 73
     1
 44
1.0
  0
POINT
  5
C418
330
B65A
100
AcDbEntity
  8
DEFPOINTS
 62
     0
 48
25.0
100
AcDbPoint
 10
2088.187981739414
 20
3128.930390059086
 30
0.0
  0
POINT
  5
C419
330
B65A
100
AcDbEntity
  8
DEFPOINTS
 62
     0
 48
25.0
100
AcDbPoint
 10
2196.346071278628
 20
3121.911041539226
 30
0.0
  0
POINT
  5
C41A
330
B65A
100
AcDbEntity
  8
DEFPOINTS
 62
     0
 48
25.0
100
AcDbPoint
 10
2566.346071278628
 20
3091.911041539226
 30
0.0
  0
POINT
  5
C41B
330
B65A
100
AcDbEntity
  8
DEFPOINTS
 62
     0
 48
25.0
100
AcDbPoint
 10
2226.346071278628
 20
3091.911041539226
 30
0.0
  0
POINT
  5
C41C
330
B65A
100
AcDbEntity
  8
DEFPOINTS
 62
     0
 48
25.0
100
AcDbPoint
 10
2226.346071278626
 20
3091.911041539227
 30
0.0
  0
ENDBLK
  5
B667
330
B65A
100
AcDbEntity
  8
0
 48
25.0
100
AcDbBlockEnd
  0
BLOCK
  5
B672
330
B668
100
AcDbEntity
  8
0
 48
25.0
100
AcDbBlockBegin
  2
*D60
 70
     1
 10
0.0
 20
0.0
 30
0.0
  3
*D60
  1

  0
LINE
  5
C443
330
B668
100
AcDbEntity
  8
寸法引出
 48
25.0
370
    -2
100
AcDbLine
 10
3969.665391358565
 20
2215.093926774949
 30
0.0
 11
3666.413144013237
 21
2215.093926774949
 31
0.0
  0
LINE
  5
C444
330
B668
100
AcDbEntity
  8
寸法引出
 48
25.0
370
    -2
100
AcDbLine
 10
3969.665391358565
 20
1815.093926774949
 30
0.0
 11
3666.413144013237
 21
1815.093926774949
 31
0.0
  0
LINE
  5
C445
330
B668
100
AcDbEntity
  8
寸法引出
 48
25.0
370
    -2
100
AcDbLine
 10
3676.413144013237
 20
2185.093926774949
 30
0.0
 11
3676.413144013237
 21
1845.093926774949
 31
0.0
  0
SOLID
  5
C446
330
B668
100
AcDbEntity
  8
寸法引出
 48
25.0
100
AcDbTrace
 10
3671.413144013237
 20
2185.093926774949
 30
0.0
 11
3681.413144013237
 21
2185.093926774949
 31
0.0
 12
3676.413144013237
 22
2215.093926774949
 32
0.0
 13
3676.413144013237
 23
2215.093926774949
 33
0.0
  0
SOLID
  5
C447
330
B668
100
AcDbEntity
  8
寸法引出
 48
25.0
100
AcDbTrace
 10
3671.413144013237
 20
1845.093926774949
 30
0.0
 11
3681.413144013237
 21
1845.093926774949
 31
0.0
 12
3676.413144013237
 22
1815.093926774949
 32
0.0
 13
3676.413144013237
 23
1815.093926774949
 33
0.0
  0
MTEXT
  5
C448
330
B668
100
AcDbEntity
  8
寸法引出
 48
25.0
100
AcDbMText
 10
3636.413144013237
 20
2015.09392677495
 30
0.0
 40
40.0
 41
0.0
 71
     5
 72
     1
  1
\A1;400
  7
SANWA
 11
0.0000000000000001
 21
1.0
 31
0.0
 73
     1
 44
1.0
  0
POINT
  5
C449
330
B668
100
AcDbEntity
  8
DEFPOINTS
 62
     0
 48
25.0
100
AcDbPoint
 10
3989.665391358565
 20
2215.093926774949
 30
0.0
  0
POINT
  5
C44A
330
B668
100
AcDbEntity
  8
DEFPOINTS
 62
     0
 48
25.0
100
AcDbPoint
 10
3989.665391358565
 20
1815.093926774949
 30
0.0
  0
POINT
  5
C44B
330
B668
100
AcDbEntity
  8
DEFPOINTS
 62
     0
 48
25.0
100
AcDbPoint
 10
3676.413144013237
 20
1815.093926774949
 30
0.0
  0
ENDBLK
  5
B673
330
B668
100
AcDbEntity
  8
0
 48
25.0
100
AcDbBlockEnd
  0
BLOCK
  5
B67D
330
B674
100
AcDbEntity
  8
0
 48
25.0
100
AcDbBlockBegin
  2
*D61
 70
     1
 10
0.0
 20
0.0
 30
0.0
  3
*D61
  1

  0
LINE
  5
C497
330
B674
100
AcDbEntity
  8
寸法引出
 48
25.0
370
    -2
100
AcDbLine
 10
5869.665391358565
 20
3901.911041539227
 30
0.0
 11
5869.665391358565
 21
3993.656336629143
 31
0.0
  0
LINE
  5
C498
330
B674
100
AcDbEntity
  8
寸法引出
 48
25.0
370
    -2
100
AcDbLine
 10
5139.665391358565
 20
3983.656336629143
 30
0.0
 11
5839.665391358565
 21
3983.656336629143
 31
0.0
  0
SOLID
  5
C499
330
B674
100
AcDbEntity
  8
寸法引出
 48
25.0
100
AcDbTrace
 10
5139.665391358565
 20
3988.656336629143
 30
0.0
 11
5139.665391358565
 21
3978.656336629143
 31
0.0
 12
5109.665391358565
 22
3983.656336629143
 32
0.0
 13
5109.665391358565
 23
3983.656336629143
 33
0.0
  0
SOLID
  5
C49A
330
B674
100
AcDbEntity
  8
寸法引出
 48
25.0
100
AcDbTrace
 10
5839.665391358565
 20
3988.656336629143
 30
0.0
 11
5839.665391358565
 21
3978.656336629143
 31
0.0
 12
5869.665391358565
 22
3983.656336629143
 32
0.0
 13
5869.665391358565
 23
3983.656336629143
 33
0.0
  0
MTEXT
  5
C49B
330
B674
100
AcDbEntity
  8
寸法引出
 48
25.0
100
AcDbMText
 10
5489.665391358565
 20
4023.656336629144
 30
0.0
 40
40.0
 41
0.0
 71
     5
 72
     1
  1
\A1;760
  7
SANWA
 73
     1
 44
1.0
  0
POINT
  5
C49C
330
B674
100
AcDbEntity
  8
DEFPOINTS
 62
     0
 48
25.0
100
AcDbPoint
 10
5109.665391358565
 20
3881.911041539226
 30
0.0
  0
POINT
  5
C49D
330
B674
100
AcDbEntity
  8
DEFPOINTS
 62
     0
 48
25.0
100
AcDbPoint
 10
5869.665391358565
 20
3881.911041539226
 30
0.0
  0
POINT
  5
C49E
330
B674
100
AcDbEntity
  8
DEFPOINTS
 62
     0
 48
25.0
100
AcDbPoint
 10
5869.665391358565
 20
3983.656336629143
 30
0.0
  0
ENDBLK
  5
B67E
330
B674
100
AcDbEntity
  8
0
 48
25.0
100
AcDbBlockEnd
  0
BLOCK
  5
B689
330
B67F
100
AcDbEntity
  8
0
 48
25.0
100
AcDbBlockBegin
  2
*D62
 70
     1
 10
0.0
 20
0.0
 30
0.0
  3
*D62
  1

  0
LINE
  5
C49F
330
B67F
100
AcDbEntity
  8
寸法引出
 48
25.0
370
    -2
100
AcDbLine
 10
3989.665391358565
 20
2235.093926774949
 30
0.0
 11
3989.665391358565
 21
2318.231178839789
 31
0.0
  0
LINE
  5
C4A0
330
B67F
100
AcDbEntity
  8
寸法引出
 48
25.0
370
    -2
100
AcDbLine
 10
5989.665391358565
 20
2235.093926774949
 30
0.0
 11
5989.665391358565
 21
2318.231178839789
 31
0.0
  0
LINE
  5
C4A1
330
B67F
100
AcDbEntity
  8
寸法引出
 48
25.0
370
    -2
100
AcDbLine
 10
4019.665391358564
 20
2308.231178839789
 30
0.0
 11
5959.665391358566
 21
2308.231178839789
 31
0.0
  0
SOLID
  5
C4A2
330
B67F
100
AcDbEntity
  8
寸法引出
 48
25.0
100
AcDbTrace
 10
4019.665391358564
 20
2313.231178839789
 30
0.0
 11
4019.665391358564
 21
2303.231178839789
 31
0.0
 12
3989.665391358565
 22
2308.231178839789
 32
0.0
 13
3989.665391358565
 23
2308.231178839789
 33
0.0
  0
SOLID
  5
C4A3
330
B67F
100
AcDbEntity
  8
寸法引出
 48
25.0
100
AcDbTrace
 10
5959.665391358566
 20
2313.231178839789
 30
0.0
 11
5959.665391358566
 21
2303.231178839789
 31
0.0
 12
5989.665391358565
 22
2308.231178839789
 32
0.0
 13
5989.665391358565
 23
2308.231178839789
 33
0.0
  0
MTEXT
  5
C4A4
330
B67F
100
AcDbEntity
  8
寸法引出
 48
25.0
100
AcDbMText
 10
4989.665391358565
 20
2348.231178839789
 30
0.0
 40
40.0
 41
0.0
 71
     5
 72
     1
  1
\A1;2000
  7
SANWA
 73
     1
 44
1.0
  0
POINT
  5
C4A5
330
B67F
100
AcDbEntity
  8
DEFPOINTS
 62
     0
 48
25.0
100
AcDbPoint
 10
3989.665391358565
 20
2215.093926774949
 30
0.0
  0
POINT
  5
C4A6
330
B67F
100
AcDbEntity
  8
DEFPOINTS
 62
     0
 48
25.0
100
AcDbPoint
 10
5989.665391358565
 20
2215.093926774949
 30
0.0
  0
POINT
  5
C4A7
330
B67F
100
AcDbEntity
  8
DEFPOINTS
 62
     0
 48
25.0
100
AcDbPoint
 10
5989.665391358565
 20
2308.231178839789
 30
0.0
  0
ENDBLK
  5
B68A
330
B67F
100
AcDbEntity
  8
0
 48
25.0
100
AcDbBlockEnd
  0
BLOCK
  5
B695
330
B68B
100
AcDbEntity
  8
0
 48
25.0
100
AcDbBlockBegin
  2
*D63
 70
     1
 10
0.0
 20
0.0
 30
0.0
  3
*D63
  1

  0
LINE
  5
C3CF
330
B68B
100
AcDbEntity
  8
寸法引出
 48
25.0
370
    -2
100
AcDbLine
 10
1819.463170910161
 20
538.3712771834016
 30
0.0
 11
1962.138017486453
 21
538.3712771834016
 31
0.0
  0
LINE
  5
C3D0
330
B68B
100
AcDbEntity
  8
寸法引出
 48
25.0
370
    -2
100
AcDbLine
 10
1819.463170910156
 20
703.3712771834016
 30
0.0
 11
1962.138017486453
 21
703.3712771834016
 31
0.0
  0
LINE
  5
C3D1
330
B68B
100
AcDbEntity
  8
寸法引出
 48
25.0
370
    -2
100
AcDbLine
 10
1952.138017486453
 20
568.3712771834016
 30
0.0
 11
1952.138017486453
 21
673.3712771834015
 31
0.0
  0
SOLID
  5
C3D2
330
B68B
100
AcDbEntity
  8
寸法引出
 48
25.0
100
AcDbTrace
 10
1947.138017486453
 20
568.3712771834016
 30
0.0
 11
1957.138017486453
 21
568.3712771834016
 31
0.0
 12
1952.138017486453
 22
538.3712771834016
 32
0.0
 13
1952.138017486453
 23
538.3712771834016
 33
0.0
  0
SOLID
  5
C3D3
330
B68B
100
AcDbEntity
  8
寸法引出
 48
25.0
100
AcDbTrace
 10
1947.138017486453
 20
673.3712771834015
 30
0.0
 11
1957.138017486453
 21
673.3712771834015
 31
0.0
 12
1952.138017486453
 22
703.3712771834016
 32
0.0
 13
1952.138017486453
 23
703.3712771834016
 33
0.0
  0
MTEXT
  5
C3D4
330
B68B
100
AcDbEntity
  8
寸法引出
 48
25.0
100
AcDbMText
 10
1912.138017486453
 20
620.871277183402
 30
0.0
 40
40.0
 41
0.0
 71
     5
 72
     1
  1
\A1;55
  7
SANWA
 11
0.0000000000000001
 21
1.0
 31
0.0
 73
     1
 44
1.0
  0
POINT
  5
C3D5
330
B68B
100
AcDbEntity
  8
DEFPOINTS
 62
     0
 48
25.0
100
AcDbPoint
 10
1799.463170910161
 20
538.3712771834016
 30
0.0
  0
POINT
  5
C3D6
330
B68B
100
AcDbEntity
  8
DEFPOINTS
 62
     0
 48
25.0
100
AcDbPoint
 10
1799.463170910155
 20
703.3712771834016
 30
0.0
  0
POINT
  5
C3D7
330
B68B
100
AcDbEntity
  8
DEFPOINTS
 62
     0
 48
25.0
100
AcDbPoint
 10
1952.138017486453
 20
703.3712771834016
 30
0.0
  0
ENDBLK
  5
B696
330
B68B
100
AcDbEntity
  8
0
 48
25.0
100
AcDbBlockEnd
  0
BLOCK
  5
B6A1
330
B697
100
AcDbEntity
  8
0
 48
25.0
100
AcDbBlockBegin
  2
*D64
 70
     1
 10
0.0
 20
0.0
 30
0.0
  3
*D64
  1

  0
LINE
  5
C3BB
330
B697
100
AcDbEntity
  8
寸法引出
 48
25.0
370
    -2
100
AcDbLine
 10
1544.463170910155
 20
512.3712771834016
 30
0.0
 11
1544.463170910155
 21
428.7005753087414
 31
0.0
  0
LINE
  5
C3BC
330
B697
100
AcDbEntity
  8
寸法引出
 48
25.0
370
    -2
100
AcDbLine
 10
1694.463170910156
 20
600.8712771834016
 30
0.0
 11
1694.463170910156
 21
428.7005753087414
 31
0.0
  0
LINE
  5
C3BD
330
B697
100
AcDbEntity
  8
寸法引出
 48
25.0
370
    -2
100
AcDbLine
 10
1574.463170910155
 20
438.7005753087414
 30
0.0
 11
1664.463170910156
 21
438.7005753087414
 31
0.0
  0
SOLID
  5
C3BE
330
B697
100
AcDbEntity
  8
寸法引出
 48
25.0
100
AcDbTrace
 10
1574.463170910155
 20
443.7005753087414
 30
0.0
 11
1574.463170910155
 21
433.7005753087415
 31
0.0
 12
1544.463170910155
 22
438.7005753087414
 32
0.0
 13
1544.463170910155
 23
438.7005753087414
 33
0.0
  0
SOLID
  5
C3BF
330
B697
100
AcDbEntity
  8
寸法引出
 48
25.0
100
AcDbTrace
 10
1664.463170910156
 20
443.7005753087414
 30
0.0
 11
1664.463170910156
 21
433.7005753087415
 31
0.0
 12
1694.463170910156
 22
438.7005753087414
 32
0.0
 13
1694.463170910156
 23
438.7005753087414
 33
0.0
  0
MTEXT
  5
C3C0
330
B697
100
AcDbEntity
  8
寸法引出
 48
25.0
100
AcDbMText
 10
1619.463170910156
 20
478.7005753087414
 30
0.0
 40
40.0
 41
0.0
 71
     5
 72
     1
  1
\A1;50
  7
SANWA
 73
     1
 44
1.0
  0
POINT
  5
C3C1
330
B697
100
AcDbEntity
  8
DEFPOINTS
 62
     0
 48
25.0
100
AcDbPoint
 10
1544.463170910155
 20
532.3712771834016
 30
0.0
  0
POINT
  5
C3C2
330
B697
100
AcDbEntity
  8
DEFPOINTS
 62
     0
 48
25.0
100
AcDbPoint
 10
1694.463170910156
 20
620.8712771834016
 30
0.0
  0
POINT
  5
C3C3
330
B697
100
AcDbEntity
  8
DEFPOINTS
 62
     0
 48
25.0
100
AcDbPoint
 10
1694.463170910156
 20
438.7005753087414
 30
0.0
  0
ENDBLK
  5
B6A2
330
B697
100
AcDbEntity
  8
0
 48
25.0
100
AcDbBlockEnd
  0
BLOCK
  5
B6AF
330
B6A3
100
AcDbEntity
  8
0
 48
25.0
100
AcDbBlockBegin
  2
*D65
 70
     1
 10
0.0
 20
0.0
 30
0.0
  3
*D65
  1

  0
LINE
  5
C3D8
330
B6A3
100
AcDbEntity
  8
寸法引出
 48
25.0
370
    -2
100
AcDbLine
 10
2377.54022515401
 20
512.3712771834016
 30
0.0
 11
2377.54022515401
 21
433.7706937497951
 31
0.0
  0
LINE
  5
C3D9
330
B6A3
100
AcDbEntity
  8
寸法引出
 48
25.0
370
    -2
100
AcDbLine
 10
2387.140225154012
 20
518.3712771834016
 30
0.0
 11
2387.140225154012
 21
433.7706937497951
 31
0.0
  0
LINE
  5
C3DA
330
B6A3
100
AcDbEntity
  8
寸法引出
 48
25.0
370
    -2
100
AcDbLine
 10
2347.54022515401
 20
443.770693749795
 30
0.0
 11
2317.540225154011
 21
443.770693749795
 31
0.0
  0
LINE
  5
C3DB
330
B6A3
100
AcDbEntity
  8
寸法引出
 48
25.0
370
    -2
100
AcDbLine
 10
2417.140225154013
 20
443.770693749795
 30
0.0
 11
2447.140225154013
 21
443.770693749795
 31
0.0
  0
LINE
  5
C3DC
330
B6A3
100
AcDbEntity
  8
寸法引出
 48
25.0
370
    -2
100
AcDbLine
 10
2377.54022515401
 20
443.770693749795
 30
0.0
 11
2387.140225154012
 21
443.770693749795
 31
0.0
  0
SOLID
  5
C3DD
330
B6A3
100
AcDbEntity
  8
寸法引出
 48
25.0
100
AcDbTrace
 10
2347.54022515401
 20
448.7706937497951
 30
0.0
 11
2347.54022515401
 21
438.770693749795
 31
0.0
 12
2377.54022515401
 22
443.770693749795
 32
0.0
 13
2377.54022515401
 23
443.770693749795
 33
0.0
  0
SOLID
  5
C3DE
330
B6A3
100
AcDbEntity
  8
寸法引出
 48
25.0
100
AcDbTrace
 10
2417.140225154013
 20
448.7706937497951
 30
0.0
 11
2417.140225154013
 21
438.770693749795
 31
0.0
 12
2387.140225154012
 22
443.770693749795
 32
0.0
 13
2387.140225154012
 23
443.770693749795
 33
0.0
  0
MTEXT
  5
C3DF
330
B6A3
100
AcDbEntity
  8
寸法引出
 48
25.0
100
AcDbMText
 10
2382.340225154012
 20
483.7706937497951
 30
0.0
 40
40.0
 41
0.0
 71
     5
 72
     1
  1
\A1;3.2
  7
SANWA
 73
     1
 44
1.0
  0
POINT
  5
C3E0
330
B6A3
100
AcDbEntity
  8
DEFPOINTS
 62
     0
 48
25.0
100
AcDbPoint
 10
2377.54022515401
 20
532.3712771834016
 30
0.0
  0
POINT
  5
C3E1
330
B6A3
100
AcDbEntity
  8
DEFPOINTS
 62
     0
 48
25.0
100
AcDbPoint
 10
2387.140225154012
 20
538.3712771834016
 30
0.0
  0
POINT
  5
C3E2
330
B6A3
100
AcDbEntity
  8
DEFPOINTS
 62
     0
 48
25.0
100
AcDbPoint
 10
2387.140225154012
 20
443.770693749795
 30
0.0
  0
ENDBLK
  5
B6B0
330
B6A3
100
AcDbEntity
  8
0
 48
25.0
100
AcDbBlockEnd
  0
BLOCK
  5
B6BD
330
B6B1
100
AcDbEntity
  8
0
 48
25.0
100
AcDbBlockBegin
  2
*D66
 70
     1
 10
0.0
 20
0.0
 30
0.0
  3
*D66
  1

  0
LINE
  5
C3C4
330
B6B1
100
AcDbEntity
  8
寸法引出
 48
25.0
370
    -2
100
AcDbLine
 10
1799.463170910155
 20
723.3712771834015
 30
0.0
 11
1799.463170910155
 21
793.778916802019
 31
0.0
  0
LINE
  5
C3C5
330
B6B1
100
AcDbEntity
  8
寸法引出
 48
25.0
370
    -2
100
AcDbLine
 10
1805.463170910156
 20
729.3712771834016
 30
0.0
 11
1805.463170910156
 21
793.778916802019
 31
0.0
  0
LINE
  5
C3C6
330
B6B1
100
AcDbEntity
  8
寸法引出
 48
25.0
370
    -2
100
AcDbLine
 10
1769.463170910156
 20
783.778916802019
 30
0.0
 11
1739.463170910156
 21
783.778916802019
 31
0.0
  0
LINE
  5
C3C7
330
B6B1
100
AcDbEntity
  8
寸法引出
 48
25.0
370
    -2
100
AcDbLine
 10
1835.463170910156
 20
783.778916802019
 30
0.0
 11
1865.463170910155
 21
783.778916802019
 31
0.0
  0
LINE
  5
C3C8
330
B6B1
100
AcDbEntity
  8
寸法引出
 48
25.0
370
    -2
100
AcDbLine
 10
1799.463170910155
 20
783.778916802019
 30
0.0
 11
1805.463170910156
 21
783.778916802019
 31
0.0
  0
SOLID
  5
C3C9
330
B6B1
100
AcDbEntity
  8
寸法引出
 48
25.0
100
AcDbTrace
 10
1769.463170910156
 20
788.778916802019
 30
0.0
 11
1769.463170910156
 21
778.778916802019
 31
0.0
 12
1799.463170910155
 22
783.778916802019
 32
0.0
 13
1799.463170910155
 23
783.778916802019
 33
0.0
  0
SOLID
  5
C3CA
330
B6B1
100
AcDbEntity
  8
寸法引出
 48
25.0
100
AcDbTrace
 10
1835.463170910156
 20
788.778916802019
 30
0.0
 11
1835.463170910156
 21
778.778916802019
 31
0.0
 12
1805.463170910156
 22
783.778916802019
 32
0.0
 13
1805.463170910156
 23
783.778916802019
 33
0.0
  0
MTEXT
  5
C3CB
330
B6B1
100
AcDbEntity
  8
寸法引出
 48
25.0
100
AcDbMText
 10
1802.463170910155
 20
823.778916802019
 30
0.0
 40
40.0
 41
0.0
 71
     5
 72
     1
  1
\A1;2
  7
SANWA
 73
     1
 44
1.0
  0
POINT
  5
C3CC
330
B6B1
100
AcDbEntity
  8
DEFPOINTS
 62
     0
 48
25.0
100
AcDbPoint
 10
1799.463170910155
 20
703.3712771834016
 30
0.0
  0
POINT
  5
C3CD
330
B6B1
100
AcDbEntity
  8
DEFPOINTS
 62
     0
 48
25.0
100
AcDbPoint
 10
1805.463170910156
 20
709.3712771834016
 30
0.0
  0
POINT
  5
C3CE
330
B6B1
100
AcDbEntity
  8
DEFPOINTS
 62
     0
 48
25.0
100
AcDbPoint
 10
1805.463170910156
 20
783.778916802019
 30
0.0
  0
ENDBLK
  5
B6BE
330
B6B1
100
AcDbEntity
  8
0
 48
25.0
100
AcDbBlockEnd
  0
BLOCK
  5
B6C9
330
B6BF
100
AcDbEntity
  8
0
 48
25.0
100
AcDbBlockBegin
  2
*D67
 70
     1
 10
0.0
 20
0.0
 30
0.0
  3
*D67
  1

  0
LINE
  5
C3B2
330
B6BF
100
AcDbEntity
  8
寸法引出
 48
25.0
370
    -2
100
AcDbLine
 10
1544.463170910155
 20
729.3712771834016
 30
0.0
 11
1544.463170910155
 21
793.778916802019
 31
0.0
  0
LINE
  5
C3B3
330
B6BF
100
AcDbEntity
  8
寸法引出
 48
25.0
370
    -2
100
AcDbLine
 10
1799.463170910155
 20
723.3712771834015
 30
0.0
 11
1799.463170910155
 21
793.778916802019
 31
0.0
  0
LINE
  5
C3B4
330
B6BF
100
AcDbEntity
  8
寸法引出
 48
25.0
370
    -2
100
AcDbLine
 10
1574.463170910155
 20
783.778916802019
 30
0.0
 11
1769.463170910156
 21
783.778916802019
 31
0.0
  0
SOLID
  5
C3B5
330
B6BF
100
AcDbEntity
  8
寸法引出
 48
25.0
100
AcDbTrace
 10
1574.463170910155
 20
788.778916802019
 30
0.0
 11
1574.463170910155
 21
778.778916802019
 31
0.0
 12
1544.463170910155
 22
783.778916802019
 32
0.0
 13
1544.463170910155
 23
783.778916802019
 33
0.0
  0
SOLID
  5
C3B6
330
B6BF
100
AcDbEntity
  8
寸法引出
 48
25.0
100
AcDbTrace
 10
1769.463170910156
 20
788.778916802019
 30
0.0
 11
1769.463170910156
 21
778.778916802019
 31
0.0
 12
1799.463170910155
 22
783.778916802019
 32
0.0
 13
1799.463170910155
 23
783.778916802019
 33
0.0
  0
MTEXT
  5
C3B7
330
B6BF
100
AcDbEntity
  8
寸法引出
 48
25.0
100
AcDbMText
 10
1671.963170910156
 20
823.778916802019
 30
0.0
 40
40.0
 41
0.0
 71
     5
 72
     1
  1
\A1;85
  7
SANWA
 73
     1
 44
1.0
  0
POINT
  5
C3B8
330
B6BF
100
AcDbEntity
  8
DEFPOINTS
 62
     0
 48
25.0
100
AcDbPoint
 10
1544.463170910155
 20
709.3712771834016
 30
0.0
  0
POINT
  5
C3B9
330
B6BF
100
AcDbEntity
  8
DEFPOINTS
 62
     0
 48
25.0
100
AcDbPoint
 10
1799.463170910155
 20
703.3712771834016
 30
0.0
  0
POINT
  5
C3BA
330
B6BF
100
AcDbEntity
  8
DEFPOINTS
 62
     0
 48
25.0
100
AcDbPoint
 10
1799.463170910155
 20
783.778916802019
 30
0.0
  0
ENDBLK
  5
B6CA
330
B6BF
100
AcDbEntity
  8
0
 48
25.0
100
AcDbBlockEnd
  0
BLOCK
  5
B6D7
330
B6CB
100
AcDbEntity
  8
0
 48
25.0
100
AcDbBlockBegin
  2
*D68
 70
     1
 10
0.0
 20
0.0
 30
0.0
  3
*D68
  1

  0
LINE
  5
C478
330
B6CB
100
AcDbEntity
  8
寸法引出
 48
25.0
370
    -2
100
AcDbLine
 10
3699.631789356667
 20
782.6778734338786
 30
0.0
 11
3699.631789356667
 21
870.5678830541492
 31
0.0
  0
LINE
  5
C479
330
B6CB
100
AcDbEntity
  8
寸法引出
 48
25.0
370
    -2
100
AcDbLine
 10
3749.631789356667
 20
782.6778734338786
 30
0.0
 11
3749.631789356667
 21
870.5678830541492
 31
0.0
  0
LINE
  5
C47A
330
B6CB
100
AcDbEntity
  8
寸法引出
 48
25.0
370
    -2
100
AcDbLine
 10
3669.631789356666
 20
860.5678830541492
 30
0.0
 11
3639.631789356666
 21
860.5678830541492
 31
0.0
  0
LINE
  5
C47B
330
B6CB
100
AcDbEntity
  8
寸法引出
 48
25.0
370
    -2
100
AcDbLine
 10
3779.631789356666
 20
860.5678830541492
 30
0.0
 11
3809.631789356666
 21
860.5678830541492
 31
0.0
  0
LINE
  5
C47C
330
B6CB
100
AcDbEntity
  8
寸法引出
 48
25.0
370
    -2
100
AcDbLine
 10
3699.631789356667
 20
860.5678830541492
 30
0.0
 11
3749.631789356667
 21
860.5678830541492
 31
0.0
  0
SOLID
  5
C47D
330
B6CB
100
AcDbEntity
  8
寸法引出
 48
25.0
100
AcDbTrace
 10
3669.631789356666
 20
865.5678830541491
 30
0.0
 11
3669.631789356666
 21
855.5678830541491
 31
0.0
 12
3699.631789356667
 22
860.5678830541492
 32
0.0
 13
3699.631789356667
 23
860.5678830541492
 33
0.0
  0
SOLID
  5
C47E
330
B6CB
100
AcDbEntity
  8
寸法引出
 48
25.0
100
AcDbTrace
 10
3779.631789356666
 20
865.5678830541491
 30
0.0
 11
3779.631789356666
 21
855.5678830541491
 31
0.0
 12
3749.631789356667
 22
860.5678830541492
 32
0.0
 13
3749.631789356667
 23
860.5678830541492
 33
0.0
  0
MTEXT
  5
C47F
330
B6CB
100
AcDbEntity
  8
寸法引出
 48
25.0
100
AcDbMText
 10
3724.631789356667
 20
900.5678830541492
 30
0.0
 40
40.0
 41
0.0
 71
     5
 72
     1
  1
\A1;5
  7
SANWA
 73
     1
 44
1.0
  0
POINT
  5
C480
330
B6CB
100
AcDbEntity
  8
DEFPOINTS
 62
     0
 48
25.0
100
AcDbPoint
 10
3699.631789356667
 20
762.6778734338786
 30
0.0
  0
POINT
  5
C481
330
B6CB
100
AcDbEntity
  8
DEFPOINTS
 62
     0
 48
25.0
100
AcDbPoint
 10
3749.631789356667
 20
762.6778734338786
 30
0.0
  0
POINT
  5
C482
330
B6CB
100
AcDbEntity
  8
DEFPOINTS
 62
     0
 48
25.0
100
AcDbPoint
 10
3749.631789356667
 20
860.5678830541492
 30
0.0
  0
ENDBLK
  5
B6D8
330
B6CB
100
AcDbEntity
  8
0
 48
25.0
100
AcDbBlockEnd
  0
BLOCK
  5
B6E5
330
B6D9
100
AcDbEntity
  8
0
 48
25.0
100
AcDbBlockBegin
  2
*D69
 70
     1
 10
0.0
 20
0.0
 30
0.0
  3
*D69
  1

  0
LINE
  5
C457
330
B6D9
100
AcDbEntity
  8
寸法引出
 48
25.0
370
    -2
100
AcDbLine
 10
3529.631789356666
 20
592.6778734338786
 30
0.0
 11
3455.514492224123
 21
592.6778734338786
 31
0.0
  0
LINE
  5
C458
330
B6D9
100
AcDbEntity
  8
寸法引出
 48
25.0
370
    -2
100
AcDbLine
 10
3579.631789356666
 20
662.6778734338786
 30
0.0
 11
3455.514492224123
 21
662.6778734338786
 31
0.0
  0
LINE
  5
C459
330
B6D9
100
AcDbEntity
  8
寸法引出
 48
25.0
370
    -2
100
AcDbLine
 10
3465.514492224123
 20
562.6778734338786
 30
0.0
 11
3465.514492224123
 21
532.6778734338786
 31
0.0
  0
LINE
  5
C45A
330
B6D9
100
AcDbEntity
  8
寸法引出
 48
25.0
370
    -2
100
AcDbLine
 10
3465.514492224123
 20
692.6778734338786
 30
0.0
 11
3465.514492224123
 21
722.6778734338786
 31
0.0
  0
LINE
  5
C45B
330
B6D9
100
AcDbEntity
  8
寸法引出
 48
25.0
370
    -2
100
AcDbLine
 10
3465.514492224123
 20
592.6778734338786
 30
0.0
 11
3465.514492224123
 21
662.6778734338786
 31
0.0
  0
SOLID
  5
C45C
330
B6D9
100
AcDbEntity
  8
寸法引出
 48
25.0
100
AcDbTrace
 10
3460.514492224123
 20
562.6778734338786
 30
0.0
 11
3470.514492224123
 21
562.6778734338786
 31
0.0
 12
3465.514492224123
 22
592.6778734338786
 32
0.0
 13
3465.514492224123
 23
592.6778734338786
 33
0.0
  0
SOLID
  5
C45D
330
B6D9
100
AcDbEntity
  8
寸法引出
 48
25.0
100
AcDbTrace
 10
3460.514492224123
 20
692.6778734338786
 30
0.0
 11
3470.514492224123
 21
692.6778734338786
 31
0.0
 12
3465.514492224123
 22
662.6778734338786
 32
0.0
 13
3465.514492224123
 23
662.6778734338786
 33
0.0
  0
MTEXT
  5
C45E
330
B6D9
100
AcDbEntity
  8
寸法引出
 48
25.0
100
AcDbMText
 10
3425.514492224123
 20
627.6778734338791
 30
0.0
 40
40.0
 41
0.0
 71
     5
 72
     1
  1
\A1;7
  7
SANWA
 11
0.0000000000000001
 21
1.0
 31
0.0
 73
     1
 44
1.0
  0
POINT
  5
C45F
330
B6D9
100
AcDbEntity
  8
DEFPOINTS
 62
     0
 48
25.0
100
AcDbPoint
 10
3549.631789356666
 20
592.6778734338786
 30
0.0
  0
POINT
  5
C460
330
B6D9
100
AcDbEntity
  8
DEFPOINTS
 62
     0
 48
25.0
100
AcDbPoint
 10
3599.631789356667
 20
662.6778734338786
 30
0.0
  0
POINT
  5
C461
330
B6D9
100
AcDbEntity
  8
DEFPOINTS
 62
     0
 48
25.0
100
AcDbPoint
 10
3465.514492224123
 20
662.6778734338786
 30
0.0
  0
ENDBLK
  5
B6E6
330
B6D9
100
AcDbEntity
  8
0
 48
25.0
100
AcDbBlockEnd
  0
BLOCK
  5
B6F3
330
B6E7
100
AcDbEntity
  8
0
 48
25.0
100
AcDbBlockBegin
  2
*D70
 70
     1
 10
0.0
 20
0.0
 30
0.0
  3
*D70
  1

  0
LINE
  5
C462
330
B6E7
100
AcDbEntity
  8
寸法引出
 48
25.0
370
    -2
100
AcDbLine
 10
3629.631789356666
 20
562.6778734338786
 30
0.0
 11
3455.514492224123
 21
562.6778734338786
 31
0.0
  0
LINE
  5
C463
330
B6E7
100
AcDbEntity
  8
寸法引出
 48
25.0
370
    -2
100
AcDbLine
 10
3529.631789356666
 20
592.6778734338786
 30
0.0
 11
3455.514492224123
 21
592.6778734338786
 31
0.0
  0
LINE
  5
C464
330
B6E7
100
AcDbEntity
  8
寸法引出
 48
25.0
370
    -2
100
AcDbLine
 10
3465.514492224123
 20
532.6778734338786
 30
0.0
 11
3465.514492224123
 21
502.6778734338786
 31
0.0
  0
LINE
  5
C465
330
B6E7
100
AcDbEntity
  8
寸法引出
 48
25.0
370
    -2
100
AcDbLine
 10
3465.514492224123
 20
622.6778734338786
 30
0.0
 11
3465.514492224123
 21
652.6778734338786
 31
0.0
  0
LINE
  5
C466
330
B6E7
100
AcDbEntity
  8
寸法引出
 48
25.0
370
    -2
100
AcDbLine
 10
3465.514492224123
 20
562.6778734338786
 30
0.0
 11
3465.514492224123
 21
592.6778734338786
 31
0.0
  0
SOLID
  5
C467
330
B6E7
100
AcDbEntity
  8
寸法引出
 48
25.0
100
AcDbTrace
 10
3460.514492224123
 20
532.6778734338786
 30
0.0
 11
3470.514492224123
 21
532.6778734338786
 31
0.0
 12
3465.514492224123
 22
562.6778734338786
 32
0.0
 13
3465.514492224123
 23
562.6778734338786
 33
0.0
  0
SOLID
  5
C468
330
B6E7
100
AcDbEntity
  8
寸法引出
 48
25.0
100
AcDbTrace
 10
3460.514492224123
 20
622.6778734338786
 30
0.0
 11
3470.514492224123
 21
622.6778734338786
 31
0.0
 12
3465.514492224123
 22
592.6778734338786
 32
0.0
 13
3465.514492224123
 23
592.6778734338786
 33
0.0
  0
MTEXT
  5
C469
330
B6E7
100
AcDbEntity
  8
寸法引出
 48
25.0
100
AcDbMText
 10
3425.514492224123
 20
577.6778734338791
 30
0.0
 40
40.0
 41
0.0
 71
     5
 72
     1
  1
\A1;3
  7
SANWA
 11
0.0000000000000001
 21
1.0
 31
0.0
 73
     1
 44
1.0
  0
POINT
  5
C46A
330
B6E7
100
AcDbEntity
  8
DEFPOINTS
 62
     0
 48
25.0
100
AcDbPoint
 10
3649.631789356666
 20
562.6778734338786
 30
0.0
  0
POINT
  5
C46B
330
B6E7
100
AcDbEntity
  8
DEFPOINTS
 62
     0
 48
25.0
100
AcDbPoint
 10
3549.631789356666
 20
592.6778734338786
 30
0.0
  0
POINT
  5
C46C
330
B6E7
100
AcDbEntity
  8
DEFPOINTS
 62
     0
 48
25.0
100
AcDbPoint
 10
3465.514492224123
 20
592.6778734338786
 30
0.0
  0
ENDBLK
  5
B6F4
330
B6E7
100
AcDbEntity
  8
0
 48
25.0
100
AcDbBlockEnd
  0
BLOCK
  5
B701
330
B6F5
100
AcDbEntity
  8
0
 48
25.0
100
AcDbBlockBegin
  2
*D71
 70
     1
 10
0.0
 20
0.0
 30
0.0
  3
*D71
  1

  0
LINE
  5
C44C
330
B6F5
100
AcDbEntity
  8
寸法引出
 48
25.0
370
    -2
100
AcDbLine
 10
3579.631789356666
 20
662.6778734338786
 30
0.0
 11
3455.514492224123
 21
662.6778734338786
 31
0.0
  0
LINE
  5
C44D
330
B6F5
100
AcDbEntity
  8
寸法引出
 48
25.0
370
    -2
100
AcDbLine
 10
3579.631789356666
 20
762.6778734338786
 30
0.0
 11
3455.514492224123
 21
762.6778734338786
 31
0.0
  0
LINE
  5
C44E
330
B6F5
100
AcDbEntity
  8
寸法引出
 48
25.0
370
    -2
100
AcDbLine
 10
3465.514492224123
 20
632.6778734338786
 30
0.0
 11
3465.514492224123
 21
602.6778734338786
 31
0.0
  0
LINE
  5
C44F
330
B6F5
100
AcDbEntity
  8
寸法引出
 48
25.0
370
    -2
100
AcDbLine
 10
3465.514492224123
 20
792.6778734338786
 30
0.0
 11
3465.514492224123
 21
822.6778734338786
 31
0.0
  0
LINE
  5
C450
330
B6F5
100
AcDbEntity
  8
寸法引出
 48
25.0
370
    -2
100
AcDbLine
 10
3465.514492224123
 20
662.6778734338786
 30
0.0
 11
3465.514492224123
 21
762.6778734338786
 31
0.0
  0
SOLID
  5
C451
330
B6F5
100
AcDbEntity
  8
寸法引出
 48
25.0
100
AcDbTrace
 10
3460.514492224123
 20
632.6778734338786
 30
0.0
 11
3470.514492224123
 21
632.6778734338786
 31
0.0
 12
3465.514492224123
 22
662.6778734338786
 32
0.0
 13
3465.514492224123
 23
662.6778734338786
 33
0.0
  0
SOLID
  5
C452
330
B6F5
100
AcDbEntity
  8
寸法引出
 48
25.0
100
AcDbTrace
 10
3460.514492224123
 20
792.6778734338786
 30
0.0
 11
3470.514492224123
 21
792.6778734338786
 31
0.0
 12
3465.514492224123
 22
762.6778734338786
 32
0.0
 13
3465.514492224123
 23
762.6778734338786
 33
0.0
  0
MTEXT
  5
C453
330
B6F5
100
AcDbEntity
  8
寸法引出
 48
25.0
100
AcDbMText
 10
3425.514492224123
 20
712.6778734338792
 30
0.0
 40
40.0
 41
0.0
 71
     5
 72
     1
  1
\A1;10
  7
SANWA
 11
0.0000000000000001
 21
1.0
 31
0.0
 73
     1
 44
1.0
  0
POINT
  5
C454
330
B6F5
100
AcDbEntity
  8
DEFPOINTS
 62
     0
 48
25.0
100
AcDbPoint
 10
3599.631789356667
 20
662.6778734338786
 30
0.0
  0
POINT
  5
C455
330
B6F5
100
AcDbEntity
  8
DEFPOINTS
 62
     0
 48
25.0
100
AcDbPoint
 10
3599.631789356667
 20
762.6778734338786
 30
0.0
  0
POINT
  5
C456
330
B6F5
100
AcDbEntity
  8
DEFPOINTS
 62
     0
 48
25.0
100
AcDbPoint
 10
3465.514492224123
 20
762.6778734338786
 30
0.0
  0
ENDBLK
  5
B702
330
B6F5
100
AcDbEntity
  8
0
 48
25.0
100
AcDbBlockEnd
  0
BLOCK
  5
B70F
330
B703
100
AcDbEntity
  8
0
 48
25.0
100
AcDbBlockBegin
  2
*D72
 70
     1
 10
0.0
 20
0.0
 30
0.0
  3
*D72
  1

  0
LINE
  5
C46D
330
B703
100
AcDbEntity
  8
寸法引出
 48
25.0
370
    -2
100
AcDbLine
 10
3549.631789356666
 20
782.6778734338786
 30
0.0
 11
3549.631789356666
 21
870.5678830541492
 31
0.0
  0
LINE
  5
C46E
330
B703
100
AcDbEntity
  8
寸法引出
 48
25.0
370
    -2
100
AcDbLine
 10
3599.631789356667
 20
782.6778734338786
 30
0.0
 11
3599.631789356667
 21
870.5678830541492
 31
0.0
  0
LINE
  5
C46F
330
B703
100
AcDbEntity
  8
寸法引出
 48
25.0
370
    -2
100
AcDbLine
 10
3519.631789356666
 20
860.5678830541492
 30
0.0
 11
3489.631789356666
 21
860.5678830541492
 31
0.0
  0
LINE
  5
C470
330
B703
100
AcDbEntity
  8
寸法引出
 48
25.0
370
    -2
100
AcDbLine
 10
3629.631789356666
 20
860.5678830541492
 30
0.0
 11
3659.631789356666
 21
860.5678830541492
 31
0.0
  0
LINE
  5
C471
330
B703
100
AcDbEntity
  8
寸法引出
 48
25.0
370
    -2
100
AcDbLine
 10
3549.631789356666
 20
860.5678830541492
 30
0.0
 11
3599.631789356667
 21
860.5678830541492
 31
0.0
  0
SOLID
  5
C472
330
B703
100
AcDbEntity
  8
寸法引出
 48
25.0
100
AcDbTrace
 10
3519.631789356666
 20
865.5678830541491
 30
0.0
 11
3519.631789356666
 21
855.5678830541491
 31
0.0
 12
3549.631789356666
 22
860.5678830541492
 32
0.0
 13
3549.631789356666
 23
860.5678830541492
 33
0.0
  0
SOLID
  5
C473
330
B703
100
AcDbEntity
  8
寸法引出
 48
25.0
100
AcDbTrace
 10
3629.631789356666
 20
865.5678830541491
 30
0.0
 11
3629.631789356666
 21
855.5678830541491
 31
0.0
 12
3599.631789356667
 22
860.5678830541492
 32
0.0
 13
3599.631789356667
 23
860.5678830541492
 33
0.0
  0
MTEXT
  5
C474
330
B703
100
AcDbEntity
  8
寸法引出
 48
25.0
100
AcDbMText
 10
3574.631789356667
 20
900.5678830541492
 30
0.0
 40
40.0
 41
0.0
 71
     5
 72
     1
  1
\A1;5
  7
SANWA
 73
     1
 44
1.0
  0
POINT
  5
C475
330
B703
100
AcDbEntity
  8
DEFPOINTS
 62
     0
 48
25.0
100
AcDbPoint
 10
3549.631789356666
 20
762.6778734338786
 30
0.0
  0
POINT
  5
C476
330
B703
100
AcDbEntity
  8
DEFPOINTS
 62
     0
 48
25.0
100
AcDbPoint
 10
3599.631789356667
 20
762.6778734338786
 30
0.0
  0
POINT
  5
C477
330
B703
100
AcDbEntity
  8
DEFPOINTS
 62
     0
 48
25.0
100
AcDbPoint
 10
3599.631789356667
 20
860.5678830541492
 30
0.0
  0
ENDBLK
  5
B710
330
B703
100
AcDbEntity
  8
0
 48
25.0
100
AcDbBlockEnd
  0
BLOCK
  5
B71D
330
B711
100
AcDbEntity
  8
0
 48
25.0
100
AcDbBlockBegin
  2
*D73
 70
     1
 10
0.0
 20
0.0
 30
0.0
  3
*D73
  1

  0
LINE
  5
C483
330
B711
100
AcDbEntity
  8
寸法引出
 48
25.0
370
    -2
100
AcDbLine
 10
3599.631789356667
 20
782.6778734338786
 30
0.0
 11
3599.631789356667
 21
870.5678830541492
 31
0.0
  0
LINE
  5
C484
330
B711
100
AcDbEntity
  8
寸法引出
 48
25.0
370
    -2
100
AcDbLine
 10
3699.631789356667
 20
782.6778734338786
 30
0.0
 11
3699.631789356667
 21
870.5678830541492
 31
0.0
  0
LINE
  5
C485
330
B711
100
AcDbEntity
  8
寸法引出
 48
25.0
370
    -2
100
AcDbLine
 10
3569.631789356666
 20
860.5678830541492
 30
0.0
 11
3539.631789356667
 21
860.5678830541492
 31
0.0
  0
LINE
  5
C486
330
B711
100
AcDbEntity
  8
寸法引出
 48
25.0
370
    -2
100
AcDbLine
 10
3729.631789356666
 20
860.5678830541492
 30
0.0
 11
3759.631789356666
 21
860.5678830541492
 31
0.0
  0
LINE
  5
C487
330
B711
100
AcDbEntity
  8
寸法引出
 48
25.0
370
    -2
100
AcDbLine
 10
3599.631789356667
 20
860.5678830541492
 30
0.0
 11
3699.631789356667
 21
860.5678830541492
 31
0.0
  0
SOLID
  5
C488
330
B711
100
AcDbEntity
  8
寸法引出
 48
25.0
100
AcDbTrace
 10
3569.631789356666
 20
865.5678830541491
 30
0.0
 11
3569.631789356666
 21
855.5678830541491
 31
0.0
 12
3599.631789356667
 22
860.5678830541492
 32
0.0
 13
3599.631789356667
 23
860.5678830541492
 33
0.0
  0
SOLID
  5
C489
330
B711
100
AcDbEntity
  8
寸法引出
 48
25.0
100
AcDbTrace
 10
3729.631789356666
 20
865.5678830541491
 30
0.0
 11
3729.631789356666
 21
855.5678830541491
 31
0.0
 12
3699.631789356667
 22
860.5678830541492
 32
0.0
 13
3699.631789356667
 23
860.5678830541492
 33
0.0
  0
MTEXT
  5
C48A
330
B711
100
AcDbEntity
  8
寸法引出
 48
25.0
100
AcDbMText
 10
3649.631789356666
 20
900.5678830541492
 30
0.0
 40
40.0
 41
0.0
 71
     5
 72
     1
  1
\A1;10
  7
SANWA
 73
     1
 44
1.0
  0
POINT
  5
C48B
330
B711
100
AcDbEntity
  8
DEFPOINTS
 62
     0
 48
25.0
100
AcDbPoint
 10
3599.631789356667
 20
762.6778734338786
 30
0.0
  0
POINT
  5
C48C
330
B711
100
AcDbEntity
  8
DEFPOINTS
 62
     0
 48
25.0
100
AcDbPoint
 10
3699.631789356667
 20
762.6778734338786
 30
0.0
  0
POINT
  5
C48D
330
B711
100
AcDbEntity
  8
DEFPOINTS
 62
     0
 48
25.0
100
AcDbPoint
 10
3699.631789356667
 20
860.5678830541492
 30
0.0
  0
ENDBLK
  5
B71E
330
B711
100
AcDbEntity
  8
0
 48
25.0
100
AcDbBlockEnd
  0
BLOCK
  5
B729
330
B71F
100
AcDbEntity
  8
0
 48
25.0
100
AcDbBlockBegin
  2
*D74
 70
     1
 10
0.0
 20
0.0
 30
0.0
  3
*D74
  1

  0
LINE
  5
C48E
330
B71F
100
AcDbEntity
  8
寸法引出
 48
25.0
370
    -2
100
AcDbLine
 10
3549.631789356666
 20
782.6778734338786
 30
0.0
 11
3549.631789356666
 21
956.8510785285671
 31
0.0
  0
LINE
  5
C48F
330
B71F
100
AcDbEntity
  8
寸法引出
 48
25.0
370
    -2
100
AcDbLine
 10
3749.631789356667
 20
782.6778734338786
 30
0.0
 11
3749.631789356667
 21
956.8510785285671
 31
0.0
  0
LINE
  5
C490
330
B71F
100
AcDbEntity
  8
寸法引出
 48
25.0
370
    -2
100
AcDbLine
 10
3579.631789356666
 20
946.8510785285671
 30
0.0
 11
3719.631789356666
 21
946.8510785285671
 31
0.0
  0
SOLID
  5
C491
330
B71F
100
AcDbEntity
  8
寸法引出
 48
25.0
100
AcDbTrace
 10
3579.631789356666
 20
951.851078528567
 30
0.0
 11
3579.631789356666
 21
941.851078528567
 31
0.0
 12
3549.631789356666
 22
946.8510785285671
 32
0.0
 13
3549.631789356666
 23
946.8510785285671
 33
0.0
  0
SOLID
  5
C492
330
B71F
100
AcDbEntity
  8
寸法引出
 48
25.0
100
AcDbTrace
 10
3719.631789356666
 20
951.851078528567
 30
0.0
 11
3719.631789356666
 21
941.851078528567
 31
0.0
 12
3749.631789356667
 22
946.8510785285671
 32
0.0
 13
3749.631789356667
 23
946.8510785285671
 33
0.0
  0
MTEXT
  5
C493
330
B71F
100
AcDbEntity
  8
寸法引出
 48
25.0
100
AcDbMText
 10
3649.631789356666
 20
986.8510785285671
 30
0.0
 40
40.0
 41
0.0
 71
     5
 72
     1
  1
\A1;20
  7
SANWA
 73
     1
 44
1.0
  0
POINT
  5
C494
330
B71F
100
AcDbEntity
  8
DEFPOINTS
 62
     0
 48
25.0
100
AcDbPoint
 10
3549.631789356666
 20
762.6778734338786
 30
0.0
  0
POINT
  5
C495
330
B71F
100
AcDbEntity
  8
DEFPOINTS
 62
     0
 48
25.0
100
AcDbPoint
 10
3749.631789356667
 20
762.6778734338786
 30
0.0
  0
POINT
  5
C496
330
B71F
100
AcDbEntity
  8
DEFPOINTS
 62
     0
 48
25.0
100
AcDbPoint
 10
3749.631789356667
 20
946.8510785285671
 30
0.0
  0
ENDBLK
  5
B72A
330
B71F
100
AcDbEntity
  8
0
 48
25.0
100
AcDbBlockEnd
  0
BLOCK
  5
B735
330
B72B
100
AcDbEntity
  8
0
 48
25.0
100
AcDbBlockBegin
  2
*D75
 70
     1
 10
0.0
 20
0.0
 30
0.0
  3
*D75
  1

  0
LINE
  5
C3E3
330
B72B
100
AcDbEntity
  8
寸法引出
 48
25.0
370
    -2
100
AcDbLine
 10
2176.346071278629
 20
3881.911041539226
 30
0.0
 11
2087.620873691427
 21
3881.911041539226
 31
0.0
  0
LINE
  5
C3E4
330
B72B
100
AcDbEntity
  8
寸法引出
 48
25.0
370
    -2
100
AcDbLine
 10
2176.346071278629
 20
3731.911041539226
 30
0.0
 11
2087.620873691427
 21
3731.911041539226
 31
0.0
  0
LINE
  5
C3E5
330
B72B
100
AcDbEntity
  8
寸法引出
 48
25.0
370
    -2
100
AcDbLine
 10
2097.620873691427
 20
3851.911041539226
 30
0.0
 11
2097.620873691427
 21
3761.911041539226
 31
0.0
  0
SOLID
  5
C3E6
330
B72B
100
AcDbEntity
  8
寸法引出
 48
25.0
100
AcDbTrace
 10
2092.620873691426
 20
3851.911041539226
 30
0.0
 11
2102.620873691426
 21
3851.911041539226
 31
0.0
 12
2097.620873691427
 22
3881.911041539226
 32
0.0
 13
2097.620873691427
 23
3881.911041539226
 33
0.0
  0
SOLID
  5
C3E7
330
B72B
100
AcDbEntity
  8
寸法引出
 48
25.0
100
AcDbTrace
 10
2092.620873691426
 20
3761.911041539226
 30
0.0
 11
2102.620873691426
 21
3761.911041539226
 31
0.0
 12
2097.620873691427
 22
3731.911041539226
 32
0.0
 13
2097.620873691427
 23
3731.911041539226
 33
0.0
  0
MTEXT
  5
C3E8
330
B72B
100
AcDbEntity
  8
寸法引出
 48
25.0
100
AcDbMText
 10
2057.620873691426
 20
3806.911041539227
 30
0.0
 40
40.0
 41
0.0
 71
     5
 72
     1
  1
\A1;150
  7
SANWA
 11
0.0000000000000001
 21
1.0
 31
0.0
 73
     1
 44
1.0
  0
POINT
  5
C3E9
330
B72B
100
AcDbEntity
  8
DEFPOINTS
 62
     0
 48
25.0
100
AcDbPoint
 10
2196.346071278628
 20
3881.911041539226
 30
0.0
  0
POINT
  5
C3EA
330
B72B
100
AcDbEntity
  8
DEFPOINTS
 62
     0
 48
25.0
100
AcDbPoint
 10
2196.346071278628
 20
3731.911041539226
 30
0.0
  0
POINT
  5
C3EB
330
B72B
100
AcDbEntity
  8
DEFPOINTS
 62
     0
 48
25.0
100
AcDbPoint
 10
2097.620873691427
 20
3731.911041539226
 30
0.0
  0
ENDBLK
  5
B736
330
B72B
100
AcDbEntity
  8
0
 48
25.0
100
AcDbBlockEnd
  0
BLOCK
  5
B743
330
B737
100
AcDbEntity
  8
0
 48
25.0
100
AcDbBlockBegin
  2
*D76
 70
     1
 10
0.0
 20
0.0
 30
0.0
  3
*D76
  1

  0
LINE
  5
C4B1
330
B737
100
AcDbEntity
  8
寸法引出
 48
25.0
370
    -2
100
AcDbLine
 10
3989.665391358565
 20
3776.411041539226
 30
0.0
 11
3989.665391358565
 21
3796.969532476582
 31
0.0
  0
LINE
  5
C4B2
330
B737
100
AcDbEntity
  8
寸法引出
 48
25.0
370
    -2
100
AcDbLine
 10
4039.665391358565
 20
3751.911041539226
 30
0.0
 11
4039.665391358565
 21
3796.969532476582
 31
0.0
  0
LINE
  5
C4B3
330
B737
100
AcDbEntity
  8
寸法引出
 48
25.0
370
    -2
100
AcDbLine
 10
3959.665391358565
 20
3786.969532476582
 30
0.0
 11
3929.665391358565
 21
3786.969532476582
 31
0.0
  0
LINE
  5
C4B4
330
B737
100
AcDbEntity
  8
寸法引出
 48
25.0
370
    -2
100
AcDbLine
 10
4069.665391358564
 20
3786.969532476582
 30
0.0
 11
4099.665391358565
 21
3786.969532476582
 31
0.0
  0
LINE
  5
C4B5
330
B737
100
AcDbEntity
  8
寸法引出
 48
25.0
370
    -2
100
AcDbLine
 10
3989.665391358565
 20
3786.969532476582
 30
0.0
 11
4039.665391358565
 21
3786.969532476582
 31
0.0
  0
SOLID
  5
C4B6
330
B737
100
AcDbEntity
  8
寸法引出
 48
25.0
100
AcDbTrace
 10
3959.665391358565
 20
3791.969532476581
 30
0.0
 11
3959.665391358565
 21
3781.969532476582
 31
0.0
 12
3989.665391358565
 22
3786.969532476582
 32
0.0
 13
3989.665391358565
 23
3786.969532476582
 33
0.0
  0
SOLID
  5
C4B7
330
B737
100
AcDbEntity
  8
寸法引出
 48
25.0
100
AcDbTrace
 10
4069.665391358564
 20
3791.969532476581
 30
0.0
 11
4069.665391358564
 21
3781.969532476582
 31
0.0
 12
4039.665391358565
 22
3786.969532476582
 32
0.0
 13
4039.665391358565
 23
3786.969532476582
 33
0.0
  0
MTEXT
  5
C4B8
330
B737
100
AcDbEntity
  8
寸法引出
 48
25.0
100
AcDbMText
 10
4014.665391358565
 20
3826.969532476582
 30
0.0
 40
40.0
 41
0.0
 71
     5
 72
     1
  1
\A1;50
  7
SANWA
 73
     1
 44
1.0
  0
POINT
  5
C4B9
330
B737
100
AcDbEntity
  8
DEFPOINTS
 62
     0
 48
25.0
100
AcDbPoint
 10
3989.665391358565
 20
3756.411041539226
 30
0.0
  0
POINT
  5
C4BA
330
B737
100
AcDbEntity
  8
DEFPOINTS
 62
     0
 48
25.0
100
AcDbPoint
 10
4039.665391358565
 20
3731.911041539226
 30
0.0
  0
POINT
  5
C4BB
330
B737
100
AcDbEntity
  8
DEFPOINTS
 62
     0
 48
25.0
100
AcDbPoint
 10
4039.665391358565
 20
3786.969532476582
 30
0.0
  0
ENDBLK
  5
B744
330
B737
100
AcDbEntity
  8
0
 48
25.0
100
AcDbBlockEnd
  0
BLOCK
  5
B74F
330
B745
100
AcDbEntity
  8
0
 48
25.0
100
AcDbBlockBegin
  2
*D77
 70
     1
 10
0.0
 20
0.0
 30
0.0
  3
*D77
  1

  0
LINE
  5
C4C5
330
B745
100
AcDbEntity
  8
寸法引出
 48
25.0
370
    -2
100
AcDbLine
 10
3969.665391358565
 20
3881.911041539226
 30
0.0
 11
3892.759513663142
 21
3881.911041539226
 31
0.0
  0
LINE
  5
C4C6
330
B745
100
AcDbEntity
  8
寸法引出
 48
25.0
370
    -2
100
AcDbLine
 10
3969.665391358565
 20
3731.911041539226
 30
0.0
 11
3892.759513663142
 21
3731.911041539226
 31
0.0
  0
LINE
  5
C4C7
330
B745
100
AcDbEntity
  8
寸法引出
 48
25.0
370
    -2
100
AcDbLine
 10
3902.759513663142
 20
3851.911041539226
 30
0.0
 11
3902.759513663142
 21
3761.911041539226
 31
0.0
  0
SOLID
  5
C4C8
330
B745
100
AcDbEntity
  8
寸法引出
 48
25.0
100
AcDbTrace
 10
3897.759513663142
 20
3851.911041539226
 30
0.0
 11
3907.759513663142
 21
3851.911041539226
 31
0.0
 12
3902.759513663142
 22
3881.911041539226
 32
0.0
 13
3902.759513663142
 23
3881.911041539226
 33
0.0
  0
SOLID
  5
C4C9
330
B745
100
AcDbEntity
  8
寸法引出
 48
25.0
100
AcDbTrace
 10
3897.759513663142
 20
3761.911041539226
 30
0.0
 11
3907.759513663142
 21
3761.911041539226
 31
0.0
 12
3902.759513663142
 22
3731.911041539226
 32
0.0
 13
3902.759513663142
 23
3731.911041539226
 33
0.0
  0
MTEXT
  5
C4CA
330
B745
100
AcDbEntity
  8
寸法引出
 48
25.0
100
AcDbMText
 10
3862.759513663142
 20
3806.911041539227
 30
0.0
 40
40.0
 41
0.0
 71
     5
 72
     1
  1
\A1;150
  7
SANWA
 11
0.0000000000000001
 21
1.0
 31
0.0
 73
     1
 44
1.0
  0
POINT
  5
C4CB
330
B745
100
AcDbEntity
  8
DEFPOINTS
 62
     0
 48
25.0
100
AcDbPoint
 10
3989.665391358565
 20
3881.911041539226
 30
0.0
  0
POINT
  5
C4CC
330
B745
100
AcDbEntity
  8
DEFPOINTS
 62
     0
 48
25.0
100
AcDbPoint
 10
3989.665391358565
 20
3731.911041539226
 30
0.0
  0
POINT
  5
C4CD
330
B745
100
AcDbEntity
  8
DEFPOINTS
 62
     0
 48
25.0
100
AcDbPoint
 10
3902.759513663142
 20
3731.911041539226
 30
0.0
  0
ENDBLK
  5
B750
330
B745
100
AcDbEntity
  8
0
 48
25.0
100
AcDbBlockEnd
  0
BLOCK
  5
B75B
330
B751
100
AcDbEntity
  8
0
 48
25.0
100
AcDbBlockBegin
  2
*D78
 70
     1
 10
0.0
 20
0.0
 30
0.0
  3
*D78
  1

  0
LINE
  5
C4A8
330
B751
100
AcDbEntity
  8
寸法引出
 48
25.0
370
    -2
100
AcDbLine
 10
3989.665391358565
 20
3081.911041539227
 30
0.0
 11
3989.665391358565
 21
2933.382755420979
 31
0.0
  0
LINE
  5
C4A9
330
B751
100
AcDbEntity
  8
寸法引出
 48
25.0
370
    -2
100
AcDbLine
 10
5989.665391358565
 20
3081.911041539227
 30
0.0
 11
5989.665391358565
 21
2933.382755420979
 31
0.0
  0
LINE
  5
C4AA
330
B751
100
AcDbEntity
  8
寸法引出
 48
25.0
370
    -2
100
AcDbLine
 10
4019.665391358564
 20
2943.382755420978
 30
0.0
 11
5959.665391358566
 21
2943.382755420978
 31
0.0
  0
SOLID
  5
C4AB
330
B751
100
AcDbEntity
  8
寸法引出
 48
25.0
100
AcDbTrace
 10
4019.665391358564
 20
2948.382755420979
 30
0.0
 11
4019.665391358564
 21
2938.382755420978
 31
0.0
 12
3989.665391358565
 22
2943.382755420978
 32
0.0
 13
3989.665391358565
 23
2943.382755420978
 33
0.0
  0
SOLID
  5
C4AC
330
B751
100
AcDbEntity
  8
寸法引出
 48
25.0
100
AcDbTrace
 10
5959.665391358566
 20
2948.382755420979
 30
0.0
 11
5959.665391358566
 21
2938.382755420978
 31
0.0
 12
5989.665391358565
 22
2943.382755420978
 32
0.0
 13
5989.665391358565
 23
2943.382755420978
 33
0.0
  0
MTEXT
  5
C4AD
330
B751
100
AcDbEntity
  8
寸法引出
 48
25.0
100
AcDbMText
 10
4989.665391358565
 20
2983.382755420979
 30
0.0
 40
40.0
 41
0.0
 71
     5
 72
     1
  1
\A1;2000
  7
SANWA
 73
     1
 44
1.0
  0
POINT
  5
C4AE
330
B751
100
AcDbEntity
  8
DEFPOINTS
 62
     0
 48
25.0
100
AcDbPoint
 10
3989.665391358565
 20
3101.911041539226
 30
0.0
  0
POINT
  5
C4AF
330
B751
100
AcDbEntity
  8
DEFPOINTS
 62
     0
 48
25.0
100
AcDbPoint
 10
5989.665391358565
 20
3101.911041539226
 30
0.0
  0
POINT
  5
C4B0
330
B751
100
AcDbEntity
  8
DEFPOINTS
 62
     0
 48
25.0
100
AcDbPoint
 10
5989.665391358565
 20
2943.382755420978
 30
0.0
  0
ENDBLK
  5
B75C
330
B751
100
AcDbEntity
  8
0
 48
25.0
100
AcDbBlockEnd
  0
BLOCK
  5
BCDB
330
BCD1
100
AcDbEntity
  8
0
 48
25.0
100
AcDbBlockBegin
  2
*D79
 70
     1
 10
0.0
 20
0.0
 30
0.0
  3
*D79
  1

  0
LINE
  5
BE89
330
BCD1
100
AcDbEntity
  8
寸法引出
 48
25.0
370
    -2
100
AcDbLine
 10
14174.09967861467
 20
-2984.273829469297
 30
0.0
 11
14047.65595647227
 21
-2977.048473918303
 31
0.0
  0
LINE
  5
BE8A
330
BCD1
100
AcDbEntity
  8
寸法引出
 48
25.0
370
    -2
100
AcDbLine
 10
14142.09474612256
 20
-3544.360148081148
 30
0.0
 11
14015.65102398016
 21
-3537.134792530154
 31
0.0
  0
LINE
  5
BE8B
330
BCD1
100
AcDbEntity
  8
寸法引出
 48
25.0
370
    -2
100
AcDbLine
 10
14055.92817610035
 20
-3007.570111856407
 30
0.0
 11
14027.34623104056
 21
-3507.754150402819
 31
0.0
  0
SOLID
  5
BE8C
330
BCD1
100
AcDbEntity
  8
寸法引出
 48
25.0
100
AcDbTrace
 10
14050.93631942823
 20
-3007.284862903714
 30
0.0
 11
14060.92003277247
 21
-3007.8553608091
 31
0.0
 12
14057.63966981651
 22
-2977.618971823688
 32
0.0
 13
14057.63966981651
 23
-2977.618971823688
 33
0.0
  0
SOLID
  5
BE8D
330
BCD1
100
AcDbEntity
  8
寸法引出
 48
25.0
100
AcDbTrace
 10
14022.35437436844
 20
-3507.468901450127
 30
0.0
 11
14032.33808771267
 21
-3508.039399355512
 31
0.0
 12
14025.6347373244
 22
-3537.705290435539
 32
0.0
 13
14025.6347373244
 23
-3537.705290435539
 33
0.0
  0
MTEXT
  5
BE8E
330
BCD1
100
AcDbEntity
  8
寸法引出
 48
25.0
100
AcDbMText
 10
14001.70235019349
 20
-3255.380139508072
 30
0.0
 40
40.0
 41
0.0
 71
     5
 72
     1
  1
\A1;561
  7
SANWA
 11
0.0570497905385127
 21
0.9983713344239768
 31
0.0
 73
     1
 44
1.0
  0
POINT
  5
BE8F
330
BCD1
100
AcDbEntity
  8
DEFPOINTS
 62
     0
 48
25.0
100
AcDbPoint
 10
14194.06710530314
 20
-2985.414825280067
 30
0.0
  0
POINT
  5
BE90
330
BCD1
100
AcDbEntity
  8
DEFPOINTS
 62
     0
 48
25.0
100
AcDbPoint
 10
14162.06217281104
 20
-3545.501143891918
 30
0.0
  0
POINT
  5
BE91
330
BCD1
100
AcDbEntity
  8
DEFPOINTS
 62
     0
 48
25.0
100
AcDbPoint
 10
14025.6347373244
 20
-3537.705290435539
 30
0.0
  0
ENDBLK
  5
BCDC
330
BCD1
100
AcDbEntity
  8
0
 48
25.0
100
AcDbBlockEnd
  0
BLOCK
  5
BCE7
330
BCDD
100
AcDbEntity
  8
0
 48
25.0
100
AcDbBlockBegin
  2
*D80
 70
     1
 10
0.0
 20
0.0
 30
0.0
  3
*D80
  1

  0
LINE
  5
BE92
330
BCDD
100
AcDbEntity
  8
寸法引出
 48
25.0
370
    -2
100
AcDbLine
 10
14574.72912405376
 20
-1723.132651160019
 30
0.0
 11
14776.76475589244
 21
-1723.132651160019
 31
0.0
  0
LINE
  5
BE93
330
BCDD
100
AcDbEntity
  8
寸法引出
 48
25.0
370
    -2
100
AcDbLine
 10
14574.72912405376
 20
-3663.13265116002
 30
0.0
 11
14776.76475589244
 21
-3663.13265116002
 31
0.0
  0
LINE
  5
BE94
330
BCDD
100
AcDbEntity
  8
寸法引出
 48
25.0
370
    -2
100
AcDbLine
 10
14766.76475589244
 20
-1753.132651160019
 30
0.0
 11
14766.76475589244
 21
-3633.132651160019
 31
0.0
  0
SOLID
  5
BE95
330
BCDD
100
AcDbEntity
  8
寸法引出
 48
25.0
100
AcDbTrace
 10
14761.76475589244
 20
-1753.132651160019
 30
0.0
 11
14771.76475589244
 21
-1753.132651160019
 31
0.0
 12
14766.76475589244
 22
-1723.132651160019
 32
0.0
 13
14766.76475589244
 23
-1723.132651160019
 33
0.0
  0
SOLID
  5
BE96
330
BCDD
100
AcDbEntity
  8
寸法引出
 48
25.0
100
AcDbTrace
 10
14761.76475589244
 20
-3633.132651160019
 30
0.0
 11
14771.76475589244
 21
-3633.132651160019
 31
0.0
 12
14766.76475589244
 22
-3663.13265116002
 32
0.0
 13
14766.76475589244
 23
-3663.13265116002
 33
0.0
  0
MTEXT
  5
BE97
330
BCDD
100
AcDbEntity
  8
寸法引出
 48
25.0
100
AcDbMText
 10
14726.76475589244
 20
-2693.132651160017
 30
0.0
 40
40.0
 41
0.0
 71
     5
 72
     1
  1
\A1;1940
  7
SANWA
 11
0.0000000000000001
 21
1.0
 31
0.0
 73
     1
 44
1.0
  0
POINT
  5
BE98
330
BCDD
100
AcDbEntity
  8
DEFPOINTS
 62
     0
 48
25.0
100
AcDbPoint
 10
14554.72912405376
 20
-1723.132651160019
 30
0.0
  0
POINT
  5
BE99
330
BCDD
100
AcDbEntity
  8
DEFPOINTS
 62
     0
 48
25.0
100
AcDbPoint
 10
14554.72912405376
 20
-3663.13265116002
 30
0.0
  0
POINT
  5
BE9A
330
BCDD
100
AcDbEntity
  8
DEFPOINTS
 62
     0
 48
25.0
100
AcDbPoint
 10
14766.76475589244
 20
-3663.13265116002
 30
0.0
  0
ENDBLK
  5
BCE8
330
BCDD
100
AcDbEntity
  8
0
 48
25.0
100
AcDbBlockEnd
  0
BLOCK
  5
BCF3
330
BCE9
100
AcDbEntity
  8
0
 48
25.0
100
AcDbBlockBegin
  2
*D81
 70
     1
 10
0.0
 20
0.0
 30
0.0
  3
*D81
  1

  0
LINE
  5
BE9B
330
BCE9
100
AcDbEntity
  8
寸法引出
 48
25.0
370
    -2
100
AcDbLine
 10
13264.81834515158
 20
-3288.498888380035
 30
0.0
 11
13264.81834515158
 21
-3202.229694410625
 31
0.0
  0
LINE
  5
BE9C
330
BCE9
100
AcDbEntity
  8
寸法引出
 48
25.0
370
    -2
100
AcDbLine
 10
13634.81834515158
 20
-3288.498888380035
 30
0.0
 11
13634.81834515158
 21
-3202.229694410625
 31
0.0
  0
LINE
  5
BE9D
330
BCE9
100
AcDbEntity
  8
寸法引出
 48
25.0
370
    -2
100
AcDbLine
 10
13294.81834515158
 20
-3212.229694410625
 30
0.0
 11
13604.81834515158
 21
-3212.229694410625
 31
0.0
  0
SOLID
  5
BE9E
330
BCE9
100
AcDbEntity
  8
寸法引出
 48
25.0
100
AcDbTrace
 10
13294.81834515158
 20
-3207.229694410624
 30
0.0
 11
13294.81834515158
 21
-3217.229694410625
 31
0.0
 12
13264.81834515158
 22
-3212.229694410625
 32
0.0
 13
13264.81834515158
 23
-3212.229694410625
 33
0.0
  0
SOLID
  5
BE9F
330
BCE9
100
AcDbEntity
  8
寸法引出
 48
25.0
100
AcDbTrace
 10
13604.81834515158
 20
-3207.229694410624
 30
0.0
 11
13604.81834515158
 21
-3217.229694410625
 31
0.0
 12
13634.81834515158
 22
-3212.229694410625
 32
0.0
 13
13634.81834515158
 23
-3212.229694410625
 33
0.0
  0
MTEXT
  5
BEA0
330
BCE9
100
AcDbEntity
  8
寸法引出
 48
25.0
100
AcDbMText
 10
13449.81834515158
 20
-3172.229694410625
 30
0.0
 40
40.0
 41
0.0
 71
     5
 72
     1
  1
\A1;370
  7
SANWA
 73
     1
 44
1.0
  0
POINT
  5
BEA1
330
BCE9
100
AcDbEntity
  8
DEFPOINTS
 62
     0
 48
25.0
100
AcDbPoint
 10
13264.81834515158
 20
-3308.498888380035
 30
0.0
  0
POINT
  5
BEA2
330
BCE9
100
AcDbEntity
  8
DEFPOINTS
 62
     0
 48
25.0
100
AcDbPoint
 10
13634.81834515158
 20
-3308.498888380035
 30
0.0
  0
POINT
  5
BEA3
330
BCE9
100
AcDbEntity
  8
DEFPOINTS
 62
     0
 48
25.0
100
AcDbPoint
 10
13634.81834515158
 20
-3212.229694410625
 30
0.0
  0
ENDBLK
  5
BCF4
330
BCE9
100
AcDbEntity
  8
0
 48
25.0
100
AcDbBlockEnd
  0
BLOCK
  5
BCFF
330
BCF5
100
AcDbEntity
  8
0
 48
25.0
100
AcDbBlockBegin
  2
*D82
 70
     1
 10
0.0
 20
0.0
 30
0.0
  3
*D82
  1

  0
LINE
  5
BEA4
330
BCF5
100
AcDbEntity
  8
寸法引出
 48
25.0
370
    -2
100
AcDbLine
 10
13936.69006677612
 20
-1761.146570020953
 30
0.0
 11
14048.57642336517
 21
-1761.146570020953
 31
0.0
  0
LINE
  5
BEA5
330
BCF5
100
AcDbEntity
  8
寸法引出
 48
25.0
370
    -2
100
AcDbLine
 10
13936.69006677612
 20
-2411.146570020953
 30
0.0
 11
14048.57642336517
 21
-2411.146570020953
 31
0.0
  0
LINE
  5
BEA6
330
BCF5
100
AcDbEntity
  8
寸法引出
 48
25.0
370
    -2
100
AcDbLine
 10
14038.57642336517
 20
-1791.146570020953
 30
0.0
 11
14038.57642336517
 21
-2381.146570020953
 31
0.0
  0
SOLID
  5
BEA7
330
BCF5
100
AcDbEntity
  8
寸法引出
 48
25.0
100
AcDbTrace
 10
14033.57642336517
 20
-1791.146570020953
 30
0.0
 11
14043.57642336517
 21
-1791.146570020953
 31
0.0
 12
14038.57642336517
 22
-1761.146570020953
 32
0.0
 13
14038.57642336517
 23
-1761.146570020953
 33
0.0
  0
SOLID
  5
BEA8
330
BCF5
100
AcDbEntity
  8
寸法引出
 48
25.0
100
AcDbTrace
 10
14033.57642336517
 20
-2381.146570020953
 30
0.0
 11
14043.57642336517
 21
-2381.146570020953
 31
0.0
 12
14038.57642336517
 22
-2411.146570020953
 32
0.0
 13
14038.57642336517
 23
-2411.146570020953
 33
0.0
  0
MTEXT
  5
BEA9
330
BCF5
100
AcDbEntity
  8
寸法引出
 48
25.0
100
AcDbMText
 10
13998.57642336517
 20
-2086.146570020951
 30
0.0
 40
40.0
 41
0.0
 71
     5
 72
     1
  1
\A1;650
  7
SANWA
 11
0.0000000000000001
 21
1.0
 31
0.0
 73
     1
 44
1.0
  0
POINT
  5
BEAA
330
BCF5
100
AcDbEntity
  8
DEFPOINTS
 62
     0
 48
25.0
100
AcDbPoint
 10
13916.69006677612
 20
-1761.146570020953
 30
0.0
  0
POINT
  5
BEAB
330
BCF5
100
AcDbEntity
  8
DEFPOINTS
 62
     0
 48
25.0
100
AcDbPoint
 10
13916.69006677612
 20
-2411.146570020953
 30
0.0
  0
POINT
  5
BEAC
330
BCF5
100
AcDbEntity
  8
DEFPOINTS
 62
     0
 48
25.0
100
AcDbPoint
 10
14038.57642336517
 20
-2411.146570020953
 30
0.0
  0
ENDBLK
  5
BD00
330
BCF5
100
AcDbEntity
  8
0
 48
25.0
100
AcDbBlockEnd
  0
BLOCK
  5
BD0C
330
BD01
100
AcDbEntity
  8
0
 48
25.0
100
AcDbBlockBegin
  2
*D83
 70
     1
 10
0.0
 20
0.0
 30
0.0
  3
*D83
  1

  0
LINE
  5
BEAD
330
BD01
100
AcDbEntity
  8
寸法引出
 48
25.0
370
    -2
100
AcDbLine
 10
13816.69006677612
 20
-2531.146570020952
 30
0.0
 11
13816.69006677612
 21
-2643.032926610005
 31
0.0
  0
LINE
  5
BEAE
330
BD01
100
AcDbEntity
  8
寸法引出
 48
25.0
370
    -2
100
AcDbLine
 10
13936.69006677612
 20
-2411.146570020954
 30
0.0
 11
14048.57642336517
 21
-2411.146570020954
 31
0.0
  0
ARC
  5
BEAF
330
BD01
100
AcDbEntity
  8
寸法引出
 48
25.0
370
    -2
100
AcDbCircle
 10
13816.69006677612
 20
-2411.146570020954
 30
0.0
 40
221.886356589052
100
AcDbArc
 50
277.752551060959
 51
352.2474489390405
  0
SOLID
  5
BEB0
330
BD01
100
AcDbEntity
  8
寸法引出
 48
25.0
100
AcDbTrace
 10
13846.95944833632
 20
-2635.993423183705
 30
0.0
 11
13846.28342660021
 21
-2626.016299619657
 31
0.0
 12
13816.69006677612
 22
-2633.032926610005
 32
0.0
 13
13816.69006677612
 23
-2633.032926610005
 33
0.0
  0
SOLID
  5
BEB1
330
BD01
100
AcDbEntity
  8
寸法引出
 48
25.0
100
AcDbTrace
 10
14031.55979637482
 20
-2440.739929845047
 30
0.0
 11
14041.53691993887
 21
-2441.415951581153
 31
0.0
 12
14038.57642336517
 22
-2411.146570020953
 32
0.0
 13
14038.57642336517
 23
-2411.146570020953
 33
0.0
  0
MTEXT
  5
BEB2
330
BD01
100
AcDbEntity
  8
寸法引出
 48
25.0
100
AcDbMText
 10
13945.30314292555
 20
-2539.759646170388
 30
0.0
 40
40.0
 41
0.0
 71
     5
 72
     1
  1
\A1;157
  7
SANWA
 11
0.7071067811865476
 21
0.7071067811865475
 31
0.0
 73
     1
 44
1.0
  0
POINT
  5
BEB3
330
BD01
100
AcDbEntity
  8
DEFPOINTS
 62
     0
 48
25.0
100
AcDbPoint
 10
13816.69006677612
 20
-2411.146570020954
 30
0.0
  0
POINT
  5
BEB4
330
BD01
100
AcDbEntity
  8
DEFPOINTS
 62
     0
 48
25.0
100
AcDbPoint
 10
13816.69006677612
 20
-2511.146570020953
 30
0.0
  0
POINT
  5
BEB5
330
BD01
100
AcDbEntity
  8
DEFPOINTS
 62
     0
 48
25.0
100
AcDbPoint
 10
13916.69006677612
 20
-2411.146570020954
 30
0.0
  0
POINT
  5
BEB6
330
BD01
100
AcDbEntity
  8
DEFPOINTS
 62
     0
 48
25.0
100
AcDbPoint
 10
13927.63324507064
 20
-2603.305791580245
 30
0.0
  0
ENDBLK
  5
BD0D
330
BD01
100
AcDbEntity
  8
0
 48
25.0
100
AcDbBlockEnd
  0
BLOCK
  5
BD2E
330
BD24
100
AcDbEntity
  8
0
 48
25.0
100
AcDbBlockBegin
  2
*D84
 70
     1
 10
0.0
 20
0.0
 30
0.0
  3
*D84
  1

  0
LINE
  5
BEC7
330
BD24
100
AcDbEntity
  8
寸法引出
 48
25.0
370
    -2
100
AcDbLine
 10
13536.69006677612
 20
-2411.146570020953
 30
0.0
 11
13425.25620188352
 21
-2411.146570020953
 31
0.0
  0
LINE
  5
BEC8
330
BD24
100
AcDbEntity
  8
寸法引出
 48
25.0
370
    -2
100
AcDbLine
 10
13536.69006677612
 20
-1761.146570020953
 30
0.0
 11
13425.25620188352
 21
-1761.146570020953
 31
0.0
  0
LINE
  5
BEC9
330
BD24
100
AcDbEntity
  8
寸法引出
 48
25.0
370
    -2
100
AcDbLine
 10
13435.25620188352
 20
-2381.146570020953
 30
0.0
 11
13435.25620188352
 21
-1791.146570020953
 31
0.0
  0
SOLID
  5
BECA
330
BD24
100
AcDbEntity
  8
寸法引出
 48
25.0
100
AcDbTrace
 10
13430.25620188352
 20
-2381.146570020953
 30
0.0
 11
13440.25620188352
 21
-2381.146570020953
 31
0.0
 12
13435.25620188352
 22
-2411.146570020953
 32
0.0
 13
13435.25620188352
 23
-2411.146570020953
 33
0.0
  0
SOLID
  5
BECB
330
BD24
100
AcDbEntity
  8
寸法引出
 48
25.0
100
AcDbTrace
 10
13430.25620188352
 20
-1791.146570020953
 30
0.0
 11
13440.25620188352
 21
-1791.146570020953
 31
0.0
 12
13435.25620188352
 22
-1761.146570020953
 32
0.0
 13
13435.25620188352
 23
-1761.146570020953
 33
0.0
  0
MTEXT
  5
BECC
330
BD24
100
AcDbEntity
  8
寸法引出
 48
25.0
100
AcDbMText
 10
13395.25620188352
 20
-2086.146570020951
 30
0.0
 40
40.0
 41
0.0
 71
     5
 72
     1
  1
\A1;650
  7
SANWA
 11
0.0000000000000001
 21
1.0
 31
0.0
 73
     1
 44
1.0
  0
POINT
  5
BECD
330
BD24
100
AcDbEntity
  8
DEFPOINTS
 62
     0
 48
25.0
100
AcDbPoint
 10
13556.69006677612
 20
-2411.146570020953
 30
0.0
  0
POINT
  5
BECE
330
BD24
100
AcDbEntity
  8
DEFPOINTS
 62
     0
 48
25.0
100
AcDbPoint
 10
13556.69006677612
 20
-1761.146570020953
 30
0.0
  0
POINT
  5
BECF
330
BD24
100
AcDbEntity
  8
DEFPOINTS
 62
     0
 48
25.0
100
AcDbPoint
 10
13435.25620188352
 20
-1761.146570020953
 30
0.0
  0
ENDBLK
  5
BD2F
330
BD24
100
AcDbEntity
  8
0
 48
25.0
100
AcDbBlockEnd
  0
BLOCK
  5
BD3B
330
BD30
100
AcDbEntity
  8
0
 48
25.0
100
AcDbBlockBegin
  2
*D85
 70
     1
 10
0.0
 20
0.0
 30
0.0
  3
*D85
  1

  0
LINE
  5
BED0
330
BD30
100
AcDbEntity
  8
寸法引出
 48
25.0
370
    -2
100
AcDbLine
 10
13536.69006677612
 20
-2411.146570020952
 30
0.0
 11
13425.25620188352
 21
-2411.146570020951
 31
0.0
  0
LINE
  5
BED1
330
BD30
100
AcDbEntity
  8
寸法引出
 48
25.0
370
    -2
100
AcDbLine
 10
13656.69006677612
 20
-2531.146570020954
 30
0.0
 11
13656.69006677612
 21
-2642.580434913551
 31
0.0
  0
ARC
  5
BED2
330
BD30
100
AcDbEntity
  8
寸法引出
 48
25.0
370
    -2
100
AcDbCircle
 10
13656.69006677612
 20
-2411.146570020954
 30
0.0
 40
221.433864892598
100
AcDbArc
 50
187.7684173933963
 51
262.2315826066032
  0
SOLID
  5
BED3
330
BD30
100
AcDbEntity
  8
寸法引出
 48
25.0
100
AcDbTrace
 10
13432.29989643284
 20
-2441.416361200975
 30
0.0
 11
13442.27692629937
 21
-2440.738958040114
 31
0.0
 12
13435.25620188352
 22
-2411.14657002095
 32
0.0
 13
13435.25620188352
 23
-2411.14657002095
 33
0.0
  0
SOLID
  5
BED4
330
BD30
100
AcDbEntity
  8
寸法引出
 48
25.0
100
AcDbTrace
 10
13627.09767875696
 20
-2625.559710497702
 30
0.0
 11
13626.4202755961
 21
-2635.536740364234
 31
0.0
 12
13656.69006677612
 22
-2632.580434913552
 32
0.0
 13
13656.69006677612
 23
-2632.580434913552
 33
0.0
  0
MTEXT
  5
BED5
330
BD30
100
AcDbEntity
  8
寸法引出
 48
25.0
100
AcDbMText
 10
13528.39695057368
 20
-2539.439686223392
 30
0.0
 40
40.0
 41
0.0
 71
     5
 72
     1
  1
\A1;157
  7
SANWA
 11
0.7071067811865476
 21
-0.7071067811865475
 31
0.0
 73
     1
 44
1.0
  0
POINT
  5
BED6
330
BD30
100
AcDbEntity
  8
DEFPOINTS
 62
     0
 48
25.0
100
AcDbPoint
 10
13656.69006677612
 20
-2411.146570020954
 30
0.0
  0
POINT
  5
BED7
330
BD30
100
AcDbEntity
  8
DEFPOINTS
 62
     0
 48
25.0
100
AcDbPoint
 10
13556.69006677612
 20
-2411.146570020953
 30
0.0
  0
POINT
  5
BED8
330
BD30
100
AcDbEntity
  8
DEFPOINTS
 62
     0
 48
25.0
100
AcDbPoint
 10
13656.69006677612
 20
-2511.146570020954
 30
0.0
  0
POINT
  5
BED9
330
BD30
100
AcDbEntity
  8
DEFPOINTS
 62
     0
 48
25.0
100
AcDbPoint
 10
13464.92271452096
 20
-2521.863502467252
 30
0.0
  0
ENDBLK
  5
BD3C
330
BD30
100
AcDbEntity
  8
0
 48
25.0
100
AcDbBlockEnd
  0
BLOCK
  5
BD47
330
BD3D
100
AcDbEntity
  8
0
 48
25.0
100
AcDbBlockBegin
  2
*D86
 70
     1
 10
0.0
 20
0.0
 30
0.0
  3
*D86
  1

  0
LINE
  5
BEDA
330
BD3D
100
AcDbEntity
  8
寸法引出
 48
25.0
370
    -2
100
AcDbLine
 10
13656.69006677612
 20
-2531.146570020953
 30
0.0
 11
13656.69006677612
 21
-2642.58043491355
 31
0.0
  0
LINE
  5
BEDB
330
BD3D
100
AcDbEntity
  8
寸法引出
 48
25.0
370
    -2
100
AcDbLine
 10
13816.69006677612
 20
-2531.146570020953
 30
0.0
 11
13816.69006677612
 21
-2642.58043491355
 31
0.0
  0
LINE
  5
BEDC
330
BD3D
100
AcDbEntity
  8
寸法引出
 48
25.0
370
    -2
100
AcDbLine
 10
13686.69006677612
 20
-2632.58043491355
 30
0.0
 11
13786.69006677612
 21
-2632.58043491355
 31
0.0
  0
SOLID
  5
BEDD
330
BD3D
100
AcDbEntity
  8
寸法引出
 48
25.0
100
AcDbTrace
 10
13686.69006677612
 20
-2627.58043491355
 30
0.0
 11
13686.69006677612
 21
-2637.58043491355
 31
0.0
 12
13656.69006677612
 22
-2632.58043491355
 32
0.0
 13
13656.69006677612
 23
-2632.58043491355
 33
0.0
  0
SOLID
  5
BEDE
330
BD3D
100
AcDbEntity
  8
寸法引出
 48
25.0
100
AcDbTrace
 10
13786.69006677612
 20
-2627.58043491355
 30
0.0
 11
13786.69006677612
 21
-2637.58043491355
 31
0.0
 12
13816.69006677612
 22
-2632.58043491355
 32
0.0
 13
13816.69006677612
 23
-2632.58043491355
 33
0.0
  0
MTEXT
  5
BEDF
330
BD3D
100
AcDbEntity
  8
寸法引出
 48
25.0
100
AcDbMText
 10
13736.69006677612
 20
-2592.58043491355
 30
0.0
 40
40.0
 41
0.0
 71
     5
 72
     1
  1
\A1;160
  7
SANWA
 73
     1
 44
1.0
  0
POINT
  5
BEE0
330
BD3D
100
AcDbEntity
  8
DEFPOINTS
 62
     0
 48
25.0
100
AcDbPoint
 10
13656.69006677612
 20
-2511.146570020953
 30
0.0
  0
POINT
  5
BEE1
330
BD3D
100
AcDbEntity
  8
DEFPOINTS
 62
     0
 48
25.0
100
AcDbPoint
 10
13816.69006677612
 20
-2511.146570020953
 30
0.0
  0
POINT
  5
BEE2
330
BD3D
100
AcDbEntity
  8
DEFPOINTS
 62
     0
 48
25.0
100
AcDbPoint
 10
13816.69006677612
 20
-2632.58043491355
 30
0.0
  0
ENDBLK
  5
BD48
330
BD3D
100
AcDbEntity
  8
0
 48
25.0
100
AcDbBlockEnd
  0
ENDSEC
  0
SECTION
  2
ENTITIES
  0
DIMENSION
  5
B30B
330
747D
100
AcDbEntity
  8
寸法引出
 48
25.0
100
AcDbDimension
  2
*D78
 10
5989.665391358565
 20
2943.382755420978
 30
0.0
 11
4989.665391358565
 21
2983.382755420979
 31
0.0
 70
    32
 71
     5
 42
2000.0
  3
SANWA
100
AcDbAlignedDimension
 13
3989.665391358565
 23
3101.911041539226
 33
0.0
 14
5989.665391358565
 24
3101.911041539226
 34
0.0
100
AcDbRotatedDimension
1001
ACAD
1000
DSTYLE
1002
{
1070
    40
1040
20.0
1070
    41
1040
1.5
1070
    43
1040
5.0
1070
    44
1040
0.5
1070
   140
1040
2.0
1070
   147
1040
1.0
1070
   176
1070
   256
1070
   177
1070
   256
1070
   178
1070
   256
1002
}
  0
DIMENSION
  5
B30D
330
747D
100
AcDbEntity
  8
寸法引出
 48
25.0
100
AcDbDimension
  2
*D74
 10
3749.631789356667
 20
946.8510785285671
 30
0.0
 11
3649.631789356666
 21
986.8510785285671
 31
0.0
 70
    32
  1
20
 71
     5
 42
200.0
  3
SANWA
100
AcDbAlignedDimension
 13
3549.631789356666
 23
762.6778734338786
 33
0.0
 14
3749.631789356667
 24
762.6778734338786
 34
0.0
100
AcDbRotatedDimension
1001
ACAD
1000
DSTYLE
1002
{
1070
    40
1040
20.0
1070
    41
1040
1.5
1070
    43
1040
5.0
1070
    44
1040
0.5
1070
   140
1040
2.0
1070
   147
1040
1.0
1070
   176
1070
   256
1070
   177
1070
   256
1070
   178
1070
   256
1002
}
  0
DIMENSION
  5
B30E
330
747D
100
AcDbEntity
  8
寸法引出
 48
25.0
100
AcDbDimension
  2
*D73
 10
3699.631789356667
 20
860.5678830541492
 30
0.0
 11
3649.631789356666
 21
900.5678830541492
 31
0.0
 70
    32
  1
10
 71
     5
 42
100.0
  3
SANWA
100
AcDbAlignedDimension
 13
3599.631789356667
 23
762.6778734338786
 33
0.0
 14
3699.631789356667
 24
762.6778734338786
 34
0.0
100
AcDbRotatedDimension
1001
ACAD
1000
DSTYLE
1002
{
1070
    40
1040
20.0
1070
    41
1040
1.5
1070
    43
1040
5.0
1070
    44
1040
0.5
1070
   140
1040
2.0
1070
   147
1040
1.0
1070
   176
1070
   256
1070
   177
1070
   256
1070
   178
1070
   256
1002
}
  0
LINE
  5
B30F
330
747D
100
AcDbEntity
  8
0
 48
25.0
100
AcDbLine
 10
3649.631789356666
 20
562.6778734338786
 30
0.0
 11
3749.631789356667
 21
592.6778734338786
 31
0.0
  0
LINE
  5
B310
330
747D
100
AcDbEntity
  8
0
 48
25.0
100
AcDbLine
 10
3749.631789356667
 20
592.6778734338786
 30
0.0
 11
3699.631789356667
 21
662.6778734338786
 31
0.0
  0
DIMENSION
  5
B311
330
747D
100
AcDbEntity
  8
寸法引出
 48
25.0
100
AcDbDimension
  2
*D68
 10
3749.631789356667
 20
860.5678830541492
 30
0.0
 11
3724.631789356667
 21
900.5678830541492
 31
0.0
 70
    32
  1
5
 71
     5
 42
50.0
  3
SANWA
100
AcDbAlignedDimension
 13
3699.631789356667
 23
762.6778734338786
 33
0.0
 14
3749.631789356667
 24
762.6778734338786
 34
0.0
100
AcDbRotatedDimension
1001
ACAD
1000
DSTYLE
1002
{
1070
    40
1040
20.0
1070
    41
1040
1.5
1070
    43
1040
5.0
1070
    44
1040
0.5
1070
   140
1040
2.0
1070
   147
1040
1.0
1070
   176
1070
   256
1070
   177
1070
   256
1070
   178
1070
   256
1002
}
  0
LINE
  5
B312
330
747D
100
AcDbEntity
  8
0
 48
25.0
100
AcDbLine
 10
3983.631363313012
 20
762.6778734338786
 30
0.0
 11
3699.631789356667
 21
762.6778734338786
 31
0.0
  0
LEADER
  5
B313
330
747D
100
AcDbEntity
  8
寸法引出
 48
20.0
100
AcDbLeader
  3
SANWA
 76
     2
 10
3649.631789356666
 20
455.7423459423716
 30
0.0
 10
3892.053487129626
 20
455.7423459423716
 30
0.0
1001
ACAD
1000
DSTYLE
1002
{
1070
   140
1040
2.0
1070
    40
1040
20.0
1070
   147
1040
1.0
1070
    44
1040
0.5
1070
    43
1040
5.0
1070
   178
1070
   256
1070
   177
1070
   256
1070
   176
1070
   256
1070
    41
1040
1.5
1002
}
  0
LINE
  5
B314
330
747D
100
AcDbEntity
  8
0
100
AcDbLine
 10
3422.454431584268
 20
1152.542040389258
 30
0.0
 11
3882.208890636662
 21
1152.542040389258
 31
0.0
  0
TEXT
  5
B315
330
747D
100
AcDbEntity
  8
0
100
AcDbText
 10
3436.350082345322
 20
1172.10602929209
 30
0.0
 40
60.0
  1
目地詳細図
  7
SANWA
 72
     4
 11
3655.778653773894
 21
1203.30602929209
 31
0.0
100
AcDbText
  0
DIMENSION
  5
B318
330
747D
100
AcDbEntity
  8
寸法引出
 48
25.0
100
AcDbDimension
  2
*D62
 10
5989.665391358565
 20
2308.231178839789
 30
0.0
 11
4989.665391358565
 21
2348.231178839789
 31
0.0
 70
    32
 71
     5
 42
2000.0
  3
SANWA
100
AcDbAlignedDimension
 13
3989.665391358565
 23
2215.093926774949
 33
0.0
 14
5989.665391358565
 24
2215.093926774949
 34
0.0
100
AcDbRotatedDimension
1001
ACAD
1000
DSTYLE
1002
{
1070
   140
1040
2.0
1070
    40
1040
20.0
1070
   147
1040
1.0
1070
    44
1040
0.5
1070
    43
1040
5.0
1070
   178
1070
   256
1070
   177
1070
   256
1070
   176
1070
   256
1070
    41
1040
1.5
1002
}
  0
LINE
  5
B31F
330
747D
100
AcDbEntity
  8
0
 48
25.0
100
AcDbLine
 10
5979.665391358565
 20
3091.911041539226
 30
0.0
 11
3999.665391358565
 21
3091.911041539226
 31
0.0
  0
LINE
  5
B320
330
747D
100
AcDbEntity
  8
0
 48
25.0
100
AcDbLine
 10
3989.665391358565
 20
3881.911041539225
 30
0.0
 11
5989.665391358565
 21
3881.911041539225
 31
0.0
  0
LINE
  5
B321
330
747D
100
AcDbEntity
  8
0
 48
25.0
100
AcDbLine
 10
5989.665391358565
 20
1815.093926774949
 30
0.0
 11
3989.665391358565
 21
1815.093926774949
 31
0.0
  0
LINE
  5
B322
330
747D
100
AcDbEntity
  8
0
 48
25.0
100
AcDbLine
 10
3989.665391358565
 20
2215.093926774949
 30
0.0
 11
5989.665391358565
 21
2215.093926774949
 31
0.0
  0
TEXT
  5
B323
330
747D
100
AcDbEntity
  8
0
100
AcDbText
 10
2804.226134337509
 20
4537.348317370435
 30
0.0
 40
70.0
  1
マルチスリット側溝（横断）  300×700×2000
  7
SANWA
 72
     4
 11
3879.426134337509
 21
4572.948317370435
 31
0.0
100
AcDbText
  0
LINE
  5
B324
330
747D
100
AcDbEntity
  8
0
100
AcDbLine
 10
2780.553079520863
 20
4480.000000000007
 30
0.0
 11
5538.301431157599
 21
4480.000000000007
 31
0.0
  0
LINE
  5
B325
330
747D
100
AcDbEntity
  8
0
100
AcDbLine
 10
2780.553079520863
 20
4500.0
 30
0.0
 11
5538.301431157599
 21
4500.0
 31
0.0
  0
LINE
  5
B326
330
747D
100
AcDbEntity
  8
枠
100
AcDbLine
 10
625.0
 20
250.0
 30
0.0
 11
7175.0
 21
250.0
 31
0.0
  0
LINE
  5
B327
330
747D
100
AcDbEntity
  8
枠
100
AcDbLine
 10
625.0
 20
5000.000000000002
 30
0.0
 11
7175.0
 21
5000.000000000002
 31
0.0
  0
DIMENSION
  5
B329
330
747D
100
AcDbEntity
  8
寸法引出
 48
25.0
100
AcDbDimension
  2
*D45
 10
5109.665391358565
 20
3983.656336629143
 30
0.0
 11
4989.665391358565
 21
4023.656336629144
 31
0.0
 70
    32
 71
     5
 42
240.0
  3
SANWA
100
AcDbAlignedDimension
 13
4869.665391358565
 23
3881.911041539226
 33
0.0
 14
5109.665391358565
 24
3881.911041539226
 34
0.0
100
AcDbRotatedDimension
1001
ACAD
1000
DSTYLE
1002
{
1070
    40
1040
20.0
1070
    41
1040
1.5
1070
    43
1040
5.0
1070
    44
1040
0.5
1070
    75
1070
     1
1070
   140
1040
2.0
1070
   147
1040
1.0
1070
   176
1070
   256
1070
   177
1070
   256
1070
   178
1070
   256
1070
   279
1070
     1
1002
}
  0
LINE
  5
B32A
330
747D
100
AcDbEntity
  8
枠
100
AcDbLine
 10
625.0
 20
250.0
 30
0.0
 11
625.0
 21
5000.000000000002
 31
0.0
  0
LINE
  5
B32B
330
747D
100
AcDbEntity
  8
0
100
AcDbLine
 10
625.0
 20
0.0
 30
0.0
 11
0.0
 21
0.0
 31
0.0
  0
LINE
  5
B32C
330
747D
100
AcDbEntity
  8
0
100
AcDbLine
 10
0.0
 20
0.0
 30
0.0
 11
0.0
 21
250.0
 31
0.0
  0
LEADER
  5
B32D
330
747D
100
AcDbEntity
  8
寸法引出
 48
25.0
100
AcDbLeader
  3
SANWA
 76
     3
 10
2432.140225154013
 20
644.8712771834053
 30
0.0
 10
2477.724048408846
 20
737.6419177484367
 30
0.0
 10
2848.656073061109
 20
737.6419177484367
 30
0.0
1001
ACAD
1000
DSTYLE
1002
{
1070
    77
1070
     0
1070
    40
1040
20.0
1070
    41
1040
1.5
1070
    43
1040
5.0
1070
    44
1040
0.5
1070
   140
1040
2.0
1070
   147
1040
1.0
1070
   176
1070
   256
1070
   177
1070
   256
1070
   178
1070
   256
1002
}
  0
MTEXT
  5
B32E
330
747D
100
AcDbEntity
  8
寸法引出
 48
25.0
100
AcDbMText
 10
2662.998725132904
 20
768.9534563095967
 30
0.0
 40
40.0
 41
0.0
 71
     5
 72
     1
  1
ｲﾝｻｰﾄM12×32
  7
SANWA
 73
     1
 44
1.0
  0
LINE
  5
B32F
330
747D
100
AcDbEntity
  8
寸法引出
 48
25.0
100
AcDbLine
 10
1952.138017486453
 20
568.3712771834016
 30
0.0
 11
1952.138017486453
 21
613.3712771834016
 31
0.0
  0
DIMENSION
  5
B330
330
747D
100
AcDbEntity
  8
寸法引出
 48
25.0
100
AcDbDimension
  2
*D64
 10
1694.463170910156
 20
438.7005753087414
 30
0.0
 11
1619.463170910156
 21
478.7005753087414
 31
0.0
 70
    32
  1
50
 71
     5
 42
150.0
  3
SANWA
100
AcDbAlignedDimension
 13
1544.463170910155
 23
532.3712771834016
 33
0.0
 14
1694.463170910156
 24
620.8712771834016
 34
0.0
100
AcDbRotatedDimension
1001
ACAD
1000
DSTYLE
1002
{
1070
    40
1040
20.0
1070
    41
1040
1.5
1070
    43
1040
5.0
1070
    44
1040
0.5
1070
   140
1040
2.0
1070
   147
1040
1.0
1070
   176
1070
   256
1070
   177
1070
   256
1070
   178
1070
   256
1002
}
  0
LINE
  5
B331
330
747D
100
AcDbEntity
  8
0
 48
25.0
100
AcDbLine
 10
1544.463170910155
 20
859.3712771834017
 30
0.0
 11
1544.46317091015
 21
382.3712771834016
 31
0.0
  0
DIMENSION
  5
B332
330
747D
100
AcDbEntity
  8
寸法引出
 48
25.0
100
AcDbDimension
  2
*D63
 10
1952.138017486453
 20
703.3712771834016
 30
0.0
 11
1912.138017486453
 21
620.871277183402
 31
0.0
 70
    32
  1
55
 71
     5
 42
165.0
  3
SANWA
100
AcDbAlignedDimension
 13
1799.463170910161
 23
538.3712771834016
 33
0.0
 14
1799.463170910155
 24
703.3712771834016
 34
0.0
 50
90.0
100
AcDbRotatedDimension
1001
ACAD
1000
DSTYLE
1002
{
1070
   279
1070
     1
1070
    40
1040
20.0
1070
    41
1040
1.5
1070
    43
1040
5.0
1070
    44
1040
0.5
1070
   140
1040
2.0
1070
   147
1040
1.0
1070
   176
1070
   256
1070
   177
1070
   256
1070
   178
1070
   256
1002
}
  0
LINE
  5
B333
330
747D
100
AcDbEntity
  8
0
 48
25.0
100
AcDbLine
 10
1799.463170910155
 20
703.3712771834016
 30
0.0
 11
1799.463170910161
 21
538.3712771834016
 31
0.0
  0
LINE
  5
B334
330
747D
100
AcDbEntity
  8
0
 48
25.0
100
AcDbLine
 10
1805.463170910156
 20
709.3712771834016
 30
0.0
 11
1805.463170910156
 21
532.3712771834016
 31
0.0
  0
LINE
  5
B335
330
747D
100
AcDbEntity
  8
0
 48
25.0
100
AcDbLine
 10
1544.463170910155
 20
538.3712771834016
 30
0.0
 11
1799.463170910161
 21
538.3712771834016
 31
0.0
  0
LINE
  5
B336
330
747D
100
AcDbEntity
  8
0
 48
25.0
100
AcDbLine
 10
1544.463170910155
 20
532.3712771834016
 30
0.0
 11
1805.463170910156
 21
532.3712771834016
 31
0.0
  0
LINE
  5
B337
330
747D
100
AcDbEntity
  8
寸法引出
 48
25.0
100
AcDbLine
 10
1819.463170910161
 20
538.3712771834016
 30
0.0
 11
1962.138017486453
 21
538.3712771834016
 31
0.0
  0
LINE
  5
B338
330
747D
100
AcDbEntity
  8
寸法引出
 48
25.0
100
AcDbLine
 10
1825.463170910156
 20
532.3712771834016
 30
0.0
 11
1962.138017486453
 21
532.3712771834016
 31
0.0
  0
LINE
  5
B339
330
747D
100
AcDbEntity
  8
0
 48
25.0
100
AcDbLine
 10
1799.463170910161
 20
538.3712771834016
 30
0.0
 11
1805.463170910156
 21
532.3712771834016
 31
0.0
  0
MTEXT
  5
B33A
330
747D
100
AcDbEntity
  8
寸法引出
 48
25.0
100
AcDbMText
 10
1912.138017486453
 20
501.8062501134809
 30
0.0
 40
40.0
 41
0.0
 71
     5
 72
     1
  1
\A1;2
  7
SANWA
 11
0.0000000000000001
 21
1.0
 31
0.0
 73
     1
 44
1.0
  0
LINE
  5
B33B
330
747D
100
AcDbEntity
  8
寸法引出
 48
25.0
100
AcDbLine
 10
1952.138017486453
 20
532.3712771834016
 30
0.0
 11
1952.138017486453
 21
538.3712771834016
 31
0.0
  0
SOLID
  5
B33C
330
747D
100
AcDbEntity
  8
寸法引出
 48
25.0
100
AcDbTrace
 10
1947.138017486453
 20
568.3712771834016
 30
0.0
 11
1957.138017486453
 21
568.3712771834016
 31
0.0
 12
1952.138017486453
 22
538.3712771834016
 32
0.0
 13
1952.138017486453
 23
538.3712771834016
 33
0.0
  0
LINE
  5
B33D
330
747D
100
AcDbEntity
  8
寸法引出
 48
25.0
100
AcDbLine
 10
1952.138017486453
 20
502.3712771834015
 30
0.0
 11
1952.138017486453
 21
472.3712771834016
 31
0.0
  0
SOLID
  5
B33E
330
747D
100
AcDbEntity
  8
寸法引出
 48
25.0
100
AcDbTrace
 10
1947.138017486453
 20
502.3712771834015
 30
0.0
 11
1957.138017486453
 21
502.3712771834015
 31
0.0
 12
1952.138017486453
 22
532.3712771834016
 32
0.0
 13
1952.138017486453
 23
532.3712771834016
 33
0.0
  0
DIMENSION
  5
B33F
330
747D
100
AcDbEntity
  8
寸法引出
 48
25.0
100
AcDbDimension
  2
*D67
 10
1799.463170910155
 20
783.778916802019
 30
0.0
 11
1671.963170910156
 21
823.778916802019
 31
0.0
 70
    32
  1
85
 71
     5
 42
255.0
  3
SANWA
100
AcDbAlignedDimension
 13
1544.463170910155
 23
709.3712771834016
 33
0.0
 14
1799.463170910155
 24
703.3712771834016
 34
0.0
100
AcDbRotatedDimension
1001
ACAD
1000
DSTYLE
1002
{
1070
    40
1040
20.0
1070
    41
1040
1.5
1070
    43
1040
5.0
1070
    44
1040
0.5
1070
   140
1040
2.0
1070
   147
1040
1.0
1070
   176
1070
   256
1070
   177
1070
   256
1070
   178
1070
   256
1002
}
  0
LINE
  5
B340
330
747D
100
AcDbEntity
  8
0
 48
25.0
100
AcDbLine
 10
1544.463170910155
 20
703.3712771834016
 30
0.0
 11
1799.463170910155
 21
703.3712771834016
 31
0.0
  0
LINE
  5
B341
330
747D
100
AcDbEntity
  8
0
 48
25.0
100
AcDbLine
 10
1544.463170910155
 20
709.3712771834016
 30
0.0
 11
1805.463170910156
 21
709.3712771834016
 31
0.0
  0
CIRCLE
  5
B342
330
747D
100
AcDbEntity
  8
0
 48
25.0
100
AcDbCircle
 10
1694.463170910156
 20
620.8712771834016
 30
0.0
 40
18.0
  0
DIMENSION
  5
B343
330
747D
100
AcDbEntity
  8
寸法引出
 48
25.0
100
AcDbDimension
  2
*D66
 10
1805.463170910156
 20
783.778916802019
 30
0.0
 11
1802.463170910155
 21
823.778916802019
 31
0.0
 70
    32
  1
2
 71
     5
 42
6.0
  3
SANWA
100
AcDbAlignedDimension
 13
1799.463170910155
 23
703.3712771834016
 33
0.0
 14
1805.463170910156
 24
709.3712771834016
 34
0.0
100
AcDbRotatedDimension
1001
ACAD
1000
DSTYLE
1002
{
1070
   279
1070
     1
1070
    40
1040
20.0
1070
    41
1040
1.5
1070
    43
1040
5.0
1070
    44
1040
0.5
1070
   140
1040
2.0
1070
   147
1040
1.0
1070
   176
1070
   256
1070
   177
1070
   256
1070
   178
1070
   256
1002
}
  0
LINE
  5
B344
330
747D
100
AcDbEntity
  8
寸法引出
 48
25.0
100
AcDbLine
 10
1825.463170910156
 20
709.3712771834016
 30
0.0
 11
1962.138017486453
 21
709.3712771834016
 31
0.0
  0
LINE
  5
B345
330
747D
100
AcDbEntity
  8
寸法引出
 48
25.0
100
AcDbLine
 10
1819.463170910156
 20
703.3712771834016
 30
0.0
 11
1962.138017486453
 21
703.3712771834016
 31
0.0
  0
LINE
  5
B346
330
747D
100
AcDbEntity
  8
0
 48
25.0
100
AcDbLine
 10
1799.463170910155
 20
703.3712771834016
 30
0.0
 11
1805.463170910156
 21
709.3712771834016
 31
0.0
  0
SOLID
  5
B347
330
747D
100
AcDbEntity
  8
寸法引出
 48
25.0
100
AcDbTrace
 10
1947.138017486453
 20
673.3712771834015
 30
0.0
 11
1957.138017486453
 21
673.3712771834015
 31
0.0
 12
1952.138017486453
 22
703.3712771834016
 32
0.0
 13
1952.138017486453
 23
703.3712771834016
 33
0.0
  0
LINE
  5
B348
330
747D
100
AcDbEntity
  8
寸法引出
 48
25.0
100
AcDbLine
 10
1952.138017486453
 20
673.3712771834015
 30
0.0
 11
1952.138017486453
 21
628.3712771834016
 31
0.0
  0
MTEXT
  5
B349
330
747D
100
AcDbEntity
  8
寸法引出
 48
25.0
100
AcDbMText
 10
1912.138017486453
 20
737.7708416558489
 30
0.0
 40
40.0
 41
0.0
 71
     5
 72
     1
  1
\A1;2
  7
SANWA
 11
0.0000000000000001
 21
1.0
 31
0.0
 73
     1
 44
1.0
  0
SOLID
  5
B34A
330
747D
100
AcDbEntity
  8
寸法引出
 48
25.0
100
AcDbTrace
 10
1947.138017486453
 20
739.3712771834016
 30
0.0
 11
1957.138017486453
 21
739.3712771834016
 31
0.0
 12
1952.138017486453
 22
709.3712771834016
 32
0.0
 13
1952.138017486453
 23
709.3712771834016
 33
0.0
  0
LINE
  5
B34B
330
747D
100
AcDbEntity
  8
寸法引出
 48
25.0
100
AcDbLine
 10
1952.138017486453
 20
703.3712771834016
 30
0.0
 11
1952.138017486453
 21
709.3712771834016
 31
0.0
  0
LINE
  5
B34C
330
747D
100
AcDbEntity
  8
寸法引出
 48
25.0
100
AcDbLine
 10
1952.138017486453
 20
739.3712771834016
 30
0.0
 11
1952.138017486453
 21
769.3712771834015
 31
0.0
  0
LINE
  5
B34D
330
747D
100
AcDbEntity
  8
0
 48
25.0
100
AcDbLine
 10
2387.140225154012
 20
703.3712771834016
 30
0.0
 11
2387.140225154012
 21
538.3712771834016
 31
0.0
  0
DIMENSION
  5
B34E
330
747D
100
AcDbEntity
  8
寸法引出
 48
25.0
100
AcDbDimension
  2
*D65
 10
2387.140225154012
 20
443.770693749795
 30
0.0
 11
2382.340225154012
 21
483.7706937497951
 31
0.0
 70
    32
  1
3.2
 71
     5
 42
9.600000000002182
  3
SANWA
100
AcDbAlignedDimension
 13
2377.54022515401
 23
532.3712771834016
 33
0.0
 14
2387.140225154012
 24
538.3712771834016
 34
0.0
100
AcDbRotatedDimension
1001
ACAD
1000
DSTYLE
1002
{
1070
    40
1040
20.0
1070
    41
1040
1.5
1070
    43
1040
5.0
1070
    44
1040
0.5
1070
   140
1040
2.0
1070
   147
1040
1.0
1070
   176
1070
   256
1070
   177
1070
   256
1070
   178
1070
   256
1002
}
  0
LINE
  5
B34F
330
747D
100
AcDbEntity
  8
0
 48
25.0
100
AcDbLine
 10
2377.54022515401
 20
532.3712771834016
 30
0.0
 11
2377.540225154005
 21
382.3712771834016
 31
0.0
  0
LINE
  5
B350
330
747D
100
AcDbEntity
  8
0
 48
25.0
100
AcDbLine
 10
2387.140225154007
 20
538.3712771834016
 30
0.0
 11
2377.540225154005
 21
532.3712771834016
 31
0.0
  0
LINE
  5
B351
330
747D
100
AcDbEntity
  8
寸法引出
 48
25.0
100
AcDbLine
 10
2337.140225154012
 20
620.8712771834016
 30
0.0
 11
2261.645501236969
 21
620.8712771834016
 31
0.0
  0
MTEXT
  5
B352
330
747D
100
AcDbEntity
  8
寸法引出
 48
25.0
100
AcDbMText
 10
2231.64550123697
 20
793.8477760077512
 30
0.0
 40
40.0
 41
0.0
 71
     5
 72
     1
  1
天端より150
  7
SANWA
 11
0.0000000000000001
 21
1.0
 31
0.0
 73
     1
 44
1.0
  0
LINE
  5
B353
330
747D
100
AcDbEntity
  8
0
 48
25.0
100
AcDbLine
 10
2377.54022515401
 20
966.5176271060754
 30
0.0
 11
2377.54022515401
 21
709.3712771834016
 31
0.0
  0
LINE
  5
B354
330
747D
100
AcDbEntity
  8
寸法引出
 48
25.0
100
AcDbLine
 10
2271.645501236967
 20
951.5176271060754
 30
0.0
 11
2271.645501236969
 21
650.8712771834016
 31
0.0
  0
LINE
  5
B355
330
747D
100
AcDbEntity
  8
0
 48
25.0
100
AcDbLine
 10
2387.140225154012
 20
644.8712771834053
 30
0.0
 11
2477.140225154013
 21
644.8712771834053
 31
0.0
  0
LINE
  5
B356
330
747D
100
AcDbEntity
  8
0
 48
25.0
100
AcDbLine
 10
2387.140225154012
 20
638.8712771834052
 30
0.0
 11
2477.140225154013
 21
638.8712771834052
 31
0.0
  0
LINE
  5
B357
330
747D
100
AcDbEntity
  8
0
 48
25.0
100
AcDbLine
 10
2387.140225154012
 20
596.8712771834052
 30
0.0
 11
2477.140225154013
 21
596.8712771834052
 31
0.0
  0
LINE
  5
B358
330
747D
100
AcDbEntity
  8
0
 48
25.0
100
AcDbLine
 10
2387.140225154012
 20
602.8712771834052
 30
0.0
 11
2477.140225154013
 21
602.8712771834052
 31
0.0
  0
LINE
  5
B359
330
747D
100
AcDbEntity
  8
0
  6
CENTER2
 48
10.0
100
AcDbLine
 10
2357.140225154013
 20
620.8712771834016
 30
0.0
 11
2513.140225154013
 21
620.8712771834016
 31
0.0
  0
SOLID
  5
B35A
330
747D
100
AcDbEntity
  8
寸法引出
 48
25.0
100
AcDbTrace
 10
2266.64550123697
 20
650.8712771834016
 30
0.0
 11
2276.645501236969
 21
650.8712771834016
 31
0.0
 12
2271.645501236969
 22
620.8712771834016
 32
0.0
 13
2271.645501236969
 23
620.8712771834016
 33
0.0
  0
LINE
  5
B35B
330
747D
100
AcDbEntity
  8
0
 48
25.0
100
AcDbLine
 10
2377.54022515401
 20
709.3712771834016
 30
0.0
 11
2387.140225154012
 21
703.3712771834016
 31
0.0
  0
LINE
  5
B35C
330
747D
100
AcDbEntity
  8
0
 48
25.0
100
AcDbLine
 10
2477.140225154013
 20
650.8712771834052
 30
0.0
 11
2483.140225154013
 21
650.8712771834052
 31
0.0
  0
LINE
  5
B35D
330
747D
100
AcDbEntity
  8
0
 48
25.0
100
AcDbLine
 10
2477.140225154013
 20
590.8712771834053
 30
0.0
 11
2483.140225154013
 21
590.8712771834053
 31
0.0
  0
LINE
  5
B35E
330
747D
100
AcDbEntity
  8
0
 48
25.0
100
AcDbLine
 10
2477.140225154013
 20
596.8712771834052
 30
0.0
 11
2477.140225154013
 21
590.8712771834053
 31
0.0
  0
LINE
  5
B35F
330
747D
100
AcDbEntity
  8
0
 48
25.0
100
AcDbLine
 10
2477.140225154013
 20
638.8712771834052
 30
0.0
 11
2477.140225154013
 21
602.8712771834052
 31
0.0
  0
LINE
  5
B360
330
747D
100
AcDbEntity
  8
0
 48
25.0
100
AcDbLine
 10
2477.140225154013
 20
650.8712771834052
 30
0.0
 11
2477.140225154013
 21
644.8712771834053
 31
0.0
  0
LINE
  5
B361
330
747D
100
AcDbEntity
  8
0
 48
25.0
100
AcDbLine
 10
2483.140225154013
 20
650.8712771834052
 30
0.0
 11
2483.140225154013
 21
590.8712771834053
 31
0.0
  0
LINE
  5
B362
330
747D
100
AcDbEntity
  8
0
 48
25.0
100
AcDbLine
 10
3649.631789356666
 20
562.6778734338786
 30
0.0
 11
3549.631789356666
 21
592.6778734338786
 31
0.0
  0
DIMENSION
  5
B363
330
747D
100
AcDbEntity
  8
寸法引出
 48
25.0
100
AcDbDimension
  2
*D70
 10
3465.514492224123
 20
592.6778734338786
 30
0.0
 11
3425.514492224123
 21
577.6778734338791
 31
0.0
 70
    32
  1
3
 71
     5
 42
30.0
  3
SANWA
100
AcDbAlignedDimension
 13
3649.631789356666
 23
562.6778734338786
 33
0.0
 14
3549.631789356666
 24
592.6778734338786
 34
0.0
 50
90.0
100
AcDbRotatedDimension
1001
ACAD
1000
DSTYLE
1002
{
1070
    40
1040
20.0
1070
    41
1040
1.5
1070
    43
1040
5.0
1070
    44
1040
0.5
1070
   140
1040
2.0
1070
   147
1040
1.0
1070
   176
1070
   256
1070
   177
1070
   256
1070
   178
1070
   256
1002
}
  0
DIMENSION
  5
B364
330
747D
100
AcDbEntity
  8
寸法引出
 48
25.0
100
AcDbDimension
  2
*D69
 10
3465.514492224123
 20
662.6778734338786
 30
0.0
 11
3425.514492224123
 21
627.6778734338791
 31
0.0
 70
    32
  1
7
 71
     5
 42
70.0
  3
SANWA
100
AcDbAlignedDimension
 13
3549.631789356666
 23
592.6778734338786
 33
0.0
 14
3599.631789356667
 24
662.6778734338786
 34
0.0
 50
90.0
100
AcDbRotatedDimension
1001
ACAD
1000
DSTYLE
1002
{
1070
   279
1070
     1
1070
    40
1040
20.0
1070
    41
1040
1.5
1070
    43
1040
5.0
1070
    44
1040
0.5
1070
   140
1040
2.0
1070
   147
1040
1.0
1070
   176
1070
   256
1070
   177
1070
   256
1070
   178
1070
   256
1002
}
  0
LINE
  5
B365
330
747D
100
AcDbEntity
  8
0
 48
25.0
100
AcDbLine
 10
3649.631789356666
 20
562.6778734338786
 30
0.0
 11
3649.631789356666
 21
348.8068184508647
 31
0.0
  0
LINE
  5
B366
330
747D
100
AcDbEntity
  8
0
 48
25.0
100
AcDbLine
 10
3599.631789356667
 20
762.6778734338786
 30
0.0
 11
3394.034980875971
 21
762.6778734338786
 31
0.0
  0
DIMENSION
  5
B367
330
747D
100
AcDbEntity
  8
寸法引出
 48
25.0
100
AcDbDimension
  2
*D71
 10
3465.514492224123
 20
762.6778734338786
 30
0.0
 11
3425.514492224123
 21
712.6778734338792
 31
0.0
 70
    32
  1
10
 71
     5
 42
100.0
  3
SANWA
100
AcDbAlignedDimension
 13
3599.631789356667
 23
662.6778734338786
 33
0.0
 14
3599.631789356667
 24
762.6778734338786
 34
0.0
 50
90.0
100
AcDbRotatedDimension
1001
ACAD
1000
DSTYLE
1002
{
1070
   279
1070
     1
1070
    40
1040
20.0
1070
    41
1040
1.5
1070
    43
1040
5.0
1070
    44
1040
0.5
1070
   140
1040
2.0
1070
   147
1040
1.0
1070
   176
1070
   256
1070
   177
1070
   256
1070
   178
1070
   256
1002
}
  0
DIMENSION
  5
B368
330
747D
100
AcDbEntity
  8
寸法引出
 48
25.0
100
AcDbDimension
  2
*D72
 10
3599.631789356667
 20
860.5678830541492
 30
0.0
 11
3574.631789356667
 21
900.5678830541492
 31
0.0
 70
    32
  1
5
 71
     5
 42
50.0
  3
SANWA
100
AcDbAlignedDimension
 13
3549.631789356666
 23
762.6778734338786
 33
0.0
 14
3599.631789356667
 24
762.6778734338786
 34
0.0
100
AcDbRotatedDimension
1001
ACAD
1000
DSTYLE
1002
{
1070
    40
1040
20.0
1070
    41
1040
1.5
1070
    43
1040
5.0
1070
    44
1040
0.5
1070
   140
1040
2.0
1070
   147
1040
1.0
1070
   176
1070
   256
1070
   177
1070
   256
1070
   178
1070
   256
1002
}
  0
LINE
  5
B369
330
747D
100
AcDbEntity
  8
0
 48
25.0
100
AcDbLine
 10
3549.631789356666
 20
592.6778734338786
 30
0.0
 11
3599.631789356667
 21
662.6778734338786
 31
0.0
  0
LINE
  5
B36A
330
747D
100
AcDbEntity
  8
0
 48
25.0
100
AcDbLine
 10
3699.631789356667
 20
762.6778734338786
 30
0.0
 11
3699.631789356667
 21
662.6778734338786
 31
0.0
  0
LINE
  5
B36B
330
747D
100
AcDbEntity
  8
0
 48
25.0
100
AcDbLine
 10
3599.631789356667
 20
762.6778734338786
 30
0.0
 11
3599.631789356667
 21
662.6778734338786
 31
0.0
  0
DIMENSION
  5
B36C
330
747D
100
AcDbEntity
  8
寸法引出
 48
25.0
100
AcDbDimension
  2
*D60
 10
3676.413144013237
 20
1815.093926774949
 30
0.0
 11
3636.413144013237
 21
2015.09392677495
 31
0.0
 70
    32
 71
     5
 42
400.0
  3
SANWA
100
AcDbAlignedDimension
 13
3989.665391358565
 23
2215.093926774949
 33
0.0
 14
3989.665391358565
 24
1815.093926774949
 34
0.0
 50
90.0
100
AcDbRotatedDimension
1001
ACAD
1000
DSTYLE
1002
{
1070
   140
1040
2.0
1070
    40
1040
20.0
1070
   147
1040
1.0
1070
    44
1040
0.5
1070
    43
1040
5.0
1070
   178
1070
   256
1070
   177
1070
   256
1070
   176
1070
   256
1070
    41
1040
1.5
1002
}
  0
TEXT
  5
B36D
330
747D
100
AcDbEntity
  8
0
100
AcDbText
 10
1829.703195825833
 20
1172.620315006376
 30
0.0
 40
60.0
  1
継手部詳細図
  7
SANWA
 72
     4
 11
2093.017481540119
 21
1203.30602929209
 31
0.0
100
AcDbText
  0
LINE
  5
B36E
330
747D
100
AcDbEntity
  8
0
100
AcDbLine
 10
1812.235198891659
 20
1152.542040389258
 30
0.0
 11
2370.178755122222
 21
1152.542040389258
 31
0.0
  0
LINE
  5
B379
330
747D
100
AcDbEntity
  8
0
 48
25.0
100
AcDbLine
 10
3989.665391358565
 20
1815.093926774949
 30
0.0
 11
3989.665391358565
 21
2215.093926774949
 31
0.0
  0
LINE
  5
B382
330
747D
100
AcDbEntity
  8
0
100
AcDbLine
 10
3953.674015128041
 20
2467.817878689827
 30
0.0
 11
4247.717432639588
 21
2467.817878689827
 31
0.0
  0
TEXT
  5
B383
330
747D
100
AcDbEntity
  8
0
100
AcDbText
 10
3971.614043246048
 20
2488.067581878369
 30
0.0
 40
60.0
  1
底版部
  7
SANWA
 72
     4
 11
4103.271186103191
 21
2518.581867592654
 31
0.0
100
AcDbText
  0
ARC
  5
B393
330
747D
100
AcDbEntity
  8
0
100
AcDbCircle
 10
2333.105873560318
 20
3240.041908757573
 30
0.0
 40
70.0
100
AcDbArc
 50
183.2704879231962
 51
255.3472140334696
  0
LEADER
  5
B394
330
747D
100
AcDbEntity
  8
寸法引出
 48
25.0
100
AcDbLeader
  3
SANWA
 73
     0
 74
     0
 75
     1
 40
39.42857142857142
 41
213.9428571428571
 76
     3
 10
2258.962482840193
 20
3101.911041539226
 30
0.0
 10
2311.488313822763
 20
2981.46027161849
 30
0.0
 10
2341.488313822763
 20
2981.46027161849
 30
0.0
340
B3CE
1001
ACAD
1000
DSTYLE
1002
{
1070
   140
1040
2.0
1070
    40
1040
20.0
1070
   147
1040
1.0
1070
    44
1040
0.5
1070
    43
1040
5.0
1070
   178
1070
   256
1070
   177
1070
   256
1070
   176
1070
   256
1070
    41
1040
1.5
1002
}
  0
DIMENSION
  5
B395
330
747D
100
AcDbEntity
  8
寸法引出
 48
25.0
100
AcDbDimension
  2
*D59
 10
2226.346071278627
 20
3091.911041539227
 30
0.0
 11
2108.625048998877
 21
3173.150507215527
 31
0.0
 70
   162
 71
     5
 42
0.7853981633974588
  3
SANWA
100
AcDb2LineAngularDimension
 13
2566.346071278629
 23
3091.911041539226
 33
0.0
 14
2226.346071278629
 24
3091.911041539226
 34
0.0
 15
2196.346071278628
 25
3121.911041539226
 35
0.0
 16
2088.187981739414
 26
3128.930390059086
 36
0.0
1001
ACAD
1000
DSTYLE
1002
{
1070
    40
1040
20.0
1070
    41
1040
1.5
1070
    43
1040
5.0
1070
    44
1040
0.5
1070
    79
1070
     2
1070
   140
1040
2.0
1070
   147
1040
1.0
1070
   176
1070
   256
1070
   177
1070
   256
1070
   178
1070
   256
1070
   179
1070
     4
1002
}
  0
LINE
  5
B396
330
747D
100
AcDbEntity
  8
寸法引出
  6
ByBlock
 48
25.0
100
AcDbLine
 10
2256.346071278629
 20
2983.255050442705
 30
0.0
 11
2286.346071278629
 21
2983.255050442705
 31
0.0
  0
DIMENSION
  5
B397
330
747D
100
AcDbEntity
  8
寸法引出
 48
25.0
100
AcDbDimension
  2
*D58
 10
2196.346071278628
 20
2878.533284157462
 30
0.0
 11
2241.346071278629
 21
2918.533284157462
 31
0.0
 70
    32
 71
     5
 42
90.0
  3
SANWA
100
AcDbAlignedDimension
 13
2286.346071278629
 23
3091.911041539226
 33
0.0
 14
2196.346071278628
 24
3121.911041539226
 34
0.0
100
AcDbRotatedDimension
1001
ACAD
1000
DSTYLE
1002
{
1070
    40
1040
20.0
1070
    41
1040
1.5
1070
    43
1040
5.0
1070
    44
1040
0.5
1070
    75
1070
     1
1070
   140
1040
2.0
1070
   147
1040
1.0
1070
   176
1070
   256
1070
   177
1070
   256
1070
   178
1070
   256
1070
   279
1070
     1
1002
}
  0
DIMENSION
  5
B398
330
747D
100
AcDbEntity
  8
寸法引出
 48
25.0
100
AcDbDimension
  2
*D57
 10
2596.346071278629
 20
4097.050840476409
 30
0.0
 11
2396.346071278629
 21
4137.050840476409
 31
0.0
 70
    32
 71
     5
 42
400.0
  3
SANWA
100
AcDbAlignedDimension
 13
2196.346071278628
 23
3881.911041539226
 33
0.0
 14
2596.346071278629
 24
3881.911041539226
 34
0.0
100
AcDbRotatedDimension
1001
ACAD
1000
DSTYLE
1002
{
1070
   140
1040
2.0
1070
    40
1040
20.0
1070
   147
1040
1.0
1070
    44
1040
0.5
1070
    43
1040
5.0
1070
   178
1070
   256
1070
   177
1070
   256
1070
   176
1070
   256
1070
    41
1040
1.5
1002
}
  0
DIMENSION
  5
B399
330
747D
100
AcDbEntity
  8
寸法引出
 48
25.0
100
AcDbDimension
  2
*D56
 10
2196.346071278628
 20
4018.157138493049
 30
0.0
 11
2221.346071278629
 21
4058.157138493049
 31
0.0
 70
    32
 71
     5
 42
50.0
  3
SANWA
100
AcDbAlignedDimension
 13
2246.346071278629
 23
3881.911041539226
 33
0.0
 14
2196.346071278628
 24
3881.911041539226
 34
0.0
100
AcDbRotatedDimension
1001
ACAD
1000
DSTYLE
1002
{
1070
    40
1040
20.0
1070
    41
1040
1.5
1070
    43
1040
5.0
1070
    44
1040
0.5
1070
    75
1070
     1
1070
   140
1040
2.0
1070
   147
1040
1.0
1070
   176
1070
   256
1070
   177
1070
   256
1070
   178
1070
   256
1070
   279
1070
     1
1002
}
  0
DIMENSION
  5
B39A
330
747D
100
AcDbEntity
  8
寸法引出
 48
25.0
100
AcDbDimension
  2
*D55
 10
2546.346071278628
 20
4018.157138493049
 30
0.0
 11
2396.346071278629
 21
4058.157138493049
 31
0.0
 70
    32
 71
     5
 42
300.0
  3
SANWA
100
AcDbAlignedDimension
 13
2246.346071278629
 23
3881.911041539226
 33
0.0
 14
2546.346071278628
 24
3881.911041539226
 34
0.0
100
AcDbRotatedDimension
1001
ACAD
1000
DSTYLE
1002
{
1070
   140
1040
2.0
1070
    40
1040
20.0
1070
   147
1040
1.0
1070
    44
1040
0.5
1070
    43
1040
5.0
1070
   178
1070
   256
1070
   177
1070
   256
1070
   176
1070
   256
1070
    41
1040
1.5
1002
}
  0
LINE
  5
B39B
330
747D
100
AcDbEntity
  8
0
 48
25.0
100
AcDbLine
 10
2396.346071278629
 20
3101.911041539226
 30
0.0
 11
2216.346071278629
 21
3101.911041539226
 31
0.0
  0
LINE
  5
B39C
330
747D
100
AcDbEntity
  8
0
100
AcDbLine
 10
2246.346071278629
 20
3881.911041539225
 30
0.0
 11
2283.187306839117
 21
3237.189419230647
 31
0.0
  0
LINE
  5
B39D
330
747D
100
AcDbEntity
  8
0
 48
25.0
100
AcDbLine
 10
2566.346071278629
 20
3091.911041539226
 30
0.0
 11
2226.346071278629
 21
3091.911041539226
 31
0.0
  0
LINE
  5
B39E
330
747D
100
AcDbEntity
  8
0
100
AcDbLine
 10
2087.653423576625
 20
4213.626182939448
 30
0.0
 11
2381.696841088172
 21
4213.626182939448
 31
0.0
  0
TEXT
  5
B39F
330
747D
100
AcDbEntity
  8
0
100
AcDbText
 10
2105.593451694632
 20
4234.390171842274
 30
0.0
 40
60.0
  1
断面図
  7
SANWA
 72
     4
 11
2237.250594551775
 21
4264.390171842275
 31
0.0
100
AcDbText
  0
LINE
  5
B3A0
330
747D
100
AcDbEntity
  8
0
100
AcDbLine
 10
2226.313444829535
 20
3881.911041539225
 30
0.0
 11
2263.219880150638
 21
3236.048423419878
 31
0.0
  0
DIMENSION
  5
B3A1
330
747D
100
AcDbEntity
  8
寸法引出
 48
25.0
100
AcDbDimension
  2
*D54
 10
1977.796120520066
 20
3091.911041539226
 30
0.0
 11
1937.796120520065
 21
3486.911041539227
 31
0.0
 70
    32
 71
     5
 42
790.0
  3
SANWA
100
AcDbAlignedDimension
 13
2196.346071278628
 23
3881.911041539226
 33
0.0
 14
2226.346071278629
 24
3091.911041539226
 34
0.0
 50
90.0
100
AcDbRotatedDimension
1001
ACAD
1000
DSTYLE
1002
{
1070
   140
1040
2.0
1070
    40
1040
20.0
1070
   147
1040
1.0
1070
    44
1040
0.5
1070
    43
1040
5.0
1070
   178
1070
   256
1070
   177
1070
   256
1070
   176
1070
   256
1070
    41
1040
1.5
1002
}
  0
LINE
  5
B3A2
330
747D
100
AcDbEntity
  8
0
 48
25.0
100
AcDbLine
 10
2196.346071278628
 20
3121.911041539226
 30
0.0
 11
2196.346071278628
 21
3881.911041539225
 31
0.0
  0
MTEXT
  5
B3A3
330
747D
100
AcDbEntity
  8
寸法引出
  6
ByBlock
 48
25.0
100
AcDbMText
 10
2159.635156844415
 20
3023.255050442706
 30
0.0
 40
40.0
 41
0.0
 71
     5
 72
     1
  1
\A1;30
  7
SANWA
 73
     1
 44
1.0
  0
LINE
  5
B3A4
330
747D
100
AcDbEntity
  8
寸法引出
  6
ByBlock
 48
25.0
100
AcDbLine
 10
2226.346071278629
 20
3071.911041539226
 30
0.0
 11
2226.346071278629
 21
2973.255050442705
 31
0.0
  0
LINE
  5
B3A5
330
747D
100
AcDbEntity
  8
寸法引出
  6
ByBlock
 48
25.0
100
AcDbLine
 10
2196.346071278628
 20
3101.911041539226
 30
0.0
 11
2196.346071278628
 21
2973.255050442705
 31
0.0
  0
LINE
  5
B3A6
330
747D
100
AcDbEntity
  8
寸法引出
  6
ByBlock
 48
25.0
100
AcDbLine
 10
2196.346071278628
 20
2983.255050442705
 30
0.0
 11
2226.346071278629
 21
2983.255050442705
 31
0.0
  0
SOLID
  5
B3A7
330
747D
100
AcDbEntity
  8
寸法引出
  6
ByBlock
 48
25.0
100
AcDbTrace
 10
2166.346071278629
 20
2988.255050442706
 30
0.0
 11
2166.346071278629
 21
2978.255050442706
 31
0.0
 12
2196.346071278628
 22
2983.255050442705
 32
0.0
 13
2196.346071278628
 23
2983.255050442705
 33
0.0
  0
LINE
  5
B3A8
330
747D
100
AcDbEntity
  8
寸法引出
  6
ByBlock
 48
25.0
100
AcDbLine
 10
2166.346071278629
 20
2983.255050442705
 30
0.0
 11
2136.346071278629
 21
2983.255050442705
 31
0.0
  0
POINT
  5
B3A9
330
747D
100
AcDbEntity
  8
寸法引出
  6
ByBlock
 62
     0
 48
25.0
100
AcDbPoint
 10
2226.346071278629
 20
2983.255050442705
 30
0.0
  0
SOLID
  5
B3AA
330
747D
100
AcDbEntity
  8
寸法引出
  6
ByBlock
 48
25.0
100
AcDbTrace
 10
2256.346071278629
 20
2988.255050442706
 30
0.0
 11
2256.346071278629
 21
2978.255050442706
 31
0.0
 12
2226.346071278629
 22
2983.255050442705
 32
0.0
 13
2226.346071278629
 23
2983.255050442705
 33
0.0
  0
LINE
  5
B3AB
330
747D
100
AcDbEntity
  8
0
 48
25.0
100
AcDbLine
 10
2196.346071278628
 20
3121.911041539226
 30
0.0
 11
2226.346071278629
 21
3091.911041539226
 31
0.0
  0
POINT
  5
B3AC
330
747D
100
AcDbEntity
  8
DEFPOINTS
  6
ByBlock
 62
     0
 48
25.0
100
AcDbPoint
 10
2196.346071278628
 20
3121.911041539226
 30
0.0
  0
POINT
  5
B3AD
330
747D
100
AcDbEntity
  8
DEFPOINTS
  6
ByBlock
 62
     0
 48
25.0
100
AcDbPoint
 10
2226.346071278629
 20
3091.911041539226
 30
0.0
  0
DIMENSION
  5
B3AE
330
747D
100
AcDbEntity
  8
寸法引出
 48
20.0
100
AcDbDimension
  2
*D75
 10
2097.620873691427
 20
3731.911041539226
 30
0.0
 11
2057.620873691426
 21
3806.911041539227
 31
0.0
 70
    32
 71
     5
 42
150.0
  3
SANWA
100
AcDbAlignedDimension
 13
2196.346071278628
 23
3881.911041539226
 33
0.0
 14
2196.346071278628
 24
3731.911041539226
 34
0.0
 50
90.0
100
AcDbRotatedDimension
1001
ACAD
1000
DSTYLE
1002
{
1070
    40
1040
20.0
1070
    41
1040
1.5
1070
    43
1040
5.0
1070
    44
1040
0.5
1070
   140
1040
2.0
1070
   147
1040
1.0
1070
   176
1070
   256
1070
   177
1070
   256
1070
   178
1070
   256
1002
}
  0
LINE
  5
B3AF
330
747D
100
AcDbEntity
  8
0
 48
25.0
100
AcDbLine
 10
2199.546071278629
 20
3759.411041539226
 30
0.0
 11
2199.546071278629
 21
3704.411041539227
 31
0.0
  0
LINE
  5
B3B0
330
747D
100
AcDbEntity
  8
0
 48
25.0
100
AcDbLine
 10
2199.546071278629
 20
3725.911041539226
 30
0.0
 11
2229.546071278629
 21
3725.911041539226
 31
0.0
  0
LINE
  5
B3B1
330
747D
100
AcDbEntity
  8
0
 48
25.0
100
AcDbLine
 10
2199.546071278629
 20
3723.911041539226
 30
0.0
 11
2229.546071278629
 21
3723.911041539226
 31
0.0
  0
LINE
  5
B3B2
330
747D
100
AcDbEntity
  8
0
 48
25.0
100
AcDbLine
 10
2199.546071278629
 20
3737.911041539227
 30
0.0
 11
2229.546071278629
 21
3737.911041539227
 31
0.0
  0
LINE
  5
B3B3
330
747D
100
AcDbEntity
  8
0
 48
25.0
100
AcDbLine
 10
2199.546071278629
 20
3739.911041539226
 30
0.0
 11
2229.546071278629
 21
3739.911041539226
 31
0.0
  0
LINE
  5
B3B4
330
747D
100
AcDbEntity
  8
0
 48
25.0
100
AcDbLine
 10
2196.346071278628
 20
3702.411041539226
 30
0.0
 11
2199.546071278629
 21
3704.411041539227
 31
0.0
  0
LINE
  5
B3B5
330
747D
100
AcDbEntity
  8
0
 48
25.0
100
AcDbLine
 10
2229.546071278629
 20
3737.911041539227
 30
0.0
 11
2229.546071278629
 21
3725.911041539226
 31
0.0
  0
LINE
  5
B3B6
330
747D
100
AcDbEntity
  8
0
 48
25.0
100
AcDbLine
 10
2229.546071278629
 20
3741.911041539227
 30
0.0
 11
2229.546071278629
 21
3739.911041539226
 31
0.0
  0
LINE
  5
B3B7
330
747D
100
AcDbEntity
  8
0
 48
25.0
100
AcDbLine
 10
2229.546071278629
 20
3741.911041539227
 30
0.0
 11
2231.546071278629
 21
3741.911041539227
 31
0.0
  0
LINE
  5
B3B8
330
747D
100
AcDbEntity
  8
0
 48
25.0
100
AcDbLine
 10
2229.546071278629
 20
3721.911041539226
 30
0.0
 11
2231.546071278629
 21
3721.911041539226
 31
0.0
  0
LINE
  5
B3B9
330
747D
100
AcDbEntity
  8
0
 48
25.0
100
AcDbLine
 10
2231.546071278629
 20
3741.911041539227
 30
0.0
 11
2231.546071278629
 21
3721.911041539226
 31
0.0
  0
LINE
  5
B3BA
330
747D
100
AcDbEntity
  8
0
 48
25.0
100
AcDbLine
 10
2229.546071278629
 20
3723.911041539226
 30
0.0
 11
2229.546071278629
 21
3721.911041539226
 31
0.0
  0
LINE
  5
B3BB
330
747D
100
AcDbEntity
  8
0
 48
25.0
100
AcDbLine
 10
2196.346071278628
 20
3761.411041539227
 30
0.0
 11
2199.546071278629
 21
3759.411041539226
 31
0.0
  0
LINE
  5
B3BC
330
747D
100
AcDbEntity
  8
0
 48
25.0
100
AcDbLine
 10
2196.346071278628
 20
3881.911041539225
 30
0.0
 11
2246.346071278629
 21
3881.911041539225
 31
0.0
  0
LINE
  5
B3BD
330
747D
100
AcDbEntity
  8
0
100
AcDbLine
 10
0.0
 20
5250.000000000002
 30
0.0
 11
625.0
 21
5250.000000000002
 31
0.0
  0
LINE
  5
B3BE
330
747D
100
AcDbEntity
  8
0
100
AcDbLine
 10
0.0
 20
5000.000000000002
 30
0.0
 11
0.0
 21
5250.000000000002
 31
0.0
  0
TEXT
  5
B3BF
330
747D
100
AcDbEntity
  8
0
100
AcDbText
 10
3971.614043246048
 20
4234.047314699418
 30
0.0
 40
60.0
  1
側壁部
  7
SANWA
 72
     4
 11
4103.271186103191
 21
4264.390171842275
 31
0.0
100
AcDbText
  0
DIMENSION
  5
B3C0
330
747D
100
AcDbEntity
  8
寸法引出
 48
20.0
100
AcDbDimension
  2
*D77
 10
3902.759513663142
 20
3731.911041539226
 30
0.0
 11
3862.759513663142
 21
3806.911041539227
 31
0.0
 70
    32
 71
     5
 42
150.0
  3
SANWA
100
AcDbAlignedDimension
 13
3989.665391358565
 23
3881.911041539226
 33
0.0
 14
3989.665391358565
 24
3731.911041539226
 34
0.0
 50
90.0
100
AcDbRotatedDimension
1001
ACAD
1000
DSTYLE
1002
{
1070
    40
1040
20.0
1070
    41
1040
1.5
1070
    43
1040
5.0
1070
    44
1040
0.5
1070
   140
1040
2.0
1070
   147
1040
1.0
1070
   176
1070
   256
1070
   177
1070
   256
1070
   178
1070
   256
1002
}
  0
LEADER
  5
B3C1
330
747D
100
AcDbEntity
  8
寸法引出
 48
25.0
100
AcDbLeader
  3
SANWA
 73
     0
 75
     1
 40
51.88571428571429
 41
371.4285714285714
 76
     3
 10
4109.665391358565
 20
3881.911041539226
 30
0.0
 10
3960.406430126674
 20
3958.572262973738
 30
0.0
 10
3930.406430126673
 20
3958.572262973738
 30
0.0
340
B3C2
1001
ACAD
1000
DSTYLE
1002
{
1070
   140
1040
2.0
1070
    40
1040
20.0
1070
   147
1040
1.0
1070
    44
1040
0.5
1070
    43
1040
5.0
1070
   178
1070
   256
1070
   177
1070
   256
1070
   176
1070
   256
1070
    41
1040
1.5
1002
}
  0
MTEXT
  5
B3C2
102
{ACAD_REACTORS
330
B3C1
102
}
330
747D
100
AcDbEntity
  8
寸法引出
 48
25.0
100
AcDbMText
 10
3910.406430126673
 20
4004.515120116596
 30
0.0
 40
40.0
 41
0.0
 71
     6
 72
     1
  1
\A1;ﾛｯｸﾋﾟﾝ用ｲﾝｻｰﾄ
  7
SANWA
 73
     1
 44
1.0
  0
DIMENSION
  5
B3C3
330
747D
100
AcDbEntity
  8
寸法引出
 48
25.0
100
AcDbDimension
  2
*D52
 10
3676.413144013237
 20
3091.911041539226
 30
0.0
 11
3636.413144013236
 21
3486.911041539228
 31
0.0
 70
    32
 71
     5
 42
790.0
  3
SANWA
100
AcDbAlignedDimension
 13
3989.665391358565
 23
3881.911041539226
 33
0.0
 14
3999.665391358565
 24
3091.911041539226
 34
0.0
 50
90.0
100
AcDbRotatedDimension
1001
ACAD
1000
DSTYLE
1002
{
1070
   140
1040
2.0
1070
    40
1040
20.0
1070
   147
1040
1.0
1070
    44
1040
0.5
1070
    43
1040
5.0
1070
   178
1070
   256
1070
   177
1070
   256
1070
   176
1070
   256
1070
    41
1040
1.5
1002
}
  0
LEADER
  5
B3C4
330
747D
100
AcDbEntity
  8
寸法引出
 48
25.0
100
AcDbLeader
  3
SANWA
 73
     0
 75
     1
 40
40.0
 41
82.97142857142857
 76
     3
 10
3994.665391358564
 20
3096.911041539226
 30
0.0
 10
3919.58604701604
 20
2911.044697462117
 30
0.0
 10
3889.58604701604
 20
2911.044697462117
 30
0.0
340
B3C5
1001
ACAD
1000
DSTYLE
1002
{
1070
   140
1040
2.0
1070
    40
1040
20.0
1070
   147
1040
1.0
1070
    44
1040
0.5
1070
    43
1040
5.0
1070
   178
1070
   256
1070
   177
1070
   256
1070
   176
1070
   256
1070
    41
1040
1.5
1002
}
  0
MTEXT
  5
B3C5
102
{ACAD_REACTORS
330
B3C4
102
}
330
747D
100
AcDbEntity
  8
寸法引出
 48
25.0
100
AcDbMText
 10
3869.58604701604
 20
2951.044697462117
 30
0.0
 40
40.0
 41
0.0
 71
     6
 72
     1
  1
\A1;C10
  7
SANWA
 73
     1
 44
1.0
  0
MTEXT
  5
B3C6
102
{ACAD_REACTORS
330
B3D6
102
}
330
747D
100
AcDbEntity
  8
寸法引出
 48
25.0
100
AcDbMText
 10
2349.197215155473
 20
3421.139396755429
 30
0.0
 40
40.0
 41
0.0
 71
     4
 72
     1
  1
\A1;R50
  7
SANWA
 73
     1
 44
1.0
  0
DIMENSION
  5
B3C7
330
747D
100
AcDbEntity
  8
寸法引出
 48
25.0
100
AcDbDimension
  2
*D51
 10
2886.068687916358
 20
3181.911041539226
 30
0.0
 11
2846.068687916357
 21
3531.911041539227
 31
0.0
 70
    32
 71
     5
 42
700.0
  3
SANWA
100
AcDbAlignedDimension
 13
2596.346071278629
 23
3881.911041539226
 33
0.0
 14
2596.346071278629
 24
3181.911041539226
 34
0.0
 50
90.0
100
AcDbRotatedDimension
1001
ACAD
1000
DSTYLE
1002
{
1070
   140
1040
2.0
1070
    40
1040
20.0
1070
   147
1040
1.0
1070
    44
1040
0.5
1070
    43
1040
5.0
1070
   178
1070
   256
1070
   177
1070
   256
1070
   176
1070
   256
1070
    41
1040
1.5
1002
}
  0
LINE
  5
B3CB
330
747D
100
AcDbEntity
  8
0
100
AcDbLine
 10
2509.504835718138
 20
3237.189419230647
 30
0.0
 11
2546.346071278628
 21
3881.911041539225
 31
0.0
  0
LINE
  5
B3CC
330
747D
100
AcDbEntity
  8
0
 48
25.0
100
AcDbLine
 10
2596.346071278629
 20
3881.911041539225
 30
0.0
 11
2596.346071278629
 21
3121.911041539226
 31
0.0
  0
DIMENSION
  5
B3CD
330
747D
100
AcDbEntity
  8
寸法引出
 48
25.0
100
AcDbDimension
  2
*D50
 10
2886.068687916358
 20
3091.911041539226
 30
0.0
 11
2846.068687916357
 21
3136.911041539227
 31
0.0
 70
    32
 71
     5
 42
90.0
  3
SANWA
100
AcDbAlignedDimension
 13
2596.346071278629
 23
3181.911041539226
 33
0.0
 14
2566.346071278629
 24
3091.911041539226
 34
0.0
 50
90.0
100
AcDbRotatedDimension
1001
ACAD
1000
DSTYLE
1002
{
1070
    40
1040
20.0
1070
    41
1040
1.5
1070
    43
1040
5.0
1070
    44
1040
0.5
1070
    75
1070
     1
1070
   140
1040
2.0
1070
   147
1040
1.0
1070
   176
1070
   256
1070
   177
1070
   256
1070
   178
1070
   256
1070
   279
1070
     1
1002
}
  0
MTEXT
  5
B3CE
102
{ACAD_REACTORS
330
B394
102
}
330
747D
100
AcDbEntity
  8
寸法引出
 48
25.0
100
AcDbMText
 10
2361.488313822763
 20
3021.174557332775
 30
0.0
 40
30.0
 41
0.0
 71
     4
 72
     1
  1
\A1;面取り C10
  7
SANWA
 73
     1
 44
1.0
  0
DIMENSION
  5
B3D0
330
747D
100
AcDbEntity
  8
寸法引出
 48
25.0
100
AcDbDimension
  2
*D49
 10
2596.346071278629
 20
2878.533284157462
 30
0.0
 11
2551.346071278629
 21
2918.533284157462
 31
0.0
 70
    32
 71
     5
 42
90.0
  3
SANWA
100
AcDbAlignedDimension
 13
2506.346071278629
 23
3091.911041539226
 33
0.0
 14
2596.346071278629
 24
3121.911041539226
 34
0.0
100
AcDbRotatedDimension
1001
ACAD
1000
DSTYLE
1002
{
1070
    40
1040
20.0
1070
    41
1040
1.5
1070
    43
1040
5.0
1070
    44
1040
0.5
1070
    75
1070
     1
1070
   140
1040
2.0
1070
   147
1040
1.0
1070
   176
1070
   256
1070
   177
1070
   256
1070
   178
1070
   256
1070
   279
1070
     1
1002
}
  0
DIMENSION
  5
B3D1
330
747D
100
AcDbEntity
  8
寸法引出
 48
25.0
100
AcDbDimension
  2
*D48
 10
2506.346071278629
 20
2878.533284157462
 30
0.0
 11
2396.346071278629
 21
2918.533284157462
 31
0.0
 70
    32
 71
     5
 42
220.0
  3
SANWA
100
AcDbAlignedDimension
 13
2286.346071278629
 23
3091.911041539226
 33
0.0
 14
2506.346071278629
 24
3091.911041539226
 34
0.0
100
AcDbRotatedDimension
1001
ACAD
1000
DSTYLE
1002
{
1070
   140
1040
2.0
1070
    40
1040
20.0
1070
   147
1040
1.0
1070
    44
1040
0.5
1070
    43
1040
5.0
1070
   178
1070
   256
1070
   177
1070
   256
1070
   176
1070
   256
1070
    41
1040
1.5
1002
}
  0
LEADER
  5
B3D6
330
747D
100
AcDbEntity
  8
寸法引出
 48
25.0
100
AcDbLeader
  3
SANWA
 73
     0
 74
     0
 75
     1
 40
40.0
 41
82.97142857142857
 76
     3
 10
2291.792859814755
 20
3211.87748269811
 30
0.0
 10
2299.197215155472
 20
3381.139396755429
 30
0.0
 10
2329.197215155472
 20
3381.139396755429
 30
0.0
340
B3C6
1001
ACAD
1000
DSTYLE
1002
{
1070
   140
1040
2.0
1070
    40
1040
20.0
1070
   147
1040
1.0
1070
    44
1040
0.5
1070
    43
1040
5.0
1070
   178
1070
   256
1070
   177
1070
   256
1070
   176
1070
   256
1070
    41
1040
1.5
1002
}
  0
LEADER
  5
B3D7
330
747D
100
AcDbEntity
  8
寸法引出
 48
25.0
100
AcDbLeader
  3
SANWA
 73
     0
 74
     0
 75
     1
 40
40.0
 41
112.2285714285714
 76
     3
 10
2344.568216655065
 20
3186.41306562301
 30
0.0
 10
2350.117367631752
 20
3288.165120501886
 30
0.0
 10
2380.117367631752
 20
3288.165120501886
 30
0.0
340
B3E2
1001
ACAD
1000
DSTYLE
1002
{
1070
   140
1040
2.0
1070
    40
1040
20.0
1070
   147
1040
1.0
1070
    44
1040
0.5
1070
    43
1040
5.0
1070
   178
1070
   256
1070
   177
1070
   256
1070
   176
1070
   256
1070
    41
1040
1.5
1002
}
  0
ARC
  5
B3D9
330
747D
100
AcDbEntity
  8
0
100
AcDbCircle
 10
2396.346071278629
 20
3481.911041539226
 30
0.0
 40
300.0
100
AcDbArc
 50
255.3472140334696
 51
284.6527859665303
  0
LINE
  5
B3DA
330
747D
100
AcDbEntity
  8
0
  6
CENTER2
 48
10.0
100
AcDbLine
 10
2396.346071278629
 20
3061.911041539226
 30
0.0
 11
2396.346071278629
 21
3211.911041539226
 31
0.0
  0
ARC
  5
B3DB
330
747D
100
AcDbEntity
  8
0
100
AcDbCircle
 10
2396.346071278629
 20
3481.911041539226
 30
0.0
 40
320.0
100
AcDbArc
 50
255.3472140334696
 51
270.0
  0
ARC
  5
B3DC
330
747D
100
AcDbEntity
  8
0
100
AcDbCircle
 10
2333.105873560318
 20
3240.041908757573
 30
0.0
 40
50.0
100
AcDbArc
 50
183.2704879231962
 51
255.3472140334696
  0
ARC
  5
B3DF
330
747D
100
AcDbEntity
  8
0
100
AcDbCircle
 10
2459.58626899694
 20
3240.041908757573
 30
0.0
 40
50.0
100
AcDbArc
 50
284.6527859665303
 51
356.7295120768037
  0
MTEXT
  5
B3E2
102
{ACAD_REACTORS
330
B3D7
102
}
330
747D
100
AcDbEntity
  8
寸法引出
 48
25.0
100
AcDbMText
 10
2400.117367631752
 20
3328.165120501886
 30
0.0
 40
40.0
 41
0.0
 71
     4
 72
     1
  1
\A1;R300
  7
SANWA
 73
     1
 44
1.0
  0
LINE
  5
B3E4
330
747D
100
AcDbEntity
  8
0
 48
25.0
100
AcDbLine
 10
2596.346071278629
 20
3121.911041539226
 30
0.0
 11
2566.346071278629
 21
3091.911041539226
 31
0.0
  0
LINE
  5
B3E9
330
747D
100
AcDbEntity
  8
0
 48
25.0
100
AcDbLine
 10
2593.146071278628
 20
3739.911041539226
 30
0.0
 11
2563.146071278628
 21
3739.911041539226
 31
0.0
  0
LINE
  5
B3EA
330
747D
100
AcDbEntity
  8
0
 48
25.0
100
AcDbLine
 10
2593.146071278628
 20
3737.911041539227
 30
0.0
 11
2563.146071278628
 21
3737.911041539227
 31
0.0
  0
LINE
  5
B3EB
330
747D
100
AcDbEntity
  8
0
 48
25.0
100
AcDbLine
 10
2593.146071278628
 20
3723.911041539226
 30
0.0
 11
2563.146071278628
 21
3723.911041539226
 31
0.0
  0
LINE
  5
B3EC
330
747D
100
AcDbEntity
  8
0
 48
25.0
100
AcDbLine
 10
2593.146071278628
 20
3725.911041539226
 30
0.0
 11
2563.146071278628
 21
3725.911041539226
 31
0.0
  0
LINE
  5
B3F1
330
747D
100
AcDbEntity
  8
0
 48
25.0
100
AcDbLine
 10
2563.146071278628
 20
3723.911041539226
 30
0.0
 11
2563.146071278628
 21
3721.911041539226
 31
0.0
  0
LINE
  5
B3F2
330
747D
100
AcDbEntity
  8
0
 48
25.0
100
AcDbLine
 10
2561.146071278628
 20
3741.911041539227
 30
0.0
 11
2561.146071278628
 21
3721.911041539226
 31
0.0
  0
LINE
  5
B3F3
330
747D
100
AcDbEntity
  8
0
 48
25.0
100
AcDbLine
 10
2563.146071278628
 20
3721.911041539226
 30
0.0
 11
2561.146071278628
 21
3721.911041539226
 31
0.0
  0
LINE
  5
B3F4
330
747D
100
AcDbEntity
  8
0
 48
25.0
100
AcDbLine
 10
2563.146071278628
 20
3741.911041539227
 30
0.0
 11
2561.146071278628
 21
3741.911041539227
 31
0.0
  0
LINE
  5
B3F5
330
747D
100
AcDbEntity
  8
0
 48
25.0
100
AcDbLine
 10
2563.146071278628
 20
3741.911041539227
 30
0.0
 11
2563.146071278628
 21
3739.911041539226
 31
0.0
  0
LINE
  5
B3F6
330
747D
100
AcDbEntity
  8
0
 48
25.0
100
AcDbLine
 10
2563.146071278628
 20
3737.911041539227
 30
0.0
 11
2563.146071278628
 21
3725.911041539226
 31
0.0
  0
LINE
  5
B3F9
330
747D
100
AcDbEntity
  8
0
 48
25.0
100
AcDbLine
 10
2593.146071278628
 20
3759.411041539226
 30
0.0
 11
2593.146071278628
 21
3704.411041539227
 31
0.0
  0
LINE
  5
B3FB
330
747D
100
AcDbEntity
  8
0
 48
25.0
100
AcDbLine
 10
2596.346071278629
 20
3702.411041539226
 30
0.0
 11
2593.146071278628
 21
3704.411041539227
 31
0.0
  0
LINE
  5
B3FD
330
747D
100
AcDbEntity
  8
0
 48
25.0
100
AcDbLine
 10
2596.346071278629
 20
3761.411041539227
 30
0.0
 11
2593.146071278628
 21
3759.411041539226
 31
0.0
  0
DIMENSION
  5
B3FF
330
747D
100
AcDbEntity
  8
寸法引出
 48
25.0
100
AcDbDimension
  2
*D47
 10
2596.346071278629
 20
4018.157138493049
 30
0.0
 11
2571.346071278629
 21
4058.157138493049
 31
0.0
 70
    32
 71
     5
 42
50.0
  3
SANWA
100
AcDbAlignedDimension
 13
2546.346071278628
 23
3881.911041539226
 33
0.0
 14
2596.346071278629
 24
3881.911041539226
 34
0.0
100
AcDbRotatedDimension
1001
ACAD
1000
DSTYLE
1002
{
1070
    40
1040
20.0
1070
    41
1040
1.5
1070
    43
1040
5.0
1070
    44
1040
0.5
1070
    75
1070
     1
1070
   140
1040
2.0
1070
   147
1040
1.0
1070
   176
1070
   256
1070
   177
1070
   256
1070
   178
1070
   256
1070
   279
1070
     1
1002
}
  0
LINE
  5
B400
330
747D
100
AcDbEntity
  8
0
 48
25.0
100
AcDbLine
 10
2546.346071278628
 20
3881.911041539225
 30
0.0
 11
2596.346071278629
 21
3881.911041539225
 31
0.0
  0
LINE
  5
B402
330
747D
100
AcDbEntity
  8
0
 48
25.0
100
AcDbLine
 10
3989.665391358565
 20
3101.911041539226
 30
0.0
 11
3989.665391358565
 21
3881.911041539225
 31
0.0
  0
LINE
  5
B40D
330
747D
100
AcDbEntity
  8
0
 48
25.0
100
AcDbLine
 10
3989.665391358565
 20
3101.911041539226
 30
0.0
 11
3999.665391358565
 21
3091.911041539226
 31
0.0
  0
DIMENSION
  5
B417
330
747D
100
AcDbEntity
  8
寸法引出
 48
25.0
100
AcDbDimension
  2
*D46
 10
4869.665391358565
 20
3983.656336629143
 30
0.0
 11
4489.665391358565
 21
4023.656336629144
 31
0.0
 70
    32
 71
     5
 42
760.0
  3
SANWA
100
AcDbAlignedDimension
 13
4109.665391358565
 23
3881.911041539226
 33
0.0
 14
4869.665391358565
 24
3881.911041539226
 34
0.0
100
AcDbRotatedDimension
1001
ACAD
1000
DSTYLE
1002
{
1070
    40
1040
20.0
1070
    41
1040
1.5
1070
    43
1040
5.0
1070
    44
1040
0.5
1070
    75
1070
     1
1070
   140
1040
2.0
1070
   147
1040
1.0
1070
   176
1070
   256
1070
   177
1070
   256
1070
   178
1070
   256
1070
   279
1070
     1
1002
}
  0
DIMENSION
  5
B418
330
747D
100
AcDbEntity
  8
寸法引出
 48
25.0
100
AcDbDimension
  2
*D76
 10
4039.665391358565
 20
3786.969532476582
 30
0.0
 11
4014.665391358565
 21
3826.969532476582
 31
0.0
 70
    32
 71
     5
 42
50.0
  3
SANWA
100
AcDbAlignedDimension
 13
3989.665391358565
 23
3756.411041539226
 33
0.0
 14
4039.665391358565
 24
3731.911041539226
 34
0.0
100
AcDbRotatedDimension
1001
ACAD
1000
DSTYLE
1002
{
1070
    40
1040
20.0
1070
    41
1040
1.5
1070
    43
1040
5.0
1070
    44
1040
0.5
1070
   140
1040
2.0
1070
   147
1040
1.0
1070
   176
1070
   256
1070
   177
1070
   256
1070
   178
1070
   256
1002
}
  0
LINE
  5
B419
330
747D
100
AcDbEntity
  8
0
  6
HIDDEN2
 48
5.0
100
AcDbLine
 10
4118.665391358565
 20
3881.911041539225
 30
0.0
 11
4118.665391358565
 21
3844.911041539226
 31
0.0
  0
LINE
  5
B41A
330
747D
100
AcDbEntity
  8
0
  6
HIDDEN2
 48
5.0
100
AcDbLine
 10
4100.665391358565
 20
3844.911041539226
 30
0.0
 11
4100.665391358565
 21
3881.911041539225
 31
0.0
  0
CIRCLE
  5
B41B
330
747D
100
AcDbEntity
  8
0
 48
25.0
100
AcDbCircle
 10
4039.665391358565
 20
3731.911041539226
 30
0.0
 40
6.0
  0
LINE
  5
B41C
330
747D
100
AcDbEntity
  8
0
  6
HIDDEN2
 48
5.0
100
AcDbLine
 10
4119.665391358565
 20
3839.911041539226
 30
0.0
 11
4099.665391358565
 21
3839.911041539226
 31
0.0
  0
LINE
  5
B41D
330
747D
100
AcDbEntity
  8
0
  6
HIDDEN2
 48
5.0
100
AcDbLine
 10
4119.665391358565
 20
3844.911041539226
 30
0.0
 11
4099.665391358565
 21
3844.911041539226
 31
0.0
  0
LINE
  5
B41E
330
747D
100
AcDbEntity
  8
0
  6
HIDDEN2
 48
5.0
100
AcDbLine
 10
4119.665391358565
 20
3844.911041539226
 30
0.0
 11
4119.665391358565
 21
3839.911041539226
 31
0.0
  0
LINE
  5
B41F
330
747D
100
AcDbEntity
  8
0
  6
HIDDEN2
 48
5.0
100
AcDbLine
 10
4099.665391358565
 20
3839.911041539226
 30
0.0
 11
4099.665391358565
 21
3844.911041539226
 31
0.0
  0
LINE
  5
B421
330
747D
100
AcDbEntity
  8
0
100
AcDbLine
 10
3953.674015128041
 20
4213.626182939448
 30
0.0
 11
4247.717432639588
 21
4213.626182939448
 31
0.0
  0
DIMENSION
  5
B422
330
747D
100
AcDbEntity
  8
寸法引出
 48
25.0
100
AcDbDimension
  2
*D53
 10
4109.665391358565
 20
3983.656336629143
 30
0.0
 11
4049.665391358565
 21
4023.656336629144
 31
0.0
 70
    32
 71
     5
 42
120.0
  3
SANWA
100
AcDbAlignedDimension
 13
3989.665391358565
 23
3881.911041539226
 33
0.0
 14
4109.665391358565
 24
3881.911041539226
 34
0.0
100
AcDbRotatedDimension
1001
ACAD
1000
DSTYLE
1002
{
1070
   140
1040
2.0
1070
    40
1040
20.0
1070
   147
1040
1.0
1070
    44
1040
0.5
1070
    43
1040
5.0
1070
   178
1070
   256
1070
   177
1070
   256
1070
   176
1070
   256
1070
    41
1040
1.5
1002
}
  0
LINE
  5
B423
330
747D
100
AcDbEntity
  8
0
  6
HIDDEN2
 48
5.0
100
AcDbLine
 10
4100.665391358565
 20
3881.911041539225
 30
0.0
 11
4118.665391358565
 21
3881.911041539225
 31
0.0
  0
LINE
  5
B424
330
747D
100
AcDbEntity
  8
0
  6
HIDDEN2
 48
5.0
100
AcDbLine
 10
4878.665391358565
 20
3881.911041539225
 30
0.0
 11
4878.665391358565
 21
3844.911041539226
 31
0.0
  0
LINE
  5
B425
330
747D
100
AcDbEntity
  8
0
  6
HIDDEN2
 48
5.0
100
AcDbLine
 10
4860.665391358566
 20
3844.911041539226
 30
0.0
 11
4860.665391358566
 21
3881.911041539225
 31
0.0
  0
LINE
  5
B426
330
747D
100
AcDbEntity
  8
0
  6
HIDDEN2
 48
5.0
100
AcDbLine
 10
4879.665391358565
 20
3839.911041539226
 30
0.0
 11
4859.665391358565
 21
3839.911041539226
 31
0.0
  0
LINE
  5
B427
330
747D
100
AcDbEntity
  8
0
  6
HIDDEN2
 48
5.0
100
AcDbLine
 10
4879.665391358565
 20
3844.911041539226
 30
0.0
 11
4859.665391358565
 21
3844.911041539226
 31
0.0
  0
LINE
  5
B428
330
747D
100
AcDbEntity
  8
0
  6
HIDDEN2
 48
5.0
100
AcDbLine
 10
4859.665391358565
 20
3839.911041539226
 30
0.0
 11
4859.665391358565
 21
3844.911041539226
 31
0.0
  0
LINE
  5
B429
330
747D
100
AcDbEntity
  8
0
  6
HIDDEN2
 48
5.0
100
AcDbLine
 10
4879.665391358565
 20
3844.911041539226
 30
0.0
 11
4879.665391358565
 21
3839.911041539226
 31
0.0
  0
LINE
  5
B42B
330
747D
100
AcDbEntity
  8
0
  6
HIDDEN2
 48
5.0
100
AcDbLine
 10
4860.665391358566
 20
3881.911041539225
 30
0.0
 11
4878.665391358565
 21
3881.911041539225
 31
0.0
  0
LINE
  5
B433
330
747D
100
AcDbEntity
  8
枠
100
AcDbLine
 10
7175.0
 20
250.0
 30
0.0
 11
7175.0
 21
5000.000000000002
 31
0.0
  0
LINE
  5
B44E
330
747D
100
AcDbEntity
  8
0
 62
     0
100
AcDbLine
 10
5997.553191489351
 20
670.0000000000045
 30
0.0
 11
7175.0
 21
670.0000000000045
 31
0.0
  0
LINE
  5
B44F
330
747D
100
AcDbEntity
  8
0
 62
     0
100
AcDbLine
 10
5997.553191489351
 20
830.0000000000073
 30
0.0
 11
7175.0
 21
830.0000000000073
 31
0.0
  0
TEXT
  5
B450
330
747D
100
AcDbEntity
  8
0
 48
2.0
100
AcDbText
 10
6015.480113215563
 20
541.5684862348935
 30
0.0
 40
27.99999999999999
  1
格
  7
SANWA
100
AcDbText
  0
TEXT
  5
B451
330
747D
100
AcDbEntity
  8
0
 48
2.0
100
AcDbText
 10
6015.480113215563
 20
601.1410255214632
 30
0.0
 40
27.99999999999999
  1
規
  7
SANWA
100
AcDbText
  0
TEXT
  5
B452
330
747D
100
AcDbEntity
  8
0
 48
2.0
100
AcDbText
 10
6014.775609774869
 20
699.8772475912228
 30
0.0
 40
27.99999999999999
  1
名
  7
SANWA
100
AcDbText
  0
TEXT
  5
B453
330
747D
100
AcDbEntity
  8
0
 48
2.0
100
AcDbText
 10
6014.208558144741
 20
739.0543600013415
 30
0.0
 40
27.99999999999999
  1
び
  7
SANWA
100
AcDbText
  0
TEXT
  5
B454
330
747D
100
AcDbEntity
  8
0
 48
2.0
100
AcDbText
 10
6014.605708847351
 20
777.3913655001142
 30
0.0
 40
27.99999999999999
  1
呼
  7
SANWA
100
AcDbText
  0
TEXT
  5
B455
330
747D
100
AcDbEntity
  8
0
 48
2.0
100
AcDbText
 10
6014.721730996165
 20
868.3271054076504
 30
0.0
 40
27.99999999999999
  1
名
  7
SANWA
100
AcDbText
  0
TEXT
  5
B456
330
747D
100
AcDbEntity
  8
0
 48
2.0
100
AcDbText
 10
6016.23849543496
 20
933.9614944784099
 30
0.0
 40
27.99999999999999
  1
品
  7
SANWA
100
AcDbText
  0
LINE
  5
B457
330
747D
100
AcDbEntity
  8
0
100
AcDbLine
 10
5997.553191489351
 20
990.000000000009
 30
0.0
 11
6035.462120509079
 21
990.000000000009
 31
0.0
  0
LINE
  5
B458
330
747D
100
AcDbEntity
  8
0
100
AcDbLine
 10
5337.553191489337
 20
510.0000000000018
 30
0.0
 11
7175.0
 21
510.0000000000018
 31
0.0
  0
LINE
  5
B459
330
747D
100
AcDbEntity
  8
0
 62
     0
100
AcDbLine
 10
5337.553191489337
 20
990.000000000009
 30
0.0
 11
7175.0
 21
990.000000000009
 31
0.0
  0
LINE
  5
B45A
330
747D
100
AcDbEntity
  8
0
100
AcDbLine
 10
5997.553191489351
 20
250.0
 30
0.0
 11
5997.553191489351
 21
990.000000000009
 31
0.0
  0
LINE
  5
B45B
330
747D
100
AcDbEntity
  8
0
100
AcDbLine
 10
5337.553191489337
 20
990.000000000009
 30
0.0
 11
5337.553191489337
 21
870.0000000000054
 31
0.0
  0
MTEXT
  5
B45C
330
747D
100
AcDbEntity
  8
寸法引出
  6
ByBlock
 48
20.0
100
AcDbMText
 10
3798.871967551633
 20
483.4434625301383
 30
0.0
 40
30.0
 41
0.0
 71
     5
 72
     1
  1
接合面
  7
SANWA
 73
     1
 44
1.0
  0
MTEXT
  5
B45D
330
747D
100
AcDbEntity
  8
寸法引出
  6
ByBlock
 48
20.0
100
AcDbMText
 10
3963.74226341347
 20
884.6295934003737
 30
0.0
 40
30.0
 41
0.0
 71
     5
 72
     1
  1
内面
  7
SANWA
 73
     1
 44
1.0
  0
LEADER
  5
B45E
330
747D
100
AcDbEntity
  8
寸法引出
 48
25.0
100
AcDbLeader
  3
SANWA
 76
     3
 10
3870.334110878699
 20
762.6778734338786
 30
0.0
 10
3907.439746027602
 20
856.9284768126072
 30
0.0
 10
4023.165313513687
 20
856.9284768126072
 30
0.0
1001
ACAD
1000
DSTYLE
1002
{
1070
    77
1070
     0
1070
    40
1040
20.0
1070
    41
1040
1.5
1070
    43
1040
5.0
1070
    44
1040
0.5
1070
   140
1040
2.0
1070
   147
1040
1.0
1070
   176
1070
   256
1070
   177
1070
   256
1070
   178
1070
   256
1002
}
  0
CIRCLE
  5
B45F
102
{ACAD_REACTORS
330
B462
102
}
330
747D
100
AcDbEntity
  8
0
100
AcDbCircle
 10
5934.944196613059
 20
121.52799383
 30
0.0
 40
79.97521057257928
  0
CIRCLE
  5
B460
102
{ACAD_REACTORS
330
B462
102
}
330
747D
100
AcDbEntity
  8
0
100
AcDbCircle
 10
5934.944196613059
 20
121.52799383
 30
0.0
 40
75.97521057257927
  0
TEXT
  5
B461
102
{ACAD_REACTORS
330
B462
102
}
330
747D
100
AcDbEntity
  8
0
 48
2.0
100
AcDbText
 10
5907.347039658407
 20
134.8644897147896
 30
0.0
 40
40.0
  1
中
  7
SANWA
100
AcDbText
  0
HATCH
  5
B462
330
747D
100
AcDbEntity
  8
0
100
AcDbHatch
 10
0.0
 20
0.0
 30
0.0
210
0.0
220
0.0
230
1.0
  2
SOLID
 70
     1
 71
     1
 91
        4
 92
        7
 72
     1
 73
     1
 93
        2
 10
6014.919407185639
 20
121.52799383
 42
1.0
 10
5854.96898604048
 20
121.52799383
 42
1.0
 97
        1
330
B45F
 92
       22
 72
     1
 73
     1
 93
        2
 10
6010.919407185639
 20
121.52799383
 42
1.0
 10
5858.96898604048
 20
121.52799383
 42
1.0
 97
        1
330
B460
 92
      136
 93
        4
 72
     1
 10
5894.032753944121
 20
114.9216325719325
 11
5979.175611086978
 21
114.9216325719325
 72
     1
 10
5979.175611086978
 20
114.9216325719325
 11
5979.175611086978
 21
194.8073468576468
 72
     1
 10
5979.175611086978
 20
194.8073468576468
 11
5894.032753944121
 21
194.8073468576468
 72
     1
 10
5894.032753944121
 20
194.8073468576468
 11
5894.032753944121
 21
114.9216325719325
 97
        1
330
B461
 92
      136
 93
        4
 72
     1
 10
5893.892136339497
 20
60.93218552345658
 11
5977.434993482353
 21
60.93218552345658
 72
     1
 10
5977.434993482353
 20
60.93218552345658
 11
5977.434993482353
 21
136.0178998091708
 72
     1
 10
5977.434993482353
 20
136.0178998091708
 11
5893.892136339497
 21
136.0178998091708
 72
     1
 10
5893.892136339497
 20
136.0178998091708
 11
5893.892136339497
 21
60.93218552345658
 97
        1
330
B468
 75
     0
 76
     1
 47
0.0602706122334892
 98
        2
 10
5973.261339723553
 20
190.2767456646324
 10
5973.261339723553
 20
190.2767456646324
  0
CIRCLE
  5
B463
102
{ACAD_REACTORS
330
B466
102
}
330
747D
100
AcDbEntity
  8
0
100
AcDbCircle
 10
5532.353865006303
 20
121.52799383
 30
0.0
 40
79.97521057257928
  0
CIRCLE
  5
B464
102
{ACAD_REACTORS
330
B466
102
}
330
747D
100
AcDbEntity
  8
0
100
AcDbCircle
 10
5532.353865006303
 20
121.52799383
 30
0.0
 40
75.97521057257927
  0
TEXT
  5
B465
102
{ACAD_REACTORS
330
B466
102
}
330
747D
100
AcDbEntity
  8
0
 48
2.0
100
AcDbText
 10
5504.756708051672
 20
132.7163888296472
 30
0.0
 40
40.0
  1
蒔
  7
SANWA
100
AcDbText
  0
HATCH
  5
B466
330
747D
100
AcDbEntity
  8
0
100
AcDbHatch
 10
0.0
 20
0.0
 30
0.0
210
0.0
220
0.0
230
1.0
  2
SOLID
 70
     1
 71
     1
 91
        4
 92
        7
 72
     1
 73
     1
 93
        2
 10
5612.329075578883
 20
121.52799383
 42
1.0
 10
5452.378654433725
 20
121.52799383
 42
1.0
 97
        1
330
B463
 92
       22
 72
     1
 73
     1
 93
        2
 10
5608.329075578883
 20
121.52799383
 42
1.0
 10
5456.378654433724
 20
121.52799383
 42
1.0
 97
        1
330
B464
 92
      136
 93
        4
 72
     1
 10
5491.556708051673
 20
113.8021031153615
 11
5576.470993765958
 21
113.8021031153615
 72
     1
 10
5576.470993765958
 20
113.8021031153615
 11
5576.470993765958
 21
193.0021031153615
 72
     1
 10
5576.470993765958
 20
193.0021031153615
 11
5491.556708051673
 21
193.0021031153615
 72
     1
 10
5491.556708051673
 20
193.0021031153615
 11
5491.556708051673
 21
113.8021031153615
 97
        1
330
B465
 92
       24
 93
        4
 72
     1
 10
5491.873233304191
 20
54.37358697902087
 11
5574.27323330419
 21
54.37358697902087
 72
     1
 10
5574.27323330419
 20
54.37358697902087
 11
5574.27323330419
 21
126.0307298361637
 72
     1
 10
5574.27323330419
 20
126.0307298361637
 11
5491.873233304191
 21
126.0307298361637
 72
     1
 10
5491.873233304191
 20
126.0307298361637
 11
5491.873233304191
 21
54.37358697902087
 97
        1
330
B467
 75
     0
 76
     1
 47
0.0602706122334892
 98
        2
 10
5570.671008116811
 20
190.2767456646324
 10
5570.671008116811
 20
190.2767456646324
  0
TEXT
  5
B467
102
{ACAD_REACTORS
330
B466
102
}
330
747D
100
AcDbEntity
  8
0
 48
2.0
100
AcDbText
 10
5503.816090447048
 20
71.80215840759228
 30
0.0
 40
40.0
  1
田
  7
SANWA
100
AcDbText
  0
TEXT
  5
B468
102
{ACAD_REACTORS
330
B462
102
}
330
747D
100
AcDbEntity
  8
0
 48
2.0
100
AcDbText
 10
5906.406422053782
 20
78.2464712377423
 30
0.0
 40
40.0
  1
川
  7
SANWA
100
AcDbText
  0
TEXT
  5
B469
330
747D
100
AcDbEntity
  8
0
 48
2.0
100
AcDbText
 10
5391.248993407271
 20
522.0856316808067
 30
0.0
 40
40.0
  1
製図
  7
SANWA
100
AcDbText
  0
LINE
  5
B46A
330
747D
100
AcDbEntity
  8
0
 62
     0
100
AcDbLine
 10
5337.553191489337
 20
450.0
 30
0.0
 11
5997.553191489351
 21
450.0
 31
0.0
  0
TEXT
  5
B46B
330
747D
100
AcDbEntity
  8
0
 48
2.0
100
AcDbText
 10
5420.312825719296
 20
294.5884480798895
 30
0.0
 40
40.0
  1
口
  7
SANWA
100
AcDbText
  0
TEXT
  5
B46C
330
747D
100
AcDbEntity
  8
0
 48
2.0
100
AcDbText
 10
5421.253443323943
 20
351.2064665569487
 30
0.0
 40
40.0
  1
河
  7
SANWA
100
AcDbText
  0
CIRCLE
  5
B46D
102
{ACAD_REACTORS
330
B46F
102
}
330
747D
100
AcDbEntity
  8
0
100
AcDbCircle
 10
5448.850600278575
 20
345.9213961244358
 30
0.0
 40
79.97521057257928
  0
CIRCLE
  5
B46E
102
{ACAD_REACTORS
330
B46F
102
}
330
747D
100
AcDbEntity
  8
0
100
AcDbCircle
 10
5448.850600278575
 20
345.9213961244358
 30
0.0
 40
75.97521057257927
  0
HATCH
  5
B46F
330
747D
100
AcDbEntity
  8
0
100
AcDbHatch
 10
0.0
 20
0.0
 30
0.0
210
0.0
220
0.0
230
1.0
  2
SOLID
 70
     1
 71
     1
 91
        2
 92
        7
 72
     1
 73
     1
 93
        2
 10
5528.825810851153
 20
345.9213961244358
 42
1.0
 10
5368.875389705995
 20
345.9213961244358
 42
1.0
 97
        1
330
B46D
 92
       22
 72
     1
 73
     1
 93
        2
 10
5524.825810851154
 20
345.9213961244358
 42
1.0
 10
5372.875389705995
 20
345.9213961244358
 42
1.0
 97
        1
330
B46E
 75
     0
 76
     1
 47
0.0602706122334892
 98
        2
 10
5487.167743389067
 20
414.6701479590683
 10
5487.167743389067
 20
414.6701479590683
  0
LINE
  5
B470
330
747D
100
AcDbEntity
  8
0
 62
     0
100
AcDbLine
 10
5337.553191489337
 20
710.0000000000018
 30
0.0
 11
5997.553191489351
 21
710.0000000000018
 31
0.0
  0
LINE
  5
B471
330
747D
100
AcDbEntity
  8
0
 62
     0
100
AcDbLine
 10
5337.553191489337
 20
790.000000000009
 30
0.0
 11
5997.553191489351
 21
790.000000000009
 31
0.0
  0
LINE
  5
B472
330
747D
100
AcDbEntity
  8
0
 62
     0
100
AcDbLine
 10
5337.553191489337
 20
910.0000000000019
 30
0.0
 11
5997.553191489351
 21
910.0000000000019
 31
0.0
  0
LINE
  5
B473
330
747D
100
AcDbEntity
  8
0
 62
     0
100
AcDbLine
 10
5337.553191489337
 20
910.0000000000019
 30
0.0
 11
5997.553191489351
 21
910.0000000000019
 31
0.0
  0
TEXT
  5
B474
330
747D
100
AcDbEntity
  8
0
 48
2.0
100
AcDbText
 10
5385.360299888543
 20
459.6196585260822
 30
0.0
 40
40.0
  1
検図
  7
SANWA
100
AcDbText
  0
LINE
  5
B475
330
747D
100
AcDbEntity
  8
0
 62
     0
100
AcDbLine
 10
5337.553191489337
 20
570.0000000000045
 30
0.0
 11
5997.553191489351
 21
570.0000000000045
 31
0.0
  0
LINE
  5
B476
330
747D
100
AcDbEntity
  8
0
100
AcDbLine
 10
5337.553191489337
 20
630.0000000000072
 30
0.0
 11
5337.553191489337
 21
499.8919161829462
 31
0.0
  0
LINE
  5
B477
330
747D
100
AcDbEntity
  8
0
100
AcDbLine
 10
5337.553191489337
 20
570.0000000000045
 30
0.0
 11
5337.553191489337
 21
630.0000000000072
 31
0.0
  0
LINE
  5
B478
330
747D
100
AcDbEntity
  8
0
 62
     0
100
AcDbLine
 10
5337.553191489337
 20
630.0000000000072
 30
0.0
 11
5337.553191489337
 21
250.0
 31
0.0
  0
LINE
  5
B479
330
747D
100
AcDbEntity
  8
0
100
AcDbLine
 10
5337.553191489337
 20
570.0000000000045
 30
0.0
 11
5337.553191489337
 21
510.0000000000018
 31
0.0
  0
LINE
  5
B47A
330
747D
100
AcDbEntity
  8
0
100
AcDbLine
 10
5337.553191489337
 20
726.7609459798332
 30
0.0
 11
5337.553191489337
 21
882.1169115701541
 31
0.0
  0
LINE
  5
B47B
330
747D
100
AcDbEntity
  8
0
 62
     0
100
AcDbLine
 10
5337.553191489337
 20
870.0000000000054
 30
0.0
 11
5337.553191489337
 21
630.0000000000072
 31
0.0
  0
LINE
  5
B47C
330
747D
100
AcDbEntity
  8
0
100
AcDbLine
 10
5337.553191489337
 20
670.0000000000045
 30
0.0
 11
5337.553191489337
 21
726.7609459798332
 31
0.0
  0
TEXT
  5
B47D
330
747D
100
AcDbEntity
  8
0
 48
2.0
100
AcDbText
 10
5648.287171582318
 20
522.0856316808067
 30
0.0
 40
40.0
  1
2002. 5. 1
  7
SANWA
100
AcDbText
  0
LINE
  5
B47E
330
747D
100
AcDbEntity
  8
0
100
AcDbLine
 10
5557.553191489342
 20
250.0
 30
0.0
 11
5557.553191489342
 21
570.0000000000045
 31
0.0
  0
TEXT
  5
B47F
330
747D
100
AcDbEntity
  8
0
 48
2.0
100
AcDbText
 10
5615.12664304264
 20
461.8928629188303
 30
0.0
 40
40.0
  1
設計
  7
SANWA
100
AcDbText
  0
TEXT
  5
B480
102
{ACAD_REACTORS
330
B483
102
}
330
747D
100
AcDbEntity
  8
0
 48
2.0
100
AcDbText
 10
5863.78247775633
 20
361.867117935184
 30
0.0
 40
40.0
  1
大
  7
SANWA
100
AcDbText
  0
CIRCLE
  5
B481
102
{ACAD_REACTORS
330
B483
102
}
330
747D
100
AcDbEntity
  8
0
100
AcDbCircle
 10
5891.379634710961
 20
348.5306220503944
 30
0.0
 40
75.97521057257927
  0
CIRCLE
  5
B482
102
{ACAD_REACTORS
330
B483
102
}
330
747D
100
AcDbEntity
  8
0
100
AcDbCircle
 10
5891.379634710961
 20
348.5306220503944
 30
0.0
 40
79.97521057257928
  0
HATCH
  5
B483
330
747D
100
AcDbEntity
  8
0
100
AcDbHatch
 10
0.0
 20
0.0
 30
0.0
210
0.0
220
0.0
230
1.0
  2
SOLID
 70
     1
 71
     1
 91
        4
 92
        7
 72
     1
 73
     1
 93
        2
 10
5971.354845283541
 20
348.5306220503944
 42
1.0
 10
5811.404424138383
 20
348.5306220503944
 42
1.0
 97
        1
330
B482
 92
       22
 72
     1
 73
     1
 93
        2
 10
5967.354845283541
 20
348.5306220503944
 42
1.0
 10
5815.404424138383
 20
348.5306220503944
 42
1.0
 97
        1
330
B481
 92
      136
 93
        4
 72
     1
 10
5851.096763470617
 20
345.5242607923269
 11
5934.982477756331
 21
345.5242607923269
 72
     1
 10
5934.982477756331
 20
345.5242607923269
 11
5934.982477756331
 21
421.6385465066126
 72
     1
 10
5934.982477756331
 20
421.6385465066126
 11
5851.096763470617
 21
421.6385465066126
 72
     1
 10
5851.096763470617
 20
421.6385465066126
 11
5851.096763470617
 21
345.5242607923269
 97
        1
330
B480
 92
      136
 93
        4
 72
     1
 10
5849.527574437399
 20
285.9919566009939
 11
5934.670431580255
 21
285.9919566009939
 72
     1
 10
5934.670431580255
 20
285.9919566009939
 11
5934.670431580255
 21
365.877670886708
 72
     1
 10
5934.670431580255
 20
365.877670886708
 11
5849.527574437399
 21
365.877670886708
 72
     1
 10
5849.527574437399
 20
365.877670886708
 11
5849.527574437399
 21
285.9919566009939
 97
        1
330
B485
 75
     0
 76
     1
 47
0.0602706122334892
 98
        2
 10
5929.696777821455
 20
417.2793738850268
 10
5929.696777821455
 20
417.2793738850268
  0
LINE
  5
B484
330
747D
100
AcDbEntity
  8
0
100
AcDbLine
 10
5777.553191489346
 20
250.0
 30
0.0
 11
5777.553191489346
 21
510.0000000000018
 31
0.0
  0
TEXT
  5
B485
102
{ACAD_REACTORS
330
B483
102
}
330
747D
100
AcDbEntity
  8
0
 48
2.0
100
AcDbText
 10
5862.841860151684
 20
305.2490994581367
 30
0.0
 40
40.0
  1
嶋
  7
SANWA
100
AcDbText
  0
TEXT
  5
B486
330
747D
100
AcDbEntity
  8
0
 48
2.0
100
AcDbText
 10
5831.24899340728
 20
462.085631680804
 30
0.0
 40
40.0
  1
製図
  7
SANWA
100
AcDbText
  0
TEXT
  5
B487
330
747D
100
AcDbEntity
  8
0
 48
2.0
100
AcDbText
 10
5549.128171945249
 20
621.6691363600148
 30
0.0
 40
40.0
  1
１：２５
  7
SANWA
100
AcDbText
  0
TEXT
  5
B488
330
747D
100
AcDbEntity
  8
0
 48
2.0
100
AcDbText
 10
5554.917273621221
 20
830.9755021622549
 30
0.0
 40
40.0
  1
MS307020
  7
SANWA
100
AcDbText
  0
TEXT
  5
B489
330
747D
100
AcDbEntity
  8
0
 48
2.0
100
AcDbText
 10
5544.098121932371
 20
723.973191117022
 30
0.0
 40
40.0
  1
縮    尺
  7
SANWA
100
AcDbText
  0
TEXT
  5
B48A
330
747D
100
AcDbEntity
  8
0
 48
2.0
100
AcDbText
 10
5653.898808185773
 20
931.0686527376565
 30
0.0
 40
40.0
  1
番号
  7
SANWA
100
AcDbText
  0
TEXT
  5
B48B
330
747D
100
AcDbEntity
  8
0
 48
2.0
100
AcDbText
 10
5542.345604725415
 20
928.7954769413772
 30
0.0
 40
40.0
  1
図面
  7
SANWA
100
AcDbText
  0
LINE
  5
B49B
330
747D
100
AcDbEntity
  8
0
 48
25.0
100
AcDbLine
 10
5989.665391358565
 20
2215.093926774949
 30
0.0
 11
5989.665391358565
 21
1815.093926774949
 31
0.0
  0
LINE
  5
B4AE
330
747D
100
AcDbEntity
  8
0
100
AcDbLine
 10
6077.553191489346
 20
510.0000000000018
 30
0.0
 11
6077.553191489346
 21
990.000000000009
 31
0.0
  0
LINE
  5
B4AF
330
747D
100
AcDbEntity
  8
0
100
AcDbLine
 10
7425.0
 20
0.0
 30
0.0
 11
7175.0
 21
0.0
 31
0.0
  0
TEXT
  5
B4B0
330
747D
100
AcDbEntity
  8
0
100
AcDbText
 10
6421.476595744684
 20
570.4571428571519
 30
0.0
 40
40.0
  1
300×700×2000
  7
SANWA
 72
     4
 11
6626.276595744684
 21
590.000000000009
 31
0.0
100
AcDbText
  0
TEXT
  5
B4B1
330
747D
100
AcDbEntity
  8
0
100
AcDbText
 10
6245.933738601827
 20
889.6571428571446
 30
0.0
 40
40.0
  1
マルチスリット側溝（横断）
  7
SANWA
 72
     4
 11
6626.276595744684
 21
910.0000000000019
 31
0.0
100
AcDbText
  0
TEXT
  5
B4B2
330
747D
100
AcDbEntity
  8
0
100
AcDbText
 10
6277.347189020771
 20
344.5314540177951
 30
0.0
 40
40.0
  1
三和コンクリート工業株式会社
  7
SANWA
100
AcDbText
  0
HATCH
  5
B4B3
330
747D
100
AcDbEntity
  8
0
100
AcDbHatch
 10
0.0
 20
0.0
 30
0.0
210
0.0
220
0.0
230
1.0
  2
SOLID
 70
     1
 71
     0
 91
        6
 92
        7
 72
     1
 73
     1
 93
        4
 10
6084.7722498009
 20
426.459654682927
 42
0.0
 10
6097.525524441386
 20
413.7063800424421
 42
-0.3722683533228775
 10
6169.595189997954
 20
413.706380042453
 42
0.0
 10
6182.348464638433
 20
426.4596546829434
 42
0.382497994028995
 97
        0
 92
       22
 72
     1
 73
     1
 93
        4
 10
6176.440513371819
 20
426.2085576657955
 42
0.0
 10
6169.313383794019
 20
419.0814280879967
 42
0.3367429548951122
 10
6097.807330645333
 20
419.0814280879967
 42
0.0
 10
6090.680201067534
 20
426.2085576657955
 42
-0.3477704275231142
 97
        0
 92
        7
 72
     1
 73
     1
 93
        4
 10
6175.252044247447
 20
408.0495257929615
 42
-0.6168583269100119
 10
6137.560357219673
 20
317.0537437817747
 42
0.0
 10
6137.560357219673
 20
299.0178898205322
 42
0.6292889159379468
 10
6188.005318887941
 20
420.8028004334346
 42
0.0
 97
        0
 92
       22
 72
     1
 73
     1
 93
        4
 10
6187.7542218708
 20
414.8948491668124
 42
-0.5873104908889521
 10
6141.560357219669
 20
303.3729946276362
 42
0.0
 10
6141.560357219669
 20
313.4522779373501
 42
0.5741105922167442
 10
6180.627092293008
 20
407.7677195890073
 42
0.0
 97
        0
 92
        7
 72
     1
 73
     1
 93
        4
 10
6079.115395551411
 20
420.8028004334346
 42
0.6292889159379484
 10
6129.56035721968
 20
299.0178898205322
 42
0.0
 10
6129.56035721968
 20
317.0537437817747
 42
-0.6168583269099083
 10
6091.868670191894
 20
408.0495257929487
 42
0.0
 97
        0
 92
       22
 72
     1
 73
     1
 93
        4
 10
6086.49362214635
 20
407.7677195890137
 42
0.5741105922167819
 10
6125.560357219683
 20
313.452277937351
 42
0.0
 10
6125.560357219683
 20
303.3729946276362
 42
-0.5873104908889487
 10
6079.366492568549
 20
414.8948491668124
 42
0.0
 97
        0
 75
     0
 76
     1
 47
0.0143554168026844
 98
        6
 10
6165.5808279733
 20
434.8088762841871
 10
6165.5808279733
 20
434.8088762841871
 10
6180.523262244778
 20
411.5531024217707
 10
6180.523262244778
 20
411.5531024217707
 10
6088.282422260045
 20
410.6917769343344
 10
6088.282422260045
 20
410.6917769343344
  0
TEXT
  5
B4B4
330
747D
100
AcDbEntity
  8
0
100
AcDbText
 10
6111.181671391545
 20
344.5314540177951
 30
0.0
 40
30.0
  1
和
  7
SANWA
100
AcDbText
  0
ARC
  5
B4B5
330
747D
100
AcDbEntity
  8
0
100
AcDbCircle
 10
6133.560357219676
 20
372.0146930146711
 30
0.0
 40
69.10631488841319
100
AcDbArc
 50
276.6476737862
 51
38.35232621378875
  0
ARC
  5
B4B6
330
747D
100
AcDbEntity
  8
0
100
AcDbCircle
 10
6133.560357219676
 20
372.0146930146711
 30
0.0
 40
73.1063148884132
100
AcDbArc
 50
273.136495447062
 51
41.86350455292095
  0
ARC
  5
B4B7
330
747D
100
AcDbEntity
  8
0
100
AcDbCircle
 10
6133.560357219676
 20
372.0146930146711
 30
0.0
 40
59.10631488841318
100
AcDbArc
 50
277.7788203119242
 51
37.22117968809675
  0
ARC
  5
B4B8
330
747D
100
AcDbEntity
  8
0
100
AcDbCircle
 10
6133.560357219676
 20
372.0146930146711
 30
0.0
 40
55.10631488841318
100
AcDbArc
 50
274.1625874111334
 51
40.8374125888692
  0
ARC
  5
B4B9
330
747D
100
AcDbEntity
  8
0
100
AcDbCircle
 10
6133.560357219676
 20
372.0146930146711
 30
0.0
 40
55.10631488841318
100
AcDbArc
 50
139.1625874111308
 51
265.8374125888665
  0
ARC
  5
B4BA
330
747D
100
AcDbEntity
  8
0
100
AcDbCircle
 10
6133.560357219676
 20
372.0146930146711
 30
0.0
 40
59.10631488841318
100
AcDbArc
 50
142.7788203119032
 51
262.2211796880757
  0
ARC
  5
B4BB
330
747D
100
AcDbEntity
  8
0
100
AcDbCircle
 10
6133.560357219676
 20
372.0146930146711
 30
0.0
 40
73.1063148884132
100
AcDbArc
 50
138.136495447079
 51
266.8635045529379
  0
ARC
  5
B4BC
330
747D
100
AcDbEntity
  8
0
100
AcDbCircle
 10
6133.560357219676
 20
372.0146930146711
 30
0.0
 40
69.10631488841319
100
AcDbArc
 50
141.6476737862112
 51
263.3523262137999
  0
LINE
  5
B4BD
330
747D
100
AcDbEntity
  8
0
100
AcDbLine
 10
6125.560357219683
 20
303.3729946276362
 30
0.0
 11
6125.560357219683
 21
313.4522779373473
 31
0.0
  0
LINE
  5
B4BE
330
747D
100
AcDbEntity
  8
0
100
AcDbLine
 10
6141.560357219669
 20
303.3729946276362
 30
0.0
 11
6141.560357219669
 21
313.4522779373473
 31
0.0
  0
LINE
  5
B4BF
330
747D
100
AcDbEntity
  8
0
100
AcDbLine
 10
6137.560357219673
 20
299.0178898205267
 30
0.0
 11
6137.560357219673
 21
317.0537437817756
 31
0.0
  0
LINE
  5
B4C0
330
747D
100
AcDbEntity
  8
0
100
AcDbLine
 10
6129.56035721968
 20
299.0178898205267
 30
0.0
 11
6129.56035721968
 21
317.0537437817756
 31
0.0
  0
LINE
  5
B4C1
330
747D
100
AcDbEntity
  8
0
100
AcDbLine
 10
6169.595189997949
 20
413.7063800424475
 30
0.0
 11
6182.348464638426
 21
426.4596546829352
 31
0.0
  0
LINE
  5
B4C2
330
747D
100
AcDbEntity
  8
0
100
AcDbLine
 10
6175.252044247439
 20
408.049525792956
 30
0.0
 11
6188.005318887941
 21
420.8028004334319
 31
0.0
  0
ARC
  5
B4C3
330
747D
100
AcDbEntity
  8
0
100
AcDbCircle
 10
6133.560357219676
 20
372.0146930146711
 30
0.0
 40
73.1063148884132
100
AcDbArc
 50
48.13649544707906
 51
131.8635045529209
  0
ARC
  5
B4C4
330
747D
100
AcDbEntity
  8
0
100
AcDbCircle
 10
6133.560357219676
 20
372.0146930146711
 30
0.0
 40
69.10631488841319
100
AcDbArc
 50
51.64767378621125
 51
128.3523262137887
  0
ARC
  5
B4C5
330
747D
100
AcDbEntity
  8
0
100
AcDbCircle
 10
6133.560357219676
 20
372.0146930146711
 30
0.0
 40
59.10631488841318
100
AcDbArc
 50
52.77882031188749
 51
127.2211796881125
  0
ARC
  5
B4C6
330
747D
100
AcDbEntity
  8
0
100
AcDbCircle
 10
6133.560357219676
 20
372.0146930146711
 30
0.0
 40
55.10631488841318
100
AcDbArc
 50
49.16258741113348
 51
130.8374125888665
  0
LINE
  5
B4C7
330
747D
100
AcDbEntity
  8
0
100
AcDbLine
 10
6097.807330645331
 20
419.0814280879976
 30
0.0
 11
6090.68020106754
 21
426.2085576657909
 31
0.0
  0
LINE
  5
B4C8
330
747D
100
AcDbEntity
  8
0
100
AcDbLine
 10
6086.493622146349
 20
407.7677195890146
 30
0.0
 11
6079.366492568556
 21
414.8948491668079
 31
0.0
  0
LINE
  5
B4C9
330
747D
100
AcDbEntity
  8
0
100
AcDbLine
 10
6091.868670191889
 20
408.049525792956
 30
0.0
 11
6079.03795908976
 21
420.8802368950837
 31
0.0
  0
LINE
  5
B4CA
330
747D
100
AcDbEntity
  8
0
100
AcDbLine
 10
6097.52552444138
 20
413.7063800424475
 30
0.0
 11
6084.694813339252
 21
426.5370911445752
 31
0.0
  0
TEXT
  5
B4CB
330
747D
100
AcDbEntity
  8
0
100
AcDbText
 10
6111.181671391545
 20
384.3868193377375
 30
0.0
 40
30.0
  1
三
  7
SANWA
100
AcDbText
  0
LINE
  5
B4CC
330
747D
100
AcDbEntity
  8
0
100
AcDbLine
 10
6169.31338379402
 20
419.0814280879976
 30
0.0
 11
6176.440513371812
 21
426.2085576657909
 31
0.0
  0
LINE
  5
B4CD
330
747D
100
AcDbEntity
  8
0
100
AcDbLine
 10
6180.627092293003
 20
407.7677195890028
 30
0.0
 11
6187.754221870795
 21
414.8948491668079
 31
0.0
  0
LINE
  5
B4CE
330
747D
100
AcDbEntity
  8
0
100
AcDbLine
 10
7425.0
 20
250.0
 30
0.0
 11
7425.0
 21
0.0
 31
0.0
  0
LINE
  5
B507
330
747D
100
AcDbEntity
  8
0
 48
25.0
100
AcDbLine
 10
5989.665391358565
 20
3881.911041539225
 30
0.0
 11
5989.665391358565
 21
3101.911041539226
 31
0.0
  0
LINE
  5
B50B
330
747D
100
AcDbEntity
  8
0
 48
25.0
100
AcDbLine
 10
5989.665391358565
 20
3101.911041539226
 30
0.0
 11
5979.665391358565
 21
3091.911041539226
 31
0.0
  0
DIMENSION
  5
B50C
330
747D
100
AcDbEntity
  8
寸法引出
 48
25.0
100
AcDbDimension
  2
*D61
 10
5869.665391358565
 20
3983.656336629143
 30
0.0
 11
5489.665391358565
 21
4023.656336629144
 31
0.0
 70
    32
 71
     5
 42
760.0
  3
SANWA
100
AcDbAlignedDimension
 13
5109.665391358565
 23
3881.911041539226
 33
0.0
 14
5869.665391358565
 24
3881.911041539226
 34
0.0
100
AcDbRotatedDimension
1001
ACAD
1000
DSTYLE
1002
{
1070
    40
1040
20.0
1070
    41
1040
1.5
1070
    43
1040
5.0
1070
    44
1040
0.5
1070
    75
1070
     1
1070
   140
1040
2.0
1070
   147
1040
1.0
1070
   176
1070
   256
1070
   177
1070
   256
1070
   178
1070
   256
1070
   279
1070
     1
1002
}
  0
LINE
  5
B50D
330
747D
100
AcDbEntity
  8
0
  6
HIDDEN2
 48
5.0
100
AcDbLine
 10
5118.665391358565
 20
3881.911041539225
 30
0.0
 11
5118.665391358565
 21
3844.911041539226
 31
0.0
  0
LINE
  5
B50E
330
747D
100
AcDbEntity
  8
0
  6
HIDDEN2
 48
5.0
100
AcDbLine
 10
5100.665391358565
 20
3844.911041539226
 30
0.0
 11
5100.665391358565
 21
3881.911041539225
 31
0.0
  0
LINE
  5
B50F
330
747D
100
AcDbEntity
  8
0
  6
HIDDEN2
 48
5.0
100
AcDbLine
 10
5119.665391358565
 20
3839.911041539226
 30
0.0
 11
5099.665391358565
 21
3839.911041539226
 31
0.0
  0
LINE
  5
B510
330
747D
100
AcDbEntity
  8
0
  6
HIDDEN2
 48
5.0
100
AcDbLine
 10
5119.665391358565
 20
3844.911041539226
 30
0.0
 11
5099.665391358565
 21
3844.911041539226
 31
0.0
  0
LINE
  5
B511
330
747D
100
AcDbEntity
  8
0
  6
HIDDEN2
 48
5.0
100
AcDbLine
 10
5119.665391358565
 20
3844.911041539226
 30
0.0
 11
5119.665391358565
 21
3839.911041539226
 31
0.0
  0
LINE
  5
B512
330
747D
100
AcDbEntity
  8
0
  6
HIDDEN2
 48
5.0
100
AcDbLine
 10
5099.665391358565
 20
3839.911041539226
 30
0.0
 11
5099.665391358565
 21
3844.911041539226
 31
0.0
  0
LINE
  5
B515
330
747D
100
AcDbEntity
  8
0
  6
HIDDEN2
 48
5.0
100
AcDbLine
 10
5100.665391358565
 20
3881.911041539225
 30
0.0
 11
5118.665391358565
 21
3881.911041539225
 31
0.0
  0
LINE
  5
B518
330
747D
100
AcDbEntity
  8
0
  6
HIDDEN2
 48
5.0
100
AcDbLine
 10
5878.665391358565
 20
3881.911041539225
 30
0.0
 11
5878.665391358565
 21
3844.911041539226
 31
0.0
  0
LINE
  5
B519
330
747D
100
AcDbEntity
  8
0
  6
HIDDEN2
 48
5.0
100
AcDbLine
 10
5860.665391358566
 20
3844.911041539226
 30
0.0
 11
5860.665391358566
 21
3881.911041539225
 31
0.0
  0
LINE
  5
B51A
330
747D
100
AcDbEntity
  8
0
  6
HIDDEN2
 48
5.0
100
AcDbLine
 10
5879.665391358565
 20
3839.911041539226
 30
0.0
 11
5859.665391358565
 21
3839.911041539226
 31
0.0
  0
LINE
  5
B51B
330
747D
100
AcDbEntity
  8
0
  6
HIDDEN2
 48
5.0
100
AcDbLine
 10
5879.665391358565
 20
3844.911041539226
 30
0.0
 11
5859.665391358565
 21
3844.911041539226
 31
0.0
  0
LINE
  5
B51C
330
747D
100
AcDbEntity
  8
0
  6
HIDDEN2
 48
5.0
100
AcDbLine
 10
5859.665391358565
 20
3839.911041539226
 30
0.0
 11
5859.665391358565
 21
3844.911041539226
 31
0.0
  0
LINE
  5
B51D
330
747D
100
AcDbEntity
  8
0
 48
25.0
100
AcDbLine
 10
5904.665391358569
 20
3759.411041539226
 30
0.0
 11
5904.665391358567
 21
3704.411041539227
 31
0.0
  0
LINE
  5
B51E
330
747D
100
AcDbEntity
  8
0
 48
25.0
100
AcDbLine
 10
5902.665391358567
 20
3761.411041539227
 30
0.0
 11
5902.665391358569
 21
3702.411041539226
 31
0.0
  0
LINE
  5
B51F
330
747D
100
AcDbEntity
  8
0
 48
25.0
100
AcDbLine
 10
5989.665391358565
 20
3702.411041539226
 30
0.0
 11
5902.665391358569
 21
3702.411041539226
 31
0.0
  0
LINE
  5
B520
330
747D
100
AcDbEntity
  8
0
 48
25.0
100
AcDbLine
 10
5989.665391358565
 20
3704.411041539227
 30
0.0
 11
5904.665391358567
 21
3704.411041539227
 31
0.0
  0
LINE
  5
B521
330
747D
100
AcDbEntity
  8
0
 48
25.0
100
AcDbLine
 10
5902.665391358569
 20
3702.411041539226
 30
0.0
 11
5904.665391358567
 21
3704.411041539227
 31
0.0
  0
CIRCLE
  5
B522
330
747D
100
AcDbEntity
  8
0
 48
25.0
100
AcDbCircle
 10
5939.665391358565
 20
3731.911041539226
 30
0.0
 40
6.0
  0
LINE
  5
B523
330
747D
100
AcDbEntity
  8
0
 48
25.0
100
AcDbLine
 10
5989.665391358565
 20
3761.411041539227
 30
0.0
 11
5902.665391358567
 21
3761.411041539227
 31
0.0
  0
LINE
  5
B524
330
747D
100
AcDbEntity
  8
0
 48
25.0
100
AcDbLine
 10
5989.665391358565
 20
3759.411041539226
 30
0.0
 11
5904.665391358569
 21
3759.411041539226
 31
0.0
  0
LINE
  5
B525
330
747D
100
AcDbEntity
  8
0
 48
25.0
100
AcDbLine
 10
5902.665391358567
 20
3761.411041539227
 30
0.0
 11
5904.665391358569
 21
3759.411041539226
 31
0.0
  0
LINE
  5
B526
330
747D
100
AcDbEntity
  8
0
  6
HIDDEN2
 48
5.0
100
AcDbLine
 10
5879.665391358565
 20
3844.911041539226
 30
0.0
 11
5879.665391358565
 21
3839.911041539226
 31
0.0
  0
DIMENSION
  5
B527
330
747D
100
AcDbEntity
  8
寸法引出
 48
25.0
100
AcDbDimension
  2
*D44
 10
5989.665391358565
 20
3983.656336629143
 30
0.0
 11
5929.665391358565
 21
4023.656336629144
 31
0.0
 70
    32
 71
     5
 42
120.0
  3
SANWA
100
AcDbAlignedDimension
 13
5869.665391358565
 23
3881.911041539226
 33
0.0
 14
5989.665391358565
 24
3881.911041539226
 34
0.0
100
AcDbRotatedDimension
1001
ACAD
1000
DSTYLE
1002
{
1070
    40
1040
20.0
1070
    41
1040
1.5
1070
    43
1040
5.0
1070
    44
1040
0.5
1070
    75
1070
     1
1070
   140
1040
2.0
1070
   147
1040
1.0
1070
   176
1070
   256
1070
   177
1070
   256
1070
   178
1070
   256
1070
   279
1070
     1
1002
}
  0
LINE
  5
B528
330
747D
100
AcDbEntity
  8
0
  6
HIDDEN2
 48
5.0
100
AcDbLine
 10
5860.665391358566
 20
3881.911041539225
 30
0.0
 11
5878.665391358565
 21
3881.911041539225
 31
0.0
  0
LINE
  5
B540
330
747D
100
AcDbEntity
  8
0
100
AcDbLine
 10
7175.0
 20
5250.000000000002
 30
0.0
 11
7425.0
 21
5250.000000000002
 31
0.0
  0
LINE
  5
B541
330
747D
100
AcDbEntity
  8
0
100
AcDbLine
 10
7425.0
 20
5250.000000000002
 30
0.0
 11
7425.0
 21
5000.000000000002
 31
0.0
  0
TEXT
  5
BEE8
330
747D
100
AcDbEntity
  8
0
100
AcDbText
 10
5181.867412484524
 20
4530.15676200497
 30
0.0
 40
60.0
  1
W=649kg
  7
SANWA
 72
     4
 11
5335.467412484525
 21
4555.356762004969
 31
0.0
100
AcDbText
  0
LINE
  5
BEE9
330
747D
100
AcDbEntity
  8
0
 48
25.0
100
AcDbLine
 10
4076.665391358563
 20
3761.411041539227
 30
0.0
 11
4076.665391358561
 21
3702.411041539226
 31
0.0
  0
LINE
  5
BEEA
330
747D
100
AcDbEntity
  8
0
 48
25.0
100
AcDbLine
 10
3989.665391358565
 20
3702.411041539226
 30
0.0
 11
4076.665391358561
 21
3702.411041539226
 31
0.0
  0
LINE
  5
BEEB
330
747D
100
AcDbEntity
  8
0
 48
25.0
100
AcDbLine
 10
4076.665391358561
 20
3702.411041539226
 30
0.0
 11
4074.665391358563
 21
3704.411041539227
 31
0.0
  0
LINE
  5
BEEC
330
747D
100
AcDbEntity
  8
0
 48
25.0
100
AcDbLine
 10
3989.665391358565
 20
3761.411041539227
 30
0.0
 11
4076.665391358563
 21
3761.411041539227
 31
0.0
  0
LINE
  5
BEED
330
747D
100
AcDbEntity
  8
0
 48
25.0
100
AcDbLine
 10
4076.665391358563
 20
3761.411041539227
 30
0.0
 11
4074.665391358561
 21
3759.411041539226
 31
0.0
  0
LINE
  5
BEEE
330
747D
100
AcDbEntity
  8
0
 48
25.0
100
AcDbLine
 10
4074.665391358561
 20
3759.411041539226
 30
0.0
 11
4074.665391358563
 21
3704.411041539227
 31
0.0
  0
LINE
  5
BEEF
330
747D
100
AcDbEntity
  8
0
 48
25.0
100
AcDbLine
 10
3989.665391358565
 20
3704.411041539227
 30
0.0
 11
4074.665391358563
 21
3704.411041539227
 31
0.0
  0
LINE
  5
BEF0
330
747D
100
AcDbEntity
  8
0
 48
25.0
100
AcDbLine
 10
3989.665391358565
 20
3759.411041539226
 30
0.0
 11
4074.665391358561
 21
3759.411041539226
 31
0.0
  0
LINE
  5
BEF2
330
747D
100
AcDbEntity
  8
0
 48
25.0
100
AcDbLine
 10
5989.665391358565
 20
3121.911041539226
 30
0.0
 11
3989.665391358565
 21
3121.911041539226
 31
0.0
  0
LINE
  5
BEF3
330
747D
100
AcDbEntity
  8
0
  6
HIDDEN2
 48
25.0
100
AcDbLine
 10
5989.665391358565
 20
3181.911041539226
 30
0.0
 11
3989.665391358565
 21
3181.911041539226
 31
0.0
  0
LINE
  5
BEF4
330
747D
100
AcDbEntity
  8
0
 48
25.0
100
AcDbLine
 10
3989.665391358565
 20
2165.093926774949
 30
0.0
 11
5989.665391358565
 21
2165.093926774949
 31
0.0
  0
LINE
  5
BEF5
330
747D
100
AcDbEntity
  8
0
 48
25.0
100
AcDbLine
 10
5989.665391358565
 20
1865.093926774949
 30
0.0
 11
3989.665391358565
 21
1865.093926774949
 31
0.0
  0
LINE
  5
C02D
330
747D
100
AcDbEntity
  8
0
100
AcDbLine
 10
2566.378697727723
 20
3881.911041539225
 30
0.0
 11
2529.47226240662
 21
3236.048423419878
 31
0.0
  0
ARC
  5
C02E
330
747D
100
AcDbEntity
  8
0
100
AcDbCircle
 10
2459.58626899694
 20
3240.041908757573
 30
0.0
 40
70.0
100
AcDbArc
 50
284.6527859665304
 51
356.7295120768037
  0
ARC
  5
C02F
330
747D
100
AcDbEntity
  8
0
100
AcDbCircle
 10
2396.346071278629
 20
3481.911041539226
 30
0.0
 40
320.0
100
AcDbArc
 50
270.0
 51
284.6527859665304
  0
LINE
  5
C030
330
747D
100
AcDbEntity
  8
0
 48
25.0
100
AcDbLine
 10
2396.346071278629
 20
3101.911041539226
 30
0.0
 11
2576.346071278629
 21
3101.911041539226
 31
0.0
  0
VIEWPORT
  5
7540
330
747A
100
AcDbEntity
 67
     1
  8
0
100
AcDbViewport
 10
-3029.057228595033
 20
-846.1011655902643
 30
0.0
 40
10819.75987457698
 41
5674.171180486036
 68
     1
 69
     1
 12
-3029.057228595033
 22
-846.1011655902643
 13
0.0
 23
0.0
 14
10.0
 24
10.0
 15
10.0
 25
10.0
 16
0.0
 26
0.0
 36
1.0
 17
0.0
 27
0.0
 37
0.0
 42
50.0
 43
0.0
 44
0.0
 45
5674.171180486036
 50
0.0
 51
0.0
 72
   100
 90
    32800
  1

281
     0
 71
     1
 74
     0
110
0.0
120
0.0
130
0.0
111
1.0
121
0.0
131
0.0
112
0.0
122
1.0
132
0.0
 79
     0
146
0.0
  0
TEXT
  5
7737
330
747A
100
AcDbEntity
 67
     1
  8
0
 48
2.0
100
AcDbText
 10
331.8711968111849
 20
20.60428158404022
 30
0.0
 40
2.0
  1

  7
SANWA
100
AcDbText
  0
ENDSEC
  0
SECTION
  2
OBJECTS
  0
DICTIONARY
  5
7471
330
0
100
AcDbDictionary
281
     1
  3
ACAD_GROUP
350
7472
  3
ACAD_LAYOUT
350
85A0
  3
ACAD_MLINESTYLE
350
7473
  3
ACAD_PLOTSETTINGS
350
85A1
  3
ACAD_PLOTSTYLENAME
350
859E
  3
ACDBVARIABLEDICTIONARY
350
789B
  0
DICTIONARY
  5
7472
102
{ACAD_REACTORS
330
7471
102
}
330
0
100
AcDbDictionary
281
     1
  0
DICTIONARY
  5
85A0
102
{ACAD_REACTORS
330
7471
102
}
330
7471
100
AcDbDictionary
281
     1
  3
Model
350
85A2
  3
ﾚｲｱｳﾄ1
350
85A3
  0
DICTIONARY
  5
7473
102
{ACAD_REACTORS
330
7471
102
}
330
0
100
AcDbDictionary
281
     1
  3
STANDARD
350
7480
  0
DICTIONARY
  5
85A1
102
{ACAD_REACTORS
330
7471
102
}
330
7471
100
AcDbDictionary
281
     1
  0
ACDBDICTIONARYWDFLT
  5
859E
102
{ACAD_REACTORS
330
7471
102
}
330
7471
100
AcDbDictionary
281
     1
  3
Normal
350
859F
100
AcDbDictionaryWithDefault
340
859F
  0
DICTIONARY
  5
789B
102
{ACAD_REACTORS
330
7471
102
}
330
7471
100
AcDbDictionary
281
     1
  3
DIMASSOC
350
A8FD
  3
SORTENTS
350
789C
  0
LAYOUT
  5
85A2
102
{ACAD_REACTORS
330
85A0
102
}
330
85A0
100
AcDbPlotSettings
  1

  2
DocuCentre Color f360
  4
A4
  6
OLE1
 40
4.857749938964843
 41
4.942390441894531
 42
4.942413330078125
 43
4.857757568359375
 44
209.9733276367187
 45
297.0106506347656
 46
5.089999999999999
 47
12.61
 48
625.0
 49
250.0
140
7175.0
141
5000.000000000002
142
1.0
143
25.0
 70
 11940
 72
     1
 73
     1
 74
     4
  7
sanwa3.ctb
 75
     0
147
0.04
148
-625.0
149
-250.0
100
AcDbLayout
  1
Model
 70
     1
 71
     0
 10
0.0
 20
0.0
 11
12.0
 21
9.0
 12
0.0
 22
0.0
 32
0.0
 14
0.0
 24
0.0
 34
0.0
 15
0.0
 25
0.0
 35
0.0
146
0.0
 13
0.0
 23
0.0
 33
0.0
 16
1.0
 26
0.0
 36
0.0
 17
0.0
 27
1.0
 37
0.0
 76
     0
330
747D
  0
LAYOUT
  5
85A3
102
{ACAD_REACTORS
330
85A0
102
}
330
85A0
100
AcDbPlotSettings
  1

  2
RICOH NX-510
  4
A4
  6

 40
5.873749732971191
 41
4.92125654220581
 42
7.588241577148437
 43
5.81024169921875
 44
209.9944915771484
 45
296.989501953125
 46
0.0
 47
0.0
 48
0.0
 49
0.0
140
0.0
141
0.0
142
1.0
143
26.7163999926989
 70
   688
 72
     1
 73
     1
 74
     1
  7
sanwa3.ctb
 75
     0
147
0.037430192700861
148
6841.073651210504
149
3494.324134886467
100
AcDbLayout
  1
ﾚｲｱｳﾄ1
 70
     1
 71
     1
 10
-6996.302392501092
 20
-3651.249582209533
 11
938.1879353110262
 21
1959.047251029004
 12
0.0
 22
0.0
 32
0.0
 14
1.000000000000000E+20
 24
1.000000000000000E+20
 34
1.000000000000000E+20
 15
-1.000000000000000E+20
 25
-1.000000000000000E+20
 35
-1.000000000000000E+20
146
0.0
 13
0.0
 23
0.0
 33
0.0
 16
1.0
 26
0.0
 36
0.0
 17
0.0
 27
1.0
 37
0.0
 76
     0
330
747A
331
7540
  0
MLINESTYLE
  5
7480
102
{ACAD_REACTORS
330
7473
102
}
330
0
100
AcDbMlineStyle
  2
STANDARD
 70
     0
  3

 62
     0
 51
90.0
 52
90.0
 71
     2
 49
0.5
 62
   256
  6
BYLAYER
 49
-0.5
 62
   256
  6
BYLAYER
  0
ACDBPLACEHOLDER
  5
859F
102
{ACAD_REACTORS
330
859E
102
}
330
859E
  0
DICTIONARYVAR
  5
A8FD
102
{ACAD_REACTORS
330
789B
102
}
330
789B
100
DictionaryVariables
280
     0
  1
1
  0
DICTIONARYVAR
  5
789C
102
{ACAD_REACTORS
330
789B
102
}
330
789B
100
DictionaryVariables
280
     0
  1
96
  0
ENDSEC
  0
EOF
