  0
SECTION
  2
HEADER
  9
$ACADVER
  1
AC1015
  9
$ACADMAINTVER
 70
    13
  9
$DWGCODEPAGE
  3
ANSI_932
  9
$INSBASE
 10
0.0
 20
0.0
 30
0.0
  9
$EXTMIN
 10
-0.9363441765999596
 20
-0.6129386158863781
 30
-0.0000000000000015
  9
$EXTMAX
 10
7425.237547641798
 20
5250.663326742575
 30
0.0000000000000137
  9
$LIMMIN
 10
0.0
 20
0.0
  9
$LIMMAX
 10
420.0
 20
297.0
  9
$ORTHOMODE
 70
     1
  9
$REGENMODE
 70
     1
  9
$FILLMODE
 70
     1
  9
$QTEXTMODE
 70
     0
  9
$MIRRTEXT
 70
     1
  9
$LTSCALE
 40
0.5
  9
$ATTMODE
 70
     1
  9
$TEXTSIZE
 40
2.799999999999999
  9
$TRACEWID
 40
1.0
  9
$TEXTSTYLE
  7
SANWA
  9
$CLAYER
  8
0
  9
$CELTYPE
  6
BYLAYER
  9
$CECOLOR
 62
   256
  9
$CELTSCALE
 40
25.0
  9
$DISPSILH
 70
     0
  9
$DIMSCALE
 40
20.0
  9
$DIMASZ
 40
1.5
  9
$DIMEXO
 40
1.0
  9
$DIMDLI
 40
5.0
  9
$DIMRND
 40
0.0
  9
$DIMDLE
 40
0.0
  9
$DIMEXE
 40
0.5
  9
$DIMTP
 40
0.0
  9
$DIMTM
 40
0.0
  9
$DIMTXT
 40
2.0
  9
$DIMCEN
 40
0.0
  9
$DIMTSZ
 40
0.0
  9
$DIMTOL
 70
     0
  9
$DIMLIM
 70
     0
  9
$DIMTIH
 70
     0
  9
$DIMTOH
 70
     0
  9
$DIMSE1
 70
     0
  9
$DIMSE2
 70
     0
  9
$DIMTAD
 70
     1
  9
$DIMZIN
 70
     8
  9
$DIMBLK
  1

  9
$DIMASO
 70
     1
  9
$DIMSHO
 70
     1
  9
$DIMPOST
  1

  9
$DIMAPOST
  1

  9
$DIMALT
 70
     0
  9
$DIMALTD
 70
     2
  9
$DIMALTF
 40
0.0394
  9
$DIMLFAC
 40
1.0
  9
$DIMTOFL
 70
     1
  9
$DIMTVP
 40
0.0
  9
$DIMTIX
 70
     1
  9
$DIMSOXD
 70
     0
  9
$DIMSAH
 70
     0
  9
$DIMBLK1
  1

  9
$DIMBLK2
  1

  9
$DIMSTYLE
  2
SANWA
  9
$DIMCLRD
 70
   256
  9
$DIMCLRE
 70
   256
  9
$DIMCLRT
 70
   256
  9
$DIMTFAC
 40
1.0
  9
$DIMGAP
 40
1.0
  9
$DIMJUST
 70
     0
  9
$DIMSD1
 70
     0
  9
$DIMSD2
 70
     0
  9
$DIMTOLJ
 70
     1
  9
$DIMTZIN
 70
     0
  9
$DIMALTZ
 70
     0
  9
$DIMALTTZ
 70
     0
  9
$DIMUPT
 70
     0
  9
$DIMDEC
 70
     4
  9
$DIMTDEC
 70
     4
  9
$DIMALTU
 70
     2
  9
$DIMALTTD
 70
     2
  9
$DIMTXSTY
  7
SANWA
  9
$DIMAUNIT
 70
     0
  9
$DIMADEC
 70
     0
  9
$DIMALTRND
 40
0.0
  9
$DIMAZIN
 70
     0
  9
$DIMDSEP
 70
    46
  9
$DIMATFIT
 70
     3
  9
$DIMFRAC
 70
     0
  9
$DIMLDRBLK
  1

  9
$DIMLUNIT
 70
     2
  9
$DIMLWD
 70
    -2
  9
$DIMLWE
 70
    -2
  9
$DIMTMOVE
 70
     0
  9
$LUNITS
 70
     2
  9
$LUPREC
 70
     4
  9
$SKETCHINC
 40
1.0
  9
$FILLETRAD
 40
100.0
  9
$AUNITS
 70
     0
  9
$AUPREC
 70
     0
  9
$MENU
  1
acad
  9
$ELEVATION
 40
0.0
  9
$PELEVATION
 40
0.0
  9
$THICKNESS
 40
0.0
  9
$LIMCHECK
 70
     0
  9
$CHAMFERA
 40
10.0
  9
$CHAMFERB
 40
10.0
  9
$CHAMFERC
 40
0.0
  9
$CHAMFERD
 40
0.0
  9
$SKPOLY
 70
     1
  9
$TDCREATE
 40
2451589.862323842
  9
$TDUCREATE
 40
2451589.487323842
  9
$TDUPDATE
 40
2454145.370756111
  9
$TDUUPDATE
 40
2454144.995756111
  9
$TDINDWG
 40
0.3198453704
  9
$TDUSRTIMER
 40
0.3198453704
  9
$USRTIMER
 70
     1
  9
$ANGBASE
 50
0.0
  9
$ANGDIR
 70
     0
  9
$PDMODE
 70
     0
  9
$PDSIZE
 40
0.0
  9
$PLINEWID
 40
0.0
  9
$SPLFRAME
 70
     0
  9
$SPLINETYPE
 70
     6
  9
$SPLINESEGS
 70
     8
  9
$HANDSEED
  5
C1D4
  9
$SURFTAB1
 70
     6
  9
$SURFTAB2
 70
     6
  9
$SURFTYPE
 70
     6
  9
$SURFU
 70
     6
  9
$SURFV
 70
     6
  9
$UCSBASE
  2

  9
$UCSNAME
  2

  9
$UCSORG
 10
0.0
 20
0.0
 30
0.0
  9
$UCSXDIR
 10
1.0
 20
0.0
 30
0.0
  9
$UCSYDIR
 10
0.0
 20
1.0
 30
0.0
  9
$UCSORTHOREF
  2

  9
$UCSORTHOVIEW
 70
     0
  9
$UCSORGTOP
 10
0.0
 20
0.0
 30
0.0
  9
$UCSORGBOTTOM
 10
0.0
 20
0.0
 30
0.0
  9
$UCSORGLEFT
 10
0.0
 20
0.0
 30
0.0
  9
$UCSORGRIGHT
 10
0.0
 20
0.0
 30
0.0
  9
$UCSORGFRONT
 10
0.0
 20
0.0
 30
0.0
  9
$UCSORGBACK
 10
0.0
 20
0.0
 30
0.0
  9
$PUCSBASE
  2

  9
$PUCSNAME
  2

  9
$PUCSORG
 10
0.0
 20
0.0
 30
0.0
  9
$PUCSXDIR
 10
1.0
 20
0.0
 30
0.0
  9
$PUCSYDIR
 10
0.0
 20
1.0
 30
0.0
  9
$PUCSORTHOREF
  2

  9
$PUCSORTHOVIEW
 70
     0
  9
$PUCSORGTOP
 10
0.0
 20
0.0
 30
0.0
  9
$PUCSORGBOTTOM
 10
0.0
 20
0.0
 30
0.0
  9
$PUCSORGLEFT
 10
0.0
 20
0.0
 30
0.0
  9
$PUCSORGRIGHT
 10
0.0
 20
0.0
 30
0.0
  9
$PUCSORGFRONT
 10
0.0
 20
0.0
 30
0.0
  9
$PUCSORGBACK
 10
0.0
 20
0.0
 30
0.0
  9
$USERI1
 70
     0
  9
$USERI2
 70
     0
  9
$USERI3
 70
     0
  9
$USERI4
 70
     0
  9
$USERI5
 70
     0
  9
$USERR1
 40
0.0
  9
$USERR2
 40
0.0
  9
$USERR3
 40
0.0
  9
$USERR4
 40
0.0
  9
$USERR5
 40
0.0
  9
$WORLDVIEW
 70
     1
  9
$SHADEDGE
 70
     3
  9
$SHADEDIF
 70
    70
  9
$TILEMODE
 70
     1
  9
$MAXACTVP
 70
    48
  9
$PINSBASE
 10
0.0
 20
0.0
 30
0.0
  9
$PLIMCHECK
 70
     0
  9
$PEXTMIN
 10
1.000000000000000E+20
 20
1.000000000000000E+20
 30
1.000000000000000E+20
  9
$PEXTMAX
 10
-1.000000000000000E+20
 20
-1.000000000000000E+20
 30
-1.000000000000000E+20
  9
$PLIMMIN
 10
-6996.302392501092
 20
-3651.249582209533
  9
$PLIMMAX
 10
938.1879353110262
 20
1959.047251029004
  9
$UNITMODE
 70
     0
  9
$VISRETAIN
 70
     1
  9
$PLINEGEN
 70
     0
  9
$PSLTSCALE
 70
     1
  9
$TREEDEPTH
 70
  3020
  9
$CMLSTYLE
  2
STANDARD
  9
$CMLJUST
 70
     0
  9
$CMLSCALE
 40
1.0
  9
$PROXYGRAPHICS
 70
     1
  9
$MEASUREMENT
 70
     1
  9
$CELWEIGHT
370
    -1
  9
$ENDCAPS
280
     0
  9
$JOINSTYLE
280
     0
  9
$LWDISPLAY
290
     0
  9
$INSUNITS
 70
     0
  9
$HYPERLINKBASE
  1

  9
$STYLESHEET
  1
sanwa3.ctb
  9
$XEDIT
290
     1
  9
$CEPSNTYPE
380
     0
  9
$PSTYLEMODE
290
     1
  9
$FINGERPRINTGUID
  2
{AD38E090-CD2E-44A8-ABC8-9191BAEEDC54}
  9
$VERSIONGUID
  2
{6F24F114-6569-4D0F-8FB4-D5A94FC84D69}
  9
$EXTNAMES
290
     1
  9
$PSVPSCALE
 40
0.0
  9
$OLESTARTUP
290
     0
  0
ENDSEC
  0
SECTION
  2
CLASSES
  0
CLASS
  1
LWPOLYLINE
  2
AcDbPolyline
  3
AutoCAD 2000
 90
    32768
280
     0
281
     1
  0
CLASS
  1
DICTIONARYVAR
  2
AcDbDictionaryVar
  3
AutoCAD 2000
 90
        0
280
     0
281
     0
  0
CLASS
  1
HATCH
  2
AcDbHatch
  3
AutoCAD 2000
 90
    32768
280
     0
281
     1
  0
CLASS
  1
ACDBDICTIONARYWDFLT
  2
AcDbDictionaryWithDefault
  3
AutoCAD 2000
 90
        0
280
     0
281
     0
  0
CLASS
  1
ACDBPLACEHOLDER
  2
AcDbPlaceHolder
  3
AutoCAD 2000
 90
        0
280
     0
281
     0
  0
CLASS
  1
LAYOUT
  2
AcDbLayout
  3
AutoCAD 2000
 90
        0
280
     0
281
     0
  0
ENDSEC
  0
SECTION
  2
TABLES
  0
TABLE
  2
VPORT
  5
746D
330
0
100
AcDbSymbolTable
 70
     2
  0
VPORT
  5
C1D3
330
746D
100
AcDbSymbolTableRecord
100
AcDbViewportTableRecord
  2
*Active
 70
     0
 10
0.0
 20
0.0
 11
1.0
 21
1.0
 12
3712.150601732599
 22
2625.025194063344
 13
0.0
 23
0.0
 14
10.0
 24
10.0
 15
10.0
 25
10.0
 16
0.0
 26
0.0
 36
1.0
 17
0.0
 27
0.0
 37
0.0
 40
5472.547280899593
 41
1.368320610687022
 42
50.0
 43
0.0
 44
0.0
 50
0.0
 51
0.0
 71
     0
 72
   100
 73
     1
 74
     0
 75
     0
 76
     0
 77
     0
 78
     0
281
     0
 65
     1
110
0.0
120
0.0
130
0.0
111
1.0
121
0.0
131
0.0
112
0.0
122
1.0
132
0.0
 79
     0
146
0.0
  0
ENDTAB
  0
TABLE
  2
LTYPE
  5
746A
330
0
100
AcDbSymbolTable
 70
     5
  0
LTYPE
  5
7477
330
746A
100
AcDbSymbolTableRecord
100
AcDbLinetypeTableRecord
  2
BYBLOCK
 70
     0
  3

 72
    65
 73
     0
 40
0.0
  0
LTYPE
  5
7478
330
746A
100
AcDbSymbolTableRecord
100
AcDbLinetypeTableRecord
  2
BYLAYER
 70
     0
  3

 72
    65
 73
     0
 40
0.0
  0
LTYPE
  5
7479
330
746A
100
AcDbSymbolTableRecord
100
AcDbLinetypeTableRecord
  2
CONTINUOUS
 70
     0
  3
Solid line
 72
    65
 73
     0
 40
0.0
  0
LTYPE
  5
7D54
330
746A
100
AcDbSymbolTableRecord
100
AcDbLinetypeTableRecord
  2
CENTER2
 70
     0
  3
Center (.5x) ___ _ ___ _ ___ _ ___ _ ___ _ ___
 72
    65
 73
     4
 40
28.57499999999999
 49
19.05
 74
     0
 49
-3.174999999999999
 74
     0
 49
3.174999999999999
 74
     0
 49
-3.174999999999999
 74
     0
  0
LTYPE
  5
7D55
330
746A
100
AcDbSymbolTableRecord
100
AcDbLinetypeTableRecord
  2
DOT
 70
     0
  3
Dot . . . . . . . . . . . . . . . . . . . . . .
 72
    65
 73
     2
 40
6.349999999999999
 49
0.0
 74
     0
 49
-6.349999999999999
 74
     0
  0
LTYPE
  5
7D56
330
746A
100
AcDbSymbolTableRecord
100
AcDbLinetypeTableRecord
  2
HIDDEN2
 70
     0
  3
Hidden (.5x) _ _ _ _ _ _ _ _ _ _ _ _ _ _ _ _ _
 72
    65
 73
     2
 40
4.762499999999999
 49
3.174999999999999
 74
     0
 49
-1.587499999999999
 74
     0
  0
LTYPE
  5
7D57
330
746A
100
AcDbSymbolTableRecord
100
AcDbLinetypeTableRecord
  2
PHANTOM2
 70
     0
  3
Phantom (.5x) ___ _ _ ___ _ _ ___ _ _ ___ _ _
 72
    65
 73
     6
 40
31.75
 49
15.875
 74
     0
 49
-3.174999999999999
 74
     0
 49
3.174999999999999
 74
     0
 49
-3.174999999999999
 74
     0
 49
3.174999999999999
 74
     0
 49
-3.174999999999999
 74
     0
  0
ENDTAB
  0
TABLE
  2
LAYER
  5
7467
330
0
100
AcDbSymbolTable
 70
     7
  0
LAYER
  5
7474
330
7467
100
AcDbSymbolTableRecord
100
AcDbLayerTableRecord
  2
0
 70
     0
 62
     7
  6
CONTINUOUS
370
    -3
390
89BA
  0
LAYER
  5
7485
330
7467
100
AcDbSymbolTableRecord
100
AcDbLayerTableRecord
  2
DEFPOINTS
 70
     0
 62
     7
  6
CONTINUOUS
290
     0
370
    -3
390
89BA
  0
LAYER
  5
7486
330
7467
100
AcDbSymbolTableRecord
100
AcDbLayerTableRecord
  2
OBJECT
 70
     0
 62
     7
  6
CONTINUOUS
370
    -3
390
89BA
  0
LAYER
  5
7950
330
7467
100
AcDbSymbolTableRecord
100
AcDbLayerTableRecord
  2
枠
 70
     0
 62
     3
  6
CONTINUOUS
370
    -3
390
89BA
  0
LAYER
  5
7D58
330
7467
100
AcDbSymbolTableRecord
100
AcDbLayerTableRecord
  2
寸法引出
 70
     0
 62
     2
  6
CONTINUOUS
370
    -3
390
89BA
  0
LAYER
  5
7D59
330
7467
100
AcDbSymbolTableRecord
100
AcDbLayerTableRecord
  2
鉄筋
 70
     0
 62
     4
  6
CONTINUOUS
370
    -3
390
89BA
  0
LAYER
  5
7D5A
330
7467
100
AcDbSymbolTableRecord
100
AcDbLayerTableRecord
  2
補助線
 70
     0
 62
     6
  6
CONTINUOUS
370
    -3
390
89BA
  0
ENDTAB
  0
TABLE
  2
STYLE
  5
7468
330
0
100
AcDbSymbolTable
 70
     4
  0
STYLE
  5
7475
330
7468
100
AcDbSymbolTableRecord
100
AcDbTextStyleTableRecord
  2
STANDARD
 70
     0
 40
0.0
 41
1.0
 50
0.0
 71
     0
 42
3.5
  3
txt
  4

  0
STYLE
  5
7481
330
7468
100
AcDbSymbolTableRecord
100
AcDbTextStyleTableRecord
  2
ADESK1
 70
     0
 40
0.0
 41
1.0
 50
0.0
 71
     0
 42
5.0
  3
romans
  4
bigfont
  0
STYLE
  5
7731
330
7468
100
AcDbSymbolTableRecord
100
AcDbTextStyleTableRecord
  2
SANWA
 70
     0
 40
0.0
 41
1.0
 50
0.0
 71
     0
 42
2.799999999999999
  3
MS Mincho.ttf
  4

1001
ACAD
1000
MS Mincho
1071
    32785
  0
STYLE
  5
7D45
330
7468
100
AcDbSymbolTableRecord
100
AcDbTextStyleTableRecord
  2

 70
     1
 40
0.0
 41
1.0
 50
0.0
 71
     0
 42
3.5
  3
ltypeshp.shx
  4

  0
ENDTAB
  0
TABLE
  2
VIEW
  5
746B
330
0
100
AcDbSymbolTable
 70
     0
  0
ENDTAB
  0
TABLE
  2
UCS
  5
746C
330
0
100
AcDbSymbolTable
 70
     0
  0
ENDTAB
  0
TABLE
  2
APPID
  5
746E
330
0
100
AcDbSymbolTable
 70
     1
  0
APPID
  5
7476
330
746E
100
AcDbSymbolTableRecord
100
AcDbRegAppTableRecord
  2
ACAD
 70
     0
  0
ENDTAB
  0
TABLE
  2
DIMSTYLE
  5
746F
330
0
100
AcDbSymbolTable
 70
     4
100
AcDbDimStyleTable
 71
     1
340
796F
  0
DIMSTYLE
105
7484
330
746F
100
AcDbSymbolTableRecord
100
AcDbDimStyleTableRecord
  2
JIS
 70
     0
 41
2.5
 42
1.0
 43
7.0
 44
1.0
 73
     0
 74
     0
 77
     1
 78
     8
140
2.5
141
0.0
143
0.0394
147
0.0
172
     1
174
     1
176
     2
177
     2
178
     2
340
7731
  0
DIMSTYLE
105
796F
102
{ACAD_REACTORS
330
AF31
330
AF24
330
AF19
330
AF14
330
AF13
330
AF42
330
AF41
330
AF0E
330
AEED
330
AF4E
330
AEEC
330
AEE7
330
AF8E
330
AF9F
330
AFF3
330
AEE6
330
AFC6
330
AFAE
330
AFAA
330
AFA5
330
AFA4
330
AF7E
330
AF77
330
AF76
330
AF75
330
AF74
330
AF73
330
AF72
330
AF49
330
AEF7
330
AEF4
330
B0E1
330
B0D6
330
AFF2
330
AFF1
102
}
330
746F
100
AcDbSymbolTableRecord
100
AcDbDimStyleTableRecord
  2
SANWA
 70
     0
 41
2.5
 42
1.0
 43
7.0
 44
1.0
 73
     0
 74
     0
 77
     1
 78
     8
140
2.5
141
0.0
143
0.0394
147
0.0
172
     1
174
     1
176
     2
177
     2
178
     2
340
7731
  0
DIMSTYLE
105
7C9D
330
746F
100
AcDbSymbolTableRecord
100
AcDbDimStyleTableRecord
  2
SANWA$4
 70
     0
 41
2.5
 42
1.0
 43
5.0
 44
1.0
 73
     0
 74
     0
 77
     1
 78
     8
140
2.5
141
0.0
143
0.0394
147
1.0
172
     1
174
     1
176
     2
177
     2
178
     2
289
     2
340
7731
  0
DIMSTYLE
105
7CB5
330
746F
100
AcDbSymbolTableRecord
100
AcDbDimStyleTableRecord
  2
SANWA$3
 70
     0
 41
2.5
 42
1.0
 43
7.0
 44
1.0
 73
     0
 74
     0
 77
     1
 78
     8
140
2.5
141
0.0
143
0.0394
147
0.0
172
     1
174
     1
176
     2
177
     2
178
     2
289
     0
340
7731
  0
ENDTAB
  0
TABLE
  2
BLOCK_RECORD
  5
7466
330
0
100
AcDbSymbolTable
 70
    87
  0
BLOCK_RECORD
  5
747D
330
7466
100
AcDbSymbolTableRecord
100
AcDbBlockTableRecord
  2
*MODEL_SPACE
340
89BD
  0
BLOCK_RECORD
  5
747A
330
7466
100
AcDbSymbolTableRecord
100
AcDbBlockTableRecord
  2
*PAPER_SPACE
340
89BE
  0
BLOCK_RECORD
  5
7493
330
7466
100
AcDbSymbolTableRecord
100
AcDbBlockTableRecord
  2
TITLE_BLOCK
340
0
  0
BLOCK_RECORD
  5
9AB0
330
7466
100
AcDbSymbolTableRecord
100
AcDbBlockTableRecord
  2
*D1
340
0
  0
BLOCK_RECORD
  5
9ABB
330
7466
100
AcDbSymbolTableRecord
100
AcDbBlockTableRecord
  2
*D2
340
0
  0
BLOCK_RECORD
  5
9AC7
330
7466
100
AcDbSymbolTableRecord
100
AcDbBlockTableRecord
  2
*D3
340
0
  0
BLOCK_RECORD
  5
9AD3
330
7466
100
AcDbSymbolTableRecord
100
AcDbBlockTableRecord
  2
*D4
340
0
  0
BLOCK_RECORD
  5
9ADF
330
7466
100
AcDbSymbolTableRecord
100
AcDbBlockTableRecord
  2
*D5
340
0
  0
BLOCK_RECORD
  5
9B26
330
7466
100
AcDbSymbolTableRecord
100
AcDbBlockTableRecord
  2
*D6
340
0
  0
BLOCK_RECORD
  5
9B32
330
7466
100
AcDbSymbolTableRecord
100
AcDbBlockTableRecord
  2
*D7
340
0
  0
BLOCK_RECORD
  5
9BB2
330
7466
100
AcDbSymbolTableRecord
100
AcDbBlockTableRecord
  2
*D8
340
0
  0
BLOCK_RECORD
  5
9BBD
330
7466
100
AcDbSymbolTableRecord
100
AcDbBlockTableRecord
  2
*D9
340
0
  0
BLOCK_RECORD
  5
9BC8
330
7466
100
AcDbSymbolTableRecord
100
AcDbBlockTableRecord
  2
*D10
340
0
  0
BLOCK_RECORD
  5
9BD5
330
7466
100
AcDbSymbolTableRecord
100
AcDbBlockTableRecord
  2
*D11
340
0
  0
BLOCK_RECORD
  5
9BE1
330
7466
100
AcDbSymbolTableRecord
100
AcDbBlockTableRecord
  2
*D12
340
0
  0
BLOCK_RECORD
  5
9BED
330
7466
100
AcDbSymbolTableRecord
100
AcDbBlockTableRecord
  2
*D13
340
0
  0
BLOCK_RECORD
  5
9C4D
330
7466
100
AcDbSymbolTableRecord
100
AcDbBlockTableRecord
  2
*D14
340
0
  0
BLOCK_RECORD
  5
9C80
330
7466
100
AcDbSymbolTableRecord
100
AcDbBlockTableRecord
  2
*D15
340
0
  0
BLOCK_RECORD
  5
9D00
330
7466
100
AcDbSymbolTableRecord
100
AcDbBlockTableRecord
  2
*D16
340
0
  0
BLOCK_RECORD
  5
9D0E
330
7466
100
AcDbSymbolTableRecord
100
AcDbBlockTableRecord
  2
*D17
340
0
  0
BLOCK_RECORD
  5
9D1C
330
7466
100
AcDbSymbolTableRecord
100
AcDbBlockTableRecord
  2
*D18
340
0
  0
BLOCK_RECORD
  5
9D28
330
7466
100
AcDbSymbolTableRecord
100
AcDbBlockTableRecord
  2
*D19
340
0
  0
BLOCK_RECORD
  5
9D34
330
7466
100
AcDbSymbolTableRecord
100
AcDbBlockTableRecord
  2
*D20
340
0
  0
BLOCK_RECORD
  5
9D42
330
7466
100
AcDbSymbolTableRecord
100
AcDbBlockTableRecord
  2
*D21
340
0
  0
BLOCK_RECORD
  5
9D4E
330
7466
100
AcDbSymbolTableRecord
100
AcDbBlockTableRecord
  2
*D22
340
0
  0
BLOCK_RECORD
  5
9D5A
330
7466
100
AcDbSymbolTableRecord
100
AcDbBlockTableRecord
  2
*D23
340
0
  0
BLOCK_RECORD
  5
9D88
330
7466
100
AcDbSymbolTableRecord
100
AcDbBlockTableRecord
  2
*D24
340
0
  0
BLOCK_RECORD
  5
9D94
330
7466
100
AcDbSymbolTableRecord
100
AcDbBlockTableRecord
  2
*D25
340
0
  0
BLOCK_RECORD
  5
9DA2
330
7466
100
AcDbSymbolTableRecord
100
AcDbBlockTableRecord
  2
*D26
340
0
  0
BLOCK_RECORD
  5
9DD8
330
7466
100
AcDbSymbolTableRecord
100
AcDbBlockTableRecord
  2
*D27
340
0
  0
BLOCK_RECORD
  5
AA7E
330
7466
100
AcDbSymbolTableRecord
100
AcDbBlockTableRecord
  2
*D28
340
0
  0
BLOCK_RECORD
  5
AA8C
330
7466
100
AcDbSymbolTableRecord
100
AcDbBlockTableRecord
  2
*D29
340
0
  0
BLOCK_RECORD
  5
AA98
330
7466
100
AcDbSymbolTableRecord
100
AcDbBlockTableRecord
  2
*D30
340
0
  0
BLOCK_RECORD
  5
AAA6
330
7466
100
AcDbSymbolTableRecord
100
AcDbBlockTableRecord
  2
*D31
340
0
  0
BLOCK_RECORD
  5
AAB4
330
7466
100
AcDbSymbolTableRecord
100
AcDbBlockTableRecord
  2
*D32
340
0
  0
BLOCK_RECORD
  5
AAC2
330
7466
100
AcDbSymbolTableRecord
100
AcDbBlockTableRecord
  2
*D33
340
0
  0
BLOCK_RECORD
  5
AAD0
330
7466
100
AcDbSymbolTableRecord
100
AcDbBlockTableRecord
  2
*D34
340
0
  0
BLOCK_RECORD
  5
AADC
330
7466
100
AcDbSymbolTableRecord
100
AcDbBlockTableRecord
  2
*D35
340
0
  0
BLOCK_RECORD
  5
AAE8
330
7466
100
AcDbSymbolTableRecord
100
AcDbBlockTableRecord
  2
*D36
340
0
  0
BLOCK_RECORD
  5
AAF4
330
7466
100
AcDbSymbolTableRecord
100
AcDbBlockTableRecord
  2
*D37
340
0
  0
BLOCK_RECORD
  5
AB02
330
7466
100
AcDbSymbolTableRecord
100
AcDbBlockTableRecord
  2
*D38
340
0
  0
BLOCK_RECORD
  5
AB10
330
7466
100
AcDbSymbolTableRecord
100
AcDbBlockTableRecord
  2
*D39
340
0
  0
BLOCK_RECORD
  5
ABA8
330
7466
100
AcDbSymbolTableRecord
100
AcDbBlockTableRecord
  2
*D40
340
0
  0
BLOCK_RECORD
  5
AC01
330
7466
100
AcDbSymbolTableRecord
100
AcDbBlockTableRecord
  2
*D41
340
0
  0
BLOCK_RECORD
  5
AC30
330
7466
100
AcDbSymbolTableRecord
100
AcDbBlockTableRecord
  2
*D42
340
0
  0
BLOCK_RECORD
  5
AC4C
330
7466
100
AcDbSymbolTableRecord
100
AcDbBlockTableRecord
  2
*D43
340
0
  0
BLOCK_RECORD
  5
B10E
330
7466
100
AcDbSymbolTableRecord
100
AcDbBlockTableRecord
  2
*D44
340
0
  0
BLOCK_RECORD
  5
B11C
330
7466
100
AcDbSymbolTableRecord
100
AcDbBlockTableRecord
  2
*D45
340
0
  0
BLOCK_RECORD
  5
B128
330
7466
100
AcDbSymbolTableRecord
100
AcDbBlockTableRecord
  2
*D46
340
0
  0
BLOCK_RECORD
  5
B134
330
7466
100
AcDbSymbolTableRecord
100
AcDbBlockTableRecord
  2
*D47
340
0
  0
BLOCK_RECORD
  5
B142
330
7466
100
AcDbSymbolTableRecord
100
AcDbBlockTableRecord
  2
*D48
340
0
  0
BLOCK_RECORD
  5
B14E
330
7466
100
AcDbSymbolTableRecord
100
AcDbBlockTableRecord
  2
*D49
340
0
  0
BLOCK_RECORD
  5
B15C
330
7466
100
AcDbSymbolTableRecord
100
AcDbBlockTableRecord
  2
*D50
340
0
  0
BLOCK_RECORD
  5
B16A
330
7466
100
AcDbSymbolTableRecord
100
AcDbBlockTableRecord
  2
*D51
340
0
  0
BLOCK_RECORD
  5
B178
330
7466
100
AcDbSymbolTableRecord
100
AcDbBlockTableRecord
  2
*D52
340
0
  0
BLOCK_RECORD
  5
B186
330
7466
100
AcDbSymbolTableRecord
100
AcDbBlockTableRecord
  2
*D53
340
0
  0
BLOCK_RECORD
  5
B194
330
7466
100
AcDbSymbolTableRecord
100
AcDbBlockTableRecord
  2
*D54
340
0
  0
BLOCK_RECORD
  5
B1A0
330
7466
100
AcDbSymbolTableRecord
100
AcDbBlockTableRecord
  2
*D55
340
0
  0
BLOCK_RECORD
  5
B1AE
330
7466
100
AcDbSymbolTableRecord
100
AcDbBlockTableRecord
  2
*D56
340
0
  0
BLOCK_RECORD
  5
B1BA
330
7466
100
AcDbSymbolTableRecord
100
AcDbBlockTableRecord
  2
*D57
340
0
  0
BLOCK_RECORD
  5
B1C6
330
7466
100
AcDbSymbolTableRecord
100
AcDbBlockTableRecord
  2
*D58
340
0
  0
BLOCK_RECORD
  5
B1D4
330
7466
100
AcDbSymbolTableRecord
100
AcDbBlockTableRecord
  2
*D59
340
0
  0
BLOCK_RECORD
  5
B1E0
330
7466
100
AcDbSymbolTableRecord
100
AcDbBlockTableRecord
  2
*D60
340
0
  0
BLOCK_RECORD
  5
B1EE
330
7466
100
AcDbSymbolTableRecord
100
AcDbBlockTableRecord
  2
*D61
340
0
  0
BLOCK_RECORD
  5
B1FC
330
7466
100
AcDbSymbolTableRecord
100
AcDbBlockTableRecord
  2
*D62
340
0
  0
BLOCK_RECORD
  5
B20A
330
7466
100
AcDbSymbolTableRecord
100
AcDbBlockTableRecord
  2
*D63
340
0
  0
BLOCK_RECORD
  5
B216
330
7466
100
AcDbSymbolTableRecord
100
AcDbBlockTableRecord
  2
*D64
340
0
  0
BLOCK_RECORD
  5
B222
330
7466
100
AcDbSymbolTableRecord
100
AcDbBlockTableRecord
  2
*D65
340
0
  0
BLOCK_RECORD
  5
B22E
330
7466
100
AcDbSymbolTableRecord
100
AcDbBlockTableRecord
  2
*D66
340
0
  0
BLOCK_RECORD
  5
B23A
330
7466
100
AcDbSymbolTableRecord
100
AcDbBlockTableRecord
  2
*D67
340
0
  0
BLOCK_RECORD
  5
B248
330
7466
100
AcDbSymbolTableRecord
100
AcDbBlockTableRecord
  2
*D68
340
0
  0
BLOCK_RECORD
  5
B254
330
7466
100
AcDbSymbolTableRecord
100
AcDbBlockTableRecord
  2
*D69
340
0
  0
BLOCK_RECORD
  5
B260
330
7466
100
AcDbSymbolTableRecord
100
AcDbBlockTableRecord
  2
*D70
340
0
  0
BLOCK_RECORD
  5
B26E
330
7466
100
AcDbSymbolTableRecord
100
AcDbBlockTableRecord
  2
*D71
340
0
  0
BLOCK_RECORD
  5
B27C
330
7466
100
AcDbSymbolTableRecord
100
AcDbBlockTableRecord
  2
*D72
340
0
  0
BLOCK_RECORD
  5
B288
330
7466
100
AcDbSymbolTableRecord
100
AcDbBlockTableRecord
  2
*D73
340
0
  0
BLOCK_RECORD
  5
B293
330
7466
100
AcDbSymbolTableRecord
100
AcDbBlockTableRecord
  2
*D74
340
0
  0
BLOCK_RECORD
  5
B2C4
330
7466
100
AcDbSymbolTableRecord
100
AcDbBlockTableRecord
  2
*D75
340
0
  0
BLOCK_RECORD
  5
B2CF
330
7466
100
AcDbSymbolTableRecord
100
AcDbBlockTableRecord
  2
*D76
340
0
  0
BLOCK_RECORD
  5
B317
330
7466
100
AcDbSymbolTableRecord
100
AcDbBlockTableRecord
  2
*D77
340
0
  0
BLOCK_RECORD
  5
B323
330
7466
100
AcDbSymbolTableRecord
100
AcDbBlockTableRecord
  2
*D78
340
0
  0
BLOCK_RECORD
  5
B89F
330
7466
100
AcDbSymbolTableRecord
100
AcDbBlockTableRecord
  2
*D79
340
0
  0
BLOCK_RECORD
  5
B8AB
330
7466
100
AcDbSymbolTableRecord
100
AcDbBlockTableRecord
  2
*D80
340
0
  0
BLOCK_RECORD
  5
B8B7
330
7466
100
AcDbSymbolTableRecord
100
AcDbBlockTableRecord
  2
*D81
340
0
  0
BLOCK_RECORD
  5
B8C3
330
7466
100
AcDbSymbolTableRecord
100
AcDbBlockTableRecord
  2
*D82
340
0
  0
BLOCK_RECORD
  5
B8CF
330
7466
100
AcDbSymbolTableRecord
100
AcDbBlockTableRecord
  2
*D83
340
0
  0
BLOCK_RECORD
  5
B8F2
330
7466
100
AcDbSymbolTableRecord
100
AcDbBlockTableRecord
  2
*D84
340
0
  0
BLOCK_RECORD
  5
B8FF
330
7466
100
AcDbSymbolTableRecord
100
AcDbBlockTableRecord
  2
*D85
340
0
  0
BLOCK_RECORD
  5
B90B
330
7466
100
AcDbSymbolTableRecord
100
AcDbBlockTableRecord
  2
*D86
340
0
  0
ENDTAB
  0
ENDSEC
  0
SECTION
  2
BLOCKS
  0
BLOCK
  5
7489
330
747D
100
AcDbEntity
  8
0
100
AcDbBlockBegin
  2
*MODEL_SPACE
 70
     0
 10
0.0
 20
0.0
 30
0.0
  3
*MODEL_SPACE
  1

  0
ENDBLK
  5
748A
330
747D
100
AcDbEntity
  8
0
100
AcDbBlockEnd
  0
BLOCK
  5
7487
330
747A
100
AcDbEntity
 67
     1
  8
0
100
AcDbBlockBegin
  2
*PAPER_SPACE
 70
     2
 10
0.0
 20
0.0
 30
0.0
  3
*PAPER_SPACE
  1

  0
ENDBLK
  5
7488
330
747A
100
AcDbEntity
 67
     1
  8
0
100
AcDbBlockEnd
  0
BLOCK
  5
7494
330
7493
100
AcDbEntity
  8
0
100
AcDbBlockBegin
  2
TITLE_BLOCK
 70
     2
 10
0.0
 20
0.0
 30
0.0
  3
TITLE_BLOCK
  1

  0
LINE
  5
7495
330
7493
100
AcDbEntity
  8
0
 62
     0
100
AcDbLine
 10
402.7943262411347
 20
16.00000000000008
 30
0.0
 11
410.0
 21
16.00000000000008
 31
0.0
  0
LINE
  5
7496
330
7493
100
AcDbEntity
  8
0
 62
     0
100
AcDbLine
 10
410.0
 20
10.0
 30
0.0
 11
410.0
 21
49.00000000000036
 31
0.0
  0
LINE
  5
7497
330
7493
100
AcDbEntity
  8
0
 62
     0
100
AcDbLine
 10
410.0
 20
49.00000000000036
 30
0.0
 11
410.0
 21
10.0
 31
0.0
  0
LINE
  5
7498
330
7493
100
AcDbEntity
  8
0
 62
     0
100
AcDbLine
 10
402.7943262411347
 20
22.00000000000012
 30
0.0
 11
402.7943262411347
 21
10.0
 31
0.0
  0
LINE
  5
7499
330
7493
100
AcDbEntity
  8
0
 62
     0
100
AcDbLine
 10
336.1418439716306
 20
49.00000000000036
 30
0.0
 11
336.1418439716306
 21
22.00000000000012
 31
0.0
  0
LINE
  5
749A
330
7493
100
AcDbEntity
  8
0
 62
     0
100
AcDbLine
 10
325.3333333333325
 20
37.00000000000024
 30
0.0
 11
325.3333333333325
 21
25.00000000000012
 31
0.0
  0
LINE
  5
749B
330
7493
100
AcDbEntity
  8
0
 62
     0
100
AcDbLine
 10
318.1276595744673
 20
49.00000000000036
 30
0.0
 11
318.1276595744673
 21
25.00000000000012
 31
0.0
  0
LINE
  5
749C
330
7493
100
AcDbEntity
  8
0
 62
     0
100
AcDbLine
 10
318.1276595744673
 20
25.00000000000012
 30
0.0
 11
348.7517730496447
 21
25.00000000000012
 31
0.0
  0
LINE
  5
749D
330
7493
100
AcDbEntity
  8
0
 62
     0
100
AcDbLine
 10
280.2978723404241
 20
28.00000000000015
 30
0.0
 11
348.7517730496447
 21
28.00000000000015
 31
0.0
  0
LINE
  5
749E
330
7493
100
AcDbEntity
  8
0
 62
     0
100
AcDbLine
 10
280.2978723404241
 20
31.0000000000002
 30
0.0
 11
348.7517730496447
 21
31.0000000000002
 31
0.0
  0
LINE
  5
749F
330
7493
100
AcDbEntity
  8
0
 62
     0
100
AcDbLine
 10
280.2978723404241
 20
34.00000000000024
 30
0.0
 11
348.7517730496447
 21
34.00000000000024
 31
0.0
  0
LINE
  5
74A0
330
7493
100
AcDbEntity
  8
0
 62
     0
100
AcDbLine
 10
280.2978723404241
 20
19.00000000000007
 30
0.0
 11
318.1276595744673
 21
19.00000000000012
 31
0.0
  0
LINE
  5
74A1
330
7493
100
AcDbEntity
  8
0
 62
     0
100
AcDbLine
 10
280.2978723404241
 20
22.00000000000007
 30
0.0
 11
318.1276595744673
 21
22.00000000000012
 31
0.0
  0
LINE
  5
74A2
330
7493
100
AcDbEntity
  8
0
 62
     0
100
AcDbLine
 10
280.2978723404241
 20
25.00000000000012
 30
0.0
 11
318.1276595744673
 21
25.00000000000012
 31
0.0
  0
TEXT
  5
74A3
330
7493
100
AcDbEntity
  8
0
 62
     0
100
AcDbText
 10
342.2447163844405
 20
10.55220101068186
 30
0.0
 40
1.791674070777747
  1
照査
  7
ADESK1
 72
     1
 11
344.1558353932701
 21
10.55220101068186
 31
0.0
100
AcDbText
  0
TEXT
  5
74A4
330
7493
100
AcDbEntity
  8
0
 62
     0
100
AcDbText
 10
332.2960689314087
 20
10.48329012996929
 30
0.0
 40
1.791674070777747
  1
設計
  7
ADESK1
 72
     1
 11
334.2071879402383
 21
10.48329012996929
 31
0.0
100
AcDbText
  0
TEXT
  5
74A5
330
7493
100
AcDbEntity
  8
0
 62
     0
100
AcDbText
 10
321.7174935280942
 20
10.48329012996929
 30
0.0
 40
1.791674070777747
  1
製図
  7
ADESK1
 72
     1
 11
323.5688900678979
 21
10.48329012996929
 31
0.0
100
AcDbText
  0
LINE
  5
74A6
330
7493
100
AcDbEntity
  8
0
 62
     0
100
AcDbLine
 10
280.2978723404241
 20
10.0
 30
0.0
 11
280.2978723404241
 21
13.00000000000004
 31
0.0
  0
LINE
  5
74A7
330
7493
100
AcDbEntity
  8
0
 62
     0
100
AcDbLine
 10
280.2978723404241
 20
16.00000000000008
 30
0.0
 11
318.1276595744673
 21
16.00000000000008
 31
0.0
  0
LINE
  5
74A8
330
7493
100
AcDbEntity
  8
0
 62
     0
100
AcDbLine
 10
339.4042553191484
 20
22.00000000000007
 30
0.0
 11
339.4042553191484
 21
10.0
 31
0.0
  0
LINE
  5
74A9
330
7493
100
AcDbEntity
  8
0
 62
     0
100
AcDbLine
 10
328.7659574468077
 20
22.00000000000007
 30
0.0
 11
328.7659574468077
 21
10.0
 31
0.0
  0
LINE
  5
74AA
330
7493
100
AcDbEntity
  8
0
 62
     0
100
AcDbLine
 10
348.7517730496447
 20
49.00000000000036
 30
0.0
 11
348.7517730496447
 21
10.0
 31
0.0
  0
LINE
  5
74AB
330
7493
100
AcDbEntity
  8
0
 62
     0
100
AcDbLine
 10
280.2978723404241
 20
49.00000000000036
 30
0.0
 11
280.2978723404241
 21
10.0
 31
0.0
  0
LINE
  5
74AC
330
7493
100
AcDbEntity
  8
0
 62
     0
100
AcDbLine
 10
318.1276595744673
 20
25.00000000000012
 30
0.0
 11
318.1276595744673
 21
10.0
 31
0.0
  0
LINE
  5
74AD
330
7493
100
AcDbEntity
  8
0
 62
     0
100
AcDbLine
 10
312.7234042553184
 20
37.00000000000024
 30
0.0
 11
312.7234042553184
 21
10.0
 31
0.0
  0
LINE
  5
74AE
330
7493
100
AcDbEntity
  8
0
 62
     0
100
AcDbLine
 10
285.702127659573
 20
37.00000000000024
 30
0.0
 11
285.702127659573
 21
10.0
 31
0.0
  0
LINE
  5
74AF
330
7493
100
AcDbEntity
  8
0
 62
     0
100
AcDbLine
 10
303.7163120567365
 20
37.00000000000024
 30
0.0
 11
303.7163120567365
 21
10.0
 31
0.0
  0
LINE
  5
74B0
330
7493
100
AcDbEntity
  8
0
 62
     0
100
AcDbLine
 10
410.0
 20
49.00000000000036
 30
0.0
 11
280.2978723404241
 21
49.00000000000036
 31
0.0
  0
LINE
  5
74B1
330
7493
100
AcDbEntity
  8
0
 62
     0
100
AcDbLine
 10
280.2978723404241
 20
10.0
 30
0.0
 11
410.0
 21
10.0
 31
0.0
  0
LINE
  5
74B2
330
7493
100
AcDbEntity
  8
0
 62
     0
100
AcDbLine
 10
318.1276595744673
 20
22.00000000000012
 30
0.0
 11
410.0
 21
22.00000000000012
 31
0.0
  0
LINE
  5
74B3
330
7493
100
AcDbEntity
  8
0
 62
     0
100
AcDbLine
 10
280.2978723404241
 20
37.00000000000024
 30
0.0
 11
410.0
 21
37.00000000000024
 31
0.0
  0
LINE
  5
74B4
330
7493
100
AcDbEntity
  8
0
 62
     0
100
AcDbLine
 10
280.2978723404241
 20
13.00000000000004
 30
0.0
 11
410.0
 21
13.00000000000004
 31
0.0
  0
LINE
  5
74B5
330
7493
100
AcDbEntity
  8
0
 62
     0
100
AcDbLine
 10
280.2978723404241
 20
49.00000000000036
 30
0.0
 11
410.0
 21
49.00000000000036
 31
0.0
  0
TEXT
  5
74B6
330
7493
100
AcDbEntity
  8
0
100
AcDbText
 10
411.3708251683467
 20
33.08333333333334
 30
0.0
 40
3.0
  1
F
  7
ADESK1
 72
     1
 11
412.8708251683468
 21
33.08333333333334
 31
0.0
100
AcDbText
  0
TEXT
  5
74B7
330
7493
100
AcDbEntity
  8
0
100
AcDbText
 10
411.3708251683467
 20
79.25
 30
0.0
 40
3.0
  1
E
  7
ADESK1
 72
     1
 11
412.8708251683468
 21
79.25
 31
0.0
100
AcDbText
  0
TEXT
  5
74B8
330
7493
100
AcDbEntity
  8
0
100
AcDbText
 10
411.2993965969182
 20
125.4166666666666
 30
0.0
 40
3.0
  1
D
  7
ADESK1
 72
     1
 11
412.8708251683468
 21
125.4166666666666
 31
0.0
100
AcDbText
  0
TEXT
  5
74B9
330
7493
100
AcDbEntity
  8
0
100
AcDbText
 10
411.3708251683467
 20
171.5833333333333
 30
0.0
 40
3.0
  1
C
  7
ADESK1
 72
     1
 11
412.8708251683468
 21
171.5833333333333
 31
0.0
100
AcDbText
  0
TEXT
  5
74BA
330
7493
100
AcDbEntity
  8
0
100
AcDbText
 10
411.2993965969182
 20
217.7499999999999
 30
0.0
 40
3.0
  1
B
  7
ADESK1
 72
     1
 11
412.8708251683468
 21
217.7499999999999
 31
0.0
100
AcDbText
  0
TEXT
  5
74BB
330
7493
100
AcDbEntity
  8
0
100
AcDbText
 10
411.5851108826324
 20
263.9166666666666
 30
0.0
 40
3.0
  1
A
  7
ADESK1
 72
     1
 11
412.8708251683468
 21
263.9166666666666
 31
0.0
100
AcDbText
  0
TEXT
  5
74BC
330
7493
100
AcDbEntity
  8
0
100
AcDbText
 10
384.5089285714285
 20
6.019997240728748
 30
0.0
 40
3.0
  1
8
  7
ADESK1
 72
     1
 11
385.9375
 21
6.019997240728748
 31
0.0
100
AcDbText
  0
TEXT
  5
74BD
330
7493
100
AcDbEntity
  8
0
100
AcDbText
 10
336.3839285714285
 20
6.019997240728748
 30
0.0
 40
3.0
  1
7
  7
ADESK1
 72
     1
 11
337.8125
 21
6.019997240728748
 31
0.0
100
AcDbText
  0
TEXT
  5
74BE
330
7493
100
AcDbEntity
  8
0
100
AcDbText
 10
288.1874999999999
 20
6.019997240728748
 30
0.0
 40
3.0
  1
6
  7
ADESK1
 72
     1
 11
289.6875
 21
6.019997240728748
 31
0.0
100
AcDbText
  0
TEXT
  5
74BF
330
7493
100
AcDbEntity
  8
0
100
AcDbText
 10
240.1339285714285
 20
6.019997240728748
 30
0.0
 40
3.0
  1
5
  7
ADESK1
 72
     1
 11
241.5624999999999
 21
6.019997240728748
 31
0.0
100
AcDbText
  0
TEXT
  5
74C0
330
7493
100
AcDbEntity
  8
0
100
AcDbText
 10
191.9375
 20
6.019997240728748
 30
0.0
 40
3.0
  1
4
  7
ADESK1
 72
     1
 11
193.4375
 21
6.019997240728748
 31
0.0
100
AcDbText
  0
TEXT
  5
74C1
330
7493
100
AcDbEntity
  8
0
100
AcDbText
 10
143.8839285714285
 20
6.019997240728748
 30
0.0
 40
3.0
  1
3
  7
ADESK1
 72
     1
 11
145.3125
 21
6.019997240728748
 31
0.0
100
AcDbText
  0
TEXT
  5
74C2
330
7493
100
AcDbEntity
  8
0
100
AcDbText
 10
95.75892857142857
 20
6.019997240728748
 30
0.0
 40
3.0
  1
2
  7
ADESK1
 72
     1
 11
97.1875
 21
6.019997240728748
 31
0.0
100
AcDbText
  0
TEXT
  5
74C3
330
7493
100
AcDbEntity
  8
0
100
AcDbText
 10
47.84821428571429
 20
6.019997240728748
 30
0.0
 40
3.0
  1
1
  7
ADESK1
 72
     1
 11
49.0625
 21
6.019997240728748
 31
0.0
100
AcDbText
  0
TEXT
  5
74C4
330
7493
100
AcDbEntity
  8
0
100
AcDbText
 10
21.10716135953389
 20
33.08333333333334
 30
0.0
 40
3.0
  1
F
  7
ADESK1
 72
     1
 11
22.60716135953389
 21
33.08333333333334
 31
0.0
100
AcDbText
  0
TEXT
  5
74C5
330
7493
100
AcDbEntity
  8
0
100
AcDbText
 10
21.10716135953389
 20
79.25
 30
0.0
 40
3.0
  1
E
  7
ADESK1
 72
     1
 11
22.60716135953389
 21
79.25
 31
0.0
100
AcDbText
  0
TEXT
  5
74C6
330
7493
100
AcDbEntity
  8
0
100
AcDbText
 10
21.03573278810532
 20
125.4166666666666
 30
0.0
 40
3.0
  1
D
  7
ADESK1
 72
     1
 11
22.60716135953389
 21
125.4166666666666
 31
0.0
100
AcDbText
  0
TEXT
  5
74C7
330
7493
100
AcDbEntity
  8
0
100
AcDbText
 10
21.10716135953389
 20
171.5833333333333
 30
0.0
 40
3.0
  1
C
  7
ADESK1
 72
     1
 11
22.60716135953389
 21
171.5833333333333
 31
0.0
100
AcDbText
  0
TEXT
  5
74C8
330
7493
100
AcDbEntity
  8
0
100
AcDbText
 10
21.03573278810532
 20
217.7499999999999
 30
0.0
 40
3.0
  1
B
  7
ADESK1
 72
     1
 11
22.60716135953389
 21
217.7499999999999
 31
0.0
100
AcDbText
  0
TEXT
  5
74C9
330
7493
100
AcDbEntity
  8
0
100
AcDbText
 10
384.5089285714285
 20
288.0
 30
0.0
 40
3.0
  1
8
  7
ADESK1
 72
     1
 11
385.9375
 21
288.0
 31
0.0
100
AcDbText
  0
TEXT
  5
74CA
330
7493
100
AcDbEntity
  8
0
100
AcDbText
 10
336.3839285714285
 20
288.0
 30
0.0
 40
3.0
  1
7
  7
ADESK1
 72
     1
 11
337.8125
 21
288.0
 31
0.0
100
AcDbText
  0
TEXT
  5
74CB
330
7493
100
AcDbEntity
  8
0
100
AcDbText
 10
288.1874999999999
 20
288.0
 30
0.0
 40
3.0
  1
6
  7
ADESK1
 72
     1
 11
289.6875
 21
288.0
 31
0.0
100
AcDbText
  0
TEXT
  5
74CC
330
7493
100
AcDbEntity
  8
0
100
AcDbText
 10
240.1339285714285
 20
288.0
 30
0.0
 40
3.0
  1
5
  7
ADESK1
 72
     1
 11
241.5624999999999
 21
288.0
 31
0.0
100
AcDbText
  0
TEXT
  5
74CD
330
7493
100
AcDbEntity
  8
0
100
AcDbText
 10
191.9375
 20
288.0
 30
0.0
 40
3.0
  1
4
  7
ADESK1
 72
     1
 11
193.4375
 21
288.0
 31
0.0
100
AcDbText
  0
TEXT
  5
74CE
330
7493
100
AcDbEntity
  8
0
100
AcDbText
 10
143.8839285714285
 20
288.0
 30
0.0
 40
3.0
  1
3
  7
ADESK1
 72
     1
 11
145.3125
 21
288.0
 31
0.0
100
AcDbText
  0
TEXT
  5
74CF
330
7493
100
AcDbEntity
  8
0
100
AcDbText
 10
95.75892857142857
 20
288.0
 30
0.0
 40
3.0
  1
2
  7
ADESK1
 72
     1
 11
97.1875
 21
288.0
 31
0.0
100
AcDbText
  0
TEXT
  5
74D0
330
7493
100
AcDbEntity
  8
0
100
AcDbText
 10
21.32144707381961
 20
263.9166666666666
 30
0.0
 40
3.0
  1
A
  7
ADESK1
 72
     1
 11
22.60716135953389
 21
263.9166666666666
 31
0.0
100
AcDbText
  0
TEXT
  5
74D1
330
7493
100
AcDbEntity
  8
0
100
AcDbText
 10
47.84821428571429
 20
288.0
 30
0.0
 40
3.0
  1
1
  7
ADESK1
 72
     1
 11
49.0625
 21
288.0
 31
0.0
100
AcDbText
  0
LINE
  5
74D2
330
7493
100
AcDbEntity
  8
0
100
AcDbLine
 10
73.125
 20
287.0
 30
0.0
 11
73.125
 21
292.0
 31
0.0
  0
LINE
  5
74D3
330
7493
100
AcDbEntity
  8
0
100
AcDbLine
 10
121.25
 20
287.0
 30
0.0
 11
121.25
 21
292.0
 31
0.0
  0
LINE
  5
74D4
330
7493
100
AcDbEntity
  8
0
100
AcDbLine
 10
169.375
 20
287.0
 30
0.0
 11
169.375
 21
292.0
 31
0.0
  0
LINE
  5
74D5
330
7493
100
AcDbEntity
  8
0
100
AcDbLine
 10
217.5
 20
287.0
 30
0.0
 11
217.5
 21
292.0
 31
0.0
  0
LINE
  5
74D6
330
7493
100
AcDbEntity
  8
0
100
AcDbLine
 10
265.625
 20
287.0
 30
0.0
 11
265.625
 21
292.0
 31
0.0
  0
LINE
  5
74D7
330
7493
100
AcDbEntity
  8
0
100
AcDbLine
 10
313.75
 20
287.0
 30
0.0
 11
313.75
 21
292.0
 31
0.0
  0
LINE
  5
74D8
330
7493
100
AcDbEntity
  8
0
100
AcDbLine
 10
361.8749999999999
 20
287.0
 30
0.0
 11
361.8749999999999
 21
292.0
 31
0.0
  0
LINE
  5
74D9
330
7493
100
AcDbEntity
  8
0
100
AcDbLine
 10
361.8749999999999
 20
10.0
 30
0.0
 11
361.8749999999999
 21
5.0
 31
0.0
  0
LINE
  5
74DA
330
7493
100
AcDbEntity
  8
0
100
AcDbLine
 10
313.75
 20
10.0
 30
0.0
 11
313.75
 21
5.0
 31
0.0
  0
LINE
  5
74DB
330
7493
100
AcDbEntity
  8
0
100
AcDbLine
 10
265.625
 20
10.0
 30
0.0
 11
265.625
 21
5.0
 31
0.0
  0
LINE
  5
74DC
330
7493
100
AcDbEntity
  8
0
100
AcDbLine
 10
217.5
 20
10.0
 30
0.0
 11
217.5
 21
5.0
 31
0.0
  0
LINE
  5
74DD
330
7493
100
AcDbEntity
  8
0
100
AcDbLine
 10
169.375
 20
10.0
 30
0.0
 11
169.375
 21
5.0
 31
0.0
  0
LINE
  5
74DE
330
7493
100
AcDbEntity
  8
0
100
AcDbLine
 10
121.25
 20
10.0
 30
0.0
 11
121.25
 21
5.0
 31
0.0
  0
LINE
  5
74DF
330
7493
100
AcDbEntity
  8
0
100
AcDbLine
 10
73.125
 20
10.0
 30
0.0
 11
73.125
 21
5.0
 31
0.0
  0
LINE
  5
74E0
330
7493
100
AcDbEntity
  8
0
100
AcDbLine
 10
410.0
 20
240.8333333333333
 30
0.0
 11
415.0
 21
240.8333333333333
 31
0.0
  0
LINE
  5
74E1
330
7493
100
AcDbEntity
  8
0
100
AcDbLine
 10
410.0
 20
194.6666666666667
 30
0.0
 11
415.0
 21
194.6666666666667
 31
0.0
  0
LINE
  5
74E2
330
7493
100
AcDbEntity
  8
0
100
AcDbLine
 10
410.0
 20
148.5
 30
0.0
 11
415.0
 21
148.5
 31
0.0
  0
LINE
  5
74E3
330
7493
100
AcDbEntity
  8
0
100
AcDbLine
 10
410.0
 20
102.3333333333333
 30
0.0
 11
415.0
 21
102.3333333333333
 31
0.0
  0
LINE
  5
74E4
330
7493
100
AcDbEntity
  8
0
100
AcDbLine
 10
410.0
 20
56.16666666666668
 30
0.0
 11
415.0
 21
56.16666666666668
 31
0.0
  0
LINE
  5
74E5
330
7493
100
AcDbEntity
  8
0
100
AcDbLine
 10
25.0
 20
56.16666666666667
 30
0.0
 11
20.0
 21
56.16666666666667
 31
0.0
  0
LINE
  5
74E6
330
7493
100
AcDbEntity
  8
0
100
AcDbLine
 10
25.0
 20
102.3333333333333
 30
0.0
 11
20.0
 21
102.3333333333333
 31
0.0
  0
LINE
  5
74E7
330
7493
100
AcDbEntity
  8
0
100
AcDbLine
 10
25.0
 20
148.5
 30
0.0
 11
20.0
 21
148.5
 31
0.0
  0
LINE
  5
74E8
330
7493
100
AcDbEntity
  8
0
100
AcDbLine
 10
25.0
 20
194.6666666666666
 30
0.0
 11
20.0
 21
194.6666666666666
 31
0.0
  0
LINE
  5
74E9
330
7493
100
AcDbEntity
  8
0
100
AcDbLine
 10
25.0
 20
240.8333333333333
 30
0.0
 11
20.0
 21
240.8333333333333
 31
0.0
  0
TEXT
  5
74EA
330
7493
100
AcDbEntity
  8
0
100
AcDbText
 10
1.0
 20
1.0
 30
0.0
 40
3.0
  1
この図枠はサンプルです。社内の規格やプロッタの出力範囲に合わせて適当に変更してご利用ください。
  7
ADESK1
100
AcDbText
  0
LINE
  5
74EB
330
7493
100
AcDbEntity
  8
0
100
AcDbLine
 10
25.0
 20
148.5
 30
0.0
 11
0.0
 21
148.5
 31
0.0
  0
LINE
  5
74EC
330
7493
100
AcDbEntity
  8
0
100
AcDbLine
 10
410.0
 20
148.5
 30
0.0
 11
420.0
 21
148.5
 31
0.0
  0
LINE
  5
74ED
330
7493
100
AcDbEntity
  8
0
100
AcDbLine
 10
217.5
 20
287.0
 30
0.0
 11
217.5
 21
297.0
 31
0.0
  0
LINE
  5
74EE
330
7493
100
AcDbEntity
  8
0
100
AcDbLine
 10
217.5
 20
10.0
 30
0.0
 11
217.5
 21
0.0
 31
0.0
  0
LINE
  5
74EF
330
7493
100
AcDbEntity
  8
OBJECT
100
AcDbLine
 10
130.0
 20
40.0
 30
0.0
 11
130.0
 21
10.0
 31
0.0
  0
LINE
  5
74F0
330
7493
100
AcDbEntity
  8
OBJECT
100
AcDbLine
 10
120.0
 20
10.0
 30
0.0
 11
120.0
 21
40.0
 31
0.0
  0
LINE
  5
74F1
330
7493
100
AcDbEntity
  8
OBJECT
100
AcDbLine
 10
44.5
 20
37.0
 30
0.0
 11
45.49999999999999
 21
37.0
 31
0.0
  0
LINE
  5
74F2
330
7493
100
AcDbEntity
  8
OBJECT
100
AcDbLine
 10
44.5
 20
31.0
 30
0.0
 11
45.49999999999999
 21
31.0
 31
0.0
  0
LINE
  5
74F3
330
7493
100
AcDbEntity
  8
OBJECT
100
AcDbLine
 10
39.5
 20
37.0
 30
0.0
 11
40.49999999999999
 21
37.0
 31
0.0
  0
LINE
  5
74F4
330
7493
100
AcDbEntity
  8
OBJECT
100
AcDbLine
 10
39.5
 20
31.0
 30
0.0
 11
40.49999999999999
 21
31.0
 31
0.0
  0
LINE
  5
74F5
330
7493
100
AcDbEntity
  8
OBJECT
100
AcDbLine
 10
44.5
 20
25.0
 30
0.0
 11
45.49999999999999
 21
25.0
 31
0.0
  0
LINE
  5
74F6
330
7493
100
AcDbEntity
  8
OBJECT
100
AcDbLine
 10
39.5
 20
25.0
 30
0.0
 11
40.49999999999999
 21
25.0
 31
0.0
  0
LINE
  5
74F7
330
7493
100
AcDbEntity
  8
OBJECT
100
AcDbLine
 10
44.5
 20
19.0
 30
0.0
 11
45.49999999999999
 21
19.0
 31
0.0
  0
LINE
  5
74F8
330
7493
100
AcDbEntity
  8
OBJECT
100
AcDbLine
 10
39.5
 20
19.0
 30
0.0
 11
40.49999999999999
 21
19.0
 31
0.0
  0
LINE
  5
74F9
330
7493
100
AcDbEntity
  8
OBJECT
100
AcDbLine
 10
28.0
 20
29.535898
 30
0.0
 11
30.0
 21
33.0
 31
0.0
  0
LINE
  5
74FA
330
7493
100
AcDbEntity
  8
OBJECT
100
AcDbLine
 10
28.0
 20
29.535898
 30
0.0
 11
32.0
 21
29.535898
 31
0.0
  0
LINE
  5
74FB
330
7493
100
AcDbEntity
  8
OBJECT
100
AcDbLine
 10
32.0
 20
29.535898
 30
0.0
 11
30.0
 21
33.0
 31
0.0
  0
LINE
  5
74FC
330
7493
100
AcDbEntity
  8
OBJECT
100
AcDbLine
 10
28.0
 20
35.53589799999999
 30
0.0
 11
32.0
 21
35.53589799999999
 31
0.0
  0
LINE
  5
74FD
330
7493
100
AcDbEntity
  8
OBJECT
100
AcDbLine
 10
32.0
 20
35.53589799999999
 30
0.0
 11
30.0
 21
39.0
 31
0.0
  0
LINE
  5
74FE
330
7493
100
AcDbEntity
  8
OBJECT
100
AcDbLine
 10
28.0
 20
35.53589799999999
 30
0.0
 11
30.0
 21
39.0
 31
0.0
  0
LINE
  5
74FF
330
7493
100
AcDbEntity
  8
OBJECT
100
AcDbLine
 10
28.0
 20
23.53589799999999
 30
0.0
 11
30.0
 21
26.99999999999999
 31
0.0
  0
LINE
  5
7500
330
7493
100
AcDbEntity
  8
OBJECT
100
AcDbLine
 10
28.0
 20
23.53589799999999
 30
0.0
 11
32.0
 21
23.53589799999999
 31
0.0
  0
LINE
  5
7501
330
7493
100
AcDbEntity
  8
OBJECT
100
AcDbLine
 10
32.0
 20
23.53589799999999
 30
0.0
 11
30.0
 21
26.99999999999999
 31
0.0
  0
LINE
  5
7502
330
7493
100
AcDbEntity
  8
OBJECT
100
AcDbLine
 10
28.0
 20
17.535898
 30
0.0
 11
30.0
 21
20.99999999999999
 31
0.0
  0
LINE
  5
7503
330
7493
100
AcDbEntity
  8
OBJECT
100
AcDbLine
 10
28.0
 20
17.535898
 30
0.0
 11
32.0
 21
17.535898
 31
0.0
  0
LINE
  5
7504
330
7493
100
AcDbEntity
  8
OBJECT
100
AcDbLine
 10
32.0
 20
17.535898
 30
0.0
 11
30.0
 21
20.99999999999999
 31
0.0
  0
LINE
  5
7505
330
7493
100
AcDbEntity
  8
OBJECT
100
AcDbLine
 10
44.5
 20
13.0
 30
0.0
 11
45.49999999999999
 21
13.0
 31
0.0
  0
LINE
  5
7506
330
7493
100
AcDbEntity
  8
OBJECT
100
AcDbLine
 10
39.5
 20
13.0
 30
0.0
 11
40.49999999999999
 21
13.0
 31
0.0
  0
LINE
  5
7507
330
7493
100
AcDbEntity
  8
OBJECT
100
AcDbLine
 10
28.0
 20
11.53589799999999
 30
0.0
 11
32.0
 21
11.53589799999999
 31
0.0
  0
LINE
  5
7508
330
7493
100
AcDbEntity
  8
OBJECT
100
AcDbLine
 10
80.0
 20
10.0
 30
0.0
 11
80.0
 21
40.0
 31
0.0
  0
LINE
  5
7509
330
7493
100
AcDbEntity
  8
OBJECT
100
AcDbLine
 10
50.0
 20
10.0
 30
0.0
 11
50.0
 21
40.0
 31
0.0
  0
LINE
  5
750A
330
7493
100
AcDbEntity
  8
OBJECT
100
AcDbLine
 10
35.0
 20
10.0
 30
0.0
 11
35.0
 21
40.0
 31
0.0
  0
LINE
  5
750B
330
7493
100
AcDbEntity
  8
OBJECT
100
AcDbLine
 10
32.0
 20
11.53589799999999
 30
0.0
 11
30.0
 21
15.0
 31
0.0
  0
LINE
  5
750C
330
7493
100
AcDbEntity
  8
OBJECT
100
AcDbLine
 10
28.0
 20
11.53589799999999
 30
0.0
 11
30.0
 21
15.0
 31
0.0
  0
LINE
  5
750D
330
7493
100
AcDbEntity
  8
OBJECT
100
AcDbLine
 10
130.0
 20
40.0
 30
0.0
 11
25.0
 21
40.0
 31
0.0
  0
LINE
  5
750E
330
7493
100
AcDbEntity
  8
OBJECT
100
AcDbLine
 10
130.0
 20
34.0
 30
0.0
 11
25.0
 21
34.0
 31
0.0
  0
LINE
  5
750F
330
7493
100
AcDbEntity
  8
OBJECT
100
AcDbLine
 10
130.0
 20
28.0
 30
0.0
 11
25.0
 21
28.0
 31
0.0
  0
LINE
  5
7510
330
7493
100
AcDbEntity
  8
OBJECT
100
AcDbLine
 10
130.0
 20
22.0
 30
0.0
 11
25.0
 21
22.0
 31
0.0
  0
LINE
  5
7511
330
7493
100
AcDbEntity
  8
OBJECT
100
AcDbLine
 10
130.0
 20
16.0
 30
0.0
 11
25.0
 21
16.0
 31
0.0
  0
ATTDEF
  5
7512
330
7493
100
AcDbEntity
  8
0
 62
     0
100
AcDbText
 10
19.0
 20
118.0
 30
0.0
 40
3.0
  1

 50
90.0
  7
ADESK1
100
AcDbAttributeDefinition
  3

  2
FNAME
 70
     8
  0
ATTDEF
  5
7513
330
7493
100
AcDbEntity
  8
0
 62
     0
100
AcDbText
 10
19.0
 20
70.0
 30
0.0
 40
3.0
  1

 50
90.0
  7
ADESK1
100
AcDbAttributeDefinition
  3

  2
REVDATE
 70
     8
  0
ATTDEF
  5
7514
330
7493
100
AcDbEntity
  8
0
 62
     0
100
AcDbText
 10
19.0
 20
10.0
 30
0.0
 40
3.0
  1

 50
90.0
  7
ADESK1
100
AcDbAttributeDefinition
  3

  2
USER
 70
     8
  0
LINE
  5
7515
330
7493
100
AcDbEntity
  8
0
100
AcDbLine
 10
410.0
 20
297.0
 30
0.0
 11
420.0
 21
297.0
 31
0.0
  0
LINE
  5
7516
330
7493
100
AcDbEntity
  8
0
100
AcDbLine
 10
420.0
 20
10.0
 30
0.0
 11
420.0
 21
0.0
 31
0.0
  0
LINE
  5
7517
330
7493
100
AcDbEntity
  8
0
100
AcDbLine
 10
25.0
 20
0.0
 30
0.0
 11
0.0
 21
0.0
 31
0.0
  0
LINE
  5
7518
330
7493
100
AcDbEntity
  8
0
100
AcDbLine
 10
0.0
 20
287.0
 30
0.0
 11
0.0
 21
297.0
 31
0.0
  0
LINE
  5
7519
330
7493
100
AcDbEntity
  8
0
100
AcDbLine
 10
25.0
 20
287.0
 30
0.0
 11
410.0
 21
287.0
 31
0.0
  0
LINE
  5
751A
330
7493
100
AcDbEntity
  8
0
100
AcDbLine
 10
410.0
 20
287.0
 30
0.0
 11
410.0
 21
10.0
 31
0.0
  0
LINE
  5
751B
330
7493
100
AcDbEntity
  8
0
100
AcDbLine
 10
410.0
 20
10.0
 30
0.0
 11
25.0
 21
10.0
 31
0.0
  0
LINE
  5
751C
330
7493
100
AcDbEntity
  8
0
100
AcDbLine
 10
25.0
 20
10.0
 30
0.0
 11
25.0
 21
287.0
 31
0.0
  0
LINE
  5
751D
330
7493
100
AcDbEntity
  8
0
100
AcDbLine
 10
420.0
 20
0.0
 30
0.0
 11
410.0
 21
0.0
 31
0.0
  0
LINE
  5
751E
330
7493
100
AcDbEntity
  8
0
100
AcDbLine
 10
420.0
 20
297.0
 30
0.0
 11
420.0
 21
287.0
 31
0.0
  0
LINE
  5
751F
330
7493
100
AcDbEntity
  8
0
100
AcDbLine
 10
0.0
 20
297.0
 30
0.0
 11
25.0
 21
297.0
 31
0.0
  0
LINE
  5
7520
330
7493
100
AcDbEntity
  8
0
100
AcDbLine
 10
0.0
 20
0.0
 30
0.0
 11
0.0
 21
10.0
 31
0.0
  0
ENDBLK
  5
7521
330
7493
100
AcDbEntity
  8
0
100
AcDbBlockEnd
  0
BLOCK
  5
9AB9
330
9AB0
100
AcDbEntity
  8
0
 48
25.0
100
AcDbBlockBegin
  2
*D1
 70
     1
 10
0.0
 20
0.0
 30
0.0
  3
*D1
  1

  0
LINE
  5
AE6B
330
9AB0
100
AcDbEntity
  8
寸法引出
 48
25.0
370
    -2
100
AcDbLine
 10
3515.442322819259
 20
3741.43932768014
 30
0.0
 11
3515.442322819259
 21
3850.87910978941
 31
0.0
  0
LINE
  5
AE6C
330
9AB0
100
AcDbEntity
  8
寸法引出
 48
25.0
370
    -2
100
AcDbLine
 10
2785.442322819259
 20
3840.87910978941
 30
0.0
 11
3485.442322819259
 21
3840.87910978941
 31
0.0
  0
SOLID
  5
AE6D
330
9AB0
100
AcDbEntity
  8
寸法引出
 48
25.0
100
AcDbTrace
 10
2785.442322819259
 20
3845.879109789409
 30
0.0
 11
2785.442322819259
 21
3835.879109789409
 31
0.0
 12
2755.442322819259
 22
3840.87910978941
 32
0.0
 13
2755.442322819259
 23
3840.87910978941
 33
0.0
  0
SOLID
  5
AE6E
330
9AB0
100
AcDbEntity
  8
寸法引出
 48
25.0
100
AcDbTrace
 10
3485.442322819259
 20
3845.879109789409
 30
0.0
 11
3485.442322819259
 21
3835.879109789409
 31
0.0
 12
3515.442322819259
 22
3840.87910978941
 32
0.0
 13
3515.442322819259
 23
3840.87910978941
 33
0.0
  0
MTEXT
  5
AE6F
330
9AB0
100
AcDbEntity
  8
寸法引出
 48
25.0
100
AcDbMText
 10
3135.442322819259
 20
3880.87910978941
 30
0.0
 40
40.0
 41
0.0
 71
     5
 72
     1
  1
\A1;760
  7
SANWA
 73
     1
 44
1.0
  0
POINT
  5
AE70
330
9AB0
100
AcDbEntity
  8
DEFPOINTS
 62
     0
 48
25.0
100
AcDbPoint
 10
2755.442322819259
 20
3721.43932768014
 30
0.0
  0
POINT
  5
AE71
330
9AB0
100
AcDbEntity
  8
DEFPOINTS
 62
     0
 48
25.0
100
AcDbPoint
 10
3515.442322819259
 20
3721.43932768014
 30
0.0
  0
POINT
  5
AE72
330
9AB0
100
AcDbEntity
  8
DEFPOINTS
 62
     0
 48
25.0
100
AcDbPoint
 10
3515.442322819259
 20
3840.87910978941
 30
0.0
  0
ENDBLK
  5
9ABA
330
9AB0
100
AcDbEntity
  8
0
 48
25.0
100
AcDbBlockEnd
  0
BLOCK
  5
9AC5
330
9ABB
100
AcDbEntity
  8
0
 48
25.0
100
AcDbBlockBegin
  2
*D2
 70
     1
 10
0.0
 20
0.0
 30
0.0
  3
*D2
  1

  0
LINE
  5
AE73
330
9ABB
100
AcDbEntity
  8
寸法引出
 48
25.0
370
    -2
100
AcDbLine
 10
2635.442322819259
 20
3741.43932768014
 30
0.0
 11
2635.442322819259
 21
3850.87910978941
 31
0.0
  0
LINE
  5
AE74
330
9ABB
100
AcDbEntity
  8
寸法引出
 48
25.0
370
    -2
100
AcDbLine
 10
2755.442322819259
 20
3741.43932768014
 30
0.0
 11
2755.442322819259
 21
3850.87910978941
 31
0.0
  0
LINE
  5
AE75
330
9ABB
100
AcDbEntity
  8
寸法引出
 48
25.0
370
    -2
100
AcDbLine
 10
2665.442322819259
 20
3840.87910978941
 30
0.0
 11
2725.442322819259
 21
3840.87910978941
 31
0.0
  0
SOLID
  5
AE76
330
9ABB
100
AcDbEntity
  8
寸法引出
 48
25.0
100
AcDbTrace
 10
2665.442322819259
 20
3845.879109789409
 30
0.0
 11
2665.442322819259
 21
3835.879109789409
 31
0.0
 12
2635.442322819259
 22
3840.87910978941
 32
0.0
 13
2635.442322819259
 23
3840.87910978941
 33
0.0
  0
SOLID
  5
AE77
330
9ABB
100
AcDbEntity
  8
寸法引出
 48
25.0
100
AcDbTrace
 10
2725.442322819259
 20
3845.879109789409
 30
0.0
 11
2725.442322819259
 21
3835.879109789409
 31
0.0
 12
2755.442322819259
 22
3840.87910978941
 32
0.0
 13
2755.442322819259
 23
3840.87910978941
 33
0.0
  0
MTEXT
  5
AE78
330
9ABB
100
AcDbEntity
  8
寸法引出
 48
25.0
100
AcDbMText
 10
2695.442322819259
 20
3880.87910978941
 30
0.0
 40
40.0
 41
0.0
 71
     5
 72
     1
  1
\A1;120
  7
SANWA
 73
     1
 44
1.0
  0
POINT
  5
AE79
330
9ABB
100
AcDbEntity
  8
DEFPOINTS
 62
     0
 48
25.0
100
AcDbPoint
 10
2635.442322819259
 20
3721.43932768014
 30
0.0
  0
POINT
  5
AE7A
330
9ABB
100
AcDbEntity
  8
DEFPOINTS
 62
     0
 48
25.0
100
AcDbPoint
 10
2755.442322819259
 20
3721.43932768014
 30
0.0
  0
POINT
  5
AE7B
330
9ABB
100
AcDbEntity
  8
DEFPOINTS
 62
     0
 48
25.0
100
AcDbPoint
 10
2755.442322819259
 20
3840.87910978941
 30
0.0
  0
ENDBLK
  5
9AC6
330
9ABB
100
AcDbEntity
  8
0
 48
25.0
100
AcDbBlockEnd
  0
BLOCK
  5
9AD1
330
9AC7
100
AcDbEntity
  8
0
 48
25.0
100
AcDbBlockBegin
  2
*D3
 70
     1
 10
0.0
 20
0.0
 30
0.0
  3
*D3
  1

  0
LINE
  5
ADBC
330
9AC7
100
AcDbEntity
  8
寸法引出
 48
25.0
370
    -2
100
AcDbLine
 10
6273.705761544257
 20
2771.370882493739
 30
0.0
 11
6147.88740682108
 21
2778.91998377713
 31
0.0
  0
LINE
  5
ADBD
330
9AC7
100
AcDbEntity
  8
寸法引出
 48
25.0
370
    -2
100
AcDbLine
 10
6249.090030055072
 20
2361.108691007305
 30
0.0
 11
6123.271675331896
 21
2368.657792290695
 31
0.0
  0
LINE
  5
ADBE
330
9AC7
100
AcDbEntity
  8
寸法引出
 48
25.0
370
    -2
100
AcDbLine
 10
6156.0726865539
 20
2748.374915505877
 30
0.0
 11
6135.050492508392
 21
2398.005014747389
 31
0.0
  0
SOLID
  5
ADBF
330
9AC7
100
AcDbEntity
  8
寸法引出
 48
25.0
100
AcDbTrace
 10
6151.081662326571
 20
2748.674376959517
 30
0.0
 11
6161.063710781229
 21
2748.075454052237
 31
0.0
 12
6157.869455275738
 22
2778.32106086985
 32
0.0
 13
6157.869455275738
 23
2778.32106086985
 33
0.0
  0
SOLID
  5
ADC0
330
9AC7
100
AcDbEntity
  8
寸法引出
 48
25.0
100
AcDbTrace
 10
6130.059468281063
 20
2398.304476201028
 30
0.0
 11
6140.041516735721
 21
2397.705553293749
 31
0.0
 12
6133.253723786554
 22
2368.058869383415
 32
0.0
 13
6133.253723786554
 23
2368.058869383415
 33
0.0
  0
MTEXT
  5
ADC1
330
9AC7
100
AcDbEntity
  8
寸法引出
 48
25.0
100
AcDbMText
 10
6105.633395712515
 20
2575.585656755751
 30
0.0
 40
40.0
 41
0.0
 71
     5
 72
     1
  1
\A1;411
  7
SANWA
 11
0.0598922907279421
 21
0.9982048454657789
 31
0.0
 73
     1
 44
1.0
  0
POINT
  5
ADC2
330
9AC7
100
AcDbEntity
  8
DEFPOINTS
 62
     0
 48
25.0
100
AcDbPoint
 10
6293.669858453572
 20
2770.173036679181
 30
0.0
  0
POINT
  5
ADC3
330
9AC7
100
AcDbEntity
  8
DEFPOINTS
 62
     0
 48
25.0
100
AcDbPoint
 10
6269.054126964388
 20
2359.910845192746
 30
0.0
  0
POINT
  5
ADC4
330
9AC7
100
AcDbEntity
  8
DEFPOINTS
 62
     0
 48
25.0
100
AcDbPoint
 10
6133.253723786554
 20
2368.058869383415
 30
0.0
  0
ENDBLK
  5
9AD2
330
9AC7
100
AcDbEntity
  8
0
 48
25.0
100
AcDbBlockEnd
  0
BLOCK
  5
9ADD
330
9AD3
100
AcDbEntity
  8
0
 48
25.0
100
AcDbBlockBegin
  2
*D4
 70
     1
 10
0.0
 20
0.0
 30
0.0
  3
*D4
  1

  0
LINE
  5
ADB3
330
9AD3
100
AcDbEntity
  8
寸法引出
 48
25.0
370
    -2
100
AcDbLine
 10
5382.491183887332
 20
2619.145205928264
 30
0.0
 11
5382.491183887332
 21
2715.297760756355
 31
0.0
  0
LINE
  5
ADB4
330
9AD3
100
AcDbEntity
  8
寸法引出
 48
25.0
370
    -2
100
AcDbLine
 10
5752.491183887332
 20
2619.145205928264
 30
0.0
 11
5752.491183887332
 21
2715.297760756355
 31
0.0
  0
LINE
  5
ADB5
330
9AD3
100
AcDbEntity
  8
寸法引出
 48
25.0
370
    -2
100
AcDbLine
 10
5412.491183887333
 20
2705.297760756355
 30
0.0
 11
5722.491183887332
 21
2705.297760756355
 31
0.0
  0
SOLID
  5
ADB6
330
9AD3
100
AcDbEntity
  8
寸法引出
 48
25.0
100
AcDbTrace
 10
5412.491183887333
 20
2710.297760756355
 30
0.0
 11
5412.491183887333
 21
2700.297760756355
 31
0.0
 12
5382.491183887332
 22
2705.297760756355
 32
0.0
 13
5382.491183887332
 23
2705.297760756355
 33
0.0
  0
SOLID
  5
ADB7
330
9AD3
100
AcDbEntity
  8
寸法引出
 48
25.0
100
AcDbTrace
 10
5722.491183887332
 20
2710.297760756355
 30
0.0
 11
5722.491183887332
 21
2700.297760756355
 31
0.0
 12
5752.491183887332
 22
2705.297760756355
 32
0.0
 13
5752.491183887332
 23
2705.297760756355
 33
0.0
  0
MTEXT
  5
ADB8
330
9AD3
100
AcDbEntity
  8
寸法引出
 48
25.0
100
AcDbMText
 10
5567.491183887332
 20
2745.297760756355
 30
0.0
 40
40.0
 41
0.0
 71
     5
 72
     1
  1
\A1;370
  7
SANWA
 73
     1
 44
1.0
  0
POINT
  5
ADB9
330
9AD3
100
AcDbEntity
  8
DEFPOINTS
 62
     0
 48
25.0
100
AcDbPoint
 10
5382.491183887332
 20
2599.145205928263
 30
0.0
  0
POINT
  5
ADBA
330
9AD3
100
AcDbEntity
  8
DEFPOINTS
 62
     0
 48
25.0
100
AcDbPoint
 10
5752.491183887332
 20
2599.145205928263
 30
0.0
  0
POINT
  5
ADBB
330
9AD3
100
AcDbEntity
  8
DEFPOINTS
 62
     0
 48
25.0
100
AcDbPoint
 10
5752.491183887332
 20
2705.297760756355
 30
0.0
  0
ENDBLK
  5
9ADE
330
9AD3
100
AcDbEntity
  8
0
 48
25.0
100
AcDbBlockEnd
  0
BLOCK
  5
9AE9
330
9ADF
100
AcDbEntity
  8
0
 48
25.0
100
AcDbBlockBegin
  2
*D5
 70
     1
 10
0.0
 20
0.0
 30
0.0
  3
*D5
  1

  0
LINE
  5
AD1C
330
9ADF
100
AcDbEntity
  8
寸法引出
 48
25.0
370
    -2
100
AcDbLine
 10
6724.091266978938
 20
3951.135000301281
 30
0.0
 11
6913.347241819683
 21
3951.135000301281
 31
0.0
  0
LINE
  5
AD1D
330
9ADF
100
AcDbEntity
  8
寸法引出
 48
25.0
370
    -2
100
AcDbLine
 10
6724.091266978938
 20
2011.135000301281
 30
0.0
 11
6913.347241819682
 21
2011.135000301281
 31
0.0
  0
LINE
  5
AD1E
330
9ADF
100
AcDbEntity
  8
寸法引出
 48
25.0
370
    -2
100
AcDbLine
 10
6903.347241819682
 20
3921.135000301281
 30
0.0
 11
6903.347241819682
 21
2041.135000301281
 31
0.0
  0
SOLID
  5
AD1F
330
9ADF
100
AcDbEntity
  8
寸法引出
 48
25.0
100
AcDbTrace
 10
6898.347241819682
 20
3921.135000301281
 30
0.0
 11
6908.347241819682
 21
3921.135000301281
 31
0.0
 12
6903.347241819682
 22
3951.135000301281
 32
0.0
 13
6903.347241819682
 23
3951.135000301281
 33
0.0
  0
SOLID
  5
AD20
330
9ADF
100
AcDbEntity
  8
寸法引出
 48
25.0
100
AcDbTrace
 10
6898.347241819681
 20
2041.135000301281
 30
0.0
 11
6908.347241819682
 21
2041.135000301281
 31
0.0
 12
6903.347241819682
 22
2011.135000301281
 32
0.0
 13
6903.347241819682
 23
2011.135000301281
 33
0.0
  0
MTEXT
  5
AD21
330
9ADF
100
AcDbEntity
  8
寸法引出
 48
25.0
100
AcDbMText
 10
6863.347241819681
 20
2981.135000301282
 30
0.0
 40
40.0
 41
0.0
 71
     5
 72
     1
  1
\A1;1940
  7
SANWA
 11
0.0000000000000001
 21
1.0
 31
0.0
 73
     1
 44
1.0
  0
POINT
  5
AD22
330
9ADF
100
AcDbEntity
  8
DEFPOINTS
 62
     0
 48
25.0
100
AcDbPoint
 10
6704.091266978938
 20
3951.135000301281
 30
0.0
  0
POINT
  5
AD23
330
9ADF
100
AcDbEntity
  8
DEFPOINTS
 62
     0
 48
25.0
100
AcDbPoint
 10
6704.091266978938
 20
2011.135000301281
 30
0.0
  0
POINT
  5
AD24
330
9ADF
100
AcDbEntity
  8
DEFPOINTS
 62
     0
 48
25.0
100
AcDbPoint
 10
6903.347241819682
 20
2011.135000301281
 30
0.0
  0
ENDBLK
  5
9AEA
330
9ADF
100
AcDbEntity
  8
0
 48
25.0
100
AcDbBlockEnd
  0
BLOCK
  5
9B30
330
9B26
100
AcDbEntity
  8
0
 48
25.0
100
AcDbBlockBegin
  2
*D6
 70
     1
 10
0.0
 20
0.0
 30
0.0
  3
*D6
  1

  0
LINE
  5
AE84
330
9B26
100
AcDbEntity
  8
寸法引出
 48
25.0
370
    -2
100
AcDbLine
 10
5981.377815404341
 20
3911.16675227653
 30
0.0
 11
6069.942373947753
 21
3911.16675227653
 31
0.0
  0
LINE
  5
AE85
330
9B26
100
AcDbEntity
  8
寸法引出
 48
25.0
370
    -2
100
AcDbLine
 10
5981.377815404341
 20
3471.166752276531
 30
0.0
 11
6069.942373947753
 21
3471.166752276531
 31
0.0
  0
LINE
  5
AE86
330
9B26
100
AcDbEntity
  8
寸法引出
 48
25.0
370
    -2
100
AcDbLine
 10
6059.942373947754
 20
3881.166752276531
 30
0.0
 11
6059.942373947754
 21
3501.166752276531
 31
0.0
  0
SOLID
  5
AE87
330
9B26
100
AcDbEntity
  8
寸法引出
 48
25.0
100
AcDbTrace
 10
6054.942373947753
 20
3881.166752276531
 30
0.0
 11
6064.942373947753
 21
3881.166752276531
 31
0.0
 12
6059.942373947754
 22
3911.16675227653
 32
0.0
 13
6059.942373947754
 23
3911.16675227653
 33
0.0
  0
SOLID
  5
AE88
330
9B26
100
AcDbEntity
  8
寸法引出
 48
25.0
100
AcDbTrace
 10
6054.942373947753
 20
3501.166752276531
 30
0.0
 11
6064.942373947753
 21
3501.166752276531
 31
0.0
 12
6059.942373947754
 22
3471.166752276531
 32
0.0
 13
6059.942373947754
 23
3471.166752276531
 33
0.0
  0
MTEXT
  5
AE89
330
9B26
100
AcDbEntity
  8
寸法引出
 48
25.0
100
AcDbMText
 10
6019.942373947753
 20
3691.166752276532
 30
0.0
 40
40.0
 41
0.0
 71
     5
 72
     1
  1
\A1;440
  7
SANWA
 11
0.0000000000000001
 21
1.0
 31
0.0
 73
     1
 44
1.0
  0
POINT
  5
AE8A
330
9B26
100
AcDbEntity
  8
DEFPOINTS
 62
     0
 48
25.0
100
AcDbPoint
 10
5961.377815404341
 20
3911.16675227653
 30
0.0
  0
POINT
  5
AE8B
330
9B26
100
AcDbEntity
  8
DEFPOINTS
 62
     0
 48
25.0
100
AcDbPoint
 10
5961.377815404341
 20
3471.166752276531
 30
0.0
  0
POINT
  5
AE8C
330
9B26
100
AcDbEntity
  8
DEFPOINTS
 62
     0
 48
25.0
100
AcDbPoint
 10
6059.942373947754
 20
3471.166752276531
 30
0.0
  0
ENDBLK
  5
9B31
330
9B26
100
AcDbEntity
  8
0
 48
25.0
100
AcDbBlockEnd
  0
BLOCK
  5
9B3D
330
9B32
100
AcDbEntity
  8
0
 48
25.0
100
AcDbBlockBegin
  2
*D7
 70
     1
 10
0.0
 20
0.0
 30
0.0
  3
*D7
  1

  0
LINE
  5
AEA9
330
9B32
100
AcDbEntity
  8
寸法引出
 48
25.0
370
    -2
100
AcDbLine
 10
5861.377815404342
 20
3351.16675227653
 30
0.0
 11
5861.377815404342
 21
3262.602193733119
 31
0.0
  0
LINE
  5
AEAA
330
9B32
100
AcDbEntity
  8
寸法引出
 48
25.0
370
    -2
100
AcDbLine
 10
5981.377815404341
 20
3471.16675227653
 30
0.0
 11
6069.942373947752
 21
3471.166752276531
 31
0.0
  0
ARC
  5
AEAB
330
9B32
100
AcDbEntity
  8
寸法引出
 48
25.0
370
    -2
100
AcDbCircle
 10
5861.377815404342
 20
3471.166752276531
 30
0.0
 40
198.5645585434112
100
AcDbArc
 50
278.6647508351644
 51
351.3352491648355
  0
SOLID
  5
AEAC
330
9B32
100
AcDbEntity
  8
寸法引出
 48
25.0
100
AcDbTrace
 10
5891.669804524724
 20
3269.882746154912
 30
0.0
 11
5890.914382705743
 21
3279.85417222521
 31
0.0
 12
5861.377815404342
 22
3272.602193733119
 32
0.0
 13
5861.377815404342
 23
3272.602193733119
 33
0.0
  0
SOLID
  5
AEAD
330
9B32
100
AcDbEntity
  8
寸法引出
 48
25.0
100
AcDbTrace
 10
6052.690395455661
 20
3441.630184975129
 30
0.0
 11
6062.661821525959
 21
3440.874763156148
 31
0.0
 12
6059.942373947752
 22
3471.166752276531
 32
0.0
 13
6059.942373947752
 23
3471.166752276531
 33
0.0
  0
MTEXT
  5
AEAE
330
9B32
100
AcDbEntity
  8
寸法引出
 48
25.0
100
AcDbMText
 10
5973.499890006239
 20
3359.044677674631
 30
0.0
 40
40.0
 41
0.0
 71
     5
 72
     1
  1
\A1;157
  7
SANWA
 11
0.7071067811865476
 21
0.7071067811865475
 31
0.0
 73
     1
 44
1.0
  0
POINT
  5
AEAF
330
9B32
100
AcDbEntity
  8
DEFPOINTS
 62
     0
 48
25.0
100
AcDbPoint
 10
5861.377815404342
 20
3471.166752276531
 30
0.0
  0
POINT
  5
AEB0
330
9B32
100
AcDbEntity
  8
DEFPOINTS
 62
     0
 48
25.0
100
AcDbPoint
 10
5861.377815404342
 20
3371.16675227653
 30
0.0
  0
POINT
  5
AEB1
330
9B32
100
AcDbEntity
  8
DEFPOINTS
 62
     0
 48
25.0
100
AcDbPoint
 10
5961.377815404341
 20
3471.16675227653
 30
0.0
  0
POINT
  5
AEB2
330
9B32
100
AcDbEntity
  8
DEFPOINTS
 62
     0
 48
25.0
100
AcDbPoint
 10
5960.660094676047
 20
3299.204800286695
 30
0.0
  0
ENDBLK
  5
9B3E
330
9B32
100
AcDbEntity
  8
0
 48
25.0
100
AcDbBlockEnd
  0
BLOCK
  5
9BBB
330
9BB2
100
AcDbEntity
  8
0
 48
25.0
100
AcDbBlockBegin
  2
*D8
 70
     1
 10
0.0
 20
0.0
 30
0.0
  3
*D8
  1

  0
LINE
  5
ADCE
330
9BB2
100
AcDbEntity
  8
寸法引出
 48
25.0
370
    -2
100
AcDbLine
 10
4515.442322819259
 20
3741.43932768014
 30
0.0
 11
4515.442322819259
 21
3850.87910978941
 31
0.0
  0
LINE
  5
ADCF
330
9BB2
100
AcDbEntity
  8
寸法引出
 48
25.0
370
    -2
100
AcDbLine
 10
3785.442322819259
 20
3840.87910978941
 30
0.0
 11
4485.442322819259
 21
3840.87910978941
 31
0.0
  0
SOLID
  5
ADD0
330
9BB2
100
AcDbEntity
  8
寸法引出
 48
25.0
100
AcDbTrace
 10
3785.442322819259
 20
3845.879109789409
 30
0.0
 11
3785.442322819259
 21
3835.879109789409
 31
0.0
 12
3755.442322819259
 22
3840.87910978941
 32
0.0
 13
3755.442322819259
 23
3840.87910978941
 33
0.0
  0
SOLID
  5
ADD1
330
9BB2
100
AcDbEntity
  8
寸法引出
 48
25.0
100
AcDbTrace
 10
4485.442322819259
 20
3845.879109789409
 30
0.0
 11
4485.442322819259
 21
3835.879109789409
 31
0.0
 12
4515.442322819259
 22
3840.87910978941
 32
0.0
 13
4515.442322819259
 23
3840.87910978941
 33
0.0
  0
MTEXT
  5
ADD2
330
9BB2
100
AcDbEntity
  8
寸法引出
 48
25.0
100
AcDbMText
 10
4135.442322819259
 20
3880.87910978941
 30
0.0
 40
40.0
 41
0.0
 71
     5
 72
     1
  1
\A1;760
  7
SANWA
 73
     1
 44
1.0
  0
POINT
  5
ADD3
330
9BB2
100
AcDbEntity
  8
DEFPOINTS
 62
     0
 48
25.0
100
AcDbPoint
 10
3755.442322819259
 20
3721.43932768014
 30
0.0
  0
POINT
  5
ADD4
330
9BB2
100
AcDbEntity
  8
DEFPOINTS
 62
     0
 48
25.0
100
AcDbPoint
 10
4515.442322819259
 20
3721.43932768014
 30
0.0
  0
POINT
  5
ADD5
330
9BB2
100
AcDbEntity
  8
DEFPOINTS
 62
     0
 48
25.0
100
AcDbPoint
 10
4515.442322819259
 20
3840.87910978941
 30
0.0
  0
ENDBLK
  5
9BBC
330
9BB2
100
AcDbEntity
  8
0
 48
25.0
100
AcDbBlockEnd
  0
BLOCK
  5
9BC6
330
9BBD
100
AcDbEntity
  8
0
 48
25.0
100
AcDbBlockBegin
  2
*D9
 70
     1
 10
0.0
 20
0.0
 30
0.0
  3
*D9
  1

  0
LINE
  5
AEB3
330
9BBD
100
AcDbEntity
  8
寸法引出
 48
25.0
370
    -2
100
AcDbLine
 10
4635.442322819259
 20
3741.43932768014
 30
0.0
 11
4635.442322819259
 21
3850.87910978941
 31
0.0
  0
LINE
  5
AEB4
330
9BBD
100
AcDbEntity
  8
寸法引出
 48
25.0
370
    -2
100
AcDbLine
 10
4545.442322819258
 20
3840.87910978941
 30
0.0
 11
4605.442322819259
 21
3840.87910978941
 31
0.0
  0
SOLID
  5
AEB5
330
9BBD
100
AcDbEntity
  8
寸法引出
 48
25.0
100
AcDbTrace
 10
4545.442322819258
 20
3845.879109789409
 30
0.0
 11
4545.442322819258
 21
3835.879109789409
 31
0.0
 12
4515.442322819259
 22
3840.87910978941
 32
0.0
 13
4515.442322819259
 23
3840.87910978941
 33
0.0
  0
SOLID
  5
AEB6
330
9BBD
100
AcDbEntity
  8
寸法引出
 48
25.0
100
AcDbTrace
 10
4605.442322819259
 20
3845.879109789409
 30
0.0
 11
4605.442322819259
 21
3835.879109789409
 31
0.0
 12
4635.442322819259
 22
3840.87910978941
 32
0.0
 13
4635.442322819259
 23
3840.87910978941
 33
0.0
  0
MTEXT
  5
AEB7
330
9BBD
100
AcDbEntity
  8
寸法引出
 48
25.0
100
AcDbMText
 10
4575.442322819259
 20
3880.87910978941
 30
0.0
 40
40.0
 41
0.0
 71
     5
 72
     1
  1
\A1;120
  7
SANWA
 73
     1
 44
1.0
  0
POINT
  5
AEB8
330
9BBD
100
AcDbEntity
  8
DEFPOINTS
 62
     0
 48
25.0
100
AcDbPoint
 10
4515.442322819259
 20
3721.43932768014
 30
0.0
  0
POINT
  5
AEB9
330
9BBD
100
AcDbEntity
  8
DEFPOINTS
 62
     0
 48
25.0
100
AcDbPoint
 10
4635.442322819259
 20
3721.43932768014
 30
0.0
  0
POINT
  5
AEBA
330
9BBD
100
AcDbEntity
  8
DEFPOINTS
 62
     0
 48
25.0
100
AcDbPoint
 10
4635.442322819259
 20
3840.87910978941
 30
0.0
  0
ENDBLK
  5
9BC7
330
9BBD
100
AcDbEntity
  8
0
 48
25.0
100
AcDbBlockEnd
  0
BLOCK
  5
9BD3
330
9BC8
100
AcDbEntity
  8
0
 48
25.0
100
AcDbBlockBegin
  2
*D10
 70
     1
 10
0.0
 20
0.0
 30
0.0
  3
*D10
  1

  0
LINE
  5
AE9F
330
9BC8
100
AcDbEntity
  8
寸法引出
 48
25.0
370
    -2
100
AcDbLine
 10
5581.377815404341
 20
3471.166752276531
 30
0.0
 11
5492.813256860929
 21
3471.166752276531
 31
0.0
  0
LINE
  5
AEA0
330
9BC8
100
AcDbEntity
  8
寸法引出
 48
25.0
370
    -2
100
AcDbLine
 10
5701.377815404342
 20
3351.16675227653
 30
0.0
 11
5701.377815404342
 21
3262.602193733119
 31
0.0
  0
ARC
  5
AEA1
330
9BC8
100
AcDbEntity
  8
寸法引出
 48
25.0
370
    -2
100
AcDbCircle
 10
5701.37781540434
 20
3471.16675227653
 30
0.0
 40
198.5645585434111
100
AcDbArc
 50
188.6647508351643
 51
261.3352491648358
  0
SOLID
  5
AEA2
330
9BC8
100
AcDbEntity
  8
寸法引出
 48
25.0
100
AcDbTrace
 10
5500.093809282724
 20
3440.874763156148
 30
0.0
 11
5510.065235353021
 21
3441.630184975129
 31
0.0
 12
5502.813256860929
 22
3471.166752276531
 32
0.0
 13
5502.813256860929
 23
3471.166752276531
 33
0.0
  0
SOLID
  5
AEA3
330
9BC8
100
AcDbEntity
  8
寸法引出
 48
25.0
100
AcDbTrace
 10
5671.84124810294
 20
3279.854172225211
 30
0.0
 11
5671.08582628396
 21
3269.882746154913
 31
0.0
 12
5701.377815404342
 22
3272.602193733119
 32
0.0
 13
5701.377815404342
 23
3272.602193733119
 33
0.0
  0
MTEXT
  5
AEA4
330
9BC8
100
AcDbEntity
  8
寸法引出
 48
25.0
100
AcDbMText
 10
5589.255740802443
 20
3359.044677674634
 30
0.0
 40
40.0
 41
0.0
 71
     5
 72
     1
  1
\A1;157
  7
SANWA
 11
0.7071067811865476
 21
-0.7071067811865475
 31
0.0
 73
     1
 44
1.0
  0
POINT
  5
AEA5
330
9BC8
100
AcDbEntity
  8
DEFPOINTS
 62
     0
 48
25.0
100
AcDbPoint
 10
5701.37781540434
 20
3471.16675227653
 30
0.0
  0
POINT
  5
AEA6
330
9BC8
100
AcDbEntity
  8
DEFPOINTS
 62
     0
 48
25.0
100
AcDbPoint
 10
5601.377815404341
 20
3471.166752276531
 30
0.0
  0
POINT
  5
AEA7
330
9BC8
100
AcDbEntity
  8
DEFPOINTS
 62
     0
 48
25.0
100
AcDbPoint
 10
5701.377815404342
 20
3371.166752276531
 30
0.0
  0
POINT
  5
AEA8
330
9BC8
100
AcDbEntity
  8
DEFPOINTS
 62
     0
 48
25.0
100
AcDbPoint
 10
5529.415863414504
 20
3371.884473004826
 30
0.0
  0
ENDBLK
  5
9BD4
330
9BC8
100
AcDbEntity
  8
0
 48
25.0
100
AcDbBlockEnd
  0
BLOCK
  5
9BDF
330
9BD5
100
AcDbEntity
  8
0
 48
25.0
100
AcDbBlockBegin
  2
*D11
 70
     1
 10
0.0
 20
0.0
 30
0.0
  3
*D11
  1

  0
LINE
  5
AE96
330
9BD5
100
AcDbEntity
  8
寸法引出
 48
25.0
370
    -2
100
AcDbLine
 10
5701.377815404342
 20
3351.16675227653
 30
0.0
 11
5701.377815404342
 21
3262.602193733119
 31
0.0
  0
LINE
  5
AE97
330
9BD5
100
AcDbEntity
  8
寸法引出
 48
25.0
370
    -2
100
AcDbLine
 10
5861.377815404342
 20
3351.16675227653
 30
0.0
 11
5861.377815404342
 21
3262.602193733119
 31
0.0
  0
LINE
  5
AE98
330
9BD5
100
AcDbEntity
  8
寸法引出
 48
25.0
370
    -2
100
AcDbLine
 10
5731.377815404341
 20
3272.602193733119
 30
0.0
 11
5831.377815404341
 21
3272.602193733119
 31
0.0
  0
SOLID
  5
AE99
330
9BD5
100
AcDbEntity
  8
寸法引出
 48
25.0
100
AcDbTrace
 10
5731.377815404341
 20
3277.602193733118
 30
0.0
 11
5731.377815404341
 21
3267.602193733118
 31
0.0
 12
5701.377815404342
 22
3272.602193733119
 32
0.0
 13
5701.377815404342
 23
3272.602193733119
 33
0.0
  0
SOLID
  5
AE9A
330
9BD5
100
AcDbEntity
  8
寸法引出
 48
25.0
100
AcDbTrace
 10
5831.377815404341
 20
3277.602193733118
 30
0.0
 11
5831.377815404341
 21
3267.602193733118
 31
0.0
 12
5861.377815404342
 22
3272.602193733119
 32
0.0
 13
5861.377815404342
 23
3272.602193733119
 33
0.0
  0
MTEXT
  5
AE9B
330
9BD5
100
AcDbEntity
  8
寸法引出
 48
25.0
100
AcDbMText
 10
5781.377815404341
 20
3312.602193733118
 30
0.0
 40
40.0
 41
0.0
 71
     5
 72
     1
  1
\A1;160
  7
SANWA
 73
     1
 44
1.0
  0
POINT
  5
AE9C
330
9BD5
100
AcDbEntity
  8
DEFPOINTS
 62
     0
 48
25.0
100
AcDbPoint
 10
5701.377815404342
 20
3371.166752276531
 30
0.0
  0
POINT
  5
AE9D
330
9BD5
100
AcDbEntity
  8
DEFPOINTS
 62
     0
 48
25.0
100
AcDbPoint
 10
5861.377815404342
 20
3371.166752276531
 30
0.0
  0
POINT
  5
AE9E
330
9BD5
100
AcDbEntity
  8
DEFPOINTS
 62
     0
 48
25.0
100
AcDbPoint
 10
5861.377815404342
 20
3272.602193733119
 30
0.0
  0
ENDBLK
  5
9BE0
330
9BD5
100
AcDbEntity
  8
0
 48
25.0
100
AcDbBlockEnd
  0
BLOCK
  5
9BEB
330
9BE1
100
AcDbEntity
  8
0
 48
25.0
100
AcDbBlockBegin
  2
*D12
 70
     1
 10
0.0
 20
0.0
 30
0.0
  3
*D12
  1

  0
LINE
  5
AE8D
330
9BE1
100
AcDbEntity
  8
寸法引出
 48
25.0
370
    -2
100
AcDbLine
 10
5581.377815404341
 20
3911.16675227653
 30
0.0
 11
5492.813256860929
 21
3911.16675227653
 31
0.0
  0
LINE
  5
AE8E
330
9BE1
100
AcDbEntity
  8
寸法引出
 48
25.0
370
    -2
100
AcDbLine
 10
5581.377815404341
 20
3471.166752276531
 30
0.0
 11
5492.813256860929
 21
3471.166752276531
 31
0.0
  0
LINE
  5
AE8F
330
9BE1
100
AcDbEntity
  8
寸法引出
 48
25.0
370
    -2
100
AcDbLine
 10
5502.813256860929
 20
3881.166752276531
 30
0.0
 11
5502.813256860929
 21
3501.166752276531
 31
0.0
  0
SOLID
  5
AE90
330
9BE1
100
AcDbEntity
  8
寸法引出
 48
25.0
100
AcDbTrace
 10
5497.813256860929
 20
3881.166752276531
 30
0.0
 11
5507.813256860929
 21
3881.166752276531
 31
0.0
 12
5502.813256860929
 22
3911.16675227653
 32
0.0
 13
5502.813256860929
 23
3911.16675227653
 33
0.0
  0
SOLID
  5
AE91
330
9BE1
100
AcDbEntity
  8
寸法引出
 48
25.0
100
AcDbTrace
 10
5497.813256860929
 20
3501.166752276531
 30
0.0
 11
5507.813256860929
 21
3501.166752276531
 31
0.0
 12
5502.813256860929
 22
3471.166752276531
 32
0.0
 13
5502.813256860929
 23
3471.166752276531
 33
0.0
  0
MTEXT
  5
AE92
330
9BE1
100
AcDbEntity
  8
寸法引出
 48
25.0
100
AcDbMText
 10
5462.813256860928
 20
3691.166752276532
 30
0.0
 40
40.0
 41
0.0
 71
     5
 72
     1
  1
\A1;440
  7
SANWA
 11
0.0000000000000001
 21
1.0
 31
0.0
 73
     1
 44
1.0
  0
POINT
  5
AE93
330
9BE1
100
AcDbEntity
  8
DEFPOINTS
 62
     0
 48
25.0
100
AcDbPoint
 10
5601.377815404341
 20
3911.16675227653
 30
0.0
  0
POINT
  5
AE94
330
9BE1
100
AcDbEntity
  8
DEFPOINTS
 62
     0
 48
25.0
100
AcDbPoint
 10
5601.377815404341
 20
3471.166752276531
 30
0.0
  0
POINT
  5
AE95
330
9BE1
100
AcDbEntity
  8
DEFPOINTS
 62
     0
 48
25.0
100
AcDbPoint
 10
5502.813256860929
 20
3471.166752276531
 30
0.0
  0
ENDBLK
  5
9BEC
330
9BE1
100
AcDbEntity
  8
0
 48
25.0
100
AcDbBlockEnd
  0
BLOCK
  5
9BF7
330
9BED
100
AcDbEntity
  8
0
 48
25.0
100
AcDbBlockBegin
  2
*D13
 70
     1
 10
0.0
 20
0.0
 30
0.0
  3
*D13
  1

  0
LINE
  5
AD25
330
9BED
100
AcDbEntity
  8
寸法引出
 48
25.0
370
    -2
100
AcDbLine
 10
2635.442322819259
 20
2362.34349376606
 30
0.0
 11
2635.442322819259
 21
2425.286904181255
 31
0.0
  0
LINE
  5
AD26
330
9BED
100
AcDbEntity
  8
寸法引出
 48
25.0
370
    -2
100
AcDbLine
 10
4635.442322819259
 20
2362.34349376606
 30
0.0
 11
4635.442322819259
 21
2425.286904181255
 31
0.0
  0
LINE
  5
AD27
330
9BED
100
AcDbEntity
  8
寸法引出
 48
25.0
370
    -2
100
AcDbLine
 10
2665.442322819259
 20
2415.286904181255
 30
0.0
 11
4605.442322819259
 21
2415.286904181255
 31
0.0
  0
SOLID
  5
AD28
330
9BED
100
AcDbEntity
  8
寸法引出
 48
25.0
100
AcDbTrace
 10
2665.442322819259
 20
2420.286904181255
 30
0.0
 11
2665.442322819259
 21
2410.286904181255
 31
0.0
 12
2635.442322819259
 22
2415.286904181255
 32
0.0
 13
2635.442322819259
 23
2415.286904181255
 33
0.0
  0
SOLID
  5
AD29
330
9BED
100
AcDbEntity
  8
寸法引出
 48
25.0
100
AcDbTrace
 10
4605.442322819259
 20
2420.286904181255
 30
0.0
 11
4605.442322819259
 21
2410.286904181255
 31
0.0
 12
4635.442322819259
 22
2415.286904181255
 32
0.0
 13
4635.442322819259
 23
2415.286904181255
 33
0.0
  0
MTEXT
  5
AD2A
330
9BED
100
AcDbEntity
  8
寸法引出
 48
25.0
100
AcDbMText
 10
3635.442322819259
 20
2455.286904181255
 30
0.0
 40
40.0
 41
0.0
 71
     5
 72
     1
  1
\A1;2000
  7
SANWA
 73
     1
 44
1.0
  0
POINT
  5
AD2B
330
9BED
100
AcDbEntity
  8
DEFPOINTS
 62
     0
 48
25.0
100
AcDbPoint
 10
2635.442322819259
 20
2342.34349376606
 30
0.0
  0
POINT
  5
AD2C
330
9BED
100
AcDbEntity
  8
DEFPOINTS
 62
     0
 48
25.0
100
AcDbPoint
 10
4635.442322819259
 20
2342.34349376606
 30
0.0
  0
POINT
  5
AD2D
330
9BED
100
AcDbEntity
  8
DEFPOINTS
 62
     0
 48
25.0
100
AcDbPoint
 10
4635.442322819259
 20
2415.286904181255
 30
0.0
  0
ENDBLK
  5
9BF8
330
9BED
100
AcDbEntity
  8
0
 48
25.0
100
AcDbBlockEnd
  0
BLOCK
  5
9C56
330
9C4D
100
AcDbEntity
  8
0
 48
25.0
100
AcDbBlockBegin
  2
*D14
 70
     1
 10
0.0
 20
0.0
 30
0.0
  3
*D14
  1

  0
LINE
  5
AE7C
330
9C4D
100
AcDbEntity
  8
寸法引出
 48
25.0
370
    -2
100
AcDbLine
 10
3755.442322819259
 20
3741.43932768014
 30
0.0
 11
3755.442322819259
 21
3850.87910978941
 31
0.0
  0
LINE
  5
AE7D
330
9C4D
100
AcDbEntity
  8
寸法引出
 48
25.0
370
    -2
100
AcDbLine
 10
3545.442322819258
 20
3840.87910978941
 30
0.0
 11
3725.442322819259
 21
3840.87910978941
 31
0.0
  0
SOLID
  5
AE7E
330
9C4D
100
AcDbEntity
  8
寸法引出
 48
25.0
100
AcDbTrace
 10
3545.442322819258
 20
3845.879109789409
 30
0.0
 11
3545.442322819258
 21
3835.879109789409
 31
0.0
 12
3515.442322819259
 22
3840.87910978941
 32
0.0
 13
3515.442322819259
 23
3840.87910978941
 33
0.0
  0
SOLID
  5
AE7F
330
9C4D
100
AcDbEntity
  8
寸法引出
 48
25.0
100
AcDbTrace
 10
3725.442322819259
 20
3845.879109789409
 30
0.0
 11
3725.442322819259
 21
3835.879109789409
 31
0.0
 12
3755.442322819259
 22
3840.87910978941
 32
0.0
 13
3755.442322819259
 23
3840.87910978941
 33
0.0
  0
MTEXT
  5
AE80
330
9C4D
100
AcDbEntity
  8
寸法引出
 48
25.0
100
AcDbMText
 10
3635.442322819259
 20
3880.87910978941
 30
0.0
 40
40.0
 41
0.0
 71
     5
 72
     1
  1
\A1;240
  7
SANWA
 73
     1
 44
1.0
  0
POINT
  5
AE81
330
9C4D
100
AcDbEntity
  8
DEFPOINTS
 62
     0
 48
25.0
100
AcDbPoint
 10
3515.442322819259
 20
3721.43932768014
 30
0.0
  0
POINT
  5
AE82
330
9C4D
100
AcDbEntity
  8
DEFPOINTS
 62
     0
 48
25.0
100
AcDbPoint
 10
3755.442322819259
 20
3721.43932768014
 30
0.0
  0
POINT
  5
AE83
330
9C4D
100
AcDbEntity
  8
DEFPOINTS
 62
     0
 48
25.0
100
AcDbPoint
 10
3755.442322819259
 20
3840.87910978941
 30
0.0
  0
ENDBLK
  5
9C57
330
9C4D
100
AcDbEntity
  8
0
 48
25.0
100
AcDbBlockEnd
  0
BLOCK
  5
9C8A
330
9C80
100
AcDbEntity
  8
0
 48
25.0
100
AcDbBlockBegin
  2
*D15
 70
     1
 10
0.0
 20
0.0
 30
0.0
  3
*D15
  1

  0
LINE
  5
ADAA
330
9C80
100
AcDbEntity
  8
寸法引出
 48
25.0
370
    -2
100
AcDbLine
 10
2615.442322819259
 20
2342.34349376606
 30
0.0
 11
2401.257557887735
 21
2342.34349376606
 31
0.0
  0
LINE
  5
ADAB
330
9C80
100
AcDbEntity
  8
寸法引出
 48
25.0
370
    -2
100
AcDbLine
 10
2615.442322819259
 20
1942.34349376606
 30
0.0
 11
2401.257557887735
 21
1942.34349376606
 31
0.0
  0
LINE
  5
ADAC
330
9C80
100
AcDbEntity
  8
寸法引出
 48
25.0
370
    -2
100
AcDbLine
 10
2411.257557887735
 20
2312.34349376606
 30
0.0
 11
2411.257557887735
 21
1972.34349376606
 31
0.0
  0
SOLID
  5
ADAD
330
9C80
100
AcDbEntity
  8
寸法引出
 48
25.0
100
AcDbTrace
 10
2406.257557887735
 20
2312.34349376606
 30
0.0
 11
2416.257557887735
 21
2312.34349376606
 31
0.0
 12
2411.257557887735
 22
2342.34349376606
 32
0.0
 13
2411.257557887735
 23
2342.34349376606
 33
0.0
  0
SOLID
  5
ADAE
330
9C80
100
AcDbEntity
  8
寸法引出
 48
25.0
100
AcDbTrace
 10
2406.257557887735
 20
1972.34349376606
 30
0.0
 11
2416.257557887735
 21
1972.34349376606
 31
0.0
 12
2411.257557887735
 22
1942.34349376606
 32
0.0
 13
2411.257557887735
 23
1942.34349376606
 33
0.0
  0
MTEXT
  5
ADAF
330
9C80
100
AcDbEntity
  8
寸法引出
 48
25.0
100
AcDbMText
 10
2371.257557887734
 20
2142.34349376606
 30
0.0
 40
40.0
 41
0.0
 71
     5
 72
     1
  1
\A1;400
  7
SANWA
 11
0.0000000000000001
 21
1.0
 31
0.0
 73
     1
 44
1.0
  0
POINT
  5
ADB0
330
9C80
100
AcDbEntity
  8
DEFPOINTS
 62
     0
 48
25.0
100
AcDbPoint
 10
2635.442322819259
 20
2342.34349376606
 30
0.0
  0
POINT
  5
ADB1
330
9C80
100
AcDbEntity
  8
DEFPOINTS
 62
     0
 48
25.0
100
AcDbPoint
 10
2635.442322819259
 20
1942.34349376606
 30
0.0
  0
POINT
  5
ADB2
330
9C80
100
AcDbEntity
  8
DEFPOINTS
 62
     0
 48
25.0
100
AcDbPoint
 10
2411.257557887735
 20
1942.34349376606
 30
0.0
  0
ENDBLK
  5
9C8B
330
9C80
100
AcDbEntity
  8
0
 48
25.0
100
AcDbBlockEnd
  0
BLOCK
  5
9D0C
330
9D00
100
AcDbEntity
  8
0
 48
25.0
100
AcDbBlockBegin
  2
*D16
 70
     1
 10
0.0
 20
0.0
 30
0.0
  3
*D16
  1

  0
LINE
  5
ADF1
330
9D00
100
AcDbEntity
  8
寸法引出
 48
25.0
370
    -2
100
AcDbLine
 10
1290.415983966123
 20
3185.581463303872
 30
0.0
 11
1238.289995681911
 21
3237.707451588085
 31
0.0
  0
LINE
  5
ADF2
330
9D00
100
AcDbEntity
  8
寸法引出
 48
25.0
370
    -2
100
AcDbLine
 10
1314.558119589854
 20
3141.43932768014
 30
0.0
 11
1198.414433135025
 21
3141.43932768014
 31
0.0
  0
ARC
  5
ADF3
330
9D00
100
AcDbEntity
  8
寸法引出
 48
25.0
370
    -2
100
AcDbCircle
 10
1334.558119589853
 20
3141.43932768014
 30
0.0
 40
126.1436864548278
100
AcDbArc
 50
148.6586321468729
 51
166.3413678531261
  0
SOLID
  5
ADF4
330
9D00
100
AcDbEntity
  8
寸法引出
 48
25.0
100
AcDbTrace
 10
1222.890010822541
 20
3210.141218691581
 30
0.0
 11
1230.751742886274
 21
3203.961156478459
 31
0.0
 12
1245.361063493776
 22
3230.63638377622
 32
0.0
 13
1245.361063493776
 23
3230.63638377622
 33
0.0
  0
SOLID
  5
ADF5
330
9D00
100
AcDbEntity
  8
寸法引出
 48
25.0
100
AcDbTrace
 10
1216.946317576872
 20
3170.631911462172
 30
0.0
 11
1207.017269623681
 21
3171.821031617255
 31
0.0
 12
1208.414433135025
 22
3141.43932768014
 32
0.0
 13
1208.414433135025
 23
3141.43932768014
 33
0.0
  0
MTEXT
  5
ADF6
330
9D00
100
AcDbEntity
  8
寸法引出
 48
25.0
100
AcDbMText
 10
1211.617696532294
 20
3253.195208631562
 30
0.0
 40
40.0
 41
0.0
 71
     5
 72
     1
  1
\A1;45°
  7
SANWA
 11
0.6726459688963661
 21
0.7399644589623673
 31
0.0
 73
     1
 44
1.0
  0
POINT
  5
ADF7
330
9D00
100
AcDbEntity
  8
DEFPOINTS
 62
     0
 48
25.0
100
AcDbPoint
 10
1212.712675019824
 20
3174.087716154091
 30
0.0
  0
POINT
  5
ADF8
330
9D00
100
AcDbEntity
  8
DEFPOINTS
 62
     0
 48
25.0
100
AcDbPoint
 10
1304.558119589854
 20
3171.439327680141
 30
0.0
  0
POINT
  5
ADF9
330
9D00
100
AcDbEntity
  8
DEFPOINTS
 62
     0
 48
25.0
100
AcDbPoint
 10
1674.558119589854
 20
3141.43932768014
 30
0.0
  0
POINT
  5
ADFA
330
9D00
100
AcDbEntity
  8
DEFPOINTS
 62
     0
 48
25.0
100
AcDbPoint
 10
1334.558119589853
 20
3141.43932768014
 30
0.0
  0
POINT
  5
ADFB
330
9D00
100
AcDbEntity
  8
DEFPOINTS
 62
     0
 48
25.0
100
AcDbPoint
 10
1334.558119589853
 20
3141.43932768014
 30
0.0
  0
ENDBLK
  5
9D0D
330
9D00
100
AcDbEntity
  8
0
 48
25.0
100
AcDbBlockEnd
  0
BLOCK
  5
9D1A
330
9D0E
100
AcDbEntity
  8
0
 48
25.0
100
AcDbBlockBegin
  2
*D17
 70
     1
 10
0.0
 20
0.0
 30
0.0
  3
*D17
  1

  0
LINE
  5
AE07
330
9D0E
100
AcDbEntity
  8
寸法引出
 48
25.0
370
    -2
100
AcDbLine
 10
1384.558119589853
 20
3121.43932768014
 30
0.0
 11
1384.558119589853
 21
2926.614935398034
 31
0.0
  0
LINE
  5
AE08
330
9D0E
100
AcDbEntity
  8
寸法引出
 48
25.0
370
    -2
100
AcDbLine
 10
1304.558119589854
 20
3151.43932768014
 30
0.0
 11
1304.558119589854
 21
2926.614935398034
 31
0.0
  0
LINE
  5
AE09
330
9D0E
100
AcDbEntity
  8
寸法引出
 48
25.0
370
    -2
100
AcDbLine
 10
1414.558119589854
 20
2936.614935398035
 30
0.0
 11
1444.558119589854
 21
2936.614935398035
 31
0.0
  0
LINE
  5
AE0A
330
9D0E
100
AcDbEntity
  8
寸法引出
 48
25.0
370
    -2
100
AcDbLine
 10
1274.558119589854
 20
2936.614935398035
 30
0.0
 11
1244.558119589854
 21
2936.614935398035
 31
0.0
  0
LINE
  5
AE0B
330
9D0E
100
AcDbEntity
  8
寸法引出
 48
25.0
370
    -2
100
AcDbLine
 10
1384.558119589853
 20
2936.614935398035
 30
0.0
 11
1304.558119589854
 21
2936.614935398035
 31
0.0
  0
SOLID
  5
AE0C
330
9D0E
100
AcDbEntity
  8
寸法引出
 48
25.0
100
AcDbTrace
 10
1414.558119589854
 20
2941.614935398034
 30
0.0
 11
1414.558119589854
 21
2931.614935398034
 31
0.0
 12
1384.558119589853
 22
2936.614935398035
 32
0.0
 13
1384.558119589853
 23
2936.614935398035
 33
0.0
  0
SOLID
  5
AE0D
330
9D0E
100
AcDbEntity
  8
寸法引出
 48
25.0
100
AcDbTrace
 10
1274.558119589854
 20
2941.614935398034
 30
0.0
 11
1274.558119589854
 21
2931.614935398034
 31
0.0
 12
1304.558119589854
 22
2936.614935398035
 32
0.0
 13
1304.558119589854
 23
2936.614935398035
 33
0.0
  0
MTEXT
  5
AE0E
330
9D0E
100
AcDbEntity
  8
寸法引出
 48
25.0
100
AcDbMText
 10
1344.558119589854
 20
2976.614935398034
 30
0.0
 40
40.0
 41
0.0
 71
     5
 72
     1
  1
\A1;80
  7
SANWA
 73
     1
 44
1.0
  0
POINT
  5
AE0F
330
9D0E
100
AcDbEntity
  8
DEFPOINTS
 62
     0
 48
25.0
100
AcDbPoint
 10
1384.558119589853
 20
3141.43932768014
 30
0.0
  0
POINT
  5
AE10
330
9D0E
100
AcDbEntity
  8
DEFPOINTS
 62
     0
 48
25.0
100
AcDbPoint
 10
1304.558119589854
 20
3171.43932768014
 30
0.0
  0
POINT
  5
AE11
330
9D0E
100
AcDbEntity
  8
DEFPOINTS
 62
     0
 48
25.0
100
AcDbPoint
 10
1304.558119589854
 20
2936.614935398035
 30
0.0
  0
ENDBLK
  5
9D1B
330
9D0E
100
AcDbEntity
  8
0
 48
25.0
100
AcDbBlockEnd
  0
BLOCK
  5
9D26
330
9D1C
100
AcDbEntity
  8
0
 48
25.0
100
AcDbBlockBegin
  2
*D18
 70
     1
 10
0.0
 20
0.0
 30
0.0
  3
*D18
  1

  0
LINE
  5
AE12
330
9D1C
100
AcDbEntity
  8
寸法引出
 48
25.0
370
    -2
100
AcDbLine
 10
1384.558119589853
 20
3121.43932768014
 30
0.0
 11
1384.558119589853
 21
2926.614935398034
 31
0.0
  0
LINE
  5
AE13
330
9D1C
100
AcDbEntity
  8
寸法引出
 48
25.0
370
    -2
100
AcDbLine
 10
1624.558119589854
 20
3121.43932768014
 30
0.0
 11
1624.558119589854
 21
2926.614935398034
 31
0.0
  0
LINE
  5
AE14
330
9D1C
100
AcDbEntity
  8
寸法引出
 48
25.0
370
    -2
100
AcDbLine
 10
1414.558119589854
 20
2936.614935398035
 30
0.0
 11
1594.558119589854
 21
2936.614935398035
 31
0.0
  0
SOLID
  5
AE15
330
9D1C
100
AcDbEntity
  8
寸法引出
 48
25.0
100
AcDbTrace
 10
1414.558119589854
 20
2941.614935398034
 30
0.0
 11
1414.558119589854
 21
2931.614935398034
 31
0.0
 12
1384.558119589853
 22
2936.614935398035
 32
0.0
 13
1384.558119589853
 23
2936.614935398035
 33
0.0
  0
SOLID
  5
AE16
330
9D1C
100
AcDbEntity
  8
寸法引出
 48
25.0
100
AcDbTrace
 10
1594.558119589854
 20
2941.614935398034
 30
0.0
 11
1594.558119589854
 21
2931.614935398034
 31
0.0
 12
1624.558119589854
 22
2936.614935398035
 32
0.0
 13
1624.558119589854
 23
2936.614935398035
 33
0.0
  0
MTEXT
  5
AE17
330
9D1C
100
AcDbEntity
  8
寸法引出
 48
25.0
100
AcDbMText
 10
1504.558119589854
 20
2976.614935398034
 30
0.0
 40
40.0
 41
0.0
 71
     5
 72
     1
  1
\A1;240
  7
SANWA
 73
     1
 44
1.0
  0
POINT
  5
AE18
330
9D1C
100
AcDbEntity
  8
DEFPOINTS
 62
     0
 48
25.0
100
AcDbPoint
 10
1384.558119589853
 20
3141.43932768014
 30
0.0
  0
POINT
  5
AE19
330
9D1C
100
AcDbEntity
  8
DEFPOINTS
 62
     0
 48
25.0
100
AcDbPoint
 10
1624.558119589854
 20
3141.43932768014
 30
0.0
  0
POINT
  5
AE1A
330
9D1C
100
AcDbEntity
  8
DEFPOINTS
 62
     0
 48
25.0
100
AcDbPoint
 10
1624.558119589854
 20
2936.614935398035
 30
0.0
  0
ENDBLK
  5
9D27
330
9D1C
100
AcDbEntity
  8
0
 48
25.0
100
AcDbBlockEnd
  0
BLOCK
  5
9D32
330
9D28
100
AcDbEntity
  8
0
 48
25.0
100
AcDbBlockBegin
  2
*D19
 70
     1
 10
0.0
 20
0.0
 30
0.0
  3
*D19
  1

  0
LINE
  5
AE26
330
9D28
100
AcDbEntity
  8
寸法引出
 48
25.0
370
    -2
100
AcDbLine
 10
1304.558119589854
 20
3741.43932768014
 30
0.0
 11
1304.558119589854
 21
3945.546199616514
 31
0.0
  0
LINE
  5
AE27
330
9D28
100
AcDbEntity
  8
寸法引出
 48
25.0
370
    -2
100
AcDbLine
 10
1704.558119589854
 20
3741.43932768014
 30
0.0
 11
1704.558119589854
 21
3945.546199616514
 31
0.0
  0
LINE
  5
AE28
330
9D28
100
AcDbEntity
  8
寸法引出
 48
25.0
370
    -2
100
AcDbLine
 10
1334.558119589853
 20
3935.546199616513
 30
0.0
 11
1674.558119589854
 21
3935.546199616513
 31
0.0
  0
SOLID
  5
AE29
330
9D28
100
AcDbEntity
  8
寸法引出
 48
25.0
100
AcDbTrace
 10
1334.558119589853
 20
3940.546199616514
 30
0.0
 11
1334.558119589853
 21
3930.546199616514
 31
0.0
 12
1304.558119589854
 22
3935.546199616513
 32
0.0
 13
1304.558119589854
 23
3935.546199616513
 33
0.0
  0
SOLID
  5
AE2A
330
9D28
100
AcDbEntity
  8
寸法引出
 48
25.0
100
AcDbTrace
 10
1674.558119589854
 20
3940.546199616514
 30
0.0
 11
1674.558119589854
 21
3930.546199616514
 31
0.0
 12
1704.558119589854
 22
3935.546199616513
 32
0.0
 13
1704.558119589854
 23
3935.546199616513
 33
0.0
  0
MTEXT
  5
AE2B
330
9D28
100
AcDbEntity
  8
寸法引出
 48
25.0
100
AcDbMText
 10
1504.558119589854
 20
3975.546199616514
 30
0.0
 40
40.0
 41
0.0
 71
     5
 72
     1
  1
\A1;400
  7
SANWA
 73
     1
 44
1.0
  0
POINT
  5
AE2C
330
9D28
100
AcDbEntity
  8
DEFPOINTS
 62
     0
 48
25.0
100
AcDbPoint
 10
1304.558119589854
 20
3721.43932768014
 30
0.0
  0
POINT
  5
AE2D
330
9D28
100
AcDbEntity
  8
DEFPOINTS
 62
     0
 48
25.0
100
AcDbPoint
 10
1704.558119589854
 20
3721.43932768014
 30
0.0
  0
POINT
  5
AE2E
330
9D28
100
AcDbEntity
  8
DEFPOINTS
 62
     0
 48
25.0
100
AcDbPoint
 10
1704.558119589854
 20
3935.546199616513
 30
0.0
  0
ENDBLK
  5
9D33
330
9D28
100
AcDbEntity
  8
0
 48
25.0
100
AcDbBlockEnd
  0
BLOCK
  5
9D40
330
9D34
100
AcDbEntity
  8
0
 48
25.0
100
AcDbBlockBegin
  2
*D20
 70
     1
 10
0.0
 20
0.0
 30
0.0
  3
*D20
  1

  0
LINE
  5
AE2F
330
9D34
100
AcDbEntity
  8
寸法引出
 48
25.0
370
    -2
100
AcDbLine
 10
1354.558119589854
 20
3741.43932768014
 30
0.0
 11
1354.558119589854
 21
3837.42826784042
 31
0.0
  0
LINE
  5
AE30
330
9D34
100
AcDbEntity
  8
寸法引出
 48
25.0
370
    -2
100
AcDbLine
 10
1304.558119589854
 20
3741.43932768014
 30
0.0
 11
1304.558119589854
 21
3837.42826784042
 31
0.0
  0
LINE
  5
AE31
330
9D34
100
AcDbEntity
  8
寸法引出
 48
25.0
370
    -2
100
AcDbLine
 10
1384.558119589853
 20
3827.428267840419
 30
0.0
 11
1414.558119589854
 21
3827.428267840419
 31
0.0
  0
LINE
  5
AE32
330
9D34
100
AcDbEntity
  8
寸法引出
 48
25.0
370
    -2
100
AcDbLine
 10
1274.558119589854
 20
3827.428267840419
 30
0.0
 11
1244.558119589854
 21
3827.428267840419
 31
0.0
  0
LINE
  5
AE33
330
9D34
100
AcDbEntity
  8
寸法引出
 48
25.0
370
    -2
100
AcDbLine
 10
1354.558119589854
 20
3827.428267840419
 30
0.0
 11
1304.558119589854
 21
3827.428267840419
 31
0.0
  0
SOLID
  5
AE34
330
9D34
100
AcDbEntity
  8
寸法引出
 48
25.0
100
AcDbTrace
 10
1384.558119589853
 20
3832.428267840419
 30
0.0
 11
1384.558119589853
 21
3822.42826784042
 31
0.0
 12
1354.558119589854
 22
3827.428267840419
 32
0.0
 13
1354.558119589854
 23
3827.428267840419
 33
0.0
  0
SOLID
  5
AE35
330
9D34
100
AcDbEntity
  8
寸法引出
 48
25.0
100
AcDbTrace
 10
1274.558119589854
 20
3832.428267840419
 30
0.0
 11
1274.558119589854
 21
3822.42826784042
 31
0.0
 12
1304.558119589854
 22
3827.428267840419
 32
0.0
 13
1304.558119589854
 23
3827.428267840419
 33
0.0
  0
MTEXT
  5
AE36
330
9D34
100
AcDbEntity
  8
寸法引出
 48
25.0
100
AcDbMText
 10
1329.558119589854
 20
3867.42826784042
 30
0.0
 40
40.0
 41
0.0
 71
     5
 72
     1
  1
\A1;50
  7
SANWA
 73
     1
 44
1.0
  0
POINT
  5
AE37
330
9D34
100
AcDbEntity
  8
DEFPOINTS
 62
     0
 48
25.0
100
AcDbPoint
 10
1354.558119589854
 20
3721.43932768014
 30
0.0
  0
POINT
  5
AE38
330
9D34
100
AcDbEntity
  8
DEFPOINTS
 62
     0
 48
25.0
100
AcDbPoint
 10
1304.558119589854
 20
3721.43932768014
 30
0.0
  0
POINT
  5
AE39
330
9D34
100
AcDbEntity
  8
DEFPOINTS
 62
     0
 48
25.0
100
AcDbPoint
 10
1304.558119589854
 20
3827.428267840419
 30
0.0
  0
ENDBLK
  5
9D41
330
9D34
100
AcDbEntity
  8
0
 48
25.0
100
AcDbBlockEnd
  0
BLOCK
  5
9D4C
330
9D42
100
AcDbEntity
  8
0
 48
25.0
100
AcDbBlockBegin
  2
*D21
 70
     1
 10
0.0
 20
0.0
 30
0.0
  3
*D21
  1

  0
LINE
  5
AE3A
330
9D42
100
AcDbEntity
  8
寸法引出
 48
25.0
370
    -2
100
AcDbLine
 10
1354.558119589854
 20
3741.43932768014
 30
0.0
 11
1354.558119589854
 21
3837.42826784042
 31
0.0
  0
LINE
  5
AE3B
330
9D42
100
AcDbEntity
  8
寸法引出
 48
25.0
370
    -2
100
AcDbLine
 10
1654.558119589854
 20
3741.43932768014
 30
0.0
 11
1654.558119589854
 21
3837.42826784042
 31
0.0
  0
LINE
  5
AE3C
330
9D42
100
AcDbEntity
  8
寸法引出
 48
25.0
370
    -2
100
AcDbLine
 10
1384.558119589853
 20
3827.428267840419
 30
0.0
 11
1624.558119589854
 21
3827.428267840419
 31
0.0
  0
SOLID
  5
AE3D
330
9D42
100
AcDbEntity
  8
寸法引出
 48
25.0
100
AcDbTrace
 10
1384.558119589853
 20
3832.428267840419
 30
0.0
 11
1384.558119589853
 21
3822.42826784042
 31
0.0
 12
1354.558119589854
 22
3827.428267840419
 32
0.0
 13
1354.558119589854
 23
3827.428267840419
 33
0.0
  0
SOLID
  5
AE3E
330
9D42
100
AcDbEntity
  8
寸法引出
 48
25.0
100
AcDbTrace
 10
1624.558119589854
 20
3832.428267840419
 30
0.0
 11
1624.558119589854
 21
3822.42826784042
 31
0.0
 12
1654.558119589854
 22
3827.428267840419
 32
0.0
 13
1654.558119589854
 23
3827.428267840419
 33
0.0
  0
MTEXT
  5
AE3F
330
9D42
100
AcDbEntity
  8
寸法引出
 48
25.0
100
AcDbMText
 10
1504.558119589854
 20
3867.42826784042
 30
0.0
 40
40.0
 41
0.0
 71
     5
 72
     1
  1
\A1;300
  7
SANWA
 73
     1
 44
1.0
  0
POINT
  5
AE40
330
9D42
100
AcDbEntity
  8
DEFPOINTS
 62
     0
 48
25.0
100
AcDbPoint
 10
1354.558119589854
 20
3721.43932768014
 30
0.0
  0
POINT
  5
AE41
330
9D42
100
AcDbEntity
  8
DEFPOINTS
 62
     0
 48
25.0
100
AcDbPoint
 10
1654.558119589854
 20
3721.43932768014
 30
0.0
  0
POINT
  5
AE42
330
9D42
100
AcDbEntity
  8
DEFPOINTS
 62
     0
 48
25.0
100
AcDbPoint
 10
1654.558119589854
 20
3827.428267840419
 30
0.0
  0
ENDBLK
  5
9D4D
330
9D42
100
AcDbEntity
  8
0
 48
25.0
100
AcDbBlockEnd
  0
BLOCK
  5
9D58
330
9D4E
100
AcDbEntity
  8
0
 48
25.0
100
AcDbBlockBegin
  2
*D22
 70
     1
 10
0.0
 20
0.0
 30
0.0
  3
*D22
  1

  0
LINE
  5
ADDF
330
9D4E
100
AcDbEntity
  8
寸法引出
 48
25.0
370
    -2
100
AcDbLine
 10
1284.558119589854
 20
3721.43932768014
 30
0.0
 11
1085.753554331555
 21
3721.43932768014
 31
0.0
  0
LINE
  5
ADE0
330
9D4E
100
AcDbEntity
  8
寸法引出
 48
25.0
370
    -2
100
AcDbLine
 10
1314.558119589854
 20
3141.43932768014
 30
0.0
 11
1085.753554331555
 21
3141.43932768014
 31
0.0
  0
LINE
  5
ADE1
330
9D4E
100
AcDbEntity
  8
寸法引出
 48
25.0
370
    -2
100
AcDbLine
 10
1095.753554331555
 20
3691.43932768014
 30
0.0
 11
1095.753554331555
 21
3171.43932768014
 31
0.0
  0
SOLID
  5
ADE2
330
9D4E
100
AcDbEntity
  8
寸法引出
 48
25.0
100
AcDbTrace
 10
1090.753554331555
 20
3691.43932768014
 30
0.0
 11
1100.753554331555
 21
3691.43932768014
 31
0.0
 12
1095.753554331555
 22
3721.43932768014
 32
0.0
 13
1095.753554331555
 23
3721.43932768014
 33
0.0
  0
SOLID
  5
ADE3
330
9D4E
100
AcDbEntity
  8
寸法引出
 48
25.0
100
AcDbTrace
 10
1090.753554331555
 20
3171.43932768014
 30
0.0
 11
1100.753554331555
 21
3171.43932768014
 31
0.0
 12
1095.753554331555
 22
3141.43932768014
 32
0.0
 13
1095.753554331555
 23
3141.43932768014
 33
0.0
  0
MTEXT
  5
ADE4
330
9D4E
100
AcDbEntity
  8
寸法引出
 48
25.0
100
AcDbMText
 10
1055.753554331554
 20
3431.43932768014
 30
0.0
 40
40.0
 41
0.0
 71
     5
 72
     1
  1
\A1;580
  7
SANWA
 11
0.0000000000000001
 21
1.0
 31
0.0
 73
     1
 44
1.0
  0
POINT
  5
ADE5
330
9D4E
100
AcDbEntity
  8
DEFPOINTS
 62
     0
 48
25.0
100
AcDbPoint
 10
1304.558119589854
 20
3721.43932768014
 30
0.0
  0
POINT
  5
ADE6
330
9D4E
100
AcDbEntity
  8
DEFPOINTS
 62
     0
 48
25.0
100
AcDbPoint
 10
1334.558119589853
 20
3141.43932768014
 30
0.0
  0
POINT
  5
ADE7
330
9D4E
100
AcDbEntity
  8
DEFPOINTS
 62
     0
 48
25.0
100
AcDbPoint
 10
1095.753554331555
 20
3141.43932768014
 30
0.0
  0
ENDBLK
  5
9D59
330
9D4E
100
AcDbEntity
  8
0
 48
25.0
100
AcDbBlockEnd
  0
BLOCK
  5
9D64
330
9D5A
100
AcDbEntity
  8
0
 48
25.0
100
AcDbBlockBegin
  2
*D23
 70
     1
 10
0.0
 20
0.0
 30
0.0
  3
*D23
  1

  0
LINE
  5
AE57
330
9D5A
100
AcDbEntity
  8
寸法引出
 48
25.0
370
    -2
100
AcDbLine
 10
2615.442322819259
 20
3721.43932768014
 30
0.0
 11
2401.257557887735
 21
3721.43932768014
 31
0.0
  0
LINE
  5
AE58
330
9D5A
100
AcDbEntity
  8
寸法引出
 48
25.0
370
    -2
100
AcDbLine
 10
2625.442322819259
 20
3141.43932768014
 30
0.0
 11
2401.257557887735
 21
3141.43932768014
 31
0.0
  0
LINE
  5
AE59
330
9D5A
100
AcDbEntity
  8
寸法引出
 48
25.0
370
    -2
100
AcDbLine
 10
2411.257557887735
 20
3691.43932768014
 30
0.0
 11
2411.257557887735
 21
3171.43932768014
 31
0.0
  0
SOLID
  5
AE5A
330
9D5A
100
AcDbEntity
  8
寸法引出
 48
25.0
100
AcDbTrace
 10
2406.257557887735
 20
3691.43932768014
 30
0.0
 11
2416.257557887735
 21
3691.43932768014
 31
0.0
 12
2411.257557887735
 22
3721.43932768014
 32
0.0
 13
2411.257557887735
 23
3721.43932768014
 33
0.0
  0
SOLID
  5
AE5B
330
9D5A
100
AcDbEntity
  8
寸法引出
 48
25.0
100
AcDbTrace
 10
2406.257557887735
 20
3171.43932768014
 30
0.0
 11
2416.257557887735
 21
3171.43932768014
 31
0.0
 12
2411.257557887735
 22
3141.43932768014
 32
0.0
 13
2411.257557887735
 23
3141.43932768014
 33
0.0
  0
MTEXT
  5
AE5C
330
9D5A
100
AcDbEntity
  8
寸法引出
 48
25.0
100
AcDbMText
 10
2371.257557887734
 20
3431.43932768014
 30
0.0
 40
40.0
 41
0.0
 71
     5
 72
     1
  1
\A1;580
  7
SANWA
 11
0.0000000000000001
 21
1.0
 31
0.0
 73
     1
 44
1.0
  0
POINT
  5
AE5D
330
9D5A
100
AcDbEntity
  8
DEFPOINTS
 62
     0
 48
25.0
100
AcDbPoint
 10
2635.442322819259
 20
3721.43932768014
 30
0.0
  0
POINT
  5
AE5E
330
9D5A
100
AcDbEntity
  8
DEFPOINTS
 62
     0
 48
25.0
100
AcDbPoint
 10
2645.442322819259
 20
3141.43932768014
 30
0.0
  0
POINT
  5
AE5F
330
9D5A
100
AcDbEntity
  8
DEFPOINTS
 62
     0
 48
25.0
100
AcDbPoint
 10
2411.257557887735
 20
3141.43932768014
 30
0.0
  0
ENDBLK
  5
9D65
330
9D5A
100
AcDbEntity
  8
0
 48
25.0
100
AcDbBlockEnd
  0
BLOCK
  5
9D92
330
9D88
100
AcDbEntity
  8
0
 48
25.0
100
AcDbBlockBegin
  2
*D24
 70
     1
 10
0.0
 20
0.0
 30
0.0
  3
*D24
  1

  0
LINE
  5
ADE8
330
9D88
100
AcDbEntity
  8
寸法引出
 48
25.0
370
    -2
100
AcDbLine
 10
1724.558119589854
 20
3721.43932768014
 30
0.0
 11
2006.659382863696
 21
3721.43932768014
 31
0.0
  0
LINE
  5
ADE9
330
9D88
100
AcDbEntity
  8
寸法引出
 48
25.0
370
    -2
100
AcDbLine
 10
1724.558119589854
 20
3221.43932768014
 30
0.0
 11
2006.659382863696
 21
3221.43932768014
 31
0.0
  0
LINE
  5
ADEA
330
9D88
100
AcDbEntity
  8
寸法引出
 48
25.0
370
    -2
100
AcDbLine
 10
1996.659382863696
 20
3691.43932768014
 30
0.0
 11
1996.659382863695
 21
3251.43932768014
 31
0.0
  0
SOLID
  5
ADEB
330
9D88
100
AcDbEntity
  8
寸法引出
 48
25.0
100
AcDbTrace
 10
1991.659382863696
 20
3691.43932768014
 30
0.0
 11
2001.659382863696
 21
3691.43932768014
 31
0.0
 12
1996.659382863696
 22
3721.43932768014
 32
0.0
 13
1996.659382863696
 23
3721.43932768014
 33
0.0
  0
SOLID
  5
ADEC
330
9D88
100
AcDbEntity
  8
寸法引出
 48
25.0
100
AcDbTrace
 10
1991.659382863695
 20
3251.43932768014
 30
0.0
 11
2001.659382863695
 21
3251.43932768014
 31
0.0
 12
1996.659382863695
 22
3221.43932768014
 32
0.0
 13
1996.659382863695
 23
3221.43932768014
 33
0.0
  0
MTEXT
  5
ADED
330
9D88
100
AcDbEntity
  8
寸法引出
 48
25.0
100
AcDbMText
 10
1956.659382863695
 20
3471.43932768014
 30
0.0
 40
40.0
 41
0.0
 71
     5
 72
     1
  1
\A1;500
  7
SANWA
 11
0.0000000000000001
 21
1.0
 31
0.0
 73
     1
 44
1.0
  0
POINT
  5
ADEE
330
9D88
100
AcDbEntity
  8
DEFPOINTS
 62
     0
 48
25.0
100
AcDbPoint
 10
1704.558119589854
 20
3721.43932768014
 30
0.0
  0
POINT
  5
ADEF
330
9D88
100
AcDbEntity
  8
DEFPOINTS
 62
     0
 48
25.0
100
AcDbPoint
 10
1704.558119589854
 20
3221.43932768014
 30
0.0
  0
POINT
  5
ADF0
330
9D88
100
AcDbEntity
  8
DEFPOINTS
 62
     0
 48
25.0
100
AcDbPoint
 10
1996.659382863695
 20
3221.43932768014
 30
0.0
  0
ENDBLK
  5
9D93
330
9D88
100
AcDbEntity
  8
0
 48
25.0
100
AcDbBlockEnd
  0
BLOCK
  5
9DA0
330
9D94
100
AcDbEntity
  8
0
 48
25.0
100
AcDbBlockBegin
  2
*D25
 70
     1
 10
0.0
 20
0.0
 30
0.0
  3
*D25
  1

  0
LINE
  5
ADFC
330
9D94
100
AcDbEntity
  8
寸法引出
 48
25.0
370
    -2
100
AcDbLine
 10
1724.558119589854
 20
3221.43932768014
 30
0.0
 11
2006.659382863696
 21
3221.43932768014
 31
0.0
  0
LINE
  5
ADFD
330
9D94
100
AcDbEntity
  8
寸法引出
 48
25.0
370
    -2
100
AcDbLine
 10
1694.558119589854
 20
3141.43932768014
 30
0.0
 11
2006.659382863696
 21
3141.43932768014
 31
0.0
  0
LINE
  5
ADFE
330
9D94
100
AcDbEntity
  8
寸法引出
 48
25.0
370
    -2
100
AcDbLine
 10
1996.659382863695
 20
3251.43932768014
 30
0.0
 11
1996.659382863695
 21
3281.43932768014
 31
0.0
  0
LINE
  5
ADFF
330
9D94
100
AcDbEntity
  8
寸法引出
 48
25.0
370
    -2
100
AcDbLine
 10
1996.659382863695
 20
3111.43932768014
 30
0.0
 11
1996.659382863695
 21
3081.43932768014
 31
0.0
  0
LINE
  5
AE00
330
9D94
100
AcDbEntity
  8
寸法引出
 48
25.0
370
    -2
100
AcDbLine
 10
1996.659382863695
 20
3221.43932768014
 30
0.0
 11
1996.659382863695
 21
3141.43932768014
 31
0.0
  0
SOLID
  5
AE01
330
9D94
100
AcDbEntity
  8
寸法引出
 48
25.0
100
AcDbTrace
 10
1991.659382863695
 20
3251.43932768014
 30
0.0
 11
2001.659382863695
 21
3251.43932768014
 31
0.0
 12
1996.659382863695
 22
3221.43932768014
 32
0.0
 13
1996.659382863695
 23
3221.43932768014
 33
0.0
  0
SOLID
  5
AE02
330
9D94
100
AcDbEntity
  8
寸法引出
 48
25.0
100
AcDbTrace
 10
1991.659382863695
 20
3111.43932768014
 30
0.0
 11
2001.659382863695
 21
3111.43932768014
 31
0.0
 12
1996.659382863695
 22
3141.43932768014
 32
0.0
 13
1996.659382863695
 23
3141.43932768014
 33
0.0
  0
MTEXT
  5
AE03
330
9D94
100
AcDbEntity
  8
寸法引出
 48
25.0
100
AcDbMText
 10
1956.659382863695
 20
3181.43932768014
 30
0.0
 40
40.0
 41
0.0
 71
     5
 72
     1
  1
\A1;80
  7
SANWA
 11
0.0000000000000001
 21
1.0
 31
0.0
 73
     1
 44
1.0
  0
POINT
  5
AE04
330
9D94
100
AcDbEntity
  8
DEFPOINTS
 62
     0
 48
25.0
100
AcDbPoint
 10
1704.558119589854
 20
3221.43932768014
 30
0.0
  0
POINT
  5
AE05
330
9D94
100
AcDbEntity
  8
DEFPOINTS
 62
     0
 48
25.0
100
AcDbPoint
 10
1674.558119589854
 20
3141.43932768014
 30
0.0
  0
POINT
  5
AE06
330
9D94
100
AcDbEntity
  8
DEFPOINTS
 62
     0
 48
25.0
100
AcDbPoint
 10
1996.659382863695
 20
3141.43932768014
 30
0.0
  0
ENDBLK
  5
9DA1
330
9D94
100
AcDbEntity
  8
0
 48
25.0
100
AcDbBlockEnd
  0
BLOCK
  5
9DAE
330
9DA2
100
AcDbEntity
  8
0
 48
25.0
100
AcDbBlockBegin
  2
*D26
 70
     1
 10
0.0
 20
0.0
 30
0.0
  3
*D26
  1

  0
LINE
  5
AE1B
330
9DA2
100
AcDbEntity
  8
寸法引出
 48
25.0
370
    -2
100
AcDbLine
 10
1624.558119589854
 20
3121.43932768014
 30
0.0
 11
1624.558119589854
 21
2926.614935398034
 31
0.0
  0
LINE
  5
AE1C
330
9DA2
100
AcDbEntity
  8
寸法引出
 48
25.0
370
    -2
100
AcDbLine
 10
1704.558119589854
 20
3151.43932768014
 30
0.0
 11
1704.558119589854
 21
2926.614935398034
 31
0.0
  0
LINE
  5
AE1D
330
9DA2
100
AcDbEntity
  8
寸法引出
 48
25.0
370
    -2
100
AcDbLine
 10
1594.558119589854
 20
2936.614935398035
 30
0.0
 11
1564.558119589854
 21
2936.614935398035
 31
0.0
  0
LINE
  5
AE1E
330
9DA2
100
AcDbEntity
  8
寸法引出
 48
25.0
370
    -2
100
AcDbLine
 10
1734.558119589854
 20
2936.614935398035
 30
0.0
 11
1764.558119589854
 21
2936.614935398035
 31
0.0
  0
LINE
  5
AE1F
330
9DA2
100
AcDbEntity
  8
寸法引出
 48
25.0
370
    -2
100
AcDbLine
 10
1624.558119589854
 20
2936.614935398035
 30
0.0
 11
1704.558119589854
 21
2936.614935398035
 31
0.0
  0
SOLID
  5
AE20
330
9DA2
100
AcDbEntity
  8
寸法引出
 48
25.0
100
AcDbTrace
 10
1594.558119589854
 20
2941.614935398034
 30
0.0
 11
1594.558119589854
 21
2931.614935398034
 31
0.0
 12
1624.558119589854
 22
2936.614935398035
 32
0.0
 13
1624.558119589854
 23
2936.614935398035
 33
0.0
  0
SOLID
  5
AE21
330
9DA2
100
AcDbEntity
  8
寸法引出
 48
25.0
100
AcDbTrace
 10
1734.558119589854
 20
2941.614935398034
 30
0.0
 11
1734.558119589854
 21
2931.614935398034
 31
0.0
 12
1704.558119589854
 22
2936.614935398035
 32
0.0
 13
1704.558119589854
 23
2936.614935398035
 33
0.0
  0
MTEXT
  5
AE22
330
9DA2
100
AcDbEntity
  8
寸法引出
 48
25.0
100
AcDbMText
 10
1664.558119589854
 20
2976.614935398034
 30
0.0
 40
40.0
 41
0.0
 71
     5
 72
     1
  1
\A1;80
  7
SANWA
 73
     1
 44
1.0
  0
POINT
  5
AE23
330
9DA2
100
AcDbEntity
  8
DEFPOINTS
 62
     0
 48
25.0
100
AcDbPoint
 10
1624.558119589854
 20
3141.43932768014
 30
0.0
  0
POINT
  5
AE24
330
9DA2
100
AcDbEntity
  8
DEFPOINTS
 62
     0
 48
25.0
100
AcDbPoint
 10
1704.558119589854
 20
3171.43932768014
 30
0.0
  0
POINT
  5
AE25
330
9DA2
100
AcDbEntity
  8
DEFPOINTS
 62
     0
 48
25.0
100
AcDbPoint
 10
1704.558119589854
 20
2936.614935398035
 30
0.0
  0
ENDBLK
  5
9DAF
330
9DA2
100
AcDbEntity
  8
0
 48
25.0
100
AcDbBlockEnd
  0
BLOCK
  5
9DE4
330
9DD8
100
AcDbEntity
  8
0
 48
25.0
100
AcDbBlockBegin
  2
*D27
 70
     1
 10
0.0
 20
0.0
 30
0.0
  3
*D27
  1

  0
LINE
  5
AE43
330
9DD8
100
AcDbEntity
  8
寸法引出
 48
25.0
370
    -2
100
AcDbLine
 10
1654.558119589854
 20
3741.43932768014
 30
0.0
 11
1654.558119589854
 21
3837.42826784042
 31
0.0
  0
LINE
  5
AE44
330
9DD8
100
AcDbEntity
  8
寸法引出
 48
25.0
370
    -2
100
AcDbLine
 10
1704.558119589854
 20
3741.43932768014
 30
0.0
 11
1704.558119589854
 21
3837.42826784042
 31
0.0
  0
LINE
  5
AE45
330
9DD8
100
AcDbEntity
  8
寸法引出
 48
25.0
370
    -2
100
AcDbLine
 10
1624.558119589854
 20
3827.428267840419
 30
0.0
 11
1594.558119589854
 21
3827.428267840419
 31
0.0
  0
LINE
  5
AE46
330
9DD8
100
AcDbEntity
  8
寸法引出
 48
25.0
370
    -2
100
AcDbLine
 10
1734.558119589854
 20
3827.428267840419
 30
0.0
 11
1764.558119589854
 21
3827.428267840419
 31
0.0
  0
LINE
  5
AE47
330
9DD8
100
AcDbEntity
  8
寸法引出
 48
25.0
370
    -2
100
AcDbLine
 10
1654.558119589854
 20
3827.428267840419
 30
0.0
 11
1704.558119589854
 21
3827.428267840419
 31
0.0
  0
SOLID
  5
AE48
330
9DD8
100
AcDbEntity
  8
寸法引出
 48
25.0
100
AcDbTrace
 10
1624.558119589854
 20
3832.428267840419
 30
0.0
 11
1624.558119589854
 21
3822.42826784042
 31
0.0
 12
1654.558119589854
 22
3827.428267840419
 32
0.0
 13
1654.558119589854
 23
3827.428267840419
 33
0.0
  0
SOLID
  5
AE49
330
9DD8
100
AcDbEntity
  8
寸法引出
 48
25.0
100
AcDbTrace
 10
1734.558119589854
 20
3832.428267840419
 30
0.0
 11
1734.558119589854
 21
3822.42826784042
 31
0.0
 12
1704.558119589854
 22
3827.428267840419
 32
0.0
 13
1704.558119589854
 23
3827.428267840419
 33
0.0
  0
MTEXT
  5
AE4A
330
9DD8
100
AcDbEntity
  8
寸法引出
 48
25.0
100
AcDbMText
 10
1679.558119589853
 20
3867.42826784042
 30
0.0
 40
40.0
 41
0.0
 71
     5
 72
     1
  1
\A1;50
  7
SANWA
 73
     1
 44
1.0
  0
POINT
  5
AE4B
330
9DD8
100
AcDbEntity
  8
DEFPOINTS
 62
     0
 48
25.0
100
AcDbPoint
 10
1654.558119589854
 20
3721.43932768014
 30
0.0
  0
POINT
  5
AE4C
330
9DD8
100
AcDbEntity
  8
DEFPOINTS
 62
     0
 48
25.0
100
AcDbPoint
 10
1704.558119589854
 20
3721.43932768014
 30
0.0
  0
POINT
  5
AE4D
330
9DD8
100
AcDbEntity
  8
DEFPOINTS
 62
     0
 48
25.0
100
AcDbPoint
 10
1704.558119589854
 20
3827.428267840419
 30
0.0
  0
ENDBLK
  5
9DE5
330
9DD8
100
AcDbEntity
  8
0
 48
25.0
100
AcDbBlockEnd
  0
BLOCK
  5
AA8A
330
AA7E
100
AcDbEntity
  8
0
 48
25.0
100
AcDbBlockBegin
  2
*D28
 70
     1
 10
0.0
 20
0.0
 30
0.0
  3
*D28
  1

  0
LINE
  5
AD2E
330
AA7E
100
AcDbEntity
  8
寸法引出
 48
25.0
370
    -2
100
AcDbLine
 10
3699.631789356667
 20
1032.677873433878
 30
0.0
 11
3699.631789356667
 21
1120.567883054149
 31
0.0
  0
LINE
  5
AD2F
330
AA7E
100
AcDbEntity
  8
寸法引出
 48
25.0
370
    -2
100
AcDbLine
 10
3749.631789356667
 20
1032.677873433878
 30
0.0
 11
3749.631789356667
 21
1120.567883054149
 31
0.0
  0
LINE
  5
AD30
330
AA7E
100
AcDbEntity
  8
寸法引出
 48
25.0
370
    -2
100
AcDbLine
 10
3669.631789356666
 20
1110.567883054149
 30
0.0
 11
3639.631789356666
 21
1110.567883054149
 31
0.0
  0
LINE
  5
AD31
330
AA7E
100
AcDbEntity
  8
寸法引出
 48
25.0
370
    -2
100
AcDbLine
 10
3779.631789356666
 20
1110.567883054149
 30
0.0
 11
3809.631789356666
 21
1110.567883054149
 31
0.0
  0
LINE
  5
AD32
330
AA7E
100
AcDbEntity
  8
寸法引出
 48
25.0
370
    -2
100
AcDbLine
 10
3699.631789356667
 20
1110.567883054149
 30
0.0
 11
3749.631789356667
 21
1110.567883054149
 31
0.0
  0
SOLID
  5
AD33
330
AA7E
100
AcDbEntity
  8
寸法引出
 48
25.0
100
AcDbTrace
 10
3669.631789356666
 20
1115.567883054149
 30
0.0
 11
3669.631789356666
 21
1105.567883054149
 31
0.0
 12
3699.631789356667
 22
1110.567883054149
 32
0.0
 13
3699.631789356667
 23
1110.567883054149
 33
0.0
  0
SOLID
  5
AD34
330
AA7E
100
AcDbEntity
  8
寸法引出
 48
25.0
100
AcDbTrace
 10
3779.631789356666
 20
1115.567883054149
 30
0.0
 11
3779.631789356666
 21
1105.567883054149
 31
0.0
 12
3749.631789356667
 22
1110.567883054149
 32
0.0
 13
3749.631789356667
 23
1110.567883054149
 33
0.0
  0
MTEXT
  5
AD35
330
AA7E
100
AcDbEntity
  8
寸法引出
 48
25.0
100
AcDbMText
 10
3724.631789356667
 20
1150.567883054149
 30
0.0
 40
40.0
 41
0.0
 71
     5
 72
     1
  1
\A1;5
  7
SANWA
 73
     1
 44
1.0
  0
POINT
  5
AD36
330
AA7E
100
AcDbEntity
  8
DEFPOINTS
 62
     0
 48
25.0
100
AcDbPoint
 10
3699.631789356667
 20
1012.677873433878
 30
0.0
  0
POINT
  5
AD37
330
AA7E
100
AcDbEntity
  8
DEFPOINTS
 62
     0
 48
25.0
100
AcDbPoint
 10
3749.631789356667
 20
1012.677873433878
 30
0.0
  0
POINT
  5
AD38
330
AA7E
100
AcDbEntity
  8
DEFPOINTS
 62
     0
 48
25.0
100
AcDbPoint
 10
3749.631789356667
 20
1110.567883054149
 30
0.0
  0
ENDBLK
  5
AA8B
330
AA7E
100
AcDbEntity
  8
0
 48
25.0
100
AcDbBlockEnd
  0
BLOCK
  5
AA96
330
AA8C
100
AcDbEntity
  8
0
 48
25.0
100
AcDbBlockBegin
  2
*D29
 70
     1
 10
0.0
 20
0.0
 30
0.0
  3
*D29
  1

  0
LINE
  5
AD39
330
AA8C
100
AcDbEntity
  8
寸法引出
 48
25.0
370
    -2
100
AcDbLine
 10
3549.631789356666
 20
1032.677873433878
 30
0.0
 11
3549.631789356666
 21
1206.851078528567
 31
0.0
  0
LINE
  5
AD3A
330
AA8C
100
AcDbEntity
  8
寸法引出
 48
25.0
370
    -2
100
AcDbLine
 10
3749.631789356667
 20
1032.677873433878
 30
0.0
 11
3749.631789356667
 21
1206.851078528567
 31
0.0
  0
LINE
  5
AD3B
330
AA8C
100
AcDbEntity
  8
寸法引出
 48
25.0
370
    -2
100
AcDbLine
 10
3579.631789356666
 20
1196.851078528567
 30
0.0
 11
3719.631789356666
 21
1196.851078528567
 31
0.0
  0
SOLID
  5
AD3C
330
AA8C
100
AcDbEntity
  8
寸法引出
 48
25.0
100
AcDbTrace
 10
3579.631789356666
 20
1201.851078528567
 30
0.0
 11
3579.631789356666
 21
1191.851078528567
 31
0.0
 12
3549.631789356666
 22
1196.851078528567
 32
0.0
 13
3549.631789356666
 23
1196.851078528567
 33
0.0
  0
SOLID
  5
AD3D
330
AA8C
100
AcDbEntity
  8
寸法引出
 48
25.0
100
AcDbTrace
 10
3719.631789356666
 20
1201.851078528567
 30
0.0
 11
3719.631789356666
 21
1191.851078528567
 31
0.0
 12
3749.631789356667
 22
1196.851078528567
 32
0.0
 13
3749.631789356667
 23
1196.851078528567
 33
0.0
  0
MTEXT
  5
AD3E
330
AA8C
100
AcDbEntity
  8
寸法引出
 48
25.0
100
AcDbMText
 10
3649.631789356666
 20
1236.851078528567
 30
0.0
 40
40.0
 41
0.0
 71
     5
 72
     1
  1
\A1;20
  7
SANWA
 73
     1
 44
1.0
  0
POINT
  5
AD3F
330
AA8C
100
AcDbEntity
  8
DEFPOINTS
 62
     0
 48
25.0
100
AcDbPoint
 10
3549.631789356666
 20
1012.677873433878
 30
0.0
  0
POINT
  5
AD40
330
AA8C
100
AcDbEntity
  8
DEFPOINTS
 62
     0
 48
25.0
100
AcDbPoint
 10
3749.631789356667
 20
1012.677873433878
 30
0.0
  0
POINT
  5
AD41
330
AA8C
100
AcDbEntity
  8
DEFPOINTS
 62
     0
 48
25.0
100
AcDbPoint
 10
3749.631789356667
 20
1196.851078528567
 30
0.0
  0
ENDBLK
  5
AA97
330
AA8C
100
AcDbEntity
  8
0
 48
25.0
100
AcDbBlockEnd
  0
BLOCK
  5
AAA4
330
AA98
100
AcDbEntity
  8
0
 48
25.0
100
AcDbBlockBegin
  2
*D30
 70
     1
 10
0.0
 20
0.0
 30
0.0
  3
*D30
  1

  0
LINE
  5
AD42
330
AA98
100
AcDbEntity
  8
寸法引出
 48
25.0
370
    -2
100
AcDbLine
 10
3549.631789356666
 20
1032.677873433878
 30
0.0
 11
3549.631789356666
 21
1120.567883054149
 31
0.0
  0
LINE
  5
AD43
330
AA98
100
AcDbEntity
  8
寸法引出
 48
25.0
370
    -2
100
AcDbLine
 10
3599.631789356667
 20
1032.677873433878
 30
0.0
 11
3599.631789356667
 21
1120.567883054149
 31
0.0
  0
LINE
  5
AD44
330
AA98
100
AcDbEntity
  8
寸法引出
 48
25.0
370
    -2
100
AcDbLine
 10
3519.631789356666
 20
1110.567883054149
 30
0.0
 11
3489.631789356666
 21
1110.567883054149
 31
0.0
  0
LINE
  5
AD45
330
AA98
100
AcDbEntity
  8
寸法引出
 48
25.0
370
    -2
100
AcDbLine
 10
3629.631789356666
 20
1110.567883054149
 30
0.0
 11
3659.631789356666
 21
1110.567883054149
 31
0.0
  0
LINE
  5
AD46
330
AA98
100
AcDbEntity
  8
寸法引出
 48
25.0
370
    -2
100
AcDbLine
 10
3549.631789356666
 20
1110.567883054149
 30
0.0
 11
3599.631789356667
 21
1110.567883054149
 31
0.0
  0
SOLID
  5
AD47
330
AA98
100
AcDbEntity
  8
寸法引出
 48
25.0
100
AcDbTrace
 10
3519.631789356666
 20
1115.567883054149
 30
0.0
 11
3519.631789356666
 21
1105.567883054149
 31
0.0
 12
3549.631789356666
 22
1110.567883054149
 32
0.0
 13
3549.631789356666
 23
1110.567883054149
 33
0.0
  0
SOLID
  5
AD48
330
AA98
100
AcDbEntity
  8
寸法引出
 48
25.0
100
AcDbTrace
 10
3629.631789356666
 20
1115.567883054149
 30
0.0
 11
3629.631789356666
 21
1105.567883054149
 31
0.0
 12
3599.631789356667
 22
1110.567883054149
 32
0.0
 13
3599.631789356667
 23
1110.567883054149
 33
0.0
  0
MTEXT
  5
AD49
330
AA98
100
AcDbEntity
  8
寸法引出
 48
25.0
100
AcDbMText
 10
3574.631789356667
 20
1150.567883054149
 30
0.0
 40
40.0
 41
0.0
 71
     5
 72
     1
  1
\A1;5
  7
SANWA
 73
     1
 44
1.0
  0
POINT
  5
AD4A
330
AA98
100
AcDbEntity
  8
DEFPOINTS
 62
     0
 48
25.0
100
AcDbPoint
 10
3549.631789356666
 20
1012.677873433878
 30
0.0
  0
POINT
  5
AD4B
330
AA98
100
AcDbEntity
  8
DEFPOINTS
 62
     0
 48
25.0
100
AcDbPoint
 10
3599.631789356667
 20
1012.677873433878
 30
0.0
  0
POINT
  5
AD4C
330
AA98
100
AcDbEntity
  8
DEFPOINTS
 62
     0
 48
25.0
100
AcDbPoint
 10
3599.631789356667
 20
1110.567883054149
 30
0.0
  0
ENDBLK
  5
AAA5
330
AA98
100
AcDbEntity
  8
0
 48
25.0
100
AcDbBlockEnd
  0
BLOCK
  5
AAB2
330
AAA6
100
AcDbEntity
  8
0
 48
25.0
100
AcDbBlockBegin
  2
*D31
 70
     1
 10
0.0
 20
0.0
 30
0.0
  3
*D31
  1

  0
LINE
  5
AD4D
330
AAA6
100
AcDbEntity
  8
寸法引出
 48
25.0
370
    -2
100
AcDbLine
 10
3599.631789356667
 20
1032.677873433878
 30
0.0
 11
3599.631789356667
 21
1120.567883054149
 31
0.0
  0
LINE
  5
AD4E
330
AAA6
100
AcDbEntity
  8
寸法引出
 48
25.0
370
    -2
100
AcDbLine
 10
3699.631789356667
 20
1032.677873433878
 30
0.0
 11
3699.631789356667
 21
1120.567883054149
 31
0.0
  0
LINE
  5
AD4F
330
AAA6
100
AcDbEntity
  8
寸法引出
 48
25.0
370
    -2
100
AcDbLine
 10
3569.631789356666
 20
1110.567883054149
 30
0.0
 11
3539.631789356667
 21
1110.567883054149
 31
0.0
  0
LINE
  5
AD50
330
AAA6
100
AcDbEntity
  8
寸法引出
 48
25.0
370
    -2
100
AcDbLine
 10
3729.631789356666
 20
1110.567883054149
 30
0.0
 11
3759.631789356666
 21
1110.567883054149
 31
0.0
  0
LINE
  5
AD51
330
AAA6
100
AcDbEntity
  8
寸法引出
 48
25.0
370
    -2
100
AcDbLine
 10
3599.631789356667
 20
1110.567883054149
 30
0.0
 11
3699.631789356667
 21
1110.567883054149
 31
0.0
  0
SOLID
  5
AD52
330
AAA6
100
AcDbEntity
  8
寸法引出
 48
25.0
100
AcDbTrace
 10
3569.631789356666
 20
1115.567883054149
 30
0.0
 11
3569.631789356666
 21
1105.567883054149
 31
0.0
 12
3599.631789356667
 22
1110.567883054149
 32
0.0
 13
3599.631789356667
 23
1110.567883054149
 33
0.0
  0
SOLID
  5
AD53
330
AAA6
100
AcDbEntity
  8
寸法引出
 48
25.0
100
AcDbTrace
 10
3729.631789356666
 20
1115.567883054149
 30
0.0
 11
3729.631789356666
 21
1105.567883054149
 31
0.0
 12
3699.631789356667
 22
1110.567883054149
 32
0.0
 13
3699.631789356667
 23
1110.567883054149
 33
0.0
  0
MTEXT
  5
AD54
330
AAA6
100
AcDbEntity
  8
寸法引出
 48
25.0
100
AcDbMText
 10
3649.631789356666
 20
1150.567883054149
 30
0.0
 40
40.0
 41
0.0
 71
     5
 72
     1
  1
\A1;10
  7
SANWA
 73
     1
 44
1.0
  0
POINT
  5
AD55
330
AAA6
100
AcDbEntity
  8
DEFPOINTS
 62
     0
 48
25.0
100
AcDbPoint
 10
3599.631789356667
 20
1012.677873433878
 30
0.0
  0
POINT
  5
AD56
330
AAA6
100
AcDbEntity
  8
DEFPOINTS
 62
     0
 48
25.0
100
AcDbPoint
 10
3699.631789356667
 20
1012.677873433878
 30
0.0
  0
POINT
  5
AD57
330
AAA6
100
AcDbEntity
  8
DEFPOINTS
 62
     0
 48
25.0
100
AcDbPoint
 10
3699.631789356667
 20
1110.567883054149
 30
0.0
  0
ENDBLK
  5
AAB3
330
AAA6
100
AcDbEntity
  8
0
 48
25.0
100
AcDbBlockEnd
  0
BLOCK
  5
AAC0
330
AAB4
100
AcDbEntity
  8
0
 48
25.0
100
AcDbBlockBegin
  2
*D32
 70
     1
 10
0.0
 20
0.0
 30
0.0
  3
*D32
  1

  0
LINE
  5
AD58
330
AAB4
100
AcDbEntity
  8
寸法引出
 48
25.0
370
    -2
100
AcDbLine
 10
3579.631789356666
 20
912.6778734338786
 30
0.0
 11
3455.514492224123
 21
912.6778734338786
 31
0.0
  0
LINE
  5
AD59
330
AAB4
100
AcDbEntity
  8
寸法引出
 48
25.0
370
    -2
100
AcDbLine
 10
3579.631789356666
 20
1012.677873433878
 30
0.0
 11
3455.514492224123
 21
1012.677873433878
 31
0.0
  0
LINE
  5
AD5A
330
AAB4
100
AcDbEntity
  8
寸法引出
 48
25.0
370
    -2
100
AcDbLine
 10
3465.514492224123
 20
882.6778734338786
 30
0.0
 11
3465.514492224123
 21
852.6778734338787
 31
0.0
  0
LINE
  5
AD5B
330
AAB4
100
AcDbEntity
  8
寸法引出
 48
25.0
370
    -2
100
AcDbLine
 10
3465.514492224124
 20
1042.677873433879
 30
0.0
 11
3465.514492224124
 21
1072.677873433878
 31
0.0
  0
LINE
  5
AD5C
330
AAB4
100
AcDbEntity
  8
寸法引出
 48
25.0
370
    -2
100
AcDbLine
 10
3465.514492224123
 20
912.6778734338786
 30
0.0
 11
3465.514492224123
 21
1012.677873433878
 31
0.0
  0
SOLID
  5
AD5D
330
AAB4
100
AcDbEntity
  8
寸法引出
 48
25.0
100
AcDbTrace
 10
3460.514492224123
 20
882.6778734338786
 30
0.0
 11
3470.514492224123
 21
882.6778734338786
 31
0.0
 12
3465.514492224123
 22
912.6778734338786
 32
0.0
 13
3465.514492224123
 23
912.6778734338786
 33
0.0
  0
SOLID
  5
AD5E
330
AAB4
100
AcDbEntity
  8
寸法引出
 48
25.0
100
AcDbTrace
 10
3460.514492224123
 20
1042.677873433879
 30
0.0
 11
3470.514492224124
 21
1042.677873433879
 31
0.0
 12
3465.514492224123
 22
1012.677873433878
 32
0.0
 13
3465.514492224123
 23
1012.677873433878
 33
0.0
  0
MTEXT
  5
AD5F
330
AAB4
100
AcDbEntity
  8
寸法引出
 48
25.0
100
AcDbMText
 10
3425.514492224123
 20
962.6778734338792
 30
0.0
 40
40.0
 41
0.0
 71
     5
 72
     1
  1
\A1;10
  7
SANWA
 11
0.0000000000000001
 21
1.0
 31
0.0
 73
     1
 44
1.0
  0
POINT
  5
AD60
330
AAB4
100
AcDbEntity
  8
DEFPOINTS
 62
     0
 48
25.0
100
AcDbPoint
 10
3599.631789356667
 20
912.6778734338786
 30
0.0
  0
POINT
  5
AD61
330
AAB4
100
AcDbEntity
  8
DEFPOINTS
 62
     0
 48
25.0
100
AcDbPoint
 10
3599.631789356667
 20
1012.677873433878
 30
0.0
  0
POINT
  5
AD62
330
AAB4
100
AcDbEntity
  8
DEFPOINTS
 62
     0
 48
25.0
100
AcDbPoint
 10
3465.514492224123
 20
1012.677873433878
 30
0.0
  0
ENDBLK
  5
AAC1
330
AAB4
100
AcDbEntity
  8
0
 48
25.0
100
AcDbBlockEnd
  0
BLOCK
  5
AACE
330
AAC2
100
AcDbEntity
  8
0
 48
25.0
100
AcDbBlockBegin
  2
*D33
 70
     1
 10
0.0
 20
0.0
 30
0.0
  3
*D33
  1

  0
LINE
  5
AD6C
330
AAC2
100
AcDbEntity
  8
寸法引出
 48
25.0
370
    -2
100
AcDbLine
 10
1799.463170910155
 20
973.3712771834015
 30
0.0
 11
1799.463170910155
 21
1043.778916802019
 31
0.0
  0
LINE
  5
AD6D
330
AAC2
100
AcDbEntity
  8
寸法引出
 48
25.0
370
    -2
100
AcDbLine
 10
1805.463170910156
 20
979.3712771834016
 30
0.0
 11
1805.463170910156
 21
1043.778916802019
 31
0.0
  0
LINE
  5
AD6E
330
AAC2
100
AcDbEntity
  8
寸法引出
 48
25.0
370
    -2
100
AcDbLine
 10
1769.463170910156
 20
1033.778916802019
 30
0.0
 11
1739.463170910156
 21
1033.778916802019
 31
0.0
  0
LINE
  5
AD6F
330
AAC2
100
AcDbEntity
  8
寸法引出
 48
25.0
370
    -2
100
AcDbLine
 10
1835.463170910156
 20
1033.778916802019
 30
0.0
 11
1865.463170910155
 21
1033.778916802019
 31
0.0
  0
LINE
  5
AD70
330
AAC2
100
AcDbEntity
  8
寸法引出
 48
25.0
370
    -2
100
AcDbLine
 10
1799.463170910155
 20
1033.778916802019
 30
0.0
 11
1805.463170910156
 21
1033.778916802019
 31
0.0
  0
SOLID
  5
AD71
330
AAC2
100
AcDbEntity
  8
寸法引出
 48
25.0
100
AcDbTrace
 10
1769.463170910156
 20
1038.778916802018
 30
0.0
 11
1769.463170910156
 21
1028.778916802018
 31
0.0
 12
1799.463170910155
 22
1033.778916802019
 32
0.0
 13
1799.463170910155
 23
1033.778916802019
 33
0.0
  0
SOLID
  5
AD72
330
AAC2
100
AcDbEntity
  8
寸法引出
 48
25.0
100
AcDbTrace
 10
1835.463170910156
 20
1038.778916802018
 30
0.0
 11
1835.463170910156
 21
1028.778916802018
 31
0.0
 12
1805.463170910156
 22
1033.778916802019
 32
0.0
 13
1805.463170910156
 23
1033.778916802019
 33
0.0
  0
MTEXT
  5
AD73
330
AAC2
100
AcDbEntity
  8
寸法引出
 48
25.0
100
AcDbMText
 10
1802.463170910155
 20
1073.778916802019
 30
0.0
 40
40.0
 41
0.0
 71
     5
 72
     1
  1
\A1;2
  7
SANWA
 73
     1
 44
1.0
  0
POINT
  5
AD74
330
AAC2
100
AcDbEntity
  8
DEFPOINTS
 62
     0
 48
25.0
100
AcDbPoint
 10
1799.463170910155
 20
953.3712771834016
 30
0.0
  0
POINT
  5
AD75
330
AAC2
100
AcDbEntity
  8
DEFPOINTS
 62
     0
 48
25.0
100
AcDbPoint
 10
1805.463170910156
 20
959.3712771834017
 30
0.0
  0
POINT
  5
AD76
330
AAC2
100
AcDbEntity
  8
DEFPOINTS
 62
     0
 48
25.0
100
AcDbPoint
 10
1805.463170910156
 20
1033.778916802019
 30
0.0
  0
ENDBLK
  5
AACF
330
AAC2
100
AcDbEntity
  8
0
 48
25.0
100
AcDbBlockEnd
  0
BLOCK
  5
AADA
330
AAD0
100
AcDbEntity
  8
0
 48
25.0
100
AcDbBlockBegin
  2
*D34
 70
     1
 10
0.0
 20
0.0
 30
0.0
  3
*D34
  1

  0
LINE
  5
AD63
330
AAD0
100
AcDbEntity
  8
寸法引出
 48
25.0
370
    -2
100
AcDbLine
 10
1544.463170910155
 20
979.3712771834016
 30
0.0
 11
1544.463170910155
 21
1043.778916802019
 31
0.0
  0
LINE
  5
AD64
330
AAD0
100
AcDbEntity
  8
寸法引出
 48
25.0
370
    -2
100
AcDbLine
 10
1799.463170910155
 20
973.3712771834015
 30
0.0
 11
1799.463170910155
 21
1043.778916802019
 31
0.0
  0
LINE
  5
AD65
330
AAD0
100
AcDbEntity
  8
寸法引出
 48
25.0
370
    -2
100
AcDbLine
 10
1574.463170910155
 20
1033.778916802019
 30
0.0
 11
1769.463170910156
 21
1033.778916802019
 31
0.0
  0
SOLID
  5
AD66
330
AAD0
100
AcDbEntity
  8
寸法引出
 48
25.0
100
AcDbTrace
 10
1574.463170910155
 20
1038.778916802018
 30
0.0
 11
1574.463170910155
 21
1028.778916802018
 31
0.0
 12
1544.463170910155
 22
1033.778916802019
 32
0.0
 13
1544.463170910155
 23
1033.778916802019
 33
0.0
  0
SOLID
  5
AD67
330
AAD0
100
AcDbEntity
  8
寸法引出
 48
25.0
100
AcDbTrace
 10
1769.463170910156
 20
1038.778916802018
 30
0.0
 11
1769.463170910156
 21
1028.778916802018
 31
0.0
 12
1799.463170910155
 22
1033.778916802019
 32
0.0
 13
1799.463170910155
 23
1033.778916802019
 33
0.0
  0
MTEXT
  5
AD68
330
AAD0
100
AcDbEntity
  8
寸法引出
 48
25.0
100
AcDbMText
 10
1671.963170910156
 20
1073.778916802019
 30
0.0
 40
40.0
 41
0.0
 71
     5
 72
     1
  1
\A1;85
  7
SANWA
 73
     1
 44
1.0
  0
POINT
  5
AD69
330
AAD0
100
AcDbEntity
  8
DEFPOINTS
 62
     0
 48
25.0
100
AcDbPoint
 10
1544.463170910155
 20
959.3712771834017
 30
0.0
  0
POINT
  5
AD6A
330
AAD0
100
AcDbEntity
  8
DEFPOINTS
 62
     0
 48
25.0
100
AcDbPoint
 10
1799.463170910155
 20
953.3712771834016
 30
0.0
  0
POINT
  5
AD6B
330
AAD0
100
AcDbEntity
  8
DEFPOINTS
 62
     0
 48
25.0
100
AcDbPoint
 10
1799.463170910155
 20
1033.778916802019
 30
0.0
  0
ENDBLK
  5
AADB
330
AAD0
100
AcDbEntity
  8
0
 48
25.0
100
AcDbBlockEnd
  0
BLOCK
  5
AAE6
330
AADC
100
AcDbEntity
  8
0
 48
25.0
100
AcDbBlockBegin
  2
*D35
 70
     1
 10
0.0
 20
0.0
 30
0.0
  3
*D35
  1

  0
LINE
  5
AD80
330
AADC
100
AcDbEntity
  8
寸法引出
 48
25.0
370
    -2
100
AcDbLine
 10
1819.463170910161
 20
788.3712771834016
 30
0.0
 11
1962.138017486453
 21
788.3712771834016
 31
0.0
  0
LINE
  5
AD81
330
AADC
100
AcDbEntity
  8
寸法引出
 48
25.0
370
    -2
100
AcDbLine
 10
1819.463170910156
 20
953.3712771834016
 30
0.0
 11
1962.138017486453
 21
953.3712771834016
 31
0.0
  0
LINE
  5
AD82
330
AADC
100
AcDbEntity
  8
寸法引出
 48
25.0
370
    -2
100
AcDbLine
 10
1952.138017486453
 20
818.3712771834017
 30
0.0
 11
1952.138017486453
 21
923.3712771834015
 31
0.0
  0
SOLID
  5
AD83
330
AADC
100
AcDbEntity
  8
寸法引出
 48
25.0
100
AcDbTrace
 10
1947.138017486453
 20
818.3712771834017
 30
0.0
 11
1957.138017486453
 21
818.3712771834017
 31
0.0
 12
1952.138017486453
 22
788.3712771834016
 32
0.0
 13
1952.138017486453
 23
788.3712771834016
 33
0.0
  0
SOLID
  5
AD84
330
AADC
100
AcDbEntity
  8
寸法引出
 48
25.0
100
AcDbTrace
 10
1947.138017486453
 20
923.3712771834015
 30
0.0
 11
1957.138017486453
 21
923.3712771834015
 31
0.0
 12
1952.138017486453
 22
953.3712771834016
 32
0.0
 13
1952.138017486453
 23
953.3712771834016
 33
0.0
  0
MTEXT
  5
AD85
330
AADC
100
AcDbEntity
  8
寸法引出
 48
25.0
100
AcDbMText
 10
1912.138017486453
 20
870.8712771834019
 30
0.0
 40
40.0
 41
0.0
 71
     5
 72
     1
  1
\A1;55
  7
SANWA
 11
0.0000000000000001
 21
1.0
 31
0.0
 73
     1
 44
1.0
  0
POINT
  5
AD86
330
AADC
100
AcDbEntity
  8
DEFPOINTS
 62
     0
 48
25.0
100
AcDbPoint
 10
1799.463170910161
 20
788.3712771834016
 30
0.0
  0
POINT
  5
AD87
330
AADC
100
AcDbEntity
  8
DEFPOINTS
 62
     0
 48
25.0
100
AcDbPoint
 10
1799.463170910155
 20
953.3712771834016
 30
0.0
  0
POINT
  5
AD88
330
AADC
100
AcDbEntity
  8
DEFPOINTS
 62
     0
 48
25.0
100
AcDbPoint
 10
1952.138017486453
 20
953.3712771834016
 30
0.0
  0
ENDBLK
  5
AAE7
330
AADC
100
AcDbEntity
  8
0
 48
25.0
100
AcDbBlockEnd
  0
BLOCK
  5
AAF2
330
AAE8
100
AcDbEntity
  8
0
 48
25.0
100
AcDbBlockBegin
  2
*D36
 70
     1
 10
0.0
 20
0.0
 30
0.0
  3
*D36
  1

  0
LINE
  5
AD77
330
AAE8
100
AcDbEntity
  8
寸法引出
 48
25.0
370
    -2
100
AcDbLine
 10
1544.463170910155
 20
762.3712771834016
 30
0.0
 11
1544.463170910155
 21
678.7005753087414
 31
0.0
  0
LINE
  5
AD78
330
AAE8
100
AcDbEntity
  8
寸法引出
 48
25.0
370
    -2
100
AcDbLine
 10
1694.463170910156
 20
850.8712771834016
 30
0.0
 11
1694.463170910156
 21
678.7005753087414
 31
0.0
  0
LINE
  5
AD79
330
AAE8
100
AcDbEntity
  8
寸法引出
 48
25.0
370
    -2
100
AcDbLine
 10
1574.463170910155
 20
688.7005753087414
 30
0.0
 11
1664.463170910156
 21
688.7005753087414
 31
0.0
  0
SOLID
  5
AD7A
330
AAE8
100
AcDbEntity
  8
寸法引出
 48
25.0
100
AcDbTrace
 10
1574.463170910155
 20
693.7005753087414
 30
0.0
 11
1574.463170910155
 21
683.7005753087415
 31
0.0
 12
1544.463170910155
 22
688.7005753087414
 32
0.0
 13
1544.463170910155
 23
688.7005753087414
 33
0.0
  0
SOLID
  5
AD7B
330
AAE8
100
AcDbEntity
  8
寸法引出
 48
25.0
100
AcDbTrace
 10
1664.463170910156
 20
693.7005753087414
 30
0.0
 11
1664.463170910156
 21
683.7005753087415
 31
0.0
 12
1694.463170910156
 22
688.7005753087414
 32
0.0
 13
1694.463170910156
 23
688.7005753087414
 33
0.0
  0
MTEXT
  5
AD7C
330
AAE8
100
AcDbEntity
  8
寸法引出
 48
25.0
100
AcDbMText
 10
1619.463170910156
 20
728.7005753087414
 30
0.0
 40
40.0
 41
0.0
 71
     5
 72
     1
  1
\A1;50
  7
SANWA
 73
     1
 44
1.0
  0
POINT
  5
AD7D
330
AAE8
100
AcDbEntity
  8
DEFPOINTS
 62
     0
 48
25.0
100
AcDbPoint
 10
1544.463170910155
 20
782.3712771834016
 30
0.0
  0
POINT
  5
AD7E
330
AAE8
100
AcDbEntity
  8
DEFPOINTS
 62
     0
 48
25.0
100
AcDbPoint
 10
1694.463170910156
 20
870.8712771834015
 30
0.0
  0
POINT
  5
AD7F
330
AAE8
100
AcDbEntity
  8
DEFPOINTS
 62
     0
 48
25.0
100
AcDbPoint
 10
1694.463170910156
 20
688.7005753087414
 30
0.0
  0
ENDBLK
  5
AAF3
330
AAE8
100
AcDbEntity
  8
0
 48
25.0
100
AcDbBlockEnd
  0
BLOCK
  5
AB00
330
AAF4
100
AcDbEntity
  8
0
 48
25.0
100
AcDbBlockBegin
  2
*D37
 70
     1
 10
0.0
 20
0.0
 30
0.0
  3
*D37
  1

  0
LINE
  5
AD89
330
AAF4
100
AcDbEntity
  8
寸法引出
 48
25.0
370
    -2
100
AcDbLine
 10
2377.54022515401
 20
762.3712771834016
 30
0.0
 11
2377.54022515401
 21
683.7706937497951
 31
0.0
  0
LINE
  5
AD8A
330
AAF4
100
AcDbEntity
  8
寸法引出
 48
25.0
370
    -2
100
AcDbLine
 10
2387.140225154012
 20
768.3712771834016
 30
0.0
 11
2387.140225154012
 21
683.7706937497951
 31
0.0
  0
LINE
  5
AD8B
330
AAF4
100
AcDbEntity
  8
寸法引出
 48
25.0
370
    -2
100
AcDbLine
 10
2347.54022515401
 20
693.770693749795
 30
0.0
 11
2317.540225154011
 21
693.770693749795
 31
0.0
  0
LINE
  5
AD8C
330
AAF4
100
AcDbEntity
  8
寸法引出
 48
25.0
370
    -2
100
AcDbLine
 10
2417.140225154013
 20
693.770693749795
 30
0.0
 11
2447.140225154013
 21
693.770693749795
 31
0.0
  0
LINE
  5
AD8D
330
AAF4
100
AcDbEntity
  8
寸法引出
 48
25.0
370
    -2
100
AcDbLine
 10
2377.54022515401
 20
693.770693749795
 30
0.0
 11
2387.140225154012
 21
693.770693749795
 31
0.0
  0
SOLID
  5
AD8E
330
AAF4
100
AcDbEntity
  8
寸法引出
 48
25.0
100
AcDbTrace
 10
2347.54022515401
 20
698.7706937497951
 30
0.0
 11
2347.54022515401
 21
688.770693749795
 31
0.0
 12
2377.54022515401
 22
693.770693749795
 32
0.0
 13
2377.54022515401
 23
693.770693749795
 33
0.0
  0
SOLID
  5
AD8F
330
AAF4
100
AcDbEntity
  8
寸法引出
 48
25.0
100
AcDbTrace
 10
2417.140225154013
 20
698.7706937497951
 30
0.0
 11
2417.140225154013
 21
688.770693749795
 31
0.0
 12
2387.140225154012
 22
693.770693749795
 32
0.0
 13
2387.140225154012
 23
693.770693749795
 33
0.0
  0
MTEXT
  5
AD90
330
AAF4
100
AcDbEntity
  8
寸法引出
 48
25.0
100
AcDbMText
 10
2382.340225154012
 20
733.7706937497951
 30
0.0
 40
40.0
 41
0.0
 71
     5
 72
     1
  1
\A1;3.2
  7
SANWA
 73
     1
 44
1.0
  0
POINT
  5
AD91
330
AAF4
100
AcDbEntity
  8
DEFPOINTS
 62
     0
 48
25.0
100
AcDbPoint
 10
2377.54022515401
 20
782.3712771834016
 30
0.0
  0
POINT
  5
AD92
330
AAF4
100
AcDbEntity
  8
DEFPOINTS
 62
     0
 48
25.0
100
AcDbPoint
 10
2387.140225154012
 20
788.3712771834016
 30
0.0
  0
POINT
  5
AD93
330
AAF4
100
AcDbEntity
  8
DEFPOINTS
 62
     0
 48
25.0
100
AcDbPoint
 10
2387.140225154012
 20
693.770693749795
 30
0.0
  0
ENDBLK
  5
AB01
330
AAF4
100
AcDbEntity
  8
0
 48
25.0
100
AcDbBlockEnd
  0
BLOCK
  5
AB0E
330
AB02
100
AcDbEntity
  8
0
 48
25.0
100
AcDbBlockBegin
  2
*D38
 70
     1
 10
0.0
 20
0.0
 30
0.0
  3
*D38
  1

  0
LINE
  5
AD94
330
AB02
100
AcDbEntity
  8
寸法引出
 48
25.0
370
    -2
100
AcDbLine
 10
3629.631789356666
 20
812.6778734338786
 30
0.0
 11
3455.514492224123
 21
812.6778734338786
 31
0.0
  0
LINE
  5
AD95
330
AB02
100
AcDbEntity
  8
寸法引出
 48
25.0
370
    -2
100
AcDbLine
 10
3529.631789356666
 20
842.6778734338785
 30
0.0
 11
3455.514492224123
 21
842.6778734338785
 31
0.0
  0
LINE
  5
AD96
330
AB02
100
AcDbEntity
  8
寸法引出
 48
25.0
370
    -2
100
AcDbLine
 10
3465.514492224123
 20
782.6778734338786
 30
0.0
 11
3465.514492224123
 21
752.6778734338786
 31
0.0
  0
LINE
  5
AD97
330
AB02
100
AcDbEntity
  8
寸法引出
 48
25.0
370
    -2
100
AcDbLine
 10
3465.514492224123
 20
872.6778734338786
 30
0.0
 11
3465.514492224123
 21
902.6778734338787
 31
0.0
  0
LINE
  5
AD98
330
AB02
100
AcDbEntity
  8
寸法引出
 48
25.0
370
    -2
100
AcDbLine
 10
3465.514492224123
 20
812.6778734338786
 30
0.0
 11
3465.514492224123
 21
842.6778734338785
 31
0.0
  0
SOLID
  5
AD99
330
AB02
100
AcDbEntity
  8
寸法引出
 48
25.0
100
AcDbTrace
 10
3460.514492224123
 20
782.6778734338786
 30
0.0
 11
3470.514492224123
 21
782.6778734338786
 31
0.0
 12
3465.514492224123
 22
812.6778734338786
 32
0.0
 13
3465.514492224123
 23
812.6778734338786
 33
0.0
  0
SOLID
  5
AD9A
330
AB02
100
AcDbEntity
  8
寸法引出
 48
25.0
100
AcDbTrace
 10
3460.514492224123
 20
872.6778734338786
 30
0.0
 11
3470.514492224123
 21
872.6778734338786
 31
0.0
 12
3465.514492224123
 22
842.6778734338785
 32
0.0
 13
3465.514492224123
 23
842.6778734338785
 33
0.0
  0
MTEXT
  5
AD9B
330
AB02
100
AcDbEntity
  8
寸法引出
 48
25.0
100
AcDbMText
 10
3425.514492224123
 20
827.6778734338792
 30
0.0
 40
40.0
 41
0.0
 71
     5
 72
     1
  1
\A1;3
  7
SANWA
 11
0.0000000000000001
 21
1.0
 31
0.0
 73
     1
 44
1.0
  0
POINT
  5
AD9C
330
AB02
100
AcDbEntity
  8
DEFPOINTS
 62
     0
 48
25.0
100
AcDbPoint
 10
3649.631789356666
 20
812.6778734338786
 30
0.0
  0
POINT
  5
AD9D
330
AB02
100
AcDbEntity
  8
DEFPOINTS
 62
     0
 48
25.0
100
AcDbPoint
 10
3549.631789356666
 20
842.6778734338785
 30
0.0
  0
POINT
  5
AD9E
330
AB02
100
AcDbEntity
  8
DEFPOINTS
 62
     0
 48
25.0
100
AcDbPoint
 10
3465.514492224123
 20
842.6778734338785
 30
0.0
  0
ENDBLK
  5
AB0F
330
AB02
100
AcDbEntity
  8
0
 48
25.0
100
AcDbBlockEnd
  0
BLOCK
  5
AB1C
330
AB10
100
AcDbEntity
  8
0
 48
25.0
100
AcDbBlockBegin
  2
*D39
 70
     1
 10
0.0
 20
0.0
 30
0.0
  3
*D39
  1

  0
LINE
  5
AD9F
330
AB10
100
AcDbEntity
  8
寸法引出
 48
25.0
370
    -2
100
AcDbLine
 10
3529.631789356666
 20
842.6778734338785
 30
0.0
 11
3455.514492224123
 21
842.6778734338785
 31
0.0
  0
LINE
  5
ADA0
330
AB10
100
AcDbEntity
  8
寸法引出
 48
25.0
370
    -2
100
AcDbLine
 10
3579.631789356666
 20
912.6778734338786
 30
0.0
 11
3455.514492224123
 21
912.6778734338786
 31
0.0
  0
LINE
  5
ADA1
330
AB10
100
AcDbEntity
  8
寸法引出
 48
25.0
370
    -2
100
AcDbLine
 10
3465.514492224123
 20
812.6778734338786
 30
0.0
 11
3465.514492224123
 21
782.6778734338786
 31
0.0
  0
LINE
  5
ADA2
330
AB10
100
AcDbEntity
  8
寸法引出
 48
25.0
370
    -2
100
AcDbLine
 10
3465.514492224123
 20
942.6778734338785
 30
0.0
 11
3465.514492224123
 21
972.6778734338786
 31
0.0
  0
LINE
  5
ADA3
330
AB10
100
AcDbEntity
  8
寸法引出
 48
25.0
370
    -2
100
AcDbLine
 10
3465.514492224123
 20
842.6778734338785
 30
0.0
 11
3465.514492224123
 21
912.6778734338786
 31
0.0
  0
SOLID
  5
ADA4
330
AB10
100
AcDbEntity
  8
寸法引出
 48
25.0
100
AcDbTrace
 10
3460.514492224123
 20
812.6778734338786
 30
0.0
 11
3470.514492224123
 21
812.6778734338786
 31
0.0
 12
3465.514492224123
 22
842.6778734338785
 32
0.0
 13
3465.514492224123
 23
842.6778734338785
 33
0.0
  0
SOLID
  5
ADA5
330
AB10
100
AcDbEntity
  8
寸法引出
 48
25.0
100
AcDbTrace
 10
3460.514492224123
 20
942.6778734338785
 30
0.0
 11
3470.514492224123
 21
942.6778734338785
 31
0.0
 12
3465.514492224123
 22
912.6778734338786
 32
0.0
 13
3465.514492224123
 23
912.6778734338786
 33
0.0
  0
MTEXT
  5
ADA6
330
AB10
100
AcDbEntity
  8
寸法引出
 48
25.0
100
AcDbMText
 10
3425.514492224123
 20
877.6778734338792
 30
0.0
 40
40.0
 41
0.0
 71
     5
 72
     1
  1
\A1;7
  7
SANWA
 11
0.0000000000000001
 21
1.0
 31
0.0
 73
     1
 44
1.0
  0
POINT
  5
ADA7
330
AB10
100
AcDbEntity
  8
DEFPOINTS
 62
     0
 48
25.0
100
AcDbPoint
 10
3549.631789356666
 20
842.6778734338785
 30
0.0
  0
POINT
  5
ADA8
330
AB10
100
AcDbEntity
  8
DEFPOINTS
 62
     0
 48
25.0
100
AcDbPoint
 10
3599.631789356667
 20
912.6778734338786
 30
0.0
  0
POINT
  5
ADA9
330
AB10
100
AcDbEntity
  8
DEFPOINTS
 62
     0
 48
25.0
100
AcDbPoint
 10
3465.514492224123
 20
912.6778734338786
 30
0.0
  0
ENDBLK
  5
AB1D
330
AB10
100
AcDbEntity
  8
0
 48
25.0
100
AcDbBlockEnd
  0
BLOCK
  5
ABB2
330
ABA8
100
AcDbEntity
  8
0
 48
25.0
100
AcDbBlockBegin
  2
*D40
 70
     1
 10
0.0
 20
0.0
 30
0.0
  3
*D40
  1

  0
LINE
  5
ADD6
330
ABA8
100
AcDbEntity
  8
寸法引出
 48
25.0
370
    -2
100
AcDbLine
 10
1284.558119589854
 20
3721.43932768014
 30
0.0
 11
1195.832922002652
 21
3721.43932768014
 31
0.0
  0
LINE
  5
ADD7
330
ABA8
100
AcDbEntity
  8
寸法引出
 48
25.0
370
    -2
100
AcDbLine
 10
1284.558119589854
 20
3571.43932768014
 30
0.0
 11
1195.832922002651
 21
3571.43932768014
 31
0.0
  0
LINE
  5
ADD8
330
ABA8
100
AcDbEntity
  8
寸法引出
 48
25.0
370
    -2
100
AcDbLine
 10
1205.832922002652
 20
3691.43932768014
 30
0.0
 11
1205.832922002652
 21
3601.439327680139
 31
0.0
  0
SOLID
  5
ADD9
330
ABA8
100
AcDbEntity
  8
寸法引出
 48
25.0
100
AcDbTrace
 10
1200.832922002652
 20
3691.43932768014
 30
0.0
 11
1210.832922002651
 21
3691.43932768014
 31
0.0
 12
1205.832922002652
 22
3721.43932768014
 32
0.0
 13
1205.832922002652
 23
3721.43932768014
 33
0.0
  0
SOLID
  5
ADDA
330
ABA8
100
AcDbEntity
  8
寸法引出
 48
25.0
100
AcDbTrace
 10
1200.832922002652
 20
3601.439327680139
 30
0.0
 11
1210.832922002651
 21
3601.439327680139
 31
0.0
 12
1205.832922002651
 22
3571.43932768014
 32
0.0
 13
1205.832922002651
 23
3571.43932768014
 33
0.0
  0
MTEXT
  5
ADDB
330
ABA8
100
AcDbEntity
  8
寸法引出
 48
25.0
100
AcDbMText
 10
1165.832922002651
 20
3646.439327680141
 30
0.0
 40
40.0
 41
0.0
 71
     5
 72
     1
  1
\A1;150
  7
SANWA
 11
0.0000000000000001
 21
1.0
 31
0.0
 73
     1
 44
1.0
  0
POINT
  5
ADDC
330
ABA8
100
AcDbEntity
  8
DEFPOINTS
 62
     0
 48
25.0
100
AcDbPoint
 10
1304.558119589854
 20
3721.43932768014
 30
0.0
  0
POINT
  5
ADDD
330
ABA8
100
AcDbEntity
  8
DEFPOINTS
 62
     0
 48
25.0
100
AcDbPoint
 10
1304.558119589854
 20
3571.43932768014
 30
0.0
  0
POINT
  5
ADDE
330
ABA8
100
AcDbEntity
  8
DEFPOINTS
 62
     0
 48
25.0
100
AcDbPoint
 10
1205.832922002651
 20
3571.43932768014
 30
0.0
  0
ENDBLK
  5
ABB3
330
ABA8
100
AcDbEntity
  8
0
 48
25.0
100
AcDbBlockEnd
  0
BLOCK
  5
AC0B
330
AC01
100
AcDbEntity
  8
0
 48
25.0
100
AcDbBlockBegin
  2
*D41
 70
     1
 10
0.0
 20
0.0
 30
0.0
  3
*D41
  1

  0
LINE
  5
AE4E
330
AC01
100
AcDbEntity
  8
寸法引出
 48
25.0
370
    -2
100
AcDbLine
 10
2615.442322819259
 20
3721.43932768014
 30
0.0
 11
2538.536445123837
 21
3721.43932768014
 31
0.0
  0
LINE
  5
AE4F
330
AC01
100
AcDbEntity
  8
寸法引出
 48
25.0
370
    -2
100
AcDbLine
 10
2615.442322819259
 20
3571.43932768014
 30
0.0
 11
2538.536445123837
 21
3571.43932768014
 31
0.0
  0
LINE
  5
AE50
330
AC01
100
AcDbEntity
  8
寸法引出
 48
25.0
370
    -2
100
AcDbLine
 10
2548.536445123836
 20
3691.43932768014
 30
0.0
 11
2548.536445123836
 21
3601.439327680139
 31
0.0
  0
SOLID
  5
AE51
330
AC01
100
AcDbEntity
  8
寸法引出
 48
25.0
100
AcDbTrace
 10
2543.536445123836
 20
3691.43932768014
 30
0.0
 11
2553.536445123836
 21
3691.43932768014
 31
0.0
 12
2548.536445123836
 22
3721.43932768014
 32
0.0
 13
2548.536445123836
 23
3721.43932768014
 33
0.0
  0
SOLID
  5
AE52
330
AC01
100
AcDbEntity
  8
寸法引出
 48
25.0
100
AcDbTrace
 10
2543.536445123836
 20
3601.439327680139
 30
0.0
 11
2553.536445123836
 21
3601.439327680139
 31
0.0
 12
2548.536445123836
 22
3571.43932768014
 32
0.0
 13
2548.536445123836
 23
3571.43932768014
 33
0.0
  0
MTEXT
  5
AE53
330
AC01
100
AcDbEntity
  8
寸法引出
 48
25.0
100
AcDbMText
 10
2508.536445123835
 20
3646.439327680141
 30
0.0
 40
40.0
 41
0.0
 71
     5
 72
     1
  1
\A1;150
  7
SANWA
 11
0.0000000000000001
 21
1.0
 31
0.0
 73
     1
 44
1.0
  0
POINT
  5
AE54
330
AC01
100
AcDbEntity
  8
DEFPOINTS
 62
     0
 48
25.0
100
AcDbPoint
 10
2635.442322819259
 20
3721.43932768014
 30
0.0
  0
POINT
  5
AE55
330
AC01
100
AcDbEntity
  8
DEFPOINTS
 62
     0
 48
25.0
100
AcDbPoint
 10
2635.442322819259
 20
3571.43932768014
 30
0.0
  0
POINT
  5
AE56
330
AC01
100
AcDbEntity
  8
DEFPOINTS
 62
     0
 48
25.0
100
AcDbPoint
 10
2548.536445123836
 20
3571.43932768014
 30
0.0
  0
ENDBLK
  5
AC0C
330
AC01
100
AcDbEntity
  8
0
 48
25.0
100
AcDbBlockEnd
  0
BLOCK
  5
AC3C
330
AC30
100
AcDbEntity
  8
0
 48
25.0
100
AcDbBlockBegin
  2
*D42
 70
     1
 10
0.0
 20
0.0
 30
0.0
  3
*D42
  1

  0
LINE
  5
AE60
330
AC30
100
AcDbEntity
  8
寸法引出
 48
25.0
370
    -2
100
AcDbLine
 10
2635.442322819259
 20
3615.93932768014
 30
0.0
 11
2635.442322819259
 21
3636.497818617495
 31
0.0
  0
LINE
  5
AE61
330
AC30
100
AcDbEntity
  8
寸法引出
 48
25.0
370
    -2
100
AcDbLine
 10
2685.442322819259
 20
3591.43932768014
 30
0.0
 11
2685.442322819259
 21
3636.497818617495
 31
0.0
  0
LINE
  5
AE62
330
AC30
100
AcDbEntity
  8
寸法引出
 48
25.0
370
    -2
100
AcDbLine
 10
2605.442322819259
 20
3626.497818617496
 30
0.0
 11
2575.442322819259
 21
3626.497818617496
 31
0.0
  0
LINE
  5
AE63
330
AC30
100
AcDbEntity
  8
寸法引出
 48
25.0
370
    -2
100
AcDbLine
 10
2715.442322819259
 20
3626.497818617496
 30
0.0
 11
2745.442322819259
 21
3626.497818617496
 31
0.0
  0
LINE
  5
AE64
330
AC30
100
AcDbEntity
  8
寸法引出
 48
25.0
370
    -2
100
AcDbLine
 10
2635.442322819259
 20
3626.497818617496
 30
0.0
 11
2685.442322819259
 21
3626.497818617496
 31
0.0
  0
SOLID
  5
AE65
330
AC30
100
AcDbEntity
  8
寸法引出
 48
25.0
100
AcDbTrace
 10
2605.442322819259
 20
3631.497818617496
 30
0.0
 11
2605.442322819259
 21
3621.497818617496
 31
0.0
 12
2635.442322819259
 22
3626.497818617496
 32
0.0
 13
2635.442322819259
 23
3626.497818617496
 33
0.0
  0
SOLID
  5
AE66
330
AC30
100
AcDbEntity
  8
寸法引出
 48
25.0
100
AcDbTrace
 10
2715.442322819259
 20
3631.497818617496
 30
0.0
 11
2715.442322819259
 21
3621.497818617496
 31
0.0
 12
2685.442322819259
 22
3626.497818617496
 32
0.0
 13
2685.442322819259
 23
3626.497818617496
 33
0.0
  0
MTEXT
  5
AE67
330
AC30
100
AcDbEntity
  8
寸法引出
 48
25.0
100
AcDbMText
 10
2660.442322819259
 20
3666.497818617495
 30
0.0
 40
40.0
 41
0.0
 71
     5
 72
     1
  1
\A1;50
  7
SANWA
 73
     1
 44
1.0
  0
POINT
  5
AE68
330
AC30
100
AcDbEntity
  8
DEFPOINTS
 62
     0
 48
25.0
100
AcDbPoint
 10
2635.442322819259
 20
3595.93932768014
 30
0.0
  0
POINT
  5
AE69
330
AC30
100
AcDbEntity
  8
DEFPOINTS
 62
     0
 48
25.0
100
AcDbPoint
 10
2685.442322819259
 20
3571.43932768014
 30
0.0
  0
POINT
  5
AE6A
330
AC30
100
AcDbEntity
  8
DEFPOINTS
 62
     0
 48
25.0
100
AcDbPoint
 10
2685.442322819259
 20
3626.497818617496
 30
0.0
  0
ENDBLK
  5
AC3D
330
AC30
100
AcDbEntity
  8
0
 48
25.0
100
AcDbBlockEnd
  0
BLOCK
  5
AC56
330
AC4C
100
AcDbEntity
  8
0
 48
25.0
100
AcDbBlockBegin
  2
*D43
 70
     1
 10
0.0
 20
0.0
 30
0.0
  3
*D43
  1

  0
LINE
  5
ADC5
330
AC4C
100
AcDbEntity
  8
寸法引出
 48
25.0
370
    -2
100
AcDbLine
 10
2635.442322819259
 20
3131.43932768014
 30
0.0
 11
2635.442322819259
 21
2962.214050898226
 31
0.0
  0
LINE
  5
ADC6
330
AC4C
100
AcDbEntity
  8
寸法引出
 48
25.0
370
    -2
100
AcDbLine
 10
4635.442322819259
 20
3131.43932768014
 30
0.0
 11
4635.442322819259
 21
2962.214050898226
 31
0.0
  0
LINE
  5
ADC7
330
AC4C
100
AcDbEntity
  8
寸法引出
 48
25.0
370
    -2
100
AcDbLine
 10
2665.442322819259
 20
2972.214050898227
 30
0.0
 11
4605.442322819259
 21
2972.214050898227
 31
0.0
  0
SOLID
  5
ADC8
330
AC4C
100
AcDbEntity
  8
寸法引出
 48
25.0
100
AcDbTrace
 10
2665.442322819259
 20
2977.214050898226
 30
0.0
 11
2665.442322819259
 21
2967.214050898226
 31
0.0
 12
2635.442322819259
 22
2972.214050898227
 32
0.0
 13
2635.442322819259
 23
2972.214050898227
 33
0.0
  0
SOLID
  5
ADC9
330
AC4C
100
AcDbEntity
  8
寸法引出
 48
25.0
100
AcDbTrace
 10
4605.442322819259
 20
2977.214050898226
 30
0.0
 11
4605.442322819259
 21
2967.214050898226
 31
0.0
 12
4635.442322819259
 22
2972.214050898227
 32
0.0
 13
4635.442322819259
 23
2972.214050898227
 33
0.0
  0
MTEXT
  5
ADCA
330
AC4C
100
AcDbEntity
  8
寸法引出
 48
25.0
100
AcDbMText
 10
3635.442322819259
 20
3012.214050898226
 30
0.0
 40
40.0
 41
0.0
 71
     5
 72
     1
  1
\A1;2000
  7
SANWA
 73
     1
 44
1.0
  0
POINT
  5
ADCB
330
AC4C
100
AcDbEntity
  8
DEFPOINTS
 62
     0
 48
25.0
100
AcDbPoint
 10
2635.442322819259
 20
3151.43932768014
 30
0.0
  0
POINT
  5
ADCC
330
AC4C
100
AcDbEntity
  8
DEFPOINTS
 62
     0
 48
25.0
100
AcDbPoint
 10
4635.442322819259
 20
3151.43932768014
 30
0.0
  0
POINT
  5
ADCD
330
AC4C
100
AcDbEntity
  8
DEFPOINTS
 62
     0
 48
25.0
100
AcDbPoint
 10
4635.442322819259
 20
2972.214050898227
 30
0.0
  0
ENDBLK
  5
AC57
330
AC4C
100
AcDbEntity
  8
0
 48
25.0
100
AcDbBlockEnd
  0
BLOCK
  5
B11A
330
B10E
100
AcDbEntity
  8
0
 48
25.0
100
AcDbBlockBegin
  2
*D44
 70
     1
 10
0.0
 20
0.0
 30
0.0
  3
*D44
  1

  0
LINE
  5
C0A4
330
B10E
100
AcDbEntity
  8
寸法引出
 48
25.0
370
    -2
100
AcDbLine
 10
2377.54022515401
 20
762.3712771834016
 30
0.0
 11
2377.54022515401
 21
683.7706937497951
 31
0.0
  0
LINE
  5
C0A5
330
B10E
100
AcDbEntity
  8
寸法引出
 48
25.0
370
    -2
100
AcDbLine
 10
2387.140225154012
 20
768.3712771834016
 30
0.0
 11
2387.140225154012
 21
683.7706937497951
 31
0.0
  0
LINE
  5
C0A6
330
B10E
100
AcDbEntity
  8
寸法引出
 48
25.0
370
    -2
100
AcDbLine
 10
2347.54022515401
 20
693.770693749795
 30
0.0
 11
2317.540225154011
 21
693.770693749795
 31
0.0
  0
LINE
  5
C0A7
330
B10E
100
AcDbEntity
  8
寸法引出
 48
25.0
370
    -2
100
AcDbLine
 10
2417.140225154013
 20
693.770693749795
 30
0.0
 11
2447.140225154013
 21
693.770693749795
 31
0.0
  0
LINE
  5
C0A8
330
B10E
100
AcDbEntity
  8
寸法引出
 48
25.0
370
    -2
100
AcDbLine
 10
2377.54022515401
 20
693.770693749795
 30
0.0
 11
2387.140225154012
 21
693.770693749795
 31
0.0
  0
SOLID
  5
C0A9
330
B10E
100
AcDbEntity
  8
寸法引出
 48
25.0
100
AcDbTrace
 10
2347.54022515401
 20
698.7706937497951
 30
0.0
 11
2347.54022515401
 21
688.770693749795
 31
0.0
 12
2377.54022515401
 22
693.770693749795
 32
0.0
 13
2377.54022515401
 23
693.770693749795
 33
0.0
  0
SOLID
  5
C0AA
330
B10E
100
AcDbEntity
  8
寸法引出
 48
25.0
100
AcDbTrace
 10
2417.140225154013
 20
698.7706937497951
 30
0.0
 11
2417.140225154013
 21
688.770693749795
 31
0.0
 12
2387.140225154012
 22
693.770693749795
 32
0.0
 13
2387.140225154012
 23
693.770693749795
 33
0.0
  0
MTEXT
  5
C0AB
330
B10E
100
AcDbEntity
  8
寸法引出
 48
25.0
100
AcDbMText
 10
2382.340225154012
 20
733.7706937497951
 30
0.0
 40
40.0
 41
0.0
 71
     5
 72
     1
  1
\A1;3.2
  7
SANWA
 73
     1
 44
1.0
  0
POINT
  5
C0AC
330
B10E
100
AcDbEntity
  8
DEFPOINTS
 62
     0
 48
25.0
100
AcDbPoint
 10
2377.54022515401
 20
782.3712771834016
 30
0.0
  0
POINT
  5
C0AD
330
B10E
100
AcDbEntity
  8
DEFPOINTS
 62
     0
 48
25.0
100
AcDbPoint
 10
2387.140225154012
 20
788.3712771834016
 30
0.0
  0
POINT
  5
C0AE
330
B10E
100
AcDbEntity
  8
DEFPOINTS
 62
     0
 48
25.0
100
AcDbPoint
 10
2387.140225154012
 20
693.770693749795
 30
0.0
  0
ENDBLK
  5
B11B
330
B10E
100
AcDbEntity
  8
0
 48
25.0
100
AcDbBlockEnd
  0
BLOCK
  5
B126
330
B11C
100
AcDbEntity
  8
0
 48
25.0
100
AcDbBlockBegin
  2
*D45
 70
     1
 10
0.0
 20
0.0
 30
0.0
  3
*D45
  1

  0
LINE
  5
C09B
330
B11C
100
AcDbEntity
  8
寸法引出
 48
25.0
370
    -2
100
AcDbLine
 10
1819.463170910161
 20
788.3712771834016
 30
0.0
 11
1962.138017486453
 21
788.3712771834016
 31
0.0
  0
LINE
  5
C09C
330
B11C
100
AcDbEntity
  8
寸法引出
 48
25.0
370
    -2
100
AcDbLine
 10
1819.463170910156
 20
953.3712771834016
 30
0.0
 11
1962.138017486453
 21
953.3712771834016
 31
0.0
  0
LINE
  5
C09D
330
B11C
100
AcDbEntity
  8
寸法引出
 48
25.0
370
    -2
100
AcDbLine
 10
1952.138017486453
 20
818.3712771834017
 30
0.0
 11
1952.138017486453
 21
923.3712771834015
 31
0.0
  0
SOLID
  5
C09E
330
B11C
100
AcDbEntity
  8
寸法引出
 48
25.0
100
AcDbTrace
 10
1947.138017486453
 20
818.3712771834017
 30
0.0
 11
1957.138017486453
 21
818.3712771834017
 31
0.0
 12
1952.138017486453
 22
788.3712771834016
 32
0.0
 13
1952.138017486453
 23
788.3712771834016
 33
0.0
  0
SOLID
  5
C09F
330
B11C
100
AcDbEntity
  8
寸法引出
 48
25.0
100
AcDbTrace
 10
1947.138017486453
 20
923.3712771834015
 30
0.0
 11
1957.138017486453
 21
923.3712771834015
 31
0.0
 12
1952.138017486453
 22
953.3712771834016
 32
0.0
 13
1952.138017486453
 23
953.3712771834016
 33
0.0
  0
MTEXT
  5
C0A0
330
B11C
100
AcDbEntity
  8
寸法引出
 48
25.0
100
AcDbMText
 10
1912.138017486453
 20
870.8712771834019
 30
0.0
 40
40.0
 41
0.0
 71
     5
 72
     1
  1
\A1;55
  7
SANWA
 11
0.0000000000000001
 21
1.0
 31
0.0
 73
     1
 44
1.0
  0
POINT
  5
C0A1
330
B11C
100
AcDbEntity
  8
DEFPOINTS
 62
     0
 48
25.0
100
AcDbPoint
 10
1799.463170910161
 20
788.3712771834016
 30
0.0
  0
POINT
  5
C0A2
330
B11C
100
AcDbEntity
  8
DEFPOINTS
 62
     0
 48
25.0
100
AcDbPoint
 10
1799.463170910155
 20
953.3712771834016
 30
0.0
  0
POINT
  5
C0A3
330
B11C
100
AcDbEntity
  8
DEFPOINTS
 62
     0
 48
25.0
100
AcDbPoint
 10
1952.138017486453
 20
953.3712771834016
 30
0.0
  0
ENDBLK
  5
B127
330
B11C
100
AcDbEntity
  8
0
 48
25.0
100
AcDbBlockEnd
  0
BLOCK
  5
B132
330
B128
100
AcDbEntity
  8
0
 48
25.0
100
AcDbBlockBegin
  2
*D46
 70
     1
 10
0.0
 20
0.0
 30
0.0
  3
*D46
  1

  0
LINE
  5
C07E
330
B128
100
AcDbEntity
  8
寸法引出
 48
25.0
370
    -2
100
AcDbLine
 10
1544.463170910155
 20
762.3712771834016
 30
0.0
 11
1544.463170910155
 21
678.7005753087414
 31
0.0
  0
LINE
  5
C07F
330
B128
100
AcDbEntity
  8
寸法引出
 48
25.0
370
    -2
100
AcDbLine
 10
1694.463170910156
 20
850.8712771834016
 30
0.0
 11
1694.463170910156
 21
678.7005753087414
 31
0.0
  0
LINE
  5
C080
330
B128
100
AcDbEntity
  8
寸法引出
 48
25.0
370
    -2
100
AcDbLine
 10
1574.463170910155
 20
688.7005753087414
 30
0.0
 11
1664.463170910156
 21
688.7005753087414
 31
0.0
  0
SOLID
  5
C081
330
B128
100
AcDbEntity
  8
寸法引出
 48
25.0
100
AcDbTrace
 10
1574.463170910155
 20
693.7005753087414
 30
0.0
 11
1574.463170910155
 21
683.7005753087415
 31
0.0
 12
1544.463170910155
 22
688.7005753087414
 32
0.0
 13
1544.463170910155
 23
688.7005753087414
 33
0.0
  0
SOLID
  5
C082
330
B128
100
AcDbEntity
  8
寸法引出
 48
25.0
100
AcDbTrace
 10
1664.463170910156
 20
693.7005753087414
 30
0.0
 11
1664.463170910156
 21
683.7005753087415
 31
0.0
 12
1694.463170910156
 22
688.7005753087414
 32
0.0
 13
1694.463170910156
 23
688.7005753087414
 33
0.0
  0
MTEXT
  5
C083
330
B128
100
AcDbEntity
  8
寸法引出
 48
25.0
100
AcDbMText
 10
1619.463170910156
 20
728.7005753087414
 30
0.0
 40
40.0
 41
0.0
 71
     5
 72
     1
  1
\A1;50
  7
SANWA
 73
     1
 44
1.0
  0
POINT
  5
C084
330
B128
100
AcDbEntity
  8
DEFPOINTS
 62
     0
 48
25.0
100
AcDbPoint
 10
1544.463170910155
 20
782.3712771834016
 30
0.0
  0
POINT
  5
C085
330
B128
100
AcDbEntity
  8
DEFPOINTS
 62
     0
 48
25.0
100
AcDbPoint
 10
1694.463170910156
 20
870.8712771834015
 30
0.0
  0
POINT
  5
C086
330
B128
100
AcDbEntity
  8
DEFPOINTS
 62
     0
 48
25.0
100
AcDbPoint
 10
1694.463170910156
 20
688.7005753087414
 30
0.0
  0
ENDBLK
  5
B133
330
B128
100
AcDbEntity
  8
0
 48
25.0
100
AcDbBlockEnd
  0
BLOCK
  5
B140
330
B134
100
AcDbEntity
  8
0
 48
25.0
100
AcDbBlockBegin
  2
*D47
 70
     1
 10
0.0
 20
0.0
 30
0.0
  3
*D47
  1

  0
LINE
  5
C090
330
B134
100
AcDbEntity
  8
寸法引出
 48
25.0
370
    -2
100
AcDbLine
 10
1799.463170910155
 20
973.3712771834015
 30
0.0
 11
1799.463170910155
 21
1043.778916802019
 31
0.0
  0
LINE
  5
C091
330
B134
100
AcDbEntity
  8
寸法引出
 48
25.0
370
    -2
100
AcDbLine
 10
1805.463170910156
 20
979.3712771834016
 30
0.0
 11
1805.463170910156
 21
1043.778916802019
 31
0.0
  0
LINE
  5
C092
330
B134
100
AcDbEntity
  8
寸法引出
 48
25.0
370
    -2
100
AcDbLine
 10
1769.463170910156
 20
1033.778916802019
 30
0.0
 11
1739.463170910156
 21
1033.778916802019
 31
0.0
  0
LINE
  5
C093
330
B134
100
AcDbEntity
  8
寸法引出
 48
25.0
370
    -2
100
AcDbLine
 10
1835.463170910156
 20
1033.778916802019
 30
0.0
 11
1865.463170910155
 21
1033.778916802019
 31
0.0
  0
LINE
  5
C094
330
B134
100
AcDbEntity
  8
寸法引出
 48
25.0
370
    -2
100
AcDbLine
 10
1799.463170910155
 20
1033.778916802019
 30
0.0
 11
1805.463170910156
 21
1033.778916802019
 31
0.0
  0
SOLID
  5
C095
330
B134
100
AcDbEntity
  8
寸法引出
 48
25.0
100
AcDbTrace
 10
1769.463170910156
 20
1038.778916802018
 30
0.0
 11
1769.463170910156
 21
1028.778916802018
 31
0.0
 12
1799.463170910155
 22
1033.778916802019
 32
0.0
 13
1799.463170910155
 23
1033.778916802019
 33
0.0
  0
SOLID
  5
C096
330
B134
100
AcDbEntity
  8
寸法引出
 48
25.0
100
AcDbTrace
 10
1835.463170910156
 20
1038.778916802018
 30
0.0
 11
1835.463170910156
 21
1028.778916802018
 31
0.0
 12
1805.463170910156
 22
1033.778916802019
 32
0.0
 13
1805.463170910156
 23
1033.778916802019
 33
0.0
  0
MTEXT
  5
C097
330
B134
100
AcDbEntity
  8
寸法引出
 48
25.0
100
AcDbMText
 10
1802.463170910155
 20
1073.778916802019
 30
0.0
 40
40.0
 41
0.0
 71
     5
 72
     1
  1
\A1;2
  7
SANWA
 73
     1
 44
1.0
  0
POINT
  5
C098
330
B134
100
AcDbEntity
  8
DEFPOINTS
 62
     0
 48
25.0
100
AcDbPoint
 10
1799.463170910155
 20
953.3712771834016
 30
0.0
  0
POINT
  5
C099
330
B134
100
AcDbEntity
  8
DEFPOINTS
 62
     0
 48
25.0
100
AcDbPoint
 10
1805.463170910156
 20
959.3712771834017
 30
0.0
  0
POINT
  5
C09A
330
B134
100
AcDbEntity
  8
DEFPOINTS
 62
     0
 48
25.0
100
AcDbPoint
 10
1805.463170910156
 20
1033.778916802019
 30
0.0
  0
ENDBLK
  5
B141
330
B134
100
AcDbEntity
  8
0
 48
25.0
100
AcDbBlockEnd
  0
BLOCK
  5
B14C
330
B142
100
AcDbEntity
  8
0
 48
25.0
100
AcDbBlockBegin
  2
*D48
 70
     1
 10
0.0
 20
0.0
 30
0.0
  3
*D48
  1

  0
LINE
  5
C087
330
B142
100
AcDbEntity
  8
寸法引出
 48
25.0
370
    -2
100
AcDbLine
 10
1544.463170910155
 20
979.3712771834016
 30
0.0
 11
1544.463170910155
 21
1043.778916802019
 31
0.0
  0
LINE
  5
C088
330
B142
100
AcDbEntity
  8
寸法引出
 48
25.0
370
    -2
100
AcDbLine
 10
1799.463170910155
 20
973.3712771834015
 30
0.0
 11
1799.463170910155
 21
1043.778916802019
 31
0.0
  0
LINE
  5
C089
330
B142
100
AcDbEntity
  8
寸法引出
 48
25.0
370
    -2
100
AcDbLine
 10
1574.463170910155
 20
1033.778916802019
 30
0.0
 11
1769.463170910156
 21
1033.778916802019
 31
0.0
  0
SOLID
  5
C08A
330
B142
100
AcDbEntity
  8
寸法引出
 48
25.0
100
AcDbTrace
 10
1574.463170910155
 20
1038.778916802018
 30
0.0
 11
1574.463170910155
 21
1028.778916802018
 31
0.0
 12
1544.463170910155
 22
1033.778916802019
 32
0.0
 13
1544.463170910155
 23
1033.778916802019
 33
0.0
  0
SOLID
  5
C08B
330
B142
100
AcDbEntity
  8
寸法引出
 48
25.0
100
AcDbTrace
 10
1769.463170910156
 20
1038.778916802018
 30
0.0
 11
1769.463170910156
 21
1028.778916802018
 31
0.0
 12
1799.463170910155
 22
1033.778916802019
 32
0.0
 13
1799.463170910155
 23
1033.778916802019
 33
0.0
  0
MTEXT
  5
C08C
330
B142
100
AcDbEntity
  8
寸法引出
 48
25.0
100
AcDbMText
 10
1671.963170910156
 20
1073.778916802019
 30
0.0
 40
40.0
 41
0.0
 71
     5
 72
     1
  1
\A1;85
  7
SANWA
 73
     1
 44
1.0
  0
POINT
  5
C08D
330
B142
100
AcDbEntity
  8
DEFPOINTS
 62
     0
 48
25.0
100
AcDbPoint
 10
1544.463170910155
 20
959.3712771834017
 30
0.0
  0
POINT
  5
C08E
330
B142
100
AcDbEntity
  8
DEFPOINTS
 62
     0
 48
25.0
100
AcDbPoint
 10
1799.463170910155
 20
953.3712771834016
 30
0.0
  0
POINT
  5
C08F
330
B142
100
AcDbEntity
  8
DEFPOINTS
 62
     0
 48
25.0
100
AcDbPoint
 10
1799.463170910155
 20
1033.778916802019
 30
0.0
  0
ENDBLK
  5
B14D
330
B142
100
AcDbEntity
  8
0
 48
25.0
100
AcDbBlockEnd
  0
BLOCK
  5
B15A
330
B14E
100
AcDbEntity
  8
0
 48
25.0
100
AcDbBlockBegin
  2
*D49
 70
     1
 10
0.0
 20
0.0
 30
0.0
  3
*D49
  1

  0
LINE
  5
C139
330
B14E
100
AcDbEntity
  8
寸法引出
 48
25.0
370
    -2
100
AcDbLine
 10
3529.631789356666
 20
842.6778734338785
 30
0.0
 11
3455.514492224123
 21
842.6778734338785
 31
0.0
  0
LINE
  5
C13A
330
B14E
100
AcDbEntity
  8
寸法引出
 48
25.0
370
    -2
100
AcDbLine
 10
3579.631789356666
 20
912.6778734338786
 30
0.0
 11
3455.514492224123
 21
912.6778734338786
 31
0.0
  0
LINE
  5
C13B
330
B14E
100
AcDbEntity
  8
寸法引出
 48
25.0
370
    -2
100
AcDbLine
 10
3465.514492224123
 20
812.6778734338786
 30
0.0
 11
3465.514492224123
 21
782.6778734338786
 31
0.0
  0
LINE
  5
C13C
330
B14E
100
AcDbEntity
  8
寸法引出
 48
25.0
370
    -2
100
AcDbLine
 10
3465.514492224123
 20
942.6778734338785
 30
0.0
 11
3465.514492224123
 21
972.6778734338786
 31
0.0
  0
LINE
  5
C13D
330
B14E
100
AcDbEntity
  8
寸法引出
 48
25.0
370
    -2
100
AcDbLine
 10
3465.514492224123
 20
842.6778734338785
 30
0.0
 11
3465.514492224123
 21
912.6778734338786
 31
0.0
  0
SOLID
  5
C13E
330
B14E
100
AcDbEntity
  8
寸法引出
 48
25.0
100
AcDbTrace
 10
3460.514492224123
 20
812.6778734338786
 30
0.0
 11
3470.514492224123
 21
812.6778734338786
 31
0.0
 12
3465.514492224123
 22
842.6778734338785
 32
0.0
 13
3465.514492224123
 23
842.6778734338785
 33
0.0
  0
SOLID
  5
C13F
330
B14E
100
AcDbEntity
  8
寸法引出
 48
25.0
100
AcDbTrace
 10
3460.514492224123
 20
942.6778734338785
 30
0.0
 11
3470.514492224123
 21
942.6778734338785
 31
0.0
 12
3465.514492224123
 22
912.6778734338786
 32
0.0
 13
3465.514492224123
 23
912.6778734338786
 33
0.0
  0
MTEXT
  5
C140
330
B14E
100
AcDbEntity
  8
寸法引出
 48
25.0
100
AcDbMText
 10
3425.514492224123
 20
877.6778734338792
 30
0.0
 40
40.0
 41
0.0
 71
     5
 72
     1
  1
\A1;7
  7
SANWA
 11
0.0000000000000001
 21
1.0
 31
0.0
 73
     1
 44
1.0
  0
POINT
  5
C141
330
B14E
100
AcDbEntity
  8
DEFPOINTS
 62
     0
 48
25.0
100
AcDbPoint
 10
3549.631789356666
 20
842.6778734338785
 30
0.0
  0
POINT
  5
C142
330
B14E
100
AcDbEntity
  8
DEFPOINTS
 62
     0
 48
25.0
100
AcDbPoint
 10
3599.631789356667
 20
912.6778734338786
 30
0.0
  0
POINT
  5
C143
330
B14E
100
AcDbEntity
  8
DEFPOINTS
 62
     0
 48
25.0
100
AcDbPoint
 10
3465.514492224123
 20
912.6778734338786
 30
0.0
  0
ENDBLK
  5
B15B
330
B14E
100
AcDbEntity
  8
0
 48
25.0
100
AcDbBlockEnd
  0
BLOCK
  5
B168
330
B15C
100
AcDbEntity
  8
0
 48
25.0
100
AcDbBlockBegin
  2
*D50
 70
     1
 10
0.0
 20
0.0
 30
0.0
  3
*D50
  1

  0
LINE
  5
C144
330
B15C
100
AcDbEntity
  8
寸法引出
 48
25.0
370
    -2
100
AcDbLine
 10
3629.631789356666
 20
812.6778734338786
 30
0.0
 11
3455.514492224123
 21
812.6778734338786
 31
0.0
  0
LINE
  5
C145
330
B15C
100
AcDbEntity
  8
寸法引出
 48
25.0
370
    -2
100
AcDbLine
 10
3529.631789356666
 20
842.6778734338785
 30
0.0
 11
3455.514492224123
 21
842.6778734338785
 31
0.0
  0
LINE
  5
C146
330
B15C
100
AcDbEntity
  8
寸法引出
 48
25.0
370
    -2
100
AcDbLine
 10
3465.514492224123
 20
782.6778734338786
 30
0.0
 11
3465.514492224123
 21
752.6778734338786
 31
0.0
  0
LINE
  5
C147
330
B15C
100
AcDbEntity
  8
寸法引出
 48
25.0
370
    -2
100
AcDbLine
 10
3465.514492224123
 20
872.6778734338786
 30
0.0
 11
3465.514492224123
 21
902.6778734338787
 31
0.0
  0
LINE
  5
C148
330
B15C
100
AcDbEntity
  8
寸法引出
 48
25.0
370
    -2
100
AcDbLine
 10
3465.514492224123
 20
812.6778734338786
 30
0.0
 11
3465.514492224123
 21
842.6778734338785
 31
0.0
  0
SOLID
  5
C149
330
B15C
100
AcDbEntity
  8
寸法引出
 48
25.0
100
AcDbTrace
 10
3460.514492224123
 20
782.6778734338786
 30
0.0
 11
3470.514492224123
 21
782.6778734338786
 31
0.0
 12
3465.514492224123
 22
812.6778734338786
 32
0.0
 13
3465.514492224123
 23
812.6778734338786
 33
0.0
  0
SOLID
  5
C14A
330
B15C
100
AcDbEntity
  8
寸法引出
 48
25.0
100
AcDbTrace
 10
3460.514492224123
 20
872.6778734338786
 30
0.0
 11
3470.514492224123
 21
872.6778734338786
 31
0.0
 12
3465.514492224123
 22
842.6778734338785
 32
0.0
 13
3465.514492224123
 23
842.6778734338785
 33
0.0
  0
MTEXT
  5
C14B
330
B15C
100
AcDbEntity
  8
寸法引出
 48
25.0
100
AcDbMText
 10
3425.514492224123
 20
827.6778734338792
 30
0.0
 40
40.0
 41
0.0
 71
     5
 72
     1
  1
\A1;3
  7
SANWA
 11
0.0000000000000001
 21
1.0
 31
0.0
 73
     1
 44
1.0
  0
POINT
  5
C14C
330
B15C
100
AcDbEntity
  8
DEFPOINTS
 62
     0
 48
25.0
100
AcDbPoint
 10
3649.631789356666
 20
812.6778734338786
 30
0.0
  0
POINT
  5
C14D
330
B15C
100
AcDbEntity
  8
DEFPOINTS
 62
     0
 48
25.0
100
AcDbPoint
 10
3549.631789356666
 20
842.6778734338785
 30
0.0
  0
POINT
  5
C14E
330
B15C
100
AcDbEntity
  8
DEFPOINTS
 62
     0
 48
25.0
100
AcDbPoint
 10
3465.514492224123
 20
842.6778734338785
 30
0.0
  0
ENDBLK
  5
B169
330
B15C
100
AcDbEntity
  8
0
 48
25.0
100
AcDbBlockEnd
  0
BLOCK
  5
B176
330
B16A
100
AcDbEntity
  8
0
 48
25.0
100
AcDbBlockBegin
  2
*D51
 70
     1
 10
0.0
 20
0.0
 30
0.0
  3
*D51
  1

  0
LINE
  5
C14F
330
B16A
100
AcDbEntity
  8
寸法引出
 48
25.0
370
    -2
100
AcDbLine
 10
3579.631789356666
 20
912.6778734338786
 30
0.0
 11
3455.514492224123
 21
912.6778734338786
 31
0.0
  0
LINE
  5
C150
330
B16A
100
AcDbEntity
  8
寸法引出
 48
25.0
370
    -2
100
AcDbLine
 10
3579.631789356666
 20
1012.677873433878
 30
0.0
 11
3455.514492224123
 21
1012.677873433878
 31
0.0
  0
LINE
  5
C151
330
B16A
100
AcDbEntity
  8
寸法引出
 48
25.0
370
    -2
100
AcDbLine
 10
3465.514492224123
 20
882.6778734338786
 30
0.0
 11
3465.514492224123
 21
852.6778734338787
 31
0.0
  0
LINE
  5
C152
330
B16A
100
AcDbEntity
  8
寸法引出
 48
25.0
370
    -2
100
AcDbLine
 10
3465.514492224124
 20
1042.677873433879
 30
0.0
 11
3465.514492224124
 21
1072.677873433878
 31
0.0
  0
LINE
  5
C153
330
B16A
100
AcDbEntity
  8
寸法引出
 48
25.0
370
    -2
100
AcDbLine
 10
3465.514492224123
 20
912.6778734338786
 30
0.0
 11
3465.514492224123
 21
1012.677873433878
 31
0.0
  0
SOLID
  5
C154
330
B16A
100
AcDbEntity
  8
寸法引出
 48
25.0
100
AcDbTrace
 10
3460.514492224123
 20
882.6778734338786
 30
0.0
 11
3470.514492224123
 21
882.6778734338786
 31
0.0
 12
3465.514492224123
 22
912.6778734338786
 32
0.0
 13
3465.514492224123
 23
912.6778734338786
 33
0.0
  0
SOLID
  5
C155
330
B16A
100
AcDbEntity
  8
寸法引出
 48
25.0
100
AcDbTrace
 10
3460.514492224123
 20
1042.677873433879
 30
0.0
 11
3470.514492224124
 21
1042.677873433879
 31
0.0
 12
3465.514492224123
 22
1012.677873433878
 32
0.0
 13
3465.514492224123
 23
1012.677873433878
 33
0.0
  0
MTEXT
  5
C156
330
B16A
100
AcDbEntity
  8
寸法引出
 48
25.0
100
AcDbMText
 10
3425.514492224123
 20
962.6778734338792
 30
0.0
 40
40.0
 41
0.0
 71
     5
 72
     1
  1
\A1;10
  7
SANWA
 11
0.0000000000000001
 21
1.0
 31
0.0
 73
     1
 44
1.0
  0
POINT
  5
C157
330
B16A
100
AcDbEntity
  8
DEFPOINTS
 62
     0
 48
25.0
100
AcDbPoint
 10
3599.631789356667
 20
912.6778734338786
 30
0.0
  0
POINT
  5
C158
330
B16A
100
AcDbEntity
  8
DEFPOINTS
 62
     0
 48
25.0
100
AcDbPoint
 10
3599.631789356667
 20
1012.677873433878
 30
0.0
  0
POINT
  5
C159
330
B16A
100
AcDbEntity
  8
DEFPOINTS
 62
     0
 48
25.0
100
AcDbPoint
 10
3465.514492224123
 20
1012.677873433878
 30
0.0
  0
ENDBLK
  5
B177
330
B16A
100
AcDbEntity
  8
0
 48
25.0
100
AcDbBlockEnd
  0
BLOCK
  5
B184
330
B178
100
AcDbEntity
  8
0
 48
25.0
100
AcDbBlockBegin
  2
*D52
 70
     1
 10
0.0
 20
0.0
 30
0.0
  3
*D52
  1

  0
LINE
  5
C170
330
B178
100
AcDbEntity
  8
寸法引出
 48
25.0
370
    -2
100
AcDbLine
 10
3599.631789356667
 20
1032.677873433878
 30
0.0
 11
3599.631789356667
 21
1120.567883054149
 31
0.0
  0
LINE
  5
C171
330
B178
100
AcDbEntity
  8
寸法引出
 48
25.0
370
    -2
100
AcDbLine
 10
3699.631789356667
 20
1032.677873433878
 30
0.0
 11
3699.631789356667
 21
1120.567883054149
 31
0.0
  0
LINE
  5
C172
330
B178
100
AcDbEntity
  8
寸法引出
 48
25.0
370
    -2
100
AcDbLine
 10
3569.631789356666
 20
1110.567883054149
 30
0.0
 11
3539.631789356667
 21
1110.567883054149
 31
0.0
  0
LINE
  5
C173
330
B178
100
AcDbEntity
  8
寸法引出
 48
25.0
370
    -2
100
AcDbLine
 10
3729.631789356666
 20
1110.567883054149
 30
0.0
 11
3759.631789356666
 21
1110.567883054149
 31
0.0
  0
LINE
  5
C174
330
B178
100
AcDbEntity
  8
寸法引出
 48
25.0
370
    -2
100
AcDbLine
 10
3599.631789356667
 20
1110.567883054149
 30
0.0
 11
3699.631789356667
 21
1110.567883054149
 31
0.0
  0
SOLID
  5
C175
330
B178
100
AcDbEntity
  8
寸法引出
 48
25.0
100
AcDbTrace
 10
3569.631789356666
 20
1115.567883054149
 30
0.0
 11
3569.631789356666
 21
1105.567883054149
 31
0.0
 12
3599.631789356667
 22
1110.567883054149
 32
0.0
 13
3599.631789356667
 23
1110.567883054149
 33
0.0
  0
SOLID
  5
C176
330
B178
100
AcDbEntity
  8
寸法引出
 48
25.0
100
AcDbTrace
 10
3729.631789356666
 20
1115.567883054149
 30
0.0
 11
3729.631789356666
 21
1105.567883054149
 31
0.0
 12
3699.631789356667
 22
1110.567883054149
 32
0.0
 13
3699.631789356667
 23
1110.567883054149
 33
0.0
  0
MTEXT
  5
C177
330
B178
100
AcDbEntity
  8
寸法引出
 48
25.0
100
AcDbMText
 10
3649.631789356666
 20
1150.567883054149
 30
0.0
 40
40.0
 41
0.0
 71
     5
 72
     1
  1
\A1;10
  7
SANWA
 73
     1
 44
1.0
  0
POINT
  5
C178
330
B178
100
AcDbEntity
  8
DEFPOINTS
 62
     0
 48
25.0
100
AcDbPoint
 10
3599.631789356667
 20
1012.677873433878
 30
0.0
  0
POINT
  5
C179
330
B178
100
AcDbEntity
  8
DEFPOINTS
 62
     0
 48
25.0
100
AcDbPoint
 10
3699.631789356667
 20
1012.677873433878
 30
0.0
  0
POINT
  5
C17A
330
B178
100
AcDbEntity
  8
DEFPOINTS
 62
     0
 48
25.0
100
AcDbPoint
 10
3699.631789356667
 20
1110.567883054149
 30
0.0
  0
ENDBLK
  5
B185
330
B178
100
AcDbEntity
  8
0
 48
25.0
100
AcDbBlockEnd
  0
BLOCK
  5
B192
330
B186
100
AcDbEntity
  8
0
 48
25.0
100
AcDbBlockBegin
  2
*D53
 70
     1
 10
0.0
 20
0.0
 30
0.0
  3
*D53
  1

  0
LINE
  5
C165
330
B186
100
AcDbEntity
  8
寸法引出
 48
25.0
370
    -2
100
AcDbLine
 10
3549.631789356666
 20
1032.677873433878
 30
0.0
 11
3549.631789356666
 21
1120.567883054149
 31
0.0
  0
LINE
  5
C166
330
B186
100
AcDbEntity
  8
寸法引出
 48
25.0
370
    -2
100
AcDbLine
 10
3599.631789356667
 20
1032.677873433878
 30
0.0
 11
3599.631789356667
 21
1120.567883054149
 31
0.0
  0
LINE
  5
C167
330
B186
100
AcDbEntity
  8
寸法引出
 48
25.0
370
    -2
100
AcDbLine
 10
3519.631789356666
 20
1110.567883054149
 30
0.0
 11
3489.631789356666
 21
1110.567883054149
 31
0.0
  0
LINE
  5
C168
330
B186
100
AcDbEntity
  8
寸法引出
 48
25.0
370
    -2
100
AcDbLine
 10
3629.631789356666
 20
1110.567883054149
 30
0.0
 11
3659.631789356666
 21
1110.567883054149
 31
0.0
  0
LINE
  5
C169
330
B186
100
AcDbEntity
  8
寸法引出
 48
25.0
370
    -2
100
AcDbLine
 10
3549.631789356666
 20
1110.567883054149
 30
0.0
 11
3599.631789356667
 21
1110.567883054149
 31
0.0
  0
SOLID
  5
C16A
330
B186
100
AcDbEntity
  8
寸法引出
 48
25.0
100
AcDbTrace
 10
3519.631789356666
 20
1115.567883054149
 30
0.0
 11
3519.631789356666
 21
1105.567883054149
 31
0.0
 12
3549.631789356666
 22
1110.567883054149
 32
0.0
 13
3549.631789356666
 23
1110.567883054149
 33
0.0
  0
SOLID
  5
C16B
330
B186
100
AcDbEntity
  8
寸法引出
 48
25.0
100
AcDbTrace
 10
3629.631789356666
 20
1115.567883054149
 30
0.0
 11
3629.631789356666
 21
1105.567883054149
 31
0.0
 12
3599.631789356667
 22
1110.567883054149
 32
0.0
 13
3599.631789356667
 23
1110.567883054149
 33
0.0
  0
MTEXT
  5
C16C
330
B186
100
AcDbEntity
  8
寸法引出
 48
25.0
100
AcDbMText
 10
3574.631789356667
 20
1150.567883054149
 30
0.0
 40
40.0
 41
0.0
 71
     5
 72
     1
  1
\A1;5
  7
SANWA
 73
     1
 44
1.0
  0
POINT
  5
C16D
330
B186
100
AcDbEntity
  8
DEFPOINTS
 62
     0
 48
25.0
100
AcDbPoint
 10
3549.631789356666
 20
1012.677873433878
 30
0.0
  0
POINT
  5
C16E
330
B186
100
AcDbEntity
  8
DEFPOINTS
 62
     0
 48
25.0
100
AcDbPoint
 10
3599.631789356667
 20
1012.677873433878
 30
0.0
  0
POINT
  5
C16F
330
B186
100
AcDbEntity
  8
DEFPOINTS
 62
     0
 48
25.0
100
AcDbPoint
 10
3599.631789356667
 20
1110.567883054149
 30
0.0
  0
ENDBLK
  5
B193
330
B186
100
AcDbEntity
  8
0
 48
25.0
100
AcDbBlockEnd
  0
BLOCK
  5
B19E
330
B194
100
AcDbEntity
  8
0
 48
25.0
100
AcDbBlockBegin
  2
*D54
 70
     1
 10
0.0
 20
0.0
 30
0.0
  3
*D54
  1

  0
LINE
  5
C130
330
B194
100
AcDbEntity
  8
寸法引出
 48
25.0
370
    -2
100
AcDbLine
 10
3549.631789356666
 20
1032.677873433878
 30
0.0
 11
3549.631789356666
 21
1206.851078528567
 31
0.0
  0
LINE
  5
C131
330
B194
100
AcDbEntity
  8
寸法引出
 48
25.0
370
    -2
100
AcDbLine
 10
3749.631789356667
 20
1032.677873433878
 30
0.0
 11
3749.631789356667
 21
1206.851078528567
 31
0.0
  0
LINE
  5
C132
330
B194
100
AcDbEntity
  8
寸法引出
 48
25.0
370
    -2
100
AcDbLine
 10
3579.631789356666
 20
1196.851078528567
 30
0.0
 11
3719.631789356666
 21
1196.851078528567
 31
0.0
  0
SOLID
  5
C133
330
B194
100
AcDbEntity
  8
寸法引出
 48
25.0
100
AcDbTrace
 10
3579.631789356666
 20
1201.851078528567
 30
0.0
 11
3579.631789356666
 21
1191.851078528567
 31
0.0
 12
3549.631789356666
 22
1196.851078528567
 32
0.0
 13
3549.631789356666
 23
1196.851078528567
 33
0.0
  0
SOLID
  5
C134
330
B194
100
AcDbEntity
  8
寸法引出
 48
25.0
100
AcDbTrace
 10
3719.631789356666
 20
1201.851078528567
 30
0.0
 11
3719.631789356666
 21
1191.851078528567
 31
0.0
 12
3749.631789356667
 22
1196.851078528567
 32
0.0
 13
3749.631789356667
 23
1196.851078528567
 33
0.0
  0
MTEXT
  5
C135
330
B194
100
AcDbEntity
  8
寸法引出
 48
25.0
100
AcDbMText
 10
3649.631789356666
 20
1236.851078528567
 30
0.0
 40
40.0
 41
0.0
 71
     5
 72
     1
  1
\A1;20
  7
SANWA
 73
     1
 44
1.0
  0
POINT
  5
C136
330
B194
100
AcDbEntity
  8
DEFPOINTS
 62
     0
 48
25.0
100
AcDbPoint
 10
3549.631789356666
 20
1012.677873433878
 30
0.0
  0
POINT
  5
C137
330
B194
100
AcDbEntity
  8
DEFPOINTS
 62
     0
 48
25.0
100
AcDbPoint
 10
3749.631789356667
 20
1012.677873433878
 30
0.0
  0
POINT
  5
C138
330
B194
100
AcDbEntity
  8
DEFPOINTS
 62
     0
 48
25.0
100
AcDbPoint
 10
3749.631789356667
 20
1196.851078528567
 30
0.0
  0
ENDBLK
  5
B19F
330
B194
100
AcDbEntity
  8
0
 48
25.0
100
AcDbBlockEnd
  0
BLOCK
  5
B1AC
330
B1A0
100
AcDbEntity
  8
0
 48
25.0
100
AcDbBlockBegin
  2
*D55
 70
     1
 10
0.0
 20
0.0
 30
0.0
  3
*D55
  1

  0
LINE
  5
C15A
330
B1A0
100
AcDbEntity
  8
寸法引出
 48
25.0
370
    -2
100
AcDbLine
 10
3699.631789356667
 20
1032.677873433878
 30
0.0
 11
3699.631789356667
 21
1120.567883054149
 31
0.0
  0
LINE
  5
C15B
330
B1A0
100
AcDbEntity
  8
寸法引出
 48
25.0
370
    -2
100
AcDbLine
 10
3749.631789356667
 20
1032.677873433878
 30
0.0
 11
3749.631789356667
 21
1120.567883054149
 31
0.0
  0
LINE
  5
C15C
330
B1A0
100
AcDbEntity
  8
寸法引出
 48
25.0
370
    -2
100
AcDbLine
 10
3669.631789356666
 20
1110.567883054149
 30
0.0
 11
3639.631789356666
 21
1110.567883054149
 31
0.0
  0
LINE
  5
C15D
330
B1A0
100
AcDbEntity
  8
寸法引出
 48
25.0
370
    -2
100
AcDbLine
 10
3779.631789356666
 20
1110.567883054149
 30
0.0
 11
3809.631789356666
 21
1110.567883054149
 31
0.0
  0
LINE
  5
C15E
330
B1A0
100
AcDbEntity
  8
寸法引出
 48
25.0
370
    -2
100
AcDbLine
 10
3699.631789356667
 20
1110.567883054149
 30
0.0
 11
3749.631789356667
 21
1110.567883054149
 31
0.0
  0
SOLID
  5
C15F
330
B1A0
100
AcDbEntity
  8
寸法引出
 48
25.0
100
AcDbTrace
 10
3669.631789356666
 20
1115.567883054149
 30
0.0
 11
3669.631789356666
 21
1105.567883054149
 31
0.0
 12
3699.631789356667
 22
1110.567883054149
 32
0.0
 13
3699.631789356667
 23
1110.567883054149
 33
0.0
  0
SOLID
  5
C160
330
B1A0
100
AcDbEntity
  8
寸法引出
 48
25.0
100
AcDbTrace
 10
3779.631789356666
 20
1115.567883054149
 30
0.0
 11
3779.631789356666
 21
1105.567883054149
 31
0.0
 12
3749.631789356667
 22
1110.567883054149
 32
0.0
 13
3749.631789356667
 23
1110.567883054149
 33
0.0
  0
MTEXT
  5
C161
330
B1A0
100
AcDbEntity
  8
寸法引出
 48
25.0
100
AcDbMText
 10
3724.631789356667
 20
1150.567883054149
 30
0.0
 40
40.0
 41
0.0
 71
     5
 72
     1
  1
\A1;5
  7
SANWA
 73
     1
 44
1.0
  0
POINT
  5
C162
330
B1A0
100
AcDbEntity
  8
DEFPOINTS
 62
     0
 48
25.0
100
AcDbPoint
 10
3699.631789356667
 20
1012.677873433878
 30
0.0
  0
POINT
  5
C163
330
B1A0
100
AcDbEntity
  8
DEFPOINTS
 62
     0
 48
25.0
100
AcDbPoint
 10
3749.631789356667
 20
1012.677873433878
 30
0.0
  0
POINT
  5
C164
330
B1A0
100
AcDbEntity
  8
DEFPOINTS
 62
     0
 48
25.0
100
AcDbPoint
 10
3749.631789356667
 20
1110.567883054149
 30
0.0
  0
ENDBLK
  5
B1AD
330
B1A0
100
AcDbEntity
  8
0
 48
25.0
100
AcDbBlockEnd
  0
BLOCK
  5
B1B8
330
B1AE
100
AcDbEntity
  8
0
 48
25.0
100
AcDbBlockBegin
  2
*D56
 70
     1
 10
0.0
 20
0.0
 30
0.0
  3
*D56
  1

  0
LINE
  5
C0FF
330
B1AE
100
AcDbEntity
  8
寸法引出
 48
25.0
370
    -2
100
AcDbLine
 10
2077.06248246149
 20
3721.43932768014
 30
0.0
 11
1988.337284874287
 21
3721.43932768014
 31
0.0
  0
LINE
  5
C100
330
B1AE
100
AcDbEntity
  8
寸法引出
 48
25.0
370
    -2
100
AcDbLine
 10
2077.06248246149
 20
3571.43932768014
 30
0.0
 11
1988.337284874287
 21
3571.43932768014
 31
0.0
  0
LINE
  5
C101
330
B1AE
100
AcDbEntity
  8
寸法引出
 48
25.0
370
    -2
100
AcDbLine
 10
1998.337284874287
 20
3691.43932768014
 30
0.0
 11
1998.337284874287
 21
3601.439327680139
 31
0.0
  0
SOLID
  5
C102
330
B1AE
100
AcDbEntity
  8
寸法引出
 48
25.0
100
AcDbTrace
 10
1993.337284874287
 20
3691.43932768014
 30
0.0
 11
2003.337284874287
 21
3691.43932768014
 31
0.0
 12
1998.337284874287
 22
3721.43932768014
 32
0.0
 13
1998.337284874287
 23
3721.43932768014
 33
0.0
  0
SOLID
  5
C103
330
B1AE
100
AcDbEntity
  8
寸法引出
 48
25.0
100
AcDbTrace
 10
1993.337284874287
 20
3601.439327680139
 30
0.0
 11
2003.337284874287
 21
3601.439327680139
 31
0.0
 12
1998.337284874287
 22
3571.43932768014
 32
0.0
 13
1998.337284874287
 23
3571.43932768014
 33
0.0
  0
MTEXT
  5
C104
330
B1AE
100
AcDbEntity
  8
寸法引出
 48
25.0
100
AcDbMText
 10
1958.337284874287
 20
3646.439327680141
 30
0.0
 40
40.0
 41
0.0
 71
     5
 72
     1
  1
\A1;150
  7
SANWA
 11
0.0000000000000001
 21
1.0
 31
0.0
 73
     1
 44
1.0
  0
POINT
  5
C105
330
B1AE
100
AcDbEntity
  8
DEFPOINTS
 62
     0
 48
25.0
100
AcDbPoint
 10
2097.06248246149
 20
3721.43932768014
 30
0.0
  0
POINT
  5
C106
330
B1AE
100
AcDbEntity
  8
DEFPOINTS
 62
     0
 48
25.0
100
AcDbPoint
 10
2097.06248246149
 20
3571.43932768014
 30
0.0
  0
POINT
  5
C107
330
B1AE
100
AcDbEntity
  8
DEFPOINTS
 62
     0
 48
25.0
100
AcDbPoint
 10
1998.337284874287
 20
3571.43932768014
 30
0.0
  0
ENDBLK
  5
B1B9
330
B1AE
100
AcDbEntity
  8
0
 48
25.0
100
AcDbBlockEnd
  0
BLOCK
  5
B1C4
330
B1BA
100
AcDbEntity
  8
0
 48
25.0
100
AcDbBlockBegin
  2
*D57
 70
     1
 10
0.0
 20
0.0
 30
0.0
  3
*D57
  1

  0
LINE
  5
C1B7
330
B1BA
100
AcDbEntity
  8
寸法引出
 48
25.0
370
    -2
100
AcDbLine
 10
3880.252698757795
 20
3721.43932768014
 30
0.0
 11
3803.346821062372
 21
3721.43932768014
 31
0.0
  0
LINE
  5
C1B8
330
B1BA
100
AcDbEntity
  8
寸法引出
 48
25.0
370
    -2
100
AcDbLine
 10
3880.252698757795
 20
3571.43932768014
 30
0.0
 11
3803.346821062372
 21
3571.43932768014
 31
0.0
  0
LINE
  5
C1B9
330
B1BA
100
AcDbEntity
  8
寸法引出
 48
25.0
370
    -2
100
AcDbLine
 10
3813.346821062372
 20
3691.43932768014
 30
0.0
 11
3813.346821062372
 21
3601.439327680139
 31
0.0
  0
SOLID
  5
C1BA
330
B1BA
100
AcDbEntity
  8
寸法引出
 48
25.0
100
AcDbTrace
 10
3808.346821062372
 20
3691.43932768014
 30
0.0
 11
3818.346821062372
 21
3691.43932768014
 31
0.0
 12
3813.346821062372
 22
3721.43932768014
 32
0.0
 13
3813.346821062372
 23
3721.43932768014
 33
0.0
  0
SOLID
  5
C1BB
330
B1BA
100
AcDbEntity
  8
寸法引出
 48
25.0
100
AcDbTrace
 10
3808.346821062372
 20
3601.439327680139
 30
0.0
 11
3818.346821062372
 21
3601.439327680139
 31
0.0
 12
3813.346821062372
 22
3571.43932768014
 32
0.0
 13
3813.346821062372
 23
3571.43932768014
 33
0.0
  0
MTEXT
  5
C1BC
330
B1BA
100
AcDbEntity
  8
寸法引出
 48
25.0
100
AcDbMText
 10
3773.346821062371
 20
3646.439327680141
 30
0.0
 40
40.0
 41
0.0
 71
     5
 72
     1
  1
\A1;150
  7
SANWA
 11
0.0000000000000001
 21
1.0
 31
0.0
 73
     1
 44
1.0
  0
POINT
  5
C1BD
330
B1BA
100
AcDbEntity
  8
DEFPOINTS
 62
     0
 48
25.0
100
AcDbPoint
 10
3900.252698757795
 20
3721.43932768014
 30
0.0
  0
POINT
  5
C1BE
330
B1BA
100
AcDbEntity
  8
DEFPOINTS
 62
     0
 48
25.0
100
AcDbPoint
 10
3900.252698757795
 20
3571.43932768014
 30
0.0
  0
POINT
  5
C1BF
330
B1BA
100
AcDbEntity
  8
DEFPOINTS
 62
     0
 48
25.0
100
AcDbPoint
 10
3813.346821062372
 20
3571.43932768014
 30
0.0
  0
ENDBLK
  5
B1C5
330
B1BA
100
AcDbEntity
  8
0
 48
25.0
100
AcDbBlockEnd
  0
BLOCK
  5
B1D2
330
B1C6
100
AcDbEntity
  8
0
 48
25.0
100
AcDbBlockBegin
  2
*D58
 70
     1
 10
0.0
 20
0.0
 30
0.0
  3
*D58
  1

  0
LINE
  5
C1C0
330
B1C6
100
AcDbEntity
  8
寸法引出
 48
25.0
370
    -2
100
AcDbLine
 10
3900.252698757795
 20
3615.93932768014
 30
0.0
 11
3900.252698757795
 21
3636.497818617495
 31
0.0
  0
LINE
  5
C1C1
330
B1C6
100
AcDbEntity
  8
寸法引出
 48
25.0
370
    -2
100
AcDbLine
 10
3950.252698757795
 20
3591.43932768014
 30
0.0
 11
3950.252698757795
 21
3636.497818617495
 31
0.0
  0
LINE
  5
C1C2
330
B1C6
100
AcDbEntity
  8
寸法引出
 48
25.0
370
    -2
100
AcDbLine
 10
3870.252698757795
 20
3626.497818617496
 30
0.0
 11
3840.252698757795
 21
3626.497818617496
 31
0.0
  0
LINE
  5
C1C3
330
B1C6
100
AcDbEntity
  8
寸法引出
 48
25.0
370
    -2
100
AcDbLine
 10
3980.252698757794
 20
3626.497818617496
 30
0.0
 11
4010.252698757795
 21
3626.497818617496
 31
0.0
  0
LINE
  5
C1C4
330
B1C6
100
AcDbEntity
  8
寸法引出
 48
25.0
370
    -2
100
AcDbLine
 10
3900.252698757795
 20
3626.497818617496
 30
0.0
 11
3950.252698757795
 21
3626.497818617496
 31
0.0
  0
SOLID
  5
C1C5
330
B1C6
100
AcDbEntity
  8
寸法引出
 48
25.0
100
AcDbTrace
 10
3870.252698757795
 20
3631.497818617496
 30
0.0
 11
3870.252698757795
 21
3621.497818617496
 31
0.0
 12
3900.252698757795
 22
3626.497818617496
 32
0.0
 13
3900.252698757795
 23
3626.497818617496
 33
0.0
  0
SOLID
  5
C1C6
330
B1C6
100
AcDbEntity
  8
寸法引出
 48
25.0
100
AcDbTrace
 10
3980.252698757794
 20
3631.497818617496
 30
0.0
 11
3980.252698757794
 21
3621.497818617496
 31
0.0
 12
3950.252698757795
 22
3626.497818617496
 32
0.0
 13
3950.252698757795
 23
3626.497818617496
 33
0.0
  0
MTEXT
  5
C1C7
330
B1C6
100
AcDbEntity
  8
寸法引出
 48
25.0
100
AcDbMText
 10
3925.252698757795
 20
3666.497818617495
 30
0.0
 40
40.0
 41
0.0
 71
     5
 72
     1
  1
\A1;50
  7
SANWA
 73
     1
 44
1.0
  0
POINT
  5
C1C8
330
B1C6
100
AcDbEntity
  8
DEFPOINTS
 62
     0
 48
25.0
100
AcDbPoint
 10
3900.252698757795
 20
3595.93932768014
 30
0.0
  0
POINT
  5
C1C9
330
B1C6
100
AcDbEntity
  8
DEFPOINTS
 62
     0
 48
25.0
100
AcDbPoint
 10
3950.252698757795
 20
3571.43932768014
 30
0.0
  0
POINT
  5
C1CA
330
B1C6
100
AcDbEntity
  8
DEFPOINTS
 62
     0
 48
25.0
100
AcDbPoint
 10
3950.252698757795
 20
3626.497818617496
 30
0.0
  0
ENDBLK
  5
B1D3
330
B1C6
100
AcDbEntity
  8
0
 48
25.0
100
AcDbBlockEnd
  0
BLOCK
  5
B1DE
330
B1D4
100
AcDbEntity
  8
0
 48
25.0
100
AcDbBlockBegin
  2
*D59
 70
     1
 10
0.0
 20
0.0
 30
0.0
  3
*D59
  1

  0
LINE
  5
C18C
330
B1D4
100
AcDbEntity
  8
寸法引出
 48
25.0
370
    -2
100
AcDbLine
 10
3900.252698757795
 20
3131.43932768014
 30
0.0
 11
3900.252698757795
 21
2962.214050898226
 31
0.0
  0
LINE
  5
C18D
330
B1D4
100
AcDbEntity
  8
寸法引出
 48
25.0
370
    -2
100
AcDbLine
 10
5900.252698757795
 20
3131.43932768014
 30
0.0
 11
5900.252698757795
 21
2962.214050898226
 31
0.0
  0
LINE
  5
C18E
330
B1D4
100
AcDbEntity
  8
寸法引出
 48
25.0
370
    -2
100
AcDbLine
 10
3930.252698757795
 20
2972.214050898227
 30
0.0
 11
5870.252698757795
 21
2972.214050898227
 31
0.0
  0
SOLID
  5
C18F
330
B1D4
100
AcDbEntity
  8
寸法引出
 48
25.0
100
AcDbTrace
 10
3930.252698757795
 20
2977.214050898226
 30
0.0
 11
3930.252698757795
 21
2967.214050898226
 31
0.0
 12
3900.252698757795
 22
2972.214050898227
 32
0.0
 13
3900.252698757795
 23
2972.214050898227
 33
0.0
  0
SOLID
  5
C190
330
B1D4
100
AcDbEntity
  8
寸法引出
 48
25.0
100
AcDbTrace
 10
5870.252698757795
 20
2977.214050898226
 30
0.0
 11
5870.252698757795
 21
2967.214050898226
 31
0.0
 12
5900.252698757795
 22
2972.214050898227
 32
0.0
 13
5900.252698757795
 23
2972.214050898227
 33
0.0
  0
MTEXT
  5
C191
330
B1D4
100
AcDbEntity
  8
寸法引出
 48
25.0
100
AcDbMText
 10
4900.252698757795
 20
3012.214050898226
 30
0.0
 40
40.0
 41
0.0
 71
     5
 72
     1
  1
\A1;2000
  7
SANWA
 73
     1
 44
1.0
  0
POINT
  5
C192
330
B1D4
100
AcDbEntity
  8
DEFPOINTS
 62
     0
 48
25.0
100
AcDbPoint
 10
3900.252698757795
 20
3151.43932768014
 30
0.0
  0
POINT
  5
C193
330
B1D4
100
AcDbEntity
  8
DEFPOINTS
 62
     0
 48
25.0
100
AcDbPoint
 10
5900.252698757795
 20
3151.43932768014
 30
0.0
  0
POINT
  5
C194
330
B1D4
100
AcDbEntity
  8
DEFPOINTS
 62
     0
 48
25.0
100
AcDbPoint
 10
5900.252698757795
 20
2972.214050898227
 30
0.0
  0
ENDBLK
  5
B1DF
330
B1D4
100
AcDbEntity
  8
0
 48
25.0
100
AcDbBlockEnd
  0
BLOCK
  5
B1EC
330
B1E0
100
AcDbEntity
  8
0
 48
25.0
100
AcDbBlockBegin
  2
*D60
 70
     1
 10
0.0
 20
0.0
 30
0.0
  3
*D60
  1

  0
LINE
  5
C0AF
330
B1E0
100
AcDbEntity
  8
寸法引出
 48
25.0
370
    -2
100
AcDbLine
 10
2447.06248246149
 20
3741.43932768014
 30
0.0
 11
2447.06248246149
 21
3837.42826784042
 31
0.0
  0
LINE
  5
C0B0
330
B1E0
100
AcDbEntity
  8
寸法引出
 48
25.0
370
    -2
100
AcDbLine
 10
2497.062482461489
 20
3741.43932768014
 30
0.0
 11
2497.062482461489
 21
3837.42826784042
 31
0.0
  0
LINE
  5
C0B1
330
B1E0
100
AcDbEntity
  8
寸法引出
 48
25.0
370
    -2
100
AcDbLine
 10
2417.062482461489
 20
3827.428267840419
 30
0.0
 11
2387.062482461489
 21
3827.428267840419
 31
0.0
  0
LINE
  5
C0B2
330
B1E0
100
AcDbEntity
  8
寸法引出
 48
25.0
370
    -2
100
AcDbLine
 10
2527.06248246149
 20
3827.428267840419
 30
0.0
 11
2557.062482461489
 21
3827.428267840419
 31
0.0
  0
LINE
  5
C0B3
330
B1E0
100
AcDbEntity
  8
寸法引出
 48
25.0
370
    -2
100
AcDbLine
 10
2447.06248246149
 20
3827.428267840419
 30
0.0
 11
2497.062482461489
 21
3827.428267840419
 31
0.0
  0
SOLID
  5
C0B4
330
B1E0
100
AcDbEntity
  8
寸法引出
 48
25.0
100
AcDbTrace
 10
2417.062482461489
 20
3832.428267840419
 30
0.0
 11
2417.062482461489
 21
3822.42826784042
 31
0.0
 12
2447.06248246149
 22
3827.428267840419
 32
0.0
 13
2447.06248246149
 23
3827.428267840419
 33
0.0
  0
SOLID
  5
C0B5
330
B1E0
100
AcDbEntity
  8
寸法引出
 48
25.0
100
AcDbTrace
 10
2527.06248246149
 20
3832.428267840419
 30
0.0
 11
2527.06248246149
 21
3822.42826784042
 31
0.0
 12
2497.062482461489
 22
3827.428267840419
 32
0.0
 13
2497.062482461489
 23
3827.428267840419
 33
0.0
  0
MTEXT
  5
C0B6
330
B1E0
100
AcDbEntity
  8
寸法引出
 48
25.0
100
AcDbMText
 10
2472.06248246149
 20
3867.42826784042
 30
0.0
 40
40.0
 41
0.0
 71
     5
 72
     1
  1
\A1;50
  7
SANWA
 73
     1
 44
1.0
  0
POINT
  5
C0B7
330
B1E0
100
AcDbEntity
  8
DEFPOINTS
 62
     0
 48
25.0
100
AcDbPoint
 10
2447.06248246149
 20
3721.43932768014
 30
0.0
  0
POINT
  5
C0B8
330
B1E0
100
AcDbEntity
  8
DEFPOINTS
 62
     0
 48
25.0
100
AcDbPoint
 10
2497.062482461489
 20
3721.43932768014
 30
0.0
  0
POINT
  5
C0B9
330
B1E0
100
AcDbEntity
  8
DEFPOINTS
 62
     0
 48
25.0
100
AcDbPoint
 10
2497.062482461489
 20
3827.428267840419
 30
0.0
  0
ENDBLK
  5
B1ED
330
B1E0
100
AcDbEntity
  8
0
 48
25.0
100
AcDbBlockEnd
  0
BLOCK
  5
B1FA
330
B1EE
100
AcDbEntity
  8
0
 48
25.0
100
AcDbBlockBegin
  2
*D61
 70
     1
 10
0.0
 20
0.0
 30
0.0
  3
*D61
  1

  0
LINE
  5
C11C
330
B1EE
100
AcDbEntity
  8
寸法引出
 48
25.0
370
    -2
100
AcDbLine
 10
2417.062482461489
 20
3121.43932768014
 30
0.0
 11
2417.062482461489
 21
2926.614935398034
 31
0.0
  0
LINE
  5
C11D
330
B1EE
100
AcDbEntity
  8
寸法引出
 48
25.0
370
    -2
100
AcDbLine
 10
2497.062482461489
 20
3151.43932768014
 30
0.0
 11
2497.062482461489
 21
2926.614935398034
 31
0.0
  0
LINE
  5
C11E
330
B1EE
100
AcDbEntity
  8
寸法引出
 48
25.0
370
    -2
100
AcDbLine
 10
2387.062482461489
 20
2936.614935398035
 30
0.0
 11
2357.062482461489
 21
2936.614935398035
 31
0.0
  0
LINE
  5
C11F
330
B1EE
100
AcDbEntity
  8
寸法引出
 48
25.0
370
    -2
100
AcDbLine
 10
2527.06248246149
 20
2936.614935398035
 30
0.0
 11
2557.062482461489
 21
2936.614935398035
 31
0.0
  0
LINE
  5
C120
330
B1EE
100
AcDbEntity
  8
寸法引出
 48
25.0
370
    -2
100
AcDbLine
 10
2417.062482461489
 20
2936.614935398035
 30
0.0
 11
2497.062482461489
 21
2936.614935398035
 31
0.0
  0
SOLID
  5
C121
330
B1EE
100
AcDbEntity
  8
寸法引出
 48
25.0
100
AcDbTrace
 10
2387.062482461489
 20
2941.614935398034
 30
0.0
 11
2387.062482461489
 21
2931.614935398034
 31
0.0
 12
2417.062482461489
 22
2936.614935398035
 32
0.0
 13
2417.062482461489
 23
2936.614935398035
 33
0.0
  0
SOLID
  5
C122
330
B1EE
100
AcDbEntity
  8
寸法引出
 48
25.0
100
AcDbTrace
 10
2527.06248246149
 20
2941.614935398034
 30
0.0
 11
2527.06248246149
 21
2931.614935398034
 31
0.0
 12
2497.062482461489
 22
2936.614935398035
 32
0.0
 13
2497.062482461489
 23
2936.614935398035
 33
0.0
  0
MTEXT
  5
C123
330
B1EE
100
AcDbEntity
  8
寸法引出
 48
25.0
100
AcDbMText
 10
2457.062482461489
 20
2976.614935398034
 30
0.0
 40
40.0
 41
0.0
 71
     5
 72
     1
  1
\A1;80
  7
SANWA
 73
     1
 44
1.0
  0
POINT
  5
C124
330
B1EE
100
AcDbEntity
  8
DEFPOINTS
 62
     0
 48
25.0
100
AcDbPoint
 10
2417.062482461489
 20
3141.43932768014
 30
0.0
  0
POINT
  5
C125
330
B1EE
100
AcDbEntity
  8
DEFPOINTS
 62
     0
 48
25.0
100
AcDbPoint
 10
2497.062482461489
 20
3171.43932768014
 30
0.0
  0
POINT
  5
C126
330
B1EE
100
AcDbEntity
  8
DEFPOINTS
 62
     0
 48
25.0
100
AcDbPoint
 10
2497.062482461489
 20
2936.614935398035
 30
0.0
  0
ENDBLK
  5
B1FB
330
B1EE
100
AcDbEntity
  8
0
 48
25.0
100
AcDbBlockEnd
  0
BLOCK
  5
B208
330
B1FC
100
AcDbEntity
  8
0
 48
25.0
100
AcDbBlockBegin
  2
*D62
 70
     1
 10
0.0
 20
0.0
 30
0.0
  3
*D62
  1

  0
LINE
  5
C111
330
B1FC
100
AcDbEntity
  8
寸法引出
 48
25.0
370
    -2
100
AcDbLine
 10
2517.06248246149
 20
3221.43932768014
 30
0.0
 11
2799.163745735331
 21
3221.43932768014
 31
0.0
  0
LINE
  5
C112
330
B1FC
100
AcDbEntity
  8
寸法引出
 48
25.0
370
    -2
100
AcDbLine
 10
2487.062482461489
 20
3141.43932768014
 30
0.0
 11
2799.163745735331
 21
3141.43932768014
 31
0.0
  0
LINE
  5
C113
330
B1FC
100
AcDbEntity
  8
寸法引出
 48
25.0
370
    -2
100
AcDbLine
 10
2789.163745735331
 20
3251.43932768014
 30
0.0
 11
2789.163745735331
 21
3281.43932768014
 31
0.0
  0
LINE
  5
C114
330
B1FC
100
AcDbEntity
  8
寸法引出
 48
25.0
370
    -2
100
AcDbLine
 10
2789.163745735331
 20
3111.43932768014
 30
0.0
 11
2789.163745735331
 21
3081.43932768014
 31
0.0
  0
LINE
  5
C115
330
B1FC
100
AcDbEntity
  8
寸法引出
 48
25.0
370
    -2
100
AcDbLine
 10
2789.163745735331
 20
3221.43932768014
 30
0.0
 11
2789.163745735331
 21
3141.43932768014
 31
0.0
  0
SOLID
  5
C116
330
B1FC
100
AcDbEntity
  8
寸法引出
 48
25.0
100
AcDbTrace
 10
2784.163745735332
 20
3251.43932768014
 30
0.0
 11
2794.163745735332
 21
3251.43932768014
 31
0.0
 12
2789.163745735331
 22
3221.43932768014
 32
0.0
 13
2789.163745735331
 23
3221.43932768014
 33
0.0
  0
SOLID
  5
C117
330
B1FC
100
AcDbEntity
  8
寸法引出
 48
25.0
100
AcDbTrace
 10
2784.163745735332
 20
3111.43932768014
 30
0.0
 11
2794.163745735332
 21
3111.43932768014
 31
0.0
 12
2789.163745735331
 22
3141.43932768014
 32
0.0
 13
2789.163745735331
 23
3141.43932768014
 33
0.0
  0
MTEXT
  5
C118
330
B1FC
100
AcDbEntity
  8
寸法引出
 48
25.0
100
AcDbMText
 10
2749.163745735331
 20
3181.43932768014
 30
0.0
 40
40.0
 41
0.0
 71
     5
 72
     1
  1
\A1;80
  7
SANWA
 11
0.0000000000000001
 21
1.0
 31
0.0
 73
     1
 44
1.0
  0
POINT
  5
C119
330
B1FC
100
AcDbEntity
  8
DEFPOINTS
 62
     0
 48
25.0
100
AcDbPoint
 10
2497.062482461489
 20
3221.43932768014
 30
0.0
  0
POINT
  5
C11A
330
B1FC
100
AcDbEntity
  8
DEFPOINTS
 62
     0
 48
25.0
100
AcDbPoint
 10
2467.062482461489
 20
3141.43932768014
 30
0.0
  0
POINT
  5
C11B
330
B1FC
100
AcDbEntity
  8
DEFPOINTS
 62
     0
 48
25.0
100
AcDbPoint
 10
2789.163745735331
 20
3141.43932768014
 30
0.0
  0
ENDBLK
  5
B209
330
B1FC
100
AcDbEntity
  8
0
 48
25.0
100
AcDbBlockEnd
  0
BLOCK
  5
B214
330
B20A
100
AcDbEntity
  8
0
 48
25.0
100
AcDbBlockBegin
  2
*D63
 70
     1
 10
0.0
 20
0.0
 30
0.0
  3
*D63
  1

  0
LINE
  5
C108
330
B20A
100
AcDbEntity
  8
寸法引出
 48
25.0
370
    -2
100
AcDbLine
 10
2517.06248246149
 20
3721.43932768014
 30
0.0
 11
2799.163745735331
 21
3721.43932768014
 31
0.0
  0
LINE
  5
C109
330
B20A
100
AcDbEntity
  8
寸法引出
 48
25.0
370
    -2
100
AcDbLine
 10
2517.06248246149
 20
3221.43932768014
 30
0.0
 11
2799.163745735331
 21
3221.43932768014
 31
0.0
  0
LINE
  5
C10A
330
B20A
100
AcDbEntity
  8
寸法引出
 48
25.0
370
    -2
100
AcDbLine
 10
2789.163745735331
 20
3691.43932768014
 30
0.0
 11
2789.163745735331
 21
3251.43932768014
 31
0.0
  0
SOLID
  5
C10B
330
B20A
100
AcDbEntity
  8
寸法引出
 48
25.0
100
AcDbTrace
 10
2784.163745735332
 20
3691.43932768014
 30
0.0
 11
2794.163745735332
 21
3691.43932768014
 31
0.0
 12
2789.163745735331
 22
3721.43932768014
 32
0.0
 13
2789.163745735331
 23
3721.43932768014
 33
0.0
  0
SOLID
  5
C10C
330
B20A
100
AcDbEntity
  8
寸法引出
 48
25.0
100
AcDbTrace
 10
2784.163745735332
 20
3251.43932768014
 30
0.0
 11
2794.163745735332
 21
3251.43932768014
 31
0.0
 12
2789.163745735331
 22
3221.43932768014
 32
0.0
 13
2789.163745735331
 23
3221.43932768014
 33
0.0
  0
MTEXT
  5
C10D
330
B20A
100
AcDbEntity
  8
寸法引出
 48
25.0
100
AcDbMText
 10
2749.163745735331
 20
3471.43932768014
 30
0.0
 40
40.0
 41
0.0
 71
     5
 72
     1
  1
\A1;500
  7
SANWA
 11
0.0000000000000001
 21
1.0
 31
0.0
 73
     1
 44
1.0
  0
POINT
  5
C10E
330
B20A
100
AcDbEntity
  8
DEFPOINTS
 62
     0
 48
25.0
100
AcDbPoint
 10
2497.062482461489
 20
3721.43932768014
 30
0.0
  0
POINT
  5
C10F
330
B20A
100
AcDbEntity
  8
DEFPOINTS
 62
     0
 48
25.0
100
AcDbPoint
 10
2497.062482461489
 20
3221.43932768014
 30
0.0
  0
POINT
  5
C110
330
B20A
100
AcDbEntity
  8
DEFPOINTS
 62
     0
 48
25.0
100
AcDbPoint
 10
2789.163745735331
 20
3221.43932768014
 30
0.0
  0
ENDBLK
  5
B215
330
B20A
100
AcDbEntity
  8
0
 48
25.0
100
AcDbBlockEnd
  0
BLOCK
  5
B220
330
B216
100
AcDbEntity
  8
0
 48
25.0
100
AcDbBlockBegin
  2
*D64
 70
     1
 10
0.0
 20
0.0
 30
0.0
  3
*D64
  1

  0
LINE
  5
C1AE
330
B216
100
AcDbEntity
  8
寸法引出
 48
25.0
370
    -2
100
AcDbLine
 10
3880.252698757795
 20
3721.43932768014
 30
0.0
 11
3666.067933826271
 21
3721.43932768014
 31
0.0
  0
LINE
  5
C1AF
330
B216
100
AcDbEntity
  8
寸法引出
 48
25.0
370
    -2
100
AcDbLine
 10
3890.252698757795
 20
3141.43932768014
 30
0.0
 11
3666.067933826271
 21
3141.43932768014
 31
0.0
  0
LINE
  5
C1B0
330
B216
100
AcDbEntity
  8
寸法引出
 48
25.0
370
    -2
100
AcDbLine
 10
3676.067933826271
 20
3691.43932768014
 30
0.0
 11
3676.067933826271
 21
3171.43932768014
 31
0.0
  0
SOLID
  5
C1B1
330
B216
100
AcDbEntity
  8
寸法引出
 48
25.0
100
AcDbTrace
 10
3671.06793382627
 20
3691.43932768014
 30
0.0
 11
3681.067933826271
 21
3691.43932768014
 31
0.0
 12
3676.067933826271
 22
3721.43932768014
 32
0.0
 13
3676.067933826271
 23
3721.43932768014
 33
0.0
  0
SOLID
  5
C1B2
330
B216
100
AcDbEntity
  8
寸法引出
 48
25.0
100
AcDbTrace
 10
3671.06793382627
 20
3171.43932768014
 30
0.0
 11
3681.067933826271
 21
3171.43932768014
 31
0.0
 12
3676.067933826271
 22
3141.43932768014
 32
0.0
 13
3676.067933826271
 23
3141.43932768014
 33
0.0
  0
MTEXT
  5
C1B3
330
B216
100
AcDbEntity
  8
寸法引出
 48
25.0
100
AcDbMText
 10
3636.06793382627
 20
3431.439327680141
 30
0.0
 40
40.0
 41
0.0
 71
     5
 72
     1
  1
\A1;580
  7
SANWA
 11
0.0000000000000001
 21
1.0
 31
0.0
 73
     1
 44
1.0
  0
POINT
  5
C1B4
330
B216
100
AcDbEntity
  8
DEFPOINTS
 62
     0
 48
25.0
100
AcDbPoint
 10
3900.252698757795
 20
3721.43932768014
 30
0.0
  0
POINT
  5
C1B5
330
B216
100
AcDbEntity
  8
DEFPOINTS
 62
     0
 48
25.0
100
AcDbPoint
 10
3910.252698757795
 20
3141.43932768014
 30
0.0
  0
POINT
  5
C1B6
330
B216
100
AcDbEntity
  8
DEFPOINTS
 62
     0
 48
25.0
100
AcDbPoint
 10
3676.067933826271
 20
3141.43932768014
 30
0.0
  0
ENDBLK
  5
B221
330
B216
100
AcDbEntity
  8
0
 48
25.0
100
AcDbBlockEnd
  0
BLOCK
  5
B22C
330
B222
100
AcDbEntity
  8
0
 48
25.0
100
AcDbBlockBegin
  2
*D65
 70
     1
 10
0.0
 20
0.0
 30
0.0
  3
*D65
  1

  0
LINE
  5
C0EB
330
B222
100
AcDbEntity
  8
寸法引出
 48
25.0
370
    -2
100
AcDbLine
 10
2077.06248246149
 20
3721.43932768014
 30
0.0
 11
1878.257917203191
 21
3721.43932768014
 31
0.0
  0
LINE
  5
C0EC
330
B222
100
AcDbEntity
  8
寸法引出
 48
25.0
370
    -2
100
AcDbLine
 10
2107.062482461489
 20
3141.43932768014
 30
0.0
 11
1878.257917203191
 21
3141.43932768014
 31
0.0
  0
LINE
  5
C0ED
330
B222
100
AcDbEntity
  8
寸法引出
 48
25.0
370
    -2
100
AcDbLine
 10
1888.257917203191
 20
3691.43932768014
 30
0.0
 11
1888.257917203191
 21
3171.43932768014
 31
0.0
  0
SOLID
  5
C0EE
330
B222
100
AcDbEntity
  8
寸法引出
 48
25.0
100
AcDbTrace
 10
1883.257917203191
 20
3691.43932768014
 30
0.0
 11
1893.257917203191
 21
3691.43932768014
 31
0.0
 12
1888.257917203191
 22
3721.43932768014
 32
0.0
 13
1888.257917203191
 23
3721.43932768014
 33
0.0
  0
SOLID
  5
C0EF
330
B222
100
AcDbEntity
  8
寸法引出
 48
25.0
100
AcDbTrace
 10
1883.257917203191
 20
3171.43932768014
 30
0.0
 11
1893.257917203191
 21
3171.43932768014
 31
0.0
 12
1888.257917203191
 22
3141.43932768014
 32
0.0
 13
1888.257917203191
 23
3141.43932768014
 33
0.0
  0
MTEXT
  5
C0F0
330
B222
100
AcDbEntity
  8
寸法引出
 48
25.0
100
AcDbMText
 10
1848.25791720319
 20
3431.43932768014
 30
0.0
 40
40.0
 41
0.0
 71
     5
 72
     1
  1
\A1;580
  7
SANWA
 11
0.0000000000000001
 21
1.0
 31
0.0
 73
     1
 44
1.0
  0
POINT
  5
C0F1
330
B222
100
AcDbEntity
  8
DEFPOINTS
 62
     0
 48
25.0
100
AcDbPoint
 10
2097.06248246149
 20
3721.43932768014
 30
0.0
  0
POINT
  5
C0F2
330
B222
100
AcDbEntity
  8
DEFPOINTS
 62
     0
 48
25.0
100
AcDbPoint
 10
2127.062482461489
 20
3141.43932768014
 30
0.0
  0
POINT
  5
C0F3
330
B222
100
AcDbEntity
  8
DEFPOINTS
 62
     0
 48
25.0
100
AcDbPoint
 10
1888.257917203191
 20
3141.43932768014
 30
0.0
  0
ENDBLK
  5
B22D
330
B222
100
AcDbEntity
  8
0
 48
25.0
100
AcDbBlockEnd
  0
BLOCK
  5
B238
330
B22E
100
AcDbEntity
  8
0
 48
25.0
100
AcDbBlockBegin
  2
*D66
 70
     1
 10
0.0
 20
0.0
 30
0.0
  3
*D66
  1

  0
LINE
  5
C0BA
330
B22E
100
AcDbEntity
  8
寸法引出
 48
25.0
370
    -2
100
AcDbLine
 10
2147.062482461489
 20
3741.43932768014
 30
0.0
 11
2147.062482461489
 21
3837.42826784042
 31
0.0
  0
LINE
  5
C0BB
330
B22E
100
AcDbEntity
  8
寸法引出
 48
25.0
370
    -2
100
AcDbLine
 10
2447.06248246149
 20
3741.43932768014
 30
0.0
 11
2447.06248246149
 21
3837.42826784042
 31
0.0
  0
LINE
  5
C0BC
330
B22E
100
AcDbEntity
  8
寸法引出
 48
25.0
370
    -2
100
AcDbLine
 10
2177.06248246149
 20
3827.428267840419
 30
0.0
 11
2417.062482461489
 21
3827.428267840419
 31
0.0
  0
SOLID
  5
C0BD
330
B22E
100
AcDbEntity
  8
寸法引出
 48
25.0
100
AcDbTrace
 10
2177.06248246149
 20
3832.428267840419
 30
0.0
 11
2177.06248246149
 21
3822.42826784042
 31
0.0
 12
2147.062482461489
 22
3827.428267840419
 32
0.0
 13
2147.062482461489
 23
3827.428267840419
 33
0.0
  0
SOLID
  5
C0BE
330
B22E
100
AcDbEntity
  8
寸法引出
 48
25.0
100
AcDbTrace
 10
2417.062482461489
 20
3832.428267840419
 30
0.0
 11
2417.062482461489
 21
3822.42826784042
 31
0.0
 12
2447.06248246149
 22
3827.428267840419
 32
0.0
 13
2447.06248246149
 23
3827.428267840419
 33
0.0
  0
MTEXT
  5
C0BF
330
B22E
100
AcDbEntity
  8
寸法引出
 48
25.0
100
AcDbMText
 10
2297.062482461489
 20
3867.42826784042
 30
0.0
 40
40.0
 41
0.0
 71
     5
 72
     1
  1
\A1;300
  7
SANWA
 73
     1
 44
1.0
  0
POINT
  5
C0C0
330
B22E
100
AcDbEntity
  8
DEFPOINTS
 62
     0
 48
25.0
100
AcDbPoint
 10
2147.062482461489
 20
3721.43932768014
 30
0.0
  0
POINT
  5
C0C1
330
B22E
100
AcDbEntity
  8
DEFPOINTS
 62
     0
 48
25.0
100
AcDbPoint
 10
2447.06248246149
 20
3721.43932768014
 30
0.0
  0
POINT
  5
C0C2
330
B22E
100
AcDbEntity
  8
DEFPOINTS
 62
     0
 48
25.0
100
AcDbPoint
 10
2447.06248246149
 20
3827.428267840419
 30
0.0
  0
ENDBLK
  5
B239
330
B22E
100
AcDbEntity
  8
0
 48
25.0
100
AcDbBlockEnd
  0
BLOCK
  5
B246
330
B23A
100
AcDbEntity
  8
0
 48
25.0
100
AcDbBlockBegin
  2
*D67
 70
     1
 10
0.0
 20
0.0
 30
0.0
  3
*D67
  1

  0
LINE
  5
C0C3
330
B23A
100
AcDbEntity
  8
寸法引出
 48
25.0
370
    -2
100
AcDbLine
 10
2147.062482461489
 20
3741.43932768014
 30
0.0
 11
2147.062482461489
 21
3837.42826784042
 31
0.0
  0
LINE
  5
C0C4
330
B23A
100
AcDbEntity
  8
寸法引出
 48
25.0
370
    -2
100
AcDbLine
 10
2097.06248246149
 20
3741.43932768014
 30
0.0
 11
2097.06248246149
 21
3837.42826784042
 31
0.0
  0
LINE
  5
C0C5
330
B23A
100
AcDbEntity
  8
寸法引出
 48
25.0
370
    -2
100
AcDbLine
 10
2177.06248246149
 20
3827.428267840419
 30
0.0
 11
2207.062482461489
 21
3827.428267840419
 31
0.0
  0
LINE
  5
C0C6
330
B23A
100
AcDbEntity
  8
寸法引出
 48
25.0
370
    -2
100
AcDbLine
 10
2067.062482461489
 20
3827.428267840419
 30
0.0
 11
2037.062482461489
 21
3827.428267840419
 31
0.0
  0
LINE
  5
C0C7
330
B23A
100
AcDbEntity
  8
寸法引出
 48
25.0
370
    -2
100
AcDbLine
 10
2147.062482461489
 20
3827.428267840419
 30
0.0
 11
2097.06248246149
 21
3827.428267840419
 31
0.0
  0
SOLID
  5
C0C8
330
B23A
100
AcDbEntity
  8
寸法引出
 48
25.0
100
AcDbTrace
 10
2177.06248246149
 20
3832.428267840419
 30
0.0
 11
2177.06248246149
 21
3822.42826784042
 31
0.0
 12
2147.062482461489
 22
3827.428267840419
 32
0.0
 13
2147.062482461489
 23
3827.428267840419
 33
0.0
  0
SOLID
  5
C0C9
330
B23A
100
AcDbEntity
  8
寸法引出
 48
25.0
100
AcDbTrace
 10
2067.062482461489
 20
3832.428267840419
 30
0.0
 11
2067.062482461489
 21
3822.42826784042
 31
0.0
 12
2097.06248246149
 22
3827.428267840419
 32
0.0
 13
2097.06248246149
 23
3827.428267840419
 33
0.0
  0
MTEXT
  5
C0CA
330
B23A
100
AcDbEntity
  8
寸法引出
 48
25.0
100
AcDbMText
 10
2122.062482461489
 20
3867.42826784042
 30
0.0
 40
40.0
 41
0.0
 71
     5
 72
     1
  1
\A1;50
  7
SANWA
 73
     1
 44
1.0
  0
POINT
  5
C0CB
330
B23A
100
AcDbEntity
  8
DEFPOINTS
 62
     0
 48
25.0
100
AcDbPoint
 10
2147.062482461489
 20
3721.43932768014
 30
0.0
  0
POINT
  5
C0CC
330
B23A
100
AcDbEntity
  8
DEFPOINTS
 62
     0
 48
25.0
100
AcDbPoint
 10
2097.06248246149
 20
3721.43932768014
 30
0.0
  0
POINT
  5
C0CD
330
B23A
100
AcDbEntity
  8
DEFPOINTS
 62
     0
 48
25.0
100
AcDbPoint
 10
2097.06248246149
 20
3827.428267840419
 30
0.0
  0
ENDBLK
  5
B247
330
B23A
100
AcDbEntity
  8
0
 48
25.0
100
AcDbBlockEnd
  0
BLOCK
  5
B252
330
B248
100
AcDbEntity
  8
0
 48
25.0
100
AcDbBlockBegin
  2
*D68
 70
     1
 10
0.0
 20
0.0
 30
0.0
  3
*D68
  1

  0
LINE
  5
C0CE
330
B248
100
AcDbEntity
  8
寸法引出
 48
25.0
370
    -2
100
AcDbLine
 10
2097.06248246149
 20
3741.43932768014
 30
0.0
 11
2097.06248246149
 21
3945.546199616514
 31
0.0
  0
LINE
  5
C0CF
330
B248
100
AcDbEntity
  8
寸法引出
 48
25.0
370
    -2
100
AcDbLine
 10
2497.062482461489
 20
3741.43932768014
 30
0.0
 11
2497.062482461489
 21
3945.546199616514
 31
0.0
  0
LINE
  5
C0D0
330
B248
100
AcDbEntity
  8
寸法引出
 48
25.0
370
    -2
100
AcDbLine
 10
2127.062482461489
 20
3935.546199616513
 30
0.0
 11
2467.062482461489
 21
3935.546199616513
 31
0.0
  0
SOLID
  5
C0D1
330
B248
100
AcDbEntity
  8
寸法引出
 48
25.0
100
AcDbTrace
 10
2127.062482461489
 20
3940.546199616514
 30
0.0
 11
2127.062482461489
 21
3930.546199616514
 31
0.0
 12
2097.06248246149
 22
3935.546199616513
 32
0.0
 13
2097.06248246149
 23
3935.546199616513
 33
0.0
  0
SOLID
  5
C0D2
330
B248
100
AcDbEntity
  8
寸法引出
 48
25.0
100
AcDbTrace
 10
2467.062482461489
 20
3940.546199616514
 30
0.0
 11
2467.062482461489
 21
3930.546199616514
 31
0.0
 12
2497.062482461489
 22
3935.546199616513
 32
0.0
 13
2497.062482461489
 23
3935.546199616513
 33
0.0
  0
MTEXT
  5
C0D3
330
B248
100
AcDbEntity
  8
寸法引出
 48
25.0
100
AcDbMText
 10
2297.062482461489
 20
3975.546199616514
 30
0.0
 40
40.0
 41
0.0
 71
     5
 72
     1
  1
\A1;400
  7
SANWA
 73
     1
 44
1.0
  0
POINT
  5
C0D4
330
B248
100
AcDbEntity
  8
DEFPOINTS
 62
     0
 48
25.0
100
AcDbPoint
 10
2097.06248246149
 20
3721.43932768014
 30
0.0
  0
POINT
  5
C0D5
330
B248
100
AcDbEntity
  8
DEFPOINTS
 62
     0
 48
25.0
100
AcDbPoint
 10
2497.062482461489
 20
3721.43932768014
 30
0.0
  0
POINT
  5
C0D6
330
B248
100
AcDbEntity
  8
DEFPOINTS
 62
     0
 48
25.0
100
AcDbPoint
 10
2497.062482461489
 20
3935.546199616513
 30
0.0
  0
ENDBLK
  5
B253
330
B248
100
AcDbEntity
  8
0
 48
25.0
100
AcDbBlockEnd
  0
BLOCK
  5
B25E
330
B254
100
AcDbEntity
  8
0
 48
25.0
100
AcDbBlockBegin
  2
*D69
 70
     1
 10
0.0
 20
0.0
 30
0.0
  3
*D69
  1

  0
LINE
  5
C0D7
330
B254
100
AcDbEntity
  8
寸法引出
 48
25.0
370
    -2
100
AcDbLine
 10
2177.06248246149
 20
3121.43932768014
 30
0.0
 11
2177.06248246149
 21
2926.614935398034
 31
0.0
  0
LINE
  5
C0D8
330
B254
100
AcDbEntity
  8
寸法引出
 48
25.0
370
    -2
100
AcDbLine
 10
2417.062482461489
 20
3121.43932768014
 30
0.0
 11
2417.062482461489
 21
2926.614935398034
 31
0.0
  0
LINE
  5
C0D9
330
B254
100
AcDbEntity
  8
寸法引出
 48
25.0
370
    -2
100
AcDbLine
 10
2207.062482461489
 20
2936.614935398035
 30
0.0
 11
2387.062482461489
 21
2936.614935398035
 31
0.0
  0
SOLID
  5
C0DA
330
B254
100
AcDbEntity
  8
寸法引出
 48
25.0
100
AcDbTrace
 10
2207.062482461489
 20
2941.614935398034
 30
0.0
 11
2207.062482461489
 21
2931.614935398034
 31
0.0
 12
2177.06248246149
 22
2936.614935398035
 32
0.0
 13
2177.06248246149
 23
2936.614935398035
 33
0.0
  0
SOLID
  5
C0DB
330
B254
100
AcDbEntity
  8
寸法引出
 48
25.0
100
AcDbTrace
 10
2387.062482461489
 20
2941.614935398034
 30
0.0
 11
2387.062482461489
 21
2931.614935398034
 31
0.0
 12
2417.062482461489
 22
2936.614935398035
 32
0.0
 13
2417.062482461489
 23
2936.614935398035
 33
0.0
  0
MTEXT
  5
C0DC
330
B254
100
AcDbEntity
  8
寸法引出
 48
25.0
100
AcDbMText
 10
2297.062482461489
 20
2976.614935398034
 30
0.0
 40
40.0
 41
0.0
 71
     5
 72
     1
  1
\A1;240
  7
SANWA
 73
     1
 44
1.0
  0
POINT
  5
C0DD
330
B254
100
AcDbEntity
  8
DEFPOINTS
 62
     0
 48
25.0
100
AcDbPoint
 10
2177.06248246149
 20
3141.43932768014
 30
0.0
  0
POINT
  5
C0DE
330
B254
100
AcDbEntity
  8
DEFPOINTS
 62
     0
 48
25.0
100
AcDbPoint
 10
2417.062482461489
 20
3141.43932768014
 30
0.0
  0
POINT
  5
C0DF
330
B254
100
AcDbEntity
  8
DEFPOINTS
 62
     0
 48
25.0
100
AcDbPoint
 10
2417.062482461489
 20
2936.614935398035
 30
0.0
  0
ENDBLK
  5
B25F
330
B254
100
AcDbEntity
  8
0
 48
25.0
100
AcDbBlockEnd
  0
BLOCK
  5
B26C
330
B260
100
AcDbEntity
  8
0
 48
25.0
100
AcDbBlockBegin
  2
*D70
 70
     1
 10
0.0
 20
0.0
 30
0.0
  3
*D70
  1

  0
LINE
  5
C0F4
330
B260
100
AcDbEntity
  8
寸法引出
 48
25.0
370
    -2
100
AcDbLine
 10
2177.06248246149
 20
3121.43932768014
 30
0.0
 11
2177.06248246149
 21
2926.614935398034
 31
0.0
  0
LINE
  5
C0F5
330
B260
100
AcDbEntity
  8
寸法引出
 48
25.0
370
    -2
100
AcDbLine
 10
2097.06248246149
 20
3151.43932768014
 30
0.0
 11
2097.06248246149
 21
2926.614935398034
 31
0.0
  0
LINE
  5
C0F6
330
B260
100
AcDbEntity
  8
寸法引出
 48
25.0
370
    -2
100
AcDbLine
 10
2207.062482461489
 20
2936.614935398035
 30
0.0
 11
2237.062482461489
 21
2936.614935398035
 31
0.0
  0
LINE
  5
C0F7
330
B260
100
AcDbEntity
  8
寸法引出
 48
25.0
370
    -2
100
AcDbLine
 10
2067.062482461489
 20
2936.614935398035
 30
0.0
 11
2037.062482461489
 21
2936.614935398035
 31
0.0
  0
LINE
  5
C0F8
330
B260
100
AcDbEntity
  8
寸法引出
 48
25.0
370
    -2
100
AcDbLine
 10
2177.06248246149
 20
2936.614935398035
 30
0.0
 11
2097.06248246149
 21
2936.614935398035
 31
0.0
  0
SOLID
  5
C0F9
330
B260
100
AcDbEntity
  8
寸法引出
 48
25.0
100
AcDbTrace
 10
2207.062482461489
 20
2941.614935398034
 30
0.0
 11
2207.062482461489
 21
2931.614935398034
 31
0.0
 12
2177.06248246149
 22
2936.614935398035
 32
0.0
 13
2177.06248246149
 23
2936.614935398035
 33
0.0
  0
SOLID
  5
C0FA
330
B260
100
AcDbEntity
  8
寸法引出
 48
25.0
100
AcDbTrace
 10
2067.062482461489
 20
2941.614935398034
 30
0.0
 11
2067.062482461489
 21
2931.614935398034
 31
0.0
 12
2097.06248246149
 22
2936.614935398035
 32
0.0
 13
2097.06248246149
 23
2936.614935398035
 33
0.0
  0
MTEXT
  5
C0FB
330
B260
100
AcDbEntity
  8
寸法引出
 48
25.0
100
AcDbMText
 10
2137.062482461489
 20
2976.614935398034
 30
0.0
 40
40.0
 41
0.0
 71
     5
 72
     1
  1
\A1;80
  7
SANWA
 73
     1
 44
1.0
  0
POINT
  5
C0FC
330
B260
100
AcDbEntity
  8
DEFPOINTS
 62
     0
 48
25.0
100
AcDbPoint
 10
2177.06248246149
 20
3141.43932768014
 30
0.0
  0
POINT
  5
C0FD
330
B260
100
AcDbEntity
  8
DEFPOINTS
 62
     0
 48
25.0
100
AcDbPoint
 10
2097.06248246149
 20
3171.43932768014
 30
0.0
  0
POINT
  5
C0FE
330
B260
100
AcDbEntity
  8
DEFPOINTS
 62
     0
 48
25.0
100
AcDbPoint
 10
2097.06248246149
 20
2936.614935398035
 30
0.0
  0
ENDBLK
  5
B26D
330
B260
100
AcDbEntity
  8
0
 48
25.0
100
AcDbBlockEnd
  0
BLOCK
  5
B27A
330
B26E
100
AcDbEntity
  8
0
 48
25.0
100
AcDbBlockBegin
  2
*D71
 70
     1
 10
0.0
 20
0.0
 30
0.0
  3
*D71
  1

  0
LINE
  5
C0E0
330
B26E
100
AcDbEntity
  8
寸法引出
 48
25.0
370
    -2
100
AcDbLine
 10
2082.920346837759
 20
3185.581463303872
 30
0.0
 11
2030.794358553547
 21
3237.707451588084
 31
0.0
  0
LINE
  5
C0E1
330
B26E
100
AcDbEntity
  8
寸法引出
 48
25.0
370
    -2
100
AcDbLine
 10
2107.062482461489
 20
3141.43932768014
 30
0.0
 11
1990.918796006662
 21
3141.43932768014
 31
0.0
  0
ARC
  5
C0E2
330
B26E
100
AcDbEntity
  8
寸法引出
 48
25.0
370
    -2
100
AcDbCircle
 10
2127.062482461489
 20
3141.43932768014
 30
0.0
 40
126.1436864548272
100
AcDbArc
 50
148.6586321468733
 51
166.341367853126
  0
SOLID
  5
C0E3
330
B26E
100
AcDbEntity
  8
寸法引出
 48
25.0
100
AcDbTrace
 10
2015.394373694177
 20
3210.14121869158
 30
0.0
 11
2023.25610575791
 21
3203.961156478457
 31
0.0
 12
2037.865426365412
 22
3230.636383776219
 32
0.0
 13
2037.865426365412
 23
3230.636383776219
 33
0.0
  0
SOLID
  5
C0E4
330
B26E
100
AcDbEntity
  8
寸法引出
 48
25.0
100
AcDbTrace
 10
2009.450680448508
 20
3170.631911462172
 30
0.0
 11
1999.521632495318
 21
3171.821031617255
 31
0.0
 12
2000.918796006662
 22
3141.43932768014
 32
0.0
 13
2000.918796006662
 23
3141.43932768014
 33
0.0
  0
MTEXT
  5
C0E5
330
B26E
100
AcDbEntity
  8
寸法引出
 48
25.0
100
AcDbMText
 10
2004.12205940393
 20
3253.195208631562
 30
0.0
 40
40.0
 41
0.0
 71
     5
 72
     1
  1
\A1;45°
  7
SANWA
 11
0.6726459688963694
 21
0.7399644589623646
 31
0.0
 73
     1
 44
1.0
  0
POINT
  5
C0E6
330
B26E
100
AcDbEntity
  8
DEFPOINTS
 62
     0
 48
25.0
100
AcDbPoint
 10
2005.217037891461
 20
3174.08771615409
 30
0.0
  0
POINT
  5
C0E7
330
B26E
100
AcDbEntity
  8
DEFPOINTS
 62
     0
 48
25.0
100
AcDbPoint
 10
2097.06248246149
 20
3171.43932768014
 30
0.0
  0
POINT
  5
C0E8
330
B26E
100
AcDbEntity
  8
DEFPOINTS
 62
     0
 48
25.0
100
AcDbPoint
 10
2467.062482461489
 20
3141.43932768014
 30
0.0
  0
POINT
  5
C0E9
330
B26E
100
AcDbEntity
  8
DEFPOINTS
 62
     0
 48
25.0
100
AcDbPoint
 10
2127.062482461489
 20
3141.43932768014
 30
0.0
  0
POINT
  5
C0EA
330
B26E
100
AcDbEntity
  8
DEFPOINTS
 62
     0
 48
25.0
100
AcDbPoint
 10
2127.062482461489
 20
3141.43932768014
 30
0.0
  0
ENDBLK
  5
B27B
330
B26E
100
AcDbEntity
  8
0
 48
25.0
100
AcDbBlockEnd
  0
BLOCK
  5
B286
330
B27C
100
AcDbEntity
  8
0
 48
25.0
100
AcDbBlockBegin
  2
*D72
 70
     1
 10
0.0
 20
0.0
 30
0.0
  3
*D72
  1

  0
LINE
  5
C127
330
B27C
100
AcDbEntity
  8
寸法引出
 48
25.0
370
    -2
100
AcDbLine
 10
3880.252698757795
 20
2342.34349376606
 30
0.0
 11
3666.067933826271
 21
2342.34349376606
 31
0.0
  0
LINE
  5
C128
330
B27C
100
AcDbEntity
  8
寸法引出
 48
25.0
370
    -2
100
AcDbLine
 10
3880.252698757795
 20
1942.343493766061
 30
0.0
 11
3666.067933826271
 21
1942.343493766061
 31
0.0
  0
LINE
  5
C129
330
B27C
100
AcDbEntity
  8
寸法引出
 48
25.0
370
    -2
100
AcDbLine
 10
3676.067933826271
 20
2312.34349376606
 30
0.0
 11
3676.067933826271
 21
1972.343493766061
 31
0.0
  0
SOLID
  5
C12A
330
B27C
100
AcDbEntity
  8
寸法引出
 48
25.0
100
AcDbTrace
 10
3671.06793382627
 20
2312.34349376606
 30
0.0
 11
3681.067933826271
 21
2312.34349376606
 31
0.0
 12
3676.067933826271
 22
2342.34349376606
 32
0.0
 13
3676.067933826271
 23
2342.34349376606
 33
0.0
  0
SOLID
  5
C12B
330
B27C
100
AcDbEntity
  8
寸法引出
 48
25.0
100
AcDbTrace
 10
3671.06793382627
 20
1972.343493766061
 30
0.0
 11
3681.067933826271
 21
1972.343493766061
 31
0.0
 12
3676.067933826271
 22
1942.343493766061
 32
0.0
 13
3676.067933826271
 23
1942.343493766061
 33
0.0
  0
MTEXT
  5
C12C
330
B27C
100
AcDbEntity
  8
寸法引出
 48
25.0
100
AcDbMText
 10
3636.06793382627
 20
2142.343493766062
 30
0.0
 40
40.0
 41
0.0
 71
     5
 72
     1
  1
\A1;400
  7
SANWA
 11
0.0000000000000001
 21
1.0
 31
0.0
 73
     1
 44
1.0
  0
POINT
  5
C12D
330
B27C
100
AcDbEntity
  8
DEFPOINTS
 62
     0
 48
25.0
100
AcDbPoint
 10
3900.252698757795
 20
2342.34349376606
 30
0.0
  0
POINT
  5
C12E
330
B27C
100
AcDbEntity
  8
DEFPOINTS
 62
     0
 48
25.0
100
AcDbPoint
 10
3900.252698757795
 20
1942.343493766061
 30
0.0
  0
POINT
  5
C12F
330
B27C
100
AcDbEntity
  8
DEFPOINTS
 62
     0
 48
25.0
100
AcDbPoint
 10
3676.067933826271
 20
1942.343493766061
 30
0.0
  0
ENDBLK
  5
B287
330
B27C
100
AcDbEntity
  8
0
 48
25.0
100
AcDbBlockEnd
  0
BLOCK
  5
B291
330
B288
100
AcDbEntity
  8
0
 48
25.0
100
AcDbBlockBegin
  2
*D73
 70
     1
 10
0.0
 20
0.0
 30
0.0
  3
*D73
  1

  0
LINE
  5
C1A6
330
B288
100
AcDbEntity
  8
寸法引出
 48
25.0
370
    -2
100
AcDbLine
 10
5020.252698757794
 20
3741.43932768014
 30
0.0
 11
5020.252698757794
 21
3850.87910978941
 31
0.0
  0
LINE
  5
C1A7
330
B288
100
AcDbEntity
  8
寸法引出
 48
25.0
370
    -2
100
AcDbLine
 10
4810.252698757795
 20
3840.87910978941
 30
0.0
 11
4990.252698757795
 21
3840.87910978941
 31
0.0
  0
SOLID
  5
C1A8
330
B288
100
AcDbEntity
  8
寸法引出
 48
25.0
100
AcDbTrace
 10
4810.252698757795
 20
3845.879109789409
 30
0.0
 11
4810.252698757795
 21
3835.879109789409
 31
0.0
 12
4780.252698757794
 22
3840.87910978941
 32
0.0
 13
4780.252698757794
 23
3840.87910978941
 33
0.0
  0
SOLID
  5
C1A9
330
B288
100
AcDbEntity
  8
寸法引出
 48
25.0
100
AcDbTrace
 10
4990.252698757795
 20
3845.879109789409
 30
0.0
 11
4990.252698757795
 21
3835.879109789409
 31
0.0
 12
5020.252698757794
 22
3840.87910978941
 32
0.0
 13
5020.252698757794
 23
3840.87910978941
 33
0.0
  0
MTEXT
  5
C1AA
330
B288
100
AcDbEntity
  8
寸法引出
 48
25.0
100
AcDbMText
 10
4900.252698757795
 20
3880.87910978941
 30
0.0
 40
40.0
 41
0.0
 71
     5
 72
     1
  1
\A1;240
  7
SANWA
 73
     1
 44
1.0
  0
POINT
  5
C1AB
330
B288
100
AcDbEntity
  8
DEFPOINTS
 62
     0
 48
25.0
100
AcDbPoint
 10
4780.252698757794
 20
3721.43932768014
 30
0.0
  0
POINT
  5
C1AC
330
B288
100
AcDbEntity
  8
DEFPOINTS
 62
     0
 48
25.0
100
AcDbPoint
 10
5020.252698757794
 20
3721.43932768014
 30
0.0
  0
POINT
  5
C1AD
330
B288
100
AcDbEntity
  8
DEFPOINTS
 62
     0
 48
25.0
100
AcDbPoint
 10
5020.252698757794
 20
3840.87910978941
 30
0.0
  0
ENDBLK
  5
B292
330
B288
100
AcDbEntity
  8
0
 48
25.0
100
AcDbBlockEnd
  0
BLOCK
  5
B29D
330
B293
100
AcDbEntity
  8
0
 48
25.0
100
AcDbBlockBegin
  2
*D74
 70
     1
 10
0.0
 20
0.0
 30
0.0
  3
*D74
  1

  0
LINE
  5
C183
330
B293
100
AcDbEntity
  8
寸法引出
 48
25.0
370
    -2
100
AcDbLine
 10
3900.252698757795
 20
2362.343493766061
 30
0.0
 11
3900.252698757795
 21
2425.286904181255
 31
0.0
  0
LINE
  5
C184
330
B293
100
AcDbEntity
  8
寸法引出
 48
25.0
370
    -2
100
AcDbLine
 10
5900.252698757795
 20
2362.343493766061
 30
0.0
 11
5900.252698757795
 21
2425.286904181255
 31
0.0
  0
LINE
  5
C185
330
B293
100
AcDbEntity
  8
寸法引出
 48
25.0
370
    -2
100
AcDbLine
 10
3930.252698757795
 20
2415.286904181256
 30
0.0
 11
5870.252698757795
 21
2415.286904181256
 31
0.0
  0
SOLID
  5
C186
330
B293
100
AcDbEntity
  8
寸法引出
 48
25.0
100
AcDbTrace
 10
3930.252698757795
 20
2420.286904181256
 30
0.0
 11
3930.252698757795
 21
2410.286904181256
 31
0.0
 12
3900.252698757795
 22
2415.286904181256
 32
0.0
 13
3900.252698757795
 23
2415.286904181256
 33
0.0
  0
SOLID
  5
C187
330
B293
100
AcDbEntity
  8
寸法引出
 48
25.0
100
AcDbTrace
 10
5870.252698757795
 20
2420.286904181256
 30
0.0
 11
5870.252698757795
 21
2410.286904181256
 31
0.0
 12
5900.252698757795
 22
2415.286904181256
 32
0.0
 13
5900.252698757795
 23
2415.286904181256
 33
0.0
  0
MTEXT
  5
C188
330
B293
100
AcDbEntity
  8
寸法引出
 48
25.0
100
AcDbMText
 10
4900.252698757795
 20
2455.286904181256
 30
0.0
 40
40.0
 41
0.0
 71
     5
 72
     1
  1
\A1;2000
  7
SANWA
 73
     1
 44
1.0
  0
POINT
  5
C189
330
B293
100
AcDbEntity
  8
DEFPOINTS
 62
     0
 48
25.0
100
AcDbPoint
 10
3900.252698757795
 20
2342.34349376606
 30
0.0
  0
POINT
  5
C18A
330
B293
100
AcDbEntity
  8
DEFPOINTS
 62
     0
 48
25.0
100
AcDbPoint
 10
5900.252698757795
 20
2342.34349376606
 30
0.0
  0
POINT
  5
C18B
330
B293
100
AcDbEntity
  8
DEFPOINTS
 62
     0
 48
25.0
100
AcDbPoint
 10
5900.252698757795
 20
2415.286904181256
 30
0.0
  0
ENDBLK
  5
B29E
330
B293
100
AcDbEntity
  8
0
 48
25.0
100
AcDbBlockEnd
  0
BLOCK
  5
B2CD
330
B2C4
100
AcDbEntity
  8
0
 48
25.0
100
AcDbBlockBegin
  2
*D75
 70
     1
 10
0.0
 20
0.0
 30
0.0
  3
*D75
  1

  0
LINE
  5
C1CB
330
B2C4
100
AcDbEntity
  8
寸法引出
 48
25.0
370
    -2
100
AcDbLine
 10
5900.252698757795
 20
3741.43932768014
 30
0.0
 11
5900.252698757795
 21
3850.87910978941
 31
0.0
  0
LINE
  5
C1CC
330
B2C4
100
AcDbEntity
  8
寸法引出
 48
25.0
370
    -2
100
AcDbLine
 10
5810.252698757795
 20
3840.87910978941
 30
0.0
 11
5870.252698757795
 21
3840.87910978941
 31
0.0
  0
SOLID
  5
C1CD
330
B2C4
100
AcDbEntity
  8
寸法引出
 48
25.0
100
AcDbTrace
 10
5810.252698757795
 20
3845.879109789409
 30
0.0
 11
5810.252698757795
 21
3835.879109789409
 31
0.0
 12
5780.252698757795
 22
3840.87910978941
 32
0.0
 13
5780.252698757795
 23
3840.87910978941
 33
0.0
  0
SOLID
  5
C1CE
330
B2C4
100
AcDbEntity
  8
寸法引出
 48
25.0
100
AcDbTrace
 10
5870.252698757795
 20
3845.879109789409
 30
0.0
 11
5870.252698757795
 21
3835.879109789409
 31
0.0
 12
5900.252698757795
 22
3840.87910978941
 32
0.0
 13
5900.252698757795
 23
3840.87910978941
 33
0.0
  0
MTEXT
  5
C1CF
330
B2C4
100
AcDbEntity
  8
寸法引出
 48
25.0
100
AcDbMText
 10
5840.252698757795
 20
3880.87910978941
 30
0.0
 40
40.0
 41
0.0
 71
     5
 72
     1
  1
\A1;120
  7
SANWA
 73
     1
 44
1.0
  0
POINT
  5
C1D0
330
B2C4
100
AcDbEntity
  8
DEFPOINTS
 62
     0
 48
25.0
100
AcDbPoint
 10
5780.252698757795
 20
3721.43932768014
 30
0.0
  0
POINT
  5
C1D1
330
B2C4
100
AcDbEntity
  8
DEFPOINTS
 62
     0
 48
25.0
100
AcDbPoint
 10
5900.252698757795
 20
3721.43932768014
 30
0.0
  0
POINT
  5
C1D2
330
B2C4
100
AcDbEntity
  8
DEFPOINTS
 62
     0
 48
25.0
100
AcDbPoint
 10
5900.252698757795
 20
3840.87910978941
 30
0.0
  0
ENDBLK
  5
B2CE
330
B2C4
100
AcDbEntity
  8
0
 48
25.0
100
AcDbBlockEnd
  0
BLOCK
  5
B2D8
330
B2CF
100
AcDbEntity
  8
0
 48
25.0
100
AcDbBlockBegin
  2
*D76
 70
     1
 10
0.0
 20
0.0
 30
0.0
  3
*D76
  1

  0
LINE
  5
C17B
330
B2CF
100
AcDbEntity
  8
寸法引出
 48
25.0
370
    -2
100
AcDbLine
 10
5780.252698757795
 20
3741.43932768014
 30
0.0
 11
5780.252698757795
 21
3850.87910978941
 31
0.0
  0
LINE
  5
C17C
330
B2CF
100
AcDbEntity
  8
寸法引出
 48
25.0
370
    -2
100
AcDbLine
 10
5050.252698757795
 20
3840.87910978941
 30
0.0
 11
5750.252698757795
 21
3840.87910978941
 31
0.0
  0
SOLID
  5
C17D
330
B2CF
100
AcDbEntity
  8
寸法引出
 48
25.0
100
AcDbTrace
 10
5050.252698757795
 20
3845.879109789409
 30
0.0
 11
5050.252698757795
 21
3835.879109789409
 31
0.0
 12
5020.252698757794
 22
3840.87910978941
 32
0.0
 13
5020.252698757794
 23
3840.87910978941
 33
0.0
  0
SOLID
  5
C17E
330
B2CF
100
AcDbEntity
  8
寸法引出
 48
25.0
100
AcDbTrace
 10
5750.252698757795
 20
3845.879109789409
 30
0.0
 11
5750.252698757795
 21
3835.879109789409
 31
0.0
 12
5780.252698757795
 22
3840.87910978941
 32
0.0
 13
5780.252698757795
 23
3840.87910978941
 33
0.0
  0
MTEXT
  5
C17F
330
B2CF
100
AcDbEntity
  8
寸法引出
 48
25.0
100
AcDbMText
 10
5400.252698757795
 20
3880.87910978941
 30
0.0
 40
40.0
 41
0.0
 71
     5
 72
     1
  1
\A1;760
  7
SANWA
 73
     1
 44
1.0
  0
POINT
  5
C180
330
B2CF
100
AcDbEntity
  8
DEFPOINTS
 62
     0
 48
25.0
100
AcDbPoint
 10
5020.252698757794
 20
3721.43932768014
 30
0.0
  0
POINT
  5
C181
330
B2CF
100
AcDbEntity
  8
DEFPOINTS
 62
     0
 48
25.0
100
AcDbPoint
 10
5780.252698757795
 20
3721.43932768014
 30
0.0
  0
POINT
  5
C182
330
B2CF
100
AcDbEntity
  8
DEFPOINTS
 62
     0
 48
25.0
100
AcDbPoint
 10
5780.252698757795
 20
3840.87910978941
 30
0.0
  0
ENDBLK
  5
B2D9
330
B2CF
100
AcDbEntity
  8
0
 48
25.0
100
AcDbBlockEnd
  0
BLOCK
  5
B321
330
B317
100
AcDbEntity
  8
0
 48
25.0
100
AcDbBlockBegin
  2
*D77
 70
     1
 10
0.0
 20
0.0
 30
0.0
  3
*D77
  1

  0
LINE
  5
C195
330
B317
100
AcDbEntity
  8
寸法引出
 48
25.0
370
    -2
100
AcDbLine
 10
3900.252698757795
 20
3741.43932768014
 30
0.0
 11
3900.252698757795
 21
3850.87910978941
 31
0.0
  0
LINE
  5
C196
330
B317
100
AcDbEntity
  8
寸法引出
 48
25.0
370
    -2
100
AcDbLine
 10
4020.252698757794
 20
3741.43932768014
 30
0.0
 11
4020.252698757794
 21
3850.87910978941
 31
0.0
  0
LINE
  5
C197
330
B317
100
AcDbEntity
  8
寸法引出
 48
25.0
370
    -2
100
AcDbLine
 10
3930.252698757795
 20
3840.87910978941
 30
0.0
 11
3990.252698757795
 21
3840.87910978941
 31
0.0
  0
SOLID
  5
C198
330
B317
100
AcDbEntity
  8
寸法引出
 48
25.0
100
AcDbTrace
 10
3930.252698757795
 20
3845.879109789409
 30
0.0
 11
3930.252698757795
 21
3835.879109789409
 31
0.0
 12
3900.252698757795
 22
3840.87910978941
 32
0.0
 13
3900.252698757795
 23
3840.87910978941
 33
0.0
  0
SOLID
  5
C199
330
B317
100
AcDbEntity
  8
寸法引出
 48
25.0
100
AcDbTrace
 10
3990.252698757795
 20
3845.879109789409
 30
0.0
 11
3990.252698757795
 21
3835.879109789409
 31
0.0
 12
4020.252698757794
 22
3840.87910978941
 32
0.0
 13
4020.252698757794
 23
3840.87910978941
 33
0.0
  0
MTEXT
  5
C19A
330
B317
100
AcDbEntity
  8
寸法引出
 48
25.0
100
AcDbMText
 10
3960.252698757795
 20
3880.87910978941
 30
0.0
 40
40.0
 41
0.0
 71
     5
 72
     1
  1
\A1;120
  7
SANWA
 73
     1
 44
1.0
  0
POINT
  5
C19B
330
B317
100
AcDbEntity
  8
DEFPOINTS
 62
     0
 48
25.0
100
AcDbPoint
 10
3900.252698757795
 20
3721.43932768014
 30
0.0
  0
POINT
  5
C19C
330
B317
100
AcDbEntity
  8
DEFPOINTS
 62
     0
 48
25.0
100
AcDbPoint
 10
4020.252698757794
 20
3721.43932768014
 30
0.0
  0
POINT
  5
C19D
330
B317
100
AcDbEntity
  8
DEFPOINTS
 62
     0
 48
25.0
100
AcDbPoint
 10
4020.252698757794
 20
3840.87910978941
 30
0.0
  0
ENDBLK
  5
B322
330
B317
100
AcDbEntity
  8
0
 48
25.0
100
AcDbBlockEnd
  0
BLOCK
  5
B32C
330
B323
100
AcDbEntity
  8
0
 48
25.0
100
AcDbBlockBegin
  2
*D78
 70
     1
 10
0.0
 20
0.0
 30
0.0
  3
*D78
  1

  0
LINE
  5
C19E
330
B323
100
AcDbEntity
  8
寸法引出
 48
25.0
370
    -2
100
AcDbLine
 10
4780.252698757794
 20
3741.43932768014
 30
0.0
 11
4780.252698757794
 21
3850.87910978941
 31
0.0
  0
LINE
  5
C19F
330
B323
100
AcDbEntity
  8
寸法引出
 48
25.0
370
    -2
100
AcDbLine
 10
4050.252698757795
 20
3840.87910978941
 30
0.0
 11
4750.252698757795
 21
3840.87910978941
 31
0.0
  0
SOLID
  5
C1A0
330
B323
100
AcDbEntity
  8
寸法引出
 48
25.0
100
AcDbTrace
 10
4050.252698757795
 20
3845.879109789409
 30
0.0
 11
4050.252698757795
 21
3835.879109789409
 31
0.0
 12
4020.252698757794
 22
3840.87910978941
 32
0.0
 13
4020.252698757794
 23
3840.87910978941
 33
0.0
  0
SOLID
  5
C1A1
330
B323
100
AcDbEntity
  8
寸法引出
 48
25.0
100
AcDbTrace
 10
4750.252698757795
 20
3845.879109789409
 30
0.0
 11
4750.252698757795
 21
3835.879109789409
 31
0.0
 12
4780.252698757794
 22
3840.87910978941
 32
0.0
 13
4780.252698757794
 23
3840.87910978941
 33
0.0
  0
MTEXT
  5
C1A2
330
B323
100
AcDbEntity
  8
寸法引出
 48
25.0
100
AcDbMText
 10
4400.252698757795
 20
3880.87910978941
 30
0.0
 40
40.0
 41
0.0
 71
     5
 72
     1
  1
\A1;760
  7
SANWA
 73
     1
 44
1.0
  0
POINT
  5
C1A3
330
B323
100
AcDbEntity
  8
DEFPOINTS
 62
     0
 48
25.0
100
AcDbPoint
 10
4020.252698757794
 20
3721.43932768014
 30
0.0
  0
POINT
  5
C1A4
330
B323
100
AcDbEntity
  8
DEFPOINTS
 62
     0
 48
25.0
100
AcDbPoint
 10
4780.252698757794
 20
3721.43932768014
 30
0.0
  0
POINT
  5
C1A5
330
B323
100
AcDbEntity
  8
DEFPOINTS
 62
     0
 48
25.0
100
AcDbPoint
 10
4780.252698757794
 20
3840.87910978941
 30
0.0
  0
ENDBLK
  5
B32D
330
B323
100
AcDbEntity
  8
0
 48
25.0
100
AcDbBlockEnd
  0
BLOCK
  5
B8A9
330
B89F
100
AcDbEntity
  8
0
 48
25.0
100
AcDbBlockBegin
  2
*D79
 70
     1
 10
0.0
 20
0.0
 30
0.0
  3
*D79
  1

  0
LINE
  5
BA5C
330
B89F
100
AcDbEntity
  8
寸法引出
 48
25.0
370
    -2
100
AcDbLine
 10
14198.08402452125
 20
-2842.927256113407
 30
0.0
 11
14072.26566979807
 21
-2835.378154830016
 31
0.0
  0
LINE
  5
BA5D
330
B89F
100
AcDbEntity
  8
寸法引出
 48
25.0
370
    -2
100
AcDbLine
 10
14173.46829303207
 20
-3253.189447599842
 30
0.0
 11
14047.64993830888
 21
-3245.640346316452
 31
0.0
  0
LINE
  5
BA5E
330
B89F
100
AcDbEntity
  8
寸法引出
 48
25.0
370
    -2
100
AcDbLine
 10
14080.45094953089
 20
-2865.923223101269
 30
0.0
 11
14059.42875548538
 21
-3216.293123859758
 31
0.0
  0
SOLID
  5
BA5F
330
B89F
100
AcDbEntity
  8
寸法引出
 48
25.0
100
AcDbTrace
 10
14075.45992530356
 20
-2865.62376164763
 30
0.0
 11
14085.44197375822
 21
-2866.222684554909
 31
0.0
 12
14082.24771825273
 22
-2835.977077737296
 32
0.0
 13
14082.24771825273
 23
-2835.977077737296
 33
0.0
  0
SOLID
  5
BA60
330
B89F
100
AcDbEntity
  8
寸法引出
 48
25.0
100
AcDbTrace
 10
14054.43773125805
 20
-3215.993662406118
 30
0.0
 11
14064.41977971271
 21
-3216.592585313398
 31
0.0
 12
14057.63198676354
 22
-3246.239269223731
 32
0.0
 13
14057.63198676354
 23
-3246.239269223731
 33
0.0
  0
MTEXT
  5
BA61
330
B89F
100
AcDbEntity
  8
寸法引出
 48
25.0
100
AcDbMText
 10
14030.01165868951
 20
-3038.712481851394
 30
0.0
 40
40.0
 41
0.0
 71
     5
 72
     1
  1
\A1;411
  7
SANWA
 11
0.0598922907279421
 21
0.9982048454657789
 31
0.0
 73
     1
 44
1.0
  0
POINT
  5
BA62
330
B89F
100
AcDbEntity
  8
DEFPOINTS
 62
     0
 48
25.0
100
AcDbPoint
 10
14218.04812143056
 20
-2844.125101927966
 30
0.0
  0
POINT
  5
BA63
330
B89F
100
AcDbEntity
  8
DEFPOINTS
 62
     0
 48
25.0
100
AcDbPoint
 10
14193.43238994138
 20
-3254.387293414401
 30
0.0
  0
POINT
  5
BA64
330
B89F
100
AcDbEntity
  8
DEFPOINTS
 62
     0
 48
25.0
100
AcDbPoint
 10
14057.63198676354
 20
-3246.239269223731
 30
0.0
  0
ENDBLK
  5
B8AA
330
B89F
100
AcDbEntity
  8
0
 48
25.0
100
AcDbBlockEnd
  0
BLOCK
  5
B8B5
330
B8AB
100
AcDbEntity
  8
0
 48
25.0
100
AcDbBlockBegin
  2
*D80
 70
     1
 10
0.0
 20
0.0
 30
0.0
  3
*D80
  1

  0
LINE
  5
BA65
330
B8AB
100
AcDbEntity
  8
寸法引出
 48
25.0
370
    -2
100
AcDbLine
 10
13306.86944686432
 20
-2995.152932678884
 30
0.0
 11
13306.86944686432
 21
-2899.000377850792
 31
0.0
  0
LINE
  5
BA66
330
B8AB
100
AcDbEntity
  8
寸法引出
 48
25.0
370
    -2
100
AcDbLine
 10
13676.86944686432
 20
-2995.152932678884
 30
0.0
 11
13676.86944686432
 21
-2899.000377850792
 31
0.0
  0
LINE
  5
BA67
330
B8AB
100
AcDbEntity
  8
寸法引出
 48
25.0
370
    -2
100
AcDbLine
 10
13336.86944686432
 20
-2909.000377850793
 30
0.0
 11
13646.86944686432
 21
-2909.000377850793
 31
0.0
  0
SOLID
  5
BA68
330
B8AB
100
AcDbEntity
  8
寸法引出
 48
25.0
100
AcDbTrace
 10
13336.86944686432
 20
-2904.000377850792
 30
0.0
 11
13336.86944686432
 21
-2914.000377850792
 31
0.0
 12
13306.86944686432
 22
-2909.000377850793
 32
0.0
 13
13306.86944686432
 23
-2909.000377850793
 33
0.0
  0
SOLID
  5
BA69
330
B8AB
100
AcDbEntity
  8
寸法引出
 48
25.0
100
AcDbTrace
 10
13646.86944686432
 20
-2904.000377850792
 30
0.0
 11
13646.86944686432
 21
-2914.000377850792
 31
0.0
 12
13676.86944686432
 22
-2909.000377850793
 32
0.0
 13
13676.86944686432
 23
-2909.000377850793
 33
0.0
  0
MTEXT
  5
BA6A
330
B8AB
100
AcDbEntity
  8
寸法引出
 48
25.0
100
AcDbMText
 10
13491.86944686432
 20
-2869.000377850792
 30
0.0
 40
40.0
 41
0.0
 71
     5
 72
     1
  1
\A1;370
  7
SANWA
 73
     1
 44
1.0
  0
POINT
  5
BA6B
330
B8AB
100
AcDbEntity
  8
DEFPOINTS
 62
     0
 48
25.0
100
AcDbPoint
 10
13306.86944686432
 20
-3015.152932678884
 30
0.0
  0
POINT
  5
BA6C
330
B8AB
100
AcDbEntity
  8
DEFPOINTS
 62
     0
 48
25.0
100
AcDbPoint
 10
13676.86944686432
 20
-3015.152932678884
 30
0.0
  0
POINT
  5
BA6D
330
B8AB
100
AcDbEntity
  8
DEFPOINTS
 62
     0
 48
25.0
100
AcDbPoint
 10
13676.86944686432
 20
-2909.000377850793
 30
0.0
  0
ENDBLK
  5
B8B6
330
B8AB
100
AcDbEntity
  8
0
 48
25.0
100
AcDbBlockEnd
  0
BLOCK
  5
B8C1
330
B8B7
100
AcDbEntity
  8
0
 48
25.0
100
AcDbBlockBegin
  2
*D81
 70
     1
 10
0.0
 20
0.0
 30
0.0
  3
*D81
  1

  0
LINE
  5
BA6E
330
B8B7
100
AcDbEntity
  8
寸法引出
 48
25.0
370
    -2
100
AcDbLine
 10
14648.46952995593
 20
-1663.163138305866
 30
0.0
 11
14837.72550479667
 21
-1663.163138305866
 31
0.0
  0
LINE
  5
BA6F
330
B8B7
100
AcDbEntity
  8
寸法引出
 48
25.0
370
    -2
100
AcDbLine
 10
14648.46952995593
 20
-3603.163138305866
 30
0.0
 11
14837.72550479667
 21
-3603.163138305866
 31
0.0
  0
LINE
  5
BA70
330
B8B7
100
AcDbEntity
  8
寸法引出
 48
25.0
370
    -2
100
AcDbLine
 10
14827.72550479667
 20
-1693.163138305866
 30
0.0
 11
14827.72550479667
 21
-3573.163138305867
 31
0.0
  0
SOLID
  5
BA71
330
B8B7
100
AcDbEntity
  8
寸法引出
 48
25.0
100
AcDbTrace
 10
14822.72550479667
 20
-1693.163138305866
 30
0.0
 11
14832.72550479667
 21
-1693.163138305866
 31
0.0
 12
14827.72550479667
 22
-1663.163138305866
 32
0.0
 13
14827.72550479667
 23
-1663.163138305866
 33
0.0
  0
SOLID
  5
BA72
330
B8B7
100
AcDbEntity
  8
寸法引出
 48
25.0
100
AcDbTrace
 10
14822.72550479667
 20
-3573.163138305867
 30
0.0
 11
14832.72550479667
 21
-3573.163138305867
 31
0.0
 12
14827.72550479667
 22
-3603.163138305866
 32
0.0
 13
14827.72550479667
 23
-3603.163138305866
 33
0.0
  0
MTEXT
  5
BA73
330
B8B7
100
AcDbEntity
  8
寸法引出
 48
25.0
100
AcDbMText
 10
14787.72550479667
 20
-2633.163138305864
 30
0.0
 40
40.0
 41
0.0
 71
     5
 72
     1
  1
\A1;1940
  7
SANWA
 11
0.0000000000000001
 21
1.0
 31
0.0
 73
     1
 44
1.0
  0
POINT
  5
BA74
330
B8B7
100
AcDbEntity
  8
DEFPOINTS
 62
     0
 48
25.0
100
AcDbPoint
 10
14628.46952995593
 20
-1663.163138305866
 30
0.0
  0
POINT
  5
BA75
330
B8B7
100
AcDbEntity
  8
DEFPOINTS
 62
     0
 48
25.0
100
AcDbPoint
 10
14628.46952995593
 20
-3603.163138305866
 30
0.0
  0
POINT
  5
BA76
330
B8B7
100
AcDbEntity
  8
DEFPOINTS
 62
     0
 48
25.0
100
AcDbPoint
 10
14827.72550479667
 20
-3603.163138305866
 30
0.0
  0
ENDBLK
  5
B8C2
330
B8B7
100
AcDbEntity
  8
0
 48
25.0
100
AcDbBlockEnd
  0
BLOCK
  5
B8CD
330
B8C3
100
AcDbEntity
  8
0
 48
25.0
100
AcDbBlockBegin
  2
*D82
 70
     1
 10
0.0
 20
0.0
 30
0.0
  3
*D82
  1

  0
LINE
  5
BA77
330
B8C3
100
AcDbEntity
  8
寸法引出
 48
25.0
370
    -2
100
AcDbLine
 10
13905.75607838133
 20
-1703.131386330616
 30
0.0
 11
13994.32063692475
 21
-1703.131386330616
 31
0.0
  0
LINE
  5
BA78
330
B8C3
100
AcDbEntity
  8
寸法引出
 48
25.0
370
    -2
100
AcDbLine
 10
13905.75607838133
 20
-2143.131386330617
 30
0.0
 11
13994.32063692475
 21
-2143.131386330617
 31
0.0
  0
LINE
  5
BA79
330
B8C3
100
AcDbEntity
  8
寸法引出
 48
25.0
370
    -2
100
AcDbLine
 10
13984.32063692474
 20
-1733.131386330616
 30
0.0
 11
13984.32063692474
 21
-2113.131386330616
 31
0.0
  0
SOLID
  5
BA7A
330
B8C3
100
AcDbEntity
  8
寸法引出
 48
25.0
100
AcDbTrace
 10
13979.32063692475
 20
-1733.131386330616
 30
0.0
 11
13989.32063692474
 21
-1733.131386330616
 31
0.0
 12
13984.32063692474
 22
-1703.131386330616
 32
0.0
 13
13984.32063692474
 23
-1703.131386330616
 33
0.0
  0
SOLID
  5
BA7B
330
B8C3
100
AcDbEntity
  8
寸法引出
 48
25.0
100
AcDbTrace
 10
13979.32063692475
 20
-2113.131386330616
 30
0.0
 11
13989.32063692474
 21
-2113.131386330616
 31
0.0
 12
13984.32063692474
 22
-2143.131386330617
 32
0.0
 13
13984.32063692474
 23
-2143.131386330617
 33
0.0
  0
MTEXT
  5
BA7C
330
B8C3
100
AcDbEntity
  8
寸法引出
 48
25.0
100
AcDbMText
 10
13944.32063692474
 20
-1923.131386330614
 30
0.0
 40
40.0
 41
0.0
 71
     5
 72
     1
  1
\A1;440
  7
SANWA
 11
0.0000000000000001
 21
1.0
 31
0.0
 73
     1
 44
1.0
  0
POINT
  5
BA7D
330
B8C3
100
AcDbEntity
  8
DEFPOINTS
 62
     0
 48
25.0
100
AcDbPoint
 10
13885.75607838133
 20
-1703.131386330616
 30
0.0
  0
POINT
  5
BA7E
330
B8C3
100
AcDbEntity
  8
DEFPOINTS
 62
     0
 48
25.0
100
AcDbPoint
 10
13885.75607838133
 20
-2143.131386330617
 30
0.0
  0
POINT
  5
BA7F
330
B8C3
100
AcDbEntity
  8
DEFPOINTS
 62
     0
 48
25.0
100
AcDbPoint
 10
13984.32063692474
 20
-2143.131386330617
 30
0.0
  0
ENDBLK
  5
B8CE
330
B8C3
100
AcDbEntity
  8
0
 48
25.0
100
AcDbBlockEnd
  0
BLOCK
  5
B8DA
330
B8CF
100
AcDbEntity
  8
0
 48
25.0
100
AcDbBlockBegin
  2
*D83
 70
     1
 10
0.0
 20
0.0
 30
0.0
  3
*D83
  1

  0
LINE
  5
BA80
330
B8CF
100
AcDbEntity
  8
寸法引出
 48
25.0
370
    -2
100
AcDbLine
 10
13785.75607838133
 20
-2263.131386330618
 30
0.0
 11
13785.75607838133
 21
-2351.695944874027
 31
0.0
  0
LINE
  5
BA81
330
B8CF
100
AcDbEntity
  8
寸法引出
 48
25.0
370
    -2
100
AcDbLine
 10
13905.75607838133
 20
-2143.131386330617
 30
0.0
 11
13994.32063692475
 21
-2143.131386330615
 31
0.0
  0
ARC
  5
BA82
330
B8CF
100
AcDbEntity
  8
寸法引出
 48
25.0
370
    -2
100
AcDbCircle
 10
13785.75607838133
 20
-2143.131386330615
 30
0.0
 40
198.5645585434112
100
AcDbArc
 50
278.6647508351644
 51
351.3352491648355
  0
SOLID
  5
BA83
330
B8CF
100
AcDbEntity
  8
寸法引出
 48
25.0
100
AcDbTrace
 10
13816.04806750172
 20
-2344.415392452233
 30
0.0
 11
13815.29264568274
 21
-2334.443966381937
 31
0.0
 12
13785.75607838133
 22
-2341.695944874028
 32
0.0
 13
13785.75607838133
 23
-2341.695944874028
 33
0.0
  0
SOLID
  5
BA84
330
B8CF
100
AcDbEntity
  8
寸法引出
 48
25.0
100
AcDbTrace
 10
13977.06865843265
 20
-2172.667953632017
 30
0.0
 11
13987.04008450295
 21
-2173.423375450998
 31
0.0
 12
13984.32063692474
 22
-2143.131386330615
 32
0.0
 13
13984.32063692474
 23
-2143.131386330615
 33
0.0
  0
MTEXT
  5
BA85
330
B8CF
100
AcDbEntity
  8
寸法引出
 48
25.0
100
AcDbMText
 10
13897.87815298323
 20
-2255.253460932514
 30
0.0
 40
40.0
 41
0.0
 71
     5
 72
     1
  1
\A1;157
  7
SANWA
 11
0.7071067811865476
 21
0.7071067811865475
 31
0.0
 73
     1
 44
1.0
  0
POINT
  5
BA86
330
B8CF
100
AcDbEntity
  8
DEFPOINTS
 62
     0
 48
25.0
100
AcDbPoint
 10
13785.75607838133
 20
-2143.131386330615
 30
0.0
  0
POINT
  5
BA87
330
B8CF
100
AcDbEntity
  8
DEFPOINTS
 62
     0
 48
25.0
100
AcDbPoint
 10
13785.75607838133
 20
-2243.131386330617
 30
0.0
  0
POINT
  5
BA88
330
B8CF
100
AcDbEntity
  8
DEFPOINTS
 62
     0
 48
25.0
100
AcDbPoint
 10
13885.75607838133
 20
-2143.131386330615
 30
0.0
  0
POINT
  5
BA89
330
B8CF
100
AcDbEntity
  8
DEFPOINTS
 62
     0
 48
25.0
100
AcDbPoint
 10
13885.03835765304
 20
-2315.093338320453
 30
0.0
  0
ENDBLK
  5
B8DB
330
B8CF
100
AcDbEntity
  8
0
 48
25.0
100
AcDbBlockEnd
  0
BLOCK
  5
B8FD
330
B8F2
100
AcDbEntity
  8
0
 48
25.0
100
AcDbBlockBegin
  2
*D84
 70
     1
 10
0.0
 20
0.0
 30
0.0
  3
*D84
  1

  0
LINE
  5
BA9A
330
B8F2
100
AcDbEntity
  8
寸法引出
 48
25.0
370
    -2
100
AcDbLine
 10
13505.75607838133
 20
-2143.131386330615
 30
0.0
 11
13417.19151983792
 21
-2143.131386330615
 31
0.0
  0
LINE
  5
BA9B
330
B8F2
100
AcDbEntity
  8
寸法引出
 48
25.0
370
    -2
100
AcDbLine
 10
13625.75607838133
 20
-2263.131386330616
 30
0.0
 11
13625.75607838133
 21
-2351.695944874028
 31
0.0
  0
ARC
  5
BA9C
330
B8F2
100
AcDbEntity
  8
寸法引出
 48
25.0
370
    -2
100
AcDbCircle
 10
13625.75607838133
 20
-2143.131386330615
 30
0.0
 40
198.5645585434116
100
AcDbArc
 50
188.6647508351644
 51
261.3352491648359
  0
SOLID
  5
BA9D
330
B8F2
100
AcDbEntity
  8
寸法引出
 48
25.0
100
AcDbTrace
 10
13424.47207225972
 20
-2173.423375450997
 30
0.0
 11
13434.44349833001
 21
-2172.667953632017
 31
0.0
 12
13427.19151983792
 22
-2143.131386330615
 32
0.0
 13
13427.19151983792
 23
-2143.131386330615
 33
0.0
  0
SOLID
  5
BA9E
330
B8F2
100
AcDbEntity
  8
寸法引出
 48
25.0
100
AcDbTrace
 10
13596.21951107993
 20
-2334.443966381934
 30
0.0
 11
13595.46408926095
 21
-2344.415392452233
 31
0.0
 12
13625.75607838133
 22
-2341.695944874026
 32
0.0
 13
13625.75607838133
 23
-2341.695944874026
 33
0.0
  0
MTEXT
  5
BA9F
330
B8F2
100
AcDbEntity
  8
寸法引出
 48
25.0
100
AcDbMText
 10
13513.63400377944
 20
-2255.253460932511
 30
0.0
 40
40.0
 41
0.0
 71
     5
 72
     1
  1
\A1;157
  7
SANWA
 11
0.7071067811865476
 21
-0.7071067811865475
 31
0.0
 73
     1
 44
1.0
  0
POINT
  5
BAA0
330
B8F2
100
AcDbEntity
  8
DEFPOINTS
 62
     0
 48
25.0
100
AcDbPoint
 10
13625.75607838133
 20
-2143.131386330615
 30
0.0
  0
POINT
  5
BAA1
330
B8F2
100
AcDbEntity
  8
DEFPOINTS
 62
     0
 48
25.0
100
AcDbPoint
 10
13525.75607838133
 20
-2143.131386330615
 30
0.0
  0
POINT
  5
BAA2
330
B8F2
100
AcDbEntity
  8
DEFPOINTS
 62
     0
 48
25.0
100
AcDbPoint
 10
13625.75607838133
 20
-2243.131386330616
 30
0.0
  0
POINT
  5
BAA3
330
B8F2
100
AcDbEntity
  8
DEFPOINTS
 62
     0
 48
25.0
100
AcDbPoint
 10
13453.7941263915
 20
-2242.413665602322
 30
0.0
  0
ENDBLK
  5
B8FE
330
B8F2
100
AcDbEntity
  8
0
 48
25.0
100
AcDbBlockEnd
  0
BLOCK
  5
B909
330
B8FF
100
AcDbEntity
  8
0
 48
25.0
100
AcDbBlockBegin
  2
*D85
 70
     1
 10
0.0
 20
0.0
 30
0.0
  3
*D85
  1

  0
LINE
  5
BAA4
330
B8FF
100
AcDbEntity
  8
寸法引出
 48
25.0
370
    -2
100
AcDbLine
 10
13625.75607838133
 20
-2263.131386330616
 30
0.0
 11
13625.75607838133
 21
-2351.695944874029
 31
0.0
  0
LINE
  5
BAA5
330
B8FF
100
AcDbEntity
  8
寸法引出
 48
25.0
370
    -2
100
AcDbLine
 10
13785.75607838133
 20
-2263.131386330616
 30
0.0
 11
13785.75607838133
 21
-2351.695944874029
 31
0.0
  0
LINE
  5
BAA6
330
B8FF
100
AcDbEntity
  8
寸法引出
 48
25.0
370
    -2
100
AcDbLine
 10
13655.75607838133
 20
-2341.695944874028
 30
0.0
 11
13755.75607838133
 21
-2341.695944874028
 31
0.0
  0
SOLID
  5
BAA7
330
B8FF
100
AcDbEntity
  8
寸法引出
 48
25.0
100
AcDbTrace
 10
13655.75607838133
 20
-2336.695944874028
 30
0.0
 11
13655.75607838133
 21
-2346.695944874029
 31
0.0
 12
13625.75607838133
 22
-2341.695944874028
 32
0.0
 13
13625.75607838133
 23
-2341.695944874028
 33
0.0
  0
SOLID
  5
BAA8
330
B8FF
100
AcDbEntity
  8
寸法引出
 48
25.0
100
AcDbTrace
 10
13755.75607838133
 20
-2336.695944874028
 30
0.0
 11
13755.75607838133
 21
-2346.695944874029
 31
0.0
 12
13785.75607838133
 22
-2341.695944874028
 32
0.0
 13
13785.75607838133
 23
-2341.695944874028
 33
0.0
  0
MTEXT
  5
BAA9
330
B8FF
100
AcDbEntity
  8
寸法引出
 48
25.0
100
AcDbMText
 10
13705.75607838133
 20
-2301.695944874029
 30
0.0
 40
40.0
 41
0.0
 71
     5
 72
     1
  1
\A1;160
  7
SANWA
 73
     1
 44
1.0
  0
POINT
  5
BAAA
330
B8FF
100
AcDbEntity
  8
DEFPOINTS
 62
     0
 48
25.0
100
AcDbPoint
 10
13625.75607838133
 20
-2243.131386330616
 30
0.0
  0
POINT
  5
BAAB
330
B8FF
100
AcDbEntity
  8
DEFPOINTS
 62
     0
 48
25.0
100
AcDbPoint
 10
13785.75607838133
 20
-2243.131386330616
 30
0.0
  0
POINT
  5
BAAC
330
B8FF
100
AcDbEntity
  8
DEFPOINTS
 62
     0
 48
25.0
100
AcDbPoint
 10
13785.75607838133
 20
-2341.695944874028
 30
0.0
  0
ENDBLK
  5
B90A
330
B8FF
100
AcDbEntity
  8
0
 48
25.0
100
AcDbBlockEnd
  0
BLOCK
  5
B915
330
B90B
100
AcDbEntity
  8
0
 48
25.0
100
AcDbBlockBegin
  2
*D86
 70
     1
 10
0.0
 20
0.0
 30
0.0
  3
*D86
  1

  0
LINE
  5
BAAD
330
B90B
100
AcDbEntity
  8
寸法引出
 48
25.0
370
    -2
100
AcDbLine
 10
13505.75607838133
 20
-1703.131386330616
 30
0.0
 11
13417.19151983792
 21
-1703.131386330616
 31
0.0
  0
LINE
  5
BAAE
330
B90B
100
AcDbEntity
  8
寸法引出
 48
25.0
370
    -2
100
AcDbLine
 10
13505.75607838133
 20
-2143.131386330617
 30
0.0
 11
13417.19151983792
 21
-2143.131386330617
 31
0.0
  0
LINE
  5
BAAF
330
B90B
100
AcDbEntity
  8
寸法引出
 48
25.0
370
    -2
100
AcDbLine
 10
13427.19151983792
 20
-1733.131386330616
 30
0.0
 11
13427.19151983792
 21
-2113.131386330616
 31
0.0
  0
SOLID
  5
BAB0
330
B90B
100
AcDbEntity
  8
寸法引出
 48
25.0
100
AcDbTrace
 10
13422.19151983792
 20
-1733.131386330616
 30
0.0
 11
13432.19151983792
 21
-1733.131386330616
 31
0.0
 12
13427.19151983792
 22
-1703.131386330616
 32
0.0
 13
13427.19151983792
 23
-1703.131386330616
 33
0.0
  0
SOLID
  5
BAB1
330
B90B
100
AcDbEntity
  8
寸法引出
 48
25.0
100
AcDbTrace
 10
13422.19151983792
 20
-2113.131386330616
 30
0.0
 11
13432.19151983792
 21
-2113.131386330616
 31
0.0
 12
13427.19151983792
 22
-2143.131386330617
 32
0.0
 13
13427.19151983792
 23
-2143.131386330617
 33
0.0
  0
MTEXT
  5
BAB2
330
B90B
100
AcDbEntity
  8
寸法引出
 48
25.0
100
AcDbMText
 10
13387.19151983792
 20
-1923.131386330614
 30
0.0
 40
40.0
 41
0.0
 71
     5
 72
     1
  1
\A1;440
  7
SANWA
 11
0.0000000000000001
 21
1.0
 31
0.0
 73
     1
 44
1.0
  0
POINT
  5
BAB3
330
B90B
100
AcDbEntity
  8
DEFPOINTS
 62
     0
 48
25.0
100
AcDbPoint
 10
13525.75607838133
 20
-1703.131386330616
 30
0.0
  0
POINT
  5
BAB4
330
B90B
100
AcDbEntity
  8
DEFPOINTS
 62
     0
 48
25.0
100
AcDbPoint
 10
13525.75607838133
 20
-2143.131386330617
 30
0.0
  0
POINT
  5
BAB5
330
B90B
100
AcDbEntity
  8
DEFPOINTS
 62
     0
 48
25.0
100
AcDbPoint
 10
13427.19151983792
 20
-2143.131386330617
 30
0.0
  0
ENDBLK
  5
B916
330
B90B
100
AcDbEntity
  8
0
 48
25.0
100
AcDbBlockEnd
  0
ENDSEC
  0
SECTION
  2
ENTITIES
  0
DIMENSION
  5
AEE6
330
747D
100
AcDbEntity
  8
寸法引出
 48
25.0
100
AcDbDimension
  2
*D59
 10
5900.252698757795
 20
2972.214050898227
 30
0.0
 11
4900.252698757795
 21
3012.214050898226
 31
0.0
 70
    32
 71
     5
 42
2000.0
  3
SANWA
100
AcDbAlignedDimension
 13
3900.252698757795
 23
3151.43932768014
 33
0.0
 14
5900.252698757795
 24
3151.43932768014
 34
0.0
100
AcDbRotatedDimension
1001
ACAD
1000
DSTYLE
1002
{
1070
    40
1040
20.0
1070
    41
1040
1.5
1070
    43
1040
5.0
1070
    44
1040
0.5
1070
   140
1040
2.0
1070
   147
1040
1.0
1070
   176
1070
   256
1070
   177
1070
   256
1070
   178
1070
   256
1002
}
  0
DIMENSION
  5
AEE7
330
747D
100
AcDbEntity
  8
寸法引出
 48
25.0
100
AcDbDimension
  2
*D55
 10
3749.631789356667
 20
1110.567883054149
 30
0.0
 11
3724.631789356667
 21
1150.567883054149
 31
0.0
 70
    32
  1
5
 71
     5
 42
50.0
  3
SANWA
100
AcDbAlignedDimension
 13
3699.631789356667
 23
1012.677873433878
 33
0.0
 14
3749.631789356667
 24
1012.677873433878
 34
0.0
100
AcDbRotatedDimension
1001
ACAD
1000
DSTYLE
1002
{
1070
    40
1040
20.0
1070
    41
1040
1.5
1070
    43
1040
5.0
1070
    44
1040
0.5
1070
   140
1040
2.0
1070
   147
1040
1.0
1070
   176
1070
   256
1070
   177
1070
   256
1070
   178
1070
   256
1002
}
  0
LINE
  5
AEE8
330
747D
100
AcDbEntity
  8
0
 48
25.0
100
AcDbLine
 10
3983.631363313012
 20
1012.677873433878
 30
0.0
 11
3699.631789356667
 21
1012.677873433878
 31
0.0
  0
LINE
  5
AEE9
330
747D
100
AcDbEntity
  8
0
 48
25.0
100
AcDbLine
 10
3649.631789356666
 20
812.6778734338786
 30
0.0
 11
3749.631789356667
 21
842.6778734338785
 31
0.0
  0
LEADER
  5
AEEA
330
747D
100
AcDbEntity
  8
寸法引出
 48
20.0
100
AcDbLeader
  3
SANWA
 76
     2
 10
3649.631789356666
 20
705.7423459423716
 30
0.0
 10
3892.053487129626
 20
705.7423459423716
 30
0.0
1001
ACAD
1000
DSTYLE
1002
{
1070
   140
1040
2.0
1070
    40
1040
20.0
1070
   147
1040
1.0
1070
    44
1040
0.5
1070
    43
1040
5.0
1070
   178
1070
   256
1070
   177
1070
   256
1070
   176
1070
   256
1070
    41
1040
1.5
1002
}
  0
LINE
  5
AEEB
330
747D
100
AcDbEntity
  8
0
 48
25.0
100
AcDbLine
 10
3749.631789356667
 20
842.6778734338785
 30
0.0
 11
3699.631789356667
 21
912.6778734338786
 31
0.0
  0
DIMENSION
  5
AEEC
330
747D
100
AcDbEntity
  8
寸法引出
 48
25.0
100
AcDbDimension
  2
*D54
 10
3749.631789356667
 20
1196.851078528567
 30
0.0
 11
3649.631789356666
 21
1236.851078528567
 31
0.0
 70
    32
  1
20
 71
     5
 42
200.0
  3
SANWA
100
AcDbAlignedDimension
 13
3549.631789356666
 23
1012.677873433878
 33
0.0
 14
3749.631789356667
 24
1012.677873433878
 34
0.0
100
AcDbRotatedDimension
1001
ACAD
1000
DSTYLE
1002
{
1070
    40
1040
20.0
1070
    41
1040
1.5
1070
    43
1040
5.0
1070
    44
1040
0.5
1070
   140
1040
2.0
1070
   147
1040
1.0
1070
   176
1070
   256
1070
   177
1070
   256
1070
   178
1070
   256
1002
}
  0
DIMENSION
  5
AEED
330
747D
100
AcDbEntity
  8
寸法引出
 48
25.0
100
AcDbDimension
  2
*D52
 10
3699.631789356667
 20
1110.567883054149
 30
0.0
 11
3649.631789356666
 21
1150.567883054149
 31
0.0
 70
    32
  1
10
 71
     5
 42
100.0
  3
SANWA
100
AcDbAlignedDimension
 13
3599.631789356667
 23
1012.677873433878
 33
0.0
 14
3699.631789356667
 24
1012.677873433878
 34
0.0
100
AcDbRotatedDimension
1001
ACAD
1000
DSTYLE
1002
{
1070
    40
1040
20.0
1070
    41
1040
1.5
1070
    43
1040
5.0
1070
    44
1040
0.5
1070
   140
1040
2.0
1070
   147
1040
1.0
1070
   176
1070
   256
1070
   177
1070
   256
1070
   178
1070
   256
1002
}
  0
LINE
  5
AEEE
330
747D
100
AcDbEntity
  8
0
100
AcDbLine
 10
3422.454431584268
 20
1402.542040389258
 30
0.0
 11
3882.208890636662
 21
1402.542040389258
 31
0.0
  0
TEXT
  5
AEEF
330
747D
100
AcDbEntity
  8
0
100
AcDbText
 10
3436.350082345322
 20
1422.10602929209
 30
0.0
 40
60.0
  1
目地詳細図
  7
SANWA
 72
     4
 11
3655.778653773894
 21
1453.30602929209
 31
0.0
100
AcDbText
  0
DIMENSION
  5
AEF4
330
747D
100
AcDbEntity
  8
寸法引出
 48
25.0
100
AcDbDimension
  2
*D74
 10
5900.252698757795
 20
2415.286904181256
 30
0.0
 11
4900.252698757795
 21
2455.286904181256
 31
0.0
 70
    32
 71
     5
 42
2000.0
  3
SANWA
100
AcDbAlignedDimension
 13
3900.252698757795
 23
2342.34349376606
 33
0.0
 14
5900.252698757795
 24
2342.34349376606
 34
0.0
100
AcDbRotatedDimension
1001
ACAD
1000
DSTYLE
1002
{
1070
   140
1040
2.0
1070
    40
1040
20.0
1070
   147
1040
1.0
1070
    44
1040
0.5
1070
    43
1040
5.0
1070
   178
1070
   256
1070
   177
1070
   256
1070
   176
1070
   256
1070
    41
1040
1.5
1002
}
  0
DIMENSION
  5
AEF7
330
747D
100
AcDbEntity
  8
寸法引出
 48
25.0
100
AcDbDimension
  2
*D73
 10
5020.252698757794
 20
3840.87910978941
 30
0.0
 11
4900.252698757795
 21
3880.87910978941
 31
0.0
 70
    32
 71
     5
 42
240.0
  3
SANWA
100
AcDbAlignedDimension
 13
4780.252698757794
 23
3721.43932768014
 33
0.0
 14
5020.252698757794
 24
3721.43932768014
 34
0.0
100
AcDbRotatedDimension
1001
ACAD
1000
DSTYLE
1002
{
1070
    40
1040
20.0
1070
    41
1040
1.5
1070
    43
1040
5.0
1070
    44
1040
0.5
1070
    75
1070
     1
1070
   140
1040
2.0
1070
   147
1040
1.0
1070
   176
1070
   256
1070
   177
1070
   256
1070
   178
1070
   256
1070
   279
1070
     1
1002
}
  0
LINE
  5
AEFE
330
747D
100
AcDbEntity
  8
0
 48
25.0
100
AcDbLine
 10
5890.252698757795
 20
3141.43932768014
 30
0.0
 11
3910.252698757795
 21
3141.43932768014
 31
0.0
  0
LINE
  5
AEFF
330
747D
100
AcDbEntity
  8
0
 48
25.0
100
AcDbLine
 10
3900.252698757795
 20
3721.43932768014
 30
0.0
 11
5900.252698757795
 21
3721.43932768014
 31
0.0
  0
LINE
  5
AF00
330
747D
100
AcDbEntity
  8
0
 48
25.0
100
AcDbLine
 10
5900.252698757795
 20
1942.343493766061
 30
0.0
 11
3900.252698757795
 21
1942.343493766061
 31
0.0
  0
LINE
  5
AF01
330
747D
100
AcDbEntity
  8
0
 48
25.0
100
AcDbLine
 10
3900.252698757795
 20
2342.34349376606
 30
0.0
 11
5900.252698757795
 21
2342.34349376606
 31
0.0
  0
TEXT
  5
AF02
330
747D
100
AcDbEntity
  8
0
100
AcDbText
 10
2913.981104005491
 20
4537.348317370435
 30
0.0
 40
70.0
  1
マルチスリット側溝（横断）  300×500×2000
  7
SANWA
 72
     4
 11
3989.181104005491
 21
4572.948317370435
 31
0.0
100
AcDbText
  0
LINE
  5
AF03
330
747D
100
AcDbEntity
  8
0
100
AcDbLine
 10
2884.252252098425
 20
4480.000000000007
 30
0.0
 11
5610.368780739131
 21
4480.000000000007
 31
0.0
  0
LINE
  5
AF04
330
747D
100
AcDbEntity
  8
0
100
AcDbLine
 10
2884.252252098425
 20
4500.0
 30
0.0
 11
5610.368780739131
 21
4500.0
 31
0.0
  0
LINE
  5
AF05
330
747D
100
AcDbEntity
  8
枠
100
AcDbLine
 10
625.0
 20
250.0
 30
0.0
 11
7175.0
 21
250.0
 31
0.0
  0
LINE
  5
AF06
330
747D
100
AcDbEntity
  8
枠
100
AcDbLine
 10
625.0
 20
5000.0
 30
0.0
 11
7175.0
 21
5000.0
 31
0.0
  0
TEXT
  5
AF07
330
747D
100
AcDbEntity
  8
0
100
AcDbText
 10
3878.035805941672
 20
2585.60250171889
 30
0.0
 40
60.0
  1
底版部
  7
SANWA
 72
     4
 11
4009.692948798814
 21
2616.116787433175
 31
0.0
100
AcDbText
  0
LINE
  5
AF08
330
747D
100
AcDbEntity
  8
枠
100
AcDbLine
 10
625.0
 20
250.0
 30
0.0
 11
625.0
 21
5000.0
 31
0.0
  0
LINE
  5
AF09
330
747D
100
AcDbEntity
  8
0
100
AcDbLine
 10
625.0
 20
0.0
 30
0.0
 11
0.0
 21
0.0
 31
0.0
  0
LINE
  5
AF0A
330
747D
100
AcDbEntity
  8
0
100
AcDbLine
 10
0.0
 20
0.0
 30
0.0
 11
0.0
 21
250.0
 31
0.0
  0
LINE
  5
AF0B
330
747D
100
AcDbEntity
  8
0
 48
25.0
100
AcDbLine
 10
3699.631789356667
 20
1012.677873433878
 30
0.0
 11
3699.631789356667
 21
912.6778734338786
 31
0.0
  0
LINE
  5
AF0C
330
747D
100
AcDbEntity
  8
0
 48
25.0
100
AcDbLine
 10
3599.631789356667
 20
1012.677873433878
 30
0.0
 11
3599.631789356667
 21
912.6778734338786
 31
0.0
  0
LEADER
  5
AF0D
330
747D
100
AcDbEntity
  8
寸法引出
 48
25.0
100
AcDbLeader
  3
SANWA
 76
     3
 10
2432.140225154013
 20
894.8712771834044
 30
0.0
 10
2477.724048408846
 20
987.6419177484367
 30
0.0
 10
2848.656073061109
 20
987.6419177484367
 30
0.0
1001
ACAD
1000
DSTYLE
1002
{
1070
    77
1070
     0
1070
    40
1040
20.0
1070
    41
1040
1.5
1070
    43
1040
5.0
1070
    44
1040
0.5
1070
   140
1040
2.0
1070
   147
1040
1.0
1070
   176
1070
   256
1070
   177
1070
   256
1070
   178
1070
   256
1002
}
  0
DIMENSION
  5
AF0E
330
747D
100
AcDbEntity
  8
寸法引出
 48
25.0
100
AcDbDimension
  2
*D51
 10
3465.514492224123
 20
1012.677873433878
 30
0.0
 11
3425.514492224123
 21
962.6778734338792
 31
0.0
 70
    32
  1
10
 71
     5
 42
100.0
  3
SANWA
100
AcDbAlignedDimension
 13
3599.631789356667
 23
912.6778734338786
 33
0.0
 14
3599.631789356667
 24
1012.677873433878
 34
0.0
 50
90.0
100
AcDbRotatedDimension
1001
ACAD
1000
DSTYLE
1002
{
1070
   279
1070
     1
1070
    40
1040
20.0
1070
    41
1040
1.5
1070
    43
1040
5.0
1070
    44
1040
0.5
1070
   140
1040
2.0
1070
   147
1040
1.0
1070
   176
1070
   256
1070
   177
1070
   256
1070
   178
1070
   256
1002
}
  0
LINE
  5
AF0F
330
747D
100
AcDbEntity
  8
0
 48
25.0
100
AcDbLine
 10
2377.54022515401
 20
1216.517627106075
 30
0.0
 11
2377.54022515401
 21
959.3712771834017
 31
0.0
  0
LINE
  5
AF10
330
747D
100
AcDbEntity
  8
寸法引出
 48
25.0
100
AcDbLine
 10
2271.645501236967
 20
1201.517627106075
 30
0.0
 11
2271.645501236969
 21
900.8712771834016
 31
0.0
  0
SOLID
  5
AF11
330
747D
100
AcDbEntity
  8
寸法引出
 48
25.0
100
AcDbTrace
 10
1947.138017486453
 20
989.3712771834016
 30
0.0
 11
1957.138017486453
 21
989.3712771834016
 31
0.0
 12
1952.138017486453
 22
959.3712771834017
 32
0.0
 13
1952.138017486453
 23
959.3712771834017
 33
0.0
  0
MTEXT
  5
AF12
330
747D
100
AcDbEntity
  8
寸法引出
 48
25.0
100
AcDbMText
 10
1912.138017486453
 20
987.7708416558489
 30
0.0
 40
40.0
 41
0.0
 71
     5
 72
     1
  1
\A1;2
  7
SANWA
 11
0.0000000000000001
 21
1.0
 31
0.0
 73
     1
 44
1.0
  0
DIMENSION
  5
AF13
330
747D
100
AcDbEntity
  8
寸法引出
 48
25.0
100
AcDbDimension
  2
*D48
 10
1799.463170910155
 20
1033.778916802019
 30
0.0
 11
1671.963170910156
 21
1073.778916802019
 31
0.0
 70
    32
  1
85
 71
     5
 42
255.0
  3
SANWA
100
AcDbAlignedDimension
 13
1544.463170910155
 23
959.3712771834017
 33
0.0
 14
1799.463170910155
 24
953.3712771834016
 34
0.0
100
AcDbRotatedDimension
1001
ACAD
1000
DSTYLE
1002
{
1070
    40
1040
20.0
1070
    41
1040
1.5
1070
    43
1040
5.0
1070
    44
1040
0.5
1070
   140
1040
2.0
1070
   147
1040
1.0
1070
   176
1070
   256
1070
   177
1070
   256
1070
   178
1070
   256
1002
}
  0
DIMENSION
  5
AF14
330
747D
100
AcDbEntity
  8
寸法引出
 48
25.0
100
AcDbDimension
  2
*D47
 10
1805.463170910156
 20
1033.778916802019
 30
0.0
 11
1802.463170910155
 21
1073.778916802019
 31
0.0
 70
    32
  1
2
 71
     5
 42
6.0
  3
SANWA
100
AcDbAlignedDimension
 13
1799.463170910155
 23
953.3712771834016
 33
0.0
 14
1805.463170910156
 24
959.3712771834017
 34
0.0
100
AcDbRotatedDimension
1001
ACAD
1000
DSTYLE
1002
{
1070
   279
1070
     1
1070
    40
1040
20.0
1070
    41
1040
1.5
1070
    43
1040
5.0
1070
    44
1040
0.5
1070
   140
1040
2.0
1070
   147
1040
1.0
1070
   176
1070
   256
1070
   177
1070
   256
1070
   178
1070
   256
1002
}
  0
MTEXT
  5
AF15
330
747D
100
AcDbEntity
  8
寸法引出
 48
25.0
100
AcDbMText
 10
2231.64550123697
 20
1043.847776007751
 30
0.0
 40
40.0
 41
0.0
 71
     5
 72
     1
  1
天端より150
  7
SANWA
 11
0.0000000000000001
 21
1.0
 31
0.0
 73
     1
 44
1.0
  0
LINE
  5
AF16
330
747D
100
AcDbEntity
  8
0
 48
25.0
100
AcDbLine
 10
1544.463170910155
 20
1109.371277183401
 30
0.0
 11
1544.46317091015
 21
632.3712771834016
 31
0.0
  0
LINE
  5
AF17
330
747D
100
AcDbEntity
  8
0
 48
25.0
100
AcDbLine
 10
1544.463170910155
 20
953.3712771834016
 30
0.0
 11
1799.463170910155
 21
953.3712771834016
 31
0.0
  0
LINE
  5
AF18
330
747D
100
AcDbEntity
  8
0
 48
25.0
100
AcDbLine
 10
1544.463170910155
 20
959.3712771834017
 30
0.0
 11
1805.463170910156
 21
959.3712771834017
 31
0.0
  0
DIMENSION
  5
AF19
330
747D
100
AcDbEntity
  8
寸法引出
 48
25.0
100
AcDbDimension
  2
*D46
 10
1694.463170910156
 20
688.7005753087414
 30
0.0
 11
1619.463170910156
 21
728.7005753087414
 31
0.0
 70
    32
  1
50
 71
     5
 42
150.0
  3
SANWA
100
AcDbAlignedDimension
 13
1544.463170910155
 23
782.3712771834016
 33
0.0
 14
1694.463170910156
 24
870.8712771834015
 34
0.0
100
AcDbRotatedDimension
1001
ACAD
1000
DSTYLE
1002
{
1070
    40
1040
20.0
1070
    41
1040
1.5
1070
    43
1040
5.0
1070
    44
1040
0.5
1070
   140
1040
2.0
1070
   147
1040
1.0
1070
   176
1070
   256
1070
   177
1070
   256
1070
   178
1070
   256
1002
}
  0
LINE
  5
AF1A
330
747D
100
AcDbEntity
  8
0
 48
25.0
100
AcDbLine
 10
1544.463170910155
 20
788.3712771834016
 30
0.0
 11
1799.463170910161
 21
788.3712771834016
 31
0.0
  0
LINE
  5
AF1B
330
747D
100
AcDbEntity
  8
0
 48
25.0
100
AcDbLine
 10
1544.463170910155
 20
782.3712771834016
 30
0.0
 11
1805.463170910156
 21
782.3712771834016
 31
0.0
  0
CIRCLE
  5
AF1C
330
747D
100
AcDbEntity
  8
0
 48
25.0
100
AcDbCircle
 10
1694.463170910156
 20
870.8712771834015
 30
0.0
 40
18.0
  0
SOLID
  5
AF1D
330
747D
100
AcDbEntity
  8
寸法引出
 48
25.0
100
AcDbTrace
 10
1947.138017486453
 20
752.3712771834015
 30
0.0
 11
1957.138017486453
 21
752.3712771834015
 31
0.0
 12
1952.138017486453
 22
782.3712771834016
 32
0.0
 13
1952.138017486453
 23
782.3712771834016
 33
0.0
  0
MTEXT
  5
AF1E
330
747D
100
AcDbEntity
  8
寸法引出
 48
25.0
100
AcDbMText
 10
1912.138017486453
 20
751.8062501134809
 30
0.0
 40
40.0
 41
0.0
 71
     5
 72
     1
  1
\A1;2
  7
SANWA
 11
0.0000000000000001
 21
1.0
 31
0.0
 73
     1
 44
1.0
  0
LINE
  5
AF1F
330
747D
100
AcDbEntity
  8
寸法引出
 48
25.0
100
AcDbLine
 10
1952.138017486453
 20
752.3712771834015
 30
0.0
 11
1952.138017486453
 21
722.3712771834016
 31
0.0
  0
LINE
  5
AF20
330
747D
100
AcDbEntity
  8
寸法引出
 48
25.0
100
AcDbLine
 10
1825.463170910156
 20
959.3712771834017
 30
0.0
 11
1962.138017486453
 21
959.3712771834017
 31
0.0
  0
LINE
  5
AF21
330
747D
100
AcDbEntity
  8
寸法引出
 48
25.0
100
AcDbLine
 10
1819.463170910156
 20
953.3712771834016
 30
0.0
 11
1962.138017486453
 21
953.3712771834016
 31
0.0
  0
LINE
  5
AF22
330
747D
100
AcDbEntity
  8
寸法引出
 48
25.0
100
AcDbLine
 10
1819.463170910161
 20
788.3712771834016
 30
0.0
 11
1962.138017486453
 21
788.3712771834016
 31
0.0
  0
LINE
  5
AF23
330
747D
100
AcDbEntity
  8
寸法引出
 48
25.0
100
AcDbLine
 10
1825.463170910156
 20
782.3712771834016
 30
0.0
 11
1962.138017486453
 21
782.3712771834016
 31
0.0
  0
DIMENSION
  5
AF24
330
747D
100
AcDbEntity
  8
寸法引出
 48
25.0
100
AcDbDimension
  2
*D45
 10
1952.138017486453
 20
953.3712771834016
 30
0.0
 11
1912.138017486453
 21
870.8712771834019
 31
0.0
 70
    32
  1
55
 71
     5
 42
165.0
  3
SANWA
100
AcDbAlignedDimension
 13
1799.463170910161
 23
788.3712771834016
 33
0.0
 14
1799.463170910155
 24
953.3712771834016
 34
0.0
 50
90.0
100
AcDbRotatedDimension
1001
ACAD
1000
DSTYLE
1002
{
1070
   279
1070
     1
1070
    40
1040
20.0
1070
    41
1040
1.5
1070
    43
1040
5.0
1070
    44
1040
0.5
1070
   140
1040
2.0
1070
   147
1040
1.0
1070
   176
1070
   256
1070
   177
1070
   256
1070
   178
1070
   256
1002
}
  0
LINE
  5
AF25
330
747D
100
AcDbEntity
  8
0
 48
25.0
100
AcDbLine
 10
1799.463170910155
 20
953.3712771834016
 30
0.0
 11
1799.463170910161
 21
788.3712771834016
 31
0.0
  0
LINE
  5
AF26
330
747D
100
AcDbEntity
  8
0
 48
25.0
100
AcDbLine
 10
1805.463170910156
 20
959.3712771834017
 30
0.0
 11
1805.463170910156
 21
782.3712771834016
 31
0.0
  0
LINE
  5
AF27
330
747D
100
AcDbEntity
  8
0
 48
25.0
100
AcDbLine
 10
1799.463170910161
 20
788.3712771834016
 30
0.0
 11
1805.463170910156
 21
782.3712771834016
 31
0.0
  0
LINE
  5
AF28
330
747D
100
AcDbEntity
  8
0
 48
25.0
100
AcDbLine
 10
1799.463170910155
 20
953.3712771834016
 30
0.0
 11
1805.463170910156
 21
959.3712771834017
 31
0.0
  0
LINE
  5
AF29
330
747D
100
AcDbEntity
  8
寸法引出
 48
25.0
100
AcDbLine
 10
1952.138017486453
 20
923.3712771834015
 30
0.0
 11
1952.138017486453
 21
878.3712771834016
 31
0.0
  0
LINE
  5
AF2A
330
747D
100
AcDbEntity
  8
寸法引出
 48
25.0
100
AcDbLine
 10
1952.138017486453
 20
818.3712771834017
 30
0.0
 11
1952.138017486453
 21
863.3712771834016
 31
0.0
  0
LINE
  5
AF2B
330
747D
100
AcDbEntity
  8
寸法引出
 48
25.0
100
AcDbLine
 10
1952.138017486453
 20
782.3712771834016
 30
0.0
 11
1952.138017486453
 21
788.3712771834016
 31
0.0
  0
SOLID
  5
AF2C
330
747D
100
AcDbEntity
  8
寸法引出
 48
25.0
100
AcDbTrace
 10
1947.138017486453
 20
818.3712771834017
 30
0.0
 11
1957.138017486453
 21
818.3712771834017
 31
0.0
 12
1952.138017486453
 22
788.3712771834016
 32
0.0
 13
1952.138017486453
 23
788.3712771834016
 33
0.0
  0
LINE
  5
AF2D
330
747D
100
AcDbEntity
  8
寸法引出
 48
25.0
100
AcDbLine
 10
1952.138017486453
 20
953.3712771834016
 30
0.0
 11
1952.138017486453
 21
959.3712771834017
 31
0.0
  0
SOLID
  5
AF2E
330
747D
100
AcDbEntity
  8
寸法引出
 48
25.0
100
AcDbTrace
 10
1947.138017486453
 20
923.3712771834015
 30
0.0
 11
1957.138017486453
 21
923.3712771834015
 31
0.0
 12
1952.138017486453
 22
953.3712771834016
 32
0.0
 13
1952.138017486453
 23
953.3712771834016
 33
0.0
  0
LINE
  5
AF2F
330
747D
100
AcDbEntity
  8
寸法引出
 48
25.0
100
AcDbLine
 10
2337.140225154012
 20
870.8712771834015
 30
0.0
 11
2261.645501236969
 21
870.8712771834015
 31
0.0
  0
LINE
  5
AF30
330
747D
100
AcDbEntity
  8
0
 48
25.0
100
AcDbLine
 10
2377.54022515401
 20
782.3712771834016
 30
0.0
 11
2377.540225154005
 21
632.3712771834016
 31
0.0
  0
DIMENSION
  5
AF31
330
747D
100
AcDbEntity
  8
寸法引出
 48
25.0
100
AcDbDimension
  2
*D44
 10
2387.140225154012
 20
693.770693749795
 30
0.0
 11
2382.340225154012
 21
733.7706937497951
 31
0.0
 70
    32
  1
3.2
 71
     5
 42
9.600000000002182
  3
SANWA
100
AcDbAlignedDimension
 13
2377.54022515401
 23
782.3712771834016
 33
0.0
 14
2387.140225154012
 24
788.3712771834016
 34
0.0
100
AcDbRotatedDimension
1001
ACAD
1000
DSTYLE
1002
{
1070
    40
1040
20.0
1070
    41
1040
1.5
1070
    43
1040
5.0
1070
    44
1040
0.5
1070
   140
1040
2.0
1070
   147
1040
1.0
1070
   176
1070
   256
1070
   177
1070
   256
1070
   178
1070
   256
1002
}
  0
LINE
  5
AF32
330
747D
100
AcDbEntity
  8
0
 48
25.0
100
AcDbLine
 10
2387.140225154012
 20
894.8712771834044
 30
0.0
 11
2477.140225154013
 21
894.8712771834044
 31
0.0
  0
LINE
  5
AF33
330
747D
100
AcDbEntity
  8
0
 48
25.0
100
AcDbLine
 10
2387.140225154012
 20
888.8712771834043
 30
0.0
 11
2477.140225154013
 21
888.8712771834043
 31
0.0
  0
LINE
  5
AF34
330
747D
100
AcDbEntity
  8
0
  6
CENTER2
 48
10.0
100
AcDbLine
 10
2357.140225154013
 20
870.8712771834015
 30
0.0
 11
2513.140225154013
 21
870.8712771834015
 31
0.0
  0
LINE
  5
AF35
330
747D
100
AcDbEntity
  8
0
 48
25.0
100
AcDbLine
 10
2387.140225154012
 20
846.8712771834043
 30
0.0
 11
2477.140225154013
 21
846.8712771834043
 31
0.0
  0
LINE
  5
AF36
330
747D
100
AcDbEntity
  8
0
 48
25.0
100
AcDbLine
 10
2387.140225154012
 20
852.8712771834044
 30
0.0
 11
2477.140225154013
 21
852.8712771834044
 31
0.0
  0
LINE
  5
AF37
330
747D
100
AcDbEntity
  8
0
 48
25.0
100
AcDbLine
 10
2387.140225154012
 20
953.3712771834016
 30
0.0
 11
2387.140225154012
 21
788.3712771834016
 31
0.0
  0
SOLID
  5
AF38
330
747D
100
AcDbEntity
  8
寸法引出
 48
25.0
100
AcDbTrace
 10
2266.64550123697
 20
900.8712771834016
 30
0.0
 11
2276.645501236969
 21
900.8712771834016
 31
0.0
 12
2271.645501236969
 22
870.8712771834015
 32
0.0
 13
2271.645501236969
 23
870.8712771834015
 33
0.0
  0
LINE
  5
AF39
330
747D
100
AcDbEntity
  8
0
 48
25.0
100
AcDbLine
 10
2387.140225154007
 20
788.3712771834016
 30
0.0
 11
2377.540225154005
 21
782.3712771834016
 31
0.0
  0
LINE
  5
AF3A
330
747D
100
AcDbEntity
  8
0
 48
25.0
100
AcDbLine
 10
2377.54022515401
 20
959.3712771834017
 30
0.0
 11
2387.140225154012
 21
953.3712771834016
 31
0.0
  0
LINE
  5
AF3B
330
747D
100
AcDbEntity
  8
0
 48
25.0
100
AcDbLine
 10
2477.140225154013
 20
888.8712771834043
 30
0.0
 11
2477.140225154013
 21
852.8712771834044
 31
0.0
  0
LINE
  5
AF3C
330
747D
100
AcDbEntity
  8
0
 48
25.0
100
AcDbLine
 10
2483.140225154013
 20
900.8712771834042
 30
0.0
 11
2483.140225154013
 21
840.8712771834043
 31
0.0
  0
LINE
  5
AF3D
330
747D
100
AcDbEntity
  8
0
 48
25.0
100
AcDbLine
 10
2477.140225154013
 20
840.8712771834043
 30
0.0
 11
2483.140225154013
 21
840.8712771834043
 31
0.0
  0
LINE
  5
AF3E
330
747D
100
AcDbEntity
  8
0
 48
25.0
100
AcDbLine
 10
2477.140225154013
 20
846.8712771834043
 30
0.0
 11
2477.140225154013
 21
840.8712771834043
 31
0.0
  0
LINE
  5
AF3F
330
747D
100
AcDbEntity
  8
0
 48
25.0
100
AcDbLine
 10
2477.140225154013
 20
900.8712771834042
 30
0.0
 11
2483.140225154013
 21
900.8712771834042
 31
0.0
  0
LINE
  5
AF40
330
747D
100
AcDbEntity
  8
0
 48
25.0
100
AcDbLine
 10
2477.140225154013
 20
900.8712771834042
 30
0.0
 11
2477.140225154013
 21
894.8712771834044
 31
0.0
  0
DIMENSION
  5
AF41
330
747D
100
AcDbEntity
  8
寸法引出
 48
25.0
100
AcDbDimension
  2
*D50
 10
3465.514492224123
 20
842.6778734338785
 30
0.0
 11
3425.514492224123
 21
827.6778734338792
 31
0.0
 70
    32
  1
3
 71
     5
 42
30.0
  3
SANWA
100
AcDbAlignedDimension
 13
3649.631789356666
 23
812.6778734338786
 33
0.0
 14
3549.631789356666
 24
842.6778734338785
 34
0.0
 50
90.0
100
AcDbRotatedDimension
1001
ACAD
1000
DSTYLE
1002
{
1070
    40
1040
20.0
1070
    41
1040
1.5
1070
    43
1040
5.0
1070
    44
1040
0.5
1070
   140
1040
2.0
1070
   147
1040
1.0
1070
   176
1070
   256
1070
   177
1070
   256
1070
   178
1070
   256
1002
}
  0
DIMENSION
  5
AF42
330
747D
100
AcDbEntity
  8
寸法引出
 48
25.0
100
AcDbDimension
  2
*D49
 10
3465.514492224123
 20
912.6778734338786
 30
0.0
 11
3425.514492224123
 21
877.6778734338792
 31
0.0
 70
    32
  1
7
 71
     5
 42
70.0
  3
SANWA
100
AcDbAlignedDimension
 13
3549.631789356666
 23
842.6778734338785
 33
0.0
 14
3599.631789356667
 24
912.6778734338786
 34
0.0
 50
90.0
100
AcDbRotatedDimension
1001
ACAD
1000
DSTYLE
1002
{
1070
   279
1070
     1
1070
    40
1040
20.0
1070
    41
1040
1.5
1070
    43
1040
5.0
1070
    44
1040
0.5
1070
   140
1040
2.0
1070
   147
1040
1.0
1070
   176
1070
   256
1070
   177
1070
   256
1070
   178
1070
   256
1002
}
  0
LINE
  5
AF43
330
747D
100
AcDbEntity
  8
0
 48
25.0
100
AcDbLine
 10
3649.631789356666
 20
812.6778734338786
 30
0.0
 11
3649.631789356666
 21
598.8068184508647
 31
0.0
  0
LINE
  5
AF44
330
747D
100
AcDbEntity
  8
0
 48
25.0
100
AcDbLine
 10
3649.631789356666
 20
812.6778734338786
 30
0.0
 11
3549.631789356666
 21
842.6778734338785
 31
0.0
  0
LINE
  5
AF45
330
747D
100
AcDbEntity
  8
0
 48
25.0
100
AcDbLine
 10
3549.631789356666
 20
842.6778734338785
 30
0.0
 11
3599.631789356667
 21
912.6778734338786
 31
0.0
  0
MTEXT
  5
AF46
330
747D
100
AcDbEntity
  8
寸法引出
 48
25.0
100
AcDbMText
 10
2662.998725132904
 20
1018.953456309596
 30
0.0
 40
40.0
 41
0.0
 71
     5
 72
     1
  1
ｲﾝｻｰﾄM12×32
  7
SANWA
 73
     1
 44
1.0
  0
DIMENSION
  5
AF49
330
747D
100
AcDbEntity
  8
寸法引出
 48
25.0
100
AcDbDimension
  2
*D72
 10
3676.067933826271
 20
1942.343493766061
 30
0.0
 11
3636.06793382627
 21
2142.343493766062
 31
0.0
 70
    32
 71
     5
 42
400.0
  3
SANWA
100
AcDbAlignedDimension
 13
3900.252698757795
 23
2342.34349376606
 33
0.0
 14
3900.252698757795
 24
1942.343493766061
 34
0.0
 50
90.0
100
AcDbRotatedDimension
1001
ACAD
1000
DSTYLE
1002
{
1070
   140
1040
2.0
1070
    40
1040
20.0
1070
   147
1040
1.0
1070
    44
1040
0.5
1070
    43
1040
5.0
1070
   178
1070
   256
1070
   177
1070
   256
1070
   176
1070
   256
1070
    41
1040
1.5
1002
}
  0
TEXT
  5
AF4A
330
747D
100
AcDbEntity
  8
0
100
AcDbText
 10
1829.703195825833
 20
1422.620315006376
 30
0.0
 40
60.0
  1
継手部詳細図
  7
SANWA
 72
     4
 11
2093.017481540119
 21
1453.30602929209
 31
0.0
100
AcDbText
  0
LINE
  5
AF4B
330
747D
100
AcDbEntity
  8
0
100
AcDbLine
 10
1812.235198891659
 20
1402.542040389258
 30
0.0
 11
2370.178755122222
 21
1402.542040389258
 31
0.0
  0
LINE
  5
AF4C
330
747D
100
AcDbEntity
  8
寸法引出
 48
25.0
100
AcDbLine
 10
1952.138017486453
 20
989.3712771834016
 30
0.0
 11
1952.138017486453
 21
1019.371277183401
 31
0.0
  0
LINE
  5
AF4D
330
747D
100
AcDbEntity
  8
0
 48
25.0
100
AcDbLine
 10
3599.631789356667
 20
1012.677873433878
 30
0.0
 11
3394.034980875971
 21
1012.677873433878
 31
0.0
  0
DIMENSION
  5
AF4E
330
747D
100
AcDbEntity
  8
寸法引出
 48
25.0
100
AcDbDimension
  2
*D53
 10
3599.631789356667
 20
1110.567883054149
 30
0.0
 11
3574.631789356667
 21
1150.567883054149
 31
0.0
 70
    32
  1
5
 71
     5
 42
50.0
  3
SANWA
100
AcDbAlignedDimension
 13
3549.631789356666
 23
1012.677873433878
 33
0.0
 14
3599.631789356667
 24
1012.677873433878
 34
0.0
100
AcDbRotatedDimension
1001
ACAD
1000
DSTYLE
1002
{
1070
    40
1040
20.0
1070
    41
1040
1.5
1070
    43
1040
5.0
1070
    44
1040
0.5
1070
   140
1040
2.0
1070
   147
1040
1.0
1070
   176
1070
   256
1070
   177
1070
   256
1070
   178
1070
   256
1002
}
  0
LINE
  5
AF59
330
747D
100
AcDbEntity
  8
0
 48
25.0
100
AcDbLine
 10
3900.252698757795
 20
1942.343493766061
 30
0.0
 11
3900.252698757795
 21
2342.34349376606
 31
0.0
  0
LINE
  5
AF62
330
747D
100
AcDbEntity
  8
0
100
AcDbLine
 10
3850.056445403849
 20
2565.352798530348
 30
0.0
 11
4166.977056779017
 21
2565.352798530348
 31
0.0
  0
ARC
  5
AF6F
330
747D
100
AcDbEntity
  8
0
 48
25.0
100
AcDbCircle
 10
2223.48810953985
 20
3282.510862132003
 30
0.0
 40
70.0
100
AcDbArc
 50
183.4336303624495
 51
252.8845833121883
  0
LEADER
  5
AF70
330
747D
100
AcDbEntity
  8
寸法引出
 48
25.0
100
AcDbLeader
  3
SANWA
 73
     0
 74
     0
 75
     1
 40
40.0
 41
82.97142857142857
 76
     3
 10
2180.091967532931
 20
3257.675909768139
 30
0.0
 10
2203.914455826674
 20
3369.24210785465
 30
0.0
 10
2233.914455826674
 20
3369.24210785465
 30
0.0
340
AFBF
1001
ACAD
1000
DSTYLE
1002
{
1070
   140
1040
2.0
1070
    40
1040
20.0
1070
   147
1040
1.0
1070
    44
1040
0.5
1070
    43
1040
5.0
1070
   178
1070
   256
1070
   177
1070
   256
1070
   176
1070
   256
1070
    41
1040
1.5
1002
}
  0
LINE
  5
AF71
330
747D
100
AcDbEntity
  8
寸法引出
  6
ByBlock
 48
25.0
100
AcDbLine
 10
2157.062482461489
 20
3043.026917903551
 30
0.0
 11
2187.062482461489
 21
3043.026917903551
 31
0.0
  0
DIMENSION
  5
AF72
330
747D
100
AcDbEntity
  8
寸法引出
 48
25.0
100
AcDbDimension
  2
*D71
 10
2127.062482461489
 20
3141.43932768014
 30
0.0
 11
2033.720637762425
 21
3226.289369875706
 31
0.0
 70
   162
 71
     5
 42
0.7853981633974583
  3
SANWA
100
AcDb2LineAngularDimension
 13
2467.062482461489
 23
3141.43932768014
 33
0.0
 14
2127.062482461489
 24
3141.43932768014
 34
0.0
 15
2097.06248246149
 25
3171.439327680141
 35
0.0
 16
2005.217037891461
 26
3174.08771615409
 36
0.0
1001
ACAD
1000
DSTYLE
1002
{
1070
    40
1040
20.0
1070
    41
1040
1.5
1070
    43
1040
5.0
1070
    44
1040
0.5
1070
    79
1070
     2
1070
   140
1040
2.0
1070
   147
1040
1.0
1070
   176
1070
   256
1070
   177
1070
   256
1070
   178
1070
   256
1070
   179
1070
     4
1002
}
  0
DIMENSION
  5
AF73
330
747D
100
AcDbEntity
  8
寸法引出
 48
25.0
100
AcDbDimension
  2
*D70
 10
2097.06248246149
 20
2936.614935398035
 30
0.0
 11
2137.062482461489
 21
2976.614935398034
 31
0.0
 70
    32
 71
     5
 42
80.0
  3
SANWA
100
AcDbAlignedDimension
 13
2177.06248246149
 23
3141.43932768014
 33
0.0
 14
2097.06248246149
 24
3171.43932768014
 34
0.0
100
AcDbRotatedDimension
1001
ACAD
1000
DSTYLE
1002
{
1070
   140
1040
2.0
1070
    40
1040
20.0
1070
   147
1040
1.0
1070
    44
1040
0.5
1070
    43
1040
5.0
1070
   178
1070
   256
1070
   177
1070
   256
1070
   176
1070
   256
1070
    41
1040
1.5
1002
}
  0
DIMENSION
  5
AF74
330
747D
100
AcDbEntity
  8
寸法引出
 48
25.0
100
AcDbDimension
  2
*D69
 10
2417.062482461489
 20
2936.614935398035
 30
0.0
 11
2297.062482461489
 21
2976.614935398034
 31
0.0
 70
    32
 71
     5
 42
240.0
  3
SANWA
100
AcDbAlignedDimension
 13
2177.06248246149
 23
3141.43932768014
 33
0.0
 14
2417.062482461489
 24
3141.43932768014
 34
0.0
100
AcDbRotatedDimension
1001
ACAD
1000
DSTYLE
1002
{
1070
   140
1040
2.0
1070
    40
1040
20.0
1070
   147
1040
1.0
1070
    44
1040
0.5
1070
    43
1040
5.0
1070
   178
1070
   256
1070
   177
1070
   256
1070
   176
1070
   256
1070
    41
1040
1.5
1002
}
  0
DIMENSION
  5
AF75
330
747D
100
AcDbEntity
  8
寸法引出
 48
25.0
100
AcDbDimension
  2
*D68
 10
2497.062482461489
 20
3935.546199616513
 30
0.0
 11
2297.062482461489
 21
3975.546199616514
 31
0.0
 70
    32
 71
     5
 42
400.0
  3
SANWA
100
AcDbAlignedDimension
 13
2097.06248246149
 23
3721.43932768014
 33
0.0
 14
2497.062482461489
 24
3721.43932768014
 34
0.0
100
AcDbRotatedDimension
1001
ACAD
1000
DSTYLE
1002
{
1070
   140
1040
2.0
1070
    40
1040
20.0
1070
   147
1040
1.0
1070
    44
1040
0.5
1070
    43
1040
5.0
1070
   178
1070
   256
1070
   177
1070
   256
1070
   176
1070
   256
1070
    41
1040
1.5
1002
}
  0
DIMENSION
  5
AF76
330
747D
100
AcDbEntity
  8
寸法引出
 48
25.0
100
AcDbDimension
  2
*D67
 10
2097.06248246149
 20
3827.428267840419
 30
0.0
 11
2122.062482461489
 21
3867.42826784042
 31
0.0
 70
    32
 71
     5
 42
50.0
  3
SANWA
100
AcDbAlignedDimension
 13
2147.062482461489
 23
3721.43932768014
 33
0.0
 14
2097.06248246149
 24
3721.43932768014
 34
0.0
100
AcDbRotatedDimension
1001
ACAD
1000
DSTYLE
1002
{
1070
   140
1040
2.0
1070
    40
1040
20.0
1070
   147
1040
1.0
1070
    44
1040
0.5
1070
    43
1040
5.0
1070
   178
1070
   256
1070
   177
1070
   256
1070
   176
1070
   256
1070
    41
1040
1.5
1002
}
  0
DIMENSION
  5
AF77
330
747D
100
AcDbEntity
  8
寸法引出
 48
25.0
100
AcDbDimension
  2
*D66
 10
2447.06248246149
 20
3827.428267840419
 30
0.0
 11
2297.062482461489
 21
3867.42826784042
 31
0.0
 70
    32
 71
     5
 42
300.0
  3
SANWA
100
AcDbAlignedDimension
 13
2147.062482461489
 23
3721.43932768014
 33
0.0
 14
2447.06248246149
 24
3721.43932768014
 34
0.0
100
AcDbRotatedDimension
1001
ACAD
1000
DSTYLE
1002
{
1070
   140
1040
2.0
1070
    40
1040
20.0
1070
   147
1040
1.0
1070
    44
1040
0.5
1070
    43
1040
5.0
1070
   178
1070
   256
1070
   177
1070
   256
1070
   176
1070
   256
1070
    41
1040
1.5
1002
}
  0
LINE
  5
AF78
330
747D
100
AcDbEntity
  8
0
 48
25.0
100
AcDbLine
 10
2297.062482461489
 20
3151.43932768014
 30
0.0
 11
2117.062482461489
 21
3151.43932768014
 31
0.0
  0
ARC
  5
AF79
330
747D
100
AcDbEntity
  8
0
 48
25.0
100
AcDbCircle
 10
2223.48810953985
 20
3282.510862132003
 30
0.0
 40
50.0
100
AcDbArc
 50
183.4336303624495
 51
252.8845833121883
  0
LINE
  5
AF7A
330
747D
100
AcDbEntity
  8
0
 48
25.0
100
AcDbLine
 10
2467.062482461489
 20
3141.43932768014
 30
0.0
 11
2127.062482461489
 21
3141.43932768014
 31
0.0
  0
LINE
  5
AF7B
330
747D
100
AcDbEntity
  8
0
100
AcDbLine
 10
1905.293493732855
 20
4167.035413082963
 30
0.0
 11
2222.214105108023
 21
4167.035413082963
 31
0.0
  0
TEXT
  5
AF7C
330
747D
100
AcDbEntity
  8
0
100
AcDbText
 10
1933.272854270678
 20
4187.799401985791
 30
0.0
 40
60.0
  1
断面図
  7
SANWA
 72
     4
 11
2064.929997127821
 21
4217.79940198579
 31
0.0
100
AcDbText
  0
LINE
  5
AF7D
330
747D
100
AcDbEntity
  8
0
 48
25.0
100
AcDbLine
 10
2153.613770357245
 20
3278.318401781047
 30
0.0
 11
2127.026514803301
 21
3721.43932768014
 31
0.0
  0
DIMENSION
  5
AF7E
330
747D
100
AcDbEntity
  8
寸法引出
 48
25.0
100
AcDbDimension
  2
*D65
 10
1888.257917203191
 20
3141.43932768014
 30
0.0
 11
1848.25791720319
 21
3431.43932768014
 31
0.0
 70
    32
 71
     5
 42
580.0
  3
SANWA
100
AcDbAlignedDimension
 13
2097.06248246149
 23
3721.43932768014
 33
0.0
 14
2127.062482461489
 24
3141.43932768014
 34
0.0
 50
90.0
100
AcDbRotatedDimension
1001
ACAD
1000
DSTYLE
1002
{
1070
   140
1040
2.0
1070
    40
1040
20.0
1070
   147
1040
1.0
1070
    44
1040
0.5
1070
    43
1040
5.0
1070
   178
1070
   256
1070
   177
1070
   256
1070
   176
1070
   256
1070
    41
1040
1.5
1002
}
  0
LINE
  5
AF7F
330
747D
100
AcDbEntity
  8
0
 48
25.0
100
AcDbLine
 10
2173.577867266561
 20
3279.516247595606
 30
0.0
 11
2147.062482461489
 21
3721.43932768014
 31
0.0
  0
LINE
  5
AF80
330
747D
100
AcDbEntity
  8
0
 48
25.0
100
AcDbLine
 10
2097.06248246149
 20
3171.43932768014
 30
0.0
 11
2097.06248246149
 21
3721.43932768014
 31
0.0
  0
LINE
  5
AF81
330
747D
100
AcDbEntity
  8
寸法引出
  6
ByBlock
 48
25.0
100
AcDbLine
 10
2127.062482461489
 20
3121.43932768014
 30
0.0
 11
2127.062482461489
 21
3033.026917903551
 31
0.0
  0
LINE
  5
AF82
330
747D
100
AcDbEntity
  8
寸法引出
  6
ByBlock
 48
25.0
100
AcDbLine
 10
2097.06248246149
 20
3151.43932768014
 30
0.0
 11
2097.06248246149
 21
3033.026917903551
 31
0.0
  0
MTEXT
  5
AF83
330
747D
100
AcDbEntity
  8
寸法引出
  6
ByBlock
 48
25.0
100
AcDbMText
 10
2059.599588403635
 20
3083.026917903551
 30
0.0
 40
40.0
 41
0.0
 71
     5
 72
     1
  1
\A1;30
  7
SANWA
 73
     1
 44
1.0
  0
LINE
  5
AF84
330
747D
100
AcDbEntity
  8
寸法引出
  6
ByBlock
 48
25.0
100
AcDbLine
 10
2067.062482461489
 20
3043.026917903551
 30
0.0
 11
2037.062482461489
 21
3043.026917903551
 31
0.0
  0
LINE
  5
AF85
330
747D
100
AcDbEntity
  8
寸法引出
  6
ByBlock
 48
25.0
100
AcDbLine
 10
2097.06248246149
 20
3043.026917903551
 30
0.0
 11
2127.062482461489
 21
3043.026917903551
 31
0.0
  0
SOLID
  5
AF86
330
747D
100
AcDbEntity
  8
寸法引出
  6
ByBlock
 48
25.0
100
AcDbTrace
 10
2067.062482461489
 20
3048.026917903551
 30
0.0
 11
2067.062482461489
 21
3038.026917903551
 31
0.0
 12
2097.06248246149
 22
3043.026917903551
 32
0.0
 13
2097.06248246149
 23
3043.026917903551
 33
0.0
  0
POINT
  5
AF87
330
747D
100
AcDbEntity
  8
寸法引出
  6
ByBlock
 62
     0
 48
25.0
100
AcDbPoint
 10
2127.062482461489
 20
3043.026917903551
 30
0.0
  0
SOLID
  5
AF88
330
747D
100
AcDbEntity
  8
寸法引出
  6
ByBlock
 48
25.0
100
AcDbTrace
 10
2157.062482461489
 20
3048.026917903551
 30
0.0
 11
2157.062482461489
 21
3038.026917903551
 31
0.0
 12
2127.062482461489
 22
3043.026917903551
 32
0.0
 13
2127.062482461489
 23
3043.026917903551
 33
0.0
  0
LINE
  5
AF89
330
747D
100
AcDbEntity
  8
0
 48
25.0
100
AcDbLine
 10
2097.06248246149
 20
3171.43932768014
 30
0.0
 11
2127.062482461489
 21
3141.43932768014
 31
0.0
  0
POINT
  5
AF8A
330
747D
100
AcDbEntity
  8
DEFPOINTS
  6
ByBlock
 62
     0
 48
25.0
100
AcDbPoint
 10
2097.06248246149
 20
3171.43932768014
 30
0.0
  0
POINT
  5
AF8B
330
747D
100
AcDbEntity
  8
DEFPOINTS
  6
ByBlock
 62
     0
 48
25.0
100
AcDbPoint
 10
2097.06248246149
 20
3171.43932768014
 30
0.0
  0
POINT
  5
AF8C
330
747D
100
AcDbEntity
  8
DEFPOINTS
  6
ByBlock
 62
     0
 48
25.0
100
AcDbPoint
 10
2127.062482461489
 20
3141.43932768014
 30
0.0
  0
POINT
  5
AF8D
330
747D
100
AcDbEntity
  8
DEFPOINTS
  6
ByBlock
 62
     0
 48
25.0
100
AcDbPoint
 10
2127.062482461489
 20
3141.43932768014
 30
0.0
  0
DIMENSION
  5
AF8E
330
747D
100
AcDbEntity
  8
寸法引出
 48
20.0
100
AcDbDimension
  2
*D56
 10
1998.337284874287
 20
3571.43932768014
 30
0.0
 11
1958.337284874287
 21
3646.439327680141
 31
0.0
 70
    32
 71
     5
 42
150.0
  3
SANWA
100
AcDbAlignedDimension
 13
2097.06248246149
 23
3721.43932768014
 33
0.0
 14
2097.06248246149
 24
3571.43932768014
 34
0.0
 50
90.0
100
AcDbRotatedDimension
1001
ACAD
1000
DSTYLE
1002
{
1070
    40
1040
20.0
1070
    41
1040
1.5
1070
    43
1040
5.0
1070
    44
1040
0.5
1070
   140
1040
2.0
1070
   147
1040
1.0
1070
   176
1070
   256
1070
   177
1070
   256
1070
   178
1070
   256
1002
}
  0
LINE
  5
AF8F
330
747D
100
AcDbEntity
  8
0
 48
25.0
100
AcDbLine
 10
2100.26248246149
 20
3598.93932768014
 30
0.0
 11
2100.26248246149
 21
3543.93932768014
 31
0.0
  0
LINE
  5
AF90
330
747D
100
AcDbEntity
  8
0
 48
25.0
100
AcDbLine
 10
2097.06248246149
 20
3541.93932768014
 30
0.0
 11
2100.26248246149
 21
3543.93932768014
 31
0.0
  0
LINE
  5
AF91
330
747D
100
AcDbEntity
  8
0
 48
25.0
100
AcDbLine
 10
2100.26248246149
 20
3565.43932768014
 30
0.0
 11
2130.26248246149
 21
3565.43932768014
 31
0.0
  0
LINE
  5
AF92
330
747D
100
AcDbEntity
  8
0
 48
25.0
100
AcDbLine
 10
2100.26248246149
 20
3563.43932768014
 30
0.0
 11
2130.26248246149
 21
3563.43932768014
 31
0.0
  0
LINE
  5
AF93
330
747D
100
AcDbEntity
  8
0
 48
25.0
100
AcDbLine
 10
2100.26248246149
 20
3577.43932768014
 30
0.0
 11
2130.26248246149
 21
3577.43932768014
 31
0.0
  0
LINE
  5
AF94
330
747D
100
AcDbEntity
  8
0
 48
25.0
100
AcDbLine
 10
2100.26248246149
 20
3579.43932768014
 30
0.0
 11
2130.26248246149
 21
3579.43932768014
 31
0.0
  0
LINE
  5
AF95
330
747D
100
AcDbEntity
  8
0
 48
25.0
100
AcDbLine
 10
2097.06248246149
 20
3600.93932768014
 30
0.0
 11
2100.26248246149
 21
3598.93932768014
 31
0.0
  0
LINE
  5
AF96
330
747D
100
AcDbEntity
  8
0
 48
25.0
100
AcDbLine
 10
2132.26248246149
 20
3581.43932768014
 30
0.0
 11
2132.26248246149
 21
3561.43932768014
 31
0.0
  0
LINE
  5
AF97
330
747D
100
AcDbEntity
  8
0
 48
25.0
100
AcDbLine
 10
2130.26248246149
 20
3577.43932768014
 30
0.0
 11
2130.26248246149
 21
3565.43932768014
 31
0.0
  0
LINE
  5
AF98
330
747D
100
AcDbEntity
  8
0
 48
25.0
100
AcDbLine
 10
2130.26248246149
 20
3563.43932768014
 30
0.0
 11
2130.26248246149
 21
3561.43932768014
 31
0.0
  0
LINE
  5
AF99
330
747D
100
AcDbEntity
  8
0
 48
25.0
100
AcDbLine
 10
2130.26248246149
 20
3581.43932768014
 30
0.0
 11
2130.26248246149
 21
3579.43932768014
 31
0.0
  0
LINE
  5
AF9A
330
747D
100
AcDbEntity
  8
0
 48
25.0
100
AcDbLine
 10
2130.26248246149
 20
3561.43932768014
 30
0.0
 11
2132.26248246149
 21
3561.43932768014
 31
0.0
  0
LINE
  5
AF9B
330
747D
100
AcDbEntity
  8
0
 48
25.0
100
AcDbLine
 10
2130.26248246149
 20
3581.43932768014
 30
0.0
 11
2132.26248246149
 21
3581.43932768014
 31
0.0
  0
LINE
  5
AF9C
330
747D
100
AcDbEntity
  8
0
 48
25.0
100
AcDbLine
 10
2097.06248246149
 20
3721.43932768014
 30
0.0
 11
2147.062482461489
 21
3721.43932768014
 31
0.0
  0
LINE
  5
AF9D
330
747D
100
AcDbEntity
  8
0
100
AcDbLine
 10
0.0
 20
5250.0
 30
0.0
 11
625.0
 21
5250.0
 31
0.0
  0
LINE
  5
AF9E
330
747D
100
AcDbEntity
  8
0
100
AcDbLine
 10
0.0
 20
5000.0
 30
0.0
 11
0.0
 21
5250.0
 31
0.0
  0
DIMENSION
  5
AF9F
330
747D
100
AcDbEntity
  8
寸法引出
 48
20.0
100
AcDbDimension
  2
*D57
 10
3813.346821062372
 20
3571.43932768014
 30
0.0
 11
3773.346821062371
 21
3646.439327680141
 31
0.0
 70
    32
 71
     5
 42
150.0
  3
SANWA
100
AcDbAlignedDimension
 13
3900.252698757795
 23
3721.43932768014
 33
0.0
 14
3900.252698757795
 24
3571.43932768014
 34
0.0
 50
90.0
100
AcDbRotatedDimension
1001
ACAD
1000
DSTYLE
1002
{
1070
    40
1040
20.0
1070
    41
1040
1.5
1070
    43
1040
5.0
1070
    44
1040
0.5
1070
   140
1040
2.0
1070
   147
1040
1.0
1070
   176
1070
   256
1070
   177
1070
   256
1070
   178
1070
   256
1002
}
  0
LEADER
  5
AFA0
330
747D
100
AcDbEntity
  8
寸法引出
 48
25.0
100
AcDbLeader
  3
SANWA
 73
     0
 75
     1
 40
51.88571428571429
 41
371.4285714285714
 76
     3
 10
4020.252698757794
 20
3721.43932768014
 30
0.0
 10
3859.368361984365
 20
3792.107692195787
 30
0.0
 10
3829.368361984364
 20
3792.107692195787
 30
0.0
340
AFDF
1001
ACAD
1000
DSTYLE
1002
{
1070
   140
1040
2.0
1070
    40
1040
20.0
1070
   147
1040
1.0
1070
    44
1040
0.5
1070
    43
1040
5.0
1070
   178
1070
   256
1070
   177
1070
   256
1070
   176
1070
   256
1070
    41
1040
1.5
1002
}
  0
LEADER
  5
AFA3
330
747D
100
AcDbEntity
  8
寸法引出
 48
25.0
100
AcDbLeader
  3
SANWA
 73
     0
 75
     1
 40
40.0
 41
82.97142857142857
 76
     3
 10
3905.252698757795
 20
3146.43932768014
 30
0.0
 10
3825.850736456552
 20
2999.450962523019
 30
0.0
 10
3795.850736456552
 20
2999.450962523019
 30
0.0
340
AFC5
1001
ACAD
1000
DSTYLE
1002
{
1070
   140
1040
2.0
1070
    40
1040
20.0
1070
   147
1040
1.0
1070
    44
1040
0.5
1070
    43
1040
5.0
1070
   178
1070
   256
1070
   177
1070
   256
1070
   176
1070
   256
1070
    41
1040
1.5
1002
}
  0
DIMENSION
  5
AFA4
330
747D
100
AcDbEntity
  8
寸法引出
 48
25.0
100
AcDbDimension
  2
*D64
 10
3676.067933826271
 20
3141.43932768014
 30
0.0
 11
3636.06793382627
 21
3431.439327680141
 31
0.0
 70
    32
 71
     5
 42
580.0
  3
SANWA
100
AcDbAlignedDimension
 13
3900.252698757795
 23
3721.43932768014
 33
0.0
 14
3910.252698757795
 24
3141.43932768014
 34
0.0
 50
90.0
100
AcDbRotatedDimension
1001
ACAD
1000
DSTYLE
1002
{
1070
   140
1040
2.0
1070
    40
1040
20.0
1070
   147
1040
1.0
1070
    44
1040
0.5
1070
    43
1040
5.0
1070
   178
1070
   256
1070
   177
1070
   256
1070
   176
1070
   256
1070
    41
1040
1.5
1002
}
  0
DIMENSION
  5
AFA5
330
747D
100
AcDbEntity
  8
寸法引出
 48
25.0
100
AcDbDimension
  2
*D63
 10
2789.163745735331
 20
3221.43932768014
 30
0.0
 11
2749.163745735331
 21
3471.43932768014
 31
0.0
 70
    32
 71
     5
 42
500.0
  3
SANWA
100
AcDbAlignedDimension
 13
2497.062482461489
 23
3721.43932768014
 33
0.0
 14
2497.062482461489
 24
3221.43932768014
 34
0.0
 50
90.0
100
AcDbRotatedDimension
1001
ACAD
1000
DSTYLE
1002
{
1070
   140
1040
2.0
1070
    40
1040
20.0
1070
   147
1040
1.0
1070
    44
1040
0.5
1070
    43
1040
5.0
1070
   178
1070
   256
1070
   177
1070
   256
1070
   176
1070
   256
1070
    41
1040
1.5
1002
}
  0
LINE
  5
AFA8
330
747D
100
AcDbEntity
  8
0
 48
25.0
100
AcDbLine
 10
2447.06248246149
 20
3721.43932768014
 30
0.0
 11
2420.547097656417
 21
3279.516247595606
 31
0.0
  0
LINE
  5
AFA9
330
747D
100
AcDbEntity
  8
0
 48
25.0
100
AcDbLine
 10
2497.062482461489
 20
3721.43932768014
 30
0.0
 11
2497.062482461489
 21
3171.43932768014
 31
0.0
  0
DIMENSION
  5
AFAA
330
747D
100
AcDbEntity
  8
寸法引出
 48
25.0
100
AcDbDimension
  2
*D62
 10
2789.163745735331
 20
3141.43932768014
 30
0.0
 11
2749.163745735331
 21
3181.43932768014
 31
0.0
 70
    32
 71
     5
 42
80.0
  3
SANWA
100
AcDbAlignedDimension
 13
2497.062482461489
 23
3221.43932768014
 33
0.0
 14
2467.062482461489
 24
3141.43932768014
 34
0.0
 50
90.0
100
AcDbRotatedDimension
1001
ACAD
1000
DSTYLE
1002
{
1070
   140
1040
2.0
1070
    40
1040
20.0
1070
   147
1040
1.0
1070
    44
1040
0.5
1070
    43
1040
5.0
1070
   178
1070
   256
1070
   177
1070
   256
1070
   176
1070
   256
1070
    41
1040
1.5
1002
}
  0
LEADER
  5
AFAD
330
747D
100
AcDbEntity
  8
寸法引出
 48
25.0
100
AcDbLeader
  3
SANWA
 73
     0
 74
     0
 75
     1
 40
39.42857142857142
 41
213.9428571428571
 76
     3
 10
2190.06774172412
 20
3141.43932768014
 30
0.0
 10
2224.946647836579
 20
3032.867213856416
 30
0.0
 10
2254.946647836579
 20
3032.867213856416
 30
0.0
340
AFB0
1001
ACAD
1000
DSTYLE
1002
{
1070
   140
1040
2.0
1070
    40
1040
20.0
1070
   147
1040
1.0
1070
    44
1040
0.5
1070
    43
1040
5.0
1070
   178
1070
   256
1070
   177
1070
   256
1070
   176
1070
   256
1070
    41
1040
1.5
1002
}
  0
DIMENSION
  5
AFAE
330
747D
100
AcDbEntity
  8
寸法引出
 48
25.0
100
AcDbDimension
  2
*D61
 10
2497.062482461489
 20
2936.614935398035
 30
0.0
 11
2457.062482461489
 21
2976.614935398034
 31
0.0
 70
    32
 71
     5
 42
80.0
  3
SANWA
100
AcDbAlignedDimension
 13
2417.062482461489
 23
3141.43932768014
 33
0.0
 14
2497.062482461489
 24
3171.43932768014
 34
0.0
100
AcDbRotatedDimension
1001
ACAD
1000
DSTYLE
1002
{
1070
   140
1040
2.0
1070
    40
1040
20.0
1070
   147
1040
1.0
1070
    44
1040
0.5
1070
    43
1040
5.0
1070
   178
1070
   256
1070
   177
1070
   256
1070
   176
1070
   256
1070
    41
1040
1.5
1002
}
  0
MTEXT
  5
AFB0
102
{ACAD_REACTORS
330
AFAD
102
}
330
747D
100
AcDbEntity
  8
寸法引出
 48
25.0
100
AcDbMText
 10
2274.946647836579
 20
3072.581499570702
 30
0.0
 40
30.0
 41
0.0
 71
     4
 72
     1
  1
\A1;面取り C10
  7
SANWA
 73
     1
 44
1.0
  0
LINE
  5
AFB4
330
747D
100
AcDbEntity
  8
0
 48
25.0
100
AcDbLine
 10
2467.062482461489
 20
3141.43932768014
 30
0.0
 11
2497.062482461489
 21
3171.43932768014
 31
0.0
  0
LEADER
  5
AFB5
330
747D
100
AcDbEntity
  8
寸法引出
 48
25.0
100
AcDbLeader
  3
SANWA
 73
     0
 74
     0
 75
     1
 40
40.0
 41
112.2285714285714
 76
     3
 10
2237.963268001939
 20
3227.318123326792
 30
0.0
 10
2253.875896470959
 20
3290.424255303218
 30
0.0
 10
2283.875896470959
 20
3290.424255303218
 30
0.0
340
AFC0
1001
ACAD
1000
DSTYLE
1002
{
1070
   140
1040
2.0
1070
    40
1040
20.0
1070
   147
1040
1.0
1070
    44
1040
0.5
1070
    43
1040
5.0
1070
   178
1070
   256
1070
   177
1070
   256
1070
   176
1070
   256
1070
    41
1040
1.5
1002
}
  0
LINE
  5
AFB6
330
747D
100
AcDbEntity
  8
0
  6
CENTER2
 48
5.0
100
AcDbLine
 10
2297.062482461489
 20
3111.43932768014
 30
0.0
 11
2297.062482461489
 21
3251.43932768014
 31
0.0
  0
ARC
  5
AFB7
330
747D
100
AcDbEntity
  8
0
 48
25.0
100
AcDbCircle
 10
2370.636855383128
 20
3282.510862132003
 30
0.0
 40
50.0
100
AcDbArc
 50
287.1154166878116
 51
356.5663696375505
  0
ARC
  5
AFB9
330
747D
100
AcDbEntity
  8
0
 48
25.0
100
AcDbCircle
 10
2297.062482461489
 20
3521.43932768014
 30
0.0
 40
300.0
100
AcDbArc
 50
252.8845833121883
 51
287.1154166878116
  0
ARC
  5
AFBA
330
747D
100
AcDbEntity
  8
0
 48
25.0
100
AcDbCircle
 10
2297.062482461489
 20
3521.43932768014
 30
0.0
 40
320.0
100
AcDbArc
 50
252.8845833121883
 51
270.0
  0
MTEXT
  5
AFBF
102
{ACAD_REACTORS
330
AF70
102
}
330
747D
100
AcDbEntity
  8
寸法引出
 48
25.0
100
AcDbMText
 10
2253.914455826674
 20
3409.24210785465
 30
0.0
 40
40.0
 41
0.0
 71
     4
 72
     1
  1
\A1;R50
  7
SANWA
 73
     1
 44
1.0
  0
MTEXT
  5
AFC0
102
{ACAD_REACTORS
330
AFB5
102
}
330
747D
100
AcDbEntity
  8
寸法引出
 48
25.0
100
AcDbMText
 10
2303.875896470959
 20
3330.424255303218
 30
0.0
 40
40.0
 41
0.0
 71
     4
 72
     1
  1
\A1;R300
  7
SANWA
 73
     1
 44
1.0
  0
MTEXT
  5
AFC5
102
{ACAD_REACTORS
330
AFA3
102
}
330
747D
100
AcDbEntity
  8
寸法引出
 48
25.0
100
AcDbMText
 10
3775.850736456552
 20
3039.450962523018
 30
0.0
 40
40.0
 41
0.0
 71
     6
 72
     1
  1
\A1;C10
  7
SANWA
 73
     1
 44
1.0
  0
DIMENSION
  5
AFC6
330
747D
100
AcDbEntity
  8
寸法引出
 48
25.0
100
AcDbDimension
  2
*D60
 10
2497.062482461489
 20
3827.428267840419
 30
0.0
 11
2472.06248246149
 21
3867.42826784042
 31
0.0
 70
    32
 71
     5
 42
50.0
  3
SANWA
100
AcDbAlignedDimension
 13
2447.06248246149
 23
3721.43932768014
 33
0.0
 14
2497.062482461489
 24
3721.43932768014
 34
0.0
100
AcDbRotatedDimension
1001
ACAD
1000
DSTYLE
1002
{
1070
   140
1040
2.0
1070
    40
1040
20.0
1070
   147
1040
1.0
1070
    44
1040
0.5
1070
    43
1040
5.0
1070
   178
1070
   256
1070
   177
1070
   256
1070
   176
1070
   256
1070
    41
1040
1.5
1002
}
  0
LINE
  5
AFC7
330
747D
100
AcDbEntity
  8
0
 48
25.0
100
AcDbLine
 10
2493.862482461489
 20
3579.43932768014
 30
0.0
 11
2463.862482461489
 21
3579.43932768014
 31
0.0
  0
LINE
  5
AFC8
330
747D
100
AcDbEntity
  8
0
 48
25.0
100
AcDbLine
 10
2493.862482461489
 20
3577.43932768014
 30
0.0
 11
2463.862482461489
 21
3577.43932768014
 31
0.0
  0
LINE
  5
AFC9
330
747D
100
AcDbEntity
  8
0
 48
25.0
100
AcDbLine
 10
2493.862482461489
 20
3563.43932768014
 30
0.0
 11
2463.862482461489
 21
3563.43932768014
 31
0.0
  0
LINE
  5
AFCA
330
747D
100
AcDbEntity
  8
0
 48
25.0
100
AcDbLine
 10
2493.862482461489
 20
3565.43932768014
 30
0.0
 11
2463.862482461489
 21
3565.43932768014
 31
0.0
  0
LINE
  5
AFCE
330
747D
100
AcDbEntity
  8
0
 48
25.0
100
AcDbLine
 10
2447.06248246149
 20
3721.43932768014
 30
0.0
 11
2497.062482461489
 21
3721.43932768014
 31
0.0
  0
LINE
  5
AFD2
330
747D
100
AcDbEntity
  8
寸法引出
  6
ByBlock
 48
25.0
100
AcDbLine
 10
2436.447934889918
 20
3544.530201487269
 30
0.0
 11
2436.201719989149
 21
3540.426619807734
 31
0.0
  0
LINE
  5
AFD3
330
747D
100
AcDbEntity
  8
0
 48
25.0
100
AcDbLine
 10
2463.862482461489
 20
3581.43932768014
 30
0.0
 11
2461.862482461489
 21
3581.43932768014
 31
0.0
  0
LINE
  5
AFD4
330
747D
100
AcDbEntity
  8
0
 48
25.0
100
AcDbLine
 10
2463.862482461489
 20
3561.43932768014
 30
0.0
 11
2461.862482461489
 21
3561.43932768014
 31
0.0
  0
LINE
  5
AFD5
330
747D
100
AcDbEntity
  8
0
 48
25.0
100
AcDbLine
 10
2463.862482461489
 20
3581.43932768014
 30
0.0
 11
2463.862482461489
 21
3579.43932768014
 31
0.0
  0
LINE
  5
AFD6
330
747D
100
AcDbEntity
  8
0
 48
25.0
100
AcDbLine
 10
2463.862482461489
 20
3563.43932768014
 30
0.0
 11
2463.862482461489
 21
3561.43932768014
 31
0.0
  0
LINE
  5
AFD7
330
747D
100
AcDbEntity
  8
0
 48
25.0
100
AcDbLine
 10
2463.862482461489
 20
3577.43932768014
 30
0.0
 11
2463.862482461489
 21
3565.43932768014
 31
0.0
  0
LINE
  5
AFD8
330
747D
100
AcDbEntity
  8
0
 48
25.0
100
AcDbLine
 10
2461.862482461489
 20
3581.43932768014
 30
0.0
 11
2461.862482461489
 21
3561.43932768014
 31
0.0
  0
LINE
  5
AFDB
330
747D
100
AcDbEntity
  8
0
 48
25.0
100
AcDbLine
 10
2493.862482461489
 20
3598.93932768014
 30
0.0
 11
2493.862482461489
 21
3543.93932768014
 31
0.0
  0
LINE
  5
AFDC
330
747D
100
AcDbEntity
  8
0
 48
25.0
100
AcDbLine
 10
2497.062482461489
 20
3541.93932768014
 30
0.0
 11
2493.862482461489
 21
3543.93932768014
 31
0.0
  0
LINE
  5
AFDD
330
747D
100
AcDbEntity
  8
0
 48
25.0
100
AcDbLine
 10
2497.062482461489
 20
3600.93932768014
 30
0.0
 11
2493.862482461489
 21
3598.93932768014
 31
0.0
  0
MTEXT
  5
AFDF
102
{ACAD_REACTORS
330
AFA0
102
}
330
747D
100
AcDbEntity
  8
寸法引出
 48
25.0
100
AcDbMText
 10
3809.368361984365
 20
3838.050549338644
 30
0.0
 40
40.0
 41
0.0
 71
     6
 72
     1
  1
\A1;ﾛｯｸﾋﾟﾝ用ｲﾝｻｰﾄ
  7
SANWA
 73
     1
 44
1.0
  0
LINE
  5
AFE6
330
747D
100
AcDbEntity
  8
0
 48
25.0
100
AcDbLine
 10
3900.252698757795
 20
3151.43932768014
 30
0.0
 11
3900.252698757795
 21
3721.43932768014
 31
0.0
  0
LINE
  5
AFEB
330
747D
100
AcDbEntity
  8
0
 48
25.0
100
AcDbLine
 10
3900.252698757795
 20
3151.43932768014
 30
0.0
 11
3910.252698757795
 21
3141.43932768014
 31
0.0
  0
DIMENSION
  5
AFF1
330
747D
100
AcDbEntity
  8
寸法引出
 48
25.0
100
AcDbDimension
  2
*D78
 10
4780.252698757794
 20
3840.87910978941
 30
0.0
 11
4400.252698757795
 21
3880.87910978941
 31
0.0
 70
    32
 71
     5
 42
760.0
  3
SANWA
100
AcDbAlignedDimension
 13
4020.252698757794
 23
3721.43932768014
 33
0.0
 14
4780.252698757794
 24
3721.43932768014
 34
0.0
100
AcDbRotatedDimension
1001
ACAD
1000
DSTYLE
1002
{
1070
    40
1040
20.0
1070
    41
1040
1.5
1070
    43
1040
5.0
1070
    44
1040
0.5
1070
    75
1070
     1
1070
   140
1040
2.0
1070
   147
1040
1.0
1070
   176
1070
   256
1070
   177
1070
   256
1070
   178
1070
   256
1070
   279
1070
     1
1002
}
  0
DIMENSION
  5
AFF2
330
747D
100
AcDbEntity
  8
寸法引出
 48
25.0
100
AcDbDimension
  2
*D77
 10
4020.252698757794
 20
3840.87910978941
 30
0.0
 11
3960.252698757795
 21
3880.87910978941
 31
0.0
 70
    32
 71
     5
 42
120.0
  3
SANWA
100
AcDbAlignedDimension
 13
3900.252698757795
 23
3721.43932768014
 33
0.0
 14
4020.252698757794
 24
3721.43932768014
 34
0.0
100
AcDbRotatedDimension
1001
ACAD
1000
DSTYLE
1002
{
1070
   140
1040
2.0
1070
    40
1040
20.0
1070
   147
1040
1.0
1070
    44
1040
0.5
1070
    43
1040
5.0
1070
   178
1070
   256
1070
   177
1070
   256
1070
   176
1070
   256
1070
    41
1040
1.5
1002
}
  0
DIMENSION
  5
AFF3
330
747D
100
AcDbEntity
  8
寸法引出
 48
25.0
100
AcDbDimension
  2
*D58
 10
3950.252698757795
 20
3626.497818617496
 30
0.0
 11
3925.252698757795
 21
3666.497818617495
 31
0.0
 70
    32
 71
     5
 42
50.0
  3
SANWA
100
AcDbAlignedDimension
 13
3900.252698757795
 23
3595.93932768014
 33
0.0
 14
3950.252698757795
 24
3571.43932768014
 34
0.0
100
AcDbRotatedDimension
1001
ACAD
1000
DSTYLE
1002
{
1070
    40
1040
20.0
1070
    41
1040
1.5
1070
    43
1040
5.0
1070
    44
1040
0.5
1070
   140
1040
2.0
1070
   147
1040
1.0
1070
   176
1070
   256
1070
   177
1070
   256
1070
   178
1070
   256
1002
}
  0
CIRCLE
  5
AFF4
330
747D
100
AcDbEntity
  8
0
 48
25.0
100
AcDbCircle
 10
3950.252698757795
 20
3571.43932768014
 30
0.0
 40
6.0
  0
LINE
  5
AFF5
330
747D
100
AcDbEntity
  8
0
  6
HIDDEN2
 48
5.0
100
AcDbLine
 10
4030.252698757794
 20
3684.43932768014
 30
0.0
 11
4030.252698757794
 21
3679.43932768014
 31
0.0
  0
LINE
  5
AFF6
330
747D
100
AcDbEntity
  8
0
  6
HIDDEN2
 48
5.0
100
AcDbLine
 10
4010.252698757795
 20
3679.43932768014
 30
0.0
 11
4010.252698757795
 21
3684.43932768014
 31
0.0
  0
LINE
  5
AFF7
330
747D
100
AcDbEntity
  8
0
  6
HIDDEN2
 48
5.0
100
AcDbLine
 10
4011.252698757795
 20
3684.43932768014
 30
0.0
 11
4011.252698757795
 21
3721.43932768014
 31
0.0
  0
LINE
  5
AFF8
330
747D
100
AcDbEntity
  8
0
  6
HIDDEN2
 48
5.0
100
AcDbLine
 10
4029.252698757795
 20
3721.43932768014
 30
0.0
 11
4029.252698757795
 21
3684.43932768014
 31
0.0
  0
LINE
  5
AFF9
330
747D
100
AcDbEntity
  8
0
  6
HIDDEN2
 48
5.0
100
AcDbLine
 10
4011.252698757795
 20
3721.43932768014
 30
0.0
 11
4029.252698757795
 21
3721.43932768014
 31
0.0
  0
LINE
  5
AFFA
330
747D
100
AcDbEntity
  8
0
  6
HIDDEN2
 48
5.0
100
AcDbLine
 10
4030.252698757794
 20
3684.43932768014
 30
0.0
 11
4010.252698757795
 21
3684.43932768014
 31
0.0
  0
LINE
  5
AFFB
330
747D
100
AcDbEntity
  8
0
  6
HIDDEN2
 48
5.0
100
AcDbLine
 10
4030.252698757794
 20
3679.43932768014
 30
0.0
 11
4010.252698757795
 21
3679.43932768014
 31
0.0
  0
TEXT
  5
AFFC
330
747D
100
AcDbEntity
  8
0
100
AcDbText
 10
3878.035805941672
 20
4187.456544842933
 30
0.0
 40
60.0
  1
側壁部
  7
SANWA
 72
     4
 11
4009.692948798814
 21
4217.79940198579
 31
0.0
100
AcDbText
  0
LINE
  5
AFFD
330
747D
100
AcDbEntity
  8
0
100
AcDbLine
 10
3850.056445403849
 20
4167.035413082963
 30
0.0
 11
4166.977056779017
 21
4167.035413082963
 31
0.0
  0
LINE
  5
AFFE
330
747D
100
AcDbEntity
  8
0
  6
HIDDEN2
 48
5.0
100
AcDbLine
 10
4790.252698757795
 20
3684.43932768014
 30
0.0
 11
4790.252698757795
 21
3679.43932768014
 31
0.0
  0
LINE
  5
AFFF
330
747D
100
AcDbEntity
  8
0
  6
HIDDEN2
 48
5.0
100
AcDbLine
 10
4770.252698757794
 20
3679.43932768014
 30
0.0
 11
4770.252698757794
 21
3684.43932768014
 31
0.0
  0
LINE
  5
B000
330
747D
100
AcDbEntity
  8
0
  6
HIDDEN2
 48
5.0
100
AcDbLine
 10
4771.252698757795
 20
3684.43932768014
 30
0.0
 11
4771.252698757795
 21
3721.43932768014
 31
0.0
  0
LINE
  5
B001
330
747D
100
AcDbEntity
  8
0
  6
HIDDEN2
 48
5.0
100
AcDbLine
 10
4789.252698757795
 20
3721.43932768014
 30
0.0
 11
4789.252698757795
 21
3684.43932768014
 31
0.0
  0
LINE
  5
B002
330
747D
100
AcDbEntity
  8
0
  6
HIDDEN2
 48
5.0
100
AcDbLine
 10
4771.252698757795
 20
3721.43932768014
 30
0.0
 11
4789.252698757795
 21
3721.43932768014
 31
0.0
  0
LINE
  5
B003
330
747D
100
AcDbEntity
  8
0
  6
HIDDEN2
 48
5.0
100
AcDbLine
 10
4790.252698757795
 20
3684.43932768014
 30
0.0
 11
4770.252698757794
 21
3684.43932768014
 31
0.0
  0
LINE
  5
B004
330
747D
100
AcDbEntity
  8
0
  6
HIDDEN2
 48
5.0
100
AcDbLine
 10
4790.252698757795
 20
3679.43932768014
 30
0.0
 11
4770.252698757794
 21
3679.43932768014
 31
0.0
  0
LINE
  5
B00E
330
747D
100
AcDbEntity
  8
枠
100
AcDbLine
 10
7175.0
 20
250.0
 30
0.0
 11
7175.0
 21
5000.0
 31
0.0
  0
LINE
  5
B027
330
747D
100
AcDbEntity
  8
0
 62
     0
100
AcDbLine
 10
5997.553191489351
 20
670.0000000000036
 30
0.0
 11
7175.0
 21
670.0000000000036
 31
0.0
  0
LINE
  5
B028
330
747D
100
AcDbEntity
  8
0
 62
     0
100
AcDbLine
 10
5997.553191489351
 20
830.0000000000064
 30
0.0
 11
7175.0
 21
830.0000000000064
 31
0.0
  0
TEXT
  5
B029
330
747D
100
AcDbEntity
  8
0
 48
2.0
100
AcDbText
 10
6015.480113215563
 20
541.5684862348935
 30
0.0
 40
27.99999999999999
  1
格
  7
SANWA
100
AcDbText
  0
TEXT
  5
B02A
330
747D
100
AcDbEntity
  8
0
 48
2.0
100
AcDbText
 10
6015.480113215563
 20
601.1410255214623
 30
0.0
 40
27.99999999999999
  1
規
  7
SANWA
100
AcDbText
  0
TEXT
  5
B02B
330
747D
100
AcDbEntity
  8
0
 48
2.0
100
AcDbText
 10
6014.775609774869
 20
699.8772475912228
 30
0.0
 40
27.99999999999999
  1
名
  7
SANWA
100
AcDbText
  0
TEXT
  5
B02C
330
747D
100
AcDbEntity
  8
0
 48
2.0
100
AcDbText
 10
6014.208558144741
 20
739.0543600013407
 30
0.0
 40
27.99999999999999
  1
び
  7
SANWA
100
AcDbText
  0
TEXT
  5
B02D
330
747D
100
AcDbEntity
  8
0
 48
2.0
100
AcDbText
 10
6014.605708847351
 20
777.3913655001133
 30
0.0
 40
27.99999999999999
  1
呼
  7
SANWA
100
AcDbText
  0
TEXT
  5
B02E
330
747D
100
AcDbEntity
  8
0
 48
2.0
100
AcDbText
 10
6014.721730996165
 20
868.3271054076495
 30
0.0
 40
27.99999999999999
  1
名
  7
SANWA
100
AcDbText
  0
TEXT
  5
B02F
330
747D
100
AcDbEntity
  8
0
 48
2.0
100
AcDbText
 10
6016.23849543496
 20
933.9614944784099
 30
0.0
 40
27.99999999999999
  1
品
  7
SANWA
100
AcDbText
  0
LINE
  5
B030
330
747D
100
AcDbEntity
  8
0
100
AcDbLine
 10
5997.553191489351
 20
990.000000000009
 30
0.0
 11
6035.462120509079
 21
990.000000000009
 31
0.0
  0
LINE
  5
B031
330
747D
100
AcDbEntity
  8
0
100
AcDbLine
 10
5337.553191489337
 20
510.0000000000018
 30
0.0
 11
7175.0
 21
510.0000000000018
 31
0.0
  0
LINE
  5
B032
330
747D
100
AcDbEntity
  8
0
 62
     0
100
AcDbLine
 10
5337.553191489337
 20
990.000000000009
 30
0.0
 11
7175.0
 21
990.000000000009
 31
0.0
  0
LINE
  5
B033
330
747D
100
AcDbEntity
  8
0
100
AcDbLine
 10
5997.553191489351
 20
250.0
 30
0.0
 11
5997.553191489351
 21
990.000000000009
 31
0.0
  0
LINE
  5
B034
330
747D
100
AcDbEntity
  8
0
100
AcDbLine
 10
5337.553191489337
 20
990.000000000009
 30
0.0
 11
5337.553191489337
 21
870.0000000000036
 31
0.0
  0
MTEXT
  5
B035
330
747D
100
AcDbEntity
  8
寸法引出
  6
ByBlock
 48
20.0
100
AcDbMText
 10
3798.871967551633
 20
733.4434625301383
 30
0.0
 40
30.0
 41
0.0
 71
     5
 72
     1
  1
接合面
  7
SANWA
 73
     1
 44
1.0
  0
CIRCLE
  5
B036
102
{ACAD_REACTORS
330
B039
102
}
330
747D
100
AcDbEntity
  8
0
100
AcDbCircle
 10
5532.353865006303
 20
121.5279938299991
 30
0.0
 40
79.97521057257928
  0
CIRCLE
  5
B037
102
{ACAD_REACTORS
330
B039
102
}
330
747D
100
AcDbEntity
  8
0
100
AcDbCircle
 10
5532.353865006303
 20
121.5279938299991
 30
0.0
 40
75.97521057257927
  0
TEXT
  5
B038
102
{ACAD_REACTORS
330
B039
102
}
330
747D
100
AcDbEntity
  8
0
 48
2.0
100
AcDbText
 10
5504.756708051672
 20
132.7163888296463
 30
0.0
 40
40.0
  1
蒔
  7
SANWA
100
AcDbText
  0
HATCH
  5
B039
330
747D
100
AcDbEntity
  8
0
100
AcDbHatch
 10
0.0
 20
0.0
 30
0.0
210
0.0
220
0.0
230
1.0
  2
SOLID
 70
     1
 71
     1
 91
        4
 92
        7
 72
     1
 73
     1
 93
        2
 10
5612.329075578883
 20
121.5279938299991
 42
1.0
 10
5452.378654433725
 20
121.5279938299991
 42
1.0
 97
        1
330
B036
 92
       22
 72
     1
 73
     1
 93
        2
 10
5608.329075578883
 20
121.5279938299991
 42
1.0
 10
5456.378654433724
 20
121.5279938299991
 42
1.0
 97
        1
330
B037
 92
      136
 93
        4
 72
     1
 10
5491.556708051673
 20
113.8021031153606
 11
5576.470993765958
 21
113.8021031153606
 72
     1
 10
5576.470993765958
 20
113.8021031153606
 11
5576.470993765958
 21
193.0021031153606
 72
     1
 10
5576.470993765958
 20
193.0021031153606
 11
5491.556708051673
 21
193.0021031153606
 72
     1
 10
5491.556708051673
 20
193.0021031153606
 11
5491.556708051673
 21
113.8021031153606
 97
        1
330
B038
 92
       24
 93
        4
 72
     1
 10
5491.873233304191
 20
54.37358697902087
 11
5574.27323330419
 21
54.37358697902087
 72
     1
 10
5574.27323330419
 20
54.37358697902087
 11
5574.27323330419
 21
126.0307298361637
 72
     1
 10
5574.27323330419
 20
126.0307298361637
 11
5491.873233304191
 21
126.0307298361637
 72
     1
 10
5491.873233304191
 20
126.0307298361637
 11
5491.873233304191
 21
54.37358697902087
 97
        1
330
B03F
 75
     0
 76
     1
 47
0.0602706122334892
 98
        2
 10
5570.671008116811
 20
190.2767456646324
 10
5570.671008116811
 20
190.2767456646324
  0
TEXT
  5
B03A
102
{ACAD_REACTORS
330
B03D
102
}
330
747D
100
AcDbEntity
  8
0
 48
2.0
100
AcDbText
 10
5709.411427620753
 20
135.5407786189489
 30
0.0
 40
40.0
  1
大
  7
SANWA
100
AcDbText
  0
CIRCLE
  5
B03B
102
{ACAD_REACTORS
330
B03D
102
}
330
747D
100
AcDbEntity
  8
0
100
AcDbCircle
 10
5737.008584575384
 20
122.2042827341592
 30
0.0
 40
75.97521057257927
  0
CIRCLE
  5
B03C
102
{ACAD_REACTORS
330
B03D
102
}
330
747D
100
AcDbEntity
  8
0
100
AcDbCircle
 10
5737.008584575384
 20
122.2042827341592
 30
0.0
 40
79.97521057257928
  0
HATCH
  5
B03D
330
747D
100
AcDbEntity
  8
0
100
AcDbHatch
 10
0.0
 20
0.0
 30
0.0
210
0.0
220
0.0
230
1.0
  2
SOLID
 70
     1
 71
     1
 91
        4
 92
        7
 72
     1
 73
     1
 93
        2
 10
5816.983795147963
 20
122.2042827341592
 42
1.0
 10
5657.033374002804
 20
122.2042827341592
 42
1.0
 97
        1
330
B03C
 92
       22
 72
     1
 73
     1
 93
        2
 10
5812.983795147963
 20
122.2042827341592
 42
1.0
 10
5661.033374002805
 20
122.2042827341592
 42
1.0
 97
        1
330
B03B
 92
      136
 93
        4
 72
     1
 10
5696.725713335038
 20
119.1979214760918
 11
5780.611427620753
 21
119.1979214760918
 72
     1
 10
5780.611427620753
 20
119.1979214760918
 11
5780.611427620753
 21
195.3122071903775
 72
     1
 10
5780.611427620753
 20
195.3122071903775
 11
5696.725713335038
 21
195.3122071903775
 72
     1
 10
5696.725713335038
 20
195.3122071903775
 11
5696.725713335038
 21
119.1979214760918
 97
        1
330
B03A
 92
      136
 93
        4
 72
     1
 10
5695.15652430182
 20
59.6656172847587
 11
5780.299381444677
 21
59.6656172847587
 72
     1
 10
5780.299381444677
 20
59.6656172847587
 11
5780.299381444677
 21
139.5513315704729
 72
     1
 10
5780.299381444677
 20
139.5513315704729
 11
5695.15652430182
 21
139.5513315704729
 72
     1
 10
5695.15652430182
 20
139.5513315704729
 11
5695.15652430182
 21
59.6656172847587
 97
        1
330
B03E
 75
     0
 76
     1
 47
0.0602706122334892
 98
        2
 10
5775.325727685877
 20
190.9530345687926
 10
5775.325727685877
 20
190.9530345687926
  0
TEXT
  5
B03E
102
{ACAD_REACTORS
330
B03D
102
}
330
747D
100
AcDbEntity
  8
0
 48
2.0
100
AcDbText
 10
5708.470810016105
 20
78.92276014190156
 30
0.0
 40
40.0
  1
嶋
  7
SANWA
100
AcDbText
  0
TEXT
  5
B03F
102
{ACAD_REACTORS
330
B039
102
}
330
747D
100
AcDbEntity
  8
0
 48
2.0
100
AcDbText
 10
5503.816090447048
 20
71.80215840759228
 30
0.0
 40
40.0
  1
田
  7
SANWA
100
AcDbText
  0
TEXT
  5
B040
330
747D
100
AcDbEntity
  8
0
 48
2.0
100
AcDbText
 10
5391.248993407271
 20
522.0856316808058
 30
0.0
 40
40.0
  1
製図
  7
SANWA
100
AcDbText
  0
LINE
  5
B041
330
747D
100
AcDbEntity
  8
0
 62
     0
100
AcDbLine
 10
5337.553191489337
 20
450.0
 30
0.0
 11
5997.553191489351
 21
450.0
 31
0.0
  0
TEXT
  5
B042
330
747D
100
AcDbEntity
  8
0
 48
2.0
100
AcDbText
 10
5420.356982389012
 20
298.2312438284934
 30
0.0
 40
40.0
  1
口
  7
SANWA
100
AcDbText
  0
TEXT
  5
B043
330
747D
100
AcDbEntity
  8
0
 48
2.0
100
AcDbText
 10
5421.297599993659
 20
354.8492623055526
 30
0.0
 40
40.0
  1
河
  7
SANWA
100
AcDbText
  0
CIRCLE
  5
B044
102
{ACAD_REACTORS
330
B046
102
}
330
747D
100
AcDbEntity
  8
0
100
AcDbCircle
 10
5448.894756948289
 20
349.5641918730398
 30
0.0
 40
79.97521057257928
  0
CIRCLE
  5
B045
102
{ACAD_REACTORS
330
B046
102
}
330
747D
100
AcDbEntity
  8
0
100
AcDbCircle
 10
5448.894756948289
 20
349.5641918730398
 30
0.0
 40
75.97521057257927
  0
HATCH
  5
B046
330
747D
100
AcDbEntity
  8
0
100
AcDbHatch
 10
0.0
 20
0.0
 30
0.0
210
0.0
220
0.0
230
1.0
  2
SOLID
 70
     1
 71
     1
 91
        2
 92
        7
 72
     1
 73
     1
 93
        2
 10
5528.869967520869
 20
349.5641918730398
 42
1.0
 10
5368.91954637571
 20
349.5641918730398
 42
1.0
 97
        1
330
B044
 92
       22
 72
     1
 73
     1
 93
        2
 10
5524.869967520869
 20
349.5641918730398
 42
1.0
 10
5372.919546375711
 20
349.5641918730398
 42
1.0
 97
        1
330
B045
 75
     0
 76
     1
 47
0.0602706122334892
 98
        2
 10
5487.211900058783
 20
418.3129437076732
 10
5487.211900058783
 20
418.3129437076732
  0
LINE
  5
B047
330
747D
100
AcDbEntity
  8
0
 62
     0
100
AcDbLine
 10
5337.553191489337
 20
710.0000000000018
 30
0.0
 11
5997.553191489351
 21
710.0000000000018
 31
0.0
  0
LINE
  5
B048
330
747D
100
AcDbEntity
  8
0
 62
     0
100
AcDbLine
 10
5337.553191489337
 20
790.000000000009
 30
0.0
 11
5997.553191489351
 21
790.000000000009
 31
0.0
  0
LINE
  5
B049
330
747D
100
AcDbEntity
  8
0
 62
     0
100
AcDbLine
 10
5337.553191489337
 20
910.0000000000019
 30
0.0
 11
5997.553191489351
 21
910.0000000000019
 31
0.0
  0
LINE
  5
B04A
330
747D
100
AcDbEntity
  8
0
 62
     0
100
AcDbLine
 10
5337.553191489337
 20
910.0000000000019
 30
0.0
 11
5997.553191489351
 21
910.0000000000019
 31
0.0
  0
TEXT
  5
B04B
330
747D
100
AcDbEntity
  8
0
 48
2.0
100
AcDbText
 10
5385.360299888543
 20
459.6196585260822
 30
0.0
 40
40.0
  1
検図
  7
SANWA
100
AcDbText
  0
LINE
  5
B04C
330
747D
100
AcDbEntity
  8
0
 62
     0
100
AcDbLine
 10
5337.553191489337
 20
570.0000000000036
 30
0.0
 11
5997.553191489351
 21
570.0000000000036
 31
0.0
  0
LINE
  5
B04D
330
747D
100
AcDbEntity
  8
0
100
AcDbLine
 10
5337.553191489337
 20
630.0000000000063
 30
0.0
 11
5337.553191489337
 21
499.8919161829453
 31
0.0
  0
LINE
  5
B04E
330
747D
100
AcDbEntity
  8
0
100
AcDbLine
 10
5337.553191489337
 20
570.0000000000036
 30
0.0
 11
5337.553191489337
 21
630.0000000000063
 31
0.0
  0
LINE
  5
B04F
330
747D
100
AcDbEntity
  8
0
 62
     0
100
AcDbLine
 10
5337.553191489337
 20
630.0000000000063
 30
0.0
 11
5337.553191489337
 21
250.0
 31
0.0
  0
LINE
  5
B050
330
747D
100
AcDbEntity
  8
0
100
AcDbLine
 10
5337.553191489337
 20
570.0000000000036
 30
0.0
 11
5337.553191489337
 21
510.0000000000018
 31
0.0
  0
LINE
  5
B051
330
747D
100
AcDbEntity
  8
0
100
AcDbLine
 10
5337.553191489337
 20
726.7609459798332
 30
0.0
 11
5337.553191489337
 21
882.1169115701533
 31
0.0
  0
LINE
  5
B052
330
747D
100
AcDbEntity
  8
0
 62
     0
100
AcDbLine
 10
5337.553191489337
 20
870.0000000000036
 30
0.0
 11
5337.553191489337
 21
630.0000000000063
 31
0.0
  0
LINE
  5
B053
330
747D
100
AcDbEntity
  8
0
100
AcDbLine
 10
5337.553191489337
 20
670.0000000000036
 30
0.0
 11
5337.553191489337
 21
726.7609459798332
 31
0.0
  0
TEXT
  5
B054
330
747D
100
AcDbEntity
  8
0
 48
2.0
100
AcDbText
 10
5648.287171582318
 20
522.0856316808058
 30
0.0
 40
40.0
  1
2002. 5. 1
  7
SANWA
100
AcDbText
  0
LINE
  5
B055
330
747D
100
AcDbEntity
  8
0
100
AcDbLine
 10
5557.553191489342
 20
250.0
 30
0.0
 11
5557.553191489342
 21
570.0000000000036
 31
0.0
  0
TEXT
  5
B056
330
747D
100
AcDbEntity
  8
0
 48
2.0
100
AcDbText
 10
5615.12664304264
 20
461.8928629188303
 30
0.0
 40
40.0
  1
設計
  7
SANWA
100
AcDbText
  0
CIRCLE
  5
B057
102
{ACAD_REACTORS
330
B05A
102
}
330
747D
100
AcDbEntity
  8
0
100
AcDbCircle
 10
5887.5337688294
 20
347.5211628419692
 30
0.0
 40
79.97521057257928
  0
CIRCLE
  5
B058
102
{ACAD_REACTORS
330
B05A
102
}
330
747D
100
AcDbEntity
  8
0
100
AcDbCircle
 10
5887.5337688294
 20
347.5211628419692
 30
0.0
 40
75.97521057257927
  0
TEXT
  5
B059
102
{ACAD_REACTORS
330
B05A
102
}
330
747D
100
AcDbEntity
  8
0
 48
2.0
100
AcDbText
 10
5859.936611874747
 20
360.8576587267589
 30
0.0
 40
40.0
  1
中
  7
SANWA
100
AcDbText
  0
HATCH
  5
B05A
330
747D
100
AcDbEntity
  8
0
100
AcDbHatch
 10
0.0
 20
0.0
 30
0.0
210
0.0
220
0.0
230
1.0
  2
SOLID
 70
     1
 71
     1
 91
        4
 92
        7
 72
     1
 73
     1
 93
        2
 10
5967.50897940198
 20
347.5211628419692
 42
1.0
 10
5807.558558256821
 20
347.5211628419692
 42
1.0
 97
        1
330
B057
 92
       22
 72
     1
 73
     1
 93
        2
 10
5963.508979401979
 20
347.5211628419692
 42
1.0
 10
5811.55855825682
 20
347.5211628419692
 42
1.0
 97
        1
330
B058
 92
      136
 93
        4
 72
     1
 10
5846.622326160462
 20
340.9148015839017
 11
5931.765183303319
 21
340.9148015839017
 72
     1
 10
5931.765183303319
 20
340.9148015839017
 11
5931.765183303319
 21
420.8005158696161
 72
     1
 10
5931.765183303319
 20
420.8005158696161
 11
5846.622326160462
 21
420.8005158696161
 72
     1
 10
5846.622326160462
 20
420.8005158696161
 11
5846.622326160462
 21
340.9148015839017
 97
        1
330
B059
 92
      136
 93
        4
 72
     1
 10
5846.481708555837
 20
286.9253545354258
 11
5930.024565698694
 21
286.9253545354258
 72
     1
 10
5930.024565698694
 20
286.9253545354258
 11
5930.024565698694
 21
362.0110688211401
 72
     1
 10
5930.024565698694
 20
362.0110688211401
 11
5846.481708555837
 21
362.0110688211401
 72
     1
 10
5846.481708555837
 20
362.0110688211401
 11
5846.481708555837
 21
286.9253545354258
 97
        1
330
B05C
 75
     0
 76
     1
 47
0.0602706122334892
 98
        2
 10
5925.850911939892
 20
416.2699146766026
 10
5925.850911939892
 20
416.2699146766026
  0
LINE
  5
B05B
330
747D
100
AcDbEntity
  8
0
100
AcDbLine
 10
5777.553191489346
 20
250.0
 30
0.0
 11
5777.553191489346
 21
510.0000000000018
 31
0.0
  0
TEXT
  5
B05C
102
{ACAD_REACTORS
330
B05A
102
}
330
747D
100
AcDbEntity
  8
0
 48
2.0
100
AcDbText
 10
5858.995994270123
 20
304.2396402497115
 30
0.0
 40
40.0
  1
川
  7
SANWA
100
AcDbText
  0
TEXT
  5
B05D
330
747D
100
AcDbEntity
  8
0
 48
2.0
100
AcDbText
 10
5831.24899340728
 20
462.085631680804
 30
0.0
 40
40.0
  1
製図
  7
SANWA
100
AcDbText
  0
TEXT
  5
B05E
330
747D
100
AcDbEntity
  8
0
 48
2.0
100
AcDbText
 10
5546.443115333707
 20
623.4578242522293
 30
0.0
 40
40.0
  1
１：２５
  7
SANWA
100
AcDbText
  0
TEXT
  5
B05F
330
747D
100
AcDbEntity
  8
0
 48
2.0
100
AcDbText
 10
5546.443115333703
 20
830.9755021622549
 30
0.0
 40
40.0
  1
MS305020
  7
SANWA
100
AcDbText
  0
TEXT
  5
B060
330
747D
100
AcDbEntity
  8
0
 48
2.0
100
AcDbText
 10
5544.098121932371
 20
723.973191117022
 30
0.0
 40
40.0
  1
縮    尺
  7
SANWA
100
AcDbText
  0
TEXT
  5
B061
330
747D
100
AcDbEntity
  8
0
 48
2.0
100
AcDbText
 10
5653.898808185773
 20
931.0686527376557
 30
0.0
 40
40.0
  1
番号
  7
SANWA
100
AcDbText
  0
TEXT
  5
B062
330
747D
100
AcDbEntity
  8
0
 48
2.0
100
AcDbText
 10
5542.345604725415
 20
928.7954769413772
 30
0.0
 40
40.0
  1
図面
  7
SANWA
100
AcDbText
  0
MTEXT
  5
B063
330
747D
100
AcDbEntity
  8
寸法引出
  6
ByBlock
 48
20.0
100
AcDbMText
 10
3963.74226341347
 20
1134.629593400373
 30
0.0
 40
30.0
 41
0.0
 71
     5
 72
     1
  1
内面
  7
SANWA
 73
     1
 44
1.0
  0
LEADER
  5
B064
330
747D
100
AcDbEntity
  8
寸法引出
 48
25.0
100
AcDbLeader
  3
SANWA
 76
     3
 10
3870.334110878699
 20
1012.677873433878
 30
0.0
 10
3907.439746027602
 20
1106.928476812607
 30
0.0
 10
4023.165313513687
 20
1106.928476812607
 30
0.0
1001
ACAD
1000
DSTYLE
1002
{
1070
    77
1070
     0
1070
    40
1040
20.0
1070
    41
1040
1.5
1070
    43
1040
5.0
1070
    44
1040
0.5
1070
   140
1040
2.0
1070
   147
1040
1.0
1070
   176
1070
   256
1070
   177
1070
   256
1070
   178
1070
   256
1002
}
  0
LINE
  5
B072
330
747D
100
AcDbEntity
  8
0
 48
25.0
100
AcDbLine
 10
5900.252698757795
 20
2342.34349376606
 30
0.0
 11
5900.252698757795
 21
1942.343493766061
 31
0.0
  0
LINE
  5
B082
330
747D
100
AcDbEntity
  8
0
100
AcDbLine
 10
6077.553191489346
 20
510.0000000000018
 30
0.0
 11
6077.553191489346
 21
990.000000000009
 31
0.0
  0
LINE
  5
B083
330
747D
100
AcDbEntity
  8
0
100
AcDbLine
 10
7425.0
 20
0.0
 30
0.0
 11
7175.0
 21
0.0
 31
0.0
  0
TEXT
  5
B084
330
747D
100
AcDbEntity
  8
0
100
AcDbText
 10
6421.476595744684
 20
570.4571428571519
 30
0.0
 40
40.0
  1
300×500×2000
  7
SANWA
 72
     4
 11
6626.276595744684
 21
590.000000000009
 31
0.0
100
AcDbText
  0
TEXT
  5
B085
330
747D
100
AcDbEntity
  8
0
100
AcDbText
 10
6245.933738601827
 20
889.6571428571446
 30
0.0
 40
40.0
  1
マルチスリット側溝（横断）
  7
SANWA
 72
     4
 11
6626.276595744684
 21
910.0000000000019
 31
0.0
100
AcDbText
  0
TEXT
  5
B086
330
747D
100
AcDbEntity
  8
0
100
AcDbText
 10
6277.347189020771
 20
344.5314540177942
 30
0.0
 40
40.0
  1
三和コンクリート工業株式会社
  7
SANWA
100
AcDbText
  0
HATCH
  5
B087
330
747D
100
AcDbEntity
  8
0
100
AcDbHatch
 10
0.0
 20
0.0
 30
0.0
210
0.0
220
0.0
230
1.0
  2
SOLID
 70
     1
 71
     0
 91
        6
 92
        7
 72
     1
 73
     1
 93
        4
 10
6084.7722498009
 20
426.459654682927
 42
0.0
 10
6097.525524441386
 20
413.7063800424412
 42
-0.3722683533228775
 10
6169.595189997954
 20
413.706380042452
 42
0.0
 10
6182.348464638433
 20
426.4596546829425
 42
0.382497994028995
 97
        0
 92
       22
 72
     1
 73
     1
 93
        4
 10
6176.440513371819
 20
426.2085576657955
 42
0.0
 10
6169.313383794019
 20
419.0814280879958
 42
0.3367429548951122
 10
6097.807330645333
 20
419.0814280879958
 42
0.0
 10
6090.680201067534
 20
426.2085576657955
 42
-0.3477704275231142
 97
        0
 92
        7
 72
     1
 73
     1
 93
        4
 10
6175.252044247447
 20
408.0495257929615
 42
-0.6168583269100119
 10
6137.560357219673
 20
317.0537437817747
 42
0.0
 10
6137.560357219673
 20
299.0178898205322
 42
0.6292889159379468
 10
6188.005318887941
 20
420.8028004334336
 42
0.0
 97
        0
 92
       22
 72
     1
 73
     1
 93
        4
 10
6187.7542218708
 20
414.8948491668124
 42
-0.5873104908889521
 10
6141.560357219669
 20
303.3729946276362
 42
0.0
 10
6141.560357219669
 20
313.4522779373491
 42
0.5741105922167442
 10
6180.627092293008
 20
407.7677195890064
 42
0.0
 97
        0
 92
        7
 72
     1
 73
     1
 93
        4
 10
6079.115395551411
 20
420.8028004334336
 42
0.6292889159379484
 10
6129.56035721968
 20
299.0178898205313
 42
0.0
 10
6129.56035721968
 20
317.0537437817747
 42
-0.6168583269099083
 10
6091.868670191894
 20
408.0495257929487
 42
0.0
 97
        0
 92
       22
 72
     1
 73
     1
 93
        4
 10
6086.49362214635
 20
407.7677195890137
 42
0.5741105922167819
 10
6125.560357219683
 20
313.452277937351
 42
0.0
 10
6125.560357219683
 20
303.3729946276362
 42
-0.5873104908889487
 10
6079.366492568549
 20
414.8948491668124
 42
0.0
 97
        0
 75
     0
 76
     1
 47
0.0143554168026844
 98
        6
 10
6165.5808279733
 20
434.8088762841871
 10
6165.5808279733
 20
434.8088762841871
 10
6180.523262244778
 20
411.5531024217707
 10
6180.523262244778
 20
411.5531024217707
 10
6088.282422260045
 20
410.6917769343344
 10
6088.282422260045
 20
410.6917769343344
  0
TEXT
  5
B088
330
747D
100
AcDbEntity
  8
0
100
AcDbText
 10
6111.181671391545
 20
344.5314540177942
 30
0.0
 40
30.0
  1
和
  7
SANWA
100
AcDbText
  0
ARC
  5
B089
330
747D
100
AcDbEntity
  8
0
100
AcDbCircle
 10
6133.560357219676
 20
372.0146930146711
 30
0.0
 40
69.10631488841319
100
AcDbArc
 50
276.6476737862
 51
38.35232621378875
  0
ARC
  5
B08A
330
747D
100
AcDbEntity
  8
0
100
AcDbCircle
 10
6133.560357219676
 20
372.0146930146711
 30
0.0
 40
73.1063148884132
100
AcDbArc
 50
273.136495447062
 51
41.86350455292095
  0
ARC
  5
B08B
330
747D
100
AcDbEntity
  8
0
100
AcDbCircle
 10
6133.560357219676
 20
372.0146930146711
 30
0.0
 40
59.10631488841318
100
AcDbArc
 50
277.7788203119242
 51
37.22117968809675
  0
ARC
  5
B08C
330
747D
100
AcDbEntity
  8
0
100
AcDbCircle
 10
6133.560357219676
 20
372.0146930146711
 30
0.0
 40
55.10631488841318
100
AcDbArc
 50
274.1625874111334
 51
40.8374125888692
  0
ARC
  5
B08D
330
747D
100
AcDbEntity
  8
0
100
AcDbCircle
 10
6133.560357219676
 20
372.0146930146711
 30
0.0
 40
55.10631488841318
100
AcDbArc
 50
139.1625874111308
 51
265.8374125888665
  0
ARC
  5
B08E
330
747D
100
AcDbEntity
  8
0
100
AcDbCircle
 10
6133.560357219676
 20
372.0146930146711
 30
0.0
 40
59.10631488841318
100
AcDbArc
 50
142.7788203119032
 51
262.2211796880757
  0
ARC
  5
B08F
330
747D
100
AcDbEntity
  8
0
100
AcDbCircle
 10
6133.560357219676
 20
372.0146930146711
 30
0.0
 40
73.1063148884132
100
AcDbArc
 50
138.136495447079
 51
266.8635045529379
  0
ARC
  5
B090
330
747D
100
AcDbEntity
  8
0
100
AcDbCircle
 10
6133.560357219676
 20
372.0146930146711
 30
0.0
 40
69.10631488841319
100
AcDbArc
 50
141.6476737862112
 51
263.3523262137999
  0
LINE
  5
B091
330
747D
100
AcDbEntity
  8
0
100
AcDbLine
 10
6125.560357219683
 20
303.3729946276362
 30
0.0
 11
6125.560357219683
 21
313.4522779373464
 31
0.0
  0
LINE
  5
B092
330
747D
100
AcDbEntity
  8
0
100
AcDbLine
 10
6141.560357219669
 20
303.3729946276362
 30
0.0
 11
6141.560357219669
 21
313.4522779373464
 31
0.0
  0
LINE
  5
B093
330
747D
100
AcDbEntity
  8
0
100
AcDbLine
 10
6137.560357219673
 20
299.0178898205267
 30
0.0
 11
6137.560357219673
 21
317.0537437817747
 31
0.0
  0
LINE
  5
B094
330
747D
100
AcDbEntity
  8
0
100
AcDbLine
 10
6129.56035721968
 20
299.0178898205267
 30
0.0
 11
6129.56035721968
 21
317.0537437817747
 31
0.0
  0
LINE
  5
B095
330
747D
100
AcDbEntity
  8
0
100
AcDbLine
 10
6169.595189997949
 20
413.7063800424466
 30
0.0
 11
6182.348464638426
 21
426.4596546829343
 31
0.0
  0
LINE
  5
B096
330
747D
100
AcDbEntity
  8
0
100
AcDbLine
 10
6175.252044247439
 20
408.0495257929551
 30
0.0
 11
6188.005318887941
 21
420.8028004334319
 31
0.0
  0
ARC
  5
B097
330
747D
100
AcDbEntity
  8
0
100
AcDbCircle
 10
6133.560357219676
 20
372.0146930146711
 30
0.0
 40
73.1063148884132
100
AcDbArc
 50
48.13649544707906
 51
131.8635045529209
  0
ARC
  5
B098
330
747D
100
AcDbEntity
  8
0
100
AcDbCircle
 10
6133.560357219676
 20
372.0146930146711
 30
0.0
 40
69.10631488841319
100
AcDbArc
 50
51.64767378621125
 51
128.3523262137887
  0
ARC
  5
B099
330
747D
100
AcDbEntity
  8
0
100
AcDbCircle
 10
6133.560357219676
 20
372.0146930146711
 30
0.0
 40
59.10631488841318
100
AcDbArc
 50
52.77882031188749
 51
127.2211796881125
  0
ARC
  5
B09A
330
747D
100
AcDbEntity
  8
0
100
AcDbCircle
 10
6133.560357219676
 20
372.0146930146711
 30
0.0
 40
55.10631488841318
100
AcDbArc
 50
49.16258741113348
 51
130.8374125888665
  0
LINE
  5
B09B
330
747D
100
AcDbEntity
  8
0
100
AcDbLine
 10
6097.807330645331
 20
419.0814280879967
 30
0.0
 11
6090.68020106754
 21
426.20855766579
 31
0.0
  0
LINE
  5
B09C
330
747D
100
AcDbEntity
  8
0
100
AcDbLine
 10
6086.493622146349
 20
407.7677195890137
 30
0.0
 11
6079.366492568556
 21
414.894849166807
 31
0.0
  0
LINE
  5
B09D
330
747D
100
AcDbEntity
  8
0
100
AcDbLine
 10
6091.868670191889
 20
408.0495257929551
 30
0.0
 11
6079.03795908976
 21
420.8802368950837
 31
0.0
  0
LINE
  5
B09E
330
747D
100
AcDbEntity
  8
0
100
AcDbLine
 10
6097.52552444138
 20
413.7063800424466
 30
0.0
 11
6084.694813339252
 21
426.5370911445752
 31
0.0
  0
TEXT
  5
B09F
330
747D
100
AcDbEntity
  8
0
100
AcDbText
 10
6111.181671391545
 20
384.3868193377366
 30
0.0
 40
30.0
  1
三
  7
SANWA
100
AcDbText
  0
LINE
  5
B0A0
330
747D
100
AcDbEntity
  8
0
100
AcDbLine
 10
6169.31338379402
 20
419.0814280879967
 30
0.0
 11
6176.440513371812
 21
426.20855766579
 31
0.0
  0
LINE
  5
B0A1
330
747D
100
AcDbEntity
  8
0
100
AcDbLine
 10
6180.627092293003
 20
407.7677195890028
 30
0.0
 11
6187.754221870795
 21
414.894849166807
 31
0.0
  0
LINE
  5
B0A2
330
747D
100
AcDbEntity
  8
0
100
AcDbLine
 10
7425.0
 20
250.0
 30
0.0
 11
7425.0
 21
0.0
 31
0.0
  0
LINE
  5
B0CF
330
747D
100
AcDbEntity
  8
0
 48
25.0
100
AcDbLine
 10
5900.252698757795
 20
3721.43932768014
 30
0.0
 11
5900.252698757795
 21
3151.43932768014
 31
0.0
  0
LINE
  5
B0D3
330
747D
100
AcDbEntity
  8
0
 48
25.0
100
AcDbLine
 10
5890.252698757795
 20
3141.43932768014
 30
0.0
 11
5900.252698757795
 21
3151.43932768014
 31
0.0
  0
DIMENSION
  5
B0D6
330
747D
100
AcDbEntity
  8
寸法引出
 48
25.0
100
AcDbDimension
  2
*D76
 10
5780.252698757795
 20
3840.87910978941
 30
0.0
 11
5400.252698757795
 21
3880.87910978941
 31
0.0
 70
    32
 71
     5
 42
760.0
  3
SANWA
100
AcDbAlignedDimension
 13
5020.252698757794
 23
3721.43932768014
 33
0.0
 14
5780.252698757795
 24
3721.43932768014
 34
0.0
100
AcDbRotatedDimension
1001
ACAD
1000
DSTYLE
1002
{
1070
    40
1040
20.0
1070
    41
1040
1.5
1070
    43
1040
5.0
1070
    44
1040
0.5
1070
    75
1070
     1
1070
   140
1040
2.0
1070
   147
1040
1.0
1070
   176
1070
   256
1070
   177
1070
   256
1070
   178
1070
   256
1070
   279
1070
     1
1002
}
  0
LINE
  5
B0D7
330
747D
100
AcDbEntity
  8
0
  6
HIDDEN2
 48
5.0
100
AcDbLine
 10
5030.252698757795
 20
3684.43932768014
 30
0.0
 11
5030.252698757795
 21
3679.43932768014
 31
0.0
  0
LINE
  5
B0D8
330
747D
100
AcDbEntity
  8
0
  6
HIDDEN2
 48
5.0
100
AcDbLine
 10
5010.252698757795
 20
3679.43932768014
 30
0.0
 11
5010.252698757795
 21
3684.43932768014
 31
0.0
  0
LINE
  5
B0D9
330
747D
100
AcDbEntity
  8
0
  6
HIDDEN2
 48
5.0
100
AcDbLine
 10
5011.252698757795
 20
3684.43932768014
 30
0.0
 11
5011.252698757795
 21
3721.43932768014
 31
0.0
  0
LINE
  5
B0DA
330
747D
100
AcDbEntity
  8
0
  6
HIDDEN2
 48
5.0
100
AcDbLine
 10
5029.252698757795
 20
3721.43932768014
 30
0.0
 11
5029.252698757795
 21
3684.43932768014
 31
0.0
  0
LINE
  5
B0DB
330
747D
100
AcDbEntity
  8
0
  6
HIDDEN2
 48
5.0
100
AcDbLine
 10
5011.252698757795
 20
3721.43932768014
 30
0.0
 11
5029.252698757795
 21
3721.43932768014
 31
0.0
  0
LINE
  5
B0DC
330
747D
100
AcDbEntity
  8
0
  6
HIDDEN2
 48
5.0
100
AcDbLine
 10
5030.252698757795
 20
3684.43932768014
 30
0.0
 11
5010.252698757795
 21
3684.43932768014
 31
0.0
  0
LINE
  5
B0DD
330
747D
100
AcDbEntity
  8
0
  6
HIDDEN2
 48
5.0
100
AcDbLine
 10
5030.252698757795
 20
3679.43932768014
 30
0.0
 11
5010.252698757795
 21
3679.43932768014
 31
0.0
  0
DIMENSION
  5
B0E1
330
747D
100
AcDbEntity
  8
寸法引出
 48
25.0
100
AcDbDimension
  2
*D75
 10
5900.252698757795
 20
3840.87910978941
 30
0.0
 11
5840.252698757795
 21
3880.87910978941
 31
0.0
 70
    32
 71
     5
 42
120.0
  3
SANWA
100
AcDbAlignedDimension
 13
5780.252698757795
 23
3721.43932768014
 33
0.0
 14
5900.252698757795
 24
3721.43932768014
 34
0.0
100
AcDbRotatedDimension
1001
ACAD
1000
DSTYLE
1002
{
1070
    40
1040
20.0
1070
    41
1040
1.5
1070
    43
1040
5.0
1070
    44
1040
0.5
1070
    75
1070
     1
1070
   140
1040
2.0
1070
   147
1040
1.0
1070
   176
1070
   256
1070
   177
1070
   256
1070
   178
1070
   256
1070
   279
1070
     1
1002
}
  0
LINE
  5
B0E2
330
747D
100
AcDbEntity
  8
0
 48
25.0
100
AcDbLine
 10
5900.252698757795
 20
3600.93932768014
 30
0.0
 11
5813.252698757796
 21
3600.93932768014
 31
0.0
  0
LINE
  5
B0E3
330
747D
100
AcDbEntity
  8
0
 48
25.0
100
AcDbLine
 10
5900.252698757795
 20
3598.93932768014
 30
0.0
 11
5815.252698757799
 21
3598.93932768014
 31
0.0
  0
LINE
  5
B0E4
330
747D
100
AcDbEntity
  8
0
 48
25.0
100
AcDbLine
 10
5900.252698757795
 20
3541.93932768014
 30
0.0
 11
5813.252698757799
 21
3541.93932768014
 31
0.0
  0
LINE
  5
B0E5
330
747D
100
AcDbEntity
  8
0
 48
25.0
100
AcDbLine
 10
5900.252698757795
 20
3543.93932768014
 30
0.0
 11
5815.252698757797
 21
3543.93932768014
 31
0.0
  0
CIRCLE
  5
B0E6
330
747D
100
AcDbEntity
  8
0
 48
25.0
100
AcDbCircle
 10
5850.252698757795
 20
3571.43932768014
 30
0.0
 40
6.0
  0
LINE
  5
B0E7
330
747D
100
AcDbEntity
  8
0
 48
25.0
100
AcDbLine
 10
5815.252698757799
 20
3598.93932768014
 30
0.0
 11
5815.252698757797
 21
3543.93932768014
 31
0.0
  0
LINE
  5
B0E8
330
747D
100
AcDbEntity
  8
0
 48
25.0
100
AcDbLine
 10
5813.252698757796
 20
3600.93932768014
 30
0.0
 11
5813.252698757799
 21
3541.93932768014
 31
0.0
  0
LINE
  5
B0E9
330
747D
100
AcDbEntity
  8
0
 48
25.0
100
AcDbLine
 10
5813.252698757799
 20
3541.93932768014
 30
0.0
 11
5815.252698757797
 21
3543.93932768014
 31
0.0
  0
LINE
  5
B0EA
330
747D
100
AcDbEntity
  8
0
 48
25.0
100
AcDbLine
 10
5813.252698757796
 20
3600.93932768014
 30
0.0
 11
5815.252698757799
 21
3598.93932768014
 31
0.0
  0
LINE
  5
B0EB
330
747D
100
AcDbEntity
  8
0
  6
HIDDEN2
 48
5.0
100
AcDbLine
 10
5771.252698757795
 20
3721.43932768014
 30
0.0
 11
5789.252698757795
 21
3721.43932768014
 31
0.0
  0
LINE
  5
B0EC
330
747D
100
AcDbEntity
  8
0
  6
HIDDEN2
 48
5.0
100
AcDbLine
 10
5790.252698757795
 20
3684.43932768014
 30
0.0
 11
5770.252698757794
 21
3684.43932768014
 31
0.0
  0
LINE
  5
B0ED
330
747D
100
AcDbEntity
  8
0
  6
HIDDEN2
 48
5.0
100
AcDbLine
 10
5790.252698757795
 20
3679.43932768014
 30
0.0
 11
5770.252698757794
 21
3679.43932768014
 31
0.0
  0
LINE
  5
B0EE
330
747D
100
AcDbEntity
  8
0
  6
HIDDEN2
 48
5.0
100
AcDbLine
 10
5770.252698757794
 20
3679.43932768014
 30
0.0
 11
5770.252698757794
 21
3684.43932768014
 31
0.0
  0
LINE
  5
B0EF
330
747D
100
AcDbEntity
  8
0
  6
HIDDEN2
 48
5.0
100
AcDbLine
 10
5771.252698757795
 20
3684.43932768014
 30
0.0
 11
5771.252698757795
 21
3721.43932768014
 31
0.0
  0
LINE
  5
B0F0
330
747D
100
AcDbEntity
  8
0
  6
HIDDEN2
 48
5.0
100
AcDbLine
 10
5790.252698757795
 20
3684.43932768014
 30
0.0
 11
5790.252698757795
 21
3679.43932768014
 31
0.0
  0
LINE
  5
B0F1
330
747D
100
AcDbEntity
  8
0
  6
HIDDEN2
 48
5.0
100
AcDbLine
 10
5789.252698757795
 20
3721.43932768014
 30
0.0
 11
5789.252698757795
 21
3684.43932768014
 31
0.0
  0
LINE
  5
B10C
330
747D
100
AcDbEntity
  8
0
100
AcDbLine
 10
7175.0
 20
5250.0
 30
0.0
 11
7425.0
 21
5250.0
 31
0.0
  0
LINE
  5
B10D
330
747D
100
AcDbEntity
  8
0
100
AcDbLine
 10
7425.0
 20
5250.0
 30
0.0
 11
7425.0
 21
5000.0
 31
0.0
  0
TEXT
  5
BAC9
330
747D
100
AcDbEntity
  8
0
100
AcDbText
 10
5285.566585062086
 20
4530.15676200497
 30
0.0
 40
60.0
  1
W=473kg
  7
SANWA
 72
     4
 11
5439.166585062086
 21
4555.356762004969
 31
0.0
100
AcDbText
  0
ARC
  5
BACA
330
747D
100
AcDbEntity
  8
0
 48
25.0
100
AcDbCircle
 10
2297.062482461489
 20
3521.43932768014
 30
0.0
 40
320.0
100
AcDbArc
 50
270.0
 51
287.1154166878116
  0
ARC
  5
BACB
330
747D
100
AcDbEntity
  8
0
 48
25.0
100
AcDbCircle
 10
2370.636855383128
 20
3282.510862132003
 30
0.0
 40
70.0
100
AcDbArc
 50
287.1154166878116
 51
356.5663696375505
  0
LINE
  5
BACC
330
747D
100
AcDbEntity
  8
0
 48
25.0
100
AcDbLine
 10
2440.511194565733
 20
3278.318401781047
 30
0.0
 11
2467.098450119678
 21
3721.43932768014
 31
0.0
  0
LINE
  5
BACE
330
747D
100
AcDbEntity
  8
0
 48
25.0
100
AcDbLine
 10
2297.062482461489
 20
3151.43932768014
 30
0.0
 11
2477.062482461489
 21
3151.43932768014
 31
0.0
  0
LINE
  5
BACF
330
747D
100
AcDbEntity
  8
0
 48
25.0
100
AcDbLine
 10
5900.252698757795
 20
3171.43932768014
 30
0.0
 11
3900.252698757795
 21
3171.43932768014
 31
0.0
  0
LINE
  5
BAD0
330
747D
100
AcDbEntity
  8
0
  6
HIDDEN2
 48
25.0
100
AcDbLine
 10
5900.252698757795
 20
3221.43932768014
 30
0.0
 11
3900.252698757795
 21
3221.43932768014
 31
0.0
  0
LINE
  5
BC0D
330
747D
100
AcDbEntity
  8
0
 48
25.0
100
AcDbLine
 10
3900.252698757795
 20
2292.343493766061
 30
0.0
 11
5900.252698757795
 21
2292.343493766061
 31
0.0
  0
LINE
  5
BC0E
330
747D
100
AcDbEntity
  8
0
 48
25.0
100
AcDbLine
 10
5900.252698757795
 20
1992.34349376606
 30
0.0
 11
3900.252698757795
 21
1992.34349376606
 31
0.0
  0
VIEWPORT
  5
7540
330
747A
100
AcDbEntity
 67
     1
  8
0
100
AcDbViewport
 10
-3029.057228595033
 20
-846.1011655902643
 30
0.0
 40
7999.940198629769
 41
5796.099923525149
 68
     1
 69
     1
 12
-3029.057228595033
 22
-846.1011655902643
 13
0.0
 23
0.0
 14
10.0
 24
10.0
 15
10.0
 25
10.0
 16
0.0
 26
0.0
 36
1.0
 17
0.0
 27
0.0
 37
0.0
 42
50.0
 43
0.0
 44
0.0
 45
5796.099923525149
 50
0.0
 51
0.0
 72
   100
 90
    32800
  1

281
     0
 71
     1
 74
     0
110
0.0
120
0.0
130
0.0
111
1.0
121
0.0
131
0.0
112
0.0
122
1.0
132
0.0
 79
     0
146
0.0
  0
TEXT
  5
7737
330
747A
100
AcDbEntity
 67
     1
  8
0
 48
2.0
100
AcDbText
 10
331.8711968111849
 20
20.60428158404022
 30
0.0
 40
2.0
  1

  7
SANWA
100
AcDbText
  0
ENDSEC
  0
SECTION
  2
OBJECTS
  0
DICTIONARY
  5
7471
330
0
100
AcDbDictionary
281
     1
  3
ACAD_GROUP
350
7472
  3
ACAD_LAYOUT
350
89BB
  3
ACAD_MLINESTYLE
350
7473
  3
ACAD_PLOTSETTINGS
350
89BC
  3
ACAD_PLOTSTYLENAME
350
89B9
  3
ACDBVARIABLEDICTIONARY
350
789B
  0
DICTIONARY
  5
7472
102
{ACAD_REACTORS
330
7471
102
}
330
0
100
AcDbDictionary
281
     1
  0
DICTIONARY
  5
89BB
102
{ACAD_REACTORS
330
7471
102
}
330
7471
100
AcDbDictionary
281
     1
  3
Model
350
89BD
  3
ﾚｲｱｳﾄ1
350
89BE
  0
DICTIONARY
  5
7473
102
{ACAD_REACTORS
330
7471
102
}
330
0
100
AcDbDictionary
281
     1
  3
STANDARD
350
7480
  0
DICTIONARY
  5
89BC
102
{ACAD_REACTORS
330
7471
102
}
330
7471
100
AcDbDictionary
281
     1
  0
ACDBDICTIONARYWDFLT
  5
89B9
102
{ACAD_REACTORS
330
7471
102
}
330
7471
100
AcDbDictionary
281
     1
  3
Normal
350
89BA
100
AcDbDictionaryWithDefault
340
89BA
  0
DICTIONARY
  5
789B
102
{ACAD_REACTORS
330
7471
102
}
330
7471
100
AcDbDictionary
281
     1
  3
DIMASSOC
350
ACA5
  3
SORTENTS
350
789C
  0
LAYOUT
  5
89BD
102
{ACAD_REACTORS
330
89BB
102
}
330
89BB
100
AcDbPlotSettings
  1

  2
FX DocuCentre Color f360
  4
A4
  6

 40
4.857749938964843
 41
4.942390441894531
 42
4.942413330078125
 43
4.857757568359375
 44
209.9733276367187
 45
297.0106506347656
 46
5.089999999999999
 47
12.61
 48
625.0
 49
-5364.298138607148
140
7175.0
141
-614.2981386071478
142
1.0
143
25.0
 70
 11940
 72
     1
 73
     1
 74
     4
  7
sanwa3.ctb
 75
     0
147
0.04
148
-625.0
149
5364.298138607148
100
AcDbLayout
  1
Model
 70
     1
 71
     0
 10
0.0
 20
0.0
 11
12.0
 21
9.0
 12
0.0
 22
0.0
 32
0.0
 14
0.0
 24
0.0
 34
0.0
 15
0.0
 25
0.0
 35
0.0
146
0.0
 13
0.0
 23
0.0
 33
0.0
 16
1.0
 26
0.0
 36
0.0
 17
0.0
 27
1.0
 37
0.0
 76
     0
330
747D
  0
LAYOUT
  5
89BE
102
{ACAD_REACTORS
330
89BB
102
}
330
89BB
100
AcDbPlotSettings
  1

  2
RICOH NX-510
  4
A4
  6

 40
5.873749732971191
 41
4.92125654220581
 42
7.588241577148437
 43
5.81024169921875
 44
209.9944915771484
 45
296.989501953125
 46
0.0
 47
0.0
 48
0.0
 49
0.0
140
0.0
141
0.0
142
1.0
143
26.7163999926989
 70
   688
 72
     1
 73
     1
 74
     1
  7
sanwa3.ctb
 75
     0
147
0.037430192700861
148
6841.073651210504
149
3494.324134886467
100
AcDbLayout
  1
ﾚｲｱｳﾄ1
 70
     1
 71
     1
 10
-6996.302392501092
 20
-3651.249582209533
 11
938.1879353110262
 21
1959.047251029004
 12
0.0
 22
0.0
 32
0.0
 14
1.000000000000000E+20
 24
1.000000000000000E+20
 34
1.000000000000000E+20
 15
-1.000000000000000E+20
 25
-1.000000000000000E+20
 35
-1.000000000000000E+20
146
0.0
 13
0.0
 23
0.0
 33
0.0
 16
1.0
 26
0.0
 36
0.0
 17
0.0
 27
1.0
 37
0.0
 76
     0
330
747A
331
7540
  0
MLINESTYLE
  5
7480
102
{ACAD_REACTORS
330
7473
102
}
330
0
100
AcDbMlineStyle
  2
STANDARD
 70
     0
  3

 62
     0
 51
90.0
 52
90.0
 71
     2
 49
0.5
 62
   256
  6
BYLAYER
 49
-0.5
 62
   256
  6
BYLAYER
  0
ACDBPLACEHOLDER
  5
89BA
102
{ACAD_REACTORS
330
89B9
102
}
330
89B9
  0
DICTIONARYVAR
  5
ACA5
102
{ACAD_REACTORS
330
789B
102
}
330
789B
100
DictionaryVariables
280
     0
  1
1
  0
DICTIONARYVAR
  5
789C
102
{ACAD_REACTORS
330
789B
102
}
330
789B
100
DictionaryVariables
280
     0
  1
96
  0
ENDSEC
  0
EOF
