  0
SECTION
  2
HEADER
  9
$ACADVER
  1
AC1015
  9
$ACADMAINTVER
 70
    13
  9
$DWGCODEPAGE
  3
ANSI_932
  9
$INSBASE
 10
0.0
 20
0.0
 30
0.0
  9
$EXTMIN
 10
-1.345782808180956
 20
-0.6392365888677887
 30
-0.000000000000013
  9
$EXTMAX
 10
7425.150228839114
 20
5250.053470167775
 30
0.0000000000000023
  9
$LIMMIN
 10
0.0
 20
0.0
  9
$LIMMAX
 10
420.0
 20
297.0
  9
$ORTHOMODE
 70
     1
  9
$REGENMODE
 70
     1
  9
$FILLMODE
 70
     1
  9
$QTEXTMODE
 70
     0
  9
$MIRRTEXT
 70
     1
  9
$LTSCALE
 40
0.5
  9
$ATTMODE
 70
     1
  9
$TEXTSIZE
 40
2.799999999999999
  9
$TRACEWID
 40
1.0
  9
$TEXTSTYLE
  7
SANWA
  9
$CLAYER
  8
0
  9
$CELTYPE
  6
BYLAYER
  9
$CECOLOR
 62
   256
  9
$CELTSCALE
 40
25.0
  9
$DISPSILH
 70
     0
  9
$DIMSCALE
 40
25.0
  9
$DIMASZ
 40
1.5
  9
$DIMEXO
 40
1.0
  9
$DIMDLI
 40
5.0
  9
$DIMRND
 40
0.0
  9
$DIMDLE
 40
0.0
  9
$DIMEXE
 40
0.5
  9
$DIMTP
 40
0.0
  9
$DIMTM
 40
0.0
  9
$DIMTXT
 40
2.0
  9
$DIMCEN
 40
0.0
  9
$DIMTSZ
 40
0.0
  9
$DIMTOL
 70
     0
  9
$DIMLIM
 70
     0
  9
$DIMTIH
 70
     0
  9
$DIMTOH
 70
     0
  9
$DIMSE1
 70
     0
  9
$DIMSE2
 70
     0
  9
$DIMTAD
 70
     1
  9
$DIMZIN
 70
     8
  9
$DIMBLK
  1

  9
$DIMASO
 70
     1
  9
$DIMSHO
 70
     1
  9
$DIMPOST
  1

  9
$DIMAPOST
  1

  9
$DIMALT
 70
     0
  9
$DIMALTD
 70
     2
  9
$DIMALTF
 40
0.0394
  9
$DIMLFAC
 40
1.0
  9
$DIMTOFL
 70
     1
  9
$DIMTVP
 40
0.0
  9
$DIMTIX
 70
     1
  9
$DIMSOXD
 70
     0
  9
$DIMSAH
 70
     0
  9
$DIMBLK1
  1

  9
$DIMBLK2
  1

  9
$DIMSTYLE
  2
SANWA
  9
$DIMCLRD
 70
   256
  9
$DIMCLRE
 70
   256
  9
$DIMCLRT
 70
   256
  9
$DIMTFAC
 40
1.0
  9
$DIMGAP
 40
1.0
  9
$DIMJUST
 70
     0
  9
$DIMSD1
 70
     0
  9
$DIMSD2
 70
     0
  9
$DIMTOLJ
 70
     1
  9
$DIMTZIN
 70
     0
  9
$DIMALTZ
 70
     0
  9
$DIMALTTZ
 70
     0
  9
$DIMUPT
 70
     0
  9
$DIMDEC
 70
     4
  9
$DIMTDEC
 70
     4
  9
$DIMALTU
 70
     2
  9
$DIMALTTD
 70
     2
  9
$DIMTXSTY
  7
SANWA
  9
$DIMAUNIT
 70
     0
  9
$DIMADEC
 70
     0
  9
$DIMALTRND
 40
0.0
  9
$DIMAZIN
 70
     0
  9
$DIMDSEP
 70
    46
  9
$DIMATFIT
 70
     3
  9
$DIMFRAC
 70
     0
  9
$DIMLDRBLK
  1

  9
$DIMLUNIT
 70
     2
  9
$DIMLWD
 70
    -2
  9
$DIMLWE
 70
    -2
  9
$DIMTMOVE
 70
     0
  9
$LUNITS
 70
     2
  9
$LUPREC
 70
     4
  9
$SKETCHINC
 40
1.0
  9
$FILLETRAD
 40
50.0
  9
$AUNITS
 70
     0
  9
$AUPREC
 70
     0
  9
$MENU
  1
acad
  9
$ELEVATION
 40
0.0
  9
$PELEVATION
 40
0.0
  9
$THICKNESS
 40
0.0
  9
$LIMCHECK
 70
     0
  9
$CHAMFERA
 40
0.0
  9
$CHAMFERB
 40
0.0
  9
$CHAMFERC
 40
0.0
  9
$CHAMFERD
 40
0.0
  9
$SKPOLY
 70
     1
  9
$TDCREATE
 40
2451806.361679282
  9
$TDUCREATE
 40
2451805.986679282
  9
$TDUPDATE
 40
2454167.404660185
  9
$TDUUPDATE
 40
2454167.029660185
  9
$TDINDWG
 40
0.8746874653
  9
$TDUSRTIMER
 40
0.8746874653
  9
$USRTIMER
 70
     1
  9
$ANGBASE
 50
0.0
  9
$ANGDIR
 70
     0
  9
$PDMODE
 70
     0
  9
$PDSIZE
 40
0.0
  9
$PLINEWID
 40
0.0
  9
$SPLFRAME
 70
     0
  9
$SPLINETYPE
 70
     6
  9
$SPLINESEGS
 70
     8
  9
$HANDSEED
  5
E01B
  9
$SURFTAB1
 70
     6
  9
$SURFTAB2
 70
     6
  9
$SURFTYPE
 70
     6
  9
$SURFU
 70
     6
  9
$SURFV
 70
     6
  9
$UCSBASE
  2

  9
$UCSNAME
  2

  9
$UCSORG
 10
0.0
 20
0.0
 30
0.0
  9
$UCSXDIR
 10
1.0
 20
0.0
 30
0.0
  9
$UCSYDIR
 10
0.0
 20
1.0
 30
0.0
  9
$UCSORTHOREF
  2

  9
$UCSORTHOVIEW
 70
     0
  9
$UCSORGTOP
 10
0.0
 20
0.0
 30
0.0
  9
$UCSORGBOTTOM
 10
0.0
 20
0.0
 30
0.0
  9
$UCSORGLEFT
 10
0.0
 20
0.0
 30
0.0
  9
$UCSORGRIGHT
 10
0.0
 20
0.0
 30
0.0
  9
$UCSORGFRONT
 10
0.0
 20
0.0
 30
0.0
  9
$UCSORGBACK
 10
0.0
 20
0.0
 30
0.0
  9
$PUCSBASE
  2

  9
$PUCSNAME
  2

  9
$PUCSORG
 10
0.0
 20
0.0
 30
0.0
  9
$PUCSXDIR
 10
1.0
 20
0.0
 30
0.0
  9
$PUCSYDIR
 10
0.0
 20
1.0
 30
0.0
  9
$PUCSORTHOREF
  2

  9
$PUCSORTHOVIEW
 70
     0
  9
$PUCSORGTOP
 10
0.0
 20
0.0
 30
0.0
  9
$PUCSORGBOTTOM
 10
0.0
 20
0.0
 30
0.0
  9
$PUCSORGLEFT
 10
0.0
 20
0.0
 30
0.0
  9
$PUCSORGRIGHT
 10
0.0
 20
0.0
 30
0.0
  9
$PUCSORGFRONT
 10
0.0
 20
0.0
 30
0.0
  9
$PUCSORGBACK
 10
0.0
 20
0.0
 30
0.0
  9
$USERI1
 70
     0
  9
$USERI2
 70
     0
  9
$USERI3
 70
     0
  9
$USERI4
 70
     0
  9
$USERI5
 70
     0
  9
$USERR1
 40
0.0
  9
$USERR2
 40
0.0
  9
$USERR3
 40
0.0
  9
$USERR4
 40
0.0
  9
$USERR5
 40
0.0
  9
$WORLDVIEW
 70
     1
  9
$SHADEDGE
 70
     3
  9
$SHADEDIF
 70
    70
  9
$TILEMODE
 70
     1
  9
$MAXACTVP
 70
    48
  9
$PINSBASE
 10
0.0
 20
0.0
 30
0.0
  9
$PLIMCHECK
 70
     0
  9
$PEXTMIN
 10
1.000000000000000E+20
 20
1.000000000000000E+20
 30
1.000000000000000E+20
  9
$PEXTMAX
 10
-1.000000000000000E+20
 20
-1.000000000000000E+20
 30
-1.000000000000000E+20
  9
$PLIMMIN
 10
-117.3880621053552
 20
-1147.778930325621
  9
$PLIMMAX
 10
5873.875641303368
 20
3088.506753269061
  9
$UNITMODE
 70
     0
  9
$VISRETAIN
 70
     1
  9
$PLINEGEN
 70
     0
  9
$PSLTSCALE
 70
     1
  9
$TREEDEPTH
 70
  3020
  9
$CMLSTYLE
  2
STANDARD
  9
$CMLJUST
 70
     0
  9
$CMLSCALE
 40
1.0
  9
$PROXYGRAPHICS
 70
     1
  9
$MEASUREMENT
 70
     1
  9
$CELWEIGHT
370
    -1
  9
$ENDCAPS
280
     0
  9
$JOINSTYLE
280
     0
  9
$LWDISPLAY
290
     0
  9
$INSUNITS
 70
     0
  9
$HYPERLINKBASE
  1

  9
$STYLESHEET
  1
sanwa3.ctb
  9
$XEDIT
290
     1
  9
$CEPSNTYPE
380
     0
  9
$PSTYLEMODE
290
     1
  9
$FINGERPRINTGUID
  2
{FF69E217-7CBD-426C-8D1A-915AA093CE5F}
  9
$VERSIONGUID
  2
{BC4E5A07-3B7A-4435-B0C9-6E714BC33687}
  9
$EXTNAMES
290
     1
  9
$PSVPSCALE
 40
0.0
  9
$OLESTARTUP
290
     0
  0
ENDSEC
  0
SECTION
  2
CLASSES
  0
CLASS
  1
LWPOLYLINE
  2
AcDbPolyline
  3
AutoCAD 2000
 90
    32768
280
     0
281
     1
  0
CLASS
  1
DICTIONARYVAR
  2
AcDbDictionaryVar
  3
AutoCAD 2000
 90
        0
280
     0
281
     0
  0
CLASS
  1
HATCH
  2
AcDbHatch
  3
AutoCAD 2000
 90
    32768
280
     0
281
     1
  0
CLASS
  1
ACDBDICTIONARYWDFLT
  2
AcDbDictionaryWithDefault
  3
AutoCAD 2000
 90
        0
280
     0
281
     0
  0
CLASS
  1
ACDBPLACEHOLDER
  2
AcDbPlaceHolder
  3
AutoCAD 2000
 90
        0
280
     0
281
     0
  0
CLASS
  1
LAYOUT
  2
AcDbLayout
  3
AutoCAD 2000
 90
        0
280
     0
281
     0
  0
ENDSEC
  0
SECTION
  2
TABLES
  0
TABLE
  2
VPORT
  5
746D
330
0
100
AcDbSymbolTable
 70
     2
  0
VPORT
  5
E01A
330
746D
100
AcDbSymbolTableRecord
100
AcDbViewportTableRecord
  2
*Active
 70
     0
 10
0.0
 20
0.0
 11
1.0
 21
1.0
 12
3711.902194428662
 22
2624.707098329517
 13
0.0
 23
0.0
 14
10.0
 24
10.0
 15
10.0
 25
10.0
 16
0.0
 26
0.0
 36
1.0
 17
0.0
 27
0.0
 37
0.0
 40
5589.512476612496
 41
1.393129770992366
 42
50.0
 43
0.0
 44
0.0
 50
0.0
 51
0.0
 71
     0
 72
   100
 73
     1
 74
     0
 75
     0
 76
     0
 77
     0
 78
     0
281
     0
 65
     1
110
0.0
120
0.0
130
0.0
111
1.0
121
0.0
131
0.0
112
0.0
122
1.0
132
0.0
 79
     0
146
0.0
  0
ENDTAB
  0
TABLE
  2
LTYPE
  5
746A
330
0
100
AcDbSymbolTable
 70
     5
  0
LTYPE
  5
7477
330
746A
100
AcDbSymbolTableRecord
100
AcDbLinetypeTableRecord
  2
BYBLOCK
 70
     0
  3

 72
    65
 73
     0
 40
0.0
  0
LTYPE
  5
7478
330
746A
100
AcDbSymbolTableRecord
100
AcDbLinetypeTableRecord
  2
BYLAYER
 70
     0
  3

 72
    65
 73
     0
 40
0.0
  0
LTYPE
  5
7479
330
746A
100
AcDbSymbolTableRecord
100
AcDbLinetypeTableRecord
  2
CONTINUOUS
 70
     0
  3
Solid line
 72
    65
 73
     0
 40
0.0
  0
LTYPE
  5
7D54
330
746A
100
AcDbSymbolTableRecord
100
AcDbLinetypeTableRecord
  2
CENTER2
 70
     0
  3
Center (.5x) ___ _ ___ _ ___ _ ___ _ ___ _ ___
 72
    65
 73
     4
 40
28.57499999999999
 49
19.05
 74
     0
 49
-3.174999999999999
 74
     0
 49
3.174999999999999
 74
     0
 49
-3.174999999999999
 74
     0
  0
LTYPE
  5
7D55
330
746A
100
AcDbSymbolTableRecord
100
AcDbLinetypeTableRecord
  2
DOT
 70
     0
  3
Dot . . . . . . . . . . . . . . . . . . . . . .
 72
    65
 73
     2
 40
6.349999999999999
 49
0.0
 74
     0
 49
-6.349999999999999
 74
     0
  0
LTYPE
  5
7D56
330
746A
100
AcDbSymbolTableRecord
100
AcDbLinetypeTableRecord
  2
HIDDEN2
 70
     0
  3
Hidden (.5x) _ _ _ _ _ _ _ _ _ _ _ _ _ _ _ _ _
 72
    65
 73
     2
 40
4.762499999999999
 49
3.174999999999999
 74
     0
 49
-1.587499999999999
 74
     0
  0
LTYPE
  5
7D57
330
746A
100
AcDbSymbolTableRecord
100
AcDbLinetypeTableRecord
  2
PHANTOM2
 70
     0
  3
Phantom (.5x) ___ _ _ ___ _ _ ___ _ _ ___ _ _
 72
    65
 73
     6
 40
31.75
 49
15.875
 74
     0
 49
-3.174999999999999
 74
     0
 49
3.174999999999999
 74
     0
 49
-3.174999999999999
 74
     0
 49
3.174999999999999
 74
     0
 49
-3.174999999999999
 74
     0
  0
ENDTAB
  0
TABLE
  2
LAYER
  5
7467
330
0
100
AcDbSymbolTable
 70
     8
  0
LAYER
  5
7474
330
7467
100
AcDbSymbolTableRecord
100
AcDbLayerTableRecord
  2
0
 70
     0
 62
     7
  6
CONTINUOUS
370
    -3
390
7F6A
  0
LAYER
  5
7485
330
7467
100
AcDbSymbolTableRecord
100
AcDbLayerTableRecord
  2
DEFPOINTS
 70
     0
 62
     7
  6
CONTINUOUS
290
     0
370
    -3
390
7F6A
  0
LAYER
  5
7486
330
7467
100
AcDbSymbolTableRecord
100
AcDbLayerTableRecord
  2
OBJECT
 70
     0
 62
     7
  6
CONTINUOUS
370
    -3
390
7F6A
  0
LAYER
  5
7950
330
7467
100
AcDbSymbolTableRecord
100
AcDbLayerTableRecord
  2
枠
 70
     0
 62
     3
  6
CONTINUOUS
370
    -3
390
7F6A
  0
LAYER
  5
7D58
330
7467
100
AcDbSymbolTableRecord
100
AcDbLayerTableRecord
  2
寸法引出
 70
     0
 62
     2
  6
CONTINUOUS
370
    -3
390
7F6A
  0
LAYER
  5
7D59
330
7467
100
AcDbSymbolTableRecord
100
AcDbLayerTableRecord
  2
鉄筋
 70
     0
 62
     4
  6
CONTINUOUS
370
    -3
390
7F6A
  0
LAYER
  5
7D5A
330
7467
100
AcDbSymbolTableRecord
100
AcDbLayerTableRecord
  2
補助線
 70
     0
 62
     6
  6
CONTINUOUS
370
    -3
390
7F6A
  0
LAYER
  5
81DF
330
7467
100
AcDbSymbolTableRecord
100
AcDbLayerTableRecord
  2
ASHADE
 70
     4
 62
     7
  6
CONTINUOUS
370
    -3
390
7F6A
  0
ENDTAB
  0
TABLE
  2
STYLE
  5
7468
330
0
100
AcDbSymbolTable
 70
     5
  0
STYLE
  5
7475
330
7468
100
AcDbSymbolTableRecord
100
AcDbTextStyleTableRecord
  2
STANDARD
 70
     0
 40
0.0
 41
1.0
 50
0.0
 71
     0
 42
3.5
  3
txt
  4

  0
STYLE
  5
7481
330
7468
100
AcDbSymbolTableRecord
100
AcDbTextStyleTableRecord
  2
ADESK1
 70
     0
 40
0.0
 41
1.0
 50
0.0
 71
     0
 42
5.0
  3
romans
  4
bigfont
  0
STYLE
  5
7731
330
7468
100
AcDbSymbolTableRecord
100
AcDbTextStyleTableRecord
  2
SANWA
 70
     0
 40
0.0
 41
1.0
 50
0.0
 71
     0
 42
2.799999999999999
  3
MS Mincho.ttf
  4

1001
ACAD
1000
MS Mincho
1071
    32785
  0
STYLE
  5
7D45
330
7468
100
AcDbSymbolTableRecord
100
AcDbTextStyleTableRecord
  2

 70
     1
 40
0.0
 41
1.0
 50
0.0
 71
     0
 42
3.5
  3
ltypeshp.shx
  4

  0
STYLE
  5
81DC
330
7468
100
AcDbSymbolTableRecord
100
AcDbTextStyleTableRecord
  2
ASHADE
 70
     0
 40
0.2
 41
1.0
 50
0.0
 71
     0
 42
2.799999999999999
  3
txt.shx
  4
bigfont.shx
  0
ENDTAB
  0
TABLE
  2
VIEW
  5
746B
330
0
100
AcDbSymbolTable
 70
     0
  0
ENDTAB
  0
TABLE
  2
UCS
  5
746C
330
0
100
AcDbSymbolTable
 70
     0
  0
ENDTAB
  0
TABLE
  2
APPID
  5
746E
330
0
100
AcDbSymbolTable
 70
     6
  0
APPID
  5
7476
330
746E
100
AcDbSymbolTableRecord
100
AcDbRegAppTableRecord
  2
ACAD
 70
     0
  0
APPID
  5
81DD
330
746E
100
AcDbSymbolTableRecord
100
AcDbRegAppTableRecord
  2
AVE_RENDER
 70
     0
  0
APPID
  5
81DE
330
746E
100
AcDbSymbolTableRecord
100
AcDbRegAppTableRecord
  2
AVE_ENTITY_MATERIAL
 70
     0
  0
APPID
  5
81EB
330
746E
100
AcDbSymbolTableRecord
100
AcDbRegAppTableRecord
  2
AVE_FINISH
 70
     0
  0
APPID
  5
81EC
330
746E
100
AcDbSymbolTableRecord
100
AcDbRegAppTableRecord
  2
AVE_MATERIAL
 70
     0
  0
APPID
  5
81ED
330
746E
100
AcDbSymbolTableRecord
100
AcDbRegAppTableRecord
  2
AVE_GLOBAL
 70
     0
  0
ENDTAB
  0
TABLE
  2
DIMSTYLE
  5
746F
330
0
100
AcDbSymbolTable
 70
     4
100
AcDbDimStyleTable
 71
     1
340
796F
  0
DIMSTYLE
105
7484
330
746F
100
AcDbSymbolTableRecord
100
AcDbDimStyleTableRecord
  2
JIS
 70
     0
 41
2.5
 42
1.0
 43
7.0
 44
1.0
 73
     0
 74
     0
 77
     1
 78
     8
140
2.5
141
0.0
143
0.0394
147
0.0
172
     1
174
     1
176
     2
177
     2
178
     2
340
7731
  0
DIMSTYLE
105
796F
102
{ACAD_REACTORS
330
C196
330
C195
330
C1C6
330
C1C5
330
C1C7
330
C1C8
330
C1C4
330
C1E5
330
C101
330
C6BA
330
C6B9
330
C6B8
330
C6B3
330
C6B2
330
C6B1
330
C6B0
330
C83F
330
C86E
330
C87D
330
C88A
330
CA26
330
CA65
330
CA74
330
CA81
330
CAF9
330
D650
330
DD55
330
DD62
102
}
330
746F
100
AcDbSymbolTableRecord
100
AcDbDimStyleTableRecord
  2
SANWA
 70
     0
 41
2.5
 42
1.0
 43
7.0
 44
1.0
 73
     0
 74
     0
 77
     1
 78
     8
140
2.5
141
0.0
143
0.0394
147
0.0
172
     1
174
     1
176
     2
177
     2
178
     2
340
7731
  0
DIMSTYLE
105
7C9D
330
746F
100
AcDbSymbolTableRecord
100
AcDbDimStyleTableRecord
  2
SANWA$4
 70
     0
 41
2.5
 42
1.0
 43
5.0
 44
1.0
 73
     0
 74
     0
 77
     1
 78
     8
140
2.5
141
0.0
143
0.0394
147
1.0
172
     1
174
     1
176
     2
177
     2
178
     2
289
     2
340
7731
  0
DIMSTYLE
105
7CB5
330
746F
100
AcDbSymbolTableRecord
100
AcDbDimStyleTableRecord
  2
SANWA$3
 70
     0
 41
2.5
 42
1.0
 43
7.0
 44
1.0
 73
     0
 74
     0
 77
     1
 78
     8
140
2.5
141
0.0
143
0.0394
147
0.0
172
     1
174
     1
176
     2
177
     2
178
     2
289
     0
340
7731
  0
ENDTAB
  0
TABLE
  2
BLOCK_RECORD
  5
7466
330
0
100
AcDbSymbolTable
 70
    48
  0
BLOCK_RECORD
  5
747D
330
7466
100
AcDbSymbolTableRecord
100
AcDbBlockTableRecord
  2
*MODEL_SPACE
340
7F6D
  0
BLOCK_RECORD
  5
747A
330
7466
100
AcDbSymbolTableRecord
100
AcDbBlockTableRecord
  2
*PAPER_SPACE
340
7F6E
  0
BLOCK_RECORD
  5
7493
330
7466
100
AcDbSymbolTableRecord
100
AcDbBlockTableRecord
  2
TITLE_BLOCK
340
0
  0
BLOCK_RECORD
  5
81E0
330
7466
100
AcDbSymbolTableRecord
100
AcDbBlockTableRecord
  2
AVE_RENDER
340
0
102
{BLKREFS
331
81E3
331
81E4
331
81E5
331
81E6
331
81E7
331
81E8
331
81E9
331
81EA
102
}
  0
BLOCK_RECORD
  5
81EE
330
7466
100
AcDbSymbolTableRecord
100
AcDbBlockTableRecord
  2
AVE_GLOBAL
340
0
102
{BLKREFS
331
81F1
102
}
  0
BLOCK_RECORD
  5
B5E5
330
7466
100
AcDbSymbolTableRecord
100
AcDbBlockTableRecord
  2
*D3
340
0
  0
BLOCK_RECORD
  5
B5F1
330
7466
100
AcDbSymbolTableRecord
100
AcDbBlockTableRecord
  2
*D4
340
0
  0
BLOCK_RECORD
  5
B5FF
330
7466
100
AcDbSymbolTableRecord
100
AcDbBlockTableRecord
  2
*D5
340
0
  0
BLOCK_RECORD
  5
B60B
330
7466
100
AcDbSymbolTableRecord
100
AcDbBlockTableRecord
  2
*D6
340
0
  0
BLOCK_RECORD
  5
B617
330
7466
100
AcDbSymbolTableRecord
100
AcDbBlockTableRecord
  2
*D7
340
0
  0
BLOCK_RECORD
  5
B623
330
7466
100
AcDbSymbolTableRecord
100
AcDbBlockTableRecord
  2
*D8
340
0
  0
BLOCK_RECORD
  5
B62F
330
7466
100
AcDbSymbolTableRecord
100
AcDbBlockTableRecord
  2
A$C2A7F6572
340
0
  0
BLOCK_RECORD
  5
C1F4
330
7466
100
AcDbSymbolTableRecord
100
AcDbBlockTableRecord
  2
*D10
340
0
  0
BLOCK_RECORD
  5
C200
330
7466
100
AcDbSymbolTableRecord
100
AcDbBlockTableRecord
  2
*D11
340
0
  0
BLOCK_RECORD
  5
C20C
330
7466
100
AcDbSymbolTableRecord
100
AcDbBlockTableRecord
  2
*D12
340
0
  0
BLOCK_RECORD
  5
C218
330
7466
100
AcDbSymbolTableRecord
100
AcDbBlockTableRecord
  2
*D13
340
0
  0
BLOCK_RECORD
  5
C226
330
7466
100
AcDbSymbolTableRecord
100
AcDbBlockTableRecord
  2
*D14
340
0
  0
BLOCK_RECORD
  5
C234
330
7466
100
AcDbSymbolTableRecord
100
AcDbBlockTableRecord
  2
*D15
340
0
  0
BLOCK_RECORD
  5
C240
330
7466
100
AcDbSymbolTableRecord
100
AcDbBlockTableRecord
  2
*D16
340
0
  0
BLOCK_RECORD
  5
C24C
330
7466
100
AcDbSymbolTableRecord
100
AcDbBlockTableRecord
  2
*D17
340
0
  0
BLOCK_RECORD
  5
C27E
330
7466
100
AcDbSymbolTableRecord
100
AcDbBlockTableRecord
  2
*D18
340
0
  0
BLOCK_RECORD
  5
C715
330
7466
100
AcDbSymbolTableRecord
100
AcDbBlockTableRecord
  2
*D19
340
0
  0
BLOCK_RECORD
  5
C721
330
7466
100
AcDbSymbolTableRecord
100
AcDbBlockTableRecord
  2
*D20
340
0
  0
BLOCK_RECORD
  5
C72D
330
7466
100
AcDbSymbolTableRecord
100
AcDbBlockTableRecord
  2
*D21
340
0
  0
BLOCK_RECORD
  5
C73B
330
7466
100
AcDbSymbolTableRecord
100
AcDbBlockTableRecord
  2
*D22
340
0
  0
BLOCK_RECORD
  5
C749
330
7466
100
AcDbSymbolTableRecord
100
AcDbBlockTableRecord
  2
*D23
340
0
  0
BLOCK_RECORD
  5
C755
330
7466
100
AcDbSymbolTableRecord
100
AcDbBlockTableRecord
  2
*D24
340
0
  0
BLOCK_RECORD
  5
C763
330
7466
100
AcDbSymbolTableRecord
100
AcDbBlockTableRecord
  2
*D25
340
0
  0
BLOCK_RECORD
  5
C840
330
7466
100
AcDbSymbolTableRecord
100
AcDbBlockTableRecord
  2
*D26
340
0
  0
BLOCK_RECORD
  5
C86F
330
7466
100
AcDbSymbolTableRecord
100
AcDbBlockTableRecord
  2
*D27
340
0
  0
BLOCK_RECORD
  5
C87E
330
7466
100
AcDbSymbolTableRecord
100
AcDbBlockTableRecord
  2
*D28
340
0
  0
BLOCK_RECORD
  5
C88B
330
7466
100
AcDbSymbolTableRecord
100
AcDbBlockTableRecord
  2
*D29
340
0
  0
BLOCK_RECORD
  5
CA27
330
7466
100
AcDbSymbolTableRecord
100
AcDbBlockTableRecord
  2
*D30
340
0
  0
BLOCK_RECORD
  5
CA66
330
7466
100
AcDbSymbolTableRecord
100
AcDbBlockTableRecord
  2
*D31
340
0
  0
BLOCK_RECORD
  5
CA75
330
7466
100
AcDbSymbolTableRecord
100
AcDbBlockTableRecord
  2
*D32
340
0
  0
BLOCK_RECORD
  5
CA82
330
7466
100
AcDbSymbolTableRecord
100
AcDbBlockTableRecord
  2
*D33
340
0
  0
BLOCK_RECORD
  5
CAFA
330
7466
100
AcDbSymbolTableRecord
100
AcDbBlockTableRecord
  2
*D34
340
0
  0
BLOCK_RECORD
  5
D551
330
7466
100
AcDbSymbolTableRecord
100
AcDbBlockTableRecord
  2
*D35
340
0
  0
BLOCK_RECORD
  5
D567
330
7466
100
AcDbSymbolTableRecord
100
AcDbBlockTableRecord
  2
*D36
340
0
  0
BLOCK_RECORD
  5
D574
330
7466
100
AcDbSymbolTableRecord
100
AcDbBlockTableRecord
  2
*D37
340
0
  0
BLOCK_RECORD
  5
D581
330
7466
100
AcDbSymbolTableRecord
100
AcDbBlockTableRecord
  2
*D38
340
0
  0
BLOCK_RECORD
  5
D58E
330
7466
100
AcDbSymbolTableRecord
100
AcDbBlockTableRecord
  2
*D39
340
0
  0
BLOCK_RECORD
  5
D59B
330
7466
100
AcDbSymbolTableRecord
100
AcDbBlockTableRecord
  2
*D40
340
0
  0
BLOCK_RECORD
  5
D651
330
7466
100
AcDbSymbolTableRecord
100
AcDbBlockTableRecord
  2
*D41
340
0
  0
BLOCK_RECORD
  5
D842
330
7466
100
AcDbSymbolTableRecord
100
AcDbBlockTableRecord
  2
*D42
340
0
  0
BLOCK_RECORD
  5
D84F
330
7466
100
AcDbSymbolTableRecord
100
AcDbBlockTableRecord
  2
*D43
340
0
  0
BLOCK_RECORD
  5
D85C
330
7466
100
AcDbSymbolTableRecord
100
AcDbBlockTableRecord
  2
*D44
340
0
  0
BLOCK_RECORD
  5
D869
330
7466
100
AcDbSymbolTableRecord
100
AcDbBlockTableRecord
  2
*D45
340
0
  0
BLOCK_RECORD
  5
DD56
330
7466
100
AcDbSymbolTableRecord
100
AcDbBlockTableRecord
  2
*D46
340
0
  0
BLOCK_RECORD
  5
DD63
330
7466
100
AcDbSymbolTableRecord
100
AcDbBlockTableRecord
  2
*D47
340
0
  0
ENDTAB
  0
ENDSEC
  0
SECTION
  2
BLOCKS
  0
BLOCK
  5
7489
330
747D
100
AcDbEntity
  8
0
100
AcDbBlockBegin
  2
*MODEL_SPACE
 70
     0
 10
0.0
 20
0.0
 30
0.0
  3
*MODEL_SPACE
  1

  0
ENDBLK
  5
748A
330
747D
100
AcDbEntity
  8
0
100
AcDbBlockEnd
  0
BLOCK
  5
7487
330
747A
100
AcDbEntity
 67
     1
  8
0
100
AcDbBlockBegin
  2
*PAPER_SPACE
 70
     2
 10
0.0
 20
0.0
 30
0.0
  3
*PAPER_SPACE
  1

  0
ENDBLK
  5
7488
330
747A
100
AcDbEntity
 67
     1
  8
0
100
AcDbBlockEnd
  0
BLOCK
  5
7494
330
7493
100
AcDbEntity
  8
0
100
AcDbBlockBegin
  2
TITLE_BLOCK
 70
     2
 10
0.0
 20
0.0
 30
0.0
  3
TITLE_BLOCK
  1

  0
LINE
  5
7495
330
7493
100
AcDbEntity
  8
0
 62
     0
100
AcDbLine
 10
402.7943262411347
 20
16.00000000000008
 30
0.0
 11
410.0
 21
16.00000000000008
 31
0.0
  0
LINE
  5
7496
330
7493
100
AcDbEntity
  8
0
 62
     0
100
AcDbLine
 10
410.0
 20
10.0
 30
0.0
 11
410.0
 21
49.00000000000036
 31
0.0
  0
LINE
  5
7497
330
7493
100
AcDbEntity
  8
0
 62
     0
100
AcDbLine
 10
410.0
 20
49.00000000000036
 30
0.0
 11
410.0
 21
10.0
 31
0.0
  0
LINE
  5
7498
330
7493
100
AcDbEntity
  8
0
 62
     0
100
AcDbLine
 10
402.7943262411347
 20
22.00000000000012
 30
0.0
 11
402.7943262411347
 21
10.0
 31
0.0
  0
LINE
  5
7499
330
7493
100
AcDbEntity
  8
0
 62
     0
100
AcDbLine
 10
336.1418439716306
 20
49.00000000000036
 30
0.0
 11
336.1418439716306
 21
22.00000000000012
 31
0.0
  0
LINE
  5
749A
330
7493
100
AcDbEntity
  8
0
 62
     0
100
AcDbLine
 10
325.3333333333325
 20
37.00000000000024
 30
0.0
 11
325.3333333333325
 21
25.00000000000012
 31
0.0
  0
LINE
  5
749B
330
7493
100
AcDbEntity
  8
0
 62
     0
100
AcDbLine
 10
318.1276595744673
 20
49.00000000000036
 30
0.0
 11
318.1276595744673
 21
25.00000000000012
 31
0.0
  0
LINE
  5
749C
330
7493
100
AcDbEntity
  8
0
 62
     0
100
AcDbLine
 10
318.1276595744673
 20
25.00000000000012
 30
0.0
 11
348.7517730496447
 21
25.00000000000012
 31
0.0
  0
LINE
  5
749D
330
7493
100
AcDbEntity
  8
0
 62
     0
100
AcDbLine
 10
280.2978723404241
 20
28.00000000000015
 30
0.0
 11
348.7517730496447
 21
28.00000000000015
 31
0.0
  0
LINE
  5
749E
330
7493
100
AcDbEntity
  8
0
 62
     0
100
AcDbLine
 10
280.2978723404241
 20
31.0000000000002
 30
0.0
 11
348.7517730496447
 21
31.0000000000002
 31
0.0
  0
LINE
  5
749F
330
7493
100
AcDbEntity
  8
0
 62
     0
100
AcDbLine
 10
280.2978723404241
 20
34.00000000000024
 30
0.0
 11
348.7517730496447
 21
34.00000000000024
 31
0.0
  0
LINE
  5
74A0
330
7493
100
AcDbEntity
  8
0
 62
     0
100
AcDbLine
 10
280.2978723404241
 20
19.00000000000007
 30
0.0
 11
318.1276595744673
 21
19.00000000000012
 31
0.0
  0
LINE
  5
74A1
330
7493
100
AcDbEntity
  8
0
 62
     0
100
AcDbLine
 10
280.2978723404241
 20
22.00000000000007
 30
0.0
 11
318.1276595744673
 21
22.00000000000012
 31
0.0
  0
LINE
  5
74A2
330
7493
100
AcDbEntity
  8
0
 62
     0
100
AcDbLine
 10
280.2978723404241
 20
25.00000000000012
 30
0.0
 11
318.1276595744673
 21
25.00000000000012
 31
0.0
  0
TEXT
  5
74A3
330
7493
100
AcDbEntity
  8
0
 62
     0
100
AcDbText
 10
342.2447163844405
 20
10.55220101068186
 30
0.0
 40
1.791674070777747
  1
照査
  7
ADESK1
 72
     1
 11
344.1558353932701
 21
10.55220101068186
 31
0.0
100
AcDbText
  0
TEXT
  5
74A4
330
7493
100
AcDbEntity
  8
0
 62
     0
100
AcDbText
 10
332.2960689314087
 20
10.48329012996929
 30
0.0
 40
1.791674070777747
  1
設計
  7
ADESK1
 72
     1
 11
334.2071879402383
 21
10.48329012996929
 31
0.0
100
AcDbText
  0
TEXT
  5
74A5
330
7493
100
AcDbEntity
  8
0
 62
     0
100
AcDbText
 10
321.7174935280942
 20
10.48329012996929
 30
0.0
 40
1.791674070777747
  1
製図
  7
ADESK1
 72
     1
 11
323.5688900678979
 21
10.48329012996929
 31
0.0
100
AcDbText
  0
LINE
  5
74A6
330
7493
100
AcDbEntity
  8
0
 62
     0
100
AcDbLine
 10
280.2978723404241
 20
10.0
 30
0.0
 11
280.2978723404241
 21
13.00000000000004
 31
0.0
  0
LINE
  5
74A7
330
7493
100
AcDbEntity
  8
0
 62
     0
100
AcDbLine
 10
280.2978723404241
 20
16.00000000000008
 30
0.0
 11
318.1276595744673
 21
16.00000000000008
 31
0.0
  0
LINE
  5
74A8
330
7493
100
AcDbEntity
  8
0
 62
     0
100
AcDbLine
 10
339.4042553191484
 20
22.00000000000007
 30
0.0
 11
339.4042553191484
 21
10.0
 31
0.0
  0
LINE
  5
74A9
330
7493
100
AcDbEntity
  8
0
 62
     0
100
AcDbLine
 10
328.7659574468077
 20
22.00000000000007
 30
0.0
 11
328.7659574468077
 21
10.0
 31
0.0
  0
LINE
  5
74AA
330
7493
100
AcDbEntity
  8
0
 62
     0
100
AcDbLine
 10
348.7517730496447
 20
49.00000000000036
 30
0.0
 11
348.7517730496447
 21
10.0
 31
0.0
  0
LINE
  5
74AB
330
7493
100
AcDbEntity
  8
0
 62
     0
100
AcDbLine
 10
280.2978723404241
 20
49.00000000000036
 30
0.0
 11
280.2978723404241
 21
10.0
 31
0.0
  0
LINE
  5
74AC
330
7493
100
AcDbEntity
  8
0
 62
     0
100
AcDbLine
 10
318.1276595744673
 20
25.00000000000012
 30
0.0
 11
318.1276595744673
 21
10.0
 31
0.0
  0
LINE
  5
74AD
330
7493
100
AcDbEntity
  8
0
 62
     0
100
AcDbLine
 10
312.7234042553184
 20
37.00000000000024
 30
0.0
 11
312.7234042553184
 21
10.0
 31
0.0
  0
LINE
  5
74AE
330
7493
100
AcDbEntity
  8
0
 62
     0
100
AcDbLine
 10
285.702127659573
 20
37.00000000000024
 30
0.0
 11
285.702127659573
 21
10.0
 31
0.0
  0
LINE
  5
74AF
330
7493
100
AcDbEntity
  8
0
 62
     0
100
AcDbLine
 10
303.7163120567365
 20
37.00000000000024
 30
0.0
 11
303.7163120567365
 21
10.0
 31
0.0
  0
LINE
  5
74B0
330
7493
100
AcDbEntity
  8
0
 62
     0
100
AcDbLine
 10
410.0
 20
49.00000000000036
 30
0.0
 11
280.2978723404241
 21
49.00000000000036
 31
0.0
  0
LINE
  5
74B1
330
7493
100
AcDbEntity
  8
0
 62
     0
100
AcDbLine
 10
280.2978723404241
 20
10.0
 30
0.0
 11
410.0
 21
10.0
 31
0.0
  0
LINE
  5
74B2
330
7493
100
AcDbEntity
  8
0
 62
     0
100
AcDbLine
 10
318.1276595744673
 20
22.00000000000012
 30
0.0
 11
410.0
 21
22.00000000000012
 31
0.0
  0
LINE
  5
74B3
330
7493
100
AcDbEntity
  8
0
 62
     0
100
AcDbLine
 10
280.2978723404241
 20
37.00000000000024
 30
0.0
 11
410.0
 21
37.00000000000024
 31
0.0
  0
LINE
  5
74B4
330
7493
100
AcDbEntity
  8
0
 62
     0
100
AcDbLine
 10
280.2978723404241
 20
13.00000000000004
 30
0.0
 11
410.0
 21
13.00000000000004
 31
0.0
  0
LINE
  5
74B5
330
7493
100
AcDbEntity
  8
0
 62
     0
100
AcDbLine
 10
280.2978723404241
 20
49.00000000000036
 30
0.0
 11
410.0
 21
49.00000000000036
 31
0.0
  0
TEXT
  5
74B6
330
7493
100
AcDbEntity
  8
0
100
AcDbText
 10
411.3708251683467
 20
33.08333333333334
 30
0.0
 40
3.0
  1
F
  7
ADESK1
 72
     1
 11
412.8708251683468
 21
33.08333333333334
 31
0.0
100
AcDbText
  0
TEXT
  5
74B7
330
7493
100
AcDbEntity
  8
0
100
AcDbText
 10
411.3708251683467
 20
79.25
 30
0.0
 40
3.0
  1
E
  7
ADESK1
 72
     1
 11
412.8708251683468
 21
79.25
 31
0.0
100
AcDbText
  0
TEXT
  5
74B8
330
7493
100
AcDbEntity
  8
0
100
AcDbText
 10
411.2993965969182
 20
125.4166666666666
 30
0.0
 40
3.0
  1
D
  7
ADESK1
 72
     1
 11
412.8708251683468
 21
125.4166666666666
 31
0.0
100
AcDbText
  0
TEXT
  5
74B9
330
7493
100
AcDbEntity
  8
0
100
AcDbText
 10
411.3708251683467
 20
171.5833333333333
 30
0.0
 40
3.0
  1
C
  7
ADESK1
 72
     1
 11
412.8708251683468
 21
171.5833333333333
 31
0.0
100
AcDbText
  0
TEXT
  5
74BA
330
7493
100
AcDbEntity
  8
0
100
AcDbText
 10
411.2993965969182
 20
217.7499999999999
 30
0.0
 40
3.0
  1
B
  7
ADESK1
 72
     1
 11
412.8708251683468
 21
217.7499999999999
 31
0.0
100
AcDbText
  0
TEXT
  5
74BB
330
7493
100
AcDbEntity
  8
0
100
AcDbText
 10
411.5851108826324
 20
263.9166666666666
 30
0.0
 40
3.0
  1
A
  7
ADESK1
 72
     1
 11
412.8708251683468
 21
263.9166666666666
 31
0.0
100
AcDbText
  0
TEXT
  5
74BC
330
7493
100
AcDbEntity
  8
0
100
AcDbText
 10
384.5089285714285
 20
6.019997240728748
 30
0.0
 40
3.0
  1
8
  7
ADESK1
 72
     1
 11
385.9375
 21
6.019997240728748
 31
0.0
100
AcDbText
  0
TEXT
  5
74BD
330
7493
100
AcDbEntity
  8
0
100
AcDbText
 10
336.3839285714285
 20
6.019997240728748
 30
0.0
 40
3.0
  1
7
  7
ADESK1
 72
     1
 11
337.8125
 21
6.019997240728748
 31
0.0
100
AcDbText
  0
TEXT
  5
74BE
330
7493
100
AcDbEntity
  8
0
100
AcDbText
 10
288.1874999999999
 20
6.019997240728748
 30
0.0
 40
3.0
  1
6
  7
ADESK1
 72
     1
 11
289.6875
 21
6.019997240728748
 31
0.0
100
AcDbText
  0
TEXT
  5
74BF
330
7493
100
AcDbEntity
  8
0
100
AcDbText
 10
240.1339285714285
 20
6.019997240728748
 30
0.0
 40
3.0
  1
5
  7
ADESK1
 72
     1
 11
241.5624999999999
 21
6.019997240728748
 31
0.0
100
AcDbText
  0
TEXT
  5
74C0
330
7493
100
AcDbEntity
  8
0
100
AcDbText
 10
191.9375
 20
6.019997240728748
 30
0.0
 40
3.0
  1
4
  7
ADESK1
 72
     1
 11
193.4375
 21
6.019997240728748
 31
0.0
100
AcDbText
  0
TEXT
  5
74C1
330
7493
100
AcDbEntity
  8
0
100
AcDbText
 10
143.8839285714285
 20
6.019997240728748
 30
0.0
 40
3.0
  1
3
  7
ADESK1
 72
     1
 11
145.3125
 21
6.019997240728748
 31
0.0
100
AcDbText
  0
TEXT
  5
74C2
330
7493
100
AcDbEntity
  8
0
100
AcDbText
 10
95.75892857142857
 20
6.019997240728748
 30
0.0
 40
3.0
  1
2
  7
ADESK1
 72
     1
 11
97.1875
 21
6.019997240728748
 31
0.0
100
AcDbText
  0
TEXT
  5
74C3
330
7493
100
AcDbEntity
  8
0
100
AcDbText
 10
47.84821428571429
 20
6.019997240728748
 30
0.0
 40
3.0
  1
1
  7
ADESK1
 72
     1
 11
49.0625
 21
6.019997240728748
 31
0.0
100
AcDbText
  0
TEXT
  5
74C4
330
7493
100
AcDbEntity
  8
0
100
AcDbText
 10
21.10716135953389
 20
33.08333333333334
 30
0.0
 40
3.0
  1
F
  7
ADESK1
 72
     1
 11
22.60716135953389
 21
33.08333333333334
 31
0.0
100
AcDbText
  0
TEXT
  5
74C5
330
7493
100
AcDbEntity
  8
0
100
AcDbText
 10
21.10716135953389
 20
79.25
 30
0.0
 40
3.0
  1
E
  7
ADESK1
 72
     1
 11
22.60716135953389
 21
79.25
 31
0.0
100
AcDbText
  0
TEXT
  5
74C6
330
7493
100
AcDbEntity
  8
0
100
AcDbText
 10
21.03573278810532
 20
125.4166666666666
 30
0.0
 40
3.0
  1
D
  7
ADESK1
 72
     1
 11
22.60716135953389
 21
125.4166666666666
 31
0.0
100
AcDbText
  0
TEXT
  5
74C7
330
7493
100
AcDbEntity
  8
0
100
AcDbText
 10
21.10716135953389
 20
171.5833333333333
 30
0.0
 40
3.0
  1
C
  7
ADESK1
 72
     1
 11
22.60716135953389
 21
171.5833333333333
 31
0.0
100
AcDbText
  0
TEXT
  5
74C8
330
7493
100
AcDbEntity
  8
0
100
AcDbText
 10
21.03573278810532
 20
217.7499999999999
 30
0.0
 40
3.0
  1
B
  7
ADESK1
 72
     1
 11
22.60716135953389
 21
217.7499999999999
 31
0.0
100
AcDbText
  0
TEXT
  5
74C9
330
7493
100
AcDbEntity
  8
0
100
AcDbText
 10
384.5089285714285
 20
288.0
 30
0.0
 40
3.0
  1
8
  7
ADESK1
 72
     1
 11
385.9375
 21
288.0
 31
0.0
100
AcDbText
  0
TEXT
  5
74CA
330
7493
100
AcDbEntity
  8
0
100
AcDbText
 10
336.3839285714285
 20
288.0
 30
0.0
 40
3.0
  1
7
  7
ADESK1
 72
     1
 11
337.8125
 21
288.0
 31
0.0
100
AcDbText
  0
TEXT
  5
74CB
330
7493
100
AcDbEntity
  8
0
100
AcDbText
 10
288.1874999999999
 20
288.0
 30
0.0
 40
3.0
  1
6
  7
ADESK1
 72
     1
 11
289.6875
 21
288.0
 31
0.0
100
AcDbText
  0
TEXT
  5
74CC
330
7493
100
AcDbEntity
  8
0
100
AcDbText
 10
240.1339285714285
 20
288.0
 30
0.0
 40
3.0
  1
5
  7
ADESK1
 72
     1
 11
241.5624999999999
 21
288.0
 31
0.0
100
AcDbText
  0
TEXT
  5
74CD
330
7493
100
AcDbEntity
  8
0
100
AcDbText
 10
191.9375
 20
288.0
 30
0.0
 40
3.0
  1
4
  7
ADESK1
 72
     1
 11
193.4375
 21
288.0
 31
0.0
100
AcDbText
  0
TEXT
  5
74CE
330
7493
100
AcDbEntity
  8
0
100
AcDbText
 10
143.8839285714285
 20
288.0
 30
0.0
 40
3.0
  1
3
  7
ADESK1
 72
     1
 11
145.3125
 21
288.0
 31
0.0
100
AcDbText
  0
TEXT
  5
74CF
330
7493
100
AcDbEntity
  8
0
100
AcDbText
 10
95.75892857142857
 20
288.0
 30
0.0
 40
3.0
  1
2
  7
ADESK1
 72
     1
 11
97.1875
 21
288.0
 31
0.0
100
AcDbText
  0
TEXT
  5
74D0
330
7493
100
AcDbEntity
  8
0
100
AcDbText
 10
21.32144707381961
 20
263.9166666666666
 30
0.0
 40
3.0
  1
A
  7
ADESK1
 72
     1
 11
22.60716135953389
 21
263.9166666666666
 31
0.0
100
AcDbText
  0
TEXT
  5
74D1
330
7493
100
AcDbEntity
  8
0
100
AcDbText
 10
47.84821428571429
 20
288.0
 30
0.0
 40
3.0
  1
1
  7
ADESK1
 72
     1
 11
49.0625
 21
288.0
 31
0.0
100
AcDbText
  0
LINE
  5
74D2
330
7493
100
AcDbEntity
  8
0
100
AcDbLine
 10
73.125
 20
287.0
 30
0.0
 11
73.125
 21
292.0
 31
0.0
  0
LINE
  5
74D3
330
7493
100
AcDbEntity
  8
0
100
AcDbLine
 10
121.25
 20
287.0
 30
0.0
 11
121.25
 21
292.0
 31
0.0
  0
LINE
  5
74D4
330
7493
100
AcDbEntity
  8
0
100
AcDbLine
 10
169.375
 20
287.0
 30
0.0
 11
169.375
 21
292.0
 31
0.0
  0
LINE
  5
74D5
330
7493
100
AcDbEntity
  8
0
100
AcDbLine
 10
217.5
 20
287.0
 30
0.0
 11
217.5
 21
292.0
 31
0.0
  0
LINE
  5
74D6
330
7493
100
AcDbEntity
  8
0
100
AcDbLine
 10
265.625
 20
287.0
 30
0.0
 11
265.625
 21
292.0
 31
0.0
  0
LINE
  5
74D7
330
7493
100
AcDbEntity
  8
0
100
AcDbLine
 10
313.75
 20
287.0
 30
0.0
 11
313.75
 21
292.0
 31
0.0
  0
LINE
  5
74D8
330
7493
100
AcDbEntity
  8
0
100
AcDbLine
 10
361.8749999999999
 20
287.0
 30
0.0
 11
361.8749999999999
 21
292.0
 31
0.0
  0
LINE
  5
74D9
330
7493
100
AcDbEntity
  8
0
100
AcDbLine
 10
361.8749999999999
 20
10.0
 30
0.0
 11
361.8749999999999
 21
5.0
 31
0.0
  0
LINE
  5
74DA
330
7493
100
AcDbEntity
  8
0
100
AcDbLine
 10
313.75
 20
10.0
 30
0.0
 11
313.75
 21
5.0
 31
0.0
  0
LINE
  5
74DB
330
7493
100
AcDbEntity
  8
0
100
AcDbLine
 10
265.625
 20
10.0
 30
0.0
 11
265.625
 21
5.0
 31
0.0
  0
LINE
  5
74DC
330
7493
100
AcDbEntity
  8
0
100
AcDbLine
 10
217.5
 20
10.0
 30
0.0
 11
217.5
 21
5.0
 31
0.0
  0
LINE
  5
74DD
330
7493
100
AcDbEntity
  8
0
100
AcDbLine
 10
169.375
 20
10.0
 30
0.0
 11
169.375
 21
5.0
 31
0.0
  0
LINE
  5
74DE
330
7493
100
AcDbEntity
  8
0
100
AcDbLine
 10
121.25
 20
10.0
 30
0.0
 11
121.25
 21
5.0
 31
0.0
  0
LINE
  5
74DF
330
7493
100
AcDbEntity
  8
0
100
AcDbLine
 10
73.125
 20
10.0
 30
0.0
 11
73.125
 21
5.0
 31
0.0
  0
LINE
  5
74E0
330
7493
100
AcDbEntity
  8
0
100
AcDbLine
 10
410.0
 20
240.8333333333333
 30
0.0
 11
415.0
 21
240.8333333333333
 31
0.0
  0
LINE
  5
74E1
330
7493
100
AcDbEntity
  8
0
100
AcDbLine
 10
410.0
 20
194.6666666666667
 30
0.0
 11
415.0
 21
194.6666666666667
 31
0.0
  0
LINE
  5
74E2
330
7493
100
AcDbEntity
  8
0
100
AcDbLine
 10
410.0
 20
148.5
 30
0.0
 11
415.0
 21
148.5
 31
0.0
  0
LINE
  5
74E3
330
7493
100
AcDbEntity
  8
0
100
AcDbLine
 10
410.0
 20
102.3333333333333
 30
0.0
 11
415.0
 21
102.3333333333333
 31
0.0
  0
LINE
  5
74E4
330
7493
100
AcDbEntity
  8
0
100
AcDbLine
 10
410.0
 20
56.16666666666668
 30
0.0
 11
415.0
 21
56.16666666666668
 31
0.0
  0
LINE
  5
74E5
330
7493
100
AcDbEntity
  8
0
100
AcDbLine
 10
25.0
 20
56.16666666666667
 30
0.0
 11
20.0
 21
56.16666666666667
 31
0.0
  0
LINE
  5
74E6
330
7493
100
AcDbEntity
  8
0
100
AcDbLine
 10
25.0
 20
102.3333333333333
 30
0.0
 11
20.0
 21
102.3333333333333
 31
0.0
  0
LINE
  5
74E7
330
7493
100
AcDbEntity
  8
0
100
AcDbLine
 10
25.0
 20
148.5
 30
0.0
 11
20.0
 21
148.5
 31
0.0
  0
LINE
  5
74E8
330
7493
100
AcDbEntity
  8
0
100
AcDbLine
 10
25.0
 20
194.6666666666666
 30
0.0
 11
20.0
 21
194.6666666666666
 31
0.0
  0
LINE
  5
74E9
330
7493
100
AcDbEntity
  8
0
100
AcDbLine
 10
25.0
 20
240.8333333333333
 30
0.0
 11
20.0
 21
240.8333333333333
 31
0.0
  0
TEXT
  5
74EA
330
7493
100
AcDbEntity
  8
0
100
AcDbText
 10
1.0
 20
1.0
 30
0.0
 40
3.0
  1
この図枠はサンプルです。社内の規格やプロッタの出力範囲に合わせて適当に変更してご利用ください。
  7
ADESK1
100
AcDbText
  0
LINE
  5
74EB
330
7493
100
AcDbEntity
  8
0
100
AcDbLine
 10
25.0
 20
148.5
 30
0.0
 11
0.0
 21
148.5
 31
0.0
  0
LINE
  5
74EC
330
7493
100
AcDbEntity
  8
0
100
AcDbLine
 10
410.0
 20
148.5
 30
0.0
 11
420.0
 21
148.5
 31
0.0
  0
LINE
  5
74ED
330
7493
100
AcDbEntity
  8
0
100
AcDbLine
 10
217.5
 20
287.0
 30
0.0
 11
217.5
 21
297.0
 31
0.0
  0
LINE
  5
74EE
330
7493
100
AcDbEntity
  8
0
100
AcDbLine
 10
217.5
 20
10.0
 30
0.0
 11
217.5
 21
0.0
 31
0.0
  0
LINE
  5
74EF
330
7493
100
AcDbEntity
  8
OBJECT
100
AcDbLine
 10
130.0
 20
40.0
 30
0.0
 11
130.0
 21
10.0
 31
0.0
  0
LINE
  5
74F0
330
7493
100
AcDbEntity
  8
OBJECT
100
AcDbLine
 10
120.0
 20
10.0
 30
0.0
 11
120.0
 21
40.0
 31
0.0
  0
LINE
  5
74F1
330
7493
100
AcDbEntity
  8
OBJECT
100
AcDbLine
 10
44.5
 20
37.0
 30
0.0
 11
45.49999999999999
 21
37.0
 31
0.0
  0
LINE
  5
74F2
330
7493
100
AcDbEntity
  8
OBJECT
100
AcDbLine
 10
44.5
 20
31.0
 30
0.0
 11
45.49999999999999
 21
31.0
 31
0.0
  0
LINE
  5
74F3
330
7493
100
AcDbEntity
  8
OBJECT
100
AcDbLine
 10
39.5
 20
37.0
 30
0.0
 11
40.49999999999999
 21
37.0
 31
0.0
  0
LINE
  5
74F4
330
7493
100
AcDbEntity
  8
OBJECT
100
AcDbLine
 10
39.5
 20
31.0
 30
0.0
 11
40.49999999999999
 21
31.0
 31
0.0
  0
LINE
  5
74F5
330
7493
100
AcDbEntity
  8
OBJECT
100
AcDbLine
 10
44.5
 20
25.0
 30
0.0
 11
45.49999999999999
 21
25.0
 31
0.0
  0
LINE
  5
74F6
330
7493
100
AcDbEntity
  8
OBJECT
100
AcDbLine
 10
39.5
 20
25.0
 30
0.0
 11
40.49999999999999
 21
25.0
 31
0.0
  0
LINE
  5
74F7
330
7493
100
AcDbEntity
  8
OBJECT
100
AcDbLine
 10
44.5
 20
19.0
 30
0.0
 11
45.49999999999999
 21
19.0
 31
0.0
  0
LINE
  5
74F8
330
7493
100
AcDbEntity
  8
OBJECT
100
AcDbLine
 10
39.5
 20
19.0
 30
0.0
 11
40.49999999999999
 21
19.0
 31
0.0
  0
LINE
  5
74F9
330
7493
100
AcDbEntity
  8
OBJECT
100
AcDbLine
 10
28.0
 20
29.535898
 30
0.0
 11
30.0
 21
33.0
 31
0.0
  0
LINE
  5
74FA
330
7493
100
AcDbEntity
  8
OBJECT
100
AcDbLine
 10
28.0
 20
29.535898
 30
0.0
 11
32.0
 21
29.535898
 31
0.0
  0
LINE
  5
74FB
330
7493
100
AcDbEntity
  8
OBJECT
100
AcDbLine
 10
32.0
 20
29.535898
 30
0.0
 11
30.0
 21
33.0
 31
0.0
  0
LINE
  5
74FC
330
7493
100
AcDbEntity
  8
OBJECT
100
AcDbLine
 10
28.0
 20
35.53589799999999
 30
0.0
 11
32.0
 21
35.53589799999999
 31
0.0
  0
LINE
  5
74FD
330
7493
100
AcDbEntity
  8
OBJECT
100
AcDbLine
 10
32.0
 20
35.53589799999999
 30
0.0
 11
30.0
 21
39.0
 31
0.0
  0
LINE
  5
74FE
330
7493
100
AcDbEntity
  8
OBJECT
100
AcDbLine
 10
28.0
 20
35.53589799999999
 30
0.0
 11
30.0
 21
39.0
 31
0.0
  0
LINE
  5
74FF
330
7493
100
AcDbEntity
  8
OBJECT
100
AcDbLine
 10
28.0
 20
23.53589799999999
 30
0.0
 11
30.0
 21
26.99999999999999
 31
0.0
  0
LINE
  5
7500
330
7493
100
AcDbEntity
  8
OBJECT
100
AcDbLine
 10
28.0
 20
23.53589799999999
 30
0.0
 11
32.0
 21
23.53589799999999
 31
0.0
  0
LINE
  5
7501
330
7493
100
AcDbEntity
  8
OBJECT
100
AcDbLine
 10
32.0
 20
23.53589799999999
 30
0.0
 11
30.0
 21
26.99999999999999
 31
0.0
  0
LINE
  5
7502
330
7493
100
AcDbEntity
  8
OBJECT
100
AcDbLine
 10
28.0
 20
17.535898
 30
0.0
 11
30.0
 21
20.99999999999999
 31
0.0
  0
LINE
  5
7503
330
7493
100
AcDbEntity
  8
OBJECT
100
AcDbLine
 10
28.0
 20
17.535898
 30
0.0
 11
32.0
 21
17.535898
 31
0.0
  0
LINE
  5
7504
330
7493
100
AcDbEntity
  8
OBJECT
100
AcDbLine
 10
32.0
 20
17.535898
 30
0.0
 11
30.0
 21
20.99999999999999
 31
0.0
  0
LINE
  5
7505
330
7493
100
AcDbEntity
  8
OBJECT
100
AcDbLine
 10
44.5
 20
13.0
 30
0.0
 11
45.49999999999999
 21
13.0
 31
0.0
  0
LINE
  5
7506
330
7493
100
AcDbEntity
  8
OBJECT
100
AcDbLine
 10
39.5
 20
13.0
 30
0.0
 11
40.49999999999999
 21
13.0
 31
0.0
  0
LINE
  5
7507
330
7493
100
AcDbEntity
  8
OBJECT
100
AcDbLine
 10
28.0
 20
11.53589799999999
 30
0.0
 11
32.0
 21
11.53589799999999
 31
0.0
  0
LINE
  5
7508
330
7493
100
AcDbEntity
  8
OBJECT
100
AcDbLine
 10
80.0
 20
10.0
 30
0.0
 11
80.0
 21
40.0
 31
0.0
  0
LINE
  5
7509
330
7493
100
AcDbEntity
  8
OBJECT
100
AcDbLine
 10
50.0
 20
10.0
 30
0.0
 11
50.0
 21
40.0
 31
0.0
  0
LINE
  5
750A
330
7493
100
AcDbEntity
  8
OBJECT
100
AcDbLine
 10
35.0
 20
10.0
 30
0.0
 11
35.0
 21
40.0
 31
0.0
  0
LINE
  5
750B
330
7493
100
AcDbEntity
  8
OBJECT
100
AcDbLine
 10
32.0
 20
11.53589799999999
 30
0.0
 11
30.0
 21
15.0
 31
0.0
  0
LINE
  5
750C
330
7493
100
AcDbEntity
  8
OBJECT
100
AcDbLine
 10
28.0
 20
11.53589799999999
 30
0.0
 11
30.0
 21
15.0
 31
0.0
  0
LINE
  5
750D
330
7493
100
AcDbEntity
  8
OBJECT
100
AcDbLine
 10
130.0
 20
40.0
 30
0.0
 11
25.0
 21
40.0
 31
0.0
  0
LINE
  5
750E
330
7493
100
AcDbEntity
  8
OBJECT
100
AcDbLine
 10
130.0
 20
34.0
 30
0.0
 11
25.0
 21
34.0
 31
0.0
  0
LINE
  5
750F
330
7493
100
AcDbEntity
  8
OBJECT
100
AcDbLine
 10
130.0
 20
28.0
 30
0.0
 11
25.0
 21
28.0
 31
0.0
  0
LINE
  5
7510
330
7493
100
AcDbEntity
  8
OBJECT
100
AcDbLine
 10
130.0
 20
22.0
 30
0.0
 11
25.0
 21
22.0
 31
0.0
  0
LINE
  5
7511
330
7493
100
AcDbEntity
  8
OBJECT
100
AcDbLine
 10
130.0
 20
16.0
 30
0.0
 11
25.0
 21
16.0
 31
0.0
  0
ATTDEF
  5
7512
330
7493
100
AcDbEntity
  8
0
 62
     0
100
AcDbText
 10
19.0
 20
118.0
 30
0.0
 40
3.0
  1

 50
90.0
  7
ADESK1
100
AcDbAttributeDefinition
  3

  2
FNAME
 70
     8
  0
ATTDEF
  5
7513
330
7493
100
AcDbEntity
  8
0
 62
     0
100
AcDbText
 10
19.0
 20
70.0
 30
0.0
 40
3.0
  1

 50
90.0
  7
ADESK1
100
AcDbAttributeDefinition
  3

  2
REVDATE
 70
     8
  0
ATTDEF
  5
7514
330
7493
100
AcDbEntity
  8
0
 62
     0
100
AcDbText
 10
19.0
 20
10.0
 30
0.0
 40
3.0
  1

 50
90.0
  7
ADESK1
100
AcDbAttributeDefinition
  3

  2
USER
 70
     8
  0
LINE
  5
7515
330
7493
100
AcDbEntity
  8
0
100
AcDbLine
 10
410.0
 20
297.0
 30
0.0
 11
420.0
 21
297.0
 31
0.0
  0
LINE
  5
7516
330
7493
100
AcDbEntity
  8
0
100
AcDbLine
 10
420.0
 20
10.0
 30
0.0
 11
420.0
 21
0.0
 31
0.0
  0
LINE
  5
7517
330
7493
100
AcDbEntity
  8
0
100
AcDbLine
 10
25.0
 20
0.0
 30
0.0
 11
0.0
 21
0.0
 31
0.0
  0
LINE
  5
7518
330
7493
100
AcDbEntity
  8
0
100
AcDbLine
 10
0.0
 20
287.0
 30
0.0
 11
0.0
 21
297.0
 31
0.0
  0
LINE
  5
7519
330
7493
100
AcDbEntity
  8
0
100
AcDbLine
 10
25.0
 20
287.0
 30
0.0
 11
410.0
 21
287.0
 31
0.0
  0
LINE
  5
751A
330
7493
100
AcDbEntity
  8
0
100
AcDbLine
 10
410.0
 20
287.0
 30
0.0
 11
410.0
 21
10.0
 31
0.0
  0
LINE
  5
751B
330
7493
100
AcDbEntity
  8
0
100
AcDbLine
 10
410.0
 20
10.0
 30
0.0
 11
25.0
 21
10.0
 31
0.0
  0
LINE
  5
751C
330
7493
100
AcDbEntity
  8
0
100
AcDbLine
 10
25.0
 20
10.0
 30
0.0
 11
25.0
 21
287.0
 31
0.0
  0
LINE
  5
751D
330
7493
100
AcDbEntity
  8
0
100
AcDbLine
 10
420.0
 20
0.0
 30
0.0
 11
410.0
 21
0.0
 31
0.0
  0
LINE
  5
751E
330
7493
100
AcDbEntity
  8
0
100
AcDbLine
 10
420.0
 20
297.0
 30
0.0
 11
420.0
 21
287.0
 31
0.0
  0
LINE
  5
751F
330
7493
100
AcDbEntity
  8
0
100
AcDbLine
 10
0.0
 20
297.0
 30
0.0
 11
25.0
 21
297.0
 31
0.0
  0
LINE
  5
7520
330
7493
100
AcDbEntity
  8
0
100
AcDbLine
 10
0.0
 20
0.0
 30
0.0
 11
0.0
 21
10.0
 31
0.0
  0
ENDBLK
  5
7521
330
7493
100
AcDbEntity
  8
0
100
AcDbBlockEnd
  0
BLOCK
  5
81E1
330
81E0
100
AcDbEntity
  8
ASHADE
 48
15.0
100
AcDbBlockBegin
  2
AVE_RENDER
 70
     0
 10
0.0
 20
0.0
 30
0.0
  3
AVE_RENDER
  1
AVE_RENDER
  0
ENDBLK
  5
81E2
330
81E0
100
AcDbEntity
  8
0
 48
15.0
100
AcDbBlockEnd
  0
BLOCK
  5
81EF
330
81EE
100
AcDbEntity
  8
ASHADE
 48
15.0
100
AcDbBlockBegin
  2
AVE_GLOBAL
 70
     0
 10
0.0
 20
0.0
 30
0.0
  3
AVE_GLOBAL
  1
AVE_GLOBAL
  0
ENDBLK
  5
81F0
330
81EE
100
AcDbEntity
  8
0
 48
15.0
100
AcDbBlockEnd
  0
BLOCK
  5
B5EF
330
B5E5
100
AcDbEntity
  8
0
 48
15.0
100
AcDbBlockBegin
  2
*D3
 70
     1
 10
0.0
 20
0.0
 30
0.0
  3
*D3
  1

  0
LINE
  5
B5E6
330
B5E5
100
AcDbEntity
  8
寸法引出
 48
15.0
370
    -2
100
AcDbLine
 10
6973.274595131051
 20
7531.629990087882
 30
0.0
 11
7004.415281902786
 21
7531.629990087882
 31
0.0
  0
LINE
  5
B5E7
330
B5E5
100
AcDbEntity
  8
寸法引出
 48
15.0
370
    -2
100
AcDbLine
 10
6885.712134144798
 20
8331.629990087884
 30
0.0
 11
7004.415281902786
 21
8331.629990087884
 31
0.0
  0
LINE
  5
B5E8
330
B5E5
100
AcDbEntity
  8
寸法引出
 48
15.0
370
    -2
100
AcDbLine
 10
6991.915281902786
 20
7569.129990087882
 30
0.0
 11
6991.915281902786
 21
8294.129990087885
 31
0.0
  0
SOLID
  5
B5E9
330
B5E5
100
AcDbEntity
  8
寸法引出
 48
15.0
100
AcDbTrace
 10
6985.665281902786
 20
7569.129990087882
 30
0.0
 11
6998.165281902785
 21
7569.129990087882
 31
0.0
 12
6991.915281902786
 22
7531.629990087882
 32
0.0
 13
6991.915281902786
 23
7531.629990087882
 33
0.0
  0
SOLID
  5
B5EA
330
B5E5
100
AcDbEntity
  8
寸法引出
 48
15.0
100
AcDbTrace
 10
6985.665281902786
 20
8294.129990087885
 30
0.0
 11
6998.165281902785
 21
8294.129990087885
 31
0.0
 12
6991.915281902786
 22
8331.629990087884
 32
0.0
 13
6991.915281902786
 23
8331.629990087884
 33
0.0
  0
MTEXT
  5
B5EB
330
B5E5
100
AcDbEntity
  8
寸法引出
 48
15.0
100
AcDbMText
 10
6941.915281902784
 20
7931.629990087884
 30
0.0
 40
50.0
 41
0.0
 71
     5
 72
     1
  1
\A1;800
  7
SANWA
 11
0.0000000000000001
 21
1.0
 31
0.0
 73
     1
 44
1.0
  0
POINT
  5
B5EC
330
B5E5
100
AcDbEntity
  8
DEFPOINTS
 62
     0
 48
15.0
100
AcDbPoint
 10
6948.27459513105
 20
7531.629990087882
 30
0.0
  0
POINT
  5
B5ED
330
B5E5
100
AcDbEntity
  8
DEFPOINTS
 62
     0
 48
15.0
100
AcDbPoint
 10
6860.712134144797
 20
8331.629990087884
 30
0.0
  0
POINT
  5
B5EE
330
B5E5
100
AcDbEntity
  8
DEFPOINTS
 62
     0
 48
15.0
100
AcDbPoint
 10
6991.915281902786
 20
8331.629990087884
 30
0.0
  0
ENDBLK
  5
B5F0
330
B5E5
100
AcDbEntity
  8
0
 48
15.0
100
AcDbBlockEnd
  0
BLOCK
  5
B5FD
330
B5F1
100
AcDbEntity
  8
0
 48
15.0
100
AcDbBlockBegin
  2
*D4
 70
     1
 10
0.0
 20
0.0
 30
0.0
  3
*D4
  1

  0
LINE
  5
B5F2
330
B5F1
100
AcDbEntity
  8
寸法引出
 48
15.0
370
    -2
100
AcDbLine
 10
6885.712134144798
 20
8331.629990087884
 30
0.0
 11
7004.415281902786
 21
8331.629990087884
 31
0.0
  0
LINE
  5
B5F3
330
B5F1
100
AcDbEntity
  8
寸法引出
 48
15.0
370
    -2
100
AcDbLine
 10
6885.712134144798
 20
8431.629990087884
 30
0.0
 11
7004.415281902786
 21
8431.629990087884
 31
0.0
  0
LINE
  5
B5F4
330
B5F1
100
AcDbEntity
  8
寸法引出
 48
15.0
370
    -2
100
AcDbLine
 10
6991.915281902786
 20
8294.129990087885
 30
0.0
 11
6991.915281902786
 21
8256.629990087885
 31
0.0
  0
LINE
  5
B5F5
330
B5F1
100
AcDbEntity
  8
寸法引出
 48
15.0
370
    -2
100
AcDbLine
 10
6991.915281902786
 20
8469.129990087884
 30
0.0
 11
6991.915281902786
 21
8506.629990087885
 31
0.0
  0
LINE
  5
B5F6
330
B5F1
100
AcDbEntity
  8
寸法引出
 48
15.0
370
    -2
100
AcDbLine
 10
6991.915281902786
 20
8331.629990087884
 30
0.0
 11
6991.915281902786
 21
8431.629990087884
 31
0.0
  0
SOLID
  5
B5F7
330
B5F1
100
AcDbEntity
  8
寸法引出
 48
15.0
100
AcDbTrace
 10
6985.665281902786
 20
8294.129990087885
 30
0.0
 11
6998.165281902785
 21
8294.129990087885
 31
0.0
 12
6991.915281902786
 22
8331.629990087884
 32
0.0
 13
6991.915281902786
 23
8331.629990087884
 33
0.0
  0
SOLID
  5
B5F8
330
B5F1
100
AcDbEntity
  8
寸法引出
 48
15.0
100
AcDbTrace
 10
6985.665281902786
 20
8469.129990087884
 30
0.0
 11
6998.165281902785
 21
8469.129990087884
 31
0.0
 12
6991.915281902786
 22
8431.629990087884
 32
0.0
 13
6991.915281902786
 23
8431.629990087884
 33
0.0
  0
MTEXT
  5
B5F9
330
B5F1
100
AcDbEntity
  8
寸法引出
 48
15.0
100
AcDbMText
 10
6941.915281902784
 20
8381.629990087885
 30
0.0
 40
50.0
 41
0.0
 71
     5
 72
     1
  1
\A1;100
  7
SANWA
 11
0.0000000000000001
 21
1.0
 31
0.0
 73
     1
 44
1.0
  0
POINT
  5
B5FA
330
B5F1
100
AcDbEntity
  8
DEFPOINTS
 62
     0
 48
15.0
100
AcDbPoint
 10
6860.712134144797
 20
8331.629990087884
 30
0.0
  0
POINT
  5
B5FB
330
B5F1
100
AcDbEntity
  8
DEFPOINTS
 62
     0
 48
15.0
100
AcDbPoint
 10
6860.712134144797
 20
8431.629990087884
 30
0.0
  0
POINT
  5
B5FC
330
B5F1
100
AcDbEntity
  8
DEFPOINTS
 62
     0
 48
15.0
100
AcDbPoint
 10
6991.915281902786
 20
8431.629990087884
 30
0.0
  0
ENDBLK
  5
B5FE
330
B5F1
100
AcDbEntity
  8
0
 48
15.0
100
AcDbBlockEnd
  0
BLOCK
  5
B609
330
B5FF
100
AcDbEntity
  8
0
 48
15.0
100
AcDbBlockBegin
  2
*D5
 70
     1
 10
0.0
 20
0.0
 30
0.0
  3
*D5
  1

  0
LINE
  5
B600
330
B5FF
100
AcDbEntity
  8
寸法引出
 48
15.0
370
    -2
100
AcDbLine
 10
6973.274595131049
 20
7531.629990087882
 30
0.0
 11
7081.18475167752
 21
7531.629990087882
 31
0.0
  0
LINE
  5
B601
330
B5FF
100
AcDbEntity
  8
寸法引出
 48
15.0
370
    -2
100
AcDbLine
 10
6885.712134144798
 20
8431.629990087884
 30
0.0
 11
7081.18475167752
 21
8431.629990087884
 31
0.0
  0
LINE
  5
B602
330
B5FF
100
AcDbEntity
  8
寸法引出
 48
15.0
370
    -2
100
AcDbLine
 10
7068.68475167752
 20
7569.129990087882
 30
0.0
 11
7068.68475167752
 21
8394.129990087884
 31
0.0
  0
SOLID
  5
B603
330
B5FF
100
AcDbEntity
  8
寸法引出
 48
15.0
100
AcDbTrace
 10
7062.43475167752
 20
7569.129990087882
 30
0.0
 11
7074.93475167752
 21
7569.129990087882
 31
0.0
 12
7068.68475167752
 22
7531.629990087882
 32
0.0
 13
7068.68475167752
 23
7531.629990087882
 33
0.0
  0
SOLID
  5
B604
330
B5FF
100
AcDbEntity
  8
寸法引出
 48
15.0
100
AcDbTrace
 10
7062.43475167752
 20
8394.129990087884
 30
0.0
 11
7074.93475167752
 21
8394.129990087884
 31
0.0
 12
7068.68475167752
 22
8431.629990087884
 32
0.0
 13
7068.68475167752
 23
8431.629990087884
 33
0.0
  0
MTEXT
  5
B605
330
B5FF
100
AcDbEntity
  8
寸法引出
 48
15.0
100
AcDbMText
 10
7018.68475167752
 20
7981.629990087885
 30
0.0
 40
50.0
 41
0.0
 71
     5
 72
     1
  1
\A1;900
  7
SANWA
 11
0.0000000000000001
 21
1.0
 31
0.0
 73
     1
 44
1.0
  0
POINT
  5
B606
330
B5FF
100
AcDbEntity
  8
DEFPOINTS
 62
     0
 48
15.0
100
AcDbPoint
 10
6948.274595131049
 20
7531.629990087882
 30
0.0
  0
POINT
  5
B607
330
B5FF
100
AcDbEntity
  8
DEFPOINTS
 62
     0
 48
15.0
100
AcDbPoint
 10
6860.712134144797
 20
8431.629990087884
 30
0.0
  0
POINT
  5
B608
330
B5FF
100
AcDbEntity
  8
DEFPOINTS
 62
     0
 48
15.0
100
AcDbPoint
 10
7068.68475167752
 20
8431.629990087884
 30
0.0
  0
ENDBLK
  5
B60A
330
B5FF
100
AcDbEntity
  8
0
 48
15.0
100
AcDbBlockEnd
  0
BLOCK
  5
B615
330
B60B
100
AcDbEntity
  8
0
 48
15.0
100
AcDbBlockBegin
  2
*D6
 70
     1
 10
0.0
 20
0.0
 30
0.0
  3
*D6
  1

  0
LINE
  5
B60C
330
B60B
100
AcDbEntity
  8
寸法引出
 48
15.0
370
    -2
100
AcDbLine
 10
6860.712134144797
 20
8456.629990087884
 30
0.0
 11
6860.712134144797
 21
8536.895361818416
 31
0.0
  0
LINE
  5
B60D
330
B60B
100
AcDbEntity
  8
寸法引出
 48
15.0
370
    -2
100
AcDbLine
 10
7160.712134144798
 20
8456.629990087884
 30
0.0
 11
7160.712134144798
 21
8536.895361818416
 31
0.0
  0
LINE
  5
B60E
330
B60B
100
AcDbEntity
  8
寸法引出
 48
15.0
370
    -2
100
AcDbLine
 10
6898.212134144798
 20
8524.395361818417
 30
0.0
 11
7123.212134144798
 21
8524.395361818417
 31
0.0
  0
SOLID
  5
B60F
330
B60B
100
AcDbEntity
  8
寸法引出
 48
15.0
100
AcDbTrace
 10
6898.212134144798
 20
8530.645361818416
 30
0.0
 11
6898.212134144798
 21
8518.145361818417
 31
0.0
 12
6860.712134144797
 22
8524.395361818417
 32
0.0
 13
6860.712134144797
 23
8524.395361818417
 33
0.0
  0
SOLID
  5
B610
330
B60B
100
AcDbEntity
  8
寸法引出
 48
15.0
100
AcDbTrace
 10
7123.212134144798
 20
8530.645361818416
 30
0.0
 11
7123.212134144798
 21
8518.145361818417
 31
0.0
 12
7160.712134144798
 22
8524.395361818417
 32
0.0
 13
7160.712134144798
 23
8524.395361818417
 33
0.0
  0
MTEXT
  5
B611
330
B60B
100
AcDbEntity
  8
寸法引出
 48
15.0
100
AcDbMText
 10
7010.712134144798
 20
8574.395361818416
 30
0.0
 40
50.0
 41
0.0
 71
     5
 72
     1
  1
\A1;300
  7
SANWA
 73
     1
 44
1.0
  0
POINT
  5
B612
330
B60B
100
AcDbEntity
  8
DEFPOINTS
 62
     0
 48
15.0
100
AcDbPoint
 10
6860.712134144797
 20
8431.629990087884
 30
0.0
  0
POINT
  5
B613
330
B60B
100
AcDbEntity
  8
DEFPOINTS
 62
     0
 48
15.0
100
AcDbPoint
 10
7160.712134144798
 20
8431.629990087884
 30
0.0
  0
POINT
  5
B614
330
B60B
100
AcDbEntity
  8
DEFPOINTS
 62
     0
 48
15.0
100
AcDbPoint
 10
7160.712134144798
 20
8524.395361818417
 30
0.0
  0
ENDBLK
  5
B616
330
B60B
100
AcDbEntity
  8
0
 48
15.0
100
AcDbBlockEnd
  0
BLOCK
  5
B621
330
B617
100
AcDbEntity
  8
0
 48
15.0
100
AcDbBlockBegin
  2
*D7
 70
     1
 10
0.0
 20
0.0
 30
0.0
  3
*D7
  1

  0
LINE
  5
B618
330
B617
100
AcDbEntity
  8
寸法引出
 48
15.0
370
    -2
100
AcDbLine
 10
6810.712134144798
 20
8456.629990087884
 30
0.0
 11
6810.712134144798
 21
8647.401181367939
 31
0.0
  0
LINE
  5
B619
330
B617
100
AcDbEntity
  8
寸法引出
 48
15.0
370
    -2
100
AcDbLine
 10
7210.712134144798
 20
8456.629990087884
 30
0.0
 11
7210.712134144798
 21
8647.401181367939
 31
0.0
  0
LINE
  5
B61A
330
B617
100
AcDbEntity
  8
寸法引出
 48
15.0
370
    -2
100
AcDbLine
 10
6848.212134144798
 20
8634.90118136794
 30
0.0
 11
7173.212134144797
 21
8634.90118136794
 31
0.0
  0
SOLID
  5
B61B
330
B617
100
AcDbEntity
  8
寸法引出
 48
15.0
100
AcDbTrace
 10
6848.212134144798
 20
8641.15118136794
 30
0.0
 11
6848.212134144798
 21
8628.65118136794
 31
0.0
 12
6810.712134144798
 22
8634.90118136794
 32
0.0
 13
6810.712134144798
 23
8634.90118136794
 33
0.0
  0
SOLID
  5
B61C
330
B617
100
AcDbEntity
  8
寸法引出
 48
15.0
100
AcDbTrace
 10
7173.212134144797
 20
8641.15118136794
 30
0.0
 11
7173.212134144797
 21
8628.65118136794
 31
0.0
 12
7210.712134144798
 22
8634.90118136794
 32
0.0
 13
7210.712134144798
 23
8634.90118136794
 33
0.0
  0
MTEXT
  5
B61D
330
B617
100
AcDbEntity
  8
寸法引出
 48
15.0
100
AcDbMText
 10
7010.712134144798
 20
8684.901181367939
 30
0.0
 40
50.0
 41
0.0
 71
     5
 72
     1
  1
\A1;400
  7
SANWA
 73
     1
 44
1.0
  0
POINT
  5
B61E
330
B617
100
AcDbEntity
  8
DEFPOINTS
 62
     0
 48
15.0
100
AcDbPoint
 10
6810.712134144798
 20
8431.629990087884
 30
0.0
  0
POINT
  5
B61F
330
B617
100
AcDbEntity
  8
DEFPOINTS
 62
     0
 48
15.0
100
AcDbPoint
 10
7210.712134144798
 20
8431.629990087884
 30
0.0
  0
POINT
  5
B620
330
B617
100
AcDbEntity
  8
DEFPOINTS
 62
     0
 48
15.0
100
AcDbPoint
 10
7210.712134144798
 20
8634.90118136794
 30
0.0
  0
ENDBLK
  5
B622
330
B617
100
AcDbEntity
  8
0
 48
15.0
100
AcDbBlockEnd
  0
BLOCK
  5
B62D
330
B623
100
AcDbEntity
  8
0
 48
15.0
100
AcDbBlockBegin
  2
*D8
 70
     1
 10
0.0
 20
0.0
 30
0.0
  3
*D8
  1

  0
LINE
  5
B624
330
B623
100
AcDbEntity
  8
寸法引出
 48
15.0
370
    -2
100
AcDbLine
 10
7185.712134144798
 20
7381.629990087882
 30
0.0
 11
7371.715787046937
 21
7381.629990087882
 31
0.0
  0
LINE
  5
B625
330
B623
100
AcDbEntity
  8
寸法引出
 48
15.0
370
    -2
100
AcDbLine
 10
7235.712134144797
 20
8431.629990087884
 30
0.0
 11
7371.715787046937
 21
8431.629990087884
 31
0.0
  0
LINE
  5
B626
330
B623
100
AcDbEntity
  8
寸法引出
 48
15.0
370
    -2
100
AcDbLine
 10
7359.215787046938
 20
7419.129990087881
 30
0.0
 11
7359.215787046938
 21
8394.129990087884
 31
0.0
  0
SOLID
  5
B627
330
B623
100
AcDbEntity
  8
寸法引出
 48
15.0
100
AcDbTrace
 10
7352.965787046938
 20
7419.129990087881
 30
0.0
 11
7365.465787046938
 21
7419.129990087881
 31
0.0
 12
7359.215787046938
 22
7381.629990087882
 32
0.0
 13
7359.215787046938
 23
7381.629990087882
 33
0.0
  0
SOLID
  5
B628
330
B623
100
AcDbEntity
  8
寸法引出
 48
15.0
100
AcDbTrace
 10
7352.965787046938
 20
8394.129990087884
 30
0.0
 11
7365.465787046938
 21
8394.129990087884
 31
0.0
 12
7359.215787046938
 22
8431.629990087884
 32
0.0
 13
7359.215787046938
 23
8431.629990087884
 33
0.0
  0
MTEXT
  5
B629
330
B623
100
AcDbEntity
  8
寸法引出
 48
15.0
100
AcDbMText
 10
7309.215787046937
 20
7906.629990087885
 30
0.0
 40
50.0
 41
0.0
 71
     5
 72
     1
  1
\A1;1050
  7
SANWA
 11
0.0000000000000001
 21
1.0
 31
0.0
 73
     1
 44
1.0
  0
POINT
  5
B62A
330
B623
100
AcDbEntity
  8
DEFPOINTS
 62
     0
 48
15.0
100
AcDbPoint
 10
7160.712134144798
 20
7381.629990087882
 30
0.0
  0
POINT
  5
B62B
330
B623
100
AcDbEntity
  8
DEFPOINTS
 62
     0
 48
15.0
100
AcDbPoint
 10
7210.712134144798
 20
8431.629990087884
 30
0.0
  0
POINT
  5
B62C
330
B623
100
AcDbEntity
  8
DEFPOINTS
 62
     0
 48
15.0
100
AcDbPoint
 10
7359.215787046938
 20
8431.629990087884
 30
0.0
  0
ENDBLK
  5
B62E
330
B623
100
AcDbEntity
  8
0
 48
15.0
100
AcDbBlockEnd
  0
BLOCK
  5
B645
330
B62F
100
AcDbEntity
  8
0
 48
25.0
100
AcDbBlockBegin
  2
A$C2A7F6572
 70
     0
 10
0.0
 20
0.0
 30
0.0
  3
A$C2A7F6572
  1

  0
DIMENSION
  5
B630
330
B62F
100
AcDbEntity
  8
寸法引出
 48
15.0
100
AcDbDimension
  2
*D7
 10
532.7046336285029
 20
1633.75853985067
 30
0.0
 11
332.7046336285029
 21
1683.75853985067
 31
0.0
 12
-6678.007500516294
 22
-7001.142641517268
 32
0.0
 71
     5
 42
400.0
  3
SANWA
100
AcDbAlignedDimension
 13
132.7046336285029
 23
1430.487348570615
 33
0.0
 14
532.7046336285029
 24
1430.487348570615
 34
0.0
100
AcDbRotatedDimension
1001
ACAD
1000
DSTYLE
1002
{
1070
    40
1040
25.0
1070
    41
1040
1.5
1070
    43
1040
5.0
1070
    44
1040
0.5
1070
   140
1040
2.0
1070
   147
1040
1.0
1070
   176
1070
   256
1070
   177
1070
   256
1070
   178
1070
   256
1002
}
  0
DIMENSION
  5
B631
330
B62F
100
AcDbEntity
  8
寸法引出
 48
15.0
100
AcDbDimension
  2
*D6
 10
482.7046336285029
 20
1523.252720301148
 30
0.0
 11
332.7046336285029
 21
1573.252720301148
 31
0.0
 12
-6678.007500516294
 22
-7001.142641517268
 32
0.0
 71
     5
 42
300.0
  3
SANWA
100
AcDbAlignedDimension
 13
182.7046336285029
 23
1430.487348570615
 33
0.0
 14
482.7046336285029
 24
1430.487348570615
 34
0.0
100
AcDbRotatedDimension
1001
ACAD
1000
DSTYLE
1002
{
1070
    40
1040
25.0
1070
    41
1040
1.5
1070
    43
1040
5.0
1070
    44
1040
0.5
1070
   140
1040
2.0
1070
   147
1040
1.0
1070
   176
1070
   256
1070
   177
1070
   256
1070
   178
1070
   256
1002
}
  0
MTEXT
  5
B632
330
B62F
100
AcDbEntity
  8
寸法引出
 48
15.0
100
AcDbMText
 10
382.0571102726644
 20
132.8144646556593
 30
0.0
 40
200.0
 41
0.0
 71
     5
 72
     1
  1
902kg
  7
SANWA
 73
     1
 44
1.0
  0
DIMENSION
  5
B633
330
B62F
100
AcDbEntity
  8
寸法引出
 48
15.0
100
AcDbDimension
  2
*D5
 10
390.6772511612262
 20
1430.487348570615
 30
0.0
 11
340.6772511612253
 21
980.4873485706165
 31
0.0
 12
-6678.007500516294
 22
-7001.142641517268
 32
0.0
 71
     5
 42
900.0000000000017
  3
SANWA
100
AcDbAlignedDimension
 13
270.2670946147545
 23
530.4873485706139
 33
0.0
 14
182.7046336285029
 24
1430.487348570615
 34
0.0
 50
90.0
100
AcDbRotatedDimension
1001
ACAD
1000
DSTYLE
1002
{
1070
    40
1040
25.0
1070
    41
1040
1.5
1070
    43
1040
5.0
1070
    44
1040
0.5
1070
   140
1040
2.0
1070
   147
1040
1.0
1070
   176
1070
   256
1070
   177
1070
   256
1070
   178
1070
   256
1002
}
  0
DIMENSION
  5
B634
330
B62F
100
AcDbEntity
  8
寸法引出
 48
15.0
100
AcDbDimension
  2
*D4
 10
313.9077813864905
 20
1430.487348570615
 30
0.0
 11
263.9077813864896
 21
1380.487348570617
 31
0.0
 12
-6678.007500516294
 22
-7001.142641517268
 32
0.0
 71
     5
 42
100.0
  3
SANWA
100
AcDbAlignedDimension
 13
182.7046336285029
 23
1330.487348570615
 33
0.0
 14
182.7046336285029
 24
1430.487348570615
 34
0.0
 50
90.0
100
AcDbRotatedDimension
1001
ACAD
1000
DSTYLE
1002
{
1070
   279
1070
     1
1070
    40
1040
25.0
1070
    41
1040
1.5
1070
    43
1040
5.0
1070
    44
1040
0.5
1070
   140
1040
2.0
1070
   147
1040
1.0
1070
   176
1070
   256
1070
   177
1070
   256
1070
   178
1070
   256
1002
}
  0
DIMENSION
  5
B635
330
B62F
100
AcDbEntity
  8
寸法引出
 48
15.0
100
AcDbDimension
  2
*D3
 10
313.9077813864905
 20
1330.487348570615
 30
0.0
 11
263.9077813864896
 21
930.4873485706165
 31
0.0
 12
-6678.007500516294
 22
-7001.142641517268
 32
0.0
 71
     5
 42
800.0000000000017
  3
SANWA
100
AcDbAlignedDimension
 13
270.2670946147554
 23
530.4873485706139
 33
0.0
 14
182.7046336285029
 24
1330.487348570615
 34
0.0
 50
90.0
100
AcDbRotatedDimension
1001
ACAD
1000
DSTYLE
1002
{
1070
    40
1040
25.0
1070
    41
1040
1.5
1070
    43
1040
5.0
1070
    44
1040
0.5
1070
   140
1040
2.0
1070
   147
1040
1.0
1070
   176
1070
   256
1070
   177
1070
   256
1070
   178
1070
   256
1002
}
  0
LINE
  5
B636
330
B62F
100
AcDbEntity
  8
0
 48
15.0
100
AcDbLine
 10
182.7046336285029
 20
1330.487348570615
 30
0.0
 11
220.3294776708626
 21
577.9904677234189
 31
0.0
  0
LINE
  5
B637
330
B62F
100
AcDbEntity
  8
0
 48
15.0
100
AcDbLine
 10
182.7046336285038
 20
380.4873485706139
 30
0.0
 11
482.7046336285039
 21
380.4873485706139
 31
0.0
  0
LINE
  5
B638
330
B62F
100
AcDbEntity
  8
0
 48
15.0
100
AcDbLine
 10
132.7046336285029
 20
1430.487348570615
 30
0.0
 11
132.7046336285029
 21
430.4873485706139
 31
0.0
  0
LINE
  5
B639
330
B62F
100
AcDbEntity
  8
0
 48
15.0
100
AcDbLine
 10
182.7046336285029
 20
380.4873485706139
 30
0.0
 11
132.7046336285029
 21
430.4873485706139
 31
0.0
  0
LINE
  5
B63A
330
B62F
100
AcDbEntity
  8
0
 48
15.0
100
AcDbLine
 10
182.7046336285029
 20
1330.487348570615
 30
0.0
 11
182.7046336285029
 21
1430.487348570615
 31
0.0
  0
LINE
  5
B63B
330
B62F
100
AcDbEntity
  8
0
 48
15.0
100
AcDbLine
 10
132.7046336285029
 20
1430.487348570615
 30
0.0
 11
182.7046336285029
 21
1430.487348570615
 31
0.0
  0
DIMENSION
  5
B63C
330
B62F
100
AcDbEntity
  8
寸法引出
 48
15.0
100
AcDbDimension
  2
*D8
 10
681.2082865306438
 20
1430.487348570615
 30
0.0
 11
631.2082865306429
 21
905.4873485706165
 31
0.0
 12
-6678.007500516294
 22
-7001.142641517268
 32
0.0
 71
     5
 42
1050.000000000001
  3
SANWA
100
AcDbAlignedDimension
 13
482.7046336285039
 23
380.4873485706139
 33
0.0
 14
532.7046336285029
 24
1430.487348570615
 34
0.0
 50
90.0
100
AcDbRotatedDimension
1001
ACAD
1000
DSTYLE
1002
{
1070
    40
1040
25.0
1070
    41
1040
1.5
1070
    43
1040
5.0
1070
    44
1040
0.5
1070
   140
1040
2.0
1070
   147
1040
1.0
1070
   176
1070
   256
1070
   177
1070
   256
1070
   178
1070
   256
1002
}
  0
LINE
  5
B63D
330
B62F
100
AcDbEntity
  8
0
 48
15.0
100
AcDbLine
 10
445.0797895861433
 20
577.9904677234172
 30
0.0
 11
482.7046336285029
 21
1330.487348570615
 31
0.0
  0
LINE
  5
B63E
330
B62F
100
AcDbEntity
  8
0
 48
15.0
100
AcDbLine
 10
532.7046336285029
 20
1430.487348570615
 30
0.0
 11
532.7046336285029
 21
430.4873485706139
 31
0.0
  0
LINE
  5
B63F
330
B62F
100
AcDbEntity
  8
0
 48
15.0
100
AcDbLine
 10
482.7046336285029
 20
380.4873485706139
 30
0.0
 11
532.7046336285029
 21
430.4873485706139
 31
0.0
  0
ARC
  5
B640
330
B62F
100
AcDbEntity
  8
0
 48
15.0
100
AcDbCircle
 10
395.1421726422504
 20
580.4873485706139
 30
0.0
 40
50.0
100
AcDbArc
 50
270.0
 51
357.1375947739012
  0
ARC
  5
B641
330
B62F
100
AcDbEntity
  8
0
 48
15.0
100
AcDbCircle
 10
270.2670946147554
 20
580.4873485706139
 30
0.0
 40
50.0
100
AcDbArc
 50
182.8624052260987
 51
270.0
  0
LINE
  5
B642
330
B62F
100
AcDbEntity
  8
0
 48
15.0
100
AcDbLine
 10
270.2670946147554
 20
530.4873485706139
 30
0.0
 11
395.1421726422504
 21
530.4873485706139
 31
0.0
  0
LINE
  5
B643
330
B62F
100
AcDbEntity
  8
0
 48
15.0
100
AcDbLine
 10
482.7046336285029
 20
1430.487348570615
 30
0.0
 11
532.7046336285029
 21
1430.487348570615
 31
0.0
  0
LINE
  5
B644
330
B62F
100
AcDbEntity
  8
0
 48
15.0
100
AcDbLine
 10
482.7046336285029
 20
1330.487348570615
 30
0.0
 11
482.7046336285029
 21
1430.487348570615
 31
0.0
  0
ENDBLK
  5
B646
330
B62F
100
AcDbEntity
  8
0
 48
25.0
100
AcDbBlockEnd
  0
BLOCK
  5
C1FE
330
C1F4
100
AcDbEntity
  8
0
 48
25.0
100
AcDbBlockBegin
  2
*D10
 70
     1
 10
0.0
 20
0.0
 30
0.0
  3
*D10
  1

  0
LINE
  5
DFBA
330
C1F4
100
AcDbEntity
  8
寸法引出
 48
25.0
370
    -2
100
AcDbLine
 10
5243.469910207107
 20
3823.773926618955
 30
0.0
 11
5243.469910207107
 21
3962.459402227308
 31
0.0
  0
LINE
  5
DFBB
330
C1F4
100
AcDbEntity
  8
寸法引出
 48
25.0
370
    -2
100
AcDbLine
 10
6003.469910207106
 20
3823.773926618955
 30
0.0
 11
6003.469910207106
 21
3962.459402227308
 31
0.0
  0
LINE
  5
DFBC
330
C1F4
100
AcDbEntity
  8
寸法引出
 48
25.0
370
    -2
100
AcDbLine
 10
5280.969910207106
 20
3949.959402227308
 30
0.0
 11
5965.969910207107
 21
3949.959402227308
 31
0.0
  0
SOLID
  5
DFBD
330
C1F4
100
AcDbEntity
  8
寸法引出
 48
25.0
100
AcDbTrace
 10
5280.969910207106
 20
3956.209402227308
 30
0.0
 11
5280.969910207106
 21
3943.709402227307
 31
0.0
 12
5243.469910207107
 22
3949.959402227308
 32
0.0
 13
5243.469910207107
 23
3949.959402227308
 33
0.0
  0
SOLID
  5
DFBE
330
C1F4
100
AcDbEntity
  8
寸法引出
 48
25.0
100
AcDbTrace
 10
5965.969910207107
 20
3956.209402227308
 30
0.0
 11
5965.969910207107
 21
3943.709402227307
 31
0.0
 12
6003.469910207106
 22
3949.959402227308
 32
0.0
 13
6003.469910207106
 23
3949.959402227308
 33
0.0
  0
MTEXT
  5
DFBF
330
C1F4
100
AcDbEntity
  8
寸法引出
 48
25.0
100
AcDbMText
 10
5623.469910207106
 20
3999.959402227307
 30
0.0
 40
50.0
 41
0.0
 71
     5
 72
     1
  1
\A1;760
  7
SANWA
 73
     1
 44
1.0
  0
POINT
  5
DFC0
330
C1F4
100
AcDbEntity
  8
DEFPOINTS
 62
     0
 48
25.0
100
AcDbPoint
 10
5243.469910207107
 20
3798.773926618955
 30
0.0
  0
POINT
  5
DFC1
330
C1F4
100
AcDbEntity
  8
DEFPOINTS
 62
     0
 48
25.0
100
AcDbPoint
 10
6003.469910207106
 20
3798.773926618955
 30
0.0
  0
POINT
  5
DFC2
330
C1F4
100
AcDbEntity
  8
DEFPOINTS
 62
     0
 48
25.0
100
AcDbPoint
 10
6003.469910207106
 20
3949.959402227308
 30
0.0
  0
ENDBLK
  5
C1FF
330
C1F4
100
AcDbEntity
  8
0
 48
25.0
100
AcDbBlockEnd
  0
BLOCK
  5
C20A
330
C200
100
AcDbEntity
  8
0
 48
25.0
100
AcDbBlockBegin
  2
*D11
 70
     1
 10
0.0
 20
0.0
 30
0.0
  3
*D11
  1

  0
LINE
  5
DFC3
330
C200
100
AcDbEntity
  8
寸法引出
 48
25.0
370
    -2
100
AcDbLine
 10
4123.469910207106
 20
3823.773926618955
 30
0.0
 11
4123.469910207106
 21
4085.587473724058
 31
0.0
  0
LINE
  5
DFC4
330
C200
100
AcDbEntity
  8
寸法引出
 48
25.0
370
    -2
100
AcDbLine
 10
6123.469910207106
 20
3823.773926618955
 30
0.0
 11
6123.469910207106
 21
4085.587473724058
 31
0.0
  0
LINE
  5
DFC5
330
C200
100
AcDbEntity
  8
寸法引出
 48
25.0
370
    -2
100
AcDbLine
 10
4160.969910207106
 20
4073.087473724058
 30
0.0
 11
6085.969910207106
 21
4073.087473724058
 31
0.0
  0
SOLID
  5
DFC6
330
C200
100
AcDbEntity
  8
寸法引出
 48
25.0
100
AcDbTrace
 10
4160.969910207106
 20
4079.337473724058
 30
0.0
 11
4160.969910207106
 21
4066.837473724058
 31
0.0
 12
4123.469910207106
 22
4073.087473724058
 32
0.0
 13
4123.469910207106
 23
4073.087473724058
 33
0.0
  0
SOLID
  5
DFC7
330
C200
100
AcDbEntity
  8
寸法引出
 48
25.0
100
AcDbTrace
 10
6085.969910207106
 20
4079.337473724058
 30
0.0
 11
6085.969910207106
 21
4066.837473724058
 31
0.0
 12
6123.469910207106
 22
4073.087473724058
 32
0.0
 13
6123.469910207106
 23
4073.087473724058
 33
0.0
  0
MTEXT
  5
DFC8
330
C200
100
AcDbEntity
  8
寸法引出
 48
25.0
100
AcDbMText
 10
5123.469910207106
 20
4123.087473724058
 30
0.0
 40
50.0
 41
0.0
 71
     5
 72
     1
  1
\A1;2000
  7
SANWA
 73
     1
 44
1.0
  0
POINT
  5
DFC9
330
C200
100
AcDbEntity
  8
DEFPOINTS
 62
     0
 48
25.0
100
AcDbPoint
 10
4123.469910207106
 20
3798.773926618955
 30
0.0
  0
POINT
  5
DFCA
330
C200
100
AcDbEntity
  8
DEFPOINTS
 62
     0
 48
25.0
100
AcDbPoint
 10
6123.469910207106
 20
3798.773926618955
 30
0.0
  0
POINT
  5
DFCB
330
C200
100
AcDbEntity
  8
DEFPOINTS
 62
     0
 48
25.0
100
AcDbPoint
 10
6123.469910207106
 20
4073.087473724058
 30
0.0
  0
ENDBLK
  5
C20B
330
C200
100
AcDbEntity
  8
0
 48
25.0
100
AcDbBlockEnd
  0
BLOCK
  5
C216
330
C20C
100
AcDbEntity
  8
0
 48
25.0
100
AcDbBlockBegin
  2
*D12
 70
     1
 10
0.0
 20
0.0
 30
0.0
  3
*D12
  1

  0
LINE
  5
DFF2
330
C20C
100
AcDbEntity
  8
寸法引出
 48
25.0
370
    -2
100
AcDbLine
 10
4243.469910207106
 20
3823.773926618955
 30
0.0
 11
4243.469910207106
 21
3962.459402227308
 31
0.0
  0
LINE
  5
DFF3
330
C20C
100
AcDbEntity
  8
寸法引出
 48
25.0
370
    -2
100
AcDbLine
 10
5003.469910207106
 20
3823.773926618955
 30
0.0
 11
5003.469910207106
 21
3962.459402227308
 31
0.0
  0
LINE
  5
DFF4
330
C20C
100
AcDbEntity
  8
寸法引出
 48
25.0
370
    -2
100
AcDbLine
 10
4280.969910207106
 20
3949.959402227308
 30
0.0
 11
4965.969910207107
 21
3949.959402227308
 31
0.0
  0
SOLID
  5
DFF5
330
C20C
100
AcDbEntity
  8
寸法引出
 48
25.0
100
AcDbTrace
 10
4280.969910207106
 20
3956.209402227308
 30
0.0
 11
4280.969910207106
 21
3943.709402227307
 31
0.0
 12
4243.469910207106
 22
3949.959402227308
 32
0.0
 13
4243.469910207106
 23
3949.959402227308
 33
0.0
  0
SOLID
  5
DFF6
330
C20C
100
AcDbEntity
  8
寸法引出
 48
25.0
100
AcDbTrace
 10
4965.969910207107
 20
3956.209402227308
 30
0.0
 11
4965.969910207107
 21
3943.709402227307
 31
0.0
 12
5003.469910207106
 22
3949.959402227308
 32
0.0
 13
5003.469910207106
 23
3949.959402227308
 33
0.0
  0
MTEXT
  5
DFF7
330
C20C
100
AcDbEntity
  8
寸法引出
 48
25.0
100
AcDbMText
 10
4623.469910207106
 20
3999.959402227307
 30
0.0
 40
50.0
 41
0.0
 71
     5
 72
     1
  1
\A1;760
  7
SANWA
 73
     1
 44
1.0
  0
POINT
  5
DFF8
330
C20C
100
AcDbEntity
  8
DEFPOINTS
 62
     0
 48
25.0
100
AcDbPoint
 10
4243.469910207106
 20
3798.773926618955
 30
0.0
  0
POINT
  5
DFF9
330
C20C
100
AcDbEntity
  8
DEFPOINTS
 62
     0
 48
25.0
100
AcDbPoint
 10
5003.469910207106
 20
3798.773926618955
 30
0.0
  0
POINT
  5
DFFA
330
C20C
100
AcDbEntity
  8
DEFPOINTS
 62
     0
 48
25.0
100
AcDbPoint
 10
5003.469910207106
 20
3949.959402227308
 30
0.0
  0
ENDBLK
  5
C217
330
C20C
100
AcDbEntity
  8
0
 48
25.0
100
AcDbBlockEnd
  0
BLOCK
  5
C224
330
C218
100
AcDbEntity
  8
0
 48
25.0
100
AcDbBlockBegin
  2
*D13
 70
     1
 10
0.0
 20
0.0
 30
0.0
  3
*D13
  1

  0
LINE
  5
DFFB
330
C218
100
AcDbEntity
  8
寸法引出
 48
25.0
370
    -2
100
AcDbLine
 10
4123.469910207106
 20
3823.773926618955
 30
0.0
 11
4123.469910207106
 21
3962.459402227308
 31
0.0
  0
LINE
  5
DFFC
330
C218
100
AcDbEntity
  8
寸法引出
 48
25.0
370
    -2
100
AcDbLine
 10
4243.469910207106
 20
3823.773926618955
 30
0.0
 11
4243.469910207106
 21
3962.459402227308
 31
0.0
  0
LINE
  5
DFFD
330
C218
100
AcDbEntity
  8
寸法引出
 48
25.0
370
    -2
100
AcDbLine
 10
4085.969910207106
 20
3949.959402227308
 30
0.0
 11
4048.469910207106
 21
3949.959402227308
 31
0.0
  0
LINE
  5
DFFE
330
C218
100
AcDbEntity
  8
寸法引出
 48
25.0
370
    -2
100
AcDbLine
 10
4280.969910207106
 20
3949.959402227308
 30
0.0
 11
4318.469910207106
 21
3949.959402227308
 31
0.0
  0
LINE
  5
DFFF
330
C218
100
AcDbEntity
  8
寸法引出
 48
25.0
370
    -2
100
AcDbLine
 10
4123.469910207106
 20
3949.959402227308
 30
0.0
 11
4243.469910207106
 21
3949.959402227308
 31
0.0
  0
SOLID
  5
E000
330
C218
100
AcDbEntity
  8
寸法引出
 48
25.0
100
AcDbTrace
 10
4085.969910207106
 20
3956.209402227308
 30
0.0
 11
4085.969910207106
 21
3943.709402227307
 31
0.0
 12
4123.469910207106
 22
3949.959402227308
 32
0.0
 13
4123.469910207106
 23
3949.959402227308
 33
0.0
  0
SOLID
  5
E001
330
C218
100
AcDbEntity
  8
寸法引出
 48
25.0
100
AcDbTrace
 10
4280.969910207106
 20
3956.209402227308
 30
0.0
 11
4280.969910207106
 21
3943.709402227307
 31
0.0
 12
4243.469910207106
 22
3949.959402227308
 32
0.0
 13
4243.469910207106
 23
3949.959402227308
 33
0.0
  0
MTEXT
  5
E002
330
C218
100
AcDbEntity
  8
寸法引出
 48
25.0
100
AcDbMText
 10
4183.469910207106
 20
3999.959402227307
 30
0.0
 40
50.0
 41
0.0
 71
     5
 72
     1
  1
\A1;120
  7
SANWA
 73
     1
 44
1.0
  0
POINT
  5
E003
330
C218
100
AcDbEntity
  8
DEFPOINTS
 62
     0
 48
25.0
100
AcDbPoint
 10
4123.469910207106
 20
3798.773926618955
 30
0.0
  0
POINT
  5
E004
330
C218
100
AcDbEntity
  8
DEFPOINTS
 62
     0
 48
25.0
100
AcDbPoint
 10
4243.469910207106
 20
3798.773926618955
 30
0.0
  0
POINT
  5
E005
330
C218
100
AcDbEntity
  8
DEFPOINTS
 62
     0
 48
25.0
100
AcDbPoint
 10
4243.469910207106
 20
3949.959402227308
 30
0.0
  0
ENDBLK
  5
C225
330
C218
100
AcDbEntity
  8
0
 48
25.0
100
AcDbBlockEnd
  0
BLOCK
  5
C232
330
C226
100
AcDbEntity
  8
0
 48
25.0
100
AcDbBlockBegin
  2
*D14
 70
     1
 10
0.0
 20
0.0
 30
0.0
  3
*D14
  1

  0
LINE
  5
DFE7
330
C226
100
AcDbEntity
  8
寸法引出
 48
25.0
370
    -2
100
AcDbLine
 10
4123.469910207106
 20
3599.273926618955
 30
0.0
 11
4123.469910207106
 21
3501.198933613192
 31
0.0
  0
LINE
  5
DFE8
330
C226
100
AcDbEntity
  8
寸法引出
 48
25.0
370
    -2
100
AcDbLine
 10
4173.469910207106
 20
3623.773926618955
 30
0.0
 11
4173.469910207106
 21
3501.198933613192
 31
0.0
  0
LINE
  5
DFE9
330
C226
100
AcDbEntity
  8
寸法引出
 48
25.0
370
    -2
100
AcDbLine
 10
4085.969910207106
 20
3513.698933613192
 30
0.0
 11
4048.469910207106
 21
3513.698933613192
 31
0.0
  0
LINE
  5
DFEA
330
C226
100
AcDbEntity
  8
寸法引出
 48
25.0
370
    -2
100
AcDbLine
 10
4210.969910207106
 20
3513.698933613192
 30
0.0
 11
4248.469910207106
 21
3513.698933613192
 31
0.0
  0
LINE
  5
DFEB
330
C226
100
AcDbEntity
  8
寸法引出
 48
25.0
370
    -2
100
AcDbLine
 10
4123.469910207106
 20
3513.698933613192
 30
0.0
 11
4173.469910207106
 21
3513.698933613192
 31
0.0
  0
SOLID
  5
DFEC
330
C226
100
AcDbEntity
  8
寸法引出
 48
25.0
100
AcDbTrace
 10
4085.969910207106
 20
3519.948933613192
 30
0.0
 11
4085.969910207106
 21
3507.448933613192
 31
0.0
 12
4123.469910207106
 22
3513.698933613192
 32
0.0
 13
4123.469910207106
 23
3513.698933613192
 33
0.0
  0
SOLID
  5
DFED
330
C226
100
AcDbEntity
  8
寸法引出
 48
25.0
100
AcDbTrace
 10
4210.969910207106
 20
3519.948933613192
 30
0.0
 11
4210.969910207106
 21
3507.448933613192
 31
0.0
 12
4173.469910207106
 22
3513.698933613192
 32
0.0
 13
4173.469910207106
 23
3513.698933613192
 33
0.0
  0
MTEXT
  5
DFEE
330
C226
100
AcDbEntity
  8
寸法引出
 48
25.0
100
AcDbMText
 10
4148.469910207106
 20
3563.698933613192
 30
0.0
 40
50.0
 41
0.0
 71
     5
 72
     1
  1
\A1;50
  7
SANWA
 73
     1
 44
1.0
  0
POINT
  5
DFEF
330
C226
100
AcDbEntity
  8
DEFPOINTS
 62
     0
 48
25.0
100
AcDbPoint
 10
4123.469910207106
 20
3624.273926618956
 30
0.0
  0
POINT
  5
DFF0
330
C226
100
AcDbEntity
  8
DEFPOINTS
 62
     0
 48
25.0
100
AcDbPoint
 10
4173.469910207106
 20
3648.773926618956
 30
0.0
  0
POINT
  5
DFF1
330
C226
100
AcDbEntity
  8
DEFPOINTS
 62
     0
 48
25.0
100
AcDbPoint
 10
4173.469910207106
 20
3513.698933613192
 30
0.0
  0
ENDBLK
  5
C233
330
C226
100
AcDbEntity
  8
0
 48
25.0
100
AcDbBlockEnd
  0
BLOCK
  5
C23E
330
C234
100
AcDbEntity
  8
0
 48
25.0
100
AcDbBlockBegin
  2
*D15
 70
     1
 10
0.0
 20
0.0
 30
0.0
  3
*D15
  1

  0
LINE
  5
DFDE
330
C234
100
AcDbEntity
  8
寸法引出
 48
25.0
370
    -2
100
AcDbLine
 10
4098.469910207106
 20
3648.773926618956
 30
0.0
 11
3983.737552926137
 21
3648.773926618956
 31
0.0
  0
LINE
  5
DFDF
330
C234
100
AcDbEntity
  8
寸法引出
 48
25.0
370
    -2
100
AcDbLine
 10
4098.469910207106
 20
3798.773926618955
 30
0.0
 11
3983.737552926137
 21
3798.773926618955
 31
0.0
  0
LINE
  5
DFE0
330
C234
100
AcDbEntity
  8
寸法引出
 48
25.0
370
    -2
100
AcDbLine
 10
3996.237552926137
 20
3686.273926618955
 30
0.0
 11
3996.237552926137
 21
3761.273926618955
 31
0.0
  0
SOLID
  5
DFE1
330
C234
100
AcDbEntity
  8
寸法引出
 48
25.0
100
AcDbTrace
 10
3989.987552926137
 20
3686.273926618955
 30
0.0
 11
4002.487552926137
 21
3686.273926618955
 31
0.0
 12
3996.237552926137
 22
3648.773926618956
 32
0.0
 13
3996.237552926137
 23
3648.773926618956
 33
0.0
  0
SOLID
  5
DFE2
330
C234
100
AcDbEntity
  8
寸法引出
 48
25.0
100
AcDbTrace
 10
3989.987552926137
 20
3761.273926618955
 30
0.0
 11
4002.487552926137
 21
3761.273926618955
 31
0.0
 12
3996.237552926137
 22
3798.773926618955
 32
0.0
 13
3996.237552926137
 23
3798.773926618955
 33
0.0
  0
MTEXT
  5
DFE3
330
C234
100
AcDbEntity
  8
寸法引出
 48
25.0
100
AcDbMText
 10
3946.237552926136
 20
3723.773926618956
 30
0.0
 40
50.0
 41
0.0
 71
     5
 72
     1
  1
\A1;150
  7
SANWA
 11
0.0000000000000001
 21
1.0
 31
0.0
 73
     1
 44
1.0
  0
POINT
  5
DFE4
330
C234
100
AcDbEntity
  8
DEFPOINTS
 62
     0
 48
25.0
100
AcDbPoint
 10
4123.469910207106
 20
3648.773926618956
 30
0.0
  0
POINT
  5
DFE5
330
C234
100
AcDbEntity
  8
DEFPOINTS
 62
     0
 48
25.0
100
AcDbPoint
 10
4123.469910207106
 20
3798.773926618955
 30
0.0
  0
POINT
  5
DFE6
330
C234
100
AcDbEntity
  8
DEFPOINTS
 62
     0
 48
25.0
100
AcDbPoint
 10
3996.237552926137
 20
3798.773926618955
 30
0.0
  0
ENDBLK
  5
C23F
330
C234
100
AcDbEntity
  8
0
 48
25.0
100
AcDbBlockEnd
  0
BLOCK
  5
C24A
330
C240
100
AcDbEntity
  8
0
 48
25.0
100
AcDbBlockBegin
  2
*D16
 70
     1
 10
0.0
 20
0.0
 30
0.0
  3
*D16
  1

  0
LINE
  5
E006
330
C240
100
AcDbEntity
  8
寸法引出
 48
25.0
370
    -2
100
AcDbLine
 10
5003.469910207106
 20
3823.773926618955
 30
0.0
 11
5003.469910207106
 21
3962.459402227308
 31
0.0
  0
LINE
  5
E007
330
C240
100
AcDbEntity
  8
寸法引出
 48
25.0
370
    -2
100
AcDbLine
 10
5243.469910207107
 20
3823.773926618955
 30
0.0
 11
5243.469910207107
 21
3962.459402227308
 31
0.0
  0
LINE
  5
E008
330
C240
100
AcDbEntity
  8
寸法引出
 48
25.0
370
    -2
100
AcDbLine
 10
5040.969910207106
 20
3949.959402227308
 30
0.0
 11
5205.969910207106
 21
3949.959402227308
 31
0.0
  0
SOLID
  5
E009
330
C240
100
AcDbEntity
  8
寸法引出
 48
25.0
100
AcDbTrace
 10
5040.969910207106
 20
3956.209402227308
 30
0.0
 11
5040.969910207106
 21
3943.709402227307
 31
0.0
 12
5003.469910207106
 22
3949.959402227308
 32
0.0
 13
5003.469910207106
 23
3949.959402227308
 33
0.0
  0
SOLID
  5
E00A
330
C240
100
AcDbEntity
  8
寸法引出
 48
25.0
100
AcDbTrace
 10
5205.969910207106
 20
3956.209402227308
 30
0.0
 11
5205.969910207106
 21
3943.709402227307
 31
0.0
 12
5243.469910207107
 22
3949.959402227308
 32
0.0
 13
5243.469910207107
 23
3949.959402227308
 33
0.0
  0
MTEXT
  5
E00B
330
C240
100
AcDbEntity
  8
寸法引出
 48
25.0
100
AcDbMText
 10
5123.469910207106
 20
3999.959402227307
 30
0.0
 40
50.0
 41
0.0
 71
     5
 72
     1
  1
\A1;240
  7
SANWA
 73
     1
 44
1.0
  0
POINT
  5
E00C
330
C240
100
AcDbEntity
  8
DEFPOINTS
 62
     0
 48
25.0
100
AcDbPoint
 10
5003.469910207106
 20
3798.773926618955
 30
0.0
  0
POINT
  5
E00D
330
C240
100
AcDbEntity
  8
DEFPOINTS
 62
     0
 48
25.0
100
AcDbPoint
 10
5243.469910207107
 20
3798.773926618955
 30
0.0
  0
POINT
  5
E00E
330
C240
100
AcDbEntity
  8
DEFPOINTS
 62
     0
 48
25.0
100
AcDbPoint
 10
5243.469910207107
 20
3949.959402227308
 30
0.0
  0
ENDBLK
  5
C24B
330
C240
100
AcDbEntity
  8
0
 48
25.0
100
AcDbBlockEnd
  0
BLOCK
  5
C258
330
C24C
100
AcDbEntity
  8
0
 48
25.0
100
AcDbBlockBegin
  2
*D17
 70
     1
 10
0.0
 20
0.0
 30
0.0
  3
*D17
  1

  0
LINE
  5
E00F
330
C24C
100
AcDbEntity
  8
寸法引出
 48
25.0
370
    -2
100
AcDbLine
 10
6003.469910207106
 20
3823.773926618955
 30
0.0
 11
6003.469910207106
 21
3962.459402227308
 31
0.0
  0
LINE
  5
E010
330
C24C
100
AcDbEntity
  8
寸法引出
 48
25.0
370
    -2
100
AcDbLine
 10
6123.469910207106
 20
3823.773926618955
 30
0.0
 11
6123.469910207106
 21
3962.459402227308
 31
0.0
  0
LINE
  5
E011
330
C24C
100
AcDbEntity
  8
寸法引出
 48
25.0
370
    -2
100
AcDbLine
 10
5965.969910207107
 20
3949.959402227308
 30
0.0
 11
5928.469910207106
 21
3949.959402227308
 31
0.0
  0
LINE
  5
E012
330
C24C
100
AcDbEntity
  8
寸法引出
 48
25.0
370
    -2
100
AcDbLine
 10
6160.969910207106
 20
3949.959402227308
 30
0.0
 11
6198.469910207106
 21
3949.959402227308
 31
0.0
  0
LINE
  5
E013
330
C24C
100
AcDbEntity
  8
寸法引出
 48
25.0
370
    -2
100
AcDbLine
 10
6003.469910207106
 20
3949.959402227308
 30
0.0
 11
6123.469910207106
 21
3949.959402227308
 31
0.0
  0
SOLID
  5
E014
330
C24C
100
AcDbEntity
  8
寸法引出
 48
25.0
100
AcDbTrace
 10
5965.969910207107
 20
3956.209402227308
 30
0.0
 11
5965.969910207107
 21
3943.709402227307
 31
0.0
 12
6003.469910207106
 22
3949.959402227308
 32
0.0
 13
6003.469910207106
 23
3949.959402227308
 33
0.0
  0
SOLID
  5
E015
330
C24C
100
AcDbEntity
  8
寸法引出
 48
25.0
100
AcDbTrace
 10
6160.969910207106
 20
3956.209402227308
 30
0.0
 11
6160.969910207106
 21
3943.709402227307
 31
0.0
 12
6123.469910207106
 22
3949.959402227308
 32
0.0
 13
6123.469910207106
 23
3949.959402227308
 33
0.0
  0
MTEXT
  5
E016
330
C24C
100
AcDbEntity
  8
寸法引出
 48
25.0
100
AcDbMText
 10
6063.469910207107
 20
3999.959402227307
 30
0.0
 40
50.0
 41
0.0
 71
     5
 72
     1
  1
\A1;120
  7
SANWA
 73
     1
 44
1.0
  0
POINT
  5
E017
330
C24C
100
AcDbEntity
  8
DEFPOINTS
 62
     0
 48
25.0
100
AcDbPoint
 10
6003.469910207106
 20
3798.773926618955
 30
0.0
  0
POINT
  5
E018
330
C24C
100
AcDbEntity
  8
DEFPOINTS
 62
     0
 48
25.0
100
AcDbPoint
 10
6123.469910207106
 20
3798.773926618955
 30
0.0
  0
POINT
  5
E019
330
C24C
100
AcDbEntity
  8
DEFPOINTS
 62
     0
 48
25.0
100
AcDbPoint
 10
6123.469910207106
 20
3949.959402227308
 30
0.0
  0
ENDBLK
  5
C259
330
C24C
100
AcDbEntity
  8
0
 48
25.0
100
AcDbBlockEnd
  0
BLOCK
  5
C288
330
C27E
100
AcDbEntity
  8
0
 48
25.0
100
AcDbBlockBegin
  2
*D18
 70
     1
 10
0.0
 20
0.0
 30
0.0
  3
*D18
  1

  0
LINE
  5
DF25
330
C27E
100
AcDbEntity
  8
寸法引出
 48
25.0
370
    -2
100
AcDbLine
 10
2045.396231580059
 20
814.2698599818295
 30
0.0
 11
2045.396231580059
 21
726.0480752025205
 31
0.0
  0
LINE
  5
DF26
330
C27E
100
AcDbEntity
  8
寸法引出
 48
25.0
370
    -2
100
AcDbLine
 10
2195.39623158006
 20
887.7698599818295
 30
0.0
 11
2195.39623158006
 21
726.0480752025205
 31
0.0
  0
LINE
  5
DF27
330
C27E
100
AcDbEntity
  8
寸法引出
 48
25.0
370
    -2
100
AcDbLine
 10
2082.896231580059
 20
738.5480752025205
 30
0.0
 11
2157.89623158006
 21
738.5480752025205
 31
0.0
  0
SOLID
  5
DF28
330
C27E
100
AcDbEntity
  8
寸法引出
 48
25.0
100
AcDbTrace
 10
2082.896231580059
 20
744.7980752025205
 30
0.0
 11
2082.896231580059
 21
732.2980752025205
 31
0.0
 12
2045.396231580059
 22
738.5480752025205
 32
0.0
 13
2045.396231580059
 23
738.5480752025205
 33
0.0
  0
SOLID
  5
DF29
330
C27E
100
AcDbEntity
  8
寸法引出
 48
25.0
100
AcDbTrace
 10
2157.89623158006
 20
744.7980752025205
 30
0.0
 11
2157.89623158006
 21
732.2980752025205
 31
0.0
 12
2195.39623158006
 22
738.5480752025205
 32
0.0
 13
2195.39623158006
 23
738.5480752025205
 33
0.0
  0
MTEXT
  5
DF2A
330
C27E
100
AcDbEntity
  8
寸法引出
 48
25.0
100
AcDbMText
 10
2120.396231580059
 20
788.5480752025205
 30
0.0
 40
50.0
 41
0.0
 71
     5
 72
     1
  1
\A1;50
  7
SANWA
 73
     1
 44
1.0
  0
POINT
  5
DF2B
330
C27E
100
AcDbEntity
  8
DEFPOINTS
 62
     0
 48
25.0
100
AcDbPoint
 10
2045.396231580059
 20
839.2698599818295
 30
0.0
  0
POINT
  5
DF2C
330
C27E
100
AcDbEntity
  8
DEFPOINTS
 62
     0
 48
25.0
100
AcDbPoint
 10
2195.39623158006
 20
912.7698599818295
 30
0.0
  0
POINT
  5
DF2D
330
C27E
100
AcDbEntity
  8
DEFPOINTS
 62
     0
 48
25.0
100
AcDbPoint
 10
2195.39623158006
 20
738.5480752025205
 30
0.0
  0
ENDBLK
  5
C289
330
C27E
100
AcDbEntity
  8
0
 48
25.0
100
AcDbBlockEnd
  0
BLOCK
  5
C71F
330
C715
100
AcDbEntity
  8
0
 48
25.0
100
AcDbBlockBegin
  2
*D19
 70
     1
 10
0.0
 20
0.0
 30
0.0
  3
*D19
  1

  0
LINE
  5
DF08
330
C715
100
AcDbEntity
  8
寸法引出
 48
25.0
370
    -2
100
AcDbLine
 10
2530.124842940757
 20
3798.773926618955
 30
0.0
 11
2670.692684148191
 21
3798.773926618955
 31
0.0
  0
LINE
  5
DF09
330
C715
100
AcDbEntity
  8
寸法引出
 48
25.0
370
    -2
100
AcDbLine
 10
2530.124842940757
 20
2098.773926618953
 30
0.0
 11
2670.692684148191
 21
2098.773926618953
 31
0.0
  0
LINE
  5
DF0A
330
C715
100
AcDbEntity
  8
寸法引出
 48
25.0
370
    -2
100
AcDbLine
 10
2658.192684148191
 20
3761.273926618954
 30
0.0
 11
2658.192684148191
 21
2136.273926618953
 31
0.0
  0
SOLID
  5
DF0B
330
C715
100
AcDbEntity
  8
寸法引出
 48
25.0
100
AcDbTrace
 10
2651.942684148191
 20
3761.273926618954
 30
0.0
 11
2664.442684148191
 21
3761.273926618954
 31
0.0
 12
2658.192684148191
 22
3798.773926618955
 32
0.0
 13
2658.192684148191
 23
3798.773926618955
 33
0.0
  0
SOLID
  5
DF0C
330
C715
100
AcDbEntity
  8
寸法引出
 48
25.0
100
AcDbTrace
 10
2651.942684148191
 20
2136.273926618953
 30
0.0
 11
2664.442684148191
 21
2136.273926618953
 31
0.0
 12
2658.192684148191
 22
2098.773926618953
 32
0.0
 13
2658.192684148191
 23
2098.773926618953
 33
0.0
  0
MTEXT
  5
DF0D
330
C715
100
AcDbEntity
  8
寸法引出
 48
25.0
100
AcDbMText
 10
2608.19268414819
 20
2948.773926618954
 30
0.0
 40
50.0
 41
0.0
 71
     5
 72
     1
  1
\A1;1700
  7
SANWA
 11
0.0000000000000001
 21
1.0
 31
0.0
 73
     1
 44
1.0
  0
POINT
  5
DF0E
330
C715
100
AcDbEntity
  8
DEFPOINTS
 62
     0
 48
25.0
100
AcDbPoint
 10
2505.124842940757
 20
3798.773926618955
 30
0.0
  0
POINT
  5
DF0F
330
C715
100
AcDbEntity
  8
DEFPOINTS
 62
     0
 48
25.0
100
AcDbPoint
 10
2505.124842940757
 20
2098.773926618953
 30
0.0
  0
POINT
  5
DF10
330
C715
100
AcDbEntity
  8
DEFPOINTS
 62
     0
 48
25.0
100
AcDbPoint
 10
2658.192684148191
 20
2098.773926618953
 30
0.0
  0
ENDBLK
  5
C720
330
C715
100
AcDbEntity
  8
0
 48
25.0
100
AcDbBlockEnd
  0
BLOCK
  5
C72B
330
C721
100
AcDbEntity
  8
0
 48
25.0
100
AcDbBlockBegin
  2
*D20
 70
     1
 10
0.0
 20
0.0
 30
0.0
  3
*D20
  1

  0
LINE
  5
DF11
330
C721
100
AcDbEntity
  8
寸法引出
 48
25.0
370
    -2
100
AcDbLine
 10
2530.124842940757
 20
3798.773926618955
 30
0.0
 11
2821.311983659325
 21
3798.773926618955
 31
0.0
  0
LINE
  5
DF12
330
C721
100
AcDbEntity
  8
寸法引出
 48
25.0
370
    -2
100
AcDbLine
 10
2500.124842940753
 20
1973.773926618953
 30
0.0
 11
2821.311983659325
 21
1973.773926618953
 31
0.0
  0
LINE
  5
DF13
330
C721
100
AcDbEntity
  8
寸法引出
 48
25.0
370
    -2
100
AcDbLine
 10
2808.811983659325
 20
3761.273926618954
 30
0.0
 11
2808.811983659325
 21
2011.273926618953
 31
0.0
  0
SOLID
  5
DF14
330
C721
100
AcDbEntity
  8
寸法引出
 48
25.0
100
AcDbTrace
 10
2802.561983659325
 20
3761.273926618954
 30
0.0
 11
2815.061983659325
 21
3761.273926618954
 31
0.0
 12
2808.811983659325
 22
3798.773926618955
 32
0.0
 13
2808.811983659325
 23
3798.773926618955
 33
0.0
  0
SOLID
  5
DF15
330
C721
100
AcDbEntity
  8
寸法引出
 48
25.0
100
AcDbTrace
 10
2802.561983659325
 20
2011.273926618953
 30
0.0
 11
2815.061983659325
 21
2011.273926618953
 31
0.0
 12
2808.811983659325
 22
1973.773926618953
 32
0.0
 13
2808.811983659325
 23
1973.773926618953
 33
0.0
  0
MTEXT
  5
DF16
330
C721
100
AcDbEntity
  8
寸法引出
 48
25.0
100
AcDbMText
 10
2758.811983659324
 20
2886.273926618954
 30
0.0
 40
50.0
 41
0.0
 71
     5
 72
     1
  1
\A1;1825
  7
SANWA
 11
0.0000000000000001
 21
1.0
 31
0.0
 73
     1
 44
1.0
  0
POINT
  5
DF17
330
C721
100
AcDbEntity
  8
DEFPOINTS
 62
     0
 48
25.0
100
AcDbPoint
 10
2505.124842940757
 20
3798.773926618955
 30
0.0
  0
POINT
  5
DF18
330
C721
100
AcDbEntity
  8
DEFPOINTS
 62
     0
 48
25.0
100
AcDbPoint
 10
2475.124842940753
 20
1973.773926618953
 30
0.0
  0
POINT
  5
DF19
330
C721
100
AcDbEntity
  8
DEFPOINTS
 62
     0
 48
25.0
100
AcDbPoint
 10
2808.811983659325
 20
1973.773926618953
 30
0.0
  0
ENDBLK
  5
C72C
330
C721
100
AcDbEntity
  8
0
 48
25.0
100
AcDbBlockEnd
  0
BLOCK
  5
C739
330
C72D
100
AcDbEntity
  8
0
 48
25.0
100
AcDbBlockBegin
  2
*D21
 70
     1
 10
0.0
 20
0.0
 30
0.0
  3
*D21
  1

  0
LINE
  5
DF1A
330
C72D
100
AcDbEntity
  8
寸法引出
 48
25.0
370
    -2
100
AcDbLine
 10
2530.124842940757
 20
2098.773926618953
 30
0.0
 11
2670.692684148191
 21
2098.773926618953
 31
0.0
  0
LINE
  5
DF1B
330
C72D
100
AcDbEntity
  8
寸法引出
 48
25.0
370
    -2
100
AcDbLine
 10
2500.124842940753
 20
1973.773926618953
 30
0.0
 11
2670.692684148191
 21
1973.773926618953
 31
0.0
  0
LINE
  5
DF1C
330
C72D
100
AcDbEntity
  8
寸法引出
 48
25.0
370
    -2
100
AcDbLine
 10
2658.192684148191
 20
2136.273926618953
 30
0.0
 11
2658.192684148191
 21
2173.773926618953
 31
0.0
  0
LINE
  5
DF1D
330
C72D
100
AcDbEntity
  8
寸法引出
 48
25.0
370
    -2
100
AcDbLine
 10
2658.192684148191
 20
1936.273926618953
 30
0.0
 11
2658.192684148191
 21
1898.773926618953
 31
0.0
  0
LINE
  5
DF1E
330
C72D
100
AcDbEntity
  8
寸法引出
 48
25.0
370
    -2
100
AcDbLine
 10
2658.192684148191
 20
2098.773926618953
 30
0.0
 11
2658.192684148191
 21
1973.773926618953
 31
0.0
  0
SOLID
  5
DF1F
330
C72D
100
AcDbEntity
  8
寸法引出
 48
25.0
100
AcDbTrace
 10
2651.942684148191
 20
2136.273926618953
 30
0.0
 11
2664.442684148191
 21
2136.273926618953
 31
0.0
 12
2658.192684148191
 22
2098.773926618953
 32
0.0
 13
2658.192684148191
 23
2098.773926618953
 33
0.0
  0
SOLID
  5
DF20
330
C72D
100
AcDbEntity
  8
寸法引出
 48
25.0
100
AcDbTrace
 10
2651.942684148191
 20
1936.273926618953
 30
0.0
 11
2664.442684148191
 21
1936.273926618953
 31
0.0
 12
2658.192684148191
 22
1973.773926618953
 32
0.0
 13
2658.192684148191
 23
1973.773926618953
 33
0.0
  0
MTEXT
  5
DF21
330
C72D
100
AcDbEntity
  8
寸法引出
 48
25.0
100
AcDbMText
 10
2608.19268414819
 20
2036.273926618953
 30
0.0
 40
50.0
 41
0.0
 71
     5
 72
     1
  1
\A1;125
  7
SANWA
 11
0.0000000000000001
 21
1.0
 31
0.0
 73
     1
 44
1.0
  0
POINT
  5
DF22
330
C72D
100
AcDbEntity
  8
DEFPOINTS
 62
     0
 48
25.0
100
AcDbPoint
 10
2505.124842940757
 20
2098.773926618953
 30
0.0
  0
POINT
  5
DF23
330
C72D
100
AcDbEntity
  8
DEFPOINTS
 62
     0
 48
25.0
100
AcDbPoint
 10
2475.124842940753
 20
1973.773926618953
 30
0.0
  0
POINT
  5
DF24
330
C72D
100
AcDbEntity
  8
DEFPOINTS
 62
     0
 48
25.0
100
AcDbPoint
 10
2658.192684148191
 20
1973.773926618953
 30
0.0
  0
ENDBLK
  5
C73A
330
C72D
100
AcDbEntity
  8
0
 48
25.0
100
AcDbBlockEnd
  0
BLOCK
  5
C747
330
C73B
100
AcDbEntity
  8
0
 48
25.0
100
AcDbBlockBegin
  2
*D22
 70
     1
 10
0.0
 20
0.0
 30
0.0
  3
*D22
  1

  0
LINE
  5
DF5F
330
C73B
100
AcDbEntity
  8
寸法引出
 48
25.0
370
    -2
100
AcDbLine
 10
2105.124842940756
 20
3823.773926618954
 30
0.0
 11
2105.124842940756
 21
3962.459402227308
 31
0.0
  0
LINE
  5
DF60
330
C73B
100
AcDbEntity
  8
寸法引出
 48
25.0
370
    -2
100
AcDbLine
 10
2155.124842940757
 20
3823.773926618954
 30
0.0
 11
2155.124842940757
 21
3962.459402227308
 31
0.0
  0
LINE
  5
DF61
330
C73B
100
AcDbEntity
  8
寸法引出
 48
25.0
370
    -2
100
AcDbLine
 10
2067.624842940757
 20
3949.959402227308
 30
0.0
 11
2030.124842940757
 21
3949.959402227308
 31
0.0
  0
LINE
  5
DF62
330
C73B
100
AcDbEntity
  8
寸法引出
 48
25.0
370
    -2
100
AcDbLine
 10
2192.624842940757
 20
3949.959402227308
 30
0.0
 11
2230.124842940756
 21
3949.959402227308
 31
0.0
  0
LINE
  5
DF63
330
C73B
100
AcDbEntity
  8
寸法引出
 48
25.0
370
    -2
100
AcDbLine
 10
2105.124842940756
 20
3949.959402227308
 30
0.0
 11
2155.124842940757
 21
3949.959402227308
 31
0.0
  0
SOLID
  5
DF64
330
C73B
100
AcDbEntity
  8
寸法引出
 48
25.0
100
AcDbTrace
 10
2067.624842940757
 20
3956.209402227308
 30
0.0
 11
2067.624842940757
 21
3943.709402227307
 31
0.0
 12
2105.124842940756
 22
3949.959402227308
 32
0.0
 13
2105.124842940756
 23
3949.959402227308
 33
0.0
  0
SOLID
  5
DF65
330
C73B
100
AcDbEntity
  8
寸法引出
 48
25.0
100
AcDbTrace
 10
2192.624842940757
 20
3956.209402227308
 30
0.0
 11
2192.624842940757
 21
3943.709402227307
 31
0.0
 12
2155.124842940757
 22
3949.959402227308
 32
0.0
 13
2155.124842940757
 23
3949.959402227308
 33
0.0
  0
MTEXT
  5
DF66
330
C73B
100
AcDbEntity
  8
寸法引出
 48
25.0
100
AcDbMText
 10
2130.124842940757
 20
3999.959402227307
 30
0.0
 40
50.0
 41
0.0
 71
     5
 72
     1
  1
\A1;50
  7
SANWA
 73
     1
 44
1.0
  0
POINT
  5
DF67
330
C73B
100
AcDbEntity
  8
DEFPOINTS
 62
     0
 48
25.0
100
AcDbPoint
 10
2105.124842940756
 20
3798.773926618955
 30
0.0
  0
POINT
  5
DF68
330
C73B
100
AcDbEntity
  8
DEFPOINTS
 62
     0
 48
25.0
100
AcDbPoint
 10
2155.124842940757
 20
3798.773926618955
 30
0.0
  0
POINT
  5
DF69
330
C73B
100
AcDbEntity
  8
DEFPOINTS
 62
     0
 48
25.0
100
AcDbPoint
 10
2155.124842940757
 20
3949.959402227308
 30
0.0
  0
ENDBLK
  5
C748
330
C73B
100
AcDbEntity
  8
0
 48
25.0
100
AcDbBlockEnd
  0
BLOCK
  5
C753
330
C749
100
AcDbEntity
  8
0
 48
25.0
100
AcDbBlockBegin
  2
*D23
 70
     1
 10
0.0
 20
0.0
 30
0.0
  3
*D23
  1

  0
LINE
  5
DF6A
330
C749
100
AcDbEntity
  8
寸法引出
 48
25.0
370
    -2
100
AcDbLine
 10
2155.124842940757
 20
3823.773926618954
 30
0.0
 11
2155.124842940757
 21
3962.459402227308
 31
0.0
  0
LINE
  5
DF6B
330
C749
100
AcDbEntity
  8
寸法引出
 48
25.0
370
    -2
100
AcDbLine
 10
2455.124842940756
 20
3823.773926618954
 30
0.0
 11
2455.124842940756
 21
3962.459402227308
 31
0.0
  0
LINE
  5
DF6C
330
C749
100
AcDbEntity
  8
寸法引出
 48
25.0
370
    -2
100
AcDbLine
 10
2192.624842940757
 20
3949.959402227308
 30
0.0
 11
2417.624842940757
 21
3949.959402227308
 31
0.0
  0
SOLID
  5
DF6D
330
C749
100
AcDbEntity
  8
寸法引出
 48
25.0
100
AcDbTrace
 10
2192.624842940757
 20
3956.209402227308
 30
0.0
 11
2192.624842940757
 21
3943.709402227307
 31
0.0
 12
2155.124842940757
 22
3949.959402227308
 32
0.0
 13
2155.124842940757
 23
3949.959402227308
 33
0.0
  0
SOLID
  5
DF6E
330
C749
100
AcDbEntity
  8
寸法引出
 48
25.0
100
AcDbTrace
 10
2417.624842940757
 20
3956.209402227308
 30
0.0
 11
2417.624842940757
 21
3943.709402227307
 31
0.0
 12
2455.124842940756
 22
3949.959402227308
 32
0.0
 13
2455.124842940756
 23
3949.959402227308
 33
0.0
  0
MTEXT
  5
DF6F
330
C749
100
AcDbEntity
  8
寸法引出
 48
25.0
100
AcDbMText
 10
2305.124842940756
 20
3999.959402227307
 30
0.0
 40
50.0
 41
0.0
 71
     5
 72
     1
  1
\A1;300
  7
SANWA
 73
     1
 44
1.0
  0
POINT
  5
DF70
330
C749
100
AcDbEntity
  8
DEFPOINTS
 62
     0
 48
25.0
100
AcDbPoint
 10
2155.124842940757
 20
3798.773926618955
 30
0.0
  0
POINT
  5
DF71
330
C749
100
AcDbEntity
  8
DEFPOINTS
 62
     0
 48
25.0
100
AcDbPoint
 10
2455.124842940756
 20
3798.773926618955
 30
0.0
  0
POINT
  5
DF72
330
C749
100
AcDbEntity
  8
DEFPOINTS
 62
     0
 48
25.0
100
AcDbPoint
 10
2455.124842940756
 20
3949.959402227308
 30
0.0
  0
ENDBLK
  5
C754
330
C749
100
AcDbEntity
  8
0
 48
25.0
100
AcDbBlockEnd
  0
BLOCK
  5
C761
330
C755
100
AcDbEntity
  8
0
 48
25.0
100
AcDbBlockBegin
  2
*D24
 70
     1
 10
0.0
 20
0.0
 30
0.0
  3
*D24
  1

  0
LINE
  5
DF73
330
C755
100
AcDbEntity
  8
寸法引出
 48
25.0
370
    -2
100
AcDbLine
 10
2455.124842940756
 20
3823.773926618954
 30
0.0
 11
2455.124842940756
 21
3962.459402227308
 31
0.0
  0
LINE
  5
DF74
330
C755
100
AcDbEntity
  8
寸法引出
 48
25.0
370
    -2
100
AcDbLine
 10
2505.124842940757
 20
3823.773926618954
 30
0.0
 11
2505.124842940757
 21
3962.459402227308
 31
0.0
  0
LINE
  5
DF75
330
C755
100
AcDbEntity
  8
寸法引出
 48
25.0
370
    -2
100
AcDbLine
 10
2417.624842940757
 20
3949.959402227308
 30
0.0
 11
2380.124842940757
 21
3949.959402227308
 31
0.0
  0
LINE
  5
DF76
330
C755
100
AcDbEntity
  8
寸法引出
 48
25.0
370
    -2
100
AcDbLine
 10
2542.624842940757
 20
3949.959402227308
 30
0.0
 11
2580.124842940756
 21
3949.959402227308
 31
0.0
  0
LINE
  5
DF77
330
C755
100
AcDbEntity
  8
寸法引出
 48
25.0
370
    -2
100
AcDbLine
 10
2455.124842940756
 20
3949.959402227308
 30
0.0
 11
2505.124842940757
 21
3949.959402227308
 31
0.0
  0
SOLID
  5
DF78
330
C755
100
AcDbEntity
  8
寸法引出
 48
25.0
100
AcDbTrace
 10
2417.624842940757
 20
3956.209402227308
 30
0.0
 11
2417.624842940757
 21
3943.709402227307
 31
0.0
 12
2455.124842940756
 22
3949.959402227308
 32
0.0
 13
2455.124842940756
 23
3949.959402227308
 33
0.0
  0
SOLID
  5
DF79
330
C755
100
AcDbEntity
  8
寸法引出
 48
25.0
100
AcDbTrace
 10
2542.624842940757
 20
3956.209402227308
 30
0.0
 11
2542.624842940757
 21
3943.709402227307
 31
0.0
 12
2505.124842940757
 22
3949.959402227308
 32
0.0
 13
2505.124842940757
 23
3949.959402227308
 33
0.0
  0
MTEXT
  5
DF7A
330
C755
100
AcDbEntity
  8
寸法引出
 48
25.0
100
AcDbMText
 10
2480.124842940757
 20
3999.959402227307
 30
0.0
 40
50.0
 41
0.0
 71
     5
 72
     1
  1
\A1;50
  7
SANWA
 73
     1
 44
1.0
  0
POINT
  5
DF7B
330
C755
100
AcDbEntity
  8
DEFPOINTS
 62
     0
 48
25.0
100
AcDbPoint
 10
2455.124842940756
 20
3798.773926618955
 30
0.0
  0
POINT
  5
DF7C
330
C755
100
AcDbEntity
  8
DEFPOINTS
 62
     0
 48
25.0
100
AcDbPoint
 10
2505.124842940757
 20
3798.773926618955
 30
0.0
  0
POINT
  5
DF7D
330
C755
100
AcDbEntity
  8
DEFPOINTS
 62
     0
 48
25.0
100
AcDbPoint
 10
2505.124842940757
 20
3949.959402227308
 30
0.0
  0
ENDBLK
  5
C762
330
C755
100
AcDbEntity
  8
0
 48
25.0
100
AcDbBlockEnd
  0
BLOCK
  5
C76D
330
C763
100
AcDbEntity
  8
0
 48
25.0
100
AcDbBlockBegin
  2
*D25
 70
     1
 10
0.0
 20
0.0
 30
0.0
  3
*D25
  1

  0
LINE
  5
DF7E
330
C763
100
AcDbEntity
  8
寸法引出
 48
25.0
370
    -2
100
AcDbLine
 10
2105.124842940756
 20
3823.773926618954
 30
0.0
 11
2105.124842940756
 21
4093.021401025288
 31
0.0
  0
LINE
  5
DF7F
330
C763
100
AcDbEntity
  8
寸法引出
 48
25.0
370
    -2
100
AcDbLine
 10
2505.124842940757
 20
3823.773926618954
 30
0.0
 11
2505.124842940757
 21
4093.021401025288
 31
0.0
  0
LINE
  5
DF80
330
C763
100
AcDbEntity
  8
寸法引出
 48
25.0
370
    -2
100
AcDbLine
 10
2142.624842940756
 20
4080.521401025288
 30
0.0
 11
2467.624842940757
 21
4080.521401025288
 31
0.0
  0
SOLID
  5
DF81
330
C763
100
AcDbEntity
  8
寸法引出
 48
25.0
100
AcDbTrace
 10
2142.624842940756
 20
4086.771401025288
 30
0.0
 11
2142.624842940756
 21
4074.271401025288
 31
0.0
 12
2105.124842940756
 22
4080.521401025288
 32
0.0
 13
2105.124842940756
 23
4080.521401025288
 33
0.0
  0
SOLID
  5
DF82
330
C763
100
AcDbEntity
  8
寸法引出
 48
25.0
100
AcDbTrace
 10
2467.624842940757
 20
4086.771401025288
 30
0.0
 11
2467.624842940757
 21
4074.271401025288
 31
0.0
 12
2505.124842940757
 22
4080.521401025288
 32
0.0
 13
2505.124842940757
 23
4080.521401025288
 33
0.0
  0
MTEXT
  5
DF83
330
C763
100
AcDbEntity
  8
寸法引出
 48
25.0
100
AcDbMText
 10
2305.124842940756
 20
4130.521401025288
 30
0.0
 40
50.0
 41
0.0
 71
     5
 72
     1
  1
\A1;400
  7
SANWA
 73
     1
 44
1.0
  0
POINT
  5
DF84
330
C763
100
AcDbEntity
  8
DEFPOINTS
 62
     0
 48
25.0
100
AcDbPoint
 10
2105.124842940756
 20
3798.773926618955
 30
0.0
  0
POINT
  5
DF85
330
C763
100
AcDbEntity
  8
DEFPOINTS
 62
     0
 48
25.0
100
AcDbPoint
 10
2505.124842940757
 20
3798.773926618955
 30
0.0
  0
POINT
  5
DF86
330
C763
100
AcDbEntity
  8
DEFPOINTS
 62
     0
 48
25.0
100
AcDbPoint
 10
2505.124842940757
 20
4080.521401025288
 30
0.0
  0
ENDBLK
  5
C76E
330
C763
100
AcDbEntity
  8
0
 48
25.0
100
AcDbBlockEnd
  0
BLOCK
  5
C84A
330
C840
100
AcDbEntity
  8
0
 48
25.0
100
AcDbBlockBegin
  2
*D26
 70
     1
 10
0.0
 20
0.0
 30
0.0
  3
*D26
  1

  0
LINE
  5
DF56
330
C840
100
AcDbEntity
  8
寸法引出
 48
25.0
370
    -2
100
AcDbLine
 10
2080.124842940756
 20
3798.773926618955
 30
0.0
 11
1957.629864571674
 21
3798.773926618955
 31
0.0
  0
LINE
  5
DF57
330
C840
100
AcDbEntity
  8
寸法引出
 48
25.0
370
    -2
100
AcDbLine
 10
2080.124842940756
 20
3648.773926618956
 30
0.0
 11
1957.629864571674
 21
3648.773926618956
 31
0.0
  0
LINE
  5
DF58
330
C840
100
AcDbEntity
  8
寸法引出
 48
25.0
370
    -2
100
AcDbLine
 10
1970.129864571674
 20
3761.273926618955
 30
0.0
 11
1970.129864571674
 21
3686.273926618955
 31
0.0
  0
SOLID
  5
DF59
330
C840
100
AcDbEntity
  8
寸法引出
 48
25.0
100
AcDbTrace
 10
1963.879864571674
 20
3761.273926618955
 30
0.0
 11
1976.379864571674
 21
3761.273926618955
 31
0.0
 12
1970.129864571674
 22
3798.773926618955
 32
0.0
 13
1970.129864571674
 23
3798.773926618955
 33
0.0
  0
SOLID
  5
DF5A
330
C840
100
AcDbEntity
  8
寸法引出
 48
25.0
100
AcDbTrace
 10
1963.879864571674
 20
3686.273926618955
 30
0.0
 11
1976.379864571674
 21
3686.273926618955
 31
0.0
 12
1970.129864571674
 22
3648.773926618956
 32
0.0
 13
1970.129864571674
 23
3648.773926618956
 33
0.0
  0
MTEXT
  5
DF5B
330
C840
100
AcDbEntity
  8
寸法引出
 48
25.0
100
AcDbMText
 10
1920.129864571673
 20
3723.773926618956
 30
0.0
 40
50.0
 41
0.0
 71
     5
 72
     1
  1
\A1;150
  7
SANWA
 11
0.0000000000000001
 21
1.0
 31
0.0
 73
     1
 44
1.0
  0
POINT
  5
DF5C
330
C840
100
AcDbEntity
  8
DEFPOINTS
 62
     0
 48
25.0
100
AcDbPoint
 10
2105.124842940756
 20
3798.773926618955
 30
0.0
  0
POINT
  5
DF5D
330
C840
100
AcDbEntity
  8
DEFPOINTS
 62
     0
 48
25.0
100
AcDbPoint
 10
2105.124842940756
 20
3648.773926618956
 30
0.0
  0
POINT
  5
DF5E
330
C840
100
AcDbEntity
  8
DEFPOINTS
 62
     0
 48
25.0
100
AcDbPoint
 10
1970.129864571674
 20
3648.773926618956
 30
0.0
  0
ENDBLK
  5
C84B
330
C840
100
AcDbEntity
  8
0
 48
25.0
100
AcDbBlockEnd
  0
BLOCK
  5
C87B
330
C86F
100
AcDbEntity
  8
0
 48
25.0
100
AcDbBlockBegin
  2
*D27
 70
     1
 10
0.0
 20
0.0
 30
0.0
  3
*D27
  1

  0
LINE
  5
DF42
330
C86F
100
AcDbEntity
  8
寸法引出
 48
25.0
370
    -2
100
AcDbLine
 10
2105.12484294076
 20
1978.773926618953
 30
0.0
 11
2105.12484294076
 21
1796.040602555423
 31
0.0
  0
LINE
  5
DF43
330
C86F
100
AcDbEntity
  8
寸法引出
 48
25.0
370
    -2
100
AcDbLine
 10
2230.124842940764
 20
1948.773926618954
 30
0.0
 11
2230.124842940764
 21
1796.040602555423
 31
0.0
  0
LINE
  5
DF44
330
C86F
100
AcDbEntity
  8
寸法引出
 48
25.0
370
    -2
100
AcDbLine
 10
2067.62484294076
 20
1808.540602555423
 30
0.0
 11
2030.124842940761
 21
1808.540602555423
 31
0.0
  0
LINE
  5
DF45
330
C86F
100
AcDbEntity
  8
寸法引出
 48
25.0
370
    -2
100
AcDbLine
 10
2267.624842940764
 20
1808.540602555423
 30
0.0
 11
2305.124842940764
 21
1808.540602555423
 31
0.0
  0
LINE
  5
DF46
330
C86F
100
AcDbEntity
  8
寸法引出
 48
25.0
370
    -2
100
AcDbLine
 10
2105.12484294076
 20
1808.540602555423
 30
0.0
 11
2230.124842940764
 21
1808.540602555423
 31
0.0
  0
SOLID
  5
DF47
330
C86F
100
AcDbEntity
  8
寸法引出
 48
25.0
100
AcDbTrace
 10
2067.62484294076
 20
1814.790602555423
 30
0.0
 11
2067.62484294076
 21
1802.290602555423
 31
0.0
 12
2105.12484294076
 22
1808.540602555423
 32
0.0
 13
2105.12484294076
 23
1808.540602555423
 33
0.0
  0
SOLID
  5
DF48
330
C86F
100
AcDbEntity
  8
寸法引出
 48
25.0
100
AcDbTrace
 10
2267.624842940764
 20
1814.790602555423
 30
0.0
 11
2267.624842940764
 21
1802.290602555423
 31
0.0
 12
2230.124842940764
 22
1808.540602555423
 32
0.0
 13
2230.124842940764
 23
1808.540602555423
 33
0.0
  0
MTEXT
  5
DF49
330
C86F
100
AcDbEntity
  8
寸法引出
 48
25.0
100
AcDbMText
 10
2167.624842940762
 20
1858.540602555423
 30
0.0
 40
50.0
 41
0.0
 71
     5
 72
     1
  1
\A1;125
  7
SANWA
 73
     1
 44
1.0
  0
POINT
  5
DF4A
330
C86F
100
AcDbEntity
  8
DEFPOINTS
 62
     0
 48
25.0
100
AcDbPoint
 10
2105.12484294076
 20
2003.773926618953
 30
0.0
  0
POINT
  5
DF4B
330
C86F
100
AcDbEntity
  8
DEFPOINTS
 62
     0
 48
25.0
100
AcDbPoint
 10
2230.124842940764
 20
1973.773926618953
 30
0.0
  0
POINT
  5
DF4C
330
C86F
100
AcDbEntity
  8
DEFPOINTS
 62
     0
 48
25.0
100
AcDbPoint
 10
2230.124842940764
 20
1808.540602555423
 30
0.0
  0
ENDBLK
  5
C87C
330
C86F
100
AcDbEntity
  8
0
 48
25.0
100
AcDbBlockEnd
  0
BLOCK
  5
C888
330
C87E
100
AcDbEntity
  8
0
 48
25.0
100
AcDbBlockBegin
  2
*D28
 70
     1
 10
0.0
 20
0.0
 30
0.0
  3
*D28
  1

  0
LINE
  5
DF39
330
C87E
100
AcDbEntity
  8
寸法引出
 48
25.0
370
    -2
100
AcDbLine
 10
2230.124842940764
 20
1948.773926618954
 30
0.0
 11
2230.124842940764
 21
1796.040602555423
 31
0.0
  0
LINE
  5
DF3A
330
C87E
100
AcDbEntity
  8
寸法引出
 48
25.0
370
    -2
100
AcDbLine
 10
2380.124842940735
 20
1948.773926618954
 30
0.0
 11
2380.124842940735
 21
1796.040602555423
 31
0.0
  0
LINE
  5
DF3B
330
C87E
100
AcDbEntity
  8
寸法引出
 48
25.0
370
    -2
100
AcDbLine
 10
2267.624842940764
 20
1808.540602555423
 30
0.0
 11
2342.624842940735
 21
1808.540602555423
 31
0.0
  0
SOLID
  5
DF3C
330
C87E
100
AcDbEntity
  8
寸法引出
 48
25.0
100
AcDbTrace
 10
2267.624842940764
 20
1814.790602555423
 30
0.0
 11
2267.624842940764
 21
1802.290602555423
 31
0.0
 12
2230.124842940764
 22
1808.540602555423
 32
0.0
 13
2230.124842940764
 23
1808.540602555423
 33
0.0
  0
SOLID
  5
DF3D
330
C87E
100
AcDbEntity
  8
寸法引出
 48
25.0
100
AcDbTrace
 10
2342.624842940735
 20
1814.790602555423
 30
0.0
 11
2342.624842940735
 21
1802.290602555423
 31
0.0
 12
2380.124842940735
 22
1808.540602555423
 32
0.0
 13
2380.124842940735
 23
1808.540602555423
 33
0.0
  0
MTEXT
  5
DF3E
330
C87E
100
AcDbEntity
  8
寸法引出
 48
25.0
100
AcDbMText
 10
2305.124842940749
 20
1858.540602555423
 30
0.0
 40
50.0
 41
0.0
 71
     5
 72
     1
  1
\A1;150
  7
SANWA
 73
     1
 44
1.0
  0
POINT
  5
DF3F
330
C87E
100
AcDbEntity
  8
DEFPOINTS
 62
     0
 48
25.0
100
AcDbPoint
 10
2230.124842940764
 20
1973.773926618953
 30
0.0
  0
POINT
  5
DF40
330
C87E
100
AcDbEntity
  8
DEFPOINTS
 62
     0
 48
25.0
100
AcDbPoint
 10
2380.124842940735
 20
1973.773926618953
 30
0.0
  0
POINT
  5
DF41
330
C87E
100
AcDbEntity
  8
DEFPOINTS
 62
     0
 48
25.0
100
AcDbPoint
 10
2380.124842940735
 20
1808.540602555423
 30
0.0
  0
ENDBLK
  5
C889
330
C87E
100
AcDbEntity
  8
0
 48
25.0
100
AcDbBlockEnd
  0
BLOCK
  5
C897
330
C88B
100
AcDbEntity
  8
0
 48
25.0
100
AcDbBlockBegin
  2
*D29
 70
     1
 10
0.0
 20
0.0
 30
0.0
  3
*D29
  1

  0
LINE
  5
DF2E
330
C88B
100
AcDbEntity
  8
寸法引出
 48
25.0
370
    -2
100
AcDbLine
 10
2380.124842940735
 20
1948.773926618954
 30
0.0
 11
2380.124842940735
 21
1796.040602555423
 31
0.0
  0
LINE
  5
DF2F
330
C88B
100
AcDbEntity
  8
寸法引出
 48
25.0
370
    -2
100
AcDbLine
 10
2505.124842940753
 20
1978.773926618953
 30
0.0
 11
2505.124842940753
 21
1796.040602555423
 31
0.0
  0
LINE
  5
DF30
330
C88B
100
AcDbEntity
  8
寸法引出
 48
25.0
370
    -2
100
AcDbLine
 10
2342.624842940735
 20
1808.540602555423
 30
0.0
 11
2305.124842940735
 21
1808.540602555423
 31
0.0
  0
LINE
  5
DF31
330
C88B
100
AcDbEntity
  8
寸法引出
 48
25.0
370
    -2
100
AcDbLine
 10
2542.624842940753
 20
1808.540602555423
 30
0.0
 11
2580.124842940753
 21
1808.540602555423
 31
0.0
  0
LINE
  5
DF32
330
C88B
100
AcDbEntity
  8
寸法引出
 48
25.0
370
    -2
100
AcDbLine
 10
2380.124842940735
 20
1808.540602555423
 30
0.0
 11
2505.124842940753
 21
1808.540602555423
 31
0.0
  0
SOLID
  5
DF33
330
C88B
100
AcDbEntity
  8
寸法引出
 48
25.0
100
AcDbTrace
 10
2342.624842940735
 20
1814.790602555423
 30
0.0
 11
2342.624842940735
 21
1802.290602555423
 31
0.0
 12
2380.124842940735
 22
1808.540602555423
 32
0.0
 13
2380.124842940735
 23
1808.540602555423
 33
0.0
  0
SOLID
  5
DF34
330
C88B
100
AcDbEntity
  8
寸法引出
 48
25.0
100
AcDbTrace
 10
2542.624842940753
 20
1814.790602555423
 30
0.0
 11
2542.624842940753
 21
1802.290602555423
 31
0.0
 12
2505.124842940753
 22
1808.540602555423
 32
0.0
 13
2505.124842940753
 23
1808.540602555423
 33
0.0
  0
MTEXT
  5
DF35
330
C88B
100
AcDbEntity
  8
寸法引出
 48
25.0
100
AcDbMText
 10
2442.624842940744
 20
1858.540602555423
 30
0.0
 40
50.0
 41
0.0
 71
     5
 72
     1
  1
\A1;125
  7
SANWA
 73
     1
 44
1.0
  0
POINT
  5
DF36
330
C88B
100
AcDbEntity
  8
DEFPOINTS
 62
     0
 48
25.0
100
AcDbPoint
 10
2380.124842940735
 20
1973.773926618953
 30
0.0
  0
POINT
  5
DF37
330
C88B
100
AcDbEntity
  8
DEFPOINTS
 62
     0
 48
25.0
100
AcDbPoint
 10
2505.124842940753
 20
2003.773926618953
 30
0.0
  0
POINT
  5
DF38
330
C88B
100
AcDbEntity
  8
DEFPOINTS
 62
     0
 48
25.0
100
AcDbPoint
 10
2505.124842940753
 20
1808.540602555423
 30
0.0
  0
ENDBLK
  5
C898
330
C88B
100
AcDbEntity
  8
0
 48
25.0
100
AcDbBlockEnd
  0
BLOCK
  5
CA33
330
CA27
100
AcDbEntity
  8
0
 48
25.0
100
AcDbBlockBegin
  2
*D30
 70
     1
 10
0.0
 20
0.0
 30
0.0
  3
*D30
  1

  0
LINE
  5
DFAF
330
CA27
100
AcDbEntity
  8
寸法引出
 48
25.0
370
    -2
100
AcDbLine
 10
4146.922828281291
 20
1029.80338820412
 30
0.0
 11
4146.922828281291
 21
803.5721860904095
 31
0.0
  0
LINE
  5
DFB0
330
CA27
100
AcDbEntity
  8
寸法引出
 48
25.0
370
    -2
100
AcDbLine
 10
4226.922828281291
 20
1029.80338820412
 30
0.0
 11
4226.922828281291
 21
803.5721860904095
 31
0.0
  0
LINE
  5
DFB1
330
CA27
100
AcDbEntity
  8
寸法引出
 48
25.0
370
    -2
100
AcDbLine
 10
4109.422828281291
 20
816.0721860904095
 30
0.0
 11
4071.922828281291
 21
816.0721860904095
 31
0.0
  0
LINE
  5
DFB2
330
CA27
100
AcDbEntity
  8
寸法引出
 48
25.0
370
    -2
100
AcDbLine
 10
4264.422828281291
 20
816.0721860904095
 30
0.0
 11
4301.92282828129
 21
816.0721860904095
 31
0.0
  0
LINE
  5
DFB3
330
CA27
100
AcDbEntity
  8
寸法引出
 48
25.0
370
    -2
100
AcDbLine
 10
4146.922828281291
 20
816.0721860904095
 30
0.0
 11
4226.922828281291
 21
816.0721860904095
 31
0.0
  0
SOLID
  5
DFB4
330
CA27
100
AcDbEntity
  8
寸法引出
 48
25.0
100
AcDbTrace
 10
4109.422828281291
 20
822.3221860904095
 30
0.0
 11
4109.422828281291
 21
809.8221860904095
 31
0.0
 12
4146.922828281291
 22
816.0721860904095
 32
0.0
 13
4146.922828281291
 23
816.0721860904095
 33
0.0
  0
SOLID
  5
DFB5
330
CA27
100
AcDbEntity
  8
寸法引出
 48
25.0
100
AcDbTrace
 10
4264.422828281291
 20
822.3221860904095
 30
0.0
 11
4264.422828281291
 21
809.8221860904095
 31
0.0
 12
4226.922828281291
 22
816.0721860904095
 32
0.0
 13
4226.922828281291
 23
816.0721860904095
 33
0.0
  0
MTEXT
  5
DFB6
330
CA27
100
AcDbEntity
  8
寸法引出
 48
25.0
100
AcDbMText
 10
4186.922828281291
 20
866.0721860904095
 30
0.0
 40
50.0
 41
0.0
 71
     5
 72
     1
  1
\A1;8
  7
SANWA
 73
     1
 44
1.0
  0
POINT
  5
DFB7
330
CA27
100
AcDbEntity
  8
DEFPOINTS
 62
     0
 48
25.0
100
AcDbPoint
 10
4146.922828281291
 20
1054.80338820412
 30
0.0
  0
POINT
  5
DFB8
330
CA27
100
AcDbEntity
  8
DEFPOINTS
 62
     0
 48
25.0
100
AcDbPoint
 10
4226.922828281291
 20
1054.80338820412
 30
0.0
  0
POINT
  5
DFB9
330
CA27
100
AcDbEntity
  8
DEFPOINTS
 62
     0
 48
25.0
100
AcDbPoint
 10
4226.922828281291
 20
816.0721860904095
 30
0.0
  0
ENDBLK
  5
CA34
330
CA27
100
AcDbEntity
  8
0
 48
25.0
100
AcDbBlockEnd
  0
BLOCK
  5
CA72
330
CA66
100
AcDbEntity
  8
0
 48
25.0
100
AcDbBlockBegin
  2
*D31
 70
     1
 10
0.0
 20
0.0
 30
0.0
  3
*D31
  1

  0
LINE
  5
DFA4
330
CA66
100
AcDbEntity
  8
寸法引出
 48
25.0
370
    -2
100
AcDbLine
 10
4126.922828281291
 20
969.8033882041208
 30
0.0
 11
4126.922828281291
 21
676.0396102168534
 31
0.0
  0
LINE
  5
DFA5
330
CA66
100
AcDbEntity
  8
寸法引出
 48
25.0
370
    -2
100
AcDbLine
 10
4246.922828281291
 20
969.8033882041208
 30
0.0
 11
4246.922828281291
 21
676.0396102168534
 31
0.0
  0
LINE
  5
DFA6
330
CA66
100
AcDbEntity
  8
寸法引出
 48
25.0
370
    -2
100
AcDbLine
 10
4089.422828281291
 20
688.5396102168534
 30
0.0
 11
4051.92282828129
 21
688.5396102168534
 31
0.0
  0
LINE
  5
DFA7
330
CA66
100
AcDbEntity
  8
寸法引出
 48
25.0
370
    -2
100
AcDbLine
 10
4284.422828281291
 20
688.5396102168534
 30
0.0
 11
4321.922828281291
 21
688.5396102168534
 31
0.0
  0
LINE
  5
DFA8
330
CA66
100
AcDbEntity
  8
寸法引出
 48
25.0
370
    -2
100
AcDbLine
 10
4126.922828281291
 20
688.5396102168534
 30
0.0
 11
4246.922828281291
 21
688.5396102168534
 31
0.0
  0
SOLID
  5
DFA9
330
CA66
100
AcDbEntity
  8
寸法引出
 48
25.0
100
AcDbTrace
 10
4089.422828281291
 20
694.7896102168534
 30
0.0
 11
4089.422828281291
 21
682.2896102168534
 31
0.0
 12
4126.922828281291
 22
688.5396102168534
 32
0.0
 13
4126.922828281291
 23
688.5396102168534
 33
0.0
  0
SOLID
  5
DFAA
330
CA66
100
AcDbEntity
  8
寸法引出
 48
25.0
100
AcDbTrace
 10
4284.422828281291
 20
694.7896102168534
 30
0.0
 11
4284.422828281291
 21
682.2896102168534
 31
0.0
 12
4246.922828281291
 22
688.5396102168534
 32
0.0
 13
4246.922828281291
 23
688.5396102168534
 33
0.0
  0
MTEXT
  5
DFAB
330
CA66
100
AcDbEntity
  8
寸法引出
 48
25.0
100
AcDbMText
 10
4186.922828281291
 20
738.5396102168534
 30
0.0
 40
50.0
 41
0.0
 71
     5
 72
     1
  1
\A1;12
  7
SANWA
 73
     1
 44
1.0
  0
POINT
  5
DFAC
330
CA66
100
AcDbEntity
  8
DEFPOINTS
 62
     0
 48
25.0
100
AcDbPoint
 10
4126.922828281291
 20
994.8033882041208
 30
0.0
  0
POINT
  5
DFAD
330
CA66
100
AcDbEntity
  8
DEFPOINTS
 62
     0
 48
25.0
100
AcDbPoint
 10
4246.922828281291
 20
994.8033882041208
 30
0.0
  0
POINT
  5
DFAE
330
CA66
100
AcDbEntity
  8
DEFPOINTS
 62
     0
 48
25.0
100
AcDbPoint
 10
4246.922828281291
 20
688.5396102168534
 30
0.0
  0
ENDBLK
  5
CA73
330
CA66
100
AcDbEntity
  8
0
 48
25.0
100
AcDbBlockEnd
  0
BLOCK
  5
CA7F
330
CA75
100
AcDbEntity
  8
0
 48
25.0
100
AcDbBlockBegin
  2
*D32
 70
     1
 10
0.0
 20
0.0
 30
0.0
  3
*D32
  1

  0
LINE
  5
DF9B
330
CA75
100
AcDbEntity
  8
寸法引出
 48
25.0
370
    -2
100
AcDbLine
 10
4246.922828281291
 20
969.8033882041208
 30
0.0
 11
4246.922828281291
 21
676.0396102168534
 31
0.0
  0
LINE
  5
DF9C
330
CA75
100
AcDbEntity
  8
寸法引出
 48
25.0
370
    -2
100
AcDbLine
 10
4436.922828281291
 20
969.8033882041208
 30
0.0
 11
4436.922828281291
 21
676.0396102168534
 31
0.0
  0
LINE
  5
DF9D
330
CA75
100
AcDbEntity
  8
寸法引出
 48
25.0
370
    -2
100
AcDbLine
 10
4284.422828281291
 20
688.5396102168534
 30
0.0
 11
4399.422828281291
 21
688.5396102168534
 31
0.0
  0
SOLID
  5
DF9E
330
CA75
100
AcDbEntity
  8
寸法引出
 48
25.0
100
AcDbTrace
 10
4284.422828281291
 20
694.7896102168534
 30
0.0
 11
4284.422828281291
 21
682.2896102168534
 31
0.0
 12
4246.922828281291
 22
688.5396102168534
 32
0.0
 13
4246.922828281291
 23
688.5396102168534
 33
0.0
  0
SOLID
  5
DF9F
330
CA75
100
AcDbEntity
  8
寸法引出
 48
25.0
100
AcDbTrace
 10
4399.422828281291
 20
694.7896102168534
 30
0.0
 11
4399.422828281291
 21
682.2896102168534
 31
0.0
 12
4436.922828281291
 22
688.5396102168534
 32
0.0
 13
4436.922828281291
 23
688.5396102168534
 33
0.0
  0
MTEXT
  5
DFA0
330
CA75
100
AcDbEntity
  8
寸法引出
 48
25.0
100
AcDbMText
 10
4341.92282828129
 20
738.5396102168534
 30
0.0
 40
50.0
 41
0.0
 71
     5
 72
     1
  1
\A1;19
  7
SANWA
 73
     1
 44
1.0
  0
POINT
  5
DFA1
330
CA75
100
AcDbEntity
  8
DEFPOINTS
 62
     0
 48
25.0
100
AcDbPoint
 10
4246.922828281291
 20
994.8033882041208
 30
0.0
  0
POINT
  5
DFA2
330
CA75
100
AcDbEntity
  8
DEFPOINTS
 62
     0
 48
25.0
100
AcDbPoint
 10
4436.922828281291
 20
994.8033882041208
 30
0.0
  0
POINT
  5
DFA3
330
CA75
100
AcDbEntity
  8
DEFPOINTS
 62
     0
 48
25.0
100
AcDbPoint
 10
4436.922828281291
 20
688.5396102168534
 30
0.0
  0
ENDBLK
  5
CA80
330
CA75
100
AcDbEntity
  8
0
 48
25.0
100
AcDbBlockEnd
  0
BLOCK
  5
CA8C
330
CA82
100
AcDbEntity
  8
0
 48
25.0
100
AcDbBlockBegin
  2
*D33
 70
     1
 10
0.0
 20
0.0
 30
0.0
  3
*D33
  1

  0
LINE
  5
DF92
330
CA82
100
AcDbEntity
  8
寸法引出
 48
25.0
370
    -2
100
AcDbLine
 10
4126.922828281291
 20
969.8033882041208
 30
0.0
 11
4126.922828281291
 21
676.0396102168534
 31
0.0
  0
LINE
  5
DF93
330
CA82
100
AcDbEntity
  8
寸法引出
 48
25.0
370
    -2
100
AcDbLine
 10
3936.922828281291
 20
969.8033882041208
 30
0.0
 11
3936.922828281291
 21
676.0396102168534
 31
0.0
  0
LINE
  5
DF94
330
CA82
100
AcDbEntity
  8
寸法引出
 48
25.0
370
    -2
100
AcDbLine
 10
4089.422828281291
 20
688.5396102168534
 30
0.0
 11
3974.422828281291
 21
688.5396102168534
 31
0.0
  0
SOLID
  5
DF95
330
CA82
100
AcDbEntity
  8
寸法引出
 48
25.0
100
AcDbTrace
 10
4089.422828281291
 20
694.7896102168534
 30
0.0
 11
4089.422828281291
 21
682.2896102168534
 31
0.0
 12
4126.922828281291
 22
688.5396102168534
 32
0.0
 13
4126.922828281291
 23
688.5396102168534
 33
0.0
  0
SOLID
  5
DF96
330
CA82
100
AcDbEntity
  8
寸法引出
 48
25.0
100
AcDbTrace
 10
3974.422828281291
 20
694.7896102168534
 30
0.0
 11
3974.422828281291
 21
682.2896102168534
 31
0.0
 12
3936.922828281291
 22
688.5396102168534
 32
0.0
 13
3936.922828281291
 23
688.5396102168534
 33
0.0
  0
MTEXT
  5
DF97
330
CA82
100
AcDbEntity
  8
寸法引出
 48
25.0
100
AcDbMText
 10
4031.922828281291
 20
738.5396102168534
 30
0.0
 40
50.0
 41
0.0
 71
     5
 72
     1
  1
\A1;19
  7
SANWA
 73
     1
 44
1.0
  0
POINT
  5
DF98
330
CA82
100
AcDbEntity
  8
DEFPOINTS
 62
     0
 48
25.0
100
AcDbPoint
 10
4126.922828281291
 20
994.8033882041208
 30
0.0
  0
POINT
  5
DF99
330
CA82
100
AcDbEntity
  8
DEFPOINTS
 62
     0
 48
25.0
100
AcDbPoint
 10
3936.922828281291
 20
994.8033882041208
 30
0.0
  0
POINT
  5
DF9A
330
CA82
100
AcDbEntity
  8
DEFPOINTS
 62
     0
 48
25.0
100
AcDbPoint
 10
3936.922828281291
 20
688.5396102168534
 30
0.0
  0
ENDBLK
  5
CA8D
330
CA82
100
AcDbEntity
  8
0
 48
25.0
100
AcDbBlockEnd
  0
BLOCK
  5
CB06
330
CAFA
100
AcDbEntity
  8
0
 48
25.0
100
AcDbBlockBegin
  2
*D34
 70
     1
 10
0.0
 20
0.0
 30
0.0
  3
*D34
  1

  0
LINE
  5
DF87
330
CAFA
100
AcDbEntity
  8
寸法引出
 48
25.0
370
    -2
100
AcDbLine
 10
4101.922828281291
 20
994.8033882041208
 30
0.0
 11
4042.927583755218
 21
994.8033882041208
 31
0.0
  0
LINE
  5
DF88
330
CAFA
100
AcDbEntity
  8
寸法引出
 48
25.0
370
    -2
100
AcDbLine
 10
4121.922828281291
 20
1054.80338820412
 30
0.0
 11
4042.927583755219
 21
1054.80338820412
 31
0.0
  0
LINE
  5
DF89
330
CAFA
100
AcDbEntity
  8
寸法引出
 48
25.0
370
    -2
100
AcDbLine
 10
4055.427583755219
 20
957.3033882041208
 30
0.0
 11
4055.427583755219
 21
919.8033882041208
 31
0.0
  0
LINE
  5
DF8A
330
CAFA
100
AcDbEntity
  8
寸法引出
 48
25.0
370
    -2
100
AcDbLine
 10
4055.42758375522
 20
1092.30338820412
 30
0.0
 11
4055.42758375522
 21
1129.80338820412
 31
0.0
  0
LINE
  5
DF8B
330
CAFA
100
AcDbEntity
  8
寸法引出
 48
25.0
370
    -2
100
AcDbLine
 10
4055.427583755219
 20
994.8033882041208
 30
0.0
 11
4055.42758375522
 21
1054.80338820412
 31
0.0
  0
SOLID
  5
DF8C
330
CAFA
100
AcDbEntity
  8
寸法引出
 48
25.0
100
AcDbTrace
 10
4049.177583755219
 20
957.3033882041208
 30
0.0
 11
4061.677583755218
 21
957.3033882041208
 31
0.0
 12
4055.427583755219
 22
994.8033882041208
 32
0.0
 13
4055.427583755219
 23
994.8033882041208
 33
0.0
  0
SOLID
  5
DF8D
330
CAFA
100
AcDbEntity
  8
寸法引出
 48
25.0
100
AcDbTrace
 10
4049.177583755219
 20
1092.30338820412
 30
0.0
 11
4061.677583755219
 21
1092.30338820412
 31
0.0
 12
4055.42758375522
 22
1054.80338820412
 32
0.0
 13
4055.42758375522
 23
1054.80338820412
 33
0.0
  0
MTEXT
  5
DF8E
330
CAFA
100
AcDbEntity
  8
寸法引出
 48
25.0
100
AcDbMText
 10
4005.427583755219
 20
1024.803388204121
 30
0.0
 40
50.0
 41
0.0
 71
     5
 72
     1
  1
\A1;6
  7
SANWA
 11
0.0000000000000001
 21
1.0
 31
0.0
 73
     1
 44
1.0
  0
POINT
  5
DF8F
330
CAFA
100
AcDbEntity
  8
DEFPOINTS
 62
     0
 48
25.0
100
AcDbPoint
 10
4126.922828281291
 20
994.8033882041208
 30
0.0
  0
POINT
  5
DF90
330
CAFA
100
AcDbEntity
  8
DEFPOINTS
 62
     0
 48
25.0
100
AcDbPoint
 10
4146.922828281291
 20
1054.80338820412
 30
0.0
  0
POINT
  5
DF91
330
CAFA
100
AcDbEntity
  8
DEFPOINTS
 62
     0
 48
25.0
100
AcDbPoint
 10
4055.42758375522
 20
1054.80338820412
 30
0.0
  0
ENDBLK
  5
CB07
330
CAFA
100
AcDbEntity
  8
0
 48
25.0
100
AcDbBlockEnd
  0
BLOCK
  5
D55B
330
D551
100
AcDbEntity
  8
0
 48
25.0
100
AcDbBlockBegin
  2
*D35
 70
     1
 10
0.0
 20
0.0
 30
0.0
  3
*D35
  1

  0
LINE
  5
D55D
330
D551
100
AcDbEntity
  8
0
 48
25.0
370
    -2
100
AcDbLine
 10
17187.13490003914
 20
3737.25056989079
 30
0.0
 11
17116.61776193867
 21
3737.25056989079
 31
0.0
  0
LINE
  5
D55E
330
D551
100
AcDbEntity
  8
0
 48
25.0
370
    -2
100
AcDbLine
 10
17187.13490003914
 20
2737.250569890788
 30
0.0
 11
17116.61776193867
 21
2737.250569890788
 31
0.0
  0
LINE
  5
D55F
330
D551
100
AcDbEntity
  8
0
 48
25.0
370
    -2
100
AcDbLine
 10
17129.11776193867
 20
3699.75056989079
 30
0.0
 11
17129.11776193867
 21
2774.750569890787
 31
0.0
  0
SOLID
  5
D560
330
D551
100
AcDbEntity
  8
0
 48
25.0
100
AcDbTrace
 10
17122.86776193867
 20
3699.75056989079
 30
0.0
 11
17135.36776193867
 21
3699.75056989079
 31
0.0
 12
17129.11776193867
 22
3737.25056989079
 32
0.0
 13
17129.11776193867
 23
3737.25056989079
 33
0.0
  0
SOLID
  5
D561
330
D551
100
AcDbEntity
  8
0
 48
25.0
100
AcDbTrace
 10
17122.86776193867
 20
2774.750569890787
 30
0.0
 11
17135.36776193867
 21
2774.750569890787
 31
0.0
 12
17129.11776193867
 22
2737.250569890788
 32
0.0
 13
17129.11776193867
 23
2737.250569890788
 33
0.0
  0
MTEXT
  5
D562
330
D551
100
AcDbEntity
  8
0
 48
25.0
100
AcDbMText
 10
17079.11776193867
 20
3237.250569890791
 30
0.0
 40
50.0
 41
0.0
 71
     5
 72
     1
  1
\A1;1000
  7
SANWA
 11
0.0000000000000001
 21
1.0
 31
0.0
 73
     1
 44
1.0
  0
POINT
  5
D563
330
D551
100
AcDbEntity
  8
DEFPOINTS
 62
     0
 48
25.0
100
AcDbPoint
 10
17212.13490003914
 20
3737.25056989079
 30
0.0
  0
POINT
  5
D564
330
D551
100
AcDbEntity
  8
DEFPOINTS
 62
     0
 48
25.0
100
AcDbPoint
 10
17212.13490003914
 20
2737.250569890788
 30
0.0
  0
POINT
  5
D565
330
D551
100
AcDbEntity
  8
DEFPOINTS
 62
     0
 48
25.0
100
AcDbPoint
 10
17129.11776193867
 20
2737.250569890788
 30
0.0
  0
ENDBLK
  5
D55C
330
D551
100
AcDbEntity
  8
0
 48
25.0
100
AcDbBlockEnd
  0
BLOCK
  5
D571
330
D567
100
AcDbEntity
  8
0
 48
25.0
100
AcDbBlockBegin
  2
*D36
 70
     1
 10
0.0
 20
0.0
 30
0.0
  3
*D36
  1

  0
LINE
  5
D568
330
D567
100
AcDbEntity
  8
0
 48
25.0
370
    -2
100
AcDbLine
 10
17187.13490003914
 20
3737.25056989079
 30
0.0
 11
17007.30242756532
 21
3737.25056989079
 31
0.0
  0
LINE
  5
D569
330
D567
100
AcDbEntity
  8
0
 48
25.0
370
    -2
100
AcDbLine
 10
17187.13490003914
 20
2637.250569890788
 30
0.0
 11
17007.30242756532
 21
2637.250569890788
 31
0.0
  0
LINE
  5
D56A
330
D567
100
AcDbEntity
  8
0
 48
25.0
370
    -2
100
AcDbLine
 10
17019.80242756533
 20
3699.75056989079
 30
0.0
 11
17019.80242756533
 21
2674.750569890788
 31
0.0
  0
SOLID
  5
D56B
330
D567
100
AcDbEntity
  8
0
 48
25.0
100
AcDbTrace
 10
17013.55242756533
 20
3699.75056989079
 30
0.0
 11
17026.05242756533
 21
3699.75056989079
 31
0.0
 12
17019.80242756533
 22
3737.25056989079
 32
0.0
 13
17019.80242756533
 23
3737.25056989079
 33
0.0
  0
SOLID
  5
D56C
330
D567
100
AcDbEntity
  8
0
 48
25.0
100
AcDbTrace
 10
17013.55242756533
 20
2674.750569890788
 30
0.0
 11
17026.05242756533
 21
2674.750569890788
 31
0.0
 12
17019.80242756533
 22
2637.250569890788
 32
0.0
 13
17019.80242756533
 23
2637.250569890788
 33
0.0
  0
MTEXT
  5
D56D
330
D567
100
AcDbEntity
  8
0
 48
25.0
100
AcDbMText
 10
16969.80242756533
 20
3187.250569890792
 30
0.0
 40
50.0
 41
0.0
 71
     5
 72
     1
  1
\A1;1100
  7
SANWA
 11
0.0000000000000001
 21
1.0
 31
0.0
 73
     1
 44
1.0
  0
POINT
  5
D56E
330
D567
100
AcDbEntity
  8
DEFPOINTS
 62
     0
 48
25.0
100
AcDbPoint
 10
17212.13490003914
 20
3737.25056989079
 30
0.0
  0
POINT
  5
D56F
330
D567
100
AcDbEntity
  8
DEFPOINTS
 62
     0
 48
25.0
100
AcDbPoint
 10
17212.13490003914
 20
2637.250569890788
 30
0.0
  0
POINT
  5
D570
330
D567
100
AcDbEntity
  8
DEFPOINTS
 62
     0
 48
25.0
100
AcDbPoint
 10
17019.80242756533
 20
2637.250569890788
 30
0.0
  0
ENDBLK
  5
D572
330
D567
100
AcDbEntity
  8
0
 48
25.0
100
AcDbBlockEnd
  0
BLOCK
  5
D57E
330
D574
100
AcDbEntity
  8
0
 48
25.0
100
AcDbBlockBegin
  2
*D37
 70
     1
 10
0.0
 20
0.0
 30
0.0
  3
*D37
  1

  0
LINE
  5
D575
330
D574
100
AcDbEntity
  8
0
 48
25.0
370
    -2
100
AcDbLine
 10
17187.13490003914
 20
3737.25056989079
 30
0.0
 11
16894.46082446588
 21
3737.25056989079
 31
0.0
  0
LINE
  5
D576
330
D574
100
AcDbEntity
  8
0
 48
25.0
370
    -2
100
AcDbLine
 10
17187.13490003914
 20
2537.250569890787
 30
0.0
 11
16894.46082446588
 21
2537.250569890787
 31
0.0
  0
LINE
  5
D577
330
D574
100
AcDbEntity
  8
0
 48
25.0
370
    -2
100
AcDbLine
 10
16906.96082446588
 20
3699.75056989079
 30
0.0
 11
16906.96082446588
 21
2574.750569890787
 31
0.0
  0
SOLID
  5
D578
330
D574
100
AcDbEntity
  8
0
 48
25.0
100
AcDbTrace
 10
16900.71082446588
 20
3699.75056989079
 30
0.0
 11
16913.21082446588
 21
3699.75056989079
 31
0.0
 12
16906.96082446588
 22
3737.25056989079
 32
0.0
 13
16906.96082446588
 23
3737.25056989079
 33
0.0
  0
SOLID
  5
D579
330
D574
100
AcDbEntity
  8
0
 48
25.0
100
AcDbTrace
 10
16900.71082446588
 20
2574.750569890787
 30
0.0
 11
16913.21082446588
 21
2574.750569890787
 31
0.0
 12
16906.96082446588
 22
2537.250569890787
 32
0.0
 13
16906.96082446588
 23
2537.250569890787
 33
0.0
  0
MTEXT
  5
D57A
330
D574
100
AcDbEntity
  8
0
 48
25.0
100
AcDbMText
 10
16856.96082446588
 20
3137.250569890792
 30
0.0
 40
50.0
 41
0.0
 71
     5
 72
     1
  1
\A1;1200
  7
SANWA
 11
0.0000000000000001
 21
1.0
 31
0.0
 73
     1
 44
1.0
  0
POINT
  5
D57B
330
D574
100
AcDbEntity
  8
DEFPOINTS
 62
     0
 48
25.0
100
AcDbPoint
 10
17212.13490003914
 20
3737.25056989079
 30
0.0
  0
POINT
  5
D57C
330
D574
100
AcDbEntity
  8
DEFPOINTS
 62
     0
 48
25.0
100
AcDbPoint
 10
17212.13490003914
 20
2537.250569890787
 30
0.0
  0
POINT
  5
D57D
330
D574
100
AcDbEntity
  8
DEFPOINTS
 62
     0
 48
25.0
100
AcDbPoint
 10
16906.96082446588
 20
2537.250569890787
 30
0.0
  0
ENDBLK
  5
D57F
330
D574
100
AcDbEntity
  8
0
 48
25.0
100
AcDbBlockEnd
  0
BLOCK
  5
D58B
330
D581
100
AcDbEntity
  8
0
 48
25.0
100
AcDbBlockBegin
  2
*D38
 70
     1
 10
0.0
 20
0.0
 30
0.0
  3
*D38
  1

  0
LINE
  5
D582
330
D581
100
AcDbEntity
  8
0
 48
25.0
370
    -2
100
AcDbLine
 10
17187.13490003914
 20
3737.25056989079
 30
0.0
 11
16785.14549009253
 21
3737.25056989079
 31
0.0
  0
LINE
  5
D583
330
D581
100
AcDbEntity
  8
0
 48
25.0
370
    -2
100
AcDbLine
 10
17187.13490003914
 20
2437.250569890788
 30
0.0
 11
16785.14549009253
 21
2437.250569890788
 31
0.0
  0
LINE
  5
D584
330
D581
100
AcDbEntity
  8
0
 48
25.0
370
    -2
100
AcDbLine
 10
16797.64549009253
 20
3699.75056989079
 30
0.0
 11
16797.64549009253
 21
2474.750569890788
 31
0.0
  0
SOLID
  5
D585
330
D581
100
AcDbEntity
  8
0
 48
25.0
100
AcDbTrace
 10
16791.39549009254
 20
3699.75056989079
 30
0.0
 11
16803.89549009253
 21
3699.75056989079
 31
0.0
 12
16797.64549009253
 22
3737.25056989079
 32
0.0
 13
16797.64549009253
 23
3737.25056989079
 33
0.0
  0
SOLID
  5
D586
330
D581
100
AcDbEntity
  8
0
 48
25.0
100
AcDbTrace
 10
16791.39549009254
 20
2474.750569890788
 30
0.0
 11
16803.89549009253
 21
2474.750569890788
 31
0.0
 12
16797.64549009253
 22
2437.250569890788
 32
0.0
 13
16797.64549009253
 23
2437.250569890788
 33
0.0
  0
MTEXT
  5
D587
330
D581
100
AcDbEntity
  8
0
 48
25.0
100
AcDbMText
 10
16747.64549009253
 20
3087.250569890791
 30
0.0
 40
50.0
 41
0.0
 71
     5
 72
     1
  1
\A1;1300
  7
SANWA
 11
0.0000000000000001
 21
1.0
 31
0.0
 73
     1
 44
1.0
  0
POINT
  5
D588
330
D581
100
AcDbEntity
  8
DEFPOINTS
 62
     0
 48
25.0
100
AcDbPoint
 10
17212.13490003914
 20
3737.25056989079
 30
0.0
  0
POINT
  5
D589
330
D581
100
AcDbEntity
  8
DEFPOINTS
 62
     0
 48
25.0
100
AcDbPoint
 10
17212.13490003915
 20
2437.250569890788
 30
0.0
  0
POINT
  5
D58A
330
D581
100
AcDbEntity
  8
DEFPOINTS
 62
     0
 48
25.0
100
AcDbPoint
 10
16797.64549009253
 20
2437.250569890788
 30
0.0
  0
ENDBLK
  5
D58C
330
D581
100
AcDbEntity
  8
0
 48
25.0
100
AcDbBlockEnd
  0
BLOCK
  5
D598
330
D58E
100
AcDbEntity
  8
0
 48
25.0
100
AcDbBlockBegin
  2
*D39
 70
     1
 10
0.0
 20
0.0
 30
0.0
  3
*D39
  1

  0
LINE
  5
D58F
330
D58E
100
AcDbEntity
  8
0
 48
25.0
370
    -2
100
AcDbLine
 10
17187.13490003914
 20
3737.25056989079
 30
0.0
 11
16675.83019936546
 21
3737.25056989079
 31
0.0
  0
LINE
  5
D590
330
D58E
100
AcDbEntity
  8
0
 48
25.0
370
    -2
100
AcDbLine
 10
17187.13490003914
 20
2337.250569890787
 30
0.0
 11
16675.83019936546
 21
2337.250569890787
 31
0.0
  0
LINE
  5
D591
330
D58E
100
AcDbEntity
  8
0
 48
25.0
370
    -2
100
AcDbLine
 10
16688.33019936546
 20
3699.75056989079
 30
0.0
 11
16688.33019936546
 21
2374.750569890788
 31
0.0
  0
SOLID
  5
D592
330
D58E
100
AcDbEntity
  8
0
 48
25.0
100
AcDbTrace
 10
16682.08019936546
 20
3699.75056989079
 30
0.0
 11
16694.58019936546
 21
3699.75056989079
 31
0.0
 12
16688.33019936546
 22
3737.25056989079
 32
0.0
 13
16688.33019936546
 23
3737.25056989079
 33
0.0
  0
SOLID
  5
D593
330
D58E
100
AcDbEntity
  8
0
 48
25.0
100
AcDbTrace
 10
16682.08019936546
 20
2374.750569890788
 30
0.0
 11
16694.58019936546
 21
2374.750569890788
 31
0.0
 12
16688.33019936546
 22
2337.250569890787
 32
0.0
 13
16688.33019936546
 23
2337.250569890787
 33
0.0
  0
MTEXT
  5
D594
330
D58E
100
AcDbEntity
  8
0
 48
25.0
100
AcDbMText
 10
16638.33019936546
 20
3037.250569890792
 30
0.0
 40
50.0
 41
0.0
 71
     5
 72
     1
  1
\A1;1400
  7
SANWA
 11
0.0000000000000001
 21
1.0
 31
0.0
 73
     1
 44
1.0
  0
POINT
  5
D595
330
D58E
100
AcDbEntity
  8
DEFPOINTS
 62
     0
 48
25.0
100
AcDbPoint
 10
17212.13490003914
 20
3737.25056989079
 30
0.0
  0
POINT
  5
D596
330
D58E
100
AcDbEntity
  8
DEFPOINTS
 62
     0
 48
25.0
100
AcDbPoint
 10
17212.13490003915
 20
2337.250569890787
 30
0.0
  0
POINT
  5
D597
330
D58E
100
AcDbEntity
  8
DEFPOINTS
 62
     0
 48
25.0
100
AcDbPoint
 10
16688.33019936546
 20
2337.250569890787
 30
0.0
  0
ENDBLK
  5
D599
330
D58E
100
AcDbEntity
  8
0
 48
25.0
100
AcDbBlockEnd
  0
BLOCK
  5
D5A5
330
D59B
100
AcDbEntity
  8
0
 48
25.0
100
AcDbBlockBegin
  2
*D40
 70
     1
 10
0.0
 20
0.0
 30
0.0
  3
*D40
  1

  0
LINE
  5
D59C
330
D59B
100
AcDbEntity
  8
0
 48
25.0
370
    -2
100
AcDbLine
 10
17187.13490003914
 20
3737.25056989079
 30
0.0
 11
16562.98859626601
 21
3737.25056989079
 31
0.0
  0
LINE
  5
D59D
330
D59B
100
AcDbEntity
  8
0
 48
25.0
370
    -2
100
AcDbLine
 10
17187.13490003914
 20
2237.250569890787
 30
0.0
 11
16562.98859626601
 21
2237.250569890787
 31
0.0
  0
LINE
  5
D59E
330
D59B
100
AcDbEntity
  8
0
 48
25.0
370
    -2
100
AcDbLine
 10
16575.48859626601
 20
3699.75056989079
 30
0.0
 11
16575.48859626601
 21
2274.750569890787
 31
0.0
  0
SOLID
  5
D59F
330
D59B
100
AcDbEntity
  8
0
 48
25.0
100
AcDbTrace
 10
16569.23859626601
 20
3699.75056989079
 30
0.0
 11
16581.73859626601
 21
3699.75056989079
 31
0.0
 12
16575.48859626601
 22
3737.25056989079
 32
0.0
 13
16575.48859626601
 23
3737.25056989079
 33
0.0
  0
SOLID
  5
D5A0
330
D59B
100
AcDbEntity
  8
0
 48
25.0
100
AcDbTrace
 10
16569.23859626601
 20
2274.750569890787
 30
0.0
 11
16581.73859626601
 21
2274.750569890787
 31
0.0
 12
16575.48859626601
 22
2237.250569890787
 32
0.0
 13
16575.48859626601
 23
2237.250569890787
 33
0.0
  0
MTEXT
  5
D5A1
330
D59B
100
AcDbEntity
  8
0
 48
25.0
100
AcDbMText
 10
16525.48859626601
 20
2987.250569890791
 30
0.0
 40
50.0
 41
0.0
 71
     5
 72
     1
  1
\A1;1500
  7
SANWA
 11
0.0000000000000001
 21
1.0
 31
0.0
 73
     1
 44
1.0
  0
POINT
  5
D5A2
330
D59B
100
AcDbEntity
  8
DEFPOINTS
 62
     0
 48
25.0
100
AcDbPoint
 10
17212.13490003914
 20
3737.25056989079
 30
0.0
  0
POINT
  5
D5A3
330
D59B
100
AcDbEntity
  8
DEFPOINTS
 62
     0
 48
25.0
100
AcDbPoint
 10
17212.13490003915
 20
2237.250569890787
 30
0.0
  0
POINT
  5
D5A4
330
D59B
100
AcDbEntity
  8
DEFPOINTS
 62
     0
 48
25.0
100
AcDbPoint
 10
16575.48859626601
 20
2237.250569890787
 30
0.0
  0
ENDBLK
  5
D5A6
330
D59B
100
AcDbEntity
  8
0
 48
25.0
100
AcDbBlockEnd
  0
BLOCK
  5
D65B
330
D651
100
AcDbEntity
  8
0
 48
25.0
100
AcDbBlockBegin
  2
*D41
 70
     1
 10
0.0
 20
0.0
 30
0.0
  3
*D41
  1

  0
LINE
  5
DF4D
330
D651
100
AcDbEntity
  8
寸法引出
 48
25.0
370
    -2
100
AcDbLine
 10
2430.124842940756
 20
3798.773926618955
 30
0.0
 11
2376.505812903036
 21
3798.773926618955
 31
0.0
  0
LINE
  5
DF4E
330
D651
100
AcDbEntity
  8
寸法引出
 48
25.0
370
    -2
100
AcDbLine
 10
2430.124842940756
 20
3448.773926618955
 30
0.0
 11
2376.505812903036
 21
3448.773926618955
 31
0.0
  0
LINE
  5
DF4F
330
D651
100
AcDbEntity
  8
寸法引出
 48
25.0
370
    -2
100
AcDbLine
 10
2389.005812903036
 20
3761.273926618955
 30
0.0
 11
2389.005812903036
 21
3486.273926618955
 31
0.0
  0
SOLID
  5
DF50
330
D651
100
AcDbEntity
  8
寸法引出
 48
25.0
100
AcDbTrace
 10
2382.755812903036
 20
3761.273926618955
 30
0.0
 11
2395.255812903037
 21
3761.273926618955
 31
0.0
 12
2389.005812903036
 22
3798.773926618955
 32
0.0
 13
2389.005812903036
 23
3798.773926618955
 33
0.0
  0
SOLID
  5
DF51
330
D651
100
AcDbEntity
  8
寸法引出
 48
25.0
100
AcDbTrace
 10
2382.755812903036
 20
3486.273926618955
 30
0.0
 11
2395.255812903037
 21
3486.273926618955
 31
0.0
 12
2389.005812903036
 22
3448.773926618955
 32
0.0
 13
2389.005812903036
 23
3448.773926618955
 33
0.0
  0
MTEXT
  5
DF52
330
D651
100
AcDbEntity
  8
寸法引出
 48
25.0
100
AcDbMText
 10
2339.005812903035
 20
3623.773926618956
 30
0.0
 40
50.0
 41
0.0
 71
     5
 72
     1
  1
\A1;350
  7
SANWA
 11
0.0000000000000001
 21
1.0
 31
0.0
 73
     1
 44
1.0
  0
POINT
  5
DF53
330
D651
100
AcDbEntity
  8
DEFPOINTS
 62
     0
 48
25.0
100
AcDbPoint
 10
2455.124842940756
 20
3798.773926618955
 30
0.0
  0
POINT
  5
DF54
330
D651
100
AcDbEntity
  8
DEFPOINTS
 62
     0
 48
25.0
100
AcDbPoint
 10
2455.124842940756
 20
3448.773926618955
 30
0.0
  0
POINT
  5
DF55
330
D651
100
AcDbEntity
  8
DEFPOINTS
 62
     0
 48
25.0
100
AcDbPoint
 10
2389.005812903036
 20
3448.773926618955
 30
0.0
  0
ENDBLK
  5
D65C
330
D651
100
AcDbEntity
  8
0
 48
25.0
100
AcDbBlockEnd
  0
BLOCK
  5
D84C
330
D842
100
AcDbEntity
  8
0
 48
25.0
100
AcDbBlockBegin
  2
*D42
 70
     1
 10
0.0
 20
0.0
 30
0.0
  3
*D42
  1

  0
LINE
  5
D843
330
D842
100
AcDbEntity
  8
0
 48
25.0
370
    -2
100
AcDbLine
 10
4654.824420059325
 20
7914.060688753188
 30
0.0
 11
4448.896860750407
 21
7914.060688753188
 31
0.0
  0
LINE
  5
D844
330
D842
100
AcDbEntity
  8
0
 48
25.0
370
    -2
100
AcDbLine
 10
4804.824420059318
 20
6214.060688753186
 30
0.0
 11
4448.896860750407
 21
6214.060688753186
 31
0.0
  0
LINE
  5
D845
330
D842
100
AcDbEntity
  8
0
 48
25.0
370
    -2
100
AcDbLine
 10
4461.396860750407
 20
7876.560688753189
 30
0.0
 11
4461.396860750407
 21
6251.560688753187
 31
0.0
  0
SOLID
  5
D846
330
D842
100
AcDbEntity
  8
0
 48
25.0
100
AcDbTrace
 10
4455.146860750407
 20
7876.560688753189
 30
0.0
 11
4467.646860750407
 21
7876.560688753189
 31
0.0
 12
4461.396860750407
 22
7914.060688753188
 32
0.0
 13
4461.396860750407
 23
7914.060688753188
 33
0.0
  0
SOLID
  5
D847
330
D842
100
AcDbEntity
  8
0
 48
25.0
100
AcDbTrace
 10
4455.146860750407
 20
6251.560688753187
 30
0.0
 11
4467.646860750407
 21
6251.560688753187
 31
0.0
 12
4461.396860750407
 22
6214.060688753186
 32
0.0
 13
4461.396860750407
 23
6214.060688753186
 33
0.0
  0
MTEXT
  5
D848
330
D842
100
AcDbEntity
  8
0
 48
25.0
100
AcDbMText
 10
4411.396860750405
 20
7064.060688753189
 30
0.0
 40
50.0
 41
0.0
 71
     5
 72
     1
  1
\A1;1700
  7
SANWA
 11
0.0000000000000001
 21
1.0
 31
0.0
 73
     1
 44
1.0
  0
POINT
  5
D849
330
D842
100
AcDbEntity
  8
DEFPOINTS
 62
     0
 48
25.0
100
AcDbPoint
 10
4679.824420059325
 20
7914.060688753188
 30
0.0
  0
POINT
  5
D84A
330
D842
100
AcDbEntity
  8
DEFPOINTS
 62
     0
 48
25.0
100
AcDbPoint
 10
4829.824420059319
 20
6214.060688753186
 30
0.0
  0
POINT
  5
D84B
330
D842
100
AcDbEntity
  8
DEFPOINTS
 62
     0
 48
25.0
100
AcDbPoint
 10
4461.396860750407
 20
6214.060688753186
 30
0.0
  0
ENDBLK
  5
D84D
330
D842
100
AcDbEntity
  8
0
 48
25.0
100
AcDbBlockEnd
  0
BLOCK
  5
D859
330
D84F
100
AcDbEntity
  8
0
 48
25.0
100
AcDbBlockBegin
  2
*D43
 70
     1
 10
0.0
 20
0.0
 30
0.0
  3
*D43
  1

  0
LINE
  5
D850
330
D84F
100
AcDbEntity
  8
0
 48
25.0
370
    -2
100
AcDbLine
 10
4679.824420059325
 20
7889.060688753189
 30
0.0
 11
4679.824420059325
 21
7789.311048811178
 31
0.0
  0
LINE
  5
D851
330
D84F
100
AcDbEntity
  8
0
 48
25.0
370
    -2
100
AcDbLine
 10
4979.824420059325
 20
7889.060688753189
 30
0.0
 11
4979.824420059325
 21
7789.311048811178
 31
0.0
  0
LINE
  5
D852
330
D84F
100
AcDbEntity
  8
0
 48
25.0
370
    -2
100
AcDbLine
 10
4717.324420059325
 20
7801.811048811178
 30
0.0
 11
4942.324420059325
 21
7801.811048811178
 31
0.0
  0
SOLID
  5
D853
330
D84F
100
AcDbEntity
  8
0
 48
25.0
100
AcDbTrace
 10
4717.324420059325
 20
7808.061048811179
 30
0.0
 11
4717.324420059325
 21
7795.561048811179
 31
0.0
 12
4679.824420059325
 22
7801.811048811178
 32
0.0
 13
4679.824420059325
 23
7801.811048811178
 33
0.0
  0
SOLID
  5
D854
330
D84F
100
AcDbEntity
  8
0
 48
25.0
100
AcDbTrace
 10
4942.324420059325
 20
7808.061048811179
 30
0.0
 11
4942.324420059325
 21
7795.561048811179
 31
0.0
 12
4979.824420059325
 22
7801.811048811178
 32
0.0
 13
4979.824420059325
 23
7801.811048811178
 33
0.0
  0
MTEXT
  5
D855
330
D84F
100
AcDbEntity
  8
0
 48
25.0
100
AcDbMText
 10
4829.824420059325
 20
7851.811048811178
 30
0.0
 40
50.0
 41
0.0
 71
     5
 72
     1
  1
\A1;300
  7
SANWA
 73
     1
 44
1.0
  0
POINT
  5
D856
330
D84F
100
AcDbEntity
  8
DEFPOINTS
 62
     0
 48
25.0
100
AcDbPoint
 10
4679.824420059325
 20
7914.060688753188
 30
0.0
  0
POINT
  5
D857
330
D84F
100
AcDbEntity
  8
DEFPOINTS
 62
     0
 48
25.0
100
AcDbPoint
 10
4979.824420059325
 20
7914.060688753188
 30
0.0
  0
POINT
  5
D858
330
D84F
100
AcDbEntity
  8
DEFPOINTS
 62
     0
 48
25.0
100
AcDbPoint
 10
4979.824420059325
 20
7801.811048811178
 30
0.0
  0
ENDBLK
  5
D85A
330
D84F
100
AcDbEntity
  8
0
 48
25.0
100
AcDbBlockEnd
  0
BLOCK
  5
D866
330
D85C
100
AcDbEntity
  8
0
 48
25.0
100
AcDbBlockBegin
  2
*D44
 70
     1
 10
0.0
 20
0.0
 30
0.0
  3
*D44
  1

  0
LINE
  5
D85D
330
D85C
100
AcDbEntity
  8
0
 48
25.0
370
    -2
100
AcDbLine
 10
3141.415710083296
 20
7789.060688753188
 30
0.0
 11
3141.415710083296
 21
7693.25460800491
 31
0.0
  0
LINE
  5
D85E
330
D85C
100
AcDbEntity
  8
0
 48
25.0
370
    -2
100
AcDbLine
 10
3441.415710083296
 20
7789.060688753188
 30
0.0
 11
3441.415710083296
 21
7693.25460800491
 31
0.0
  0
LINE
  5
D85F
330
D85C
100
AcDbEntity
  8
0
 48
25.0
370
    -2
100
AcDbLine
 10
3178.915710083296
 20
7705.754608004911
 30
0.0
 11
3403.915710083296
 21
7705.754608004911
 31
0.0
  0
SOLID
  5
D860
330
D85C
100
AcDbEntity
  8
0
 48
25.0
100
AcDbTrace
 10
3178.915710083296
 20
7712.00460800491
 30
0.0
 11
3178.915710083296
 21
7699.504608004911
 31
0.0
 12
3141.415710083296
 22
7705.754608004911
 32
0.0
 13
3141.415710083296
 23
7705.754608004911
 33
0.0
  0
SOLID
  5
D861
330
D85C
100
AcDbEntity
  8
0
 48
25.0
100
AcDbTrace
 10
3403.915710083296
 20
7712.00460800491
 30
0.0
 11
3403.915710083296
 21
7699.504608004911
 31
0.0
 12
3441.415710083296
 22
7705.754608004911
 32
0.0
 13
3441.415710083296
 23
7705.754608004911
 33
0.0
  0
MTEXT
  5
D862
330
D85C
100
AcDbEntity
  8
0
 48
25.0
100
AcDbMText
 10
3291.415710083296
 20
7755.75460800491
 30
0.0
 40
50.0
 41
0.0
 71
     5
 72
     1
  1
\A1;300
  7
SANWA
 73
     1
 44
1.0
  0
POINT
  5
D863
330
D85C
100
AcDbEntity
  8
DEFPOINTS
 62
     0
 48
25.0
100
AcDbPoint
 10
3141.415710083296
 20
7814.060688753189
 30
0.0
  0
POINT
  5
D864
330
D85C
100
AcDbEntity
  8
DEFPOINTS
 62
     0
 48
25.0
100
AcDbPoint
 10
3441.415710083296
 20
7814.060688753189
 30
0.0
  0
POINT
  5
D865
330
D85C
100
AcDbEntity
  8
DEFPOINTS
 62
     0
 48
25.0
100
AcDbPoint
 10
3441.415710083296
 20
7705.754608004911
 30
0.0
  0
ENDBLK
  5
D867
330
D85C
100
AcDbEntity
  8
0
 48
25.0
100
AcDbBlockEnd
  0
BLOCK
  5
D873
330
D869
100
AcDbEntity
  8
0
 48
25.0
100
AcDbBlockBegin
  2
*D45
 70
     1
 10
0.0
 20
0.0
 30
0.0
  3
*D45
  1

  0
LINE
  5
D86A
330
D869
100
AcDbEntity
  8
0
 48
25.0
370
    -2
100
AcDbLine
 10
3116.415710083296
 20
7814.060688753189
 30
0.0
 11
2921.171572716957
 21
7814.060688753189
 31
0.0
  0
LINE
  5
D86B
330
D869
100
AcDbEntity
  8
0
 48
25.0
370
    -2
100
AcDbLine
 10
3266.41571008329
 20
6214.060688753186
 30
0.0
 11
2921.171572716957
 21
6214.060688753186
 31
0.0
  0
LINE
  5
D86C
330
D869
100
AcDbEntity
  8
0
 48
25.0
370
    -2
100
AcDbLine
 10
2933.671572716958
 20
7776.560688753189
 30
0.0
 11
2933.671572716957
 21
6251.560688753187
 31
0.0
  0
SOLID
  5
D86D
330
D869
100
AcDbEntity
  8
0
 48
25.0
100
AcDbTrace
 10
2927.421572716958
 20
7776.560688753189
 30
0.0
 11
2939.921572716958
 21
7776.560688753189
 31
0.0
 12
2933.671572716958
 22
7814.060688753189
 32
0.0
 13
2933.671572716958
 23
7814.060688753189
 33
0.0
  0
SOLID
  5
D86E
330
D869
100
AcDbEntity
  8
0
 48
25.0
100
AcDbTrace
 10
2927.421572716957
 20
6251.560688753187
 30
0.0
 11
2939.921572716957
 21
6251.560688753187
 31
0.0
 12
2933.671572716957
 22
6214.060688753186
 32
0.0
 13
2933.671572716957
 23
6214.060688753186
 33
0.0
  0
MTEXT
  5
D86F
330
D869
100
AcDbEntity
  8
0
 48
25.0
100
AcDbMText
 10
2883.671572716957
 20
7014.060688753189
 30
0.0
 40
50.0
 41
0.0
 71
     5
 72
     1
  1
\A1;1600
  7
SANWA
 11
0.0000000000000001
 21
1.0
 31
0.0
 73
     1
 44
1.0
  0
POINT
  5
D870
330
D869
100
AcDbEntity
  8
DEFPOINTS
 62
     0
 48
25.0
100
AcDbPoint
 10
3141.415710083296
 20
7814.060688753189
 30
0.0
  0
POINT
  5
D871
330
D869
100
AcDbEntity
  8
DEFPOINTS
 62
     0
 48
25.0
100
AcDbPoint
 10
3291.41571008329
 20
6214.060688753186
 30
0.0
  0
POINT
  5
D872
330
D869
100
AcDbEntity
  8
DEFPOINTS
 62
     0
 48
25.0
100
AcDbPoint
 10
2933.671572716957
 20
6214.060688753186
 30
0.0
  0
ENDBLK
  5
D874
330
D869
100
AcDbEntity
  8
0
 48
25.0
100
AcDbBlockEnd
  0
BLOCK
  5
DD60
330
DD56
100
AcDbEntity
  8
0
 48
25.0
100
AcDbBlockBegin
  2
*D46
 70
     1
 10
0.0
 20
0.0
 30
0.0
  3
*D46
  1

  0
LINE
  5
DFCC
330
DD56
100
AcDbEntity
  8
寸法引出
 48
25.0
370
    -2
100
AcDbLine
 10
4098.469910207106
 20
3798.773926618955
 30
0.0
 11
3834.251274484334
 21
3798.773926618955
 31
0.0
  0
LINE
  5
DFCD
330
DD56
100
AcDbEntity
  8
寸法引出
 48
25.0
370
    -2
100
AcDbLine
 10
4098.469910207106
 20
2748.773926618957
 30
0.0
 11
3834.251274484333
 21
2748.773926618957
 31
0.0
  0
LINE
  5
DFCE
330
DD56
100
AcDbEntity
  8
寸法引出
 48
25.0
370
    -2
100
AcDbLine
 10
3846.751274484334
 20
3761.273926618955
 30
0.0
 11
3846.751274484333
 21
2786.273926618957
 31
0.0
  0
SOLID
  5
DFCF
330
DD56
100
AcDbEntity
  8
寸法引出
 48
25.0
100
AcDbTrace
 10
3840.501274484334
 20
3761.273926618955
 30
0.0
 11
3853.001274484334
 21
3761.273926618955
 31
0.0
 12
3846.751274484334
 22
3798.773926618955
 32
0.0
 13
3846.751274484334
 23
3798.773926618955
 33
0.0
  0
SOLID
  5
DFD0
330
DD56
100
AcDbEntity
  8
寸法引出
 48
25.0
100
AcDbTrace
 10
3840.501274484333
 20
2786.273926618957
 30
0.0
 11
3853.001274484333
 21
2786.273926618957
 31
0.0
 12
3846.751274484333
 22
2748.773926618957
 32
0.0
 13
3846.751274484333
 23
2748.773926618957
 33
0.0
  0
MTEXT
  5
DFD1
330
DD56
100
AcDbEntity
  8
寸法引出
 48
25.0
100
AcDbMText
 10
3796.751274484333
 20
3273.773926618957
 30
0.0
 40
50.0
 41
0.0
 71
     5
 72
     1
  1
\A1;1050
  7
SANWA
 11
0.0000000000000001
 21
1.0
 31
0.0
 73
     1
 44
1.0
  0
POINT
  5
DFD2
330
DD56
100
AcDbEntity
  8
DEFPOINTS
 62
     0
 48
25.0
100
AcDbPoint
 10
4123.469910207106
 20
3798.773926618955
 30
0.0
  0
POINT
  5
DFD3
330
DD56
100
AcDbEntity
  8
DEFPOINTS
 62
     0
 48
25.0
100
AcDbPoint
 10
4123.469910207106
 20
2748.773926618957
 30
0.0
  0
POINT
  5
DFD4
330
DD56
100
AcDbEntity
  8
DEFPOINTS
 62
     0
 48
25.0
100
AcDbPoint
 10
3846.751274484333
 20
2748.773926618957
 30
0.0
  0
ENDBLK
  5
DD61
330
DD56
100
AcDbEntity
  8
0
 48
25.0
100
AcDbBlockEnd
  0
BLOCK
  5
DD6D
330
DD63
100
AcDbEntity
  8
0
 48
25.0
100
AcDbBlockBegin
  2
*D47
 70
     1
 10
0.0
 20
0.0
 30
0.0
  3
*D47
  1

  0
LINE
  5
DFD5
330
DD63
100
AcDbEntity
  8
寸法引出
 48
25.0
370
    -2
100
AcDbLine
 10
4098.469910207106
 20
2748.773926618957
 30
0.0
 11
3834.251274484332
 21
2748.773926618957
 31
0.0
  0
LINE
  5
DFD6
330
DD63
100
AcDbEntity
  8
寸法引出
 48
25.0
370
    -2
100
AcDbLine
 10
4108.469910207106
 20
1973.773926618955
 30
0.0
 11
3834.251274484332
 21
1973.773926618955
 31
0.0
  0
LINE
  5
DFD7
330
DD63
100
AcDbEntity
  8
寸法引出
 48
25.0
370
    -2
100
AcDbLine
 10
3846.751274484332
 20
2711.273926618957
 30
0.0
 11
3846.751274484332
 21
2011.273926618955
 31
0.0
  0
SOLID
  5
DFD8
330
DD63
100
AcDbEntity
  8
寸法引出
 48
25.0
100
AcDbTrace
 10
3840.501274484332
 20
2711.273926618957
 30
0.0
 11
3853.001274484332
 21
2711.273926618957
 31
0.0
 12
3846.751274484332
 22
2748.773926618957
 32
0.0
 13
3846.751274484332
 23
2748.773926618957
 33
0.0
  0
SOLID
  5
DFD9
330
DD63
100
AcDbEntity
  8
寸法引出
 48
25.0
100
AcDbTrace
 10
3840.501274484332
 20
2011.273926618955
 30
0.0
 11
3853.001274484332
 21
2011.273926618955
 31
0.0
 12
3846.751274484332
 22
1973.773926618955
 32
0.0
 13
3846.751274484332
 23
1973.773926618955
 33
0.0
  0
MTEXT
  5
DFDA
330
DD63
100
AcDbEntity
  8
寸法引出
 48
25.0
100
AcDbMText
 10
3796.751274484332
 20
2361.273926618957
 30
0.0
 40
50.0
 41
0.0
 71
     5
 72
     1
  1
\A1;775
  7
SANWA
 11
0.0000000000000001
 21
1.0
 31
0.0
 73
     1
 44
1.0
  0
POINT
  5
DFDB
330
DD63
100
AcDbEntity
  8
DEFPOINTS
 62
     0
 48
25.0
100
AcDbPoint
 10
4123.469910207106
 20
2748.773926618957
 30
0.0
  0
POINT
  5
DFDC
330
DD63
100
AcDbEntity
  8
DEFPOINTS
 62
     0
 48
25.0
100
AcDbPoint
 10
4133.469910207106
 20
1973.773926618955
 30
0.0
  0
POINT
  5
DFDD
330
DD63
100
AcDbEntity
  8
DEFPOINTS
 62
     0
 48
25.0
100
AcDbPoint
 10
3846.751274484332
 20
1973.773926618955
 30
0.0
  0
ENDBLK
  5
DD6E
330
DD63
100
AcDbEntity
  8
0
 48
25.0
100
AcDbBlockEnd
  0
ENDSEC
  0
SECTION
  2
ENTITIES
  0
INSERT
  5
81E3
330
747D
100
AcDbEntity
  8
ASHADE
 62
     1
 48
15.0
100
AcDbBlockReference
  2
AVE_RENDER
 10
0.0
 20
0.0
 30
0.0
1001
AVE_RENDER
1002
{
1070
     7
1000
Pref
1070
    30
1070
    20
1070
     1
1070
     0
1000

1070
    10
1070
     1
1070
    10
1040
1.0
1070
     1
1040
0.7
1040
1.0
1040
0.0
1040
10.0
1010
-1.0
1020
-1.0
1030
-1.0
1040
0.3
1070
    49
1070
     0
1070
     0
1010
1.0
1020
1.0
1030
1.0
1040
45.0
1070
     1
1070
     0
1000
WCS
1040
0.0
1070
     0
1040
10.0
1002
}
  0
INSERT
  5
81E4
330
747D
100
AcDbEntity
  8
ASHADE
 62
     3
 48
15.0
100
AcDbBlockReference
  2
AVE_RENDER
 10
0.0
 20
0.0
 30
0.0
1001
AVE_RENDER
1002
{
1070
     0
1000
Full Opt
1070
     0
1070
     1
1070
     1
1070
     1
1070
     0
1070
     0
1070
     0
1070
     1
1070
     1
1040
0.0001
1040
0.0001
1002
}
  0
INSERT
  5
81E5
330
747D
100
AcDbEntity
  8
ASHADE
 62
     4
 48
15.0
100
AcDbBlockReference
  2
AVE_RENDER
 10
0.0
 20
0.0
 30
0.0
1001
AVE_RENDER
1002
{
1070
     0
1000
Quick Opt
1070
     0
1070
     1
1070
     1
1070
     1
1070
     0
1070
     0
1070
     1
1002
}
  0
INSERT
  5
81E6
330
747D
100
AcDbEntity
  8
ASHADE
 62
     5
 48
15.0
100
AcDbBlockReference
  2
AVE_RENDER
 10
0.0
 20
0.0
 30
0.0
1001
AVE_RENDER
1002
{
1070
     1
1000
Scanl Opt
1070
     2
1070
     0
1070
     2
1040
2.0
1040
4.0
1070
     0
1070
     1
1070
     0
1040
0.03
1002
}
  0
INSERT
  5
81E7
330
747D
100
AcDbEntity
  8
ASHADE
 62
     6
 48
15.0
100
AcDbBlockReference
  2
AVE_RENDER
 10
0.0
 20
0.0
 30
0.0
1001
AVE_RENDER
1002
{
1070
     2
1000
Raytr Opt
1070
     2
1070
     0
1070
     2
1040
2.0
1040
4.0
1070
     0
1070
     1
1070
     1
1040
0.03
1070
     3
1040
0.03
1002
}
  0
INSERT
  5
81E8
330
747D
100
AcDbEntity
  8
ASHADE
 62
     7
 48
15.0
100
AcDbBlockReference
  2
AVE_RENDER
 10
0.0
 20
0.0
 30
0.0
1001
AVE_RENDER
1002
{
1070
     0
1000
RFile Opt
1070
     1
1070
   640
1070
   480
1070
 10000
1070
     1
1070
     8
1070
     8
1070
     0
1070
     0
1070
     0
1070
     0
1070
     0
1070
     0
1070
     0
1002
}
  0
INSERT
  5
81E9
330
747D
100
AcDbEntity
  8
ASHADE
 62
     8
 48
15.0
100
AcDbBlockReference
  2
AVE_RENDER
 10
0.0
 20
0.0
 30
0.0
1001
AVE_RENDER
1002
{
1070
     0
1000
Fog Opt
1070
     0
1070
     0
1040
0.0
1040
1.0
1040
0.0
1040
1.0
1010
0.5
1020
0.5
1030
0.5
1002
}
  0
INSERT
  5
81EA
330
747D
100
AcDbEntity
  8
ASHADE
 62
     9
 48
15.0
100
AcDbBlockReference
  2
AVE_RENDER
 10
0.0
 20
0.0
 30
0.0
1001
AVE_RENDER
1002
{
1070
     0
1000
BG Opt
1070
     0
1070
     1
1010
0.0
1020
0.0
1030
0.0
1010
1.0
1020
0.0
1030
0.0
1010
0.0
1020
1.0
1030
0.0
1010
0.0
1020
0.0
1030
1.0
1040
0.5
1040
0.33
1040
0.0
1000

1070
     1
1000

1070
     1
1070
     1
1040
1.0
1040
1.0
1040
0.0
1040
0.0
1070
     0
1002
}
  0
INSERT
  5
81F1
330
747D
100
AcDbEntity
  8
ASHADE
 62
     1
 48
15.0
100
AcDbBlockReference
  2
AVE_GLOBAL
 10
0.0
 20
0.0
 30
0.0
1001
AVE_MATERIAL
1002
{
1000
*GLOBAL*
1000
2
1000
Global finish.
1002
{
1002
}
1002
{
1070
    63
1002
{
1002
{
1010
-1.0
1020
-1.0
1030
-1.0
1002
}
1040
0.6999999880790711
1000

1040
0.0
1002
{
1002
}
1040
0.0
1002
{
1002
}
1040
0.0
1002
}
1002
{
1002
{
1010
-1.0
1020
-1.0
1030
-1.0
1002
}
1040
1.0
1000

1040
0.0
1002
{
1002
}
1040
0.0
1002
{
1002
}
1040
0.0
1002
}
1002
{
1002
{
1010
-1.0
1020
-1.0
1030
-1.0
1002
}
1040
0.2000000029802322
1000

1040
0.0
1002
{
1002
}
1040
0.0
1002
{
1002
}
1040
0.0
1002
}
1002
{
1070
     0
1002
{
1070
     1
1002
{
1040
1.0
1040
1.0
1000

1040
0.0
1002
{
1002
}
1040
0.0
1002
{
1002
}
1040
0.0
1002
}
1002
}
1040
1.0
1040
0.0
1040
0.0
1002
}
1002
{
1040
1.0
1040
1.0
1000

1040
0.0
1002
{
1002
}
1040
0.0
1002
{
1002
}
1040
0.0
1002
}
1002
{
1040
0.5
1040
1.0
1000

1040
0.0
1002
{
1002
}
1040
0.0
1002
{
1002
}
1040
0.0
1002
}
1002
{
1070
     0
1040
0.0
1002
{
1002
}
1040
1.0
1002
{
1002
}
1040
0.0
1002
}
1002
{
1040
0.0
1002
{
1002
{
1010
0.0
1020
0.0
1030
0.0
1002
}
1040
1.0
1000

1040
0.0
1002
{
1002
}
1040
0.0
1002
{
1002
}
1040
0.0
1002
}
1002
}
1002
{
1002
{
1070
     1
1002
{
1040
0.0
1040
1.0
1000

1040
0.0
1002
{
1002
}
1040
0.0
1002
{
1002
}
1040
0.0
1002
}
1002
}
1040
0.0
1002
{
1002
}
1010
1.0
1020
0.0
1030
0.0
1010
0.0
1020
1.0
1030
0.0
1010
0.0
1020
0.0
1030
1.0
1070
     0
1002
}
1002
{
1002
{
1040
1.0
1040
1.0
1002
{
1070
     1
1002
{
1040
1.0
1040
1.0
1000

1040
0.0
1002
{
1002
}
1040
0.0
1002
{
1002
}
1040
0.0
1002
}
1002
}
1002
}
1070
     0
1040
0.0
1002
{
1002
}
1002
}
1002
{
1002
}
1002
}
1002
{
1071
        3
1070
     3
1070
     0
1002
{
1070
     2
1070
     0
1070
     0
1040
0.0
1002
}
1070
     0
1070
     2
1002
{
1002
}
1002
}
1002
{
1040
8030.0
1040
190.3000030517578
1040
0.3050000071525574
1040
228.0
1040
545.0
1040
14.0
1040
17.39999961853027
1040
0.4560000002384186
1002
}
1002
}
  0
LINE
  5
C0E2
330
747D
100
AcDbEntity
  8
0
100
AcDbLine
 10
0.0
 20
5250.0
 30
0.0
 11
625.0
 21
5250.0
 31
0.0
  0
LINE
  5
C0E3
330
747D
100
AcDbEntity
  8
0
100
AcDbLine
 10
625.0
 20
0.0
 30
0.0
 11
0.0
 21
0.0
 31
0.0
  0
LINE
  5
C0E4
330
747D
100
AcDbEntity
  8
0
100
AcDbLine
 10
0.0
 20
0.0
 30
0.0
 11
0.0
 21
250.0
 31
0.0
  0
LINE
  5
C0E5
330
747D
100
AcDbEntity
  8
0
100
AcDbLine
 10
0.0
 20
5000.0
 30
0.0
 11
0.0
 21
5250.0
 31
0.0
  0
LINE
  5
C0E6
330
747D
100
AcDbEntity
  8
枠
100
AcDbLine
 10
7175.0
 20
250.0
 30
0.0
 11
7175.0
 21
5000.0
 31
0.0
  0
LINE
  5
C0E7
330
747D
100
AcDbEntity
  8
0
 48
25.0
100
AcDbLine
 10
4123.469910207106
 20
3798.773926618955
 30
0.0
 11
4123.469910207106
 21
1983.773926618956
 31
0.0
  0
LINE
  5
C0E8
330
747D
100
AcDbEntity
  8
0
 48
25.0
100
AcDbLine
 10
6123.469910207106
 20
3798.773926618955
 30
0.0
 11
6123.469910207106
 21
1983.773926618956
 31
0.0
  0
LINE
  5
C0E9
330
747D
100
AcDbEntity
  8
枠
100
AcDbLine
 10
625.0
 20
250.0
 30
0.0
 11
625.0
 21
5000.0
 31
0.0
  0
LINE
  5
C0F0
330
747D
100
AcDbEntity
  8
0
 62
     0
100
AcDbLine
 10
5337.553191489362
 20
990.000000000009
 30
0.0
 11
7175.0
 21
990.000000000009
 31
0.0
  0
LINE
  5
C0F1
330
747D
100
AcDbEntity
  8
0
 62
     0
100
AcDbLine
 10
5337.553191489362
 20
910.0000000000028
 30
0.0
 11
5997.553191489351
 21
910.0000000000028
 31
0.0
  0
LINE
  5
C0F2
330
747D
100
AcDbEntity
  8
0
 62
     0
100
AcDbLine
 10
5337.553191489362
 20
910.0000000000028
 30
0.0
 11
5997.553191489351
 21
910.0000000000028
 31
0.0
  0
LINE
  5
C0F3
330
747D
100
AcDbEntity
  8
0
 62
     0
100
AcDbLine
 10
5337.553191489362
 20
790.000000000009
 30
0.0
 11
5997.553191489351
 21
790.000000000009
 31
0.0
  0
LINE
  5
C0F4
330
747D
100
AcDbEntity
  8
0
 62
     0
100
AcDbLine
 10
5337.553191489362
 20
710.0000000000027
 30
0.0
 11
5997.553191489351
 21
710.0000000000027
 31
0.0
  0
LINE
  5
C0F5
330
747D
100
AcDbEntity
  8
0
 62
     0
100
AcDbLine
 10
5337.553191489362
 20
570.0000000000045
 30
0.0
 11
5997.553191489351
 21
570.0000000000045
 31
0.0
  0
LINE
  5
C0F6
330
747D
100
AcDbEntity
  8
0
100
AcDbLine
 10
5337.553191489362
 20
510.0000000000027
 30
0.0
 11
7175.0
 21
510.0000000000027
 31
0.0
  0
HATCH
  5
C0F7
330
747D
100
AcDbEntity
  8
0
100
AcDbHatch
 10
0.0
 20
0.0
 30
0.0
210
0.0
220
0.0
230
1.0
  2
SOLID
 70
     1
 71
     0
 91
        4
 92
        7
 72
     1
 73
     1
 93
        2
 10
6022.810074784713
 20
119.7404581653802
 42
1.0
 10
5862.859653639527
 20
119.7404581653802
 42
1.0
 97
        0
 92
       22
 72
     1
 73
     1
 93
        2
 10
6018.810074784713
 20
119.7404581653802
 42
-1.0
 10
5866.859653639527
 20
119.7404581653802
 42
-1.0
 97
        0
 92
      136
 93
        4
 72
     1
 10
5901.923421543187
 20
113.1340969073122
 11
5987.066278686041
 21
113.1340969073122
 72
     1
 10
5987.066278686056
 20
113.1340969073122
 11
5987.066278686056
 21
193.0198111930265
 72
     1
 10
5987.066278686056
 20
193.0198111930266
 11
5901.923421543201
 21
193.0198111930266
 72
     1
 10
5901.923421543187
 20
193.0198111930266
 11
5901.923421543187
 21
113.1340969073123
 97
        0
 92
      136
 93
        4
 72
     1
 10
5901.782803938557
 20
59.14464985883069
 11
5985.325661081414
 21
59.14464985883069
 72
     1
 10
5985.325661081421
 20
59.14464985883069
 11
5985.325661081421
 21
134.2303641445449
 72
     1
 10
5985.325661081421
 20
134.2303641445449
 11
5901.782803938564
 21
134.2303641445449
 72
     1
 10
5901.782803938557
 20
134.2303641445449
 11
5901.782803938557
 21
59.14464985883069
 97
        0
 75
     0
 76
     1
 47
0.0602706122334892
 98
        2
 10
5981.15200732262
 20
188.4892100000104
 10
5981.15200732262
 20
188.4892100000104
  0
CIRCLE
  5
C0F8
330
747D
100
AcDbEntity
  8
0
100
AcDbCircle
 10
5942.834864212142
 20
119.74045816538
 30
0.0
 40
79.97521057257928
  0
LINE
  5
C0F9
330
747D
100
AcDbEntity
  8
0
 62
     0
100
AcDbLine
 10
5337.553191489362
 20
450.0
 30
0.0
 11
5997.553191489351
 21
450.0
 31
0.0
  0
TEXT
  5
C0FA
330
747D
100
AcDbEntity
  8
0
 48
2.0
100
AcDbText
 10
5648.287171582342
 20
522.0856316808067
 30
0.0
 40
40.0
  1
2003. 9. 2
  7
SANWA
100
AcDbText
  0
LINE
  5
C0FB
330
747D
100
AcDbEntity
  8
0
 48
25.0
100
AcDbLine
 10
4133.469910207106
 20
1973.773926618955
 30
0.0
 11
6113.469910207102
 21
1973.773926618955
 31
0.0
  0
LINE
  5
C0FC
330
747D
100
AcDbEntity
  8
0
  6
HIDDEN2
 48
25.0
100
AcDbLine
 10
4123.469910207106
 20
2098.773926618956
 30
0.0
 11
6123.469910207106
 21
2098.773926618956
 31
0.0
  0
LINE
  5
C0FD
330
747D
100
AcDbEntity
  8
枠
100
AcDbLine
 10
625.0
 20
250.0
 30
0.0
 11
7175.0
 21
250.0000000000054
 31
0.0
  0
LINE
  5
C0FE
330
747D
100
AcDbEntity
  8
0
100
AcDbLine
 10
5337.553191489362
 20
990.000000000009
 30
0.0
 11
5337.553191489362
 21
870.0000000000045
 31
0.0
  0
CIRCLE
  5
C0FF
330
747D
100
AcDbEntity
  8
0
 48
25.0
100
AcDbCircle
 10
2195.39623158006
 20
912.7698599818295
 30
0.0
 40
18.0
  0
LINE
  5
C100
330
747D
100
AcDbEntity
  8
0
 48
25.0
100
AcDbLine
 10
2045.396231580059
 20
1136.269859981829
 30
0.0
 11
2045.396231580052
 21
689.2698599818295
 31
0.0
  0
DIMENSION
  5
C101
330
747D
100
AcDbEntity
  8
寸法引出
 48
25.0
100
AcDbDimension
  2
*D18
 10
2195.39623158006
 20
738.5480752025205
 30
0.0
 11
2120.396231580059
 21
788.5480752025205
 31
0.0
 70
    32
  1
50
 71
     5
 42
150.0
  3
SANWA
100
AcDbAlignedDimension
 13
2045.396231580059
 23
839.2698599818295
 33
0.0
 14
2195.39623158006
 24
912.7698599818295
 34
0.0
100
AcDbRotatedDimension
1001
ACAD
1000
DSTYLE
1002
{
1070
    40
1040
25.0
1070
    41
1040
1.5
1070
    43
1040
5.0
1070
    44
1040
0.5
1070
   140
1040
2.0
1070
   147
1040
1.0
1070
   176
1070
   256
1070
   177
1070
   256
1070
   178
1070
   256
1002
}
  0
LINE
  5
C107
330
747D
100
AcDbEntity
  8
0
 48
25.0
100
AcDbLine
 10
3074.126403320384
 20
942.7698599818322
 30
0.0
 11
3074.126403320384
 21
882.7698599818322
 31
0.0
  0
LINE
  5
C108
330
747D
100
AcDbEntity
  8
0
 48
25.0
100
AcDbLine
 10
3068.126403320384
 20
930.7698599818323
 30
0.0
 11
3068.126403320384
 21
894.7698599818322
 31
0.0
  0
LINE
  5
C115
330
747D
100
AcDbEntity
  8
0
 48
25.0
100
AcDbLine
 10
2978.126403320384
 20
894.7698599818322
 30
0.0
 11
3068.126403320384
 21
894.7698599818322
 31
0.0
  0
LINE
  5
C116
330
747D
100
AcDbEntity
  8
0
 48
25.0
100
AcDbLine
 10
2978.126403320384
 20
888.7698599818323
 30
0.0
 11
3068.126403320384
 21
888.7698599818323
 31
0.0
  0
LINE
  5
C118
330
747D
100
AcDbEntity
  8
0
 48
25.0
100
AcDbLine
 10
3068.126403320384
 20
888.7698599818323
 30
0.0
 11
3068.126403320384
 21
882.7698599818322
 31
0.0
  0
LINE
  5
C119
330
747D
100
AcDbEntity
  8
0
 48
25.0
100
AcDbLine
 10
3068.126403320384
 20
882.7698599818322
 30
0.0
 11
3074.126403320384
 21
882.7698599818322
 31
0.0
  0
HATCH
  5
C11A
330
747D
100
AcDbEntity
  8
0
100
AcDbHatch
 10
0.0
 20
0.0
 30
0.0
210
0.0
220
0.0
230
1.0
  2
SOLID
 70
     1
 71
     0
 91
        4
 92
        7
 72
     1
 73
     1
 93
        2
 10
5967.473386117817
 20
344.4240766900341
 42
1.0
 10
5807.522964972632
 20
344.4240766900341
 42
1.0
 97
        0
 92
       22
 72
     1
 73
     1
 93
        2
 10
5963.473386117818
 20
344.4240766900341
 42
-1.0
 10
5811.522964972631
 20
344.4240766900341
 42
-1.0
 97
        0
 92
      136
 93
        4
 72
     1
 10
5847.215304304853
 20
341.4177154319661
 11
5931.101018590569
 21
341.4177154319661
 72
     1
 10
5931.101018590569
 20
341.4177154319661
 11
5931.101018590569
 21
417.5320011462519
 72
     1
 10
5931.101018590569
 20
417.5320011462519
 11
5847.215304304853
 21
417.5320011462519
 72
     1
 10
5847.215304304853
 20
417.5320011462519
 11
5847.215304304853
 21
341.4177154319661
 97
        0
 92
      136
 93
        4
 72
     1
 10
5845.646115271673
 20
281.8854112406274
 11
5930.788972414529
 21
281.8854112406274
 72
     1
 10
5930.788972414543
 20
281.8854112406274
 11
5930.788972414543
 21
361.7711255263416
 72
     1
 10
5930.788972414543
 20
361.7711255263416
 11
5845.646115271687
 21
361.7711255263416
 72
     1
 10
5845.646115271673
 20
361.7711255263416
 11
5845.646115271673
 21
281.8854112406274
 97
        0
 75
     0
 76
     1
 47
0.0602706122334892
 98
        2
 10
5925.815318655725
 20
413.1728285246643
 10
5925.815318655725
 20
413.1728285246643
  0
CIRCLE
  5
C11B
330
747D
100
AcDbEntity
  8
0
100
AcDbCircle
 10
5887.498175545246
 20
344.4240766900338
 30
0.0
 40
79.97521057257928
  0
CIRCLE
  5
C11C
330
747D
100
AcDbEntity
  8
0
100
AcDbCircle
 10
5887.498175545246
 20
344.4240766900338
 30
0.0
 40
75.97521057257927
  0
HATCH
  5
C11D
330
747D
100
AcDbEntity
  8
0
100
AcDbHatch
 10
0.0
 20
0.0
 30
0.0
210
0.0
220
0.0
230
1.0
  2
SOLID
 70
     1
 71
     0
 91
        4
 92
        7
 72
     1
 73
     1
 93
        2
 10
5612.329075578863
 20
121.5279938300056
 42
1.0
 10
5452.378654433735
 20
121.5279938300056
 42
1.0
 97
        0
 92
       22
 72
     1
 73
     1
 93
        2
 10
5608.329075578862
 20
121.5279938300056
 42
-1.0
 10
5456.378654433706
 20
121.5279938300056
 42
-1.0
 97
        0
 92
      136
 93
        4
 72
     1
 10
5491.556708051649
 20
113.8021031153554
 11
5576.470993765935
 21
113.8021031153554
 72
     1
 10
5576.47099376595
 20
113.8021031153554
 11
5576.47099376595
 21
193.0021031153554
 72
     1
 10
5576.47099376595
 20
193.0021031153554
 11
5491.556708051663
 21
193.0021031153554
 72
     1
 10
5491.556708051649
 20
193.0021031153554
 11
5491.556708051649
 21
113.8021031153554
 97
        0
 92
       24
 93
        4
 72
     1
 10
5491.873233304184
 20
54.37358697902701
 11
5574.273233304186
 21
54.37358697902701
 72
     1
 10
5574.27323330415
 20
54.37358697902701
 11
5574.27323330415
 21
126.0307298361698
 72
     1
 10
5574.27323330415
 20
126.0307298361698
 11
5491.873233304148
 21
126.0307298361698
 72
     1
 10
5491.873233304184
 20
126.0307298361698
 11
5491.873233304184
 21
54.37358697902702
 97
        0
 75
     0
 76
     1
 47
0.0602706122334892
 98
        2
 10
5570.671008116798
 20
190.2767456646358
 10
5570.671008116798
 20
190.2767456646358
  0
TEXT
  5
C11E
330
747D
100
AcDbEntity
  8
0
 48
2.0
100
AcDbText
 10
5504.756708051675
 20
132.7163888296408
 30
0.0
 40
40.0
  1
蒔
  7
SANWA
100
AcDbText
  0
CIRCLE
  5
C11F
330
747D
100
AcDbEntity
  8
0
100
AcDbCircle
 10
5532.353865006328
 20
121.5279938300054
 30
0.0
 40
75.97521057257927
  0
CIRCLE
  5
C120
330
747D
100
AcDbEntity
  8
0
100
AcDbCircle
 10
5532.353865006328
 20
121.5279938300054
 30
0.0
 40
79.97521057257928
  0
TEXT
  5
C121
330
747D
100
AcDbEntity
  8
0
 48
2.0
100
AcDbText
 10
5859.901018590594
 20
357.7605725748235
 30
0.0
 40
40.0
  1
大
  7
SANWA
100
AcDbText
  0
TEXT
  5
C122
330
747D
100
AcDbEntity
  8
0
 48
2.0
100
AcDbText
 10
5503.816090447028
 20
71.80215840759865
 30
0.0
 40
40.0
  1
田
  7
SANWA
100
AcDbText
  0
TEXT
  5
C123
330
747D
100
AcDbEntity
  8
0
 48
2.0
100
AcDbText
 10
5858.96040098599
 20
301.1425540977697
 30
0.0
 40
40.0
  1
嶋
  7
SANWA
100
AcDbText
  0
LINE
  5
C124
330
747D
100
AcDbEntity
  8
0
 62
     0
100
AcDbLine
 10
5337.553191489362
 20
630.0000000000063
 30
0.0
 11
5337.553191489362
 21
250.0000000000054
 31
0.0
  0
LINE
  5
C125
330
747D
100
AcDbEntity
  8
0
100
AcDbLine
 10
5337.553191489362
 20
570.0000000000045
 30
0.0
 11
5337.553191489362
 21
630.0000000000063
 31
0.0
  0
LINE
  5
C126
330
747D
100
AcDbEntity
  8
0
100
AcDbLine
 10
5337.553191489362
 20
630.0000000000063
 30
0.0
 11
5337.553191489362
 21
499.8919161829462
 31
0.0
  0
LINE
  5
C127
330
747D
100
AcDbEntity
  8
0
100
AcDbLine
 10
5557.553191489343
 20
250.0000000000054
 30
0.0
 11
5557.553191489343
 21
570.0000000000045
 31
0.0
  0
LINE
  5
C128
330
747D
100
AcDbEntity
  8
0
100
AcDbLine
 10
5777.553191489325
 20
250.0000000000054
 30
0.0
 11
5777.553191489325
 21
510.0000000000027
 31
0.0
  0
TEXT
  5
C129
330
747D
100
AcDbEntity
  8
0
 48
2.0
100
AcDbText
 10
5422.081935578171
 20
356.9821364303525
 30
0.0
 40
40.0
  1
河
  7
SANWA
100
AcDbText
  0
HATCH
  5
C12A
330
747D
100
AcDbEntity
  8
0
100
AcDbHatch
 10
0.0
 20
0.0
 30
0.0
210
0.0
220
0.0
230
1.0
  2
SOLID
 70
     1
 71
     0
 91
        2
 92
        7
 72
     1
 73
     1
 93
        2
 10
5529.654303105345
 20
351.6970659978517
 42
1.0
 10
5369.703881960217
 20
351.6970659978517
 42
1.0
 97
        0
 92
       22
 72
     1
 73
     1
 93
        2
 10
5525.654303105373
 20
351.6970659978517
 42
-1.0
 10
5373.703881960217
 20
351.6970659978517
 42
-1.0
 97
        0
 75
     0
 76
     1
 47
0.0602706122334892
 98
        2
 10
5487.99623564331
 20
420.4458178324818
 10
5487.99623564331
 20
420.4458178324818
  0
CIRCLE
  5
C12B
330
747D
100
AcDbEntity
  8
0
100
AcDbCircle
 10
5449.679092532824
 20
351.6970659978515
 30
0.0
 40
75.97521057257927
  0
CIRCLE
  5
C12C
330
747D
100
AcDbEntity
  8
0
100
AcDbCircle
 10
5449.679092532824
 20
351.6970659978515
 30
0.0
 40
79.97521057257928
  0
TEXT
  5
C12D
330
747D
100
AcDbEntity
  8
0
 48
2.0
100
AcDbText
 10
5421.141317973525
 20
300.3641179532996
 30
0.0
 40
40.0
  1
口
  7
SANWA
100
AcDbText
  0
TEXT
  5
C12E
330
747D
100
AcDbEntity
  8
0
 48
2.0
100
AcDbText
 10
5391.248993407273
 20
522.0856316808067
 30
0.0
 40
40.0
  1
製図
  7
SANWA
100
AcDbText
  0
TEXT
  5
C12F
330
747D
100
AcDbEntity
  8
0
 48
2.0
100
AcDbText
 10
5385.360299888547
 20
459.6196585260768
 30
0.0
 40
40.0
  1
検図
  7
SANWA
100
AcDbText
  0
LINE
  5
C130
330
747D
100
AcDbEntity
  8
0
100
AcDbLine
 10
5337.553191489362
 20
570.0000000000045
 30
0.0
 11
5337.553191489362
 21
510.0000000000027
 31
0.0
  0
TEXT
  5
C131
330
747D
100
AcDbEntity
  8
0
 48
2.0
100
AcDbText
 10
5615.12664304264
 20
461.8928629188303
 30
0.0
 40
40.0
  1
設計
  7
SANWA
100
AcDbText
  0
LINE
  5
C132
330
747D
100
AcDbEntity
  8
0
 62
     0
100
AcDbLine
 10
5337.553191489362
 20
870.0000000000045
 30
0.0
 11
5337.553191489362
 21
630.0000000000063
 31
0.0
  0
LINE
  5
C133
330
747D
100
AcDbEntity
  8
0
100
AcDbLine
 10
5337.553191489362
 20
726.760945979834
 30
0.0
 11
5337.553191489362
 21
882.1169115701533
 31
0.0
  0
LINE
  5
C134
330
747D
100
AcDbEntity
  8
0
100
AcDbLine
 10
5337.553191489362
 20
670.0000000000045
 30
0.0
 11
5337.553191489362
 21
726.760945979834
 31
0.0
  0
TEXT
  5
C135
330
747D
100
AcDbEntity
  8
0
 48
2.0
100
AcDbText
 10
5572.484217939949
 20
630.9755021622549
 30
0.0
 40
40.0
  1
1 : 25
  7
SANWA
100
AcDbText
  0
TEXT
  5
C136
330
747D
100
AcDbEntity
  8
0
 48
2.0
100
AcDbText
 10
5544.098121932351
 20
723.9731911170228
 30
0.0
 40
40.0
  1
縮    尺
  7
SANWA
100
AcDbText
  0
TEXT
  5
C137
330
747D
100
AcDbEntity
  8
0
 48
2.0
100
AcDbText
 10
5542.345604725415
 20
928.7954769413772
 30
0.0
 40
40.0
  1
図面
  7
SANWA
100
AcDbText
  0
TEXT
  5
C138
330
747D
100
AcDbEntity
  8
0
 48
2.0
100
AcDbText
 10
5653.898808185753
 20
931.0686527376557
 30
0.0
 40
40.0
  1
番号
  7
SANWA
100
AcDbText
  0
LEADER
  5
C139
330
747D
100
AcDbEntity
  8
寸法引出
 48
25.0
100
AcDbLeader
  3
SANWA
 76
     3
 10
3023.126403320384
 20
936.7698599818323
 30
0.0
 10
3102.156581695471
 20
1023.632834363205
 30
0.0
 10
3590.711755366057
 20
1023.632834363205
 30
0.0
1001
ACAD
1000
DSTYLE
1002
{
1070
    77
1070
     0
1070
    40
1040
25.0
1070
    41
1040
1.5
1070
    43
1040
5.0
1070
    44
1040
0.5
1070
   140
1040
2.0
1070
   147
1040
1.0
1070
   176
1070
   256
1070
   177
1070
   256
1070
   178
1070
   256
1002
}
  0
MTEXT
  5
C13A
330
747D
100
AcDbEntity
  8
寸法引出
 48
25.0
100
AcDbMText
 10
3347.26964455584
 20
1073.522497577697
 30
0.0
 40
50.0
 41
0.0
 71
     5
 72
     1
  1
ｲﾝｻｰﾄM12×32
  7
SANWA
 73
     1
 44
1.0
  0
LINE
  5
C13B
330
747D
100
AcDbEntity
  8
0
 48
25.0
100
AcDbLine
 10
2978.126403320384
 20
1341.047125685195
 30
0.0
 11
2978.126403320384
 21
689.2698599818295
 31
0.0
  0
MTEXT
  5
C13C
330
747D
100
AcDbEntity
  8
寸法引出
 48
25.0
100
AcDbMText
 10
2834.299487828273
 20
1131.214186218729
 30
0.0
 40
50.0
 41
0.0
 71
     5
 72
     1
  1
天端より150
  7
SANWA
 11
0.0000000000000001
 21
1.0
 31
0.0
 73
     1
 44
1.0
  0
LINE
  5
C13D
330
747D
100
AcDbEntity
  8
寸法引出
 48
25.0
100
AcDbLine
 10
2892.003399765904
 20
950.2698599818295
 30
0.0
 11
2892.003399765904
 21
1341.047125685195
 31
0.0
  0
LINE
  5
C14B
330
747D
100
AcDbEntity
  8
0
 48
25.0
100
AcDbLine
 10
2978.126403320384
 20
930.7698599818323
 30
0.0
 11
3068.126403320384
 21
930.7698599818323
 31
0.0
  0
LINE
  5
C14C
330
747D
100
AcDbEntity
  8
0
 48
25.0
100
AcDbLine
 10
2978.126403320384
 20
936.7698599818323
 30
0.0
 11
3068.126403320384
 21
936.7698599818323
 31
0.0
  0
LINE
  5
C14D
330
747D
100
AcDbEntity
  8
0
  6
CENTER2
 48
10.0
100
AcDbLine
 10
2948.126403320384
 20
912.7698599818295
 30
0.0
 11
3104.126403320384
 21
912.7698599818295
 31
0.0
  0
SOLID
  5
C14F
330
747D
100
AcDbEntity
  8
寸法引出
 48
25.0
100
AcDbTrace
 10
2885.753399765905
 20
950.2698599818295
 30
0.0
 11
2898.253399765904
 21
950.2698599818295
 31
0.0
 12
2892.003399765904
 22
912.7698599818295
 32
0.0
 13
2892.003399765904
 23
912.7698599818295
 33
0.0
  0
LINE
  5
C150
330
747D
100
AcDbEntity
  8
寸法引出
 48
25.0
100
AcDbLine
 10
2932.726403320386
 20
912.7698599818295
 30
0.0
 11
2879.503399765905
 21
912.7698599818295
 31
0.0
  0
LINE
  5
C151
330
747D
100
AcDbEntity
  8
0
 48
25.0
100
AcDbLine
 10
3068.126403320384
 20
942.7698599818322
 30
0.0
 11
3068.126403320384
 21
936.7698599818323
 31
0.0
  0
LINE
  5
C152
330
747D
100
AcDbEntity
  8
0
 48
25.0
100
AcDbLine
 10
3068.126403320384
 20
942.7698599818322
 30
0.0
 11
3074.126403320384
 21
942.7698599818322
 31
0.0
  0
LINE
  5
C153
330
747D
100
AcDbEntity
  8
0
100
AcDbLine
 10
2313.168259561563
 20
1444.440623187686
 30
0.0
 11
2871.111815792126
 21
1444.440623187686
 31
0.0
  0
TEXT
  5
C154
330
747D
100
AcDbEntity
  8
0
100
AcDbText
 10
2330.636256495737
 20
1464.518897804804
 30
0.0
 40
60.0
  1
継手部詳細図
  7
SANWA
 72
     4
 11
2593.950542210023
 21
1495.204612090518
 31
0.0
100
AcDbText
  0
LEADER
  5
C159
330
747D
100
AcDbEntity
  8
寸法引出
 48
25.0
100
AcDbLeader
  3
SANWA
 76
     2
 10
2241.205978191119
 20
2116.01939517262
 30
0.0
 10
1949.886747186257
 20
2116.01939517262
 30
0.0
1001
ACAD
1000
DSTYLE
1002
{
1070
    77
1070
     0
1070
    40
1040
25.0
1070
    41
1040
1.5
1070
    43
1040
5.0
1070
    44
1040
0.5
1070
   140
1040
2.0
1070
   147
1040
1.0
1070
   176
1070
   256
1070
   177
1070
   256
1070
   178
1070
   256
1002
}
  0
MTEXT
  5
C15B
330
747D
100
AcDbEntity
  8
寸法引出
 48
25.0
100
AcDbMText
 10
2019.256838573401
 20
2155.326532478332
 30
0.0
 40
50.0
 41
0.0
 71
     5
 72
     1
  1
50r
  7
SANWA
 73
     1
 44
1.0
  0
LINE
  5
C164
330
747D
100
AcDbEntity
  8
0
100
AcDbLine
 10
5997.553191489351
 20
250.0000000000054
 30
0.0
 11
5997.553191489351
 21
990.000000000009
 31
0.0
  0
LINE
  5
C165
330
747D
100
AcDbEntity
  8
0
100
AcDbLine
 10
6077.553191489325
 20
510.0000000000027
 30
0.0
 11
6077.553191489325
 21
990.000000000009
 31
0.0
  0
LINE
  5
C166
330
747D
100
AcDbEntity
  8
0
100
AcDbLine
 10
7425.0
 20
250.0
 30
0.0
 11
7425.0
 21
0.0
 31
0.0
  0
LINE
  5
C167
330
747D
100
AcDbEntity
  8
0
100
AcDbLine
 10
7425.0
 20
0.0
 30
0.0
 11
7175.0
 21
0.0
 31
0.0
  0
TEXT
  5
C168
330
747D
100
AcDbEntity
  8
0
 48
2.0
100
AcDbText
 10
6015.480113215563
 20
541.5684862348999
 30
0.0
 40
27.99999999999999
  1
格
  7
SANWA
100
AcDbText
  0
TEXT
  5
C169
330
747D
100
AcDbEntity
  8
0
100
AcDbText
 10
6406.848024316115
 20
570.4571428571519
 30
0.0
 40
40.0
  1
300×1700×2000
  7
SANWA
 72
     4
 11
6626.276595744686
 21
590.000000000009
 31
0.0
100
AcDbText
  0
TEXT
  5
C16A
330
747D
100
AcDbEntity
  8
0
100
AcDbText
 10
6277.347189020751
 20
344.5314540178005
 30
0.0
 40
40.0
  1
三和コンクリート工業株式会社
  7
SANWA
100
AcDbText
  0
ARC
  5
C16B
330
747D
100
AcDbEntity
  8
0
100
AcDbCircle
 10
6133.560357219678
 20
372.0146930146711
 30
0.0
 40
69.10631488841319
100
AcDbArc
 50
141.6476737862061
 51
263.3523262137979
  0
ARC
  5
C16C
330
747D
100
AcDbEntity
  8
0
100
AcDbCircle
 10
6133.560357219678
 20
372.0146930146711
 30
0.0
 40
73.1063148884132
100
AcDbArc
 50
138.1364954470877
 51
266.8635045529165
  0
ARC
  5
C16D
330
747D
100
AcDbEntity
  8
0
100
AcDbCircle
 10
6133.560357219678
 20
372.0146930146711
 30
0.0
 40
59.10631488841318
100
AcDbArc
 50
142.7788203119019
 51
262.2211796880995
  0
ARC
  5
C16E
330
747D
100
AcDbEntity
  8
0
100
AcDbCircle
 10
6133.560357219678
 20
372.0146930146711
 30
0.0
 40
55.10631488841318
100
AcDbArc
 50
139.1625874111294
 51
265.8374125888726
  0
TEXT
  5
C16F
330
747D
100
AcDbEntity
  8
0
100
AcDbText
 10
6111.181671391569
 20
344.5314540178005
 30
0.0
 40
30.0
  1
和
  7
SANWA
100
AcDbText
  0
TEXT
  5
C170
330
747D
100
AcDbEntity
  8
0
 48
2.0
100
AcDbText
 10
5915.237707257489
 20
133.0769540501696
 30
0.0
 40
40.0
  1
中
  7
SANWA
100
AcDbText
  0
ARC
  5
C171
330
747D
100
AcDbEntity
  8
0
100
AcDbCircle
 10
6133.560357219678
 20
372.0146930146711
 30
0.0
 40
55.10631488841318
100
AcDbArc
 50
274.1625874111285
 51
40.8374125888707
  0
ARC
  5
C172
330
747D
100
AcDbEntity
  8
0
100
AcDbCircle
 10
6133.560357219678
 20
372.0146930146711
 30
0.0
 40
59.10631488841318
100
AcDbArc
 50
277.7788203119025
 51
37.2211796880979
  0
ARC
  5
C173
330
747D
100
AcDbEntity
  8
0
100
AcDbCircle
 10
6133.560357219678
 20
372.0146930146711
 30
0.0
 40
73.1063148884132
100
AcDbArc
 50
273.1364954470843
 51
41.86350455291269
  0
ARC
  5
C174
330
747D
100
AcDbEntity
  8
0
100
AcDbCircle
 10
6133.560357219678
 20
372.0146930146711
 30
0.0
 40
69.10631488841319
100
AcDbArc
 50
276.6476737862029
 51
38.35232621379395
  0
HATCH
  5
C175
330
747D
100
AcDbEntity
  8
0
100
AcDbHatch
 10
0.0
 20
0.0
 30
0.0
210
0.0
220
0.0
230
1.0
  2
SOLID
 70
     1
 71
     0
 91
        6
 92
        7
 72
     1
 73
     1
 93
        4
 10
6084.772249800881
 20
426.4596546829295
 42
0.0
 10
6097.525524441357
 20
413.7063800424442
 42
-0.3722683533228753
 10
6169.595189997956
 20
413.7063800424442
 42
0.0
 10
6182.348464638402
 20
426.4596546829324
 42
0.3824979940290045
 97
        0
 92
       22
 72
     1
 73
     1
 93
        4
 10
6176.440513371781
 20
426.2085576657966
 42
0.0
 10
6169.313383793983
 20
419.0814280879919
 42
0.3367429548951066
 10
6097.8073306453
 20
419.0814280879948
 42
0.0
 10
6090.680201067502
 20
426.2085576657938
 42
-0.347770427523089
 97
        0
 92
        7
 72
     1
 73
     1
 93
        4
 10
6175.252044247463
 20
408.0495257929527
 42
-0.6168583269099046
 10
6137.560357219656
 20
317.0537437817699
 42
0.0
 10
6137.560357219656
 20
299.0178898205272
 42
0.6292889159379735
 10
6188.00531888791
 20
420.802800433438
 42
0.0
 97
        0
 92
       22
 72
     1
 73
     1
 93
        4
 10
6187.754221870797
 20
414.8948491668107
 42
-0.5873104908889238
 10
6141.560357219656
 20
303.3729946276309
 42
0.0
 10
6141.560357219656
 20
313.4522779373469
 42
0.5741105922167471
 10
6180.627092292969
 20
407.7677195890089
 42
0.0
 97
        0
 92
        7
 72
     1
 73
     1
 93
        4
 10
6079.115395551372
 20
420.802800433438
 42
0.6292889159379591
 10
6129.560357219656
 20
299.0178898205272
 42
0.0
 10
6129.560357219656
 20
317.0537437817699
 42
-0.6168583269099637
 10
6091.868670191878
 20
408.0495257929527
 42
0.0
 97
        0
 92
       22
 72
     1
 73
     1
 93
        4
 10
6086.493622146313
 20
407.7677195890089
 42
0.5741105922167495
 10
6125.560357219685
 20
313.4522779373469
 42
0.0
 10
6125.560357219685
 20
303.3729946276309
 42
-0.5873104908889167
 10
6079.366492568516
 20
414.8948491668107
 42
0.0
 97
        0
 75
     0
 76
     1
 47
0.0143554168026844
 98
        6
 10
6165.580827973259
 20
434.8088762841882
 10
6165.580827973259
 20
434.8088762841882
 10
6180.523262244765
 20
411.5531024217716
 10
6180.523262244765
 20
411.5531024217716
 10
6088.282422260032
 20
410.6917769343397
 10
6088.282422260032
 20
410.6917769343397
  0
CIRCLE
  5
C176
330
747D
100
AcDbEntity
  8
0
100
AcDbCircle
 10
5942.834864212142
 20
119.74045816538
 30
0.0
 40
75.97521057257927
  0
TEXT
  5
C177
330
747D
100
AcDbEntity
  8
0
 48
2.0
100
AcDbText
 10
5914.297089652886
 20
76.45893557311592
 30
0.0
 40
40.0
  1
川
  7
SANWA
100
AcDbText
  0
LINE
  5
C178
330
747D
100
AcDbEntity
  8
0
100
AcDbLine
 10
6129.560357219681
 20
299.0178898205276
 30
0.0
 11
6129.560357219681
 21
317.0537437817702
 31
0.0
  0
LINE
  5
C179
330
747D
100
AcDbEntity
  8
0
100
AcDbLine
 10
6137.560357219674
 20
299.0178898205276
 30
0.0
 11
6137.560357219674
 21
317.0537437817702
 31
0.0
  0
LINE
  5
C17A
330
747D
100
AcDbEntity
  8
0
100
AcDbLine
 10
6141.56035721967
 20
303.3729946276307
 30
0.0
 11
6141.56035721967
 21
313.4522779373464
 31
0.0
  0
LINE
  5
C17B
330
747D
100
AcDbEntity
  8
0
100
AcDbLine
 10
6125.560357219685
 20
303.3729946276307
 30
0.0
 11
6125.560357219685
 21
313.4522779373464
 31
0.0
  0
ARC
  5
C17C
330
747D
100
AcDbEntity
  8
0
100
AcDbCircle
 10
6133.560357219678
 20
372.0146930146711
 30
0.0
 40
69.10631488841319
100
AcDbArc
 50
51.64767378620884
 51
128.3523262138006
  0
ARC
  5
C17D
330
747D
100
AcDbEntity
  8
0
100
AcDbCircle
 10
6133.560357219678
 20
372.0146930146711
 30
0.0
 40
73.1063148884132
100
AcDbArc
 50
48.13649544708379
 51
131.8635045529163
  0
LINE
  5
C17E
330
747D
100
AcDbEntity
  8
0
100
AcDbLine
 10
6169.595189997973
 20
413.7063800424466
 30
0.0
 11
6182.348464638428
 21
426.4596546829352
 31
0.0
  0
LINE
  5
C17F
330
747D
100
AcDbEntity
  8
0
100
AcDbLine
 10
6169.313383793997
 20
419.0814280879976
 30
0.0
 11
6176.440513371792
 21
426.2085576657964
 31
0.0
  0
TEXT
  5
C180
330
747D
100
AcDbEntity
  8
0
 48
2.0
100
AcDbText
 10
5831.24899340728
 20
462.0856316808048
 30
0.0
 40
40.0
  1
製図
  7
SANWA
100
AcDbText
  0
ARC
  5
C181
330
747D
100
AcDbEntity
  8
0
100
AcDbCircle
 10
6133.560357219678
 20
372.0146930146711
 30
0.0
 40
55.10631488841318
100
AcDbArc
 50
49.16258741113066
 51
130.83741258887
  0
ARC
  5
C182
330
747D
100
AcDbEntity
  8
0
100
AcDbCircle
 10
6133.560357219678
 20
372.0146930146711
 30
0.0
 40
59.10631488841318
100
AcDbArc
 50
52.77882031190561
 51
127.2211796880944
  0
TEXT
  5
C183
330
747D
100
AcDbEntity
  8
0
100
AcDbText
 10
6111.181671391569
 20
384.3868193377375
 30
0.0
 40
30.0
  1
三
  7
SANWA
100
AcDbText
  0
LINE
  5
C184
330
747D
100
AcDbEntity
  8
0
100
AcDbLine
 10
6091.868670191892
 20
408.0495257929551
 30
0.0
 11
6079.037959089786
 21
420.8802368950783
 31
0.0
  0
LINE
  5
C185
330
747D
100
AcDbEntity
  8
0
100
AcDbLine
 10
6086.493622146329
 20
407.7677195890092
 30
0.0
 11
6079.366492568537
 21
414.8948491668079
 31
0.0
  0
LINE
  5
C186
330
747D
100
AcDbEntity
  8
0
100
AcDbLine
 10
6097.525524441382
 20
413.7063800424466
 30
0.0
 11
6084.694813339276
 21
426.5370911445698
 31
0.0
  0
LINE
  5
C187
330
747D
100
AcDbEntity
  8
0
100
AcDbLine
 10
6097.807330645312
 20
419.0814280879976
 30
0.0
 11
6090.680201067517
 21
426.2085576657909
 31
0.0
  0
LINE
  5
C188
330
747D
100
AcDbEntity
  8
0
100
AcDbLine
 10
6180.627092292983
 20
407.7677195890092
 30
0.0
 11
6187.754221870775
 21
414.8948491668079
 31
0.0
  0
LINE
  5
C189
330
747D
100
AcDbEntity
  8
0
100
AcDbLine
 10
6175.252044247463
 20
408.0495257929551
 30
0.0
 11
6188.005318887917
 21
420.8028004334383
 31
0.0
  0
TEXT
  5
C18A
330
747D
100
AcDbEntity
  8
0
100
AcDbText
 10
6362.9623100304
 20
890.0000000000027
 30
0.0
 40
40.0
  1
マルチスリット側溝
  7
SANWA
 72
     4
 11
6626.276595744686
 21
910.0000000000028
 31
0.0
100
AcDbText
  0
LINE
  5
C18B
330
747D
100
AcDbEntity
  8
0
 62
     0
100
AcDbLine
 10
5997.553191489351
 20
830.0000000000064
 30
0.0
 11
7175.0
 21
830.0000000000064
 31
0.0
  0
LINE
  5
C18C
330
747D
100
AcDbEntity
  8
0
 62
     0
100
AcDbLine
 10
5997.553191489351
 20
670.0000000000045
 30
0.0
 11
7175.0
 21
670.0000000000045
 31
0.0
  0
TEXT
  5
C18D
330
747D
100
AcDbEntity
  8
0
 48
2.0
100
AcDbText
 10
6014.605708847332
 20
777.3913655001133
 30
0.0
 40
27.99999999999999
  1
呼
  7
SANWA
100
AcDbText
  0
TEXT
  5
C18E
330
747D
100
AcDbEntity
  8
0
 48
2.0
100
AcDbText
 10
6015.480113215563
 20
601.1410255214623
 30
0.0
 40
27.99999999999999
  1
規
  7
SANWA
100
AcDbText
  0
TEXT
  5
C18F
330
747D
100
AcDbEntity
  8
0
 48
2.0
100
AcDbText
 10
6014.208558144768
 20
739.0543600013415
 30
0.0
 40
27.99999999999999
  1
び
  7
SANWA
100
AcDbText
  0
TEXT
  5
C190
330
747D
100
AcDbEntity
  8
0
 48
2.0
100
AcDbText
 10
6014.775609774872
 20
699.8772475912174
 30
0.0
 40
27.99999999999999
  1
名
  7
SANWA
100
AcDbText
  0
TEXT
  5
C191
330
747D
100
AcDbEntity
  8
0
 48
2.0
100
AcDbText
 10
6014.721730996193
 20
868.3271054076557
 30
0.0
 40
27.99999999999999
  1
名
  7
SANWA
100
AcDbText
  0
TEXT
  5
C192
330
747D
100
AcDbEntity
  8
0
 48
2.0
100
AcDbText
 10
6016.23849543494
 20
933.9614944784161
 30
0.0
 40
27.99999999999999
  1
品
  7
SANWA
100
AcDbText
  0
LINE
  5
C193
330
747D
100
AcDbEntity
  8
0
100
AcDbLine
 10
5997.553191489351
 20
990.000000000009
 30
0.0
 11
6035.462120509059
 21
990.000000000009
 31
0.0
  0
LINE
  5
C194
330
747D
100
AcDbEntity
  8
0
 48
25.0
100
AcDbLine
 10
4123.469910207106
 20
3798.773926618955
 30
0.0
 11
6123.469910207106
 21
3798.773926618955
 31
0.0
  0
DIMENSION
  5
C195
330
747D
100
AcDbEntity
  8
寸法引出
 48
25.0
100
AcDbDimension
  2
*D11
 10
6123.469910207106
 20
4073.087473724058
 30
0.0
 11
5123.469910207106
 21
4123.087473724058
 31
0.0
 70
    32
 71
     5
 42
2000.0
  3
SANWA
100
AcDbAlignedDimension
 13
4123.469910207106
 23
3798.773926618955
 33
0.0
 14
6123.469910207106
 24
3798.773926618955
 34
0.0
100
AcDbRotatedDimension
1001
ACAD
1000
DSTYLE
1002
{
1070
    40
1040
25.0
1070
    41
1040
1.5
1070
    43
1040
5.0
1070
    44
1040
0.5
1070
   140
1040
2.0
1070
   147
1040
1.0
1070
   176
1070
   256
1070
   177
1070
   256
1070
   178
1070
   256
1002
}
  0
DIMENSION
  5
C196
330
747D
100
AcDbEntity
  8
寸法引出
 48
25.0
100
AcDbDimension
  2
*D10
 10
6003.469910207106
 20
3949.959402227308
 30
0.0
 11
5623.469910207106
 21
3999.959402227307
 31
0.0
 70
    32
 71
     5
 42
760.0
  3
SANWA
100
AcDbAlignedDimension
 13
5243.469910207107
 23
3798.773926618955
 33
0.0
 14
6003.469910207106
 24
3798.773926618955
 34
0.0
100
AcDbRotatedDimension
1001
ACAD
1000
DSTYLE
1002
{
1070
   279
1070
     1
1070
    40
1040
25.0
1070
    41
1040
1.5
1070
    43
1040
5.0
1070
    44
1040
0.5
1070
   140
1040
2.0
1070
   147
1040
1.0
1070
   176
1070
   256
1070
   177
1070
   256
1070
   178
1070
   256
1002
}
  0
LINE
  5
C197
330
747D
100
AcDbEntity
  8
枠
100
AcDbLine
 10
625.0
 20
5000.0
 30
0.0
 11
7175.0
 21
5000.0
 31
0.0
  0
TEXT
  5
C1C2
330
747D
100
AcDbEntity
  8
0
100
AcDbText
 10
1641.010191058177
 20
4048.328292550849
 30
0.0
 40
60.0
  1
正面図
  7
SANWA
 72
     4
 11
1772.66733391532
 21
4078.156863979422
 31
0.0
100
AcDbText
  0
LINE
  5
C1C3
330
747D
100
AcDbEntity
  8
0
100
AcDbLine
 10
1645.730441086904
 20
4027.392875076595
 30
0.0
 11
1892.710222309484
 21
4027.392875076595
 31
0.0
  0
DIMENSION
  5
C1C4
330
747D
100
AcDbEntity
  8
寸法引出
 48
25.0
100
AcDbDimension
  2
*D16
 10
5243.469910207107
 20
3949.959402227308
 30
0.0
 11
5123.469910207106
 21
3999.959402227307
 31
0.0
 70
    32
 71
     5
 42
240.0
  3
SANWA
100
AcDbAlignedDimension
 13
5003.469910207106
 23
3798.773926618955
 33
0.0
 14
5243.469910207107
 24
3798.773926618955
 34
0.0
100
AcDbRotatedDimension
1001
ACAD
1000
DSTYLE
1002
{
1070
   279
1070
     1
1070
    40
1040
25.0
1070
    41
1040
1.5
1070
    43
1040
5.0
1070
    44
1040
0.5
1070
   140
1040
2.0
1070
   147
1040
1.0
1070
   176
1070
   256
1070
   177
1070
   256
1070
   178
1070
   256
1002
}
  0
DIMENSION
  5
C1C5
330
747D
100
AcDbEntity
  8
寸法引出
 48
25.0
100
AcDbDimension
  2
*D13
 10
4243.469910207106
 20
3949.959402227308
 30
0.0
 11
4183.469910207106
 21
3999.959402227307
 31
0.0
 70
    32
 71
     5
 42
120.0
  3
SANWA
100
AcDbAlignedDimension
 13
4123.469910207106
 23
3798.773926618955
 33
0.0
 14
4243.469910207106
 24
3798.773926618955
 34
0.0
100
AcDbRotatedDimension
1001
ACAD
1000
DSTYLE
1002
{
1070
    40
1040
25.0
1070
    41
1040
1.5
1070
    43
1040
5.0
1070
    44
1040
0.5
1070
   140
1040
2.0
1070
   147
1040
1.0
1070
   176
1070
   256
1070
   177
1070
   256
1070
   178
1070
   256
1002
}
  0
DIMENSION
  5
C1C6
330
747D
100
AcDbEntity
  8
寸法引出
 48
25.0
100
AcDbDimension
  2
*D12
 10
5003.469910207106
 20
3949.959402227308
 30
0.0
 11
4623.469910207106
 21
3999.959402227307
 31
0.0
 70
    32
 71
     5
 42
760.0
  3
SANWA
100
AcDbAlignedDimension
 13
4243.469910207106
 23
3798.773926618955
 33
0.0
 14
5003.469910207106
 24
3798.773926618955
 34
0.0
100
AcDbRotatedDimension
1001
ACAD
1000
DSTYLE
1002
{
1070
   279
1070
     1
1070
    40
1040
25.0
1070
    41
1040
1.5
1070
    43
1040
5.0
1070
    44
1040
0.5
1070
   140
1040
2.0
1070
   147
1040
1.0
1070
   176
1070
   256
1070
   177
1070
   256
1070
   178
1070
   256
1002
}
  0
DIMENSION
  5
C1C7
330
747D
100
AcDbEntity
  8
寸法引出
 48
25.0
100
AcDbDimension
  2
*D14
 10
4173.469910207106
 20
3513.698933613192
 30
0.0
 11
4148.469910207106
 21
3563.698933613192
 31
0.0
 70
    32
 71
     5
 42
50.0
  3
SANWA
100
AcDbAlignedDimension
 13
4123.469910207106
 23
3624.273926618956
 33
0.0
 14
4173.469910207106
 24
3648.773926618956
 34
0.0
100
AcDbRotatedDimension
1001
ACAD
1000
DSTYLE
1002
{
1070
    40
1040
25.0
1070
    41
1040
1.5
1070
    43
1040
5.0
1070
    44
1040
0.5
1070
   140
1040
2.0
1070
   147
1040
1.0
1070
   176
1070
   256
1070
   177
1070
   256
1070
   178
1070
   256
1002
}
  0
DIMENSION
  5
C1C8
330
747D
100
AcDbEntity
  8
寸法引出
 48
25.0
100
AcDbDimension
  2
*D15
 10
3996.237552926137
 20
3798.773926618955
 30
0.0
 11
3946.237552926136
 21
3723.773926618956
 31
0.0
 70
    32
 71
     5
 42
150.0
  3
SANWA
100
AcDbAlignedDimension
 13
4123.469910207106
 23
3648.773926618956
 33
0.0
 14
4123.469910207106
 24
3798.773926618955
 34
0.0
 50
90.0
100
AcDbRotatedDimension
1001
ACAD
1000
DSTYLE
1002
{
1070
    40
1040
25.0
1070
    41
1040
1.5
1070
    43
1040
5.0
1070
    44
1040
0.5
1070
   140
1040
2.0
1070
   147
1040
1.0
1070
   176
1070
   256
1070
   177
1070
   256
1070
   178
1070
   256
1002
}
  0
CIRCLE
  5
C1CB
330
747D
100
AcDbEntity
  8
0
 48
25.0
100
AcDbCircle
 10
4173.469910207106
 20
3648.773926618956
 30
0.0
 40
6.0
  0
LINE
  5
C1D2
330
747D
100
AcDbEntity
  8
0
  6
HIDDEN2
 48
10.0
100
AcDbLine
 10
4233.469910207106
 20
3765.773926618956
 30
0.0
 11
4253.469910207106
 21
3765.773926618956
 31
0.0
  0
LINE
  5
C1D3
330
747D
100
AcDbEntity
  8
0
  6
HIDDEN2
 48
10.0
100
AcDbLine
 10
4233.469910207106
 20
3798.773926618955
 30
0.0
 11
4233.469910207106
 21
3765.773926618956
 31
0.0
  0
LINE
  5
C1D4
330
747D
100
AcDbEntity
  8
0
  6
HIDDEN2
 48
10.0
100
AcDbLine
 10
4253.469910207106
 20
3798.773926618955
 30
0.0
 11
4253.469910207106
 21
3765.773926618956
 31
0.0
  0
LINE
  5
C1D5
330
747D
100
AcDbEntity
  8
0
 48
25.0
100
AcDbLine
 10
5093.46991020711
 20
2748.773926618957
 30
0.0
 11
5153.469910207107
 21
2748.773926618957
 31
0.0
  0
LINE
  5
C1D6
330
747D
100
AcDbEntity
  8
0
 48
25.0
100
AcDbLine
 10
5123.469910207109
 20
2778.773926618957
 30
0.0
 11
5123.469910207106
 21
2718.773926618957
 31
0.0
  0
CIRCLE
  5
C1D7
330
747D
100
AcDbEntity
  8
0
 48
25.0
100
AcDbCircle
 10
5123.469910207106
 20
2748.773926618957
 30
0.0
 40
16.0
  0
CIRCLE
  5
C1D8
330
747D
100
AcDbEntity
  8
0
 48
25.0
100
AcDbCircle
 10
5123.469910207106
 20
2748.773926618957
 30
0.0
 40
17.5
  0
LINE
  5
C1D9
330
747D
100
AcDbEntity
  8
0
  6
HIDDEN2
 48
10.0
100
AcDbLine
 10
4993.469910207107
 20
3798.773926618955
 30
0.0
 11
4993.469910207107
 21
3765.773926618956
 31
0.0
  0
LINE
  5
C1DA
330
747D
100
AcDbEntity
  8
0
  6
HIDDEN2
 48
10.0
100
AcDbLine
 10
5013.469910207106
 20
3798.773926618955
 30
0.0
 11
5013.469910207106
 21
3765.773926618956
 31
0.0
  0
LINE
  5
C1DB
330
747D
100
AcDbEntity
  8
0
  6
HIDDEN2
 48
10.0
100
AcDbLine
 10
4993.469910207107
 20
3765.773926618956
 30
0.0
 11
5013.469910207106
 21
3765.773926618956
 31
0.0
  0
LINE
  5
C1DC
330
747D
100
AcDbEntity
  8
0
  6
HIDDEN2
 48
10.0
100
AcDbLine
 10
5233.469910207106
 20
3765.773926618956
 30
0.0
 11
5253.469910207106
 21
3765.773926618956
 31
0.0
  0
LINE
  5
C1DD
330
747D
100
AcDbEntity
  8
0
  6
HIDDEN2
 48
10.0
100
AcDbLine
 10
5233.469910207106
 20
3798.773926618955
 30
0.0
 11
5233.469910207106
 21
3765.773926618956
 31
0.0
  0
LINE
  5
C1DE
330
747D
100
AcDbEntity
  8
0
  6
HIDDEN2
 48
10.0
100
AcDbLine
 10
5253.469910207106
 20
3798.773926618955
 30
0.0
 11
5253.469910207106
 21
3765.773926618956
 31
0.0
  0
TEXT
  5
C1DF
330
747D
100
AcDbEntity
  8
0
100
AcDbText
 10
3694.573366774746
 20
4047.985435407997
 30
0.0
 40
60.0
  1
側面図
  7
SANWA
 72
     4
 11
3826.230509631889
 21
4078.156863979425
 31
0.0
100
AcDbText
  0
LINE
  5
C1E0
330
747D
100
AcDbEntity
  8
0
100
AcDbLine
 10
3701.85980249985
 20
4027.392875076595
 30
0.0
 11
3948.839583722431
 21
4027.392875076595
 31
0.0
  0
LINE
  5
C1E1
330
747D
100
AcDbEntity
  8
0
100
AcDbLine
 10
2384.312133845662
 20
4500.0
 30
0.0
 11
5290.761576616435
 21
4500.0
 31
0.0
  0
LINE
  5
C1E2
330
747D
100
AcDbEntity
  8
0
100
AcDbLine
 10
2384.312133845662
 20
4480.000000000001
 30
0.0
 11
5290.761576616435
 21
4480.000000000001
 31
0.0
  0
TEXT
  5
C1E3
330
747D
100
AcDbEntity
  8
0
100
AcDbText
 10
2420.801058842517
 20
4537.948317370436
 30
0.0
 40
70.0
  1
マルチスリット側溝 ３００×１７００×２０００
  7
SANWA
 72
     4
 11
3572.801058842517
 21
4572.948317370436
 31
0.0
100
AcDbText
  0
TEXT
  5
C1E4
330
747D
100
AcDbEntity
  8
0
100
AcDbText
 10
4908.464691771168
 20
4544.491174513294
 30
0.0
 40
60.0
  1
W=1639㎏
  7
SANWA
 72
     4
 11
5084.007548914025
 21
4572.948317370436
 31
0.0
100
AcDbText
  0
DIMENSION
  5
C1E5
330
747D
100
AcDbEntity
  8
寸法引出
 48
25.0
100
AcDbDimension
  2
*D17
 10
6123.469910207106
 20
3949.959402227308
 30
0.0
 11
6063.469910207107
 21
3999.959402227307
 31
0.0
 70
    32
 71
     5
 42
120.0
  3
SANWA
100
AcDbAlignedDimension
 13
6003.469910207106
 23
3798.773926618955
 33
0.0
 14
6123.469910207106
 24
3798.773926618955
 34
0.0
100
AcDbRotatedDimension
1001
ACAD
1000
DSTYLE
1002
{
1070
   279
1070
     1
1070
    40
1040
25.0
1070
    41
1040
1.5
1070
    43
1040
5.0
1070
    44
1040
0.5
1070
   140
1040
2.0
1070
   147
1040
1.0
1070
   176
1070
   256
1070
   177
1070
   256
1070
   178
1070
   256
1002
}
  0
CIRCLE
  5
C1E8
330
747D
100
AcDbEntity
  8
0
 48
25.0
100
AcDbCircle
 10
6073.469910207106
 20
3648.773926618956
 30
0.0
 40
6.0
  0
LINE
  5
C1EF
330
747D
100
AcDbEntity
  8
0
  6
HIDDEN2
 48
10.0
100
AcDbLine
 10
5993.469910207107
 20
3765.773926618956
 30
0.0
 11
6013.469910207106
 21
3765.773926618956
 31
0.0
  0
LINE
  5
C1F0
330
747D
100
AcDbEntity
  8
0
  6
HIDDEN2
 48
10.0
100
AcDbLine
 10
5993.469910207107
 20
3798.773926618955
 30
0.0
 11
5993.469910207107
 21
3765.773926618956
 31
0.0
  0
LINE
  5
C1F1
330
747D
100
AcDbEntity
  8
0
  6
HIDDEN2
 48
10.0
100
AcDbLine
 10
6013.469910207106
 20
3798.773926618955
 30
0.0
 11
6013.469910207106
 21
3765.773926618956
 31
0.0
  0
LINE
  5
C1F2
330
747D
100
AcDbEntity
  8
0
100
AcDbLine
 10
7425.0
 20
5250.0
 30
0.0
 11
7425.0
 21
5000.0
 31
0.0
  0
LINE
  5
C1F3
330
747D
100
AcDbEntity
  8
0
100
AcDbLine
 10
7175.0
 20
5250.0
 30
0.0
 11
7425.0
 21
5250.0
 31
0.0
  0
LINE
  5
C604
330
747D
100
AcDbEntity
  8
0
 48
25.0
100
AcDbLine
 10
4123.469910207106
 20
2003.773926618956
 30
0.0
 11
6123.469910207106
 21
2003.773926618956
 31
0.0
  0
LINE
  5
C607
330
747D
100
AcDbEntity
  8
0
 48
25.0
100
AcDbLine
 10
4123.469910207106
 20
1983.773926618955
 30
0.0
 11
4133.469910207106
 21
1973.773926618955
 31
0.0
  0
LINE
  5
C6A6
330
747D
100
AcDbEntity
  8
0
 48
25.0
100
AcDbLine
 10
6113.469910207107
 20
1973.773926618955
 30
0.0
 11
6123.469910207106
 21
1983.773926618955
 31
0.0
  0
DIMENSION
  5
C6B0
330
747D
100
AcDbEntity
  8
寸法引出
 48
25.0
100
AcDbDimension
  2
*D25
 10
2505.124842940757
 20
4080.521401025288
 30
0.0
 11
2305.124842940756
 21
4130.521401025288
 31
0.0
 70
    32
 71
     5
 42
400.0
  3
SANWA
100
AcDbAlignedDimension
 13
2105.124842940756
 23
3798.773926618955
 33
0.0
 14
2505.124842940757
 24
3798.773926618955
 34
0.0
100
AcDbRotatedDimension
1001
ACAD
1000
DSTYLE
1002
{
1070
    40
1040
25.0
1070
    41
1040
1.5
1070
    43
1040
5.0
1070
    44
1040
0.5
1070
   140
1040
2.0
1070
   147
1040
1.0
1070
   176
1070
   256
1070
   177
1070
   256
1070
   178
1070
   256
1002
}
  0
DIMENSION
  5
C6B1
330
747D
100
AcDbEntity
  8
寸法引出
 48
25.0
100
AcDbDimension
  2
*D24
 10
2505.124842940757
 20
3949.959402227308
 30
0.0
 11
2480.124842940757
 21
3999.959402227307
 31
0.0
 70
    32
 71
     5
 42
50.0
  3
SANWA
100
AcDbAlignedDimension
 13
2455.124842940756
 23
3798.773926618955
 33
0.0
 14
2505.124842940757
 24
3798.773926618955
 34
0.0
100
AcDbRotatedDimension
1001
ACAD
1000
DSTYLE
1002
{
1070
   279
1070
     1
1070
    40
1040
25.0
1070
    41
1040
1.5
1070
    43
1040
5.0
1070
    44
1040
0.5
1070
   140
1040
2.0
1070
   147
1040
1.0
1070
   176
1070
   256
1070
   177
1070
   256
1070
   178
1070
   256
1002
}
  0
DIMENSION
  5
C6B2
330
747D
100
AcDbEntity
  8
寸法引出
 48
25.0
100
AcDbDimension
  2
*D23
 10
2455.124842940756
 20
3949.959402227308
 30
0.0
 11
2305.124842940756
 21
3999.959402227307
 31
0.0
 70
    32
 71
     5
 42
300.0
  3
SANWA
100
AcDbAlignedDimension
 13
2155.124842940757
 23
3798.773926618955
 33
0.0
 14
2455.124842940756
 24
3798.773926618955
 34
0.0
100
AcDbRotatedDimension
1001
ACAD
1000
DSTYLE
1002
{
1070
   279
1070
     1
1070
    40
1040
25.0
1070
    41
1040
1.5
1070
    43
1040
5.0
1070
    44
1040
0.5
1070
   140
1040
2.0
1070
   147
1040
1.0
1070
   176
1070
   256
1070
   177
1070
   256
1070
   178
1070
   256
1002
}
  0
DIMENSION
  5
C6B3
330
747D
100
AcDbEntity
  8
寸法引出
 48
25.0
100
AcDbDimension
  2
*D22
 10
2155.124842940757
 20
3949.959402227308
 30
0.0
 11
2130.124842940757
 21
3999.959402227307
 31
0.0
 70
    32
 71
     5
 42
50.0
  3
SANWA
100
AcDbAlignedDimension
 13
2105.124842940756
 23
3798.773926618955
 33
0.0
 14
2155.124842940757
 24
3798.773926618955
 34
0.0
100
AcDbRotatedDimension
1001
ACAD
1000
DSTYLE
1002
{
1070
    40
1040
25.0
1070
    41
1040
1.5
1070
    43
1040
5.0
1070
    44
1040
0.5
1070
   140
1040
2.0
1070
   147
1040
1.0
1070
   176
1070
   256
1070
   177
1070
   256
1070
   178
1070
   256
1002
}
  0
DIMENSION
  5
C6B8
330
747D
100
AcDbEntity
  8
寸法引出
 48
25.0
100
AcDbDimension
  2
*D21
 10
2658.192684148191
 20
1973.773926618953
 30
0.0
 11
2608.19268414819
 21
2036.273926618953
 31
0.0
 70
    32
 71
     5
 42
125.0
  3
SANWA
100
AcDbAlignedDimension
 13
2505.124842940757
 23
2098.773926618953
 33
0.0
 14
2475.124842940753
 24
1973.773926618953
 34
0.0
 50
90.0
100
AcDbRotatedDimension
1001
ACAD
1000
DSTYLE
1002
{
1070
   279
1070
     1
1070
    40
1040
25.0
1070
    41
1040
1.5
1070
    43
1040
5.0
1070
    44
1040
0.5
1070
   140
1040
2.0
1070
   147
1040
1.0
1070
   176
1070
   256
1070
   177
1070
   256
1070
   178
1070
   256
1002
}
  0
DIMENSION
  5
C6B9
330
747D
100
AcDbEntity
  8
寸法引出
 48
25.0
100
AcDbDimension
  2
*D20
 10
2808.811983659325
 20
1973.773926618953
 30
0.0
 11
2758.811983659324
 21
2886.273926618954
 31
0.0
 70
    32
 71
     5
 42
1825.000000000001
  3
SANWA
100
AcDbAlignedDimension
 13
2505.124842940757
 23
3798.773926618955
 33
0.0
 14
2475.124842940753
 24
1973.773926618953
 34
0.0
 50
90.0
100
AcDbRotatedDimension
1001
ACAD
1000
DSTYLE
1002
{
1070
    40
1040
25.0
1070
    41
1040
1.5
1070
    43
1040
5.0
1070
    44
1040
0.5
1070
   140
1040
2.0
1070
   147
1040
1.0
1070
   176
1070
   256
1070
   177
1070
   256
1070
   178
1070
   256
1002
}
  0
DIMENSION
  5
C6BA
330
747D
100
AcDbEntity
  8
寸法引出
 48
25.0
100
AcDbDimension
  2
*D19
 10
2658.192684148191
 20
2098.773926618953
 30
0.0
 11
2608.19268414819
 21
2948.773926618954
 31
0.0
 70
    32
 71
     5
 42
1700.000000000001
  3
SANWA
100
AcDbAlignedDimension
 13
2505.124842940757
 23
3798.773926618955
 33
0.0
 14
2505.124842940757
 24
2098.773926618953
 34
0.0
 50
90.0
100
AcDbRotatedDimension
1001
ACAD
1000
DSTYLE
1002
{
1070
    40
1040
25.0
1070
    41
1040
1.5
1070
    43
1040
5.0
1070
    44
1040
0.5
1070
   140
1040
2.0
1070
   147
1040
1.0
1070
   176
1070
   256
1070
   177
1070
   256
1070
   178
1070
   256
1002
}
  0
LINE
  5
C6BB
330
747D
100
AcDbEntity
  8
0
 48
15.0
100
AcDbLine
 10
2505.124842940757
 20
3798.773926618955
 30
0.0
 11
2505.124842940753
 21
2003.773926618953
 31
0.0
  0
LINE
  5
C6BC
330
747D
100
AcDbEntity
  8
0
 48
15.0
100
AcDbLine
 10
2105.124842940756
 20
3798.773926618955
 30
0.0
 11
2105.12484294076
 21
2003.773926618953
 31
0.0
  0
LINE
  5
C6C2
330
747D
100
AcDbEntity
  8
0
 48
15.0
100
AcDbLine
 10
2135.12484294076
 20
1973.773926618953
 30
0.0
 11
2475.124842940753
 21
1973.773926618953
 31
0.0
  0
LINE
  5
C6C3
330
747D
100
AcDbEntity
  8
0
 48
25.0
100
AcDbLine
 10
2105.12484294076
 20
2003.773926618953
 30
0.0
 11
2135.12484294076
 21
1973.773926618953
 31
0.0
  0
LINE
  5
C6C4
330
747D
100
AcDbEntity
  8
0
 48
25.0
100
AcDbLine
 10
2505.124842940753
 20
2003.773926618953
 30
0.0
 11
2475.124842940753
 21
1973.773926618953
 31
0.0
  0
LINE
  5
C6EB
330
747D
100
AcDbEntity
  8
0
 48
15.0
100
AcDbLine
 10
2105.124842940756
 20
3798.773926618955
 30
0.0
 11
2155.124842940757
 21
3798.773926618955
 31
0.0
  0
LINE
  5
C6EC
330
747D
100
AcDbEntity
  8
0
 48
15.0
100
AcDbLine
 10
2455.124842940756
 20
3798.773926618955
 30
0.0
 11
2505.124842940757
 21
3798.773926618955
 31
0.0
  0
LINE
  5
C81F
330
747D
100
AcDbEntity
  8
0
  6
CENTER2
 48
10.0
100
AcDbLine
 10
2075.124842940757
 20
2748.773926618953
 30
0.0
 11
2224.013731829651
 21
2748.773926618953
 31
0.0
  0
LINE
  5
C820
330
747D
100
AcDbEntity
  8
0
  6
HIDDEN2
 48
15.0
100
AcDbLine
 10
2105.124842940756
 20
2766.273926618953
 30
0.0
 11
2193.117244811327
 21
2764.91069294876
 31
0.0
  0
LINE
  5
C821
330
747D
100
AcDbEntity
  8
0
  6
HIDDEN2
 48
15.0
100
AcDbLine
 10
2105.124842940756
 20
2731.273926618953
 30
0.0
 11
2194.909649091933
 21
2732.647415897843
 31
0.0
  0
LINE
  5
C822
330
747D
100
AcDbEntity
  8
0
  6
HIDDEN2
 48
15.0
100
AcDbLine
 10
2505.124842940757
 20
2766.273926618953
 30
0.0
 11
2417.132441070178
 21
2764.910692948759
 31
0.0
  0
LINE
  5
C823
330
747D
100
AcDbEntity
  8
0
  6
HIDDEN2
 48
15.0
100
AcDbLine
 10
2505.124842940757
 20
2731.273926618953
 30
0.0
 11
2415.340036789572
 21
2732.647415897843
 31
0.0
  0
LINE
  5
C824
330
747D
100
AcDbEntity
  8
0
  6
CENTER2
 48
10.0
100
AcDbLine
 10
2535.124842940756
 20
2748.773926618953
 30
0.0
 11
2386.235954051853
 21
2748.773926618953
 31
0.0
  0
LINE
  5
C825
330
747D
100
AcDbEntity
  8
0
 48
25.0
100
AcDbLine
 10
2135.124842940756
 20
3658.773926618955
 30
0.0
 11
2137.124842940756
 21
3658.773926618955
 31
0.0
  0
LINE
  5
C826
330
747D
100
AcDbEntity
  8
0
 48
25.0
100
AcDbLine
 10
2135.124842940756
 20
3658.773926618955
 30
0.0
 11
2135.124842940756
 21
3656.773926618955
 31
0.0
  0
LINE
  5
C828
330
747D
100
AcDbEntity
  8
0
 48
25.0
100
AcDbLine
 10
2105.124842940756
 20
3656.773926618955
 30
0.0
 11
2135.124842940756
 21
3656.773926618955
 31
0.0
  0
LINE
  5
C829
330
747D
100
AcDbEntity
  8
0
 48
25.0
100
AcDbLine
 10
2105.124842940756
 20
3654.773926618956
 30
0.0
 11
2135.124842940756
 21
3654.773926618956
 31
0.0
  0
LINE
  5
C82A
330
747D
100
AcDbEntity
  8
0
 48
25.0
100
AcDbLine
 10
2135.124842940756
 20
3638.773926618955
 30
0.0
 11
2137.124842940756
 21
3638.773926618955
 31
0.0
  0
LINE
  5
C82B
330
747D
100
AcDbEntity
  8
0
 48
25.0
100
AcDbLine
 10
2135.124842940756
 20
3640.773926618956
 30
0.0
 11
2135.124842940756
 21
3638.773926618955
 31
0.0
  0
LINE
  5
C82D
330
747D
100
AcDbEntity
  8
0
 48
25.0
100
AcDbLine
 10
2105.124842940756
 20
3642.773926618955
 30
0.0
 11
2135.124842940756
 21
3642.773926618955
 31
0.0
  0
LINE
  5
C82E
330
747D
100
AcDbEntity
  8
0
 48
25.0
100
AcDbLine
 10
2105.124842940756
 20
3640.773926618956
 30
0.0
 11
2135.124842940756
 21
3640.773926618956
 31
0.0
  0
LINE
  5
C82F
330
747D
100
AcDbEntity
  8
0
 48
25.0
100
AcDbLine
 10
2135.124842940756
 20
3654.773926618956
 30
0.0
 11
2135.124842940756
 21
3642.773926618955
 31
0.0
  0
LINE
  5
C830
330
747D
100
AcDbEntity
  8
0
 48
25.0
100
AcDbLine
 10
2137.124842940756
 20
3658.773926618955
 30
0.0
 11
2137.124842940756
 21
3638.773926618955
 31
0.0
  0
LINE
  5
C833
330
747D
100
AcDbEntity
  8
0
 48
25.0
100
AcDbLine
 10
2475.124842940757
 20
3658.773926618955
 30
0.0
 11
2475.124842940757
 21
3656.773926618955
 31
0.0
  0
LINE
  5
C834
330
747D
100
AcDbEntity
  8
0
 48
25.0
100
AcDbLine
 10
2475.124842940757
 20
3658.773926618955
 30
0.0
 11
2473.124842940757
 21
3658.773926618955
 31
0.0
  0
LINE
  5
C835
330
747D
100
AcDbEntity
  8
0
 48
25.0
100
AcDbLine
 10
2505.124842940757
 20
3654.773926618956
 30
0.0
 11
2475.124842940757
 21
3654.773926618956
 31
0.0
  0
LINE
  5
C836
330
747D
100
AcDbEntity
  8
0
 48
25.0
100
AcDbLine
 10
2505.124842940757
 20
3656.773926618955
 30
0.0
 11
2475.124842940757
 21
3656.773926618955
 31
0.0
  0
LINE
  5
C838
330
747D
100
AcDbEntity
  8
0
 48
25.0
100
AcDbLine
 10
2475.124842940757
 20
3640.773926618956
 30
0.0
 11
2475.124842940757
 21
3638.773926618955
 31
0.0
  0
LINE
  5
C839
330
747D
100
AcDbEntity
  8
0
 48
25.0
100
AcDbLine
 10
2475.124842940757
 20
3638.773926618955
 30
0.0
 11
2473.124842940757
 21
3638.773926618955
 31
0.0
  0
LINE
  5
C83A
330
747D
100
AcDbEntity
  8
0
 48
25.0
100
AcDbLine
 10
2505.124842940757
 20
3640.773926618956
 30
0.0
 11
2475.124842940757
 21
3640.773926618956
 31
0.0
  0
LINE
  5
C83B
330
747D
100
AcDbEntity
  8
0
 48
25.0
100
AcDbLine
 10
2505.124842940757
 20
3642.773926618955
 30
0.0
 11
2475.124842940757
 21
3642.773926618955
 31
0.0
  0
LINE
  5
C83C
330
747D
100
AcDbEntity
  8
0
 48
25.0
100
AcDbLine
 10
2473.124842940757
 20
3658.773926618955
 30
0.0
 11
2473.124842940757
 21
3638.773926618955
 31
0.0
  0
LINE
  5
C83D
330
747D
100
AcDbEntity
  8
0
 48
25.0
100
AcDbLine
 10
2475.124842940757
 20
3654.773926618956
 30
0.0
 11
2475.124842940757
 21
3642.773926618955
 31
0.0
  0
DIMENSION
  5
C83F
330
747D
100
AcDbEntity
  8
寸法引出
 48
25.0
100
AcDbDimension
  2
*D26
 10
1970.129864571674
 20
3648.773926618956
 30
0.0
 11
1920.129864571673
 21
3723.773926618956
 31
0.0
 70
    32
 71
     5
 42
150.0
  3
SANWA
100
AcDbAlignedDimension
 13
2105.124842940756
 23
3798.773926618955
 33
0.0
 14
2105.124842940756
 24
3648.773926618956
 34
0.0
 50
90.0
100
AcDbRotatedDimension
1001
ACAD
1000
DSTYLE
1002
{
1070
    40
1040
25.0
1070
    41
1040
1.5
1070
    43
1040
5.0
1070
    44
1040
0.5
1070
   140
1040
2.0
1070
   147
1040
1.0
1070
   176
1070
   256
1070
   177
1070
   256
1070
   178
1070
   256
1002
}
  0
ARC
  5
C869
330
747D
100
AcDbEntity
  8
0
 48
25.0
100
AcDbCircle
 10
2305.124842940749
 20
2398.773926618953
 30
0.0
 40
300.0
100
AcDbArc
 50
263.6185647298202
 51
276.3814352701796
  0
DIMENSION
  5
C86E
330
747D
100
AcDbEntity
  8
寸法引出
 48
25.0
100
AcDbDimension
  2
*D27
 10
2230.124842940764
 20
1808.540602555423
 30
0.0
 11
2167.624842940762
 21
1858.540602555423
 31
0.0
 70
    32
 71
     5
 42
125.0000000000036
  3
SANWA
100
AcDbAlignedDimension
 13
2105.12484294076
 23
2003.773926618953
 33
0.0
 14
2230.124842940764
 24
1973.773926618953
 34
0.0
100
AcDbRotatedDimension
1001
ACAD
1000
DSTYLE
1002
{
1070
    40
1040
25.0
1070
    41
1040
1.5
1070
    43
1040
5.0
1070
    44
1040
0.5
1070
   140
1040
2.0
1070
   147
1040
1.0
1070
   176
1070
   256
1070
   177
1070
   256
1070
   178
1070
   256
1002
}
  0
DIMENSION
  5
C87D
330
747D
100
AcDbEntity
  8
寸法引出
 48
25.0
100
AcDbDimension
  2
*D28
 10
2380.124842940735
 20
1808.540602555423
 30
0.0
 11
2305.124842940749
 21
1858.540602555423
 31
0.0
 70
    32
 71
     5
 42
149.9999999999708
  3
SANWA
100
AcDbAlignedDimension
 13
2230.124842940764
 23
1973.773926618953
 33
0.0
 14
2380.124842940735
 24
1973.773926618953
 34
0.0
100
AcDbRotatedDimension
1001
ACAD
1000
DSTYLE
1002
{
1070
   279
1070
     1
1070
    40
1040
25.0
1070
    41
1040
1.5
1070
    43
1040
5.0
1070
    44
1040
0.5
1070
   140
1040
2.0
1070
   147
1040
1.0
1070
   176
1070
   256
1070
   177
1070
   256
1070
   178
1070
   256
1002
}
  0
DIMENSION
  5
C88A
330
747D
100
AcDbEntity
  8
寸法引出
 48
25.0
100
AcDbDimension
  2
*D29
 10
2505.124842940753
 20
1808.540602555423
 30
0.0
 11
2442.624842940744
 21
1858.540602555423
 31
0.0
 70
    32
 71
     5
 42
125.0000000000181
  3
SANWA
100
AcDbAlignedDimension
 13
2380.124842940735
 23
1973.773926618953
 33
0.0
 14
2505.124842940753
 24
2003.773926618953
 34
0.0
100
AcDbRotatedDimension
1001
ACAD
1000
DSTYLE
1002
{
1070
   279
1070
     1
1070
    40
1040
25.0
1070
    41
1040
1.5
1070
    43
1040
5.0
1070
    44
1040
0.5
1070
   140
1040
2.0
1070
   147
1040
1.0
1070
   176
1070
   256
1070
   177
1070
   256
1070
   178
1070
   256
1002
}
  0
LINE
  5
C925
330
747D
100
AcDbEntity
  8
0
  6
CENTER2
 48
10.0
100
AcDbLine
 10
2305.124842940756
 20
2148.773926618953
 30
0.0
 11
2305.124842940756
 21
1923.773926618953
 31
0.0
  0
LEADER
  5
C92A
330
747D
100
AcDbEntity
  8
寸法引出
 48
25.0
100
AcDbLeader
  3
SANWA
 76
     3
 10
2290.996793249854
 20
2099.106780919042
 30
0.0
 10
2227.777555858243
 20
2379.092719952278
 30
0.0
 10
2382.552446502435
 20
2379.092719952278
 30
0.0
1001
ACAD
1000
DSTYLE
1002
{
1070
    77
1070
     0
1070
    40
1040
25.0
1070
    41
1040
1.5
1070
    43
1040
5.0
1070
    44
1040
0.5
1070
   140
1040
2.0
1070
   147
1040
1.0
1070
   176
1070
   256
1070
   177
1070
   256
1070
   178
1070
   256
1002
}
  0
MTEXT
  5
C92B
330
747D
100
AcDbEntity
  8
寸法引出
 48
25.0
100
AcDbMText
 10
2308.398225914166
 20
2418.399857257989
 30
0.0
 40
50.0
 41
0.0
 71
     5
 72
     1
  1
300r
  7
SANWA
 73
     1
 44
1.0
  0
LINE
  5
C9FB
330
747D
100
AcDbEntity
  8
0
 48
15.0
100
AcDbLine
 10
2124.124842940756
 20
3798.773926618955
 30
0.0
 11
2124.124842940764
 21
2156.273926618952
 31
0.0
  0
LINE
  5
C9FD
330
747D
100
AcDbEntity
  8
0
 48
15.0
100
AcDbLine
 10
2136.124842940757
 20
3798.773926618955
 30
0.0
 11
2136.124842940764
 21
2156.273926618952
 31
0.0
  0
ARC
  5
C9FE
330
747D
100
AcDbEntity
  8
0
 48
15.0
100
AcDbCircle
 10
2250.124842940764
 20
2156.273926618952
 30
0.0
 40
126.0
100
AcDbArc
 50
180.0000000000001
 51
270.0000000000001
  0
ARC
  5
C9FF
330
747D
100
AcDbEntity
  8
0
 48
15.0
100
AcDbCircle
 10
2250.124842940764
 20
2156.273926618952
 30
0.0
 40
114.0
100
AcDbArc
 50
180.0000000000001
 51
270.0000000000001
  0
LINE
  5
CA00
330
747D
100
AcDbEntity
  8
0
 48
15.0
100
AcDbLine
 10
2250.124842940764
 20
2030.273926618952
 30
0.0
 11
2360.124842940753
 21
2030.273926618953
 31
0.0
  0
LINE
  5
CA01
330
747D
100
AcDbEntity
  8
0
 48
15.0
100
AcDbLine
 10
2250.124842940764
 20
2042.273926618952
 30
0.0
 11
2360.124842940753
 21
2042.273926618953
 31
0.0
  0
LEADER
  5
CA02
330
747D
100
AcDbEntity
  8
寸法引出
 48
25.0
100
AcDbLeader
  3
SANWA
 76
     3
 10
2164.307939422764
 20
2072.396283169804
 30
0.0
 10
2051.65082969312
 20
2002.534618214017
 30
0.0
 10
1902.014896938235
 20
2002.534618214017
 30
0.0
1001
ACAD
1000
DSTYLE
1002
{
1070
    77
1070
     0
1070
    40
1040
25.0
1070
    41
1040
1.5
1070
    43
1040
5.0
1070
    44
1040
0.5
1070
   140
1040
2.0
1070
   147
1040
1.0
1070
   176
1070
   256
1070
   177
1070
   256
1070
   178
1070
   256
1002
}
  0
MTEXT
  5
CA03
330
747D
100
AcDbEntity
  8
寸法引出
 48
25.0
100
AcDbMText
 10
1981.510722164159
 20
2041.841755519729
 30
0.0
 40
50.0
 41
0.0
 71
     5
 72
     1
  1
120r
  7
SANWA
 73
     1
 44
1.0
  0
ARC
  5
CA06
330
747D
100
AcDbEntity
  8
0
 48
15.0
100
AcDbCircle
 10
2360.124842940753
 20
2156.273926618954
 30
0.0
 40
114.0
100
AcDbArc
 50
270.0000000000001
 51
359.9999999999998
  0
ARC
  5
CA07
330
747D
100
AcDbEntity
  8
0
 48
15.0
100
AcDbCircle
 10
2360.124842940753
 20
2156.273926618954
 30
0.0
 40
126.0
100
AcDbArc
 50
270.0000000000001
 51
359.9999999999998
  0
LINE
  5
CA08
330
747D
100
AcDbEntity
  8
0
 48
15.0
100
AcDbLine
 10
2474.124842940756
 20
3798.773926618955
 30
0.0
 11
2474.124842940753
 21
2156.273926618954
 31
0.0
  0
LINE
  5
CA09
330
747D
100
AcDbEntity
  8
0
 48
15.0
100
AcDbLine
 10
2486.124842940757
 20
3798.773926618955
 30
0.0
 11
2486.124842940753
 21
2156.273926618954
 31
0.0
  0
LINE
  5
CA0A
330
747D
100
AcDbEntity
  8
0
 48
25.0
100
AcDbLine
 10
3936.922828281327
 20
1226.334523068043
 30
0.0
 11
3936.922828281291
 21
994.8033882041208
 31
0.0
  0
LINE
  5
CA0B
330
747D
100
AcDbEntity
  8
0
 48
25.0
100
AcDbLine
 10
4436.922828281291
 20
1226.334523068043
 30
0.0
 11
4436.922828281291
 21
994.8033882041208
 31
0.0
  0
LINE
  5
CA0C
330
747D
100
AcDbEntity
  8
0
 48
25.0
100
AcDbLine
 10
3936.922828281291
 20
994.8033882041208
 30
0.0
 11
4126.922828281291
 21
994.8033882041208
 31
0.0
  0
LINE
  5
CA12
330
747D
100
AcDbEntity
  8
0
 48
25.0
100
AcDbLine
 10
4146.922828281291
 20
1054.80338820412
 30
0.0
 11
4226.922828281291
 21
1054.80338820412
 31
0.0
  0
LINE
  5
CA13
330
747D
100
AcDbEntity
  8
0
 48
25.0
100
AcDbLine
 10
4126.922828281291
 20
994.8033882041208
 30
0.0
 11
4146.922828281291
 21
1054.80338820412
 31
0.0
  0
LINE
  5
CA14
330
747D
100
AcDbEntity
  8
0
 48
25.0
100
AcDbLine
 10
4226.922828281291
 20
1054.80338820412
 30
0.0
 11
4246.922828281291
 21
994.8033882041208
 31
0.0
  0
LINE
  5
CA15
330
747D
100
AcDbEntity
  8
0
 48
25.0
100
AcDbLine
 10
4246.922828281291
 20
994.8033882041208
 30
0.0
 11
4436.922828281291
 21
994.8033882041208
 31
0.0
  0
DIMENSION
  5
CA26
330
747D
100
AcDbEntity
  8
寸法引出
 48
25.0
100
AcDbDimension
  2
*D30
 10
4226.922828281291
 20
816.0721860904095
 30
0.0
 11
4186.922828281291
 21
866.0721860904095
 31
0.0
 70
    32
  1
8
 71
     5
 42
80.0
  3
SANWA
100
AcDbAlignedDimension
 13
4146.922828281291
 23
1054.80338820412
 33
0.0
 14
4226.922828281291
 24
1054.80338820412
 34
0.0
100
AcDbRotatedDimension
1001
ACAD
1000
DSTYLE
1002
{
1070
   279
1070
     1
1070
    40
1040
25.0
1070
    41
1040
1.5
1070
    43
1040
5.0
1070
    44
1040
0.5
1070
   140
1040
2.0
1070
   147
1040
1.0
1070
   176
1070
   256
1070
   177
1070
   256
1070
   178
1070
   256
1002
}
  0
DIMENSION
  5
CA65
330
747D
100
AcDbEntity
  8
寸法引出
 48
25.0
100
AcDbDimension
  2
*D31
 10
4246.922828281291
 20
688.5396102168534
 30
0.0
 11
4186.922828281291
 21
738.5396102168534
 31
0.0
 70
    32
  1
12
 71
     5
 42
120.0
  3
SANWA
100
AcDbAlignedDimension
 13
4126.922828281291
 23
994.8033882041208
 33
0.0
 14
4246.922828281291
 24
994.8033882041208
 34
0.0
100
AcDbRotatedDimension
1001
ACAD
1000
DSTYLE
1002
{
1070
    40
1040
25.0
1070
    41
1040
1.5
1070
    43
1040
5.0
1070
    44
1040
0.5
1070
   140
1040
2.0
1070
   147
1040
1.0
1070
   176
1070
   256
1070
   177
1070
   256
1070
   178
1070
   256
1002
}
  0
DIMENSION
  5
CA74
330
747D
100
AcDbEntity
  8
寸法引出
 48
25.0
100
AcDbDimension
  2
*D32
 10
4436.922828281291
 20
688.5396102168534
 30
0.0
 11
4341.92282828129
 21
738.5396102168534
 31
0.0
 70
    32
  1
19
 71
     5
 42
190.0
  3
SANWA
100
AcDbAlignedDimension
 13
4246.922828281291
 23
994.8033882041208
 33
0.0
 14
4436.922828281291
 24
994.8033882041208
 34
0.0
100
AcDbRotatedDimension
1001
ACAD
1000
DSTYLE
1002
{
1070
   279
1070
     1
1070
    40
1040
25.0
1070
    41
1040
1.5
1070
    43
1040
5.0
1070
    44
1040
0.5
1070
   140
1040
2.0
1070
   147
1040
1.0
1070
   176
1070
   256
1070
   177
1070
   256
1070
   178
1070
   256
1002
}
  0
DIMENSION
  5
CA81
330
747D
100
AcDbEntity
  8
寸法引出
 48
25.0
100
AcDbDimension
  2
*D33
 10
3936.922828281291
 20
688.5396102168534
 30
0.0
 11
4031.922828281291
 21
738.5396102168534
 31
0.0
 70
    32
  1
19
 71
     5
 42
190.0
  3
SANWA
100
AcDbAlignedDimension
 13
4126.922828281291
 23
994.8033882041208
 33
0.0
 14
3936.922828281291
 24
994.8033882041208
 34
0.0
100
AcDbRotatedDimension
1001
ACAD
1000
DSTYLE
1002
{
1070
    40
1040
25.0
1070
    41
1040
1.5
1070
    43
1040
5.0
1070
    44
1040
0.5
1070
   140
1040
2.0
1070
   147
1040
1.0
1070
   176
1070
   256
1070
   177
1070
   256
1070
   178
1070
   256
1002
}
  0
LINE
  5
CAE9
330
747D
100
AcDbEntity
  8
寸法引出
 48
25.0
100
AcDbLine
 10
4126.922828281291
 20
969.8033882041208
 30
0.0
 11
4126.922828281291
 21
803.5721860904095
 31
0.0
  0
LINE
  5
CAEA
330
747D
100
AcDbEntity
  8
寸法引出
 48
25.0
100
AcDbLine
 10
4146.922828281291
 20
1029.80338820412
 30
0.0
 11
4146.922828281291
 21
803.5721860904095
 31
0.0
  0
LINE
  5
CAEB
330
747D
100
AcDbEntity
  8
寸法引出
 48
25.0
100
AcDbLine
 10
4089.422828281291
 20
816.0721860904095
 30
0.0
 11
4051.92282828129
 21
816.0721860904095
 31
0.0
  0
LINE
  5
CAEC
330
747D
100
AcDbEntity
  8
寸法引出
 48
25.0
100
AcDbLine
 10
4184.422828281291
 20
816.0721860904095
 30
0.0
 11
4221.922828281291
 21
816.0721860904095
 31
0.0
  0
LINE
  5
CAED
330
747D
100
AcDbEntity
  8
寸法引出
 48
25.0
100
AcDbLine
 10
4126.922828281291
 20
816.0721860904095
 30
0.0
 11
4146.922828281291
 21
816.0721860904095
 31
0.0
  0
SOLID
  5
CAEE
330
747D
100
AcDbEntity
  8
寸法引出
 48
25.0
100
AcDbTrace
 10
4089.422828281291
 20
822.3221860904095
 30
0.0
 11
4089.422828281291
 21
809.8221860904095
 31
0.0
 12
4126.922828281291
 22
816.0721860904095
 32
0.0
 13
4126.922828281291
 23
816.0721860904095
 33
0.0
  0
SOLID
  5
CAEF
330
747D
100
AcDbEntity
  8
寸法引出
 48
25.0
100
AcDbTrace
 10
4184.422828281291
 20
822.3221860904095
 30
0.0
 11
4184.422828281291
 21
809.8221860904095
 31
0.0
 12
4146.922828281291
 22
816.0721860904095
 32
0.0
 13
4146.922828281291
 23
816.0721860904095
 33
0.0
  0
MTEXT
  5
CAF0
330
747D
100
AcDbEntity
  8
寸法引出
 48
25.0
100
AcDbMText
 10
4084.964055662108
 20
866.0721860904095
 30
0.0
 40
50.0
 41
0.0
 71
     5
 72
     1
  1
\A1;2
  7
SANWA
 73
     1
 44
1.0
  0
LINE
  5
CAF1
330
747D
100
AcDbEntity
  8
寸法引出
 48
25.0
100
AcDbLine
 10
4226.922828281291
 20
1029.80338820412
 30
0.0
 11
4226.922828281291
 21
803.5721860904095
 31
0.0
  0
LINE
  5
CAF2
330
747D
100
AcDbEntity
  8
寸法引出
 48
25.0
100
AcDbLine
 10
4246.922828281291
 20
969.8033882041208
 30
0.0
 11
4246.922828281291
 21
803.5721860904095
 31
0.0
  0
LINE
  5
CAF3
330
747D
100
AcDbEntity
  8
寸法引出
 48
25.0
100
AcDbLine
 10
4189.422828281291
 20
816.0721860904095
 30
0.0
 11
4151.922828281291
 21
816.0721860904095
 31
0.0
  0
LINE
  5
CAF4
330
747D
100
AcDbEntity
  8
寸法引出
 48
25.0
100
AcDbLine
 10
4284.422828281291
 20
816.0721860904095
 30
0.0
 11
4321.922828281291
 21
816.0721860904095
 31
0.0
  0
LINE
  5
CAF5
330
747D
100
AcDbEntity
  8
寸法引出
 48
25.0
100
AcDbLine
 10
4226.922828281291
 20
816.0721860904095
 30
0.0
 11
4246.922828281291
 21
816.0721860904095
 31
0.0
  0
SOLID
  5
CAF6
330
747D
100
AcDbEntity
  8
寸法引出
 48
25.0
100
AcDbTrace
 10
4189.422828281291
 20
822.3221860904095
 30
0.0
 11
4189.422828281291
 21
809.8221860904095
 31
0.0
 12
4226.922828281291
 22
816.0721860904095
 32
0.0
 13
4226.922828281291
 23
816.0721860904095
 33
0.0
  0
SOLID
  5
CAF7
330
747D
100
AcDbEntity
  8
寸法引出
 48
25.0
100
AcDbTrace
 10
4284.422828281291
 20
822.3221860904095
 30
0.0
 11
4284.422828281291
 21
809.8221860904095
 31
0.0
 12
4246.922828281291
 22
816.0721860904095
 32
0.0
 13
4246.922828281291
 23
816.0721860904095
 33
0.0
  0
MTEXT
  5
CAF8
330
747D
100
AcDbEntity
  8
寸法引出
 48
25.0
100
AcDbMText
 10
4290.409774938314
 20
866.0721860904095
 30
0.0
 40
50.0
 41
0.0
 71
     5
 72
     1
  1
\A1;2
  7
SANWA
 73
     1
 44
1.0
  0
DIMENSION
  5
CAF9
330
747D
100
AcDbEntity
  8
寸法引出
 48
25.0
100
AcDbDimension
  2
*D34
 10
4055.42758375522
 20
1054.80338820412
 30
0.0
 11
4005.427583755219
 21
1024.803388204121
 31
0.0
 70
    32
  1
6
 71
     5
 42
60.0
  3
SANWA
100
AcDbAlignedDimension
 13
4126.922828281291
 23
994.8033882041208
 33
0.0
 14
4146.922828281291
 24
1054.80338820412
 34
0.0
 50
90.0
100
AcDbRotatedDimension
1001
ACAD
1000
DSTYLE
1002
{
1070
    40
1040
25.0
1070
    41
1040
1.5
1070
    43
1040
5.0
1070
    44
1040
0.5
1070
   140
1040
2.0
1070
   147
1040
1.0
1070
   176
1070
   256
1070
   177
1070
   256
1070
   178
1070
   256
1002
}
  0
LINE
  5
CB1F
330
747D
100
AcDbEntity
  8
0
100
AcDbLine
 10
3886.761233032601
 20
1444.440623187686
 30
0.0
 11
4444.704789263163
 21
1444.440623187686
 31
0.0
  0
TEXT
  5
CB20
330
747D
100
AcDbEntity
  8
0
100
AcDbText
 10
3904.229229966774
 20
1464.176040661947
 30
0.0
 40
60.0
  1
目地部詳細図
  7
SANWA
 72
     4
 11
4167.543515681059
 21
1495.204612090518
 31
0.0
100
AcDbText
  0
LINE
  5
D636
330
747D
100
AcDbEntity
  8
0
 48
25.0
100
AcDbLine
 10
2155.124842940757
 20
3798.773926618955
 30
0.0
 11
2155.124842940757
 21
3448.773926618955
 31
0.0
  0
LINE
  5
D637
330
747D
100
AcDbEntity
  8
0
 48
25.0
100
AcDbLine
 10
2455.124842940756
 20
3798.773926618955
 30
0.0
 11
2455.124842940756
 21
3448.773926618955
 31
0.0
  0
LINE
  5
D638
330
747D
100
AcDbEntity
  8
0
 48
25.0
100
AcDbLine
 10
2155.124842940757
 20
3448.773926618955
 30
0.0
 11
2227.415092782405
 21
2147.549429469406
 31
0.0
  0
LINE
  5
D639
330
747D
100
AcDbEntity
  8
0
 48
25.0
100
AcDbLine
 10
2382.834593099093
 20
2147.549429469405
 30
0.0
 11
2455.124842940756
 21
3448.773926618955
 31
0.0
  0
DIMENSION
  5
D650
330
747D
100
AcDbEntity
  8
寸法引出
 48
25.0
100
AcDbDimension
  2
*D41
 10
2389.005812903036
 20
3448.773926618955
 30
0.0
 11
2339.005812903035
 21
3623.773926618956
 31
0.0
 70
    32
 71
     5
 42
350.0
  3
SANWA
100
AcDbAlignedDimension
 13
2455.124842940756
 23
3798.773926618955
 33
0.0
 14
2455.124842940756
 24
3448.773926618955
 34
0.0
 50
90.0
100
AcDbRotatedDimension
1001
ACAD
1000
DSTYLE
1002
{
1070
    40
1040
25.0
1070
    41
1040
1.5
1070
    43
1040
5.0
1070
    44
1040
0.5
1070
   140
1040
2.0
1070
   147
1040
1.0
1070
   176
1070
   256
1070
   177
1070
   256
1070
   178
1070
   256
1002
}
  0
ARC
  5
D666
330
747D
100
AcDbEntity
  8
0
 48
25.0
100
AcDbCircle
 10
2277.338110442676
 20
2150.322930450533
 30
0.0
 40
50.0
100
AcDbArc
 50
183.1798301198643
 51
263.6185647298203
  0
ARC
  5
D667
330
747D
100
AcDbEntity
  8
0
 48
25.0
100
AcDbCircle
 10
2332.911575438822
 20
2150.322930450533
 30
0.0
 40
50.0
100
AcDbArc
 50
276.3814352701796
 51
356.8201698801345
  0
DIMENSION
  5
DD55
330
747D
100
AcDbEntity
  8
寸法引出
 48
25.0
100
AcDbDimension
  2
*D46
 10
3846.751274484333
 20
2748.773926618957
 30
0.0
 11
3796.751274484333
 21
3273.773926618957
 31
0.0
 70
    32
 71
     5
 42
1049.999999999998
  3
SANWA
100
AcDbAlignedDimension
 13
4123.469910207106
 23
3798.773926618955
 33
0.0
 14
4123.469910207106
 24
2748.773926618957
 34
0.0
 50
90.0
100
AcDbRotatedDimension
1001
ACAD
1000
DSTYLE
1002
{
1070
    40
1040
25.0
1070
    41
1040
1.5
1070
    43
1040
5.0
1070
    44
1040
0.5
1070
   140
1040
2.0
1070
   147
1040
1.0
1070
   176
1070
   256
1070
   177
1070
   256
1070
   178
1070
   256
1002
}
  0
DIMENSION
  5
DD62
330
747D
100
AcDbEntity
  8
寸法引出
 48
25.0
100
AcDbDimension
  2
*D47
 10
3846.751274484332
 20
1973.773926618955
 30
0.0
 11
3796.751274484332
 21
2361.273926618957
 31
0.0
 70
    32
 71
     5
 42
775.0000000000018
  3
SANWA
100
AcDbAlignedDimension
 13
4123.469910207106
 23
2748.773926618957
 33
0.0
 14
4133.469910207106
 24
1973.773926618955
 34
0.0
 50
90.0
100
AcDbRotatedDimension
1001
ACAD
1000
DSTYLE
1002
{
1070
   279
1070
     1
1070
    40
1040
25.0
1070
    41
1040
1.5
1070
    43
1040
5.0
1070
    44
1040
0.5
1070
   140
1040
2.0
1070
   147
1040
1.0
1070
   176
1070
   256
1070
   177
1070
   256
1070
   178
1070
   256
1002
}
  0
VIEWPORT
  5
7540
330
747A
100
AcDbEntity
 67
     1
  8
0
100
AcDbViewport
 10
2878.243789599006
 20
970.3639114717196
 30
0.0
 40
6257.342359533289
 41
4285.736489239756
 68
     1
 69
     1
 12
2878.243789599006
 22
970.3639114717196
 13
0.0
 23
0.0
 14
10.0
 24
10.0
 15
10.0
 25
10.0
 16
0.0
 26
0.0
 36
1.0
 17
0.0
 27
0.0
 37
0.0
 42
50.0
 43
0.0
 44
0.0
 45
4285.736489239756
 50
0.0
 51
0.0
 72
   100
 90
    32800
  1

281
     0
 71
     1
 74
     0
110
0.0
120
0.0
130
0.0
111
1.0
121
0.0
131
0.0
112
0.0
122
1.0
132
0.0
 79
     0
146
0.0
  0
TEXT
  5
7737
330
747A
100
AcDbEntity
 67
     1
  8
0
 48
2.0
100
AcDbText
 10
331.8711968111849
 20
20.60428158404022
 30
0.0
 40
2.0
  1

  7
SANWA
100
AcDbText
  0
ENDSEC
  0
SECTION
  2
OBJECTS
  0
DICTIONARY
  5
7471
330
0
100
AcDbDictionary
281
     1
  3
ACAD_GROUP
350
7472
  3
ACAD_LAYOUT
350
7F6B
  3
ACAD_MLINESTYLE
350
7473
  3
ACAD_PLOTSETTINGS
350
7F6C
  3
ACAD_PLOTSTYLENAME
350
7F69
  3
AcadDim
350
D24E
  3
ACDBVARIABLEDICTIONARY
350
789B
  0
DICTIONARY
  5
7472
102
{ACAD_REACTORS
330
7471
102
}
330
0
100
AcDbDictionary
281
     1
  0
DICTIONARY
  5
7F6B
102
{ACAD_REACTORS
330
7471
102
}
330
7471
100
AcDbDictionary
281
     1
  3
Model
350
7F6D
  3
ﾚｲｱｳﾄ1
350
7F6E
  0
DICTIONARY
  5
7473
102
{ACAD_REACTORS
330
7471
102
}
330
0
100
AcDbDictionary
281
     1
  3
STANDARD
350
7480
  0
DICTIONARY
  5
7F6C
102
{ACAD_REACTORS
330
7471
102
}
330
7471
100
AcDbDictionary
281
     1
  0
ACDBDICTIONARYWDFLT
  5
7F69
102
{ACAD_REACTORS
330
7471
102
}
330
7471
100
AcDbDictionary
281
     1
  3
Normal
350
7F6A
100
AcDbDictionaryWithDefault
340
7F6A
  0
XRECORD
  5
D24E
102
{ACAD_REACTORS
330
7471
102
}
330
7471
100
AcDbXrecord
280
     1
 90
   990106
  3

 60
     4
 61
     0
 62
     1
 63
     3
 64
     0
 65
     0
 66
     0
 67
     3
 68
     1
 69
     0
 70
     0
 71
     0
 72
     0
 40
0.0
170
     0
  0
DICTIONARY
  5
789B
102
{ACAD_REACTORS
330
7471
102
}
330
7471
100
AcDbDictionary
281
     1
  3
DIMASSOC
350
7F75
  3
SORTENTS
350
789C
  0
LAYOUT
  5
7F6D
102
{ACAD_REACTORS
330
7F6B
102
}
330
7F6B
100
AcDbPlotSettings
  1

  2
DocuPrint 205
  4
A4
  6

 40
4.900083065032958
 41
4.900057315826416
 42
4.90008544921875
 43
4.90008544921875
 44
210.0156707763671
 45
297.0106506347656
 46
5.11
 47
12.61
 48
9704.480333067216
 49
250.0000000032441
140
16254.48033306721
141
5000.000000003245
142
1.0
143
25.0
 70
 11940
 72
     1
 73
     1
 74
     4
  7
sanwa3.ctb
 75
     0
147
0.04
148
-9704.480333067216
149
-250.0000000032441
100
AcDbLayout
  1
Model
 70
     1
 71
     0
 10
0.0
 20
0.0
 11
12.0
 21
9.0
 12
0.0
 22
0.0
 32
0.0
 14
0.0
 24
0.0
 34
0.0
 15
0.0
 25
0.0
 35
0.0
146
0.0
 13
0.0
 23
0.0
 33
0.0
 16
1.0
 26
0.0
 36
0.0
 17
0.0
 27
1.0
 37
0.0
 76
     0
330
747D
  0
LAYOUT
  5
7F6E
102
{ACAD_REACTORS
330
7F6B
102
}
330
7F6B
100
AcDbPlotSettings
  1

  2
RICOH NX-510
  4
A4
  6

 40
5.873749732971191
 41
4.92125654220581
 42
7.588241577148437
 43
5.81024169921875
 44
209.9944915771484
 45
296.989501953125
 46
0.0
 47
0.0
 48
0.0
 49
0.0
140
0.0
141
0.0
142
1.0
143
20.17331812743451
 70
   688
 72
     1
 73
     1
 74
     1
  7
sanwa3.ctb
 75
     0
147
0.0495704273180553
148
0.1762079097297828
149
1029.28590836146
100
AcDbLayout
  1
ﾚｲｱｳﾄ1
 70
     1
 71
     1
 10
-117.3880621053552
 20
-1147.778930325621
 11
5873.875641303368
 21
3088.506753269061
 12
0.0
 22
0.0
 32
0.0
 14
1.000000000000000E+20
 24
1.000000000000000E+20
 34
1.000000000000000E+20
 15
-1.000000000000000E+20
 25
-1.000000000000000E+20
 35
-1.000000000000000E+20
146
0.0
 13
0.0
 23
0.0
 33
0.0
 16
1.0
 26
0.0
 36
0.0
 17
0.0
 27
1.0
 37
0.0
 76
     0
330
747A
331
7540
  0
MLINESTYLE
  5
7480
102
{ACAD_REACTORS
330
7473
102
}
330
0
100
AcDbMlineStyle
  2
STANDARD
 70
     0
  3

 62
     0
 51
90.0
 52
90.0
 71
     2
 49
0.5
 62
   256
  6
BYLAYER
 49
-0.5
 62
   256
  6
BYLAYER
  0
ACDBPLACEHOLDER
  5
7F6A
102
{ACAD_REACTORS
330
7F69
102
}
330
7F69
  0
DICTIONARYVAR
  5
7F75
102
{ACAD_REACTORS
330
789B
102
}
330
789B
100
DictionaryVariables
280
     0
  1
1
  0
DICTIONARYVAR
  5
789C
102
{ACAD_REACTORS
330
789B
102
}
330
789B
100
DictionaryVariables
280
     0
  1
96
  0
ENDSEC
  0
EOF
