  0
SECTION
  2
HEADER
  9
$ACADVER
  1
AC1015
  9
$ACADMAINTVER
 70
    20
  9
$DWGCODEPAGE
  3
ANSI_932
  9
$INSBASE
 10
0.0
 20
0.0
 30
0.0
  9
$EXTMIN
 10
0.0
 20
0.0
 30
0.0
  9
$EXTMAX
 10
5940.0
 20
4200.0
 30
0.0
  9
$LIMMIN
 10
0.0
 20
0.0
  9
$LIMMAX
 10
420.0
 20
297.0
  9
$ORTHOMODE
 70
     1
  9
$REGENMODE
 70
     1
  9
$FILLMODE
 70
     1
  9
$QTEXTMODE
 70
     0
  9
$MIRRTEXT
 70
     1
  9
$LTSCALE
 40
0.5
  9
$ATTMODE
 70
     1
  9
$TEXTSIZE
 40
2.799999999999999
  9
$TRACEWID
 40
1.0
  9
$TEXTSTYLE
  7
SANWA
  9
$CLAYER
  8
0
  9
$CELTYPE
  6
BYLAYER
  9
$CECOLOR
 62
   256
  9
$CELTSCALE
 40
20.0
  9
$DISPSILH
 70
     0
  9
$DIMSCALE
 40
20.0
  9
$DIMASZ
 40
1.5
  9
$DIMEXO
 40
1.0
  9
$DIMDLI
 40
5.0
  9
$DIMRND
 40
0.0
  9
$DIMDLE
 40
0.0
  9
$DIMEXE
 40
0.5
  9
$DIMTP
 40
0.0
  9
$DIMTM
 40
0.0
  9
$DIMTXT
 40
2.0
  9
$DIMCEN
 40
0.0
  9
$DIMTSZ
 40
0.0
  9
$DIMTOL
 70
     0
  9
$DIMLIM
 70
     0
  9
$DIMTIH
 70
     0
  9
$DIMTOH
 70
     0
  9
$DIMSE1
 70
     0
  9
$DIMSE2
 70
     0
  9
$DIMTAD
 70
     1
  9
$DIMZIN
 70
     8
  9
$DIMBLK
  1

  9
$DIMASO
 70
     1
  9
$DIMSHO
 70
     1
  9
$DIMPOST
  1

  9
$DIMAPOST
  1

  9
$DIMALT
 70
     0
  9
$DIMALTD
 70
     2
  9
$DIMALTF
 40
0.0394
  9
$DIMLFAC
 40
1.0
  9
$DIMTOFL
 70
     1
  9
$DIMTVP
 40
0.0
  9
$DIMTIX
 70
     1
  9
$DIMSOXD
 70
     0
  9
$DIMSAH
 70
     0
  9
$DIMBLK1
  1

  9
$DIMBLK2
  1

  9
$DIMSTYLE
  2
SANWA
  9
$DIMCLRD
 70
   256
  9
$DIMCLRE
 70
   256
  9
$DIMCLRT
 70
   256
  9
$DIMTFAC
 40
1.0
  9
$DIMGAP
 40
1.0
  9
$DIMJUST
 70
     0
  9
$DIMSD1
 70
     0
  9
$DIMSD2
 70
     0
  9
$DIMTOLJ
 70
     1
  9
$DIMTZIN
 70
     0
  9
$DIMALTZ
 70
     0
  9
$DIMALTTZ
 70
     0
  9
$DIMUPT
 70
     0
  9
$DIMDEC
 70
     4
  9
$DIMTDEC
 70
     4
  9
$DIMALTU
 70
     2
  9
$DIMALTTD
 70
     2
  9
$DIMTXSTY
  7
SANWA
  9
$DIMAUNIT
 70
     0
  9
$DIMADEC
 70
     0
  9
$DIMALTRND
 40
0.0
  9
$DIMAZIN
 70
     0
  9
$DIMDSEP
 70
    46
  9
$DIMATFIT
 70
     3
  9
$DIMFRAC
 70
     0
  9
$DIMLDRBLK
  1

  9
$DIMLUNIT
 70
     2
  9
$DIMLWD
 70
    -2
  9
$DIMLWE
 70
    -2
  9
$DIMTMOVE
 70
     2
  9
$LUNITS
 70
     2
  9
$LUPREC
 70
     4
  9
$SKETCHINC
 40
1.0
  9
$FILLETRAD
 40
45.0
  9
$AUNITS
 70
     0
  9
$AUPREC
 70
     0
  9
$MENU
  1
acad
  9
$ELEVATION
 40
0.0
  9
$PELEVATION
 40
0.0
  9
$THICKNESS
 40
0.0
  9
$LIMCHECK
 70
     0
  9
$CHAMFERA
 40
0.0
  9
$CHAMFERB
 40
0.0
  9
$CHAMFERC
 40
0.0
  9
$CHAMFERD
 40
0.0
  9
$SKPOLY
 70
     1
  9
$TDCREATE
 40
2451806.361679283
  9
$TDUCREATE
 40
2451805.986679282
  9
$TDUPDATE
 40
2454849.378807165
  9
$TDUUPDATE
 40
2454849.003807164
  9
$TDINDWG
 40
1.0162055671
  9
$TDUSRTIMER
 40
1.0162055671
  9
$USRTIMER
 70
     1
  9
$ANGBASE
 50
0.0
  9
$ANGDIR
 70
     0
  9
$PDMODE
 70
     0
  9
$PDSIZE
 40
0.0
  9
$PLINEWID
 40
0.0
  9
$SPLFRAME
 70
     0
  9
$SPLINETYPE
 70
     6
  9
$SPLINESEGS
 70
     8
  9
$HANDSEED
  5
BE00
  9
$SURFTAB1
 70
     6
  9
$SURFTAB2
 70
     6
  9
$SURFTYPE
 70
     6
  9
$SURFU
 70
     6
  9
$SURFV
 70
     6
  9
$UCSBASE
  2

  9
$UCSNAME
  2

  9
$UCSORG
 10
0.0
 20
0.0
 30
0.0
  9
$UCSXDIR
 10
1.0
 20
0.0
 30
0.0
  9
$UCSYDIR
 10
0.0
 20
1.0
 30
0.0
  9
$UCSORTHOREF
  2

  9
$UCSORTHOVIEW
 70
     0
  9
$UCSORGTOP
 10
0.0
 20
0.0
 30
0.0
  9
$UCSORGBOTTOM
 10
0.0
 20
0.0
 30
0.0
  9
$UCSORGLEFT
 10
0.0
 20
0.0
 30
0.0
  9
$UCSORGRIGHT
 10
0.0
 20
0.0
 30
0.0
  9
$UCSORGFRONT
 10
0.0
 20
0.0
 30
0.0
  9
$UCSORGBACK
 10
0.0
 20
0.0
 30
0.0
  9
$PUCSBASE
  2

  9
$PUCSNAME
  2

  9
$PUCSORG
 10
0.0
 20
0.0
 30
0.0
  9
$PUCSXDIR
 10
1.0
 20
0.0
 30
0.0
  9
$PUCSYDIR
 10
0.0
 20
1.0
 30
0.0
  9
$PUCSORTHOREF
  2

  9
$PUCSORTHOVIEW
 70
     0
  9
$PUCSORGTOP
 10
0.0
 20
0.0
 30
0.0
  9
$PUCSORGBOTTOM
 10
0.0
 20
0.0
 30
0.0
  9
$PUCSORGLEFT
 10
0.0
 20
0.0
 30
0.0
  9
$PUCSORGRIGHT
 10
0.0
 20
0.0
 30
0.0
  9
$PUCSORGFRONT
 10
0.0
 20
0.0
 30
0.0
  9
$PUCSORGBACK
 10
0.0
 20
0.0
 30
0.0
  9
$USERI1
 70
     0
  9
$USERI2
 70
     0
  9
$USERI3
 70
     0
  9
$USERI4
 70
     0
  9
$USERI5
 70
     0
  9
$USERR1
 40
0.0
  9
$USERR2
 40
0.0
  9
$USERR3
 40
0.0
  9
$USERR4
 40
0.0
  9
$USERR5
 40
0.0
  9
$WORLDVIEW
 70
     1
  9
$SHADEDGE
 70
     3
  9
$SHADEDIF
 70
    70
  9
$TILEMODE
 70
     1
  9
$MAXACTVP
 70
    48
  9
$PINSBASE
 10
0.0
 20
0.0
 30
0.0
  9
$PLIMCHECK
 70
     0
  9
$PEXTMIN
 10
1.000000000000000E+20
 20
1.000000000000000E+20
 30
1.000000000000000E+20
  9
$PEXTMAX
 10
-1.000000000000000E+20
 20
-1.000000000000000E+20
 30
-1.000000000000000E+20
  9
$PLIMMIN
 10
-117.3880621053553
 20
-1147.778930325621
  9
$PLIMMAX
 10
5873.875641303368
 20
3088.506753269061
  9
$UNITMODE
 70
     0
  9
$VISRETAIN
 70
     1
  9
$PLINEGEN
 70
     0
  9
$PSLTSCALE
 70
     1
  9
$TREEDEPTH
 70
  3020
  9
$CMLSTYLE
  2
STANDARD
  9
$CMLJUST
 70
     0
  9
$CMLSCALE
 40
1.0
  9
$PROXYGRAPHICS
 70
     1
  9
$MEASUREMENT
 70
     1
  9
$CELWEIGHT
370
    -1
  9
$ENDCAPS
280
     0
  9
$JOINSTYLE
280
     0
  9
$LWDISPLAY
290
     0
  9
$INSUNITS
 70
     0
  9
$HYPERLINKBASE
  1

  9
$STYLESHEET
  1
sanwa3.ctb
  9
$XEDIT
290
     1
  9
$CEPSNTYPE
380
     0
  9
$PSTYLEMODE
290
     1
  9
$FINGERPRINTGUID
  2
{FF69E217-7CBD-426C-8D1A-915AA093CE5F}
  9
$VERSIONGUID
  2
{5C5EF4D1-688A-4788-8503-026189E8F4F3}
  9
$EXTNAMES
290
     1
  9
$PSVPSCALE
 40
0.0
  9
$OLESTARTUP
290
     0
  0
ENDSEC
  0
SECTION
  2
CLASSES
  0
CLASS
  1
DICTIONARYVAR
  2
AcDbDictionaryVar
  3
ObjectDBX Classes
 90
        0
280
     0
281
     0
  0
CLASS
  1
ACDBDICTIONARYWDFLT
  2
AcDbDictionaryWithDefault
  3
ObjectDBX Classes
 90
        0
280
     0
281
     0
  0
CLASS
  1
ACDBPLACEHOLDER
  2
AcDbPlaceHolder
  3
ObjectDBX Classes
 90
        0
280
     0
281
     0
  0
CLASS
  1
LAYOUT
  2
AcDbLayout
  3
ObjectDBX Classes
 90
        0
280
     0
281
     0
  0
CLASS
  1
MATERIAL
  2
AcDbMaterial
  3
ObjectDBX Classes
 90
     1153
280
     0
281
     0
  0
CLASS
  1
VISUALSTYLE
  2
AcDbVisualStyle
  3
ObjectDBX Classes
 90
     4095
280
     0
281
     0
  0
CLASS
  1
TABLESTYLE
  2
AcDbTableStyle
  3
ObjectDBX Classes
 90
     4095
280
     0
281
     0
  0
CLASS
  1
SCALE
  2
AcDbScale
  3
ObjectDBX Classes
 90
     1153
280
     0
281
     0
  0
CLASS
  1
MLEADERSTYLE
  2
AcDbMLeaderStyle
  3
ACDB_MLEADERSTYLE_CLASS
 90
     4095
280
     0
281
     0
  0
CLASS
  1
CELLSTYLEMAP
  2
AcDbCellStyleMap
  3
ObjectDBX Classes
 90
     1152
280
     0
281
     0
  0
CLASS
  1
SORTENTSTABLE
  2
AcDbSortentsTable
  3
ObjectDBX Classes
 90
        0
280
     0
281
     0
  0
CLASS
  1
MULTILEADER
  2
AcDbMLeader
  3
ACDB_MLEADER_CLASS
 90
    33793
280
     0
281
     1
  0
ENDSEC
  0
SECTION
  2
TABLES
  0
TABLE
  2
VPORT
  5
746D
330
0
100
AcDbSymbolTable
 70
     1
  0
VPORT
  5
A778
330
746D
100
AcDbSymbolTableRecord
100
AcDbViewportTableRecord
  2
*Active
 70
     0
 10
0.0
 20
0.0
 11
1.0
 21
1.0
 12
2969.959713553455
 22
2099.91051551227
 13
0.0
 23
0.0
 14
10.0
 24
10.0
 15
10.0
 25
10.0
 16
0.0
 26
0.0
 36
1.0
 17
0.0
 27
0.0
 37
0.0
 40
4411.597497682496
 41
1.353070175438596
 42
50.0
 43
0.0
 44
0.0
 50
0.0
 51
0.0
 71
     0
 72
   100
 73
     1
 74
     0
 75
     0
 76
     0
 77
     0
 78
     0
281
     0
 65
     1
110
0.0
120
0.0
130
0.0
111
1.0
121
0.0
131
0.0
112
0.0
122
1.0
132
0.0
 79
     0
146
0.0
  0
ENDTAB
  0
TABLE
  2
LTYPE
  5
746A
330
0
100
AcDbSymbolTable
 70
     5
  0
LTYPE
  5
7477
330
746A
100
AcDbSymbolTableRecord
100
AcDbLinetypeTableRecord
  2
BYBLOCK
 70
     0
  3

 72
    65
 73
     0
 40
0.0
  0
LTYPE
  5
7478
330
746A
100
AcDbSymbolTableRecord
100
AcDbLinetypeTableRecord
  2
BYLAYER
 70
     0
  3

 72
    65
 73
     0
 40
0.0
  0
LTYPE
  5
7479
330
746A
100
AcDbSymbolTableRecord
100
AcDbLinetypeTableRecord
  2
CONTINUOUS
 70
     0
  3
Solid line
 72
    65
 73
     0
 40
0.0
  0
LTYPE
  5
7D54
330
746A
100
AcDbSymbolTableRecord
100
AcDbLinetypeTableRecord
  2
CENTER2
 70
     0
  3
Center (.5x) ___ _ ___ _ ___ _ ___ _ ___ _ ___
 72
    65
 73
     4
 40
28.575
 49
19.05
 74
     0
 49
-3.174999999999999
 74
     0
 49
3.174999999999999
 74
     0
 49
-3.174999999999999
 74
     0
  0
LTYPE
  5
7D55
330
746A
100
AcDbSymbolTableRecord
100
AcDbLinetypeTableRecord
  2
DOT
 70
     0
  3
Dot . . . . . . . . . . . . . . . . . . . . . .
 72
    65
 73
     2
 40
6.349999999999999
 49
0.0
 74
     0
 49
-6.349999999999999
 74
     0
  0
LTYPE
  5
7D56
330
746A
100
AcDbSymbolTableRecord
100
AcDbLinetypeTableRecord
  2
HIDDEN2
 70
     0
  3
Hidden (.5x) _ _ _ _ _ _ _ _ _ _ _ _ _ _ _ _ _
 72
    65
 73
     2
 40
4.762499999999999
 49
3.174999999999999
 74
     0
 49
-1.587499999999999
 74
     0
  0
LTYPE
  5
7D57
330
746A
100
AcDbSymbolTableRecord
100
AcDbLinetypeTableRecord
  2
PHANTOM2
 70
     0
  3
Phantom (.5x) ___ _ _ ___ _ _ ___ _ _ ___ _ _
 72
    65
 73
     6
 40
31.75
 49
15.875
 74
     0
 49
-3.174999999999999
 74
     0
 49
3.174999999999999
 74
     0
 49
-3.174999999999999
 74
     0
 49
3.174999999999999
 74
     0
 49
-3.174999999999999
 74
     0
  0
ENDTAB
  0
TABLE
  2
LAYER
  5
7467
330
0
100
AcDbSymbolTable
 70
     7
  0
LAYER
  5
7474
102
{ACAD_XDICTIONARY
360
A7D3
102
}
330
7467
100
AcDbSymbolTableRecord
100
AcDbLayerTableRecord
  2
0
 70
     0
 62
     7
  6
CONTINUOUS
370
    -3
390
7F6A
  0
LAYER
  5
7485
330
7467
100
AcDbSymbolTableRecord
100
AcDbLayerTableRecord
  2
DEFPOINTS
 70
     0
 62
     7
  6
CONTINUOUS
290
     0
370
    -3
390
7F6A
  0
LAYER
  5
7486
102
{ACAD_XDICTIONARY
360
A7D5
102
}
330
7467
100
AcDbSymbolTableRecord
100
AcDbLayerTableRecord
  2
OBJECT
 70
     0
 62
     7
  6
CONTINUOUS
370
    -3
390
7F6A
  0
LAYER
  5
7950
102
{ACAD_XDICTIONARY
360
A7D7
102
}
330
7467
100
AcDbSymbolTableRecord
100
AcDbLayerTableRecord
  2
枠
 70
     0
 62
     3
  6
CONTINUOUS
370
    -3
390
7F6A
  0
LAYER
  5
7D58
102
{ACAD_XDICTIONARY
360
A7D9
102
}
330
7467
100
AcDbSymbolTableRecord
100
AcDbLayerTableRecord
  2
寸法引出
 70
     0
 62
     2
  6
CONTINUOUS
370
    -3
390
7F6A
  0
LAYER
  5
7D59
102
{ACAD_XDICTIONARY
360
A7DB
102
}
330
7467
100
AcDbSymbolTableRecord
100
AcDbLayerTableRecord
  2
鉄筋
 70
     0
 62
     4
  6
CONTINUOUS
370
    -3
390
7F6A
  0
LAYER
  5
7D5A
102
{ACAD_XDICTIONARY
360
A7DD
102
}
330
7467
100
AcDbSymbolTableRecord
100
AcDbLayerTableRecord
  2
補助線
 70
     0
 62
     6
  6
CONTINUOUS
370
    -3
390
7F6A
  0
ENDTAB
  0
TABLE
  2
STYLE
  5
7468
330
0
100
AcDbSymbolTable
 70
     4
  0
STYLE
  5
7475
330
7468
100
AcDbSymbolTableRecord
100
AcDbTextStyleTableRecord
  2
STANDARD
 70
     0
 40
0.0
 41
1.0
 50
0.0
 71
     0
 42
3.5
  3
txt
  4

  0
STYLE
  5
7481
330
7468
100
AcDbSymbolTableRecord
100
AcDbTextStyleTableRecord
  2
ADESK1
 70
     0
 40
0.0
 41
1.0
 50
0.0
 71
     0
 42
5.0
  3
romans
  4
bigfont
  0
STYLE
  5
7731
330
7468
100
AcDbSymbolTableRecord
100
AcDbTextStyleTableRecord
  2
SANWA
 70
     0
 40
0.0
 41
1.0
 50
0.0
 71
     0
 42
2.799999999999999
  3
MSMINCHO.TTF
  4

1001
ACAD
1000
MS Mincho
1071
    32785
  0
STYLE
  5
7D45
330
7468
100
AcDbSymbolTableRecord
100
AcDbTextStyleTableRecord
  2

 70
     1
 40
0.0
 41
1.0
 50
0.0
 71
     0
 42
3.5
  3
ltypeshp.shx
  4

  0
ENDTAB
  0
TABLE
  2
VIEW
  5
746B
330
0
100
AcDbSymbolTable
 70
     0
  0
ENDTAB
  0
TABLE
  2
UCS
  5
746C
330
0
100
AcDbSymbolTable
 70
     0
  0
ENDTAB
  0
TABLE
  2
APPID
  5
746E
330
0
100
AcDbSymbolTable
 70
     7
  0
APPID
  5
7476
330
746E
100
AcDbSymbolTableRecord
100
AcDbRegAppTableRecord
  2
ACAD
 70
     0
  0
APPID
  5
A765
330
746E
100
AcDbSymbolTableRecord
100
AcDbRegAppTableRecord
  2
DCO15
 70
     0
  0
APPID
  5
A7CB
330
746E
100
AcDbSymbolTableRecord
100
AcDbRegAppTableRecord
  2
ACAD_MLEADERVER
 70
     0
  0
APPID
  5
A9B9
330
746E
100
AcDbSymbolTableRecord
100
AcDbRegAppTableRecord
  2
ACAD_EXEMPT_FROM_CAD_STANDARDS
 70
     0
  0
APPID
  5
AB55
330
746E
100
AcDbSymbolTableRecord
100
AcDbRegAppTableRecord
  2
ACAD_DSTYLE_DIMJAG
 70
     0
  0
APPID
  5
AB56
330
746E
100
AcDbSymbolTableRecord
100
AcDbRegAppTableRecord
  2
ACAD_DSTYLE_DIMTALN
 70
     0
  0
APPID
  5
ADF7
330
746E
100
AcDbSymbolTableRecord
100
AcDbRegAppTableRecord
  2
ACAD_PSEXT
 70
     0
  0
ENDTAB
  0
TABLE
  2
DIMSTYLE
  5
746F
330
0
100
AcDbSymbolTable
 70
     4
100
AcDbDimStyleTable
 71
     1
340
796F
  0
DIMSTYLE
105
7484
330
746F
100
AcDbSymbolTableRecord
100
AcDbDimStyleTableRecord
  2
JIS
 70
     0
 41
2.5
 42
1.0
 43
7.0
 44
1.0
 73
     0
 74
     0
 77
     1
 78
     8
140
2.5
141
0.0
143
0.0394
147
0.0
172
     1
174
     1
176
     2
177
     2
178
     2
340
7731
  0
DIMSTYLE
105
796F
102
{ACAD_REACTORS
330
9202
330
9241
330
9250
330
925F
330
928F
330
AE15
330
AE24
330
AE33
330
AE42
330
AE4F
330
AEA6
330
AEB6
330
AEDB
330
AF52
330
AF5F
330
AF89
330
AF98
330
AFA7
330
B0C9
330
B0D8
330
B16F
330
B17E
330
B18B
330
B19A
330
BB7E
330
BB8B
102
}
330
746F
100
AcDbSymbolTableRecord
100
AcDbDimStyleTableRecord
  2
SANWA
 70
     0
 41
2.5
 42
1.0
 43
7.0
 44
1.0
 73
     0
 74
     0
 77
     1
 78
     8
140
2.5
141
0.0
143
0.0394
147
0.0
172
     1
174
     1
176
     2
177
     2
178
     2
340
7731
  0
DIMSTYLE
105
7C9D
330
746F
100
AcDbSymbolTableRecord
100
AcDbDimStyleTableRecord
  2
SANWA$4
 70
     0
 41
2.5
 42
1.0
 43
5.0
 44
1.0
 73
     0
 74
     0
 77
     1
 78
     8
140
2.5
141
0.0
143
0.0394
147
1.0
172
     1
174
     1
176
     2
177
     2
178
     2
289
     2
340
7731
  0
DIMSTYLE
105
7CB5
330
746F
100
AcDbSymbolTableRecord
100
AcDbDimStyleTableRecord
  2
SANWA$3
 70
     0
 41
2.5
 42
1.0
 43
7.0
 44
1.0
 73
     0
 74
     0
 77
     1
 78
     8
140
2.5
141
0.0
143
0.0394
147
0.0
172
     1
174
     1
176
     2
177
     2
178
     2
289
     0
340
7731
  0
ENDTAB
  0
TABLE
  2
BLOCK_RECORD
  5
7466
330
0
100
AcDbSymbolTable
 70
    31
  0
BLOCK_RECORD
  5
747D
102
{ACAD_XDICTIONARY
360
A9D0
102
}
330
7466
100
AcDbSymbolTableRecord
100
AcDbBlockTableRecord
  2
*MODEL_SPACE
340
7F6D
  0
BLOCK_RECORD
  5
747A
330
7466
100
AcDbSymbolTableRecord
100
AcDbBlockTableRecord
  2
*PAPER_SPACE
340
7F6E
  0
BLOCK_RECORD
  5
7493
330
7466
100
AcDbSymbolTableRecord
100
AcDbBlockTableRecord
  2
TITLE_BLOCK
340
0
  0
BLOCK_RECORD
  5
9203
330
7466
100
AcDbSymbolTableRecord
100
AcDbBlockTableRecord
  2
*D1
340
0
  0
BLOCK_RECORD
  5
9242
330
7466
100
AcDbSymbolTableRecord
100
AcDbBlockTableRecord
  2
*D2
340
0
  0
BLOCK_RECORD
  5
9251
330
7466
100
AcDbSymbolTableRecord
100
AcDbBlockTableRecord
  2
*D3
340
0
  0
BLOCK_RECORD
  5
9260
330
7466
100
AcDbSymbolTableRecord
100
AcDbBlockTableRecord
  2
*D4
340
0
  0
BLOCK_RECORD
  5
9290
330
7466
100
AcDbSymbolTableRecord
100
AcDbBlockTableRecord
  2
*D5
340
0
  0
BLOCK_RECORD
  5
AE16
330
7466
100
AcDbSymbolTableRecord
100
AcDbBlockTableRecord
  2
*D6
340
0
  0
BLOCK_RECORD
  5
AE25
330
7466
100
AcDbSymbolTableRecord
100
AcDbBlockTableRecord
  2
*D7
340
0
  0
BLOCK_RECORD
  5
AE34
330
7466
100
AcDbSymbolTableRecord
100
AcDbBlockTableRecord
  2
*D8
340
0
  0
BLOCK_RECORD
  5
AE43
330
7466
100
AcDbSymbolTableRecord
100
AcDbBlockTableRecord
  2
*D9
340
0
  0
BLOCK_RECORD
  5
AE50
330
7466
100
AcDbSymbolTableRecord
100
AcDbBlockTableRecord
  2
*D10
340
0
  0
BLOCK_RECORD
  5
AEA7
330
7466
100
AcDbSymbolTableRecord
100
AcDbBlockTableRecord
  2
*D11
340
0
  0
BLOCK_RECORD
  5
AEB7
330
7466
100
AcDbSymbolTableRecord
100
AcDbBlockTableRecord
  2
*D12
340
0
  0
BLOCK_RECORD
  5
AEDC
330
7466
100
AcDbSymbolTableRecord
100
AcDbBlockTableRecord
  2
*D13
340
0
  0
BLOCK_RECORD
  5
AF53
330
7466
100
AcDbSymbolTableRecord
100
AcDbBlockTableRecord
  2
*D14
340
0
  0
BLOCK_RECORD
  5
AF60
330
7466
100
AcDbSymbolTableRecord
100
AcDbBlockTableRecord
  2
*D15
340
0
  0
BLOCK_RECORD
  5
AF8A
330
7466
100
AcDbSymbolTableRecord
100
AcDbBlockTableRecord
  2
*D16
340
0
  0
BLOCK_RECORD
  5
AF99
330
7466
100
AcDbSymbolTableRecord
100
AcDbBlockTableRecord
  2
*D17
340
0
  0
BLOCK_RECORD
  5
AFA8
330
7466
100
AcDbSymbolTableRecord
100
AcDbBlockTableRecord
  2
*D18
340
0
  0
BLOCK_RECORD
  5
B0CA
330
7466
100
AcDbSymbolTableRecord
100
AcDbBlockTableRecord
  2
*D19
340
0
  0
BLOCK_RECORD
  5
B0D9
330
7466
100
AcDbSymbolTableRecord
100
AcDbBlockTableRecord
  2
*D20
340
0
  0
BLOCK_RECORD
  5
B170
330
7466
100
AcDbSymbolTableRecord
100
AcDbBlockTableRecord
  2
*D21
340
0
  0
BLOCK_RECORD
  5
B17F
330
7466
100
AcDbSymbolTableRecord
100
AcDbBlockTableRecord
  2
*D22
340
0
  0
BLOCK_RECORD
  5
B18C
330
7466
100
AcDbSymbolTableRecord
100
AcDbBlockTableRecord
  2
*D23
340
0
  0
BLOCK_RECORD
  5
B19B
330
7466
100
AcDbSymbolTableRecord
100
AcDbBlockTableRecord
  2
*D24
340
0
  0
BLOCK_RECORD
  5
BB7F
330
7466
100
AcDbSymbolTableRecord
100
AcDbBlockTableRecord
  2
*D29
340
0
  0
BLOCK_RECORD
  5
BB8C
330
7466
100
AcDbSymbolTableRecord
100
AcDbBlockTableRecord
  2
*D30
340
0
  0
ENDTAB
  0
ENDSEC
  0
SECTION
  2
BLOCKS
  0
BLOCK
  5
7489
330
747D
100
AcDbEntity
  8
0
100
AcDbBlockBegin
  2
*MODEL_SPACE
 70
     0
 10
0.0
 20
0.0
 30
0.0
  3
*MODEL_SPACE
  1

  0
ENDBLK
  5
748A
330
747D
100
AcDbEntity
  8
0
100
AcDbBlockEnd
  0
BLOCK
  5
7487
330
747A
100
AcDbEntity
 67
     1
  8
0
100
AcDbBlockBegin
  2
*PAPER_SPACE
 70
     2
 10
0.0
 20
0.0
 30
0.0
  3
*PAPER_SPACE
  1

  0
ENDBLK
  5
7488
330
747A
100
AcDbEntity
 67
     1
  8
0
100
AcDbBlockEnd
  0
BLOCK
  5
7494
330
7493
100
AcDbEntity
  8
0
100
AcDbBlockBegin
  2
TITLE_BLOCK
 70
     2
 10
0.0
 20
0.0
 30
0.0
  3
TITLE_BLOCK
  1

  0
LINE
  5
7495
330
7493
100
AcDbEntity
  8
0
 62
     0
100
AcDbLine
 10
402.7943262411347
 20
16.00000000000008
 30
0.0
 11
410.0
 21
16.00000000000008
 31
0.0
  0
LINE
  5
7496
330
7493
100
AcDbEntity
  8
0
 62
     0
100
AcDbLine
 10
410.0
 20
10.0
 30
0.0
 11
410.0
 21
49.00000000000036
 31
0.0
  0
LINE
  5
7497
330
7493
100
AcDbEntity
  8
0
 62
     0
100
AcDbLine
 10
410.0
 20
49.00000000000036
 30
0.0
 11
410.0
 21
10.0
 31
0.0
  0
LINE
  5
7498
330
7493
100
AcDbEntity
  8
0
 62
     0
100
AcDbLine
 10
402.7943262411347
 20
22.00000000000012
 30
0.0
 11
402.7943262411347
 21
10.0
 31
0.0
  0
LINE
  5
7499
330
7493
100
AcDbEntity
  8
0
 62
     0
100
AcDbLine
 10
336.1418439716306
 20
49.00000000000036
 30
0.0
 11
336.1418439716306
 21
22.00000000000012
 31
0.0
  0
LINE
  5
749A
330
7493
100
AcDbEntity
  8
0
 62
     0
100
AcDbLine
 10
325.3333333333326
 20
37.00000000000024
 30
0.0
 11
325.3333333333326
 21
25.00000000000012
 31
0.0
  0
LINE
  5
749B
330
7493
100
AcDbEntity
  8
0
 62
     0
100
AcDbLine
 10
318.1276595744673
 20
49.00000000000036
 30
0.0
 11
318.1276595744673
 21
25.00000000000012
 31
0.0
  0
LINE
  5
749C
330
7493
100
AcDbEntity
  8
0
 62
     0
100
AcDbLine
 10
318.1276595744673
 20
25.00000000000012
 30
0.0
 11
348.7517730496447
 21
25.00000000000012
 31
0.0
  0
LINE
  5
749D
330
7493
100
AcDbEntity
  8
0
 62
     0
100
AcDbLine
 10
280.2978723404242
 20
28.00000000000016
 30
0.0
 11
348.7517730496447
 21
28.00000000000016
 31
0.0
  0
LINE
  5
749E
330
7493
100
AcDbEntity
  8
0
 62
     0
100
AcDbLine
 10
280.2978723404242
 20
31.0000000000002
 30
0.0
 11
348.7517730496447
 21
31.0000000000002
 31
0.0
  0
LINE
  5
749F
330
7493
100
AcDbEntity
  8
0
 62
     0
100
AcDbLine
 10
280.2978723404242
 20
34.00000000000024
 30
0.0
 11
348.7517730496447
 21
34.00000000000024
 31
0.0
  0
LINE
  5
74A0
330
7493
100
AcDbEntity
  8
0
 62
     0
100
AcDbLine
 10
280.2978723404242
 20
19.00000000000008
 30
0.0
 11
318.1276595744673
 21
19.00000000000012
 31
0.0
  0
LINE
  5
74A1
330
7493
100
AcDbEntity
  8
0
 62
     0
100
AcDbLine
 10
280.2978723404242
 20
22.00000000000008
 30
0.0
 11
318.1276595744673
 21
22.00000000000012
 31
0.0
  0
LINE
  5
74A2
330
7493
100
AcDbEntity
  8
0
 62
     0
100
AcDbLine
 10
280.2978723404242
 20
25.00000000000012
 30
0.0
 11
318.1276595744673
 21
25.00000000000012
 31
0.0
  0
TEXT
  5
74A3
330
7493
100
AcDbEntity
  8
0
 62
     0
100
AcDbText
 10
342.2447163844405
 20
10.55220101068186
 30
0.0
 40
1.791674070777747
  1
照査
  7
ADESK1
 72
     1
 11
344.1558353932701
 21
10.55220101068186
 31
0.0
100
AcDbText
  0
TEXT
  5
74A4
330
7493
100
AcDbEntity
  8
0
 62
     0
100
AcDbText
 10
332.2960689314087
 20
10.48329012996929
 30
0.0
 40
1.791674070777747
  1
設計
  7
ADESK1
 72
     1
 11
334.2071879402383
 21
10.48329012996929
 31
0.0
100
AcDbText
  0
TEXT
  5
74A5
330
7493
100
AcDbEntity
  8
0
 62
     0
100
AcDbText
 10
321.7174935280942
 20
10.48329012996929
 30
0.0
 40
1.791674070777747
  1
製図
  7
ADESK1
 72
     1
 11
323.5688900678979
 21
10.48329012996929
 31
0.0
100
AcDbText
  0
LINE
  5
74A6
330
7493
100
AcDbEntity
  8
0
 62
     0
100
AcDbLine
 10
280.2978723404242
 20
10.0
 30
0.0
 11
280.2978723404242
 21
13.00000000000004
 31
0.0
  0
LINE
  5
74A7
330
7493
100
AcDbEntity
  8
0
 62
     0
100
AcDbLine
 10
280.2978723404242
 20
16.00000000000008
 30
0.0
 11
318.1276595744673
 21
16.00000000000008
 31
0.0
  0
LINE
  5
74A8
330
7493
100
AcDbEntity
  8
0
 62
     0
100
AcDbLine
 10
339.4042553191484
 20
22.00000000000008
 30
0.0
 11
339.4042553191484
 21
10.0
 31
0.0
  0
LINE
  5
74A9
330
7493
100
AcDbEntity
  8
0
 62
     0
100
AcDbLine
 10
328.7659574468078
 20
22.00000000000008
 30
0.0
 11
328.7659574468078
 21
10.0
 31
0.0
  0
LINE
  5
74AA
330
7493
100
AcDbEntity
  8
0
 62
     0
100
AcDbLine
 10
348.7517730496447
 20
49.00000000000036
 30
0.0
 11
348.7517730496447
 21
10.0
 31
0.0
  0
LINE
  5
74AB
330
7493
100
AcDbEntity
  8
0
 62
     0
100
AcDbLine
 10
280.2978723404242
 20
49.00000000000036
 30
0.0
 11
280.2978723404242
 21
10.0
 31
0.0
  0
LINE
  5
74AC
330
7493
100
AcDbEntity
  8
0
 62
     0
100
AcDbLine
 10
318.1276595744673
 20
25.00000000000012
 30
0.0
 11
318.1276595744673
 21
10.0
 31
0.0
  0
LINE
  5
74AD
330
7493
100
AcDbEntity
  8
0
 62
     0
100
AcDbLine
 10
312.7234042553184
 20
37.00000000000024
 30
0.0
 11
312.7234042553184
 21
10.0
 31
0.0
  0
LINE
  5
74AE
330
7493
100
AcDbEntity
  8
0
 62
     0
100
AcDbLine
 10
285.7021276595731
 20
37.00000000000024
 30
0.0
 11
285.7021276595731
 21
10.0
 31
0.0
  0
LINE
  5
74AF
330
7493
100
AcDbEntity
  8
0
 62
     0
100
AcDbLine
 10
303.7163120567366
 20
37.00000000000024
 30
0.0
 11
303.7163120567366
 21
10.0
 31
0.0
  0
LINE
  5
74B0
330
7493
100
AcDbEntity
  8
0
 62
     0
100
AcDbLine
 10
410.0
 20
49.00000000000036
 30
0.0
 11
280.2978723404242
 21
49.00000000000036
 31
0.0
  0
LINE
  5
74B1
330
7493
100
AcDbEntity
  8
0
 62
     0
100
AcDbLine
 10
280.2978723404242
 20
10.0
 30
0.0
 11
410.0
 21
10.0
 31
0.0
  0
LINE
  5
74B2
330
7493
100
AcDbEntity
  8
0
 62
     0
100
AcDbLine
 10
318.1276595744673
 20
22.00000000000012
 30
0.0
 11
410.0
 21
22.00000000000012
 31
0.0
  0
LINE
  5
74B3
330
7493
100
AcDbEntity
  8
0
 62
     0
100
AcDbLine
 10
280.2978723404242
 20
37.00000000000024
 30
0.0
 11
410.0
 21
37.00000000000024
 31
0.0
  0
LINE
  5
74B4
330
7493
100
AcDbEntity
  8
0
 62
     0
100
AcDbLine
 10
280.2978723404242
 20
13.00000000000004
 30
0.0
 11
410.0
 21
13.00000000000004
 31
0.0
  0
LINE
  5
74B5
330
7493
100
AcDbEntity
  8
0
 62
     0
100
AcDbLine
 10
280.2978723404242
 20
49.00000000000036
 30
0.0
 11
410.0
 21
49.00000000000036
 31
0.0
  0
TEXT
  5
74B6
330
7493
100
AcDbEntity
  8
0
100
AcDbText
 10
411.3708251683467
 20
33.08333333333334
 30
0.0
 40
3.0
  1
F
  7
ADESK1
 72
     1
 11
412.8708251683468
 21
33.08333333333334
 31
0.0
100
AcDbText
  0
TEXT
  5
74B7
330
7493
100
AcDbEntity
  8
0
100
AcDbText
 10
411.3708251683467
 20
79.25
 30
0.0
 40
3.0
  1
E
  7
ADESK1
 72
     1
 11
412.8708251683468
 21
79.25
 31
0.0
100
AcDbText
  0
TEXT
  5
74B8
330
7493
100
AcDbEntity
  8
0
100
AcDbText
 10
411.2993965969182
 20
125.4166666666666
 30
0.0
 40
3.0
  1
D
  7
ADESK1
 72
     1
 11
412.8708251683468
 21
125.4166666666666
 31
0.0
100
AcDbText
  0
TEXT
  5
74B9
330
7493
100
AcDbEntity
  8
0
100
AcDbText
 10
411.3708251683467
 20
171.5833333333333
 30
0.0
 40
3.0
  1
C
  7
ADESK1
 72
     1
 11
412.8708251683468
 21
171.5833333333333
 31
0.0
100
AcDbText
  0
TEXT
  5
74BA
330
7493
100
AcDbEntity
  8
0
100
AcDbText
 10
411.2993965969182
 20
217.75
 30
0.0
 40
3.0
  1
B
  7
ADESK1
 72
     1
 11
412.8708251683468
 21
217.75
 31
0.0
100
AcDbText
  0
TEXT
  5
74BB
330
7493
100
AcDbEntity
  8
0
100
AcDbText
 10
411.5851108826324
 20
263.9166666666666
 30
0.0
 40
3.0
  1
A
  7
ADESK1
 72
     1
 11
412.8708251683468
 21
263.9166666666666
 31
0.0
100
AcDbText
  0
TEXT
  5
74BC
330
7493
100
AcDbEntity
  8
0
100
AcDbText
 10
384.5089285714286
 20
6.019997240728748
 30
0.0
 40
3.0
  1
8
  7
ADESK1
 72
     1
 11
385.9375
 21
6.019997240728748
 31
0.0
100
AcDbText
  0
TEXT
  5
74BD
330
7493
100
AcDbEntity
  8
0
100
AcDbText
 10
336.3839285714286
 20
6.019997240728748
 30
0.0
 40
3.0
  1
7
  7
ADESK1
 72
     1
 11
337.8125
 21
6.019997240728748
 31
0.0
100
AcDbText
  0
TEXT
  5
74BE
330
7493
100
AcDbEntity
  8
0
100
AcDbText
 10
288.1875
 20
6.019997240728748
 30
0.0
 40
3.0
  1
6
  7
ADESK1
 72
     1
 11
289.6875
 21
6.019997240728748
 31
0.0
100
AcDbText
  0
TEXT
  5
74BF
330
7493
100
AcDbEntity
  8
0
100
AcDbText
 10
240.1339285714286
 20
6.019997240728748
 30
0.0
 40
3.0
  1
5
  7
ADESK1
 72
     1
 11
241.5625
 21
6.019997240728748
 31
0.0
100
AcDbText
  0
TEXT
  5
74C0
330
7493
100
AcDbEntity
  8
0
100
AcDbText
 10
191.9375
 20
6.019997240728748
 30
0.0
 40
3.0
  1
4
  7
ADESK1
 72
     1
 11
193.4375
 21
6.019997240728748
 31
0.0
100
AcDbText
  0
TEXT
  5
74C1
330
7493
100
AcDbEntity
  8
0
100
AcDbText
 10
143.8839285714285
 20
6.019997240728748
 30
0.0
 40
3.0
  1
3
  7
ADESK1
 72
     1
 11
145.3125
 21
6.019997240728748
 31
0.0
100
AcDbText
  0
TEXT
  5
74C2
330
7493
100
AcDbEntity
  8
0
100
AcDbText
 10
95.75892857142857
 20
6.019997240728748
 30
0.0
 40
3.0
  1
2
  7
ADESK1
 72
     1
 11
97.1875
 21
6.019997240728748
 31
0.0
100
AcDbText
  0
TEXT
  5
74C3
330
7493
100
AcDbEntity
  8
0
100
AcDbText
 10
47.84821428571429
 20
6.019997240728748
 30
0.0
 40
3.0
  1
1
  7
ADESK1
 72
     1
 11
49.0625
 21
6.019997240728748
 31
0.0
100
AcDbText
  0
TEXT
  5
74C4
330
7493
100
AcDbEntity
  8
0
100
AcDbText
 10
21.1071613595339
 20
33.08333333333334
 30
0.0
 40
3.0
  1
F
  7
ADESK1
 72
     1
 11
22.6071613595339
 21
33.08333333333334
 31
0.0
100
AcDbText
  0
TEXT
  5
74C5
330
7493
100
AcDbEntity
  8
0
100
AcDbText
 10
21.1071613595339
 20
79.25
 30
0.0
 40
3.0
  1
E
  7
ADESK1
 72
     1
 11
22.6071613595339
 21
79.25
 31
0.0
100
AcDbText
  0
TEXT
  5
74C6
330
7493
100
AcDbEntity
  8
0
100
AcDbText
 10
21.03573278810533
 20
125.4166666666666
 30
0.0
 40
3.0
  1
D
  7
ADESK1
 72
     1
 11
22.6071613595339
 21
125.4166666666666
 31
0.0
100
AcDbText
  0
TEXT
  5
74C7
330
7493
100
AcDbEntity
  8
0
100
AcDbText
 10
21.1071613595339
 20
171.5833333333333
 30
0.0
 40
3.0
  1
C
  7
ADESK1
 72
     1
 11
22.6071613595339
 21
171.5833333333333
 31
0.0
100
AcDbText
  0
TEXT
  5
74C8
330
7493
100
AcDbEntity
  8
0
100
AcDbText
 10
21.03573278810533
 20
217.75
 30
0.0
 40
3.0
  1
B
  7
ADESK1
 72
     1
 11
22.6071613595339
 21
217.75
 31
0.0
100
AcDbText
  0
TEXT
  5
74C9
330
7493
100
AcDbEntity
  8
0
100
AcDbText
 10
384.5089285714286
 20
288.0
 30
0.0
 40
3.0
  1
8
  7
ADESK1
 72
     1
 11
385.9375
 21
288.0
 31
0.0
100
AcDbText
  0
TEXT
  5
74CA
330
7493
100
AcDbEntity
  8
0
100
AcDbText
 10
336.3839285714286
 20
288.0
 30
0.0
 40
3.0
  1
7
  7
ADESK1
 72
     1
 11
337.8125
 21
288.0
 31
0.0
100
AcDbText
  0
TEXT
  5
74CB
330
7493
100
AcDbEntity
  8
0
100
AcDbText
 10
288.1875
 20
288.0
 30
0.0
 40
3.0
  1
6
  7
ADESK1
 72
     1
 11
289.6875
 21
288.0
 31
0.0
100
AcDbText
  0
TEXT
  5
74CC
330
7493
100
AcDbEntity
  8
0
100
AcDbText
 10
240.1339285714286
 20
288.0
 30
0.0
 40
3.0
  1
5
  7
ADESK1
 72
     1
 11
241.5625
 21
288.0
 31
0.0
100
AcDbText
  0
TEXT
  5
74CD
330
7493
100
AcDbEntity
  8
0
100
AcDbText
 10
191.9375
 20
288.0
 30
0.0
 40
3.0
  1
4
  7
ADESK1
 72
     1
 11
193.4375
 21
288.0
 31
0.0
100
AcDbText
  0
TEXT
  5
74CE
330
7493
100
AcDbEntity
  8
0
100
AcDbText
 10
143.8839285714285
 20
288.0
 30
0.0
 40
3.0
  1
3
  7
ADESK1
 72
     1
 11
145.3125
 21
288.0
 31
0.0
100
AcDbText
  0
TEXT
  5
74CF
330
7493
100
AcDbEntity
  8
0
100
AcDbText
 10
95.75892857142857
 20
288.0
 30
0.0
 40
3.0
  1
2
  7
ADESK1
 72
     1
 11
97.1875
 21
288.0
 31
0.0
100
AcDbText
  0
TEXT
  5
74D0
330
7493
100
AcDbEntity
  8
0
100
AcDbText
 10
21.32144707381961
 20
263.9166666666666
 30
0.0
 40
3.0
  1
A
  7
ADESK1
 72
     1
 11
22.6071613595339
 21
263.9166666666666
 31
0.0
100
AcDbText
  0
TEXT
  5
74D1
330
7493
100
AcDbEntity
  8
0
100
AcDbText
 10
47.84821428571429
 20
288.0
 30
0.0
 40
3.0
  1
1
  7
ADESK1
 72
     1
 11
49.0625
 21
288.0
 31
0.0
100
AcDbText
  0
LINE
  5
74D2
330
7493
100
AcDbEntity
  8
0
100
AcDbLine
 10
73.125
 20
287.0
 30
0.0
 11
73.125
 21
292.0
 31
0.0
  0
LINE
  5
74D3
330
7493
100
AcDbEntity
  8
0
100
AcDbLine
 10
121.25
 20
287.0
 30
0.0
 11
121.25
 21
292.0
 31
0.0
  0
LINE
  5
74D4
330
7493
100
AcDbEntity
  8
0
100
AcDbLine
 10
169.375
 20
287.0
 30
0.0
 11
169.375
 21
292.0
 31
0.0
  0
LINE
  5
74D5
330
7493
100
AcDbEntity
  8
0
100
AcDbLine
 10
217.5
 20
287.0
 30
0.0
 11
217.5
 21
292.0
 31
0.0
  0
LINE
  5
74D6
330
7493
100
AcDbEntity
  8
0
100
AcDbLine
 10
265.625
 20
287.0
 30
0.0
 11
265.625
 21
292.0
 31
0.0
  0
LINE
  5
74D7
330
7493
100
AcDbEntity
  8
0
100
AcDbLine
 10
313.75
 20
287.0
 30
0.0
 11
313.75
 21
292.0
 31
0.0
  0
LINE
  5
74D8
330
7493
100
AcDbEntity
  8
0
100
AcDbLine
 10
361.875
 20
287.0
 30
0.0
 11
361.875
 21
292.0
 31
0.0
  0
LINE
  5
74D9
330
7493
100
AcDbEntity
  8
0
100
AcDbLine
 10
361.875
 20
10.0
 30
0.0
 11
361.875
 21
5.0
 31
0.0
  0
LINE
  5
74DA
330
7493
100
AcDbEntity
  8
0
100
AcDbLine
 10
313.75
 20
10.0
 30
0.0
 11
313.75
 21
5.0
 31
0.0
  0
LINE
  5
74DB
330
7493
100
AcDbEntity
  8
0
100
AcDbLine
 10
265.625
 20
10.0
 30
0.0
 11
265.625
 21
5.0
 31
0.0
  0
LINE
  5
74DC
330
7493
100
AcDbEntity
  8
0
100
AcDbLine
 10
217.5
 20
10.0
 30
0.0
 11
217.5
 21
5.0
 31
0.0
  0
LINE
  5
74DD
330
7493
100
AcDbEntity
  8
0
100
AcDbLine
 10
169.375
 20
10.0
 30
0.0
 11
169.375
 21
5.0
 31
0.0
  0
LINE
  5
74DE
330
7493
100
AcDbEntity
  8
0
100
AcDbLine
 10
121.25
 20
10.0
 30
0.0
 11
121.25
 21
5.0
 31
0.0
  0
LINE
  5
74DF
330
7493
100
AcDbEntity
  8
0
100
AcDbLine
 10
73.125
 20
10.0
 30
0.0
 11
73.125
 21
5.0
 31
0.0
  0
LINE
  5
74E0
330
7493
100
AcDbEntity
  8
0
100
AcDbLine
 10
410.0
 20
240.8333333333334
 30
0.0
 11
415.0
 21
240.8333333333334
 31
0.0
  0
LINE
  5
74E1
330
7493
100
AcDbEntity
  8
0
100
AcDbLine
 10
410.0
 20
194.6666666666667
 30
0.0
 11
415.0
 21
194.6666666666667
 31
0.0
  0
LINE
  5
74E2
330
7493
100
AcDbEntity
  8
0
100
AcDbLine
 10
410.0
 20
148.5
 30
0.0
 11
415.0
 21
148.5
 31
0.0
  0
LINE
  5
74E3
330
7493
100
AcDbEntity
  8
0
100
AcDbLine
 10
410.0
 20
102.3333333333333
 30
0.0
 11
415.0
 21
102.3333333333333
 31
0.0
  0
LINE
  5
74E4
330
7493
100
AcDbEntity
  8
0
100
AcDbLine
 10
410.0
 20
56.16666666666668
 30
0.0
 11
415.0
 21
56.16666666666668
 31
0.0
  0
LINE
  5
74E5
330
7493
100
AcDbEntity
  8
0
100
AcDbLine
 10
25.0
 20
56.16666666666667
 30
0.0
 11
20.0
 21
56.16666666666667
 31
0.0
  0
LINE
  5
74E6
330
7493
100
AcDbEntity
  8
0
100
AcDbLine
 10
25.0
 20
102.3333333333333
 30
0.0
 11
20.0
 21
102.3333333333333
 31
0.0
  0
LINE
  5
74E7
330
7493
100
AcDbEntity
  8
0
100
AcDbLine
 10
25.0
 20
148.5
 30
0.0
 11
20.0
 21
148.5
 31
0.0
  0
LINE
  5
74E8
330
7493
100
AcDbEntity
  8
0
100
AcDbLine
 10
25.0
 20
194.6666666666666
 30
0.0
 11
20.0
 21
194.6666666666666
 31
0.0
  0
LINE
  5
74E9
330
7493
100
AcDbEntity
  8
0
100
AcDbLine
 10
25.0
 20
240.8333333333333
 30
0.0
 11
20.0
 21
240.8333333333333
 31
0.0
  0
TEXT
  5
74EA
330
7493
100
AcDbEntity
  8
0
100
AcDbText
 10
1.0
 20
1.0
 30
0.0
 40
3.0
  1
この図枠はサンプルです。社内の規格やプロッタの出力範囲に合わせて適当に変更してご利用ください。
  7
ADESK1
100
AcDbText
  0
LINE
  5
74EB
330
7493
100
AcDbEntity
  8
0
100
AcDbLine
 10
25.0
 20
148.5
 30
0.0
 11
0.0
 21
148.5
 31
0.0
  0
LINE
  5
74EC
330
7493
100
AcDbEntity
  8
0
100
AcDbLine
 10
410.0
 20
148.5
 30
0.0
 11
420.0
 21
148.5
 31
0.0
  0
LINE
  5
74ED
330
7493
100
AcDbEntity
  8
0
100
AcDbLine
 10
217.5
 20
287.0
 30
0.0
 11
217.5
 21
297.0
 31
0.0
  0
LINE
  5
74EE
330
7493
100
AcDbEntity
  8
0
100
AcDbLine
 10
217.5
 20
10.0
 30
0.0
 11
217.5
 21
0.0
 31
0.0
  0
LINE
  5
74EF
330
7493
100
AcDbEntity
  8
OBJECT
100
AcDbLine
 10
130.0
 20
40.0
 30
0.0
 11
130.0
 21
10.0
 31
0.0
  0
LINE
  5
74F0
330
7493
100
AcDbEntity
  8
OBJECT
100
AcDbLine
 10
120.0
 20
10.0
 30
0.0
 11
120.0
 21
40.0
 31
0.0
  0
LINE
  5
74F1
330
7493
100
AcDbEntity
  8
OBJECT
100
AcDbLine
 10
44.5
 20
37.0
 30
0.0
 11
45.49999999999999
 21
37.0
 31
0.0
  0
LINE
  5
74F2
330
7493
100
AcDbEntity
  8
OBJECT
100
AcDbLine
 10
44.5
 20
31.0
 30
0.0
 11
45.49999999999999
 21
31.0
 31
0.0
  0
LINE
  5
74F3
330
7493
100
AcDbEntity
  8
OBJECT
100
AcDbLine
 10
39.5
 20
37.0
 30
0.0
 11
40.49999999999999
 21
37.0
 31
0.0
  0
LINE
  5
74F4
330
7493
100
AcDbEntity
  8
OBJECT
100
AcDbLine
 10
39.5
 20
31.0
 30
0.0
 11
40.49999999999999
 21
31.0
 31
0.0
  0
LINE
  5
74F5
330
7493
100
AcDbEntity
  8
OBJECT
100
AcDbLine
 10
44.5
 20
25.0
 30
0.0
 11
45.49999999999999
 21
25.0
 31
0.0
  0
LINE
  5
74F6
330
7493
100
AcDbEntity
  8
OBJECT
100
AcDbLine
 10
39.5
 20
25.0
 30
0.0
 11
40.49999999999999
 21
25.0
 31
0.0
  0
LINE
  5
74F7
330
7493
100
AcDbEntity
  8
OBJECT
100
AcDbLine
 10
44.5
 20
19.0
 30
0.0
 11
45.49999999999999
 21
19.0
 31
0.0
  0
LINE
  5
74F8
330
7493
100
AcDbEntity
  8
OBJECT
100
AcDbLine
 10
39.5
 20
19.0
 30
0.0
 11
40.49999999999999
 21
19.0
 31
0.0
  0
LINE
  5
74F9
330
7493
100
AcDbEntity
  8
OBJECT
100
AcDbLine
 10
28.0
 20
29.53589800000001
 30
0.0
 11
30.0
 21
33.0
 31
0.0
  0
LINE
  5
74FA
330
7493
100
AcDbEntity
  8
OBJECT
100
AcDbLine
 10
28.0
 20
29.53589800000001
 30
0.0
 11
32.0
 21
29.53589800000001
 31
0.0
  0
LINE
  5
74FB
330
7493
100
AcDbEntity
  8
OBJECT
100
AcDbLine
 10
32.0
 20
29.53589800000001
 30
0.0
 11
30.0
 21
33.0
 31
0.0
  0
LINE
  5
74FC
330
7493
100
AcDbEntity
  8
OBJECT
100
AcDbLine
 10
28.0
 20
35.535898
 30
0.0
 11
32.0
 21
35.535898
 31
0.0
  0
LINE
  5
74FD
330
7493
100
AcDbEntity
  8
OBJECT
100
AcDbLine
 10
32.0
 20
35.535898
 30
0.0
 11
30.0
 21
39.0
 31
0.0
  0
LINE
  5
74FE
330
7493
100
AcDbEntity
  8
OBJECT
100
AcDbLine
 10
28.0
 20
35.535898
 30
0.0
 11
30.0
 21
39.0
 31
0.0
  0
LINE
  5
74FF
330
7493
100
AcDbEntity
  8
OBJECT
100
AcDbLine
 10
28.0
 20
23.535898
 30
0.0
 11
30.0
 21
27.0
 31
0.0
  0
LINE
  5
7500
330
7493
100
AcDbEntity
  8
OBJECT
100
AcDbLine
 10
28.0
 20
23.535898
 30
0.0
 11
32.0
 21
23.535898
 31
0.0
  0
LINE
  5
7501
330
7493
100
AcDbEntity
  8
OBJECT
100
AcDbLine
 10
32.0
 20
23.535898
 30
0.0
 11
30.0
 21
27.0
 31
0.0
  0
LINE
  5
7502
330
7493
100
AcDbEntity
  8
OBJECT
100
AcDbLine
 10
28.0
 20
17.535898
 30
0.0
 11
30.0
 21
21.0
 31
0.0
  0
LINE
  5
7503
330
7493
100
AcDbEntity
  8
OBJECT
100
AcDbLine
 10
28.0
 20
17.535898
 30
0.0
 11
32.0
 21
17.535898
 31
0.0
  0
LINE
  5
7504
330
7493
100
AcDbEntity
  8
OBJECT
100
AcDbLine
 10
32.0
 20
17.535898
 30
0.0
 11
30.0
 21
21.0
 31
0.0
  0
LINE
  5
7505
330
7493
100
AcDbEntity
  8
OBJECT
100
AcDbLine
 10
44.5
 20
13.0
 30
0.0
 11
45.49999999999999
 21
13.0
 31
0.0
  0
LINE
  5
7506
330
7493
100
AcDbEntity
  8
OBJECT
100
AcDbLine
 10
39.5
 20
13.0
 30
0.0
 11
40.49999999999999
 21
13.0
 31
0.0
  0
LINE
  5
7507
330
7493
100
AcDbEntity
  8
OBJECT
100
AcDbLine
 10
28.0
 20
11.535898
 30
0.0
 11
32.0
 21
11.535898
 31
0.0
  0
LINE
  5
7508
330
7493
100
AcDbEntity
  8
OBJECT
100
AcDbLine
 10
80.0
 20
10.0
 30
0.0
 11
80.0
 21
40.0
 31
0.0
  0
LINE
  5
7509
330
7493
100
AcDbEntity
  8
OBJECT
100
AcDbLine
 10
50.0
 20
10.0
 30
0.0
 11
50.0
 21
40.0
 31
0.0
  0
LINE
  5
750A
330
7493
100
AcDbEntity
  8
OBJECT
100
AcDbLine
 10
35.0
 20
10.0
 30
0.0
 11
35.0
 21
40.0
 31
0.0
  0
LINE
  5
750B
330
7493
100
AcDbEntity
  8
OBJECT
100
AcDbLine
 10
32.0
 20
11.535898
 30
0.0
 11
30.0
 21
15.0
 31
0.0
  0
LINE
  5
750C
330
7493
100
AcDbEntity
  8
OBJECT
100
AcDbLine
 10
28.0
 20
11.535898
 30
0.0
 11
30.0
 21
15.0
 31
0.0
  0
LINE
  5
750D
330
7493
100
AcDbEntity
  8
OBJECT
100
AcDbLine
 10
130.0
 20
40.0
 30
0.0
 11
25.0
 21
40.0
 31
0.0
  0
LINE
  5
750E
330
7493
100
AcDbEntity
  8
OBJECT
100
AcDbLine
 10
130.0
 20
34.0
 30
0.0
 11
25.0
 21
34.0
 31
0.0
  0
LINE
  5
750F
330
7493
100
AcDbEntity
  8
OBJECT
100
AcDbLine
 10
130.0
 20
28.0
 30
0.0
 11
25.0
 21
28.0
 31
0.0
  0
LINE
  5
7510
330
7493
100
AcDbEntity
  8
OBJECT
100
AcDbLine
 10
130.0
 20
22.0
 30
0.0
 11
25.0
 21
22.0
 31
0.0
  0
LINE
  5
7511
330
7493
100
AcDbEntity
  8
OBJECT
100
AcDbLine
 10
130.0
 20
16.0
 30
0.0
 11
25.0
 21
16.0
 31
0.0
  0
ATTDEF
  5
7512
330
7493
100
AcDbEntity
  8
0
 62
     0
100
AcDbText
 10
19.0
 20
118.0
 30
0.0
 40
3.0
  1

 50
90.0
  7
ADESK1
100
AcDbAttributeDefinition
  3

  2
FNAME
 70
     8
  0
ATTDEF
  5
7513
330
7493
100
AcDbEntity
  8
0
 62
     0
100
AcDbText
 10
19.0
 20
70.0
 30
0.0
 40
3.0
  1

 50
90.0
  7
ADESK1
100
AcDbAttributeDefinition
  3

  2
REVDATE
 70
     8
  0
ATTDEF
  5
7514
330
7493
100
AcDbEntity
  8
0
 62
     0
100
AcDbText
 10
19.0
 20
10.0
 30
0.0
 40
3.0
  1

 50
90.0
  7
ADESK1
100
AcDbAttributeDefinition
  3

  2
USER
 70
     8
  0
LINE
  5
7515
330
7493
100
AcDbEntity
  8
0
100
AcDbLine
 10
410.0
 20
297.0
 30
0.0
 11
420.0
 21
297.0
 31
0.0
  0
LINE
  5
7516
330
7493
100
AcDbEntity
  8
0
100
AcDbLine
 10
420.0
 20
10.0
 30
0.0
 11
420.0
 21
0.0
 31
0.0
  0
LINE
  5
7517
330
7493
100
AcDbEntity
  8
0
100
AcDbLine
 10
25.0
 20
0.0
 30
0.0
 11
0.0
 21
0.0
 31
0.0
  0
LINE
  5
7518
330
7493
100
AcDbEntity
  8
0
100
AcDbLine
 10
0.0
 20
287.0
 30
0.0
 11
0.0
 21
297.0
 31
0.0
  0
LINE
  5
7519
330
7493
100
AcDbEntity
  8
0
100
AcDbLine
 10
25.0
 20
287.0
 30
0.0
 11
410.0
 21
287.0
 31
0.0
  0
LINE
  5
751A
330
7493
100
AcDbEntity
  8
0
100
AcDbLine
 10
410.0
 20
287.0
 30
0.0
 11
410.0
 21
10.0
 31
0.0
  0
LINE
  5
751B
330
7493
100
AcDbEntity
  8
0
100
AcDbLine
 10
410.0
 20
10.0
 30
0.0
 11
25.0
 21
10.0
 31
0.0
  0
LINE
  5
751C
330
7493
100
AcDbEntity
  8
0
100
AcDbLine
 10
25.0
 20
10.0
 30
0.0
 11
25.0
 21
287.0
 31
0.0
  0
LINE
  5
751D
330
7493
100
AcDbEntity
  8
0
100
AcDbLine
 10
420.0
 20
0.0
 30
0.0
 11
410.0
 21
0.0
 31
0.0
  0
LINE
  5
751E
330
7493
100
AcDbEntity
  8
0
100
AcDbLine
 10
420.0
 20
297.0
 30
0.0
 11
420.0
 21
287.0
 31
0.0
  0
LINE
  5
751F
330
7493
100
AcDbEntity
  8
0
100
AcDbLine
 10
0.0
 20
297.0
 30
0.0
 11
25.0
 21
297.0
 31
0.0
  0
LINE
  5
7520
330
7493
100
AcDbEntity
  8
0
100
AcDbLine
 10
0.0
 20
0.0
 30
0.0
 11
0.0
 21
10.0
 31
0.0
  0
ENDBLK
  5
7521
330
7493
100
AcDbEntity
  8
0
100
AcDbBlockEnd
  0
BLOCK
  5
920F
330
9203
100
AcDbEntity
  8
0
 48
20.0
100
AcDbBlockBegin
  2
*D1
 70
     1
 10
0.0
 20
0.0
 30
0.0
  3
*D1
  1

  0
LINE
  5
BCDD
330
9203
100
AcDbEntity
  8
寸法引出
 48
20.0
370
    -2
100
AcDbLine
 10
2735.643798103049
 20
511.5309926056361
 30
0.0
 11
2735.643798103049
 21
756.639038878893
 31
0.0
  0
LINE
  5
BCDE
330
9203
100
AcDbEntity
  8
寸法引出
 48
20.0
370
    -2
100
AcDbLine
 10
2702.310464769715
 20
678.1976592723026
 30
0.0
 11
2702.310464769715
 21
756.639038878893
 31
0.0
  0
LINE
  5
BCDF
330
9203
100
AcDbEntity
  8
寸法引出
 48
20.0
370
    -2
100
AcDbLine
 10
2758.143798103049
 20
749.1390388788929
 30
0.0
 11
2780.643798103048
 21
749.1390388788929
 31
0.0
  0
LINE
  5
BCE0
330
9203
100
AcDbEntity
  8
寸法引出
 48
20.0
370
    -2
100
AcDbLine
 10
2679.810464769715
 20
749.1390388788929
 30
0.0
 11
2657.310464769715
 21
749.1390388788929
 31
0.0
  0
LINE
  5
BCE1
330
9203
100
AcDbEntity
  8
寸法引出
 48
20.0
370
    -2
100
AcDbLine
 10
2735.643798103049
 20
749.1390388788929
 30
0.0
 11
2702.310464769715
 21
749.1390388788929
 31
0.0
  0
SOLID
  5
BCE2
330
9203
100
AcDbEntity
  8
寸法引出
 48
20.0
100
AcDbTrace
 10
2758.143798103049
 20
752.8890388788929
 30
0.0
 11
2758.143798103049
 21
745.3890388788929
 31
0.0
 12
2735.643798103049
 22
749.1390388788929
 32
0.0
 13
2735.643798103049
 23
749.1390388788929
 33
0.0
  0
SOLID
  5
BCE3
330
9203
100
AcDbEntity
  8
寸法引出
 48
20.0
100
AcDbTrace
 10
2679.810464769715
 20
752.8890388788929
 30
0.0
 11
2679.810464769715
 21
745.3890388788929
 31
0.0
 12
2702.310464769715
 22
749.1390388788929
 32
0.0
 13
2702.310464769715
 23
749.1390388788929
 33
0.0
  0
MTEXT
  5
BCE4
330
9203
100
AcDbEntity
  8
寸法引出
 48
20.0
100
AcDbMText
 10
2718.977131436382
 20
779.1390388788929
 30
0.0
 40
30.0
 41
0.0
 71
     5
 72
     1
  1
\A1;5
  7
SANWA
 73
     1
 44
1.0
1001
ACAD
1000
MTEXTBEGIN
1070
    73
1070
     1
1070
    44
1040
1.0
1070
    74
1070
     0
1000
MTEXTEND
  0
POINT
  5
BCE5
330
9203
100
AcDbEntity
  8
DEFPOINTS
 62
     0
 48
20.0
100
AcDbPoint
 10
2735.643798103049
 20
496.530992605636
 30
0.0
  0
POINT
  5
BCE6
330
9203
100
AcDbEntity
  8
DEFPOINTS
 62
     0
 48
20.0
100
AcDbPoint
 10
2702.310464769715
 20
663.1976592723026
 30
0.0
  0
POINT
  5
BCE7
330
9203
100
AcDbEntity
  8
DEFPOINTS
 62
     0
 48
20.0
100
AcDbPoint
 10
2702.310464769715
 20
749.1390388788929
 30
0.0
  0
ENDBLK
  5
9210
330
9203
100
AcDbEntity
  8
0
 48
20.0
100
AcDbBlockEnd
  0
BLOCK
  5
924E
330
9242
100
AcDbEntity
  8
0
 48
20.0
100
AcDbBlockBegin
  2
*D2
 70
     1
 10
0.0
 20
0.0
 30
0.0
  3
*D2
  1

  0
LINE
  5
BCE8
330
9242
100
AcDbEntity
  8
寸法引出
 48
20.0
370
    -2
100
AcDbLine
 10
2553.977131436381
 20
663.1976592723026
 30
0.0
 11
2507.493486772987
 21
663.1976592723026
 31
0.0
  0
LINE
  5
BCE9
330
9242
100
AcDbEntity
  8
寸法引出
 48
20.0
370
    -2
100
AcDbLine
 10
2687.310464769715
 20
623.1976592723026
 30
0.0
 11
2507.493486772987
 21
623.1976592723026
 31
0.0
  0
LINE
  5
BCEA
330
9242
100
AcDbEntity
  8
寸法引出
 48
20.0
370
    -2
100
AcDbLine
 10
2514.993486772986
 20
685.6976592723026
 30
0.0
 11
2514.993486772986
 21
708.1976592723026
 31
0.0
  0
LINE
  5
BCEB
330
9242
100
AcDbEntity
  8
寸法引出
 48
20.0
370
    -2
100
AcDbLine
 10
2514.993486772986
 20
600.6976592723026
 30
0.0
 11
2514.993486772986
 21
578.1976592723026
 31
0.0
  0
MTEXT
  5
BCEC
330
9242
100
AcDbEntity
  8
寸法引出
 48
20.0
100
AcDbMText
 10
2470.894663326279
 20
688.1893982066344
 30
0.0
 40
30.0
 41
0.0
 71
     5
 72
     1
  1
\A1;6
  7
SANWA
 11
0.0000000000000001
 21
1.0
 31
0.0
 73
     1
 44
1.0
1001
ACAD
1000
MTEXTBEGIN
1070
    73
1070
     1
1070
    44
1040
1.0
1070
    74
1070
     0
1000
MTEXTEND
  0
LINE
  5
BCED
330
9242
100
AcDbEntity
  8
寸法引出
 48
20.0
370
    -2
100
AcDbLine
 10
2514.993486772986
 20
663.1976592723026
 30
0.0
 11
2514.993486772986
 21
623.1976592723026
 31
0.0
  0
SOLID
  5
BCEE
330
9242
100
AcDbEntity
  8
寸法引出
 48
20.0
100
AcDbTrace
 10
2511.243486772987
 20
685.6976592723026
 30
0.0
 11
2518.743486772986
 21
685.6976592723026
 31
0.0
 12
2514.993486772986
 22
663.1976592723026
 32
0.0
 13
2514.993486772986
 23
663.1976592723026
 33
0.0
  0
SOLID
  5
BCEF
330
9242
100
AcDbEntity
  8
寸法引出
 48
20.0
100
AcDbTrace
 10
2511.243486772987
 20
600.6976592723026
 30
0.0
 11
2518.743486772986
 21
600.6976592723026
 31
0.0
 12
2514.993486772986
 22
623.1976592723026
 32
0.0
 13
2514.993486772986
 23
623.1976592723026
 33
0.0
  0
POINT
  5
BCF0
330
9242
100
AcDbEntity
  8
DEFPOINTS
 62
     0
 48
20.0
100
AcDbPoint
 10
2568.977131436381
 20
663.1976592723026
 30
0.0
  0
POINT
  5
BCF1
330
9242
100
AcDbEntity
  8
DEFPOINTS
 62
     0
 48
20.0
100
AcDbPoint
 10
2702.310464769715
 20
623.1976592723026
 30
0.0
  0
POINT
  5
BCF2
330
9242
100
AcDbEntity
  8
DEFPOINTS
 62
     0
 48
20.0
100
AcDbPoint
 10
2514.993486772986
 20
623.1976592723026
 30
0.0
  0
ENDBLK
  5
924F
330
9242
100
AcDbEntity
  8
0
 48
20.0
100
AcDbBlockEnd
  0
BLOCK
  5
925D
330
9251
100
AcDbEntity
  8
0
 48
20.0
100
AcDbBlockBegin
  2
*D3
 70
     1
 10
0.0
 20
0.0
 30
0.0
  3
*D3
  1

  0
LINE
  5
BCF3
330
9251
100
AcDbEntity
  8
寸法引出
 48
20.0
370
    -2
100
AcDbLine
 10
2687.310464769715
 20
623.1976592723026
 30
0.0
 11
2507.493486772987
 21
623.1976592723026
 31
0.0
  0
LINE
  5
BCF4
330
9251
100
AcDbEntity
  8
寸法引出
 48
20.0
370
    -2
100
AcDbLine
 10
2653.977131436381
 20
523.1976592723026
 30
0.0
 11
2507.493486772987
 21
523.1976592723026
 31
0.0
  0
LINE
  5
BCF5
330
9251
100
AcDbEntity
  8
寸法引出
 48
20.0
370
    -2
100
AcDbLine
 10
2514.993486772986
 20
600.6976592723026
 30
0.0
 11
2514.993486772986
 21
545.6976592723026
 31
0.0
  0
SOLID
  5
BCF6
330
9251
100
AcDbEntity
  8
寸法引出
 48
20.0
100
AcDbTrace
 10
2511.243486772987
 20
600.6976592723026
 30
0.0
 11
2518.743486772986
 21
600.6976592723026
 31
0.0
 12
2514.993486772986
 22
623.1976592723026
 32
0.0
 13
2514.993486772986
 23
623.1976592723026
 33
0.0
  0
SOLID
  5
BCF7
330
9251
100
AcDbEntity
  8
寸法引出
 48
20.0
100
AcDbTrace
 10
2511.243486772987
 20
545.6976592723026
 30
0.0
 11
2518.743486772986
 21
545.6976592723026
 31
0.0
 12
2514.993486772986
 22
523.1976592723026
 32
0.0
 13
2514.993486772986
 23
523.1976592723026
 33
0.0
  0
MTEXT
  5
BCF8
330
9251
100
AcDbEntity
  8
寸法引出
 48
20.0
100
AcDbMText
 10
2484.993486772987
 20
573.1976592723031
 30
0.0
 40
30.0
 41
0.0
 71
     5
 72
     1
  1
\A1;15
  7
SANWA
 11
0.0000000000000001
 21
1.0
 31
0.0
 73
     1
 44
1.0
1001
ACAD
1000
MTEXTBEGIN
1070
    73
1070
     1
1070
    44
1040
1.0
1070
    74
1070
     0
1000
MTEXTEND
  0
POINT
  5
BCF9
330
9251
100
AcDbEntity
  8
DEFPOINTS
 62
     0
 48
20.0
100
AcDbPoint
 10
2702.310464769715
 20
623.1976592723026
 30
0.0
  0
POINT
  5
BCFA
330
9251
100
AcDbEntity
  8
DEFPOINTS
 62
     0
 48
20.0
100
AcDbPoint
 10
2668.977131436381
 20
523.1976592723026
 30
0.0
  0
POINT
  5
BCFB
330
9251
100
AcDbEntity
  8
DEFPOINTS
 62
     0
 48
20.0
100
AcDbPoint
 10
2514.993486772986
 20
523.1976592723026
 30
0.0
  0
ENDBLK
  5
925E
330
9251
100
AcDbEntity
  8
0
 48
20.0
100
AcDbBlockEnd
  0
BLOCK
  5
926C
330
9260
100
AcDbEntity
  8
0
 48
20.0
100
AcDbBlockBegin
  2
*D4
 70
     1
 10
0.0
 20
0.0
 30
0.0
  3
*D4
  1

  0
LINE
  5
BCFC
330
9260
100
AcDbEntity
  8
寸法引出
 48
20.0
370
    -2
100
AcDbLine
 10
2653.977131436381
 20
523.1976592723026
 30
0.0
 11
2507.493486772987
 21
523.1976592723026
 31
0.0
  0
LINE
  5
BCFD
330
9260
100
AcDbEntity
  8
寸法引出
 48
20.0
370
    -2
100
AcDbLine
 10
2720.643798103049
 20
496.530992605636
 30
0.0
 11
2507.493486772987
 21
496.5309926056361
 31
0.0
  0
LINE
  5
BCFE
330
9260
100
AcDbEntity
  8
寸法引出
 48
20.0
370
    -2
100
AcDbLine
 10
2514.993486772986
 20
545.6976592723026
 30
0.0
 11
2514.993486772986
 21
568.1976592723026
 31
0.0
  0
LINE
  5
BCFF
330
9260
100
AcDbEntity
  8
寸法引出
 48
20.0
370
    -2
100
AcDbLine
 10
2514.993486772986
 20
474.0309926056361
 30
0.0
 11
2514.993486772986
 21
451.5309926056361
 31
0.0
  0
MTEXT
  5
BD00
330
9260
100
AcDbEntity
  8
寸法引出
 48
20.0
100
AcDbMText
 10
2474.364129429045
 20
474.3616024966492
 30
0.0
 40
30.0
 41
0.0
 71
     5
 72
     1
  1
\A1;4
  7
SANWA
 11
0.0000000000000001
 21
1.0
 31
0.0
 73
     1
 44
1.0
1001
ACAD
1000
MTEXTBEGIN
1070
    73
1070
     1
1070
    44
1040
1.0
1070
    74
1070
     0
1000
MTEXTEND
  0
LINE
  5
BD01
330
9260
100
AcDbEntity
  8
寸法引出
 48
20.0
370
    -2
100
AcDbLine
 10
2514.993486772986
 20
523.1976592723026
 30
0.0
 11
2514.993486772986
 21
496.5309926056361
 31
0.0
  0
SOLID
  5
BD02
330
9260
100
AcDbEntity
  8
寸法引出
 48
20.0
100
AcDbTrace
 10
2511.243486772987
 20
545.6976592723026
 30
0.0
 11
2518.743486772986
 21
545.6976592723026
 31
0.0
 12
2514.993486772986
 22
523.1976592723026
 32
0.0
 13
2514.993486772986
 23
523.1976592723026
 33
0.0
  0
SOLID
  5
BD03
330
9260
100
AcDbEntity
  8
寸法引出
 48
20.0
100
AcDbTrace
 10
2511.243486772987
 20
474.0309926056361
 30
0.0
 11
2518.743486772986
 21
474.0309926056361
 31
0.0
 12
2514.993486772986
 22
496.5309926056361
 32
0.0
 13
2514.993486772986
 23
496.5309926056361
 33
0.0
  0
POINT
  5
BD04
330
9260
100
AcDbEntity
  8
DEFPOINTS
 62
     0
 48
20.0
100
AcDbPoint
 10
2668.977131436381
 20
523.1976592723026
 30
0.0
  0
POINT
  5
BD05
330
9260
100
AcDbEntity
  8
DEFPOINTS
 62
     0
 48
20.0
100
AcDbPoint
 10
2735.643798103049
 20
496.530992605636
 30
0.0
  0
POINT
  5
BD06
330
9260
100
AcDbEntity
  8
DEFPOINTS
 62
     0
 48
20.0
100
AcDbPoint
 10
2514.993486772986
 20
496.5309926056361
 30
0.0
  0
ENDBLK
  5
926D
330
9260
100
AcDbEntity
  8
0
 48
20.0
100
AcDbBlockEnd
  0
BLOCK
  5
929C
330
9290
100
AcDbEntity
  8
0
 48
20.0
100
AcDbBlockBegin
  2
*D5
 70
     1
 10
0.0
 20
0.0
 30
0.0
  3
*D5
  1

  0
LINE
  5
BD07
330
9290
100
AcDbEntity
  8
寸法引出
 48
20.0
370
    -2
100
AcDbLine
 10
2668.977131436381
 20
508.1976592723026
 30
0.0
 11
2668.977131436381
 21
396.2352545891166
 31
0.0
  0
LINE
  5
BD08
330
9290
100
AcDbEntity
  8
寸法引出
 48
20.0
370
    -2
100
AcDbLine
 10
2735.643798103049
 20
481.530992605636
 30
0.0
 11
2735.643798103049
 21
396.2352545891166
 31
0.0
  0
LINE
  5
BD09
330
9290
100
AcDbEntity
  8
寸法引出
 48
20.0
370
    -2
100
AcDbLine
 10
2646.477131436381
 20
403.7352545891166
 30
0.0
 11
2623.977131436381
 21
403.7352545891166
 31
0.0
  0
LINE
  5
BD0A
330
9290
100
AcDbEntity
  8
寸法引出
 48
20.0
370
    -2
100
AcDbLine
 10
2758.143798103049
 20
403.7352545891166
 30
0.0
 11
2780.643798103048
 21
403.7352545891166
 31
0.0
  0
LINE
  5
BD0B
330
9290
100
AcDbEntity
  8
寸法引出
 48
20.0
370
    -2
100
AcDbLine
 10
2668.977131436381
 20
403.7352545891166
 30
0.0
 11
2735.643798103049
 21
403.7352545891166
 31
0.0
  0
SOLID
  5
BD0C
330
9290
100
AcDbEntity
  8
寸法引出
 48
20.0
100
AcDbTrace
 10
2646.477131436381
 20
407.4852545891165
 30
0.0
 11
2646.477131436381
 21
399.9852545891166
 31
0.0
 12
2668.977131436381
 22
403.7352545891166
 32
0.0
 13
2668.977131436381
 23
403.7352545891166
 33
0.0
  0
SOLID
  5
BD0D
330
9290
100
AcDbEntity
  8
寸法引出
 48
20.0
100
AcDbTrace
 10
2758.143798103049
 20
407.4852545891165
 30
0.0
 11
2758.143798103049
 21
399.9852545891166
 31
0.0
 12
2735.643798103049
 22
403.7352545891166
 32
0.0
 13
2735.643798103049
 23
403.7352545891166
 33
0.0
  0
MTEXT
  5
BD0E
330
9290
100
AcDbEntity
  8
寸法引出
 48
20.0
100
AcDbMText
 10
2702.310464769715
 20
433.7352545891166
 30
0.0
 40
30.0
 41
0.0
 71
     5
 72
     1
  1
\A1;10
  7
SANWA
 73
     1
 44
1.0
1001
ACAD
1000
MTEXTBEGIN
1070
    73
1070
     1
1070
    44
1040
1.0
1070
    74
1070
     0
1000
MTEXTEND
  0
POINT
  5
BD0F
330
9290
100
AcDbEntity
  8
DEFPOINTS
 62
     0
 48
20.0
100
AcDbPoint
 10
2668.977131436381
 20
523.1976592723026
 30
0.0
  0
POINT
  5
BD10
330
9290
100
AcDbEntity
  8
DEFPOINTS
 62
     0
 48
20.0
100
AcDbPoint
 10
2735.643798103049
 20
496.530992605636
 30
0.0
  0
POINT
  5
BD11
330
9290
100
AcDbEntity
  8
DEFPOINTS
 62
     0
 48
20.0
100
AcDbPoint
 10
2735.643798103049
 20
403.7352545891166
 30
0.0
  0
ENDBLK
  5
929D
330
9290
100
AcDbEntity
  8
0
 48
20.0
100
AcDbBlockEnd
  0
BLOCK
  5
AE17
330
AE16
100
AcDbEntity
  8
0
 48
20.0
100
AcDbBlockBegin
  2
*D6
 70
     1
 10
0.0
 20
0.0
 30
0.0
  3
*D6
  1

  0
LINE
  5
BD12
330
AE16
100
AcDbEntity
  8
寸法引出
 48
20.0
370
    -2
100
AcDbLine
 10
1531.616634805497
 20
2728.945101169249
 30
0.0
 11
1531.616634805497
 21
2795.011532457536
 31
0.0
  0
LINE
  5
BD13
330
AE16
100
AcDbEntity
  8
寸法引出
 48
20.0
370
    -2
100
AcDbLine
 10
1571.616634805497
 20
2733.445101169249
 30
0.0
 11
1571.616634805497
 21
2795.011532457536
 31
0.0
  0
LINE
  5
BD14
330
AE16
100
AcDbEntity
  8
寸法引出
 48
20.0
370
    -2
100
AcDbLine
 10
1501.616634805498
 20
2785.011532457537
 30
0.0
 11
1471.616634805497
 21
2785.011532457537
 31
0.0
  0
LINE
  5
BD15
330
AE16
100
AcDbEntity
  8
寸法引出
 48
20.0
370
    -2
100
AcDbLine
 10
1601.616634805498
 20
2785.011532457537
 30
0.0
 11
1631.616634805498
 21
2785.011532457537
 31
0.0
  0
MTEXT
  5
BD16
330
AE16
100
AcDbEntity
  8
寸法引出
 48
20.0
100
AcDbMText
 10
1485.780305556491
 20
2825.160988188543
 30
0.0
 40
40.0
 41
0.0
 71
     5
 72
     1
  1
\A1;40
  7
SANWA
 73
     1
 44
1.0
1001
ACAD
1000
MTEXTBEGIN
1070
    73
1070
     1
1070
    44
1040
1.0
1070
    74
1070
     0
1000
MTEXTEND
  0
LINE
  5
BD17
330
AE16
100
AcDbEntity
  8
寸法引出
 48
20.0
370
    -2
100
AcDbLine
 10
1531.616634805497
 20
2785.011532457537
 30
0.0
 11
1571.616634805497
 21
2785.011532457537
 31
0.0
  0
SOLID
  5
BD18
330
AE16
100
AcDbEntity
  8
寸法引出
 48
20.0
100
AcDbTrace
 10
1501.616634805498
 20
2790.011532457536
 30
0.0
 11
1501.616634805498
 21
2780.011532457536
 31
0.0
 12
1531.616634805497
 22
2785.011532457537
 32
0.0
 13
1531.616634805497
 23
2785.011532457537
 33
0.0
  0
SOLID
  5
BD19
330
AE16
100
AcDbEntity
  8
寸法引出
 48
20.0
100
AcDbTrace
 10
1601.616634805498
 20
2790.011532457536
 30
0.0
 11
1601.616634805498
 21
2780.011532457536
 31
0.0
 12
1571.616634805497
 22
2785.011532457537
 32
0.0
 13
1571.616634805497
 23
2785.011532457537
 33
0.0
  0
POINT
  5
BD1A
330
AE16
100
AcDbEntity
  8
DEFPOINTS
 62
     0
 48
20.0
100
AcDbPoint
 10
1531.616634805497
 20
2708.945101169249
 30
0.0
  0
POINT
  5
BD1B
330
AE16
100
AcDbEntity
  8
DEFPOINTS
 62
     0
 48
20.0
100
AcDbPoint
 10
1571.616634805497
 20
2713.445101169249
 30
0.0
  0
POINT
  5
BD1C
330
AE16
100
AcDbEntity
  8
DEFPOINTS
 62
     0
 48
20.0
100
AcDbPoint
 10
1571.616634805497
 20
2785.011532457537
 30
0.0
  0
ENDBLK
  5
AE18
330
AE16
100
AcDbEntity
  8
0
 48
20.0
100
AcDbBlockEnd
  0
BLOCK
  5
AE26
330
AE25
100
AcDbEntity
  8
0
 48
20.0
100
AcDbBlockBegin
  2
*D7
 70
     1
 10
0.0
 20
0.0
 30
0.0
  3
*D7
  1

  0
LINE
  5
BD1D
330
AE25
100
AcDbEntity
  8
寸法引出
 48
20.0
370
    -2
100
AcDbLine
 10
1571.616634805497
 20
2733.445101169249
 30
0.0
 11
1571.616634805497
 21
2795.011532457536
 31
0.0
  0
LINE
  5
BD1E
330
AE25
100
AcDbEntity
  8
寸法引出
 48
20.0
370
    -2
100
AcDbLine
 10
1574.116634805498
 20
2643.445101169249
 30
0.0
 11
1574.116634805498
 21
2795.011532457536
 31
0.0
  0
LINE
  5
BD1F
330
AE25
100
AcDbEntity
  8
寸法引出
 48
20.0
370
    -2
100
AcDbLine
 10
1541.616634805497
 20
2785.011532457537
 30
0.0
 11
1511.616634805498
 21
2785.011532457537
 31
0.0
  0
LINE
  5
BD20
330
AE25
100
AcDbEntity
  8
寸法引出
 48
20.0
370
    -2
100
AcDbLine
 10
1604.116634805497
 20
2785.011532457537
 30
0.0
 11
1634.116634805497
 21
2785.011532457537
 31
0.0
  0
MTEXT
  5
BD21
330
AE25
100
AcDbEntity
  8
寸法引出
 48
20.0
100
AcDbMText
 10
1589.573596904461
 20
2881.454330821829
 30
0.0
 40
40.0
 41
0.0
 71
     5
 72
     1
  1
\A1;2.5
  7
SANWA
 73
     1
 44
1.0
1001
ACAD
1000
MTEXTBEGIN
1070
    73
1070
     1
1070
    44
1040
1.0
1070
    74
1070
     0
1000
MTEXTEND
  0
LINE
  5
BD22
330
AE25
100
AcDbEntity
  8
寸法引出
 48
20.0
370
    -2
100
AcDbLine
 10
1571.616634805497
 20
2785.011532457537
 30
0.0
 11
1574.116634805498
 21
2785.011532457537
 31
0.0
  0
SOLID
  5
BD23
330
AE25
100
AcDbEntity
  8
寸法引出
 48
20.0
100
AcDbTrace
 10
1541.616634805497
 20
2790.011532457536
 30
0.0
 11
1541.616634805497
 21
2780.011532457536
 31
0.0
 12
1571.616634805497
 22
2785.011532457537
 32
0.0
 13
1571.616634805497
 23
2785.011532457537
 33
0.0
  0
SOLID
  5
BD24
330
AE25
100
AcDbEntity
  8
寸法引出
 48
20.0
100
AcDbTrace
 10
1604.116634805497
 20
2790.011532457536
 30
0.0
 11
1604.116634805497
 21
2780.011532457536
 31
0.0
 12
1574.116634805498
 22
2785.011532457537
 32
0.0
 13
1574.116634805498
 23
2785.011532457537
 33
0.0
  0
POINT
  5
BD25
330
AE25
100
AcDbEntity
  8
DEFPOINTS
 62
     0
 48
20.0
100
AcDbPoint
 10
1571.616634805497
 20
2713.445101169249
 30
0.0
  0
POINT
  5
BD26
330
AE25
100
AcDbEntity
  8
DEFPOINTS
 62
     0
 48
20.0
100
AcDbPoint
 10
1574.116634805498
 20
2623.445101169249
 30
0.0
  0
POINT
  5
BD27
330
AE25
100
AcDbEntity
  8
DEFPOINTS
 62
     0
 48
20.0
100
AcDbPoint
 10
1574.116634805498
 20
2785.011532457537
 30
0.0
  0
ENDBLK
  5
AE27
330
AE25
100
AcDbEntity
  8
0
 48
20.0
100
AcDbBlockEnd
  0
BLOCK
  5
AE35
330
AE34
100
AcDbEntity
  8
0
 48
20.0
100
AcDbBlockBegin
  2
*D8
 70
     1
 10
0.0
 20
0.0
 30
0.0
  3
*D8
  1

  0
LINE
  5
BD28
330
AE34
100
AcDbEntity
  8
寸法引出
 48
20.0
370
    -2
100
AcDbLine
 10
1574.116634805498
 20
2643.445101169249
 30
0.0
 11
1574.116634805498
 21
2795.011532457536
 31
0.0
  0
LINE
  5
BD29
330
AE34
100
AcDbEntity
  8
寸法引出
 48
20.0
370
    -2
100
AcDbLine
 10
1601.616634805496
 20
2643.44510116925
 30
0.0
 11
1601.616634805496
 21
2795.011532457536
 31
0.0
  0
LINE
  5
BD2A
330
AE34
100
AcDbEntity
  8
寸法引出
 48
20.0
370
    -2
100
AcDbLine
 10
1544.116634805497
 20
2785.011532457537
 30
0.0
 11
1514.116634805497
 21
2785.011532457537
 31
0.0
  0
LINE
  5
BD2B
330
AE34
100
AcDbEntity
  8
寸法引出
 48
20.0
370
    -2
100
AcDbLine
 10
1631.616634805495
 20
2785.011532457537
 30
0.0
 11
1661.616634805495
 21
2785.011532457537
 31
0.0
  0
MTEXT
  5
BD2C
330
AE34
100
AcDbEntity
  8
寸法引出
 48
20.0
100
AcDbMText
 10
1625.252525018201
 20
2825.750448715551
 30
0.0
 40
40.0
 41
0.0
 71
     5
 72
     1
  1
\A1;27.5
  7
SANWA
 73
     1
 44
1.0
1001
ACAD
1000
MTEXTBEGIN
1070
    73
1070
     1
1070
    44
1040
1.0
1070
    74
1070
     0
1000
MTEXTEND
  0
LINE
  5
BD2D
330
AE34
100
AcDbEntity
  8
寸法引出
 48
20.0
370
    -2
100
AcDbLine
 10
1574.116634805498
 20
2785.011532457537
 30
0.0
 11
1601.616634805496
 21
2785.011532457537
 31
0.0
  0
SOLID
  5
BD2E
330
AE34
100
AcDbEntity
  8
寸法引出
 48
20.0
100
AcDbTrace
 10
1544.116634805497
 20
2790.011532457536
 30
0.0
 11
1544.116634805497
 21
2780.011532457536
 31
0.0
 12
1574.116634805498
 22
2785.011532457537
 32
0.0
 13
1574.116634805498
 23
2785.011532457537
 33
0.0
  0
SOLID
  5
BD2F
330
AE34
100
AcDbEntity
  8
寸法引出
 48
20.0
100
AcDbTrace
 10
1631.616634805495
 20
2790.011532457536
 30
0.0
 11
1631.616634805495
 21
2780.011532457536
 31
0.0
 12
1601.616634805496
 22
2785.011532457537
 32
0.0
 13
1601.616634805496
 23
2785.011532457537
 33
0.0
  0
POINT
  5
BD30
330
AE34
100
AcDbEntity
  8
DEFPOINTS
 62
     0
 48
20.0
100
AcDbPoint
 10
1574.116634805498
 20
2623.445101169249
 30
0.0
  0
POINT
  5
BD31
330
AE34
100
AcDbEntity
  8
DEFPOINTS
 62
     0
 48
20.0
100
AcDbPoint
 10
1601.616634805496
 20
2623.44510116925
 30
0.0
  0
POINT
  5
BD32
330
AE34
100
AcDbEntity
  8
DEFPOINTS
 62
     0
 48
20.0
100
AcDbPoint
 10
1601.616634805496
 20
2785.011532457537
 30
0.0
  0
ENDBLK
  5
AE36
330
AE34
100
AcDbEntity
  8
0
 48
20.0
100
AcDbBlockEnd
  0
BLOCK
  5
AE44
330
AE43
100
AcDbEntity
  8
0
 48
20.0
100
AcDbBlockBegin
  2
*D9
 70
     1
 10
0.0
 20
0.0
 30
0.0
  3
*D9
  1

  0
LINE
  5
BD33
330
AE43
100
AcDbEntity
  8
寸法引出
 48
20.0
370
    -2
100
AcDbLine
 10
1601.616634805496
 20
2643.44510116925
 30
0.0
 11
1601.616634805496
 21
2795.011532457536
 31
0.0
  0
LINE
  5
BD34
330
AE43
100
AcDbEntity
  8
寸法引出
 48
20.0
370
    -2
100
AcDbLine
 10
2001.6166348055
 20
2643.44510116925
 30
0.0
 11
2001.6166348055
 21
2795.011532457536
 31
0.0
  0
LINE
  5
BD35
330
AE43
100
AcDbEntity
  8
寸法引出
 48
20.0
370
    -2
100
AcDbLine
 10
1631.616634805495
 20
2785.011532457537
 30
0.0
 11
1971.616634805499
 21
2785.011532457537
 31
0.0
  0
SOLID
  5
BD36
330
AE43
100
AcDbEntity
  8
寸法引出
 48
20.0
100
AcDbTrace
 10
1631.616634805495
 20
2790.011532457536
 30
0.0
 11
1631.616634805495
 21
2780.011532457536
 31
0.0
 12
1601.616634805496
 22
2785.011532457537
 32
0.0
 13
1601.616634805496
 23
2785.011532457537
 33
0.0
  0
SOLID
  5
BD37
330
AE43
100
AcDbEntity
  8
寸法引出
 48
20.0
100
AcDbTrace
 10
1971.616634805499
 20
2790.011532457536
 30
0.0
 11
1971.616634805499
 21
2780.011532457536
 31
0.0
 12
2001.6166348055
 22
2785.011532457537
 32
0.0
 13
2001.6166348055
 23
2785.011532457537
 33
0.0
  0
MTEXT
  5
BD38
330
AE43
100
AcDbEntity
  8
寸法引出
 48
20.0
100
AcDbMText
 10
1801.616634805498
 20
2825.011532457537
 30
0.0
 40
40.0
 41
0.0
 71
     5
 72
     1
  1
\A1;400
  7
SANWA
 73
     1
 44
1.0
1001
ACAD
1000
MTEXTBEGIN
1070
    73
1070
     1
1070
    44
1040
1.0
1070
    74
1070
     0
1000
MTEXTEND
  0
POINT
  5
BD39
330
AE43
100
AcDbEntity
  8
DEFPOINTS
 62
     0
 48
20.0
100
AcDbPoint
 10
1601.616634805496
 20
2623.44510116925
 30
0.0
  0
POINT
  5
BD3A
330
AE43
100
AcDbEntity
  8
DEFPOINTS
 62
     0
 48
20.0
100
AcDbPoint
 10
2001.6166348055
 20
2623.44510116925
 30
0.0
  0
POINT
  5
BD3B
330
AE43
100
AcDbEntity
  8
DEFPOINTS
 62
     0
 48
20.0
100
AcDbPoint
 10
2001.6166348055
 20
2785.011532457537
 30
0.0
  0
ENDBLK
  5
AE45
330
AE43
100
AcDbEntity
  8
0
 48
20.0
100
AcDbBlockEnd
  0
BLOCK
  5
AE51
330
AE50
100
AcDbEntity
  8
0
 48
20.0
100
AcDbBlockBegin
  2
*D10
 70
     1
 10
0.0
 20
0.0
 30
0.0
  3
*D10
  1

  0
LINE
  5
BD3C
330
AE50
100
AcDbEntity
  8
寸法引出
 48
20.0
370
    -2
100
AcDbLine
 10
2001.6166348055
 20
2643.44510116925
 30
0.0
 11
2001.6166348055
 21
2795.011532457536
 31
0.0
  0
LINE
  5
BD3D
330
AE50
100
AcDbEntity
  8
寸法引出
 48
20.0
370
    -2
100
AcDbLine
 10
2071.616634805498
 20
2728.945101169248
 30
0.0
 11
2071.616634805498
 21
2795.011532457536
 31
0.0
  0
LINE
  5
BD3E
330
AE50
100
AcDbEntity
  8
寸法引出
 48
20.0
370
    -2
100
AcDbLine
 10
1971.616634805499
 20
2785.011532457537
 30
0.0
 11
1941.616634805499
 21
2785.011532457537
 31
0.0
  0
LINE
  5
BD3F
330
AE50
100
AcDbEntity
  8
寸法引出
 48
20.0
370
    -2
100
AcDbLine
 10
2101.616634805498
 20
2785.011532457537
 30
0.0
 11
2131.616634805498
 21
2785.011532457537
 31
0.0
  0
LINE
  5
BD40
330
AE50
100
AcDbEntity
  8
寸法引出
 48
20.0
370
    -2
100
AcDbLine
 10
2001.6166348055
 20
2785.011532457537
 30
0.0
 11
2071.616634805498
 21
2785.011532457537
 31
0.0
  0
SOLID
  5
BD41
330
AE50
100
AcDbEntity
  8
寸法引出
 48
20.0
100
AcDbTrace
 10
1971.616634805499
 20
2790.011532457536
 30
0.0
 11
1971.616634805499
 21
2780.011532457536
 31
0.0
 12
2001.6166348055
 22
2785.011532457537
 32
0.0
 13
2001.6166348055
 23
2785.011532457537
 33
0.0
  0
SOLID
  5
BD42
330
AE50
100
AcDbEntity
  8
寸法引出
 48
20.0
100
AcDbTrace
 10
2101.616634805498
 20
2790.011532457536
 30
0.0
 11
2101.616634805498
 21
2780.011532457536
 31
0.0
 12
2071.616634805498
 22
2785.011532457537
 32
0.0
 13
2071.616634805498
 23
2785.011532457537
 33
0.0
  0
MTEXT
  5
BD43
330
AE50
100
AcDbEntity
  8
寸法引出
 48
20.0
100
AcDbMText
 10
2036.616634805499
 20
2825.011532457537
 30
0.0
 40
40.0
 41
0.0
 71
     5
 72
     1
  1
\A1;70
  7
SANWA
 73
     1
 44
1.0
1001
ACAD
1000
MTEXTBEGIN
1070
    73
1070
     1
1070
    44
1040
1.0
1070
    74
1070
     0
1000
MTEXTEND
  0
POINT
  5
BD44
330
AE50
100
AcDbEntity
  8
DEFPOINTS
 62
     0
 48
20.0
100
AcDbPoint
 10
2001.6166348055
 20
2623.44510116925
 30
0.0
  0
POINT
  5
BD45
330
AE50
100
AcDbEntity
  8
DEFPOINTS
 62
     0
 48
20.0
100
AcDbPoint
 10
2071.616634805498
 20
2708.945101169248
 30
0.0
  0
POINT
  5
BD46
330
AE50
100
AcDbEntity
  8
DEFPOINTS
 62
     0
 48
20.0
100
AcDbPoint
 10
2071.616634805498
 20
2785.011532457537
 30
0.0
  0
ENDBLK
  5
AE52
330
AE50
100
AcDbEntity
  8
0
 48
20.0
100
AcDbBlockEnd
  0
BLOCK
  5
AEA8
330
AEA7
100
AcDbEntity
  8
0
 48
20.0
100
AcDbBlockBegin
  2
*D11
 70
     1
 10
0.0
 20
0.0
 30
0.0
  3
*D11
  1

  0
LINE
  5
BD47
330
AEA7
100
AcDbEntity
  8
寸法引出
 48
20.0
370
    -2
100
AcDbLine
 10
1531.616634805497
 20
2728.945101169249
 30
0.0
 11
1531.616634805497
 21
2934.484842196542
 31
0.0
  0
LINE
  5
BD48
330
AEA7
100
AcDbEntity
  8
寸法引出
 48
20.0
370
    -2
100
AcDbLine
 10
2071.616634805498
 20
2728.945101169248
 30
0.0
 11
2071.616634805498
 21
2934.484842196542
 31
0.0
  0
LINE
  5
BD49
330
AEA7
100
AcDbEntity
  8
寸法引出
 48
20.0
370
    -2
100
AcDbLine
 10
1561.616634805498
 20
2924.484842196542
 30
0.0
 11
2041.616634805498
 21
2924.484842196542
 31
0.0
  0
SOLID
  5
BD4A
330
AEA7
100
AcDbEntity
  8
寸法引出
 48
20.0
100
AcDbTrace
 10
1561.616634805498
 20
2929.484842196542
 30
0.0
 11
1561.616634805498
 21
2919.484842196542
 31
0.0
 12
1531.616634805497
 22
2924.484842196542
 32
0.0
 13
1531.616634805497
 23
2924.484842196542
 33
0.0
  0
SOLID
  5
BD4B
330
AEA7
100
AcDbEntity
  8
寸法引出
 48
20.0
100
AcDbTrace
 10
2041.616634805498
 20
2929.484842196542
 30
0.0
 11
2041.616634805498
 21
2919.484842196542
 31
0.0
 12
2071.616634805498
 22
2924.484842196542
 32
0.0
 13
2071.616634805498
 23
2924.484842196542
 33
0.0
  0
MTEXT
  5
BD4C
330
AEA7
100
AcDbEntity
  8
寸法引出
 48
20.0
100
AcDbMText
 10
1801.616634805498
 20
2964.484842196542
 30
0.0
 40
40.0
 41
0.0
 71
     5
 72
     1
  1
\A1;540
  7
SANWA
 73
     1
 44
1.0
1001
ACAD
1000
MTEXTBEGIN
1070
    73
1070
     1
1070
    44
1040
1.0
1070
    74
1070
     0
1000
MTEXTEND
  0
POINT
  5
BD4D
330
AEA7
100
AcDbEntity
  8
DEFPOINTS
 62
     0
 48
20.0
100
AcDbPoint
 10
1531.616634805497
 20
2708.945101169249
 30
0.0
  0
POINT
  5
BD4E
330
AEA7
100
AcDbEntity
  8
DEFPOINTS
 62
     0
 48
20.0
100
AcDbPoint
 10
2071.616634805498
 20
2708.945101169248
 30
0.0
  0
POINT
  5
BD4F
330
AEA7
100
AcDbEntity
  8
DEFPOINTS
 62
     0
 48
20.0
100
AcDbPoint
 10
2071.616634805498
 20
2924.484842196542
 30
0.0
  0
ENDBLK
  5
AEA9
330
AEA7
100
AcDbEntity
  8
0
 48
20.0
100
AcDbBlockEnd
  0
BLOCK
  5
AEB8
330
AEB7
100
AcDbEntity
  8
0
 48
20.0
100
AcDbBlockBegin
  2
*D12
 70
     1
 10
0.0
 20
0.0
 30
0.0
  3
*D12
  1

  0
LINE
  5
BD50
330
AEB7
100
AcDbEntity
  8
寸法引出
 48
20.0
370
    -2
100
AcDbLine
 10
1590.116634805496
 20
2643.44510116925
 30
0.0
 11
1590.116634805496
 21
2669.584298428397
 31
0.0
  0
LINE
  5
BD51
330
AEB7
100
AcDbEntity
  8
寸法引出
 48
20.0
370
    -2
100
AcDbLine
 10
1601.616634805496
 20
2643.44510116925
 30
0.0
 11
1601.616634805496
 21
2669.584298428397
 31
0.0
  0
LINE
  5
BD52
330
AEB7
100
AcDbEntity
  8
寸法引出
 48
20.0
370
    -2
100
AcDbLine
 10
1560.116634805496
 20
2659.584298428397
 30
0.0
 11
1530.116634805495
 21
2659.584298428397
 31
0.0
  0
LINE
  5
BD53
330
AEB7
100
AcDbEntity
  8
寸法引出
 48
20.0
370
    -2
100
AcDbLine
 10
1631.616634805495
 20
2659.584298428397
 30
0.0
 11
1661.616634805495
 21
2659.584298428397
 31
0.0
  0
MTEXT
  5
BD54
330
AEB7
100
AcDbEntity
  8
寸法引出
 48
20.0
100
AcDbMText
 10
1667.319342506624
 20
2703.285969852908
 30
0.0
 40
40.0
 41
0.0
 71
     5
 72
     1
  1
\A1;11.5
  7
SANWA
 73
     1
 44
1.0
1001
ACAD
1000
MTEXTBEGIN
1070
    73
1070
     1
1070
    44
1040
1.0
1070
    74
1070
     0
1000
MTEXTEND
  0
LINE
  5
BD55
330
AEB7
100
AcDbEntity
  8
寸法引出
 48
20.0
370
    -2
100
AcDbLine
 10
1590.116634805496
 20
2659.584298428397
 30
0.0
 11
1601.616634805496
 21
2659.584298428397
 31
0.0
  0
SOLID
  5
BD56
330
AEB7
100
AcDbEntity
  8
寸法引出
 48
20.0
100
AcDbTrace
 10
1560.116634805496
 20
2664.584298428398
 30
0.0
 11
1560.116634805496
 21
2654.584298428397
 31
0.0
 12
1590.116634805496
 22
2659.584298428397
 32
0.0
 13
1590.116634805496
 23
2659.584298428397
 33
0.0
  0
SOLID
  5
BD57
330
AEB7
100
AcDbEntity
  8
寸法引出
 48
20.0
100
AcDbTrace
 10
1631.616634805495
 20
2664.584298428398
 30
0.0
 11
1631.616634805495
 21
2654.584298428397
 31
0.0
 12
1601.616634805496
 22
2659.584298428397
 32
0.0
 13
1601.616634805496
 23
2659.584298428397
 33
0.0
  0
POINT
  5
BD58
330
AEB7
100
AcDbEntity
  8
DEFPOINTS
 62
     0
 48
20.0
100
AcDbPoint
 10
1590.116634805496
 20
2623.44510116925
 30
0.0
  0
POINT
  5
BD59
330
AEB7
100
AcDbEntity
  8
DEFPOINTS
 62
     0
 48
20.0
100
AcDbPoint
 10
1601.616634805496
 20
2623.44510116925
 30
0.0
  0
POINT
  5
BD5A
330
AEB7
100
AcDbEntity
  8
DEFPOINTS
 62
     0
 48
20.0
100
AcDbPoint
 10
1601.616634805496
 20
2659.584298428397
 30
0.0
  0
ENDBLK
  5
AEB9
330
AEB7
100
AcDbEntity
  8
0
 48
20.0
100
AcDbBlockEnd
  0
BLOCK
  5
AEDD
330
AEDC
100
AcDbEntity
  8
0
 48
20.0
100
AcDbBlockBegin
  2
*D13
 70
     1
 10
0.0
 20
0.0
 30
0.0
  3
*D13
  1

  0
LINE
  5
BD5B
330
AEDC
100
AcDbEntity
  8
寸法引出
 48
20.0
370
    -2
100
AcDbLine
 10
1621.616634805496
 20
2623.44510116925
 30
0.0
 11
1738.69843315356
 21
2623.44510116925
 31
0.0
  0
LINE
  5
BD5C
330
AEDC
100
AcDbEntity
  8
寸法引出
 48
20.0
370
    -2
100
AcDbLine
 10
1621.936634805495
 20
2615.44510116925
 30
0.0
 11
1738.69843315356
 21
2615.44510116925
 31
0.0
  0
LINE
  5
BD5D
330
AEDC
100
AcDbEntity
  8
寸法引出
 48
20.0
370
    -2
100
AcDbLine
 10
1728.69843315356
 20
2653.44510116925
 30
0.0
 11
1728.69843315356
 21
2683.44510116925
 31
0.0
  0
LINE
  5
BD5E
330
AEDC
100
AcDbEntity
  8
寸法引出
 48
20.0
370
    -2
100
AcDbLine
 10
1728.69843315356
 20
2585.44510116925
 30
0.0
 11
1728.69843315356
 21
2555.44510116925
 31
0.0
  0
MTEXT
  5
BD5F
330
AEDC
100
AcDbEntity
  8
寸法引出
 48
20.0
100
AcDbMText
 10
1688.059303502963
 20
2589.756970858174
 30
0.0
 40
40.0
 41
0.0
 71
     5
 72
     1
  1
\A1;8
  7
SANWA
 11
0.0000000000000001
 21
1.0
 31
0.0
 73
     1
 44
1.0
1001
ACAD
1000
MTEXTBEGIN
1070
    73
1070
     1
1070
    44
1040
1.0
1070
    74
1070
     0
1000
MTEXTEND
  0
LINE
  5
BD60
330
AEDC
100
AcDbEntity
  8
寸法引出
 48
20.0
370
    -2
100
AcDbLine
 10
1728.69843315356
 20
2623.44510116925
 30
0.0
 11
1728.69843315356
 21
2615.44510116925
 31
0.0
  0
SOLID
  5
BD61
330
AEDC
100
AcDbEntity
  8
寸法引出
 48
20.0
100
AcDbTrace
 10
1723.69843315356
 20
2653.44510116925
 30
0.0
 11
1733.69843315356
 21
2653.44510116925
 31
0.0
 12
1728.69843315356
 22
2623.44510116925
 32
0.0
 13
1728.69843315356
 23
2623.44510116925
 33
0.0
  0
SOLID
  5
BD62
330
AEDC
100
AcDbEntity
  8
寸法引出
 48
20.0
100
AcDbTrace
 10
1723.69843315356
 20
2585.44510116925
 30
0.0
 11
1733.69843315356
 21
2585.44510116925
 31
0.0
 12
1728.69843315356
 22
2615.44510116925
 32
0.0
 13
1728.69843315356
 23
2615.44510116925
 33
0.0
  0
POINT
  5
BD63
330
AEDC
100
AcDbEntity
  8
DEFPOINTS
 62
     0
 48
20.0
100
AcDbPoint
 10
1601.616634805496
 20
2623.44510116925
 30
0.0
  0
POINT
  5
BD64
330
AEDC
100
AcDbEntity
  8
DEFPOINTS
 62
     0
 48
20.0
100
AcDbPoint
 10
1601.936634805495
 20
2615.44510116925
 30
0.0
  0
POINT
  5
BD65
330
AEDC
100
AcDbEntity
  8
DEFPOINTS
 62
     0
 48
20.0
100
AcDbPoint
 10
1728.69843315356
 20
2615.44510116925
 30
0.0
  0
ENDBLK
  5
AEDE
330
AEDC
100
AcDbEntity
  8
0
 48
20.0
100
AcDbBlockEnd
  0
BLOCK
  5
AF54
330
AF53
100
AcDbEntity
  8
0
 48
20.0
100
AcDbBlockBegin
  2
*D14
 70
     1
 10
0.0
 20
0.0
 30
0.0
  3
*D14
  1

  0
LINE
  5
BD66
330
AF53
100
AcDbEntity
  8
寸法引出
 48
20.0
370
    -2
100
AcDbLine
 10
2891.985379641716
 20
2713.445101169249
 30
0.0
 11
2773.089733091256
 21
2713.445101169249
 31
0.0
  0
LINE
  5
BD67
330
AF53
100
AcDbEntity
  8
寸法引出
 48
20.0
370
    -2
100
AcDbLine
 10
2891.985379641716
 20
1848.445101169249
 30
0.0
 11
2773.089733091256
 21
1848.445101169249
 31
0.0
  0
LINE
  5
BD68
330
AF53
100
AcDbEntity
  8
寸法引出
 48
20.0
370
    -2
100
AcDbLine
 10
2783.089733091256
 20
2683.445101169249
 30
0.0
 11
2783.089733091256
 21
1878.445101169249
 31
0.0
  0
SOLID
  5
BD69
330
AF53
100
AcDbEntity
  8
寸法引出
 48
20.0
100
AcDbTrace
 10
2778.089733091256
 20
2683.445101169249
 30
0.0
 11
2788.089733091256
 21
2683.445101169249
 31
0.0
 12
2783.089733091256
 22
2713.445101169249
 32
0.0
 13
2783.089733091256
 23
2713.445101169249
 33
0.0
  0
SOLID
  5
BD6A
330
AF53
100
AcDbEntity
  8
寸法引出
 48
20.0
100
AcDbTrace
 10
2778.089733091256
 20
1878.445101169249
 30
0.0
 11
2788.089733091256
 21
1878.445101169249
 31
0.0
 12
2783.089733091256
 22
1848.445101169249
 32
0.0
 13
2783.089733091256
 23
1848.445101169249
 33
0.0
  0
MTEXT
  5
BD6B
330
AF53
100
AcDbEntity
  8
寸法引出
 48
20.0
100
AcDbMText
 10
2743.089733091256
 20
2280.945101169249
 30
0.0
 40
40.0
 41
0.0
 71
     5
 72
     1
  1
\A1;865
  7
SANWA
 11
0.0000000000000001
 21
1.0
 31
0.0
 73
     1
 44
1.0
1001
ACAD
1000
MTEXTBEGIN
1070
    73
1070
     1
1070
    44
1040
1.0
1070
    74
1070
     0
1000
MTEXTEND
  0
POINT
  5
BD6C
330
AF53
100
AcDbEntity
  8
DEFPOINTS
 62
     0
 48
20.0
100
AcDbPoint
 10
2911.985379641716
 20
2713.445101169249
 30
0.0
  0
POINT
  5
BD6D
330
AF53
100
AcDbEntity
  8
DEFPOINTS
 62
     0
 48
20.0
100
AcDbPoint
 10
2911.985379641716
 20
1848.445101169249
 30
0.0
  0
POINT
  5
BD6E
330
AF53
100
AcDbEntity
  8
DEFPOINTS
 62
     0
 48
20.0
100
AcDbPoint
 10
2783.089733091256
 20
1848.445101169249
 30
0.0
  0
ENDBLK
  5
AF55
330
AF53
100
AcDbEntity
  8
0
 48
20.0
100
AcDbBlockEnd
  0
BLOCK
  5
AF61
330
AF60
100
AcDbEntity
  8
0
 48
20.0
100
AcDbBlockBegin
  2
*D15
 70
     1
 10
0.0
 20
0.0
 30
0.0
  3
*D15
  1

  0
LINE
  5
BD6F
330
AF60
100
AcDbEntity
  8
寸法引出
 48
20.0
370
    -2
100
AcDbLine
 10
2911.985379641716
 20
2733.445101169249
 30
0.0
 11
2911.985379641716
 21
2850.029704655177
 31
0.0
  0
LINE
  5
BD70
330
AF60
100
AcDbEntity
  8
寸法引出
 48
20.0
370
    -2
100
AcDbLine
 10
4909.985379641716
 20
2733.445101169249
 30
0.0
 11
4909.985379641716
 21
2850.029704655177
 31
0.0
  0
LINE
  5
BD71
330
AF60
100
AcDbEntity
  8
寸法引出
 48
20.0
370
    -2
100
AcDbLine
 10
2941.985379641716
 20
2840.029704655177
 30
0.0
 11
4879.985379641715
 21
2840.029704655177
 31
0.0
  0
SOLID
  5
BD72
330
AF60
100
AcDbEntity
  8
寸法引出
 48
20.0
100
AcDbTrace
 10
2941.985379641716
 20
2845.029704655177
 30
0.0
 11
2941.985379641716
 21
2835.029704655177
 31
0.0
 12
2911.985379641716
 22
2840.029704655177
 32
0.0
 13
2911.985379641716
 23
2840.029704655177
 33
0.0
  0
SOLID
  5
BD73
330
AF60
100
AcDbEntity
  8
寸法引出
 48
20.0
100
AcDbTrace
 10
4879.985379641715
 20
2845.029704655177
 30
0.0
 11
4879.985379641715
 21
2835.029704655177
 31
0.0
 12
4909.985379641716
 22
2840.029704655177
 32
0.0
 13
4909.985379641716
 23
2840.029704655177
 33
0.0
  0
MTEXT
  5
BD74
330
AF60
100
AcDbEntity
  8
寸法引出
 48
20.0
100
AcDbMText
 10
3910.985379641715
 20
2880.029704655177
 30
0.0
 40
40.0
 41
0.0
 71
     5
 72
     1
  1
\A1;1998
  7
SANWA
 73
     1
 44
1.0
1001
ACAD
1000
MTEXTBEGIN
1070
    73
1070
     1
1070
    44
1040
1.0
1070
    74
1070
     0
1000
MTEXTEND
  0
POINT
  5
BD75
330
AF60
100
AcDbEntity
  8
DEFPOINTS
 62
     0
 48
20.0
100
AcDbPoint
 10
2911.985379641716
 20
2713.445101169249
 30
0.0
  0
POINT
  5
BD76
330
AF60
100
AcDbEntity
  8
DEFPOINTS
 62
     0
 48
20.0
100
AcDbPoint
 10
4909.985379641716
 20
2713.445101169249
 30
0.0
  0
POINT
  5
BD77
330
AF60
100
AcDbEntity
  8
DEFPOINTS
 62
     0
 48
20.0
100
AcDbPoint
 10
4909.985379641716
 20
2840.029704655177
 30
0.0
  0
ENDBLK
  5
AF62
330
AF60
100
AcDbEntity
  8
0
 48
20.0
100
AcDbBlockEnd
  0
BLOCK
  5
AF8B
330
AF8A
100
AcDbEntity
  8
0
 48
20.0
100
AcDbBlockBegin
  2
*D16
 70
     1
 10
0.0
 20
0.0
 30
0.0
  3
*D16
  1

  0
LINE
  5
BD78
330
AF8A
100
AcDbEntity
  8
寸法引出
 48
20.0
370
    -2
100
AcDbLine
 10
3860.985379641716
 20
2255.44510116925
 30
0.0
 11
3860.985379641716
 21
2321.505618466488
 31
0.0
  0
LINE
  5
BD79
330
AF8A
100
AcDbEntity
  8
寸法引出
 48
20.0
370
    -2
100
AcDbLine
 10
3870.985379641715
 20
2245.445101169249
 30
0.0
 11
3870.985379641715
 21
2321.505618466488
 31
0.0
  0
LINE
  5
BD7A
330
AF8A
100
AcDbEntity
  8
寸法引出
 48
20.0
370
    -2
100
AcDbLine
 10
3830.985379641717
 20
2311.505618466489
 30
0.0
 11
3800.985379641717
 21
2311.505618466489
 31
0.0
  0
LINE
  5
BD7B
330
AF8A
100
AcDbEntity
  8
寸法引出
 48
20.0
370
    -2
100
AcDbLine
 10
3900.985379641715
 20
2311.505618466489
 30
0.0
 11
3930.985379641715
 21
2311.505618466489
 31
0.0
  0
MTEXT
  5
BD7C
330
AF8A
100
AcDbEntity
  8
寸法引出
 48
20.0
100
AcDbMText
 10
3826.216298135131
 20
2352.186886072463
 30
0.0
 40
40.0
 41
0.0
 71
     5
 72
     1
  1
\A1;10
  7
SANWA
 73
     1
 44
1.0
1001
ACAD
1000
MTEXTBEGIN
1070
    73
1070
     1
1070
    44
1040
1.0
1070
    74
1070
     0
1000
MTEXTEND
  0
LINE
  5
BD7D
330
AF8A
100
AcDbEntity
  8
寸法引出
 48
20.0
370
    -2
100
AcDbLine
 10
3860.985379641716
 20
2311.505618466489
 30
0.0
 11
3870.985379641715
 21
2311.505618466489
 31
0.0
  0
SOLID
  5
BD7E
330
AF8A
100
AcDbEntity
  8
寸法引出
 48
20.0
100
AcDbTrace
 10
3830.985379641717
 20
2316.505618466488
 30
0.0
 11
3830.985379641717
 21
2306.505618466488
 31
0.0
 12
3860.985379641716
 22
2311.505618466489
 32
0.0
 13
3860.985379641716
 23
2311.505618466489
 33
0.0
  0
SOLID
  5
BD7F
330
AF8A
100
AcDbEntity
  8
寸法引出
 48
20.0
100
AcDbTrace
 10
3900.985379641715
 20
2316.505618466488
 30
0.0
 11
3900.985379641715
 21
2306.505618466488
 31
0.0
 12
3870.985379641715
 22
2311.505618466489
 32
0.0
 13
3870.985379641715
 23
2311.505618466489
 33
0.0
  0
POINT
  5
BD80
330
AF8A
100
AcDbEntity
  8
DEFPOINTS
 62
     0
 48
20.0
100
AcDbPoint
 10
3860.985379641716
 20
2235.44510116925
 30
0.0
  0
POINT
  5
BD81
330
AF8A
100
AcDbEntity
  8
DEFPOINTS
 62
     0
 48
20.0
100
AcDbPoint
 10
3870.985379641715
 20
2225.445101169249
 30
0.0
  0
POINT
  5
BD82
330
AF8A
100
AcDbEntity
  8
DEFPOINTS
 62
     0
 48
20.0
100
AcDbPoint
 10
3870.985379641715
 20
2311.505618466489
 30
0.0
  0
ENDBLK
  5
AF8C
330
AF8A
100
AcDbEntity
  8
0
 48
20.0
100
AcDbBlockEnd
  0
BLOCK
  5
AF9A
330
AF99
100
AcDbEntity
  8
0
 48
20.0
100
AcDbBlockBegin
  2
*D17
 70
     1
 10
0.0
 20
0.0
 30
0.0
  3
*D17
  1

  0
LINE
  5
BD83
330
AF99
100
AcDbEntity
  8
寸法引出
 48
20.0
370
    -2
100
AcDbLine
 10
3870.985379641715
 20
2245.445101169249
 30
0.0
 11
3870.985379641715
 21
2321.505618466488
 31
0.0
  0
LINE
  5
BD84
330
AF99
100
AcDbEntity
  8
寸法引出
 48
20.0
370
    -2
100
AcDbLine
 10
3950.985379641715
 20
2245.445101169249
 30
0.0
 11
3950.985379641715
 21
2321.505618466488
 31
0.0
  0
LINE
  5
BD85
330
AF99
100
AcDbEntity
  8
寸法引出
 48
20.0
370
    -2
100
AcDbLine
 10
3840.985379641715
 20
2311.505618466489
 30
0.0
 11
3810.985379641715
 21
2311.505618466489
 31
0.0
  0
LINE
  5
BD86
330
AF99
100
AcDbEntity
  8
寸法引出
 48
20.0
370
    -2
100
AcDbLine
 10
3980.985379641714
 20
2311.505618466489
 30
0.0
 11
4010.985379641715
 21
2311.505618466489
 31
0.0
  0
LINE
  5
BD87
330
AF99
100
AcDbEntity
  8
寸法引出
 48
20.0
370
    -2
100
AcDbLine
 10
3870.985379641715
 20
2311.505618466489
 30
0.0
 11
3950.985379641715
 21
2311.505618466489
 31
0.0
  0
SOLID
  5
BD88
330
AF99
100
AcDbEntity
  8
寸法引出
 48
20.0
100
AcDbTrace
 10
3840.985379641715
 20
2316.505618466488
 30
0.0
 11
3840.985379641715
 21
2306.505618466488
 31
0.0
 12
3870.985379641715
 22
2311.505618466489
 32
0.0
 13
3870.985379641715
 23
2311.505618466489
 33
0.0
  0
SOLID
  5
BD89
330
AF99
100
AcDbEntity
  8
寸法引出
 48
20.0
100
AcDbTrace
 10
3980.985379641714
 20
2316.505618466488
 30
0.0
 11
3980.985379641714
 21
2306.505618466488
 31
0.0
 12
3950.985379641715
 22
2311.505618466489
 32
0.0
 13
3950.985379641715
 23
2311.505618466489
 33
0.0
  0
MTEXT
  5
BD8A
330
AF99
100
AcDbEntity
  8
寸法引出
 48
20.0
100
AcDbMText
 10
3910.985379641715
 20
2351.505618466488
 30
0.0
 40
40.0
 41
0.0
 71
     5
 72
     1
  1
\A1;80
  7
SANWA
 73
     1
 44
1.0
1001
ACAD
1000
MTEXTBEGIN
1070
    73
1070
     1
1070
    44
1040
1.0
1070
    74
1070
     0
1000
MTEXTEND
  0
POINT
  5
BD8B
330
AF99
100
AcDbEntity
  8
DEFPOINTS
 62
     0
 48
20.0
100
AcDbPoint
 10
3870.985379641715
 20
2225.445101169249
 30
0.0
  0
POINT
  5
BD8C
330
AF99
100
AcDbEntity
  8
DEFPOINTS
 62
     0
 48
20.0
100
AcDbPoint
 10
3950.985379641715
 20
2225.445101169249
 30
0.0
  0
POINT
  5
BD8D
330
AF99
100
AcDbEntity
  8
DEFPOINTS
 62
     0
 48
20.0
100
AcDbPoint
 10
3950.985379641715
 20
2311.505618466489
 30
0.0
  0
ENDBLK
  5
AF9B
330
AF99
100
AcDbEntity
  8
0
 48
20.0
100
AcDbBlockEnd
  0
BLOCK
  5
AFA9
330
AFA8
100
AcDbEntity
  8
0
 48
20.0
100
AcDbBlockBegin
  2
*D18
 70
     1
 10
0.0
 20
0.0
 30
0.0
  3
*D18
  1

  0
LINE
  5
BD8E
330
AFA8
100
AcDbEntity
  8
寸法引出
 48
20.0
370
    -2
100
AcDbLine
 10
3950.985379641715
 20
2245.445101169249
 30
0.0
 11
3950.985379641715
 21
2321.505618466488
 31
0.0
  0
LINE
  5
BD8F
330
AFA8
100
AcDbEntity
  8
寸法引出
 48
20.0
370
    -2
100
AcDbLine
 10
3960.985379641715
 20
2255.44510116925
 30
0.0
 11
3960.985379641715
 21
2321.505618466488
 31
0.0
  0
LINE
  5
BD90
330
AFA8
100
AcDbEntity
  8
寸法引出
 48
20.0
370
    -2
100
AcDbLine
 10
3920.985379641715
 20
2311.505618466489
 30
0.0
 11
3890.985379641715
 21
2311.505618466489
 31
0.0
  0
LINE
  5
BD91
330
AFA8
100
AcDbEntity
  8
寸法引出
 48
20.0
370
    -2
100
AcDbLine
 10
3990.985379641715
 20
2311.505618466489
 30
0.0
 11
4020.985379641714
 21
2311.505618466489
 31
0.0
  0
MTEXT
  5
BD92
330
AFA8
100
AcDbEntity
  8
寸法引出
 48
20.0
100
AcDbMText
 10
3997.078054052865
 20
2353.330511096685
 30
0.0
 40
40.0
 41
0.0
 71
     5
 72
     1
  1
\A1;10
  7
SANWA
 73
     1
 44
1.0
1001
ACAD
1000
MTEXTBEGIN
1070
    73
1070
     1
1070
    44
1040
1.0
1070
    74
1070
     0
1000
MTEXTEND
  0
LINE
  5
BD93
330
AFA8
100
AcDbEntity
  8
寸法引出
 48
20.0
370
    -2
100
AcDbLine
 10
3950.985379641715
 20
2311.505618466489
 30
0.0
 11
3960.985379641715
 21
2311.505618466489
 31
0.0
  0
SOLID
  5
BD94
330
AFA8
100
AcDbEntity
  8
寸法引出
 48
20.0
100
AcDbTrace
 10
3920.985379641715
 20
2316.505618466488
 30
0.0
 11
3920.985379641715
 21
2306.505618466488
 31
0.0
 12
3950.985379641715
 22
2311.505618466489
 32
0.0
 13
3950.985379641715
 23
2311.505618466489
 33
0.0
  0
SOLID
  5
BD95
330
AFA8
100
AcDbEntity
  8
寸法引出
 48
20.0
100
AcDbTrace
 10
3990.985379641715
 20
2316.505618466488
 30
0.0
 11
3990.985379641715
 21
2306.505618466488
 31
0.0
 12
3960.985379641715
 22
2311.505618466489
 32
0.0
 13
3960.985379641715
 23
2311.505618466489
 33
0.0
  0
POINT
  5
BD96
330
AFA8
100
AcDbEntity
  8
DEFPOINTS
 62
     0
 48
20.0
100
AcDbPoint
 10
3950.985379641715
 20
2225.445101169249
 30
0.0
  0
POINT
  5
BD97
330
AFA8
100
AcDbEntity
  8
DEFPOINTS
 62
     0
 48
20.0
100
AcDbPoint
 10
3960.985379641715
 20
2235.44510116925
 30
0.0
  0
POINT
  5
BD98
330
AFA8
100
AcDbEntity
  8
DEFPOINTS
 62
     0
 48
20.0
100
AcDbPoint
 10
3960.985379641715
 20
2311.505618466489
 30
0.0
  0
ENDBLK
  5
AFAA
330
AFA8
100
AcDbEntity
  8
0
 48
20.0
100
AcDbBlockEnd
  0
BLOCK
  5
B0CB
330
B0CA
100
AcDbEntity
  8
0
 48
20.0
100
AcDbBlockBegin
  2
*D19
 70
     1
 10
0.0
 20
0.0
 30
0.0
  3
*D19
  1

  0
LINE
  5
BD99
330
B0CA
100
AcDbEntity
  8
寸法引出
 48
20.0
370
    -2
100
AcDbLine
 10
1554.616634805499
 20
1943.445101169249
 30
0.0
 11
1554.616634805499
 21
2259.98252563996
 31
0.0
  0
LINE
  5
BD9A
330
B0CA
100
AcDbEntity
  8
寸法引出
 48
20.0
370
    -2
100
AcDbLine
 10
1629.6166348055
 20
1943.445101169249
 30
0.0
 11
1629.6166348055
 21
2259.98252563996
 31
0.0
  0
LINE
  5
BD9B
330
B0CA
100
AcDbEntity
  8
寸法引出
 48
20.0
370
    -2
100
AcDbLine
 10
1524.616634805499
 20
2249.98252563996
 30
0.0
 11
1494.616634805499
 21
2249.98252563996
 31
0.0
  0
LINE
  5
BD9C
330
B0CA
100
AcDbEntity
  8
寸法引出
 48
20.0
370
    -2
100
AcDbLine
 10
1659.6166348055
 20
2249.98252563996
 30
0.0
 11
1689.6166348055
 21
2249.98252563996
 31
0.0
  0
MTEXT
  5
BD9D
330
B0CA
100
AcDbEntity
  8
寸法引出
 48
20.0
100
AcDbMText
 10
1567.292759372554
 20
2290.861738644049
 30
0.0
 40
40.0
 41
0.0
 71
     5
 72
     1
  1
\A1;75
  7
SANWA
 73
     1
 44
1.0
1001
ACAD
1000
MTEXTBEGIN
1070
    73
1070
     1
1070
    44
1040
1.0
1070
    74
1070
     0
1000
MTEXTEND
  0
LINE
  5
BD9E
330
B0CA
100
AcDbEntity
  8
寸法引出
 48
20.0
370
    -2
100
AcDbLine
 10
1554.616634805499
 20
2249.98252563996
 30
0.0
 11
1629.6166348055
 21
2249.98252563996
 31
0.0
  0
SOLID
  5
BD9F
330
B0CA
100
AcDbEntity
  8
寸法引出
 48
20.0
100
AcDbTrace
 10
1524.616634805499
 20
2254.98252563996
 30
0.0
 11
1524.616634805499
 21
2244.98252563996
 31
0.0
 12
1554.616634805499
 22
2249.98252563996
 32
0.0
 13
1554.616634805499
 23
2249.98252563996
 33
0.0
  0
SOLID
  5
BDA0
330
B0CA
100
AcDbEntity
  8
寸法引出
 48
20.0
100
AcDbTrace
 10
1659.6166348055
 20
2254.98252563996
 30
0.0
 11
1659.6166348055
 21
2244.98252563996
 31
0.0
 12
1629.6166348055
 22
2249.98252563996
 32
0.0
 13
1629.6166348055
 23
2249.98252563996
 33
0.0
  0
POINT
  5
BDA1
330
B0CA
100
AcDbEntity
  8
DEFPOINTS
 62
     0
 48
20.0
100
AcDbPoint
 10
1554.616634805499
 20
1923.445101169249
 30
0.0
  0
POINT
  5
BDA2
330
B0CA
100
AcDbEntity
  8
DEFPOINTS
 62
     0
 48
20.0
100
AcDbPoint
 10
1629.6166348055
 20
1923.445101169249
 30
0.0
  0
POINT
  5
BDA3
330
B0CA
100
AcDbEntity
  8
DEFPOINTS
 62
     0
 48
20.0
100
AcDbPoint
 10
1629.6166348055
 20
2249.98252563996
 30
0.0
  0
ENDBLK
  5
B0CC
330
B0CA
100
AcDbEntity
  8
0
 48
20.0
100
AcDbBlockEnd
  0
BLOCK
  5
B0DA
330
B0D9
100
AcDbEntity
  8
0
 48
20.0
100
AcDbBlockBegin
  2
*D20
 70
     1
 10
0.0
 20
0.0
 30
0.0
  3
*D20
  1

  0
LINE
  5
BDA4
330
B0D9
100
AcDbEntity
  8
寸法引出
 48
20.0
370
    -2
100
AcDbLine
 10
1629.6166348055
 20
1943.445101169249
 30
0.0
 11
1629.6166348055
 21
2259.98252563996
 31
0.0
  0
LINE
  5
BDA5
330
B0D9
100
AcDbEntity
  8
寸法引出
 48
20.0
370
    -2
100
AcDbLine
 10
1973.616634805496
 20
1943.445101169249
 30
0.0
 11
1973.616634805496
 21
2259.98252563996
 31
0.0
  0
LINE
  5
BDA6
330
B0D9
100
AcDbEntity
  8
寸法引出
 48
20.0
370
    -2
100
AcDbLine
 10
1659.6166348055
 20
2249.98252563996
 30
0.0
 11
1943.616634805495
 21
2249.98252563996
 31
0.0
  0
SOLID
  5
BDA7
330
B0D9
100
AcDbEntity
  8
寸法引出
 48
20.0
100
AcDbTrace
 10
1659.6166348055
 20
2254.98252563996
 30
0.0
 11
1659.6166348055
 21
2244.98252563996
 31
0.0
 12
1629.6166348055
 22
2249.98252563996
 32
0.0
 13
1629.6166348055
 23
2249.98252563996
 33
0.0
  0
SOLID
  5
BDA8
330
B0D9
100
AcDbEntity
  8
寸法引出
 48
20.0
100
AcDbTrace
 10
1943.616634805495
 20
2254.98252563996
 30
0.0
 11
1943.616634805495
 21
2244.98252563996
 31
0.0
 12
1973.616634805496
 22
2249.98252563996
 32
0.0
 13
1973.616634805496
 23
2249.98252563996
 33
0.0
  0
MTEXT
  5
BDA9
330
B0D9
100
AcDbEntity
  8
寸法引出
 48
20.0
100
AcDbMText
 10
1801.616634805498
 20
2289.98252563996
 30
0.0
 40
40.0
 41
0.0
 71
     5
 72
     1
  1
\A1;344
  7
SANWA
 73
     1
 44
1.0
1001
ACAD
1000
MTEXTBEGIN
1070
    73
1070
     1
1070
    44
1040
1.0
1070
    74
1070
     0
1000
MTEXTEND
  0
POINT
  5
BDAA
330
B0D9
100
AcDbEntity
  8
DEFPOINTS
 62
     0
 48
20.0
100
AcDbPoint
 10
1629.6166348055
 20
1923.445101169249
 30
0.0
  0
POINT
  5
BDAB
330
B0D9
100
AcDbEntity
  8
DEFPOINTS
 62
     0
 48
20.0
100
AcDbPoint
 10
1973.616634805496
 20
1923.445101169249
 30
0.0
  0
POINT
  5
BDAC
330
B0D9
100
AcDbEntity
  8
DEFPOINTS
 62
     0
 48
20.0
100
AcDbPoint
 10
1973.616634805496
 20
2249.98252563996
 30
0.0
  0
ENDBLK
  5
B0DB
330
B0D9
100
AcDbEntity
  8
0
 48
20.0
100
AcDbBlockEnd
  0
BLOCK
  5
B171
330
B170
100
AcDbEntity
  8
0
 48
20.0
100
AcDbBlockBegin
  2
*D21
 70
     1
 10
0.0
 20
0.0
 30
0.0
  3
*D21
  1

  0
LINE
  5
BDAD
330
B170
100
AcDbEntity
  8
寸法引出
 48
20.0
370
    -2
100
AcDbLine
 10
1516.116634805498
 20
2713.445101169249
 30
0.0
 11
1413.447313636254
 21
2713.445101169249
 31
0.0
  0
LINE
  5
BDAE
330
B170
100
AcDbEntity
  8
寸法引出
 48
20.0
370
    -2
100
AcDbLine
 10
1511.616634805498
 20
2623.44510116925
 30
0.0
 11
1413.447313636254
 21
2623.44510116925
 31
0.0
  0
LINE
  5
BDAF
330
B170
100
AcDbEntity
  8
寸法引出
 48
20.0
370
    -2
100
AcDbLine
 10
1423.447313636254
 20
2743.445101169249
 30
0.0
 11
1423.447313636254
 21
2773.44510116925
 31
0.0
  0
LINE
  5
BDB0
330
B170
100
AcDbEntity
  8
寸法引出
 48
20.0
370
    -2
100
AcDbLine
 10
1423.447313636254
 20
2593.44510116925
 30
0.0
 11
1423.447313636254
 21
2563.44510116925
 31
0.0
  0
LINE
  5
BDB1
330
B170
100
AcDbEntity
  8
寸法引出
 48
20.0
370
    -2
100
AcDbLine
 10
1423.447313636254
 20
2713.445101169249
 30
0.0
 11
1423.447313636254
 21
2623.44510116925
 31
0.0
  0
SOLID
  5
BDB2
330
B170
100
AcDbEntity
  8
寸法引出
 48
20.0
100
AcDbTrace
 10
1418.447313636254
 20
2743.445101169249
 30
0.0
 11
1428.447313636254
 21
2743.445101169249
 31
0.0
 12
1423.447313636254
 22
2713.445101169249
 32
0.0
 13
1423.447313636254
 23
2713.445101169249
 33
0.0
  0
SOLID
  5
BDB3
330
B170
100
AcDbEntity
  8
寸法引出
 48
20.0
100
AcDbTrace
 10
1418.447313636254
 20
2593.44510116925
 30
0.0
 11
1428.447313636254
 21
2593.44510116925
 31
0.0
 12
1423.447313636254
 22
2623.44510116925
 32
0.0
 13
1423.447313636254
 23
2623.44510116925
 33
0.0
  0
MTEXT
  5
BDB4
330
B170
100
AcDbEntity
  8
寸法引出
 48
20.0
100
AcDbMText
 10
1383.447313636253
 20
2668.44510116925
 30
0.0
 40
40.0
 41
0.0
 71
     5
 72
     1
  1
\A1;90
  7
SANWA
 11
0.0000000000000001
 21
1.0
 31
0.0
 73
     1
 44
1.0
1001
ACAD
1000
MTEXTBEGIN
1070
    73
1070
     1
1070
    44
1040
1.0
1070
    74
1070
     0
1000
MTEXTEND
  0
POINT
  5
BDB5
330
B170
100
AcDbEntity
  8
DEFPOINTS
 62
     0
 48
20.0
100
AcDbPoint
 10
1536.116634805497
 20
2713.445101169249
 30
0.0
  0
POINT
  5
BDB6
330
B170
100
AcDbEntity
  8
DEFPOINTS
 62
     0
 48
20.0
100
AcDbPoint
 10
1531.616634805497
 20
2623.44510116925
 30
0.0
  0
POINT
  5
BDB7
330
B170
100
AcDbEntity
  8
DEFPOINTS
 62
     0
 48
20.0
100
AcDbPoint
 10
1423.447313636254
 20
2623.44510116925
 30
0.0
  0
ENDBLK
  5
B172
330
B170
100
AcDbEntity
  8
0
 48
20.0
100
AcDbBlockEnd
  0
BLOCK
  5
B180
330
B17F
100
AcDbEntity
  8
0
 48
20.0
100
AcDbBlockBegin
  2
*D22
 70
     1
 10
0.0
 20
0.0
 30
0.0
  3
*D22
  1

  0
LINE
  5
BDB8
330
B17F
100
AcDbEntity
  8
寸法引出
 48
20.0
370
    -2
100
AcDbLine
 10
1511.616634805498
 20
2623.44510116925
 30
0.0
 11
1413.447313636254
 21
2623.44510116925
 31
0.0
  0
LINE
  5
BDB9
330
B17F
100
AcDbEntity
  8
寸法引出
 48
20.0
370
    -2
100
AcDbLine
 10
1534.6166348055
 20
1923.445101169249
 30
0.0
 11
1413.447313636254
 21
1923.445101169249
 31
0.0
  0
LINE
  5
BDBA
330
B17F
100
AcDbEntity
  8
寸法引出
 48
20.0
370
    -2
100
AcDbLine
 10
1423.447313636254
 20
2593.44510116925
 30
0.0
 11
1423.447313636254
 21
1953.44510116925
 31
0.0
  0
SOLID
  5
BDBB
330
B17F
100
AcDbEntity
  8
寸法引出
 48
20.0
100
AcDbTrace
 10
1418.447313636254
 20
2593.44510116925
 30
0.0
 11
1428.447313636254
 21
2593.44510116925
 31
0.0
 12
1423.447313636254
 22
2623.44510116925
 32
0.0
 13
1423.447313636254
 23
2623.44510116925
 33
0.0
  0
SOLID
  5
BDBC
330
B17F
100
AcDbEntity
  8
寸法引出
 48
20.0
100
AcDbTrace
 10
1418.447313636254
 20
1953.44510116925
 30
0.0
 11
1428.447313636254
 21
1953.44510116925
 31
0.0
 12
1423.447313636254
 22
1923.445101169249
 32
0.0
 13
1423.447313636254
 23
1923.445101169249
 33
0.0
  0
MTEXT
  5
BDBD
330
B17F
100
AcDbEntity
  8
寸法引出
 48
20.0
100
AcDbMText
 10
1383.447313636254
 20
2273.44510116925
 30
0.0
 40
40.0
 41
0.0
 71
     5
 72
     1
  1
\A1;700
  7
SANWA
 11
0.0000000000000001
 21
1.0
 31
0.0
 73
     1
 44
1.0
1001
ACAD
1000
MTEXTBEGIN
1070
    73
1070
     1
1070
    44
1040
1.0
1070
    74
1070
     0
1000
MTEXTEND
  0
POINT
  5
BDBE
330
B17F
100
AcDbEntity
  8
DEFPOINTS
 62
     0
 48
20.0
100
AcDbPoint
 10
1531.616634805497
 20
2623.44510116925
 30
0.0
  0
POINT
  5
BDBF
330
B17F
100
AcDbEntity
  8
DEFPOINTS
 62
     0
 48
20.0
100
AcDbPoint
 10
1554.6166348055
 20
1923.445101169249
 30
0.0
  0
POINT
  5
BDC0
330
B17F
100
AcDbEntity
  8
DEFPOINTS
 62
     0
 48
20.0
100
AcDbPoint
 10
1423.447313636254
 20
1923.445101169249
 30
0.0
  0
ENDBLK
  5
B181
330
B17F
100
AcDbEntity
  8
0
 48
20.0
100
AcDbBlockEnd
  0
BLOCK
  5
B18D
330
B18C
100
AcDbEntity
  8
0
 48
20.0
100
AcDbBlockBegin
  2
*D23
 70
     1
 10
0.0
 20
0.0
 30
0.0
  3
*D23
  1

  0
LINE
  5
BDC1
330
B18C
100
AcDbEntity
  8
寸法引出
 48
20.0
370
    -2
100
AcDbLine
 10
1534.6166348055
 20
1923.445101169249
 30
0.0
 11
1413.447313636254
 21
1923.445101169249
 31
0.0
  0
LINE
  5
BDC2
330
B18C
100
AcDbEntity
  8
寸法引出
 48
20.0
370
    -2
100
AcDbLine
 10
1557.080920519785
 20
1848.44510116925
 30
0.0
 11
1413.447313636254
 21
1848.44510116925
 31
0.0
  0
LINE
  5
BDC3
330
B18C
100
AcDbEntity
  8
寸法引出
 48
20.0
370
    -2
100
AcDbLine
 10
1423.447313636254
 20
1953.44510116925
 30
0.0
 11
1423.447313636254
 21
1983.44510116925
 31
0.0
  0
LINE
  5
BDC4
330
B18C
100
AcDbEntity
  8
寸法引出
 48
20.0
370
    -2
100
AcDbLine
 10
1423.447313636254
 20
1818.44510116925
 30
0.0
 11
1423.447313636254
 21
1788.44510116925
 31
0.0
  0
LINE
  5
BDC5
330
B18C
100
AcDbEntity
  8
寸法引出
 48
20.0
370
    -2
100
AcDbLine
 10
1423.447313636254
 20
1923.445101169249
 30
0.0
 11
1423.447313636254
 21
1848.44510116925
 31
0.0
  0
SOLID
  5
BDC6
330
B18C
100
AcDbEntity
  8
寸法引出
 48
20.0
100
AcDbTrace
 10
1418.447313636254
 20
1953.44510116925
 30
0.0
 11
1428.447313636254
 21
1953.44510116925
 31
0.0
 12
1423.447313636254
 22
1923.445101169249
 32
0.0
 13
1423.447313636254
 23
1923.445101169249
 33
0.0
  0
SOLID
  5
BDC7
330
B18C
100
AcDbEntity
  8
寸法引出
 48
20.0
100
AcDbTrace
 10
1418.447313636254
 20
1818.44510116925
 30
0.0
 11
1428.447313636254
 21
1818.44510116925
 31
0.0
 12
1423.447313636254
 22
1848.44510116925
 32
0.0
 13
1423.447313636254
 23
1848.44510116925
 33
0.0
  0
MTEXT
  5
BDC8
330
B18C
100
AcDbEntity
  8
寸法引出
 48
20.0
100
AcDbMText
 10
1383.447313636254
 20
1885.94510116925
 30
0.0
 40
40.0
 41
0.0
 71
     5
 72
     1
  1
\A1;75
  7
SANWA
 11
0.0000000000000001
 21
1.0
 31
0.0
 73
     1
 44
1.0
1001
ACAD
1000
MTEXTBEGIN
1070
    73
1070
     1
1070
    44
1040
1.0
1070
    74
1070
     0
1000
MTEXTEND
  0
POINT
  5
BDC9
330
B18C
100
AcDbEntity
  8
DEFPOINTS
 62
     0
 48
20.0
100
AcDbPoint
 10
1554.6166348055
 20
1923.445101169249
 30
0.0
  0
POINT
  5
BDCA
330
B18C
100
AcDbEntity
  8
DEFPOINTS
 62
     0
 48
20.0
100
AcDbPoint
 10
1577.080920519786
 20
1848.44510116925
 30
0.0
  0
POINT
  5
BDCB
330
B18C
100
AcDbEntity
  8
DEFPOINTS
 62
     0
 48
20.0
100
AcDbPoint
 10
1423.447313636254
 20
1848.44510116925
 30
0.0
  0
ENDBLK
  5
B18E
330
B18C
100
AcDbEntity
  8
0
 48
20.0
100
AcDbBlockEnd
  0
BLOCK
  5
B19C
330
B19B
100
AcDbEntity
  8
0
 48
20.0
100
AcDbBlockBegin
  2
*D24
 70
     1
 10
0.0
 20
0.0
 30
0.0
  3
*D24
  1

  0
LINE
  5
BDCC
330
B19B
100
AcDbEntity
  8
寸法引出
 48
20.0
370
    -2
100
AcDbLine
 10
1516.116634805498
 20
2713.445101169249
 30
0.0
 11
1322.15649433712
 21
2713.445101169249
 31
0.0
  0
LINE
  5
BDCD
330
B19B
100
AcDbEntity
  8
寸法引出
 48
20.0
370
    -2
100
AcDbLine
 10
1557.080920519785
 20
1848.44510116925
 30
0.0
 11
1322.156494337119
 21
1848.44510116925
 31
0.0
  0
LINE
  5
BDCE
330
B19B
100
AcDbEntity
  8
寸法引出
 48
20.0
370
    -2
100
AcDbLine
 10
1332.15649433712
 20
2683.445101169249
 30
0.0
 11
1332.156494337119
 21
1878.44510116925
 31
0.0
  0
SOLID
  5
BDCF
330
B19B
100
AcDbEntity
  8
寸法引出
 48
20.0
100
AcDbTrace
 10
1327.15649433712
 20
2683.445101169249
 30
0.0
 11
1337.15649433712
 21
2683.445101169249
 31
0.0
 12
1332.15649433712
 22
2713.445101169249
 32
0.0
 13
1332.15649433712
 23
2713.445101169249
 33
0.0
  0
SOLID
  5
BDD0
330
B19B
100
AcDbEntity
  8
寸法引出
 48
20.0
100
AcDbTrace
 10
1327.156494337119
 20
1878.44510116925
 30
0.0
 11
1337.156494337119
 21
1878.44510116925
 31
0.0
 12
1332.156494337119
 22
1848.44510116925
 32
0.0
 13
1332.156494337119
 23
1848.44510116925
 33
0.0
  0
MTEXT
  5
BDD1
330
B19B
100
AcDbEntity
  8
寸法引出
 48
20.0
100
AcDbMText
 10
1292.156494337119
 20
2280.94510116925
 30
0.0
 40
40.0
 41
0.0
 71
     5
 72
     1
  1
\A1;865
  7
SANWA
 11
0.0000000000000001
 21
1.0
 31
0.0
 73
     1
 44
1.0
1001
ACAD
1000
MTEXTBEGIN
1070
    73
1070
     1
1070
    44
1040
1.0
1070
    74
1070
     0
1000
MTEXTEND
  0
POINT
  5
BDD2
330
B19B
100
AcDbEntity
  8
DEFPOINTS
 62
     0
 48
20.0
100
AcDbPoint
 10
1536.116634805497
 20
2713.445101169249
 30
0.0
  0
POINT
  5
BDD3
330
B19B
100
AcDbEntity
  8
DEFPOINTS
 62
     0
 48
20.0
100
AcDbPoint
 10
1577.080920519786
 20
1848.44510116925
 30
0.0
  0
POINT
  5
BDD4
330
B19B
100
AcDbEntity
  8
DEFPOINTS
 62
     0
 48
20.0
100
AcDbPoint
 10
1332.156494337119
 20
1848.44510116925
 30
0.0
  0
ENDBLK
  5
B19D
330
B19B
100
AcDbEntity
  8
0
 48
20.0
100
AcDbBlockEnd
  0
BLOCK
  5
BB80
330
BB7F
100
AcDbEntity
  8
0
 48
20.0
100
AcDbBlockBegin
  2
*D29
 70
     1
 10
0.0
 20
0.0
 30
0.0
  3
*D29
  1

  0
LINE
  5
BDD5
330
BB7F
100
AcDbEntity
  8
寸法引出
 48
20.0
370
    -2
100
AcDbLine
 10
4929.985379641715
 20
1848.445101169249
 30
0.0
 11
5058.570132666674
 21
1848.445101169249
 31
0.0
  0
LINE
  5
BDD6
330
BB7F
100
AcDbEntity
  8
寸法引出
 48
20.0
370
    -2
100
AcDbLine
 10
4929.985379641715
 20
2185.445101169249
 30
0.0
 11
5058.570132666675
 21
2185.445101169249
 31
0.0
  0
LINE
  5
BDD7
330
BB7F
100
AcDbEntity
  8
寸法引出
 48
20.0
370
    -2
100
AcDbLine
 10
5048.570132666674
 20
1878.445101169249
 30
0.0
 11
5048.570132666675
 21
2155.445101169249
 31
0.0
  0
SOLID
  5
BDD8
330
BB7F
100
AcDbEntity
  8
寸法引出
 48
20.0
100
AcDbTrace
 10
5043.570132666673
 20
1878.445101169249
 30
0.0
 11
5053.570132666674
 21
1878.445101169249
 31
0.0
 12
5048.570132666674
 22
1848.445101169249
 32
0.0
 13
5048.570132666674
 23
1848.445101169249
 33
0.0
  0
SOLID
  5
BDD9
330
BB7F
100
AcDbEntity
  8
寸法引出
 48
20.0
100
AcDbTrace
 10
5043.570132666675
 20
2155.445101169249
 30
0.0
 11
5053.570132666675
 21
2155.445101169249
 31
0.0
 12
5048.570132666675
 22
2185.445101169249
 32
0.0
 13
5048.570132666675
 23
2185.445101169249
 33
0.0
  0
MTEXT
  5
BDDA
330
BB7F
100
AcDbEntity
  8
寸法引出
 48
20.0
100
AcDbMText
 10
5008.570132666674
 20
2016.94510116925
 30
0.0
 40
40.0
 41
0.0
 71
     5
 72
     1
  1
\A1;337
  7
SANWA
 11
0.0000000000000001
 21
1.0
 31
0.0
 73
     1
 44
1.0
1001
ACAD
1000
MTEXTBEGIN
1070
    73
1070
     1
1070
    44
1040
1.0
1070
    74
1070
     0
1000
MTEXTEND
  0
POINT
  5
BDDB
330
BB7F
100
AcDbEntity
  8
DEFPOINTS
 62
     0
 48
20.0
100
AcDbPoint
 10
4909.985379641716
 20
1848.445101169249
 30
0.0
  0
POINT
  5
BDDC
330
BB7F
100
AcDbEntity
  8
DEFPOINTS
 62
     0
 48
20.0
100
AcDbPoint
 10
4909.985379641716
 20
2185.445101169249
 30
0.0
  0
POINT
  5
BDDD
330
BB7F
100
AcDbEntity
  8
DEFPOINTS
 62
     0
 48
20.0
100
AcDbPoint
 10
5048.570132666675
 20
2185.445101169249
 30
0.0
  0
ENDBLK
  5
BB81
330
BB7F
100
AcDbEntity
  8
0
 48
20.0
100
AcDbBlockEnd
  0
BLOCK
  5
BB8D
330
BB8C
100
AcDbEntity
  8
0
 48
20.0
100
AcDbBlockBegin
  2
*D30
 70
     1
 10
0.0
 20
0.0
 30
0.0
  3
*D30
  1

  0
LINE
  5
BDDE
330
BB8C
100
AcDbEntity
  8
寸法引出
 48
20.0
370
    -2
100
AcDbLine
 10
4929.985379641715
 20
2185.445101169249
 30
0.0
 11
5058.570132666675
 21
2185.445101169249
 31
0.0
  0
LINE
  5
BDDF
330
BB8C
100
AcDbEntity
  8
寸法引出
 48
20.0
370
    -2
100
AcDbLine
 10
4929.985379641715
 20
2713.445101169249
 30
0.0
 11
5058.570132666675
 21
2713.445101169249
 31
0.0
  0
LINE
  5
BDE0
330
BB8C
100
AcDbEntity
  8
寸法引出
 48
20.0
370
    -2
100
AcDbLine
 10
5048.570132666675
 20
2215.445101169249
 30
0.0
 11
5048.570132666675
 21
2683.445101169249
 31
0.0
  0
SOLID
  5
BDE1
330
BB8C
100
AcDbEntity
  8
寸法引出
 48
20.0
100
AcDbTrace
 10
5043.570132666675
 20
2215.445101169249
 30
0.0
 11
5053.570132666675
 21
2215.445101169249
 31
0.0
 12
5048.570132666675
 22
2185.445101169249
 32
0.0
 13
5048.570132666675
 23
2185.445101169249
 33
0.0
  0
SOLID
  5
BDE2
330
BB8C
100
AcDbEntity
  8
寸法引出
 48
20.0
100
AcDbTrace
 10
5043.570132666675
 20
2683.445101169249
 30
0.0
 11
5053.570132666675
 21
2683.445101169249
 31
0.0
 12
5048.570132666675
 22
2713.445101169249
 32
0.0
 13
5048.570132666675
 23
2713.445101169249
 33
0.0
  0
MTEXT
  5
BDE3
330
BB8C
100
AcDbEntity
  8
寸法引出
 48
20.0
100
AcDbMText
 10
5008.570132666674
 20
2449.44510116925
 30
0.0
 40
40.0
 41
0.0
 71
     5
 72
     1
  1
\A1;528
  7
SANWA
 11
0.0000000000000001
 21
1.0
 31
0.0
 73
     1
 44
1.0
1001
ACAD
1000
MTEXTBEGIN
1070
    73
1070
     1
1070
    44
1040
1.0
1070
    74
1070
     0
1000
MTEXTEND
  0
POINT
  5
BDE4
330
BB8C
100
AcDbEntity
  8
DEFPOINTS
 62
     0
 48
20.0
100
AcDbPoint
 10
4909.985379641716
 20
2185.445101169249
 30
0.0
  0
POINT
  5
BDE5
330
BB8C
100
AcDbEntity
  8
DEFPOINTS
 62
     0
 48
20.0
100
AcDbPoint
 10
4909.985379641716
 20
2713.445101169249
 30
0.0
  0
POINT
  5
BDE6
330
BB8C
100
AcDbEntity
  8
DEFPOINTS
 62
     0
 48
20.0
100
AcDbPoint
 10
5048.570132666675
 20
2713.445101169249
 30
0.0
  0
ENDBLK
  5
BB8E
330
BB8C
100
AcDbEntity
  8
0
 48
20.0
100
AcDbBlockEnd
  0
ENDSEC
  0
SECTION
  2
ENTITIES
  0
LINE
  5
91F4
330
747D
100
AcDbEntity
  8
0
 48
20.0
100
AcDbLine
 10
2702.310464769715
 20
663.1976592723026
 30
0.0
 11
2702.310464769715
 21
623.1976592723026
 31
0.0
  0
LINE
  5
91F7
330
747D
100
AcDbEntity
  8
0
 48
20.0
100
AcDbLine
 10
2668.977131436381
 20
523.1976592723026
 30
0.0
 11
2702.310464769715
 21
623.1976592723026
 31
0.0
  0
LINE
  5
91FA
330
747D
100
AcDbEntity
  8
0
 48
20.0
100
AcDbLine
 10
2735.643798103049
 20
496.530992605636
 30
0.0
 11
2668.977131436381
 21
523.1976592723026
 31
0.0
  0
LINE
  5
91FB
330
747D
100
AcDbEntity
  8
0
 48
20.0
100
AcDbLine
 10
2702.310464769715
 20
663.1976592723026
 30
0.0
 11
2568.977131436381
 21
663.1976592723026
 31
0.0
  0
LINE
  5
91FC
330
747D
100
AcDbEntity
  8
0
 48
20.0
100
AcDbLine
 10
2768.977131436381
 20
663.1976592723026
 30
0.0
 11
2902.310464769715
 21
663.1976592723026
 31
0.0
  0
LINE
  5
91FD
330
747D
100
AcDbEntity
  8
0
 48
20.0
100
AcDbLine
 10
2735.643798103049
 20
496.530992605636
 30
0.0
 11
2802.310464769714
 21
523.1976592723026
 31
0.0
  0
LINE
  5
91FE
330
747D
100
AcDbEntity
  8
0
 48
20.0
100
AcDbLine
 10
2802.310464769714
 20
523.1976592723026
 30
0.0
 11
2768.977131436381
 21
623.1976592723026
 31
0.0
  0
LINE
  5
91FF
330
747D
100
AcDbEntity
  8
0
 48
20.0
100
AcDbLine
 10
2768.977131436381
 20
663.1976592723026
 30
0.0
 11
2768.977131436381
 21
623.1976592723026
 31
0.0
  0
LINE
  5
9200
330
747D
100
AcDbEntity
  8
0
100
AcDbLine
 10
2515.99913649996
 20
854.0506141597145
 30
0.0
 11
2946.526985045393
 21
854.0506141597145
 31
0.0
  0
TEXT
  5
9201
330
747D
100
AcDbEntity
  8
0
100
AcDbText
 10
2513.600613809269
 20
869.8389481391236
 30
0.0
 40
47.99999999999996
  1
目地部詳細図
  7
SANWA
 72
     4
 11
2724.252042380697
 21
894.6618052819808
 31
0.0
100
AcDbText
  0
DIMENSION
  5
9202
330
747D
100
AcDbEntity
  8
寸法引出
 48
20.0
100
AcDbDimension
  2
*D1
 10
2702.310464769715
 20
749.1390388788929
 30
0.0
 11
2718.977131436382
 21
779.1390388788929
 31
0.0
 70
    32
  1
5
 71
     5
 42
33.33333333333394
  3
SANWA
100
AcDbAlignedDimension
 13
2735.643798103049
 23
496.530992605636
 33
0.0
 14
2702.310464769715
 24
663.1976592723026
 34
0.0
100
AcDbRotatedDimension
1001
ACAD
1000
DSTYLE
1002
{
1070
    40
1040
15.0
1070
    41
1040
1.5
1070
    43
1040
5.0
1070
    44
1040
0.5
1070
   140
1040
2.0
1070
   147
1040
1.0
1070
   176
1070
   256
1070
   177
1070
   256
1070
   178
1070
   256
1070
   279
1070
     2
1002
}
  0
DIMENSION
  5
9241
330
747D
100
AcDbEntity
  8
寸法引出
 48
20.0
100
AcDbDimension
  2
*D2
 10
2514.993486772986
 20
623.1976592723026
 30
0.0
 11
2470.894663326279
 21
688.1893982066344
 31
0.0
 70
   160
  1
6
 71
     5
 42
40.0
  3
SANWA
100
AcDbAlignedDimension
 13
2568.977131436381
 23
663.1976592723026
 33
0.0
 14
2702.310464769715
 24
623.1976592723026
 34
0.0
 50
90.0
100
AcDbRotatedDimension
1001
ACAD
1000
DSTYLE
1002
{
1070
    40
1040
15.0
1070
    41
1040
1.5
1070
    43
1040
5.0
1070
    44
1040
0.5
1070
   140
1040
2.0
1070
   147
1040
1.0
1070
   176
1070
   256
1070
   177
1070
   256
1070
   178
1070
   256
1070
   279
1070
     2
1002
}
  0
DIMENSION
  5
9250
330
747D
100
AcDbEntity
  8
寸法引出
 48
20.0
100
AcDbDimension
  2
*D3
 10
2514.993486772986
 20
523.1976592723026
 30
0.0
 11
2484.993486772987
 21
573.1976592723031
 31
0.0
 70
    32
  1
15
 71
     5
 42
100.0
  3
SANWA
100
AcDbAlignedDimension
 13
2702.310464769715
 23
623.1976592723026
 33
0.0
 14
2668.977131436381
 24
523.1976592723026
 34
0.0
 50
90.0
100
AcDbRotatedDimension
1001
ACAD
1000
DSTYLE
1002
{
1070
    40
1040
15.0
1070
    41
1040
1.5
1070
    43
1040
5.0
1070
    44
1040
0.5
1070
   140
1040
2.0
1070
   147
1040
1.0
1070
   176
1070
   256
1070
   177
1070
   256
1070
   178
1070
   256
1070
   279
1070
     2
1002
}
  0
DIMENSION
  5
925F
330
747D
100
AcDbEntity
  8
寸法引出
 48
20.0
100
AcDbDimension
  2
*D4
 10
2514.993486772986
 20
496.5309926056361
 30
0.0
 11
2474.364129429045
 21
474.3616024966492
 31
0.0
 70
   160
  1
4
 71
     5
 42
26.66666666666652
  3
SANWA
100
AcDbAlignedDimension
 13
2668.977131436381
 23
523.1976592723026
 33
0.0
 14
2735.643798103049
 24
496.530992605636
 34
0.0
 50
90.0
100
AcDbRotatedDimension
1001
ACAD
1000
DSTYLE
1002
{
1070
    40
1040
15.0
1070
    41
1040
1.5
1070
    43
1040
5.0
1070
    44
1040
0.5
1070
   140
1040
2.0
1070
   147
1040
1.0
1070
   176
1070
   256
1070
   177
1070
   256
1070
   178
1070
   256
1070
   279
1070
     2
1002
}
  0
DIMENSION
  5
928F
330
747D
100
AcDbEntity
  8
寸法引出
 48
20.0
100
AcDbDimension
  2
*D5
 10
2735.643798103049
 20
403.7352545891166
 30
0.0
 11
2702.310464769715
 21
433.7352545891166
 31
0.0
 70
    32
  1
10
 71
     5
 42
66.66666666666788
  3
SANWA
100
AcDbAlignedDimension
 13
2668.977131436381
 23
523.1976592723026
 33
0.0
 14
2735.643798103049
 24
496.530992605636
 34
0.0
100
AcDbRotatedDimension
1001
ACAD
1000
DSTYLE
1002
{
1070
    40
1040
15.0
1070
    41
1040
1.5
1070
    43
1040
5.0
1070
    44
1040
0.5
1070
   140
1040
2.0
1070
   147
1040
1.0
1070
   176
1070
   256
1070
   177
1070
   256
1070
   178
1070
   256
1070
   279
1070
     2
1002
}
  0
MTEXT
  5
92EB
330
747D
100
AcDbEntity
  8
寸法引出
 48
20.0
100
AcDbMText
 10
2899.371939044866
 20
710.2741036107641
 30
0.0
 40
39.99999999999997
 41
0.0
 71
     5
 72
     1
  1
内面
  7
SANWA
 73
     1
 44
1.0
1001
ACAD
1000
MTEXTBEGIN
1070
    73
1070
     1
1070
    44
1040
1.0
1070
    74
1070
     0
1000
MTEXTEND
  0
LINE
  5
AA2C
330
747D
100
AcDbEntity
  8
枠
100
AcDbLine
 10
500.0
 20
200.0
 30
0.0
 11
5740.0
 21
200.0000000000045
 31
0.0
  0
LINE
  5
AA2D
330
747D
100
AcDbEntity
  8
枠
100
AcDbLine
 10
500.0
 20
4000.0
 30
0.0
 11
5740.0
 21
4000.0
 31
0.0
  0
LINE
  5
AA2E
330
747D
100
AcDbEntity
  8
枠
100
AcDbLine
 10
500.0
 20
200.0
 30
0.0
 11
500.0
 21
4000.0
 31
0.0
  0
LINE
  5
AA2F
330
747D
100
AcDbEntity
  8
0
100
AcDbLine
 10
0.0
 20
0.0
 30
0.0
 11
0.0
 21
200.0
 31
0.0
  0
LINE
  5
AA30
330
747D
100
AcDbEntity
  8
0
100
AcDbLine
 10
500.0
 20
0.0
 30
0.0
 11
0.0
 21
0.0
 31
0.0
  0
LINE
  5
AA31
330
747D
100
AcDbEntity
  8
0
100
AcDbLine
 10
0.0
 20
4200.0
 30
0.0
 11
500.0
 21
4200.0
 31
0.0
  0
LINE
  5
AA32
330
747D
100
AcDbEntity
  8
0
100
AcDbLine
 10
0.0
 20
4000.0
 30
0.0
 11
0.0
 21
4200.0
 31
0.0
  0
TEXT
  5
AA33
330
747D
100
AcDbEntity
  8
0
100
AcDbText
 10
5137.181276595755
 20
456.3657142857192
 30
0.0
 40
32.0
  1
400×700×1998
  7
SANWA
 72
     4
 11
5301.021276595754
 21
472.000000000005
 31
0.0
100
AcDbText
  0
LINE
  5
AA34
330
747D
100
AcDbEntity
  8
0
100
AcDbLine
 10
4862.04255319148
 20
408.0000000000017
 30
0.0
 11
4862.04255319148
 21
792.000000000005
 31
0.0
  0
LINE
  5
AA35
330
747D
100
AcDbEntity
  8
枠
100
AcDbLine
 10
5740.0
 20
200.0
 30
0.0
 11
5740.0
 21
4000.0
 31
0.0
  0
LINE
  5
AA36
330
747D
100
AcDbEntity
  8
0
100
AcDbLine
 10
4798.042553191481
 20
200.0000000000045
 30
0.0
 11
4798.042553191481
 21
792.000000000005
 31
0.0
  0
LINE
  5
AA37
330
747D
100
AcDbEntity
  8
0
100
AcDbLine
 10
4270.042553191495
 20
504.0000000000032
 30
0.0
 11
4270.042553191495
 21
399.9135329463547
 31
0.0
  0
LINE
  5
AA38
330
747D
100
AcDbEntity
  8
0
100
AcDbLine
 10
4270.042553191495
 20
456.0000000000036
 30
0.0
 11
4270.042553191495
 21
504.0000000000032
 31
0.0
  0
LINE
  5
AA39
330
747D
100
AcDbEntity
  8
0
 62
     0
100
AcDbLine
 10
4270.042553191495
 20
504.0000000000032
 30
0.0
 11
4270.042553191495
 21
200.0000000000045
 31
0.0
  0
TEXT
  5
AA3A
330
747D
100
AcDbEntity
  8
0
 48
2.0
100
AcDbText
 10
4518.629737265859
 20
417.6685053446431
 30
0.0
 40
32.0
  1
2007.10.11
  7
SANWA
100
AcDbText
  0
TEXT
  5
AA3B
330
747D
100
AcDbEntity
  8
0
 48
2.0
100
AcDbText
 10
4312.999194725824
 20
417.6685053446431
 30
0.0
 40
32.0
  1
製図
  7
SANWA
100
AcDbText
  0
LINE
  5
AA3C
330
747D
100
AcDbEntity
  8
0
 62
     0
100
AcDbLine
 10
4270.042553191495
 20
360.0000000000023
 30
0.0
 11
4798.042553191481
 21
360.0000000000023
 31
0.0
  0
TEXT
  5
AA3D
330
747D
100
AcDbEntity
  8
0
 48
2.0
100
AcDbText
 10
4687.212333544056
 20
245.3747819261923
 30
0.0
 40
32.0
  1
川
  7
SANWA
100
AcDbText
  0
CIRCLE
  5
AA3E
330
747D
100
AcDbEntity
  8
0
100
AcDbCircle
 10
4710.04255319148
 20
280.0000000000034
 30
0.0
 40
63.98016845806343
  0
CIRCLE
  5
AA3F
330
747D
100
AcDbEntity
  8
0
100
AcDbCircle
 10
4710.04255319148
 20
280.0000000000034
 30
0.0
 40
60.78016845806342
  0
TEXT
  5
AA40
330
747D
100
AcDbEntity
  8
0
 48
2.0
100
AcDbText
 10
4687.964827627758
 20
290.6691967078348
 30
0.0
 40
32.0
  1
中
  7
SANWA
100
AcDbText
  0
HATCH
  5
AA41
330
747D
100
AcDbEntity
  8
0
100
AcDbHatch
 10
0.0
 20
0.0
 30
0.0
210
0.0
220
0.0
230
1.0
  2
SOLID
 70
     1
 71
     0
 91
        4
 92
        7
 72
     1
 73
     1
 93
        2
 10
4774.02272164954
 20
280.0000000000034
 42
1.0
 10
4646.062384733421
 20
280.0000000000034
 42
1.0
 97
        0
 92
       22
 72
     1
 73
     1
 93
        2
 10
4770.822721649543
 20
280.0000000000034
 42
-1.0
 10
4649.262384733417
 20
280.0000000000034
 42
-1.0
 97
        0
 92
      136
 93
        4
 72
     1
 10
4677.313399056337
 20
274.714910993549
 11
4745.427684770622
 21
274.714910993549
 72
     1
 10
4745.427684770606
 20
274.714910993549
 11
4745.427684770606
 21
338.6234824221205
 72
     1
 10
4745.427684770606
 20
338.6234824221205
 11
4677.31339905632
 21
338.6234824221205
 72
     1
 10
4677.313399056337
 20
338.6234824221205
 11
4677.313399056337
 21
274.7149109935491
 97
        0
 92
      136
 93
        4
 72
     1
 10
4677.200904972647
 20
231.5233533547637
 11
4744.035190686933
 21
231.5233533547637
 72
     1
 10
4744.035190686933
 20
231.5233533547637
 11
4744.035190686933
 21
291.5919247833352
 72
     1
 10
4744.035190686933
 20
291.5919247833352
 11
4677.200904972647
 21
291.5919247833352
 72
     1
 10
4677.200904972647
 20
291.5919247833352
 11
4677.200904972647
 21
231.5233533547638
 97
        0
 75
     0
 76
     1
 47
0.0602706122334892
 98
        2
 10
4740.696267679901
 20
334.9990014677076
 10
4740.696267679901
 20
334.9990014677076
  0
TEXT
  5
AA42
330
747D
100
AcDbEntity
  8
0
 48
2.0
100
AcDbText
 10
4335.212333544062
 20
238.9336415643618
 30
0.0
 40
32.0
  1
口
  7
SANWA
100
AcDbText
  0
TEXT
  5
AA43
330
747D
100
AcDbEntity
  8
0
 48
2.0
100
AcDbText
 10
4335.96482762778
 20
284.2280563460042
 30
0.0
 40
32.0
  1
河
  7
SANWA
100
AcDbText
  0
TEXT
  5
AA44
330
747D
100
AcDbEntity
  8
0
 48
2.0
100
AcDbText
 10
4565.666341061994
 20
107.8915917718359
 30
0.0
 40
32.0
  1
大
  7
SANWA
100
AcDbText
  0
TEXT
  5
AA45
330
747D
100
AcDbEntity
  8
0
 48
2.0
100
AcDbText
 10
4564.913846978306
 20
62.59717699019347
 30
0.0
 40
32.0
  1
嶋
  7
SANWA
100
AcDbText
  0
CIRCLE
  5
AA46
330
747D
100
AcDbEntity
  8
0
100
AcDbCircle
 10
4358.042553191488
 20
280.0000000000034
 30
0.0
 40
63.98016845806343
  0
CIRCLE
  5
AA47
330
747D
100
AcDbEntity
  8
0
100
AcDbCircle
 10
4358.042553191488
 20
280.0000000000034
 30
0.0
 40
60.78016845806342
  0
HATCH
  5
AA48
330
747D
100
AcDbEntity
  8
0
100
AcDbHatch
 10
0.0
 20
0.0
 30
0.0
210
0.0
220
0.0
230
1.0
  2
SOLID
 70
     1
 71
     0
 91
        2
 92
        7
 72
     1
 73
     1
 93
        2
 10
4422.022721649548
 20
280.0000000000034
 42
1.0
 10
4294.062384733428
 20
280.0000000000034
 42
1.0
 97
        0
 92
       22
 72
     1
 73
     1
 93
        2
 10
4418.822721649536
 20
280.0000000000034
 42
-1.0
 10
4297.262384733425
 20
280.0000000000034
 42
-1.0
 97
        0
 75
     0
 76
     1
 47
0.0602706122334892
 98
        2
 10
4388.696267679908
 20
334.9990014677076
 10
4388.696267679908
 20
334.9990014677076
  0
TEXT
  5
AA49
330
747D
100
AcDbEntity
  8
0
 48
2.0
100
AcDbText
 10
4403.052872357642
 20
57.44172672607874
 30
0.0
 40
32.0
  1
田
  7
SANWA
100
AcDbText
  0
TEXT
  5
AA4A
330
747D
100
AcDbEntity
  8
0
 48
2.0
100
AcDbText
 10
4403.805366441345
 20
106.1731110637129
 30
0.0
 40
32.0
  1
蒔
  7
SANWA
100
AcDbText
  0
CIRCLE
  5
AA4B
330
747D
100
AcDbEntity
  8
0
100
AcDbCircle
 10
4587.744066625717
 20
97.22239506400455
 30
0.0
 40
60.78016845806342
  0
CIRCLE
  5
AA4C
330
747D
100
AcDbEntity
  8
0
100
AcDbCircle
 10
4587.744066625717
 20
97.22239506400455
 30
0.0
 40
63.98016845806343
  0
HATCH
  5
AA4D
330
747D
100
AcDbEntity
  8
0
100
AcDbHatch
 10
0.0
 20
0.0
 30
0.0
210
0.0
220
0.0
230
1.0
  2
SOLID
 70
     1
 71
     0
 91
        4
 92
        7
 72
     1
 73
     1
 93
        2
 10
4651.724235083792
 20
97.22239506400455
 42
1.0
 10
4523.763898167657
 20
97.22239506400455
 42
1.0
 97
        0
 92
       22
 72
     1
 73
     1
 93
        2
 10
4648.524235083794
 20
97.22239506400455
 42
-1.0
 10
4526.963898167654
 20
97.22239506400455
 42
-1.0
 97
        0
 92
      136
 93
        4
 72
     1
 10
4555.517769633428
 20
94.81730605755021
 11
4622.626341062001
 21
94.81730605755021
 72
     1
 10
4622.626341062015
 20
94.81730605755021
 11
4622.626341062015
 21
155.7087346289788
 72
     1
 10
4622.626341062015
 20
155.7087346289788
 11
4555.517769633444
 21
155.7087346289788
 72
     1
 10
4555.517769633428
 20
155.7087346289788
 11
4555.517769633428
 21
94.81730605755021
 97
        0
 92
      136
 93
        4
 72
     1
 10
4554.26241840687
 20
47.19146270447918
 11
4622.376704121156
 21
47.19146270447918
 72
     1
 10
4622.376704121168
 20
47.19146270447918
 11
4622.376704121168
 21
111.1000341330506
 72
     1
 10
4622.376704121168
 20
111.1000341330506
 11
4554.262418406882
 21
111.1000341330506
 72
     1
 10
4554.26241840687
 20
111.1000341330506
 11
4554.26241840687
 21
47.19146270447918
 97
        0
 75
     0
 76
     1
 47
0.0602706122334892
 98
        2
 10
4618.397781114137
 20
152.2213965317087
 10
4618.397781114137
 20
152.2213965317087
  0
TEXT
  5
AA4E
330
747D
100
AcDbEntity
  8
0
 48
2.0
100
AcDbText
 10
4812.38409057245
 20
433.2547889879196
 30
0.0
 40
22.4
  1
格
  7
SANWA
100
AcDbText
  0
TEXT
  5
AA4F
330
747D
100
AcDbEntity
  8
0
 48
2.0
100
AcDbText
 10
4492.101314434112
 20
369.514290335062
 30
0.0
 40
32.0
  1
設計
  7
SANWA
100
AcDbText
  0
TEXT
  5
AA50
330
747D
100
AcDbEntity
  8
0
 48
2.0
100
AcDbText
 10
4664.999194725824
 20
369.6685053446436
 30
0.0
 40
32.0
  1
製図
  7
SANWA
100
AcDbText
  0
HATCH
  5
AA51
330
747D
100
AcDbEntity
  8
0
100
AcDbHatch
 10
0.0
 20
0.0
 30
0.0
210
0.0
220
0.0
230
1.0
  2
SOLID
 70
     1
 71
     0
 91
        6
 92
        7
 72
     1
 73
     1
 93
        4
 10
4867.817799840733
 20
341.1677237463436
 42
0.0
 10
4878.020419553111
 20
330.9651040339554
 42
-0.3722683533228753
 10
4935.676151998371
 20
330.9651040339554
 42
0.0
 10
4945.878771710749
 20
341.1677237463459
 42
0.3824979940290045
 97
        0
 92
       22
 72
     1
 73
     1
 93
        4
 10
4941.152410697454
 20
340.9668461326373
 42
0.0
 10
4935.450707035227
 20
335.2651424703936
 42
0.3367429548951066
 10
4878.245864516269
 20
335.2651424703958
 42
0.0
 10
4872.544160854042
 20
340.9668461326351
 42
-0.347770427523089
 97
        0
 92
        7
 72
     1
 73
     1
 93
        4
 10
4940.201635397956
 20
326.4396206343622
 42
-0.6168583269099046
 10
4910.048285775745
 20
253.642995025416
 42
0.0
 10
4910.048285775745
 20
239.2143118564218
 42
0.6292889159379735
 10
4950.404255110363
 20
336.6422403467504
 42
0.0
 97
        0
 92
       22
 72
     1
 73
     1
 93
        4
 10
4950.203377496641
 20
331.9158793334486
 42
-0.5873104908889238
 10
4913.248285775742
 20
242.6983957021048
 42
0.0
 10
4913.248285775742
 20
250.7618223498775
 42
0.5741105922167471
 10
4944.501673834412
 20
326.2141756712072
 42
0.0
 97
        0
 92
        7
 72
     1
 73
     1
 93
        4
 10
4863.292316441133
 20
336.6422403467504
 42
0.6292889159379591
 10
4903.648285775751
 20
239.2143118564218
 42
0.0
 10
4903.648285775751
 20
253.642995025416
 42
-0.6168583269099637
 10
4873.494936153526
 20
326.4396206343622
 42
0.0
 97
        0
 92
       22
 72
     1
 73
     1
 93
        4
 10
4869.194897717083
 20
326.2141756712072
 42
0.5741105922167495
 10
4900.448285775754
 20
250.7618223498775
 42
0.0
 10
4900.448285775754
 20
242.6983957021048
 42
-0.5873104908889167
 10
4863.493194054856
 20
331.9158793334486
 42
0.0
 97
        0
 75
     0
 76
     1
 47
0.0143554168026844
 98
        6
 10
4932.464662378654
 20
347.8471010273506
 10
4932.464662378654
 20
347.8471010273506
 10
4944.41860979583
 20
329.2424819374173
 10
4944.41860979583
 20
329.2424819374173
 10
4870.625937808057
 20
328.5534215474718
 10
4870.625937808057
 20
328.5534215474718
  0
TEXT
  5
AA52
330
747D
100
AcDbEntity
  8
0
100
AcDbText
 10
5021.877751216613
 20
275.6251632142403
 30
0.0
 40
32.0
  1
三和コンクリート工業株式会社
  7
SANWA
100
AcDbText
  0
TEXT
  5
AA53
330
747D
100
AcDbEntity
  8
0
100
AcDbText
 10
4888.945337113256
 20
275.6251632142403
 30
0.0
 40
24.0
  1
和
  7
SANWA
100
AcDbText
  0
TEXT
  5
AA54
330
747D
100
AcDbEntity
  8
0
100
AcDbText
 10
4888.945337113256
 20
307.5094554701877
 30
0.0
 40
24.0
  1
三
  7
SANWA
100
AcDbText
  0
LINE
  5
AA55
330
747D
100
AcDbEntity
  8
0
100
AcDbLine
 10
4900.448285775754
 20
242.6983957021048
 30
0.0
 11
4900.448285775754
 21
250.7618223498775
 31
0.0
  0
LINE
  5
AA56
330
747D
100
AcDbEntity
  8
0
100
AcDbLine
 10
4913.248285775742
 20
242.6983957021048
 30
0.0
 11
4913.248285775742
 21
250.7618223498775
 31
0.0
  0
LINE
  5
AA57
330
747D
100
AcDbEntity
  8
0
100
AcDbLine
 10
4944.501673834412
 20
326.2141756712072
 30
0.0
 11
4950.203377496641
 21
331.9158793334486
 31
0.0
  0
LINE
  5
AA58
330
747D
100
AcDbEntity
  8
0
100
AcDbLine
 10
4935.450707035227
 20
335.2651424703958
 30
0.0
 11
4941.152410697454
 21
340.9668461326373
 31
0.0
  0
LINE
  5
AA59
330
747D
100
AcDbEntity
  8
0
100
AcDbLine
 10
4878.245864516269
 20
335.2651424703958
 30
0.0
 11
4872.544160854013
 21
340.9668461326351
 31
0.0
  0
LINE
  5
AA5A
330
747D
100
AcDbEntity
  8
0
100
AcDbLine
 10
4869.194897717083
 20
326.2141756712072
 30
0.0
 11
4863.493194054841
 21
331.9158793334486
 31
0.0
  0
ARC
  5
AA5B
330
747D
100
AcDbEntity
  8
0
100
AcDbCircle
 10
4906.848285775748
 20
297.6117544117347
 30
0.0
 40
55.28505191073056
100
AcDbArc
 50
276.6476737861997
 51
38.35232621378629
  0
ARC
  5
AA5C
330
747D
100
AcDbEntity
  8
0
100
AcDbCircle
 10
4906.848285775748
 20
297.6117544117347
 30
0.0
 40
58.48505191073055
100
AcDbArc
 50
273.1364954470621
 51
41.86350455293349
  0
ARC
  5
AA5D
330
747D
100
AcDbEntity
  8
0
100
AcDbCircle
 10
4906.848285775748
 20
297.6117544117347
 30
0.0
 40
47.28505191073054
100
AcDbArc
 50
277.7788203119244
 51
37.22117968807564
  0
ARC
  5
AA5E
330
747D
100
AcDbEntity
  8
0
100
AcDbCircle
 10
4906.848285775748
 20
297.6117544117347
 30
0.0
 40
44.08505191073054
100
AcDbArc
 50
274.1625874111327
 51
40.83741258884908
  0
LINE
  5
AA5F
330
747D
100
AcDbEntity
  8
0
100
AcDbLine
 10
4910.048285775745
 20
239.2143118564218
 30
0.0
 11
4910.048285775745
 21
253.642995025416
 31
0.0
  0
LINE
  5
AA60
330
747D
100
AcDbEntity
  8
0
100
AcDbLine
 10
4903.648285775751
 20
239.2143118564218
 30
0.0
 11
4903.648285775751
 21
253.642995025416
 31
0.0
  0
LINE
  5
AA61
330
747D
100
AcDbEntity
  8
0
100
AcDbLine
 10
4935.676151998371
 20
330.9651040339554
 30
0.0
 11
4945.878771710749
 21
341.1677237463459
 31
0.0
  0
LINE
  5
AA62
330
747D
100
AcDbEntity
  8
0
100
AcDbLine
 10
4940.201635397956
 20
326.4396206343622
 30
0.0
 11
4950.404255110363
 21
336.6422403467504
 31
0.0
  0
LINE
  5
AA63
330
747D
100
AcDbEntity
  8
0
100
AcDbLine
 10
4873.494936153526
 20
326.4396206343622
 30
0.0
 11
4863.230367271841
 21
336.7041895160628
 31
0.0
  0
LINE
  5
AA64
330
747D
100
AcDbEntity
  8
0
100
AcDbLine
 10
4878.020419553111
 20
330.9651040339554
 30
0.0
 11
4867.755850671427
 21
341.229672915656
 31
0.0
  0
ARC
  5
AA65
330
747D
100
AcDbEntity
  8
0
100
AcDbCircle
 10
4906.848285775748
 20
297.6117544117347
 30
0.0
 40
58.48505191073055
100
AcDbArc
 50
48.13649544709058
 51
131.8635045529094
  0
ARC
  5
AA66
330
747D
100
AcDbEntity
  8
0
100
AcDbCircle
 10
4906.848285775748
 20
297.6117544117347
 30
0.0
 40
55.28505191073056
100
AcDbArc
 50
51.64767378620139
 51
128.3523262137988
  0
ARC
  5
AA67
330
747D
100
AcDbEntity
  8
0
100
AcDbCircle
 10
4906.848285775748
 20
297.6117544117347
 30
0.0
 40
47.28505191073054
100
AcDbArc
 50
52.77882031188735
 51
127.2211796881126
  0
ARC
  5
AA68
330
747D
100
AcDbEntity
  8
0
100
AcDbCircle
 10
4906.848285775748
 20
297.6117544117347
 30
0.0
 40
44.08505191073054
100
AcDbArc
 50
49.16258741114767
 51
130.8374125888523
  0
ARC
  5
AA69
330
747D
100
AcDbEntity
  8
0
100
AcDbCircle
 10
4906.848285775748
 20
297.6117544117347
 30
0.0
 40
44.08505191073054
100
AcDbArc
 50
139.1625874111509
 51
265.8374125888673
  0
ARC
  5
AA6A
330
747D
100
AcDbEntity
  8
0
100
AcDbCircle
 10
4906.848285775748
 20
297.6117544117347
 30
0.0
 40
47.28505191073054
100
AcDbArc
 50
142.7788203119243
 51
262.2211796880756
  0
ARC
  5
AA6B
330
747D
100
AcDbEntity
  8
0
100
AcDbCircle
 10
4906.848285775748
 20
297.6117544117347
 30
0.0
 40
58.48505191073055
100
AcDbArc
 50
138.1364954470665
 51
266.8635045529379
  0
ARC
  5
AA6C
330
747D
100
AcDbEntity
  8
0
100
AcDbCircle
 10
4906.848285775748
 20
297.6117544117347
 30
0.0
 40
55.28505191073056
100
AcDbArc
 50
141.6476737862137
 51
263.3523262138003
  0
LINE
  5
AA6D
330
747D
100
AcDbEntity
  8
0
100
AcDbLine
 10
4622.04255319148
 20
200.0000000000045
 30
0.0
 11
4622.04255319148
 21
408.0000000000017
 31
0.0
  0
LINE
  5
AA6E
330
747D
100
AcDbEntity
  8
0
100
AcDbLine
 10
4446.042553191481
 20
200.0000000000045
 30
0.0
 11
4446.042553191481
 21
456.0000000000036
 31
0.0
  0
TEXT
  5
AA6F
330
747D
100
AcDbEntity
  8
0
 48
2.0
100
AcDbText
 10
4308.288239910849
 20
367.6957268208616
 30
0.0
 40
32.0
  1
検図
  7
SANWA
100
AcDbText
  0
LINE
  5
AA70
330
747D
100
AcDbEntity
  8
0
100
AcDbLine
 10
4270.042553191495
 20
408.0000000000017
 30
0.0
 11
5740.0
 21
408.0000000000017
 31
0.0
  0
LINE
  5
AA71
330
747D
100
AcDbEntity
  8
0
100
AcDbLine
 10
4270.042553191495
 20
456.0000000000036
 30
0.0
 11
4270.042553191495
 21
408.0000000000017
 31
0.0
  0
LINE
  5
AA72
330
747D
100
AcDbEntity
  8
0
100
AcDbLine
 10
5940.0
 20
0.0
 30
0.0
 11
5740.0
 21
0.0
 31
0.0
  0
LINE
  5
AA73
330
747D
100
AcDbEntity
  8
0
100
AcDbLine
 10
5940.0
 20
200.0
 30
0.0
 11
5940.0
 21
0.0
 31
0.0
  0
LINE
  5
AA74
330
747D
100
AcDbEntity
  8
0
 62
     0
100
AcDbLine
 10
4270.042553191495
 20
456.0000000000036
 30
0.0
 11
4798.042553191481
 21
456.0000000000036
 31
0.0
  0
LINE
  5
AA75
330
747D
100
AcDbEntity
  8
0
100
AcDbLine
 10
1788.14633168617
 20
3668.130601753548
 30
0.0
 11
4404.70434061822
 21
3668.130601753548
 31
0.0
  0
LINE
  5
AA76
330
747D
100
AcDbEntity
  8
0
100
AcDbLine
 10
1788.14633168617
 20
3684.130601753548
 30
0.0
 11
4404.70434061822
 21
3684.130601753548
 31
0.0
  0
TEXT
  5
AA7D
330
747D
100
AcDbEntity
  8
0
100
AcDbText
 10
1813.760847074004
 20
3714.169255649897
 30
0.0
 40
56.00000000000001
  1
エコノミー側溝（Ｈタイプ） ４００×７００×１９９８
  7
SANWA
 72
     4
 11
2858.240847074005
 21
3742.489255649897
 31
0.0
100
AcDbText
  0
TEXT
  5
AA7E
330
747D
100
AcDbEntity
  8
0
100
AcDbText
 10
4136.314729930197
 20
3719.723541364183
 30
0.0
 40
48.0
  1
W=717㎏
  7
SANWA
 72
     4
 11
4259.194729930197
 21
3742.489255649897
 31
0.0
100
AcDbText
  0
TEXT
  5
AA7F
330
747D
100
AcDbEntity
  8
0
100
AcDbText
 10
5207.398419452897
 20
582.5371428571473
 30
0.0
 40
32.0
  1
Ｈタイプ
  7
SANWA
 72
     4
 11
5301.021276595754
 21
600.0000000000045
 31
0.0
100
AcDbText
  0
TEXT
  5
AA80
330
747D
100
AcDbEntity
  8
0
100
AcDbText
 10
5137.181276595755
 20
712.000000000004
 30
0.0
 40
32.0
  1
エコノミー側溝
  7
SANWA
 72
     4
 11
5301.021276595754
 21
728.0000000000041
 31
0.0
100
AcDbText
  0
TEXT
  5
AA81
330
747D
100
AcDbEntity
  8
0
 48
2.0
100
AcDbText
 10
4457.014525053724
 20
504.7804017298017
 30
0.0
 40
32.0
  1
1 : 20
  7
SANWA
100
AcDbText
  0
LINE
  5
AA83
330
747D
100
AcDbEntity
  8
0
 62
     0
100
AcDbLine
 10
4798.042553191481
 20
536.0000000000036
 30
0.0
 11
5740.0
 21
536.0000000000036
 31
0.0
  0
LINE
  5
AA84
330
747D
100
AcDbEntity
  8
0
 62
     0
100
AcDbLine
 10
4798.042553191481
 20
664.0000000000054
 30
0.0
 11
5740.0
 21
664.0000000000054
 31
0.0
  0
TEXT
  5
AA85
330
747D
100
AcDbEntity
  8
0
 48
2.0
100
AcDbText
 10
4435.278497545892
 20
579.1785528936202
 30
0.0
 40
32.0
  1
縮    尺
  7
SANWA
100
AcDbText
  0
TEXT
  5
AA86
330
747D
100
AcDbEntity
  8
0
 48
2.0
100
AcDbText
 10
4523.119046548614
 20
744.8549221901271
 30
0.0
 40
32.0
  1
番号
  7
SANWA
100
AcDbText
  0
TEXT
  5
AA87
330
747D
100
AcDbEntity
  8
0
 48
2.0
100
AcDbText
 10
4433.876483780331
 20
743.0363815531018
 30
0.0
 40
32.0
  1
図面
  7
SANWA
100
AcDbText
  0
LINE
  5
AA88
330
747D
100
AcDbEntity
  8
0
 62
     0
100
AcDbLine
 10
4270.042553191495
 20
568.0000000000041
 30
0.0
 11
4798.042553191481
 21
568.0000000000041
 31
0.0
  0
LINE
  5
AA89
330
747D
100
AcDbEntity
  8
0
 62
     0
100
AcDbLine
 10
4270.042553191495
 20
632.000000000005
 30
0.0
 11
4798.042553191481
 21
632.000000000005
 31
0.0
  0
TEXT
  5
AA8A
330
747D
100
AcDbEntity
  8
0
 48
2.0
100
AcDbText
 10
4812.38409057245
 20
480.9128204171679
 30
0.0
 40
22.4
  1
規
  7
SANWA
100
AcDbText
  0
TEXT
  5
AA8B
330
747D
100
AcDbEntity
  8
0
 48
2.0
100
AcDbText
 10
4811.820487819903
 20
559.901798072974
 30
0.0
 40
22.4
  1
名
  7
SANWA
100
AcDbText
  0
TEXT
  5
AA8C
330
747D
100
AcDbEntity
  8
0
 48
2.0
100
AcDbText
 10
4811.366846515826
 20
591.2434880010732
 30
0.0
 40
22.4
  1
び
  7
SANWA
100
AcDbText
  0
TEXT
  5
AA8D
330
747D
100
AcDbEntity
  8
0
 48
2.0
100
AcDbText
 10
4811.684567077886
 20
621.913092400091
 30
0.0
 40
22.4
  1
呼
  7
SANWA
100
AcDbText
  0
TEXT
  5
AA8E
330
747D
100
AcDbEntity
  8
0
 48
2.0
100
AcDbText
 10
4811.777384796936
 20
694.6616843261245
 30
0.0
 40
22.4
  1
名
  7
SANWA
100
AcDbText
  0
TEXT
  5
AA8F
330
747D
100
AcDbEntity
  8
0
 48
2.0
100
AcDbText
 10
4812.990796347964
 20
747.1691955827327
 30
0.0
 40
22.4
  1
品
  7
SANWA
100
AcDbText
  0
LINE
  5
AA90
330
747D
100
AcDbEntity
  8
0
 62
     0
100
AcDbLine
 10
4270.042553191495
 20
728.0000000000041
 30
0.0
 11
4798.042553191481
 21
728.0000000000041
 31
0.0
  0
LINE
  5
AA91
330
747D
100
AcDbEntity
  8
0
 62
     0
100
AcDbLine
 10
4270.042553191495
 20
728.0000000000041
 30
0.0
 11
4798.042553191481
 21
728.0000000000041
 31
0.0
  0
LINE
  5
AA92
330
747D
100
AcDbEntity
  8
0
100
AcDbLine
 10
4798.042553191481
 20
792.000000000005
 30
0.0
 11
4828.369696407273
 21
792.000000000005
 31
0.0
  0
LINE
  5
AA93
330
747D
100
AcDbEntity
  8
0
100
AcDbLine
 10
4270.042553191495
 20
581.4087567838646
 30
0.0
 11
4270.042553191495
 21
705.6935292561206
 31
0.0
  0
LINE
  5
AA94
330
747D
100
AcDbEntity
  8
0
100
AcDbLine
 10
4270.042553191495
 20
536.0000000000036
 30
0.0
 11
4270.042553191495
 21
581.4087567838646
 31
0.0
  0
LINE
  5
AA95
330
747D
100
AcDbEntity
  8
0
100
AcDbLine
 10
4270.042553191495
 20
792.000000000005
 30
0.0
 11
4270.042553191495
 21
696.0000000000036
 31
0.0
  0
LINE
  5
AA96
330
747D
100
AcDbEntity
  8
0
 62
     0
100
AcDbLine
 10
4270.042553191495
 20
792.000000000005
 30
0.0
 11
5740.0
 21
792.000000000005
 31
0.0
  0
LINE
  5
AA97
330
747D
100
AcDbEntity
  8
0
 62
     0
100
AcDbLine
 10
4270.042553191495
 20
696.0000000000036
 30
0.0
 11
4270.042553191495
 21
504.0000000000032
 31
0.0
  0
LINE
  5
AA98
330
747D
100
AcDbEntity
  8
0
100
AcDbLine
 10
5940.0
 20
4200.0
 30
0.0
 11
5940.0
 21
4000.0
 31
0.0
  0
LINE
  5
AA99
330
747D
100
AcDbEntity
  8
0
100
AcDbLine
 10
5740.0
 20
4200.0
 30
0.0
 11
5940.0
 21
4200.0
 31
0.0
  0
HATCH
  5
AA9A
330
747D
100
AcDbEntity
  8
0
100
AcDbHatch
 10
0.0
 20
0.0
 30
0.0
210
0.0
220
0.0
230
1.0
  2
SOLID
 70
     1
 71
     0
 91
        4
 92
        7
 72
     1
 73
     1
 93
        2
 10
4491.512944419053
 20
97.22239506400455
 42
1.0
 10
4363.552607502919
 20
97.22239506400455
 42
1.0
 97
        0
 92
       22
 72
     1
 73
     1
 93
        2
 10
4488.312944419056
 20
97.22239506400455
 42
-1.0
 10
4366.752607502916
 20
97.22239506400455
 42
-1.0
 97
        0
 92
      136
 93
        4
 72
     1
 10
4395.306478968691
 20
94.81730605755021
 11
4462.415050397262
 21
94.81730605755021
 72
     1
 10
4462.415050397278
 20
94.81730605755021
 11
4462.415050397278
 21
155.7087346289788
 72
     1
 10
4462.415050397278
 20
155.7087346289788
 11
4395.306478968706
 21
155.7087346289788
 72
     1
 10
4395.306478968691
 20
155.7087346289788
 11
4395.306478968691
 21
94.81730605755021
 97
        0
 92
      136
 93
        4
 72
     1
 10
4394.051127742132
 20
47.19146270447918
 11
4462.165413456418
 21
47.19146270447918
 72
     1
 10
4462.165413456431
 20
47.19146270447918
 11
4462.165413456431
 21
111.1000341330506
 72
     1
 10
4462.165413456431
 20
111.1000341330506
 11
4394.051127742145
 21
111.1000341330506
 72
     1
 10
4394.051127742132
 20
111.1000341330506
 11
4394.051127742132
 21
47.19146270447918
 97
        0
 75
     0
 76
     1
 47
0.0602706122334892
 98
        2
 10
4458.186490449399
 20
152.2213965317087
 10
4458.186490449399
 20
152.2213965317087
  0
CIRCLE
  5
AA9B
330
747D
100
AcDbEntity
  8
0
100
AcDbCircle
 10
4427.532775960979
 20
97.22239506400455
 30
0.0
 40
63.98016845806343
  0
CIRCLE
  5
AA9C
330
747D
100
AcDbEntity
  8
0
100
AcDbCircle
 10
4427.532775960979
 20
97.22239506400455
 30
0.0
 40
60.78016845806342
  0
LINE
  5
AB57
330
747D
100
AcDbEntity
  8
0
 48
15.0
100
AcDbLine
 10
2071.616634805498
 20
2708.945101169248
 30
0.0
 11
2071.616634805498
 21
2623.445101169249
 31
0.0
  0
LINE
  5
AB58
330
747D
100
AcDbEntity
  8
0
 48
15.0
100
AcDbLine
 10
1531.616634805497
 20
2708.945101169249
 30
0.0
 11
1531.616634805497
 21
2623.445101169249
 31
0.0
  0
LINE
  5
AB59
330
747D
100
AcDbEntity
  8
0
 48
15.0
100
AcDbLine
 10
1536.116634805497
 20
2713.445101169249
 30
0.0
 11
1571.616634805497
 21
2713.445101169249
 31
0.0
  0
LINE
  5
AB5A
330
747D
100
AcDbEntity
  8
0
 48
15.0
100
AcDbLine
 10
1571.616634805497
 20
2713.445101169249
 30
0.0
 11
1574.116634805498
 21
2623.445101169249
 31
0.0
  0
LINE
  5
AB5B
330
747D
100
AcDbEntity
  8
0
 48
15.0
100
AcDbLine
 10
1574.116634805498
 20
2623.445101169249
 30
0.0
 11
1590.116634805495
 21
2623.44510116925
 31
0.0
  0
LINE
  5
AB5C
330
747D
100
AcDbEntity
  8
0
 48
15.0
100
AcDbLine
 10
2029.116634805498
 20
2623.445101169249
 30
0.0
 11
2013.116634805503
 21
2623.44510116925
 31
0.0
  0
LINE
  5
AB5D
330
747D
100
AcDbEntity
  8
0
 48
15.0
100
AcDbLine
 10
2031.616634805498
 20
2713.445101169249
 30
0.0
 11
2029.116634805498
 21
2623.445101169249
 31
0.0
  0
LINE
  5
AB5E
330
747D
100
AcDbEntity
  8
0
 48
15.0
100
AcDbLine
 10
2067.116634805497
 20
2713.445101169249
 30
0.0
 11
2031.616634805498
 21
2713.445101169249
 31
0.0
  0
LINE
  5
AB5F
330
747D
100
AcDbEntity
  8
0
 48
15.0
100
AcDbLine
 10
1601.936634805497
 20
2615.445101169249
 30
0.0
 11
1626.89843410051
 21
1991.400118793972
 31
0.0
  0
LINE
  5
AB60
330
747D
100
AcDbEntity
  8
0
 48
15.0
100
AcDbLine
 10
2001.296634805498
 20
2615.445101169246
 30
0.0
 11
1976.334835510486
 21
1991.400118793972
 31
0.0
  0
LINE
  5
AB61
330
747D
100
AcDbEntity
  8
0
 48
15.0
100
AcDbLine
 10
2911.985379641716
 20
2713.445101169249
 30
0.0
 11
2911.985379641716
 21
1848.445101169249
 31
0.0
  0
LINE
  5
AB62
330
747D
100
AcDbEntity
  8
0
 48
15.0
100
AcDbLine
 10
2911.985379641716
 20
1848.445101169249
 30
0.0
 11
4909.985379641716
 21
1848.445101169249
 31
0.0
  0
LINE
  5
AB63
330
747D
100
AcDbEntity
  8
0
 48
15.0
100
AcDbLine
 10
2911.985379641716
 20
2713.445101169249
 30
0.0
 11
4909.985379641716
 21
2713.445101169249
 31
0.0
  0
LINE
  5
AB64
330
747D
100
AcDbEntity
  8
0
 48
15.0
100
AcDbLine
 10
4909.985379641716
 20
2713.445101169249
 30
0.0
 11
4909.985379641716
 21
1848.445101169249
 31
0.0
  0
LINE
  5
AB65
330
747D
100
AcDbEntity
  8
0
 48
20.0
100
AcDbLine
 10
1531.616634805497
 20
2708.945101169249
 30
0.0
 11
1536.116634805497
 21
2713.445101169249
 31
0.0
  0
LINE
  5
AB66
330
747D
100
AcDbEntity
  8
0
 48
20.0
100
AcDbLine
 10
2071.616634805498
 20
2708.945101169249
 30
0.0
 11
2067.116634805498
 21
2713.445101169249
 31
0.0
  0
LINE
  5
AB72
330
747D
100
AcDbEntity
  8
0
 48
15.0
100
AcDbLine
 10
1577.396642799103
 20
2603.44510116925
 30
0.0
 11
1602.416634805497
 21
2603.445101169249
 31
0.0
  0
LINE
  5
AB73
330
747D
100
AcDbEntity
  8
0
 48
15.0
100
AcDbLine
 10
2025.836626811893
 20
2603.445101169249
 30
0.0
 11
2000.816634805499
 21
2603.445101169249
 31
0.0
  0
LINE
  5
AB76
330
747D
100
AcDbEntity
  8
0
  6
HIDDEN2
 48
15.0
100
AcDbLine
 10
2911.985379641716
 20
2623.445101169249
 30
0.0
 11
4909.985379641716
 21
2623.445101169249
 31
0.0
  0
LINE
  5
AB77
330
747D
100
AcDbEntity
  8
0
  6
HIDDEN2
 48
15.0
100
AcDbLine
 10
2911.985379641716
 20
1923.445101169249
 30
0.0
 11
4909.985379641716
 21
1923.445101169249
 31
0.0
  0
LINE
  5
AB78
330
747D
100
AcDbEntity
  8
0
 48
15.0
100
AcDbLine
 10
2911.985379641716
 20
2708.945101169249
 30
0.0
 11
4909.985379641716
 21
2708.945101169249
 31
0.0
  0
LINE
  5
AB79
330
747D
100
AcDbEntity
  8
0
 48
15.0
100
AcDbLine
 10
2911.985379641716
 20
1868.445101169249
 30
0.0
 11
4909.985379641716
 21
1868.445101169249
 31
0.0
  0
LINE
  5
AB7A
330
747D
100
AcDbEntity
  8
0
 48
20.0
100
AcDbLine
 10
3860.985379641715
 20
2135.445101169249
 30
0.0
 11
3860.985379641716
 21
2235.44510116925
 31
0.0
  0
LINE
  5
AB7B
330
747D
100
AcDbEntity
  8
0
 48
20.0
100
AcDbLine
 10
3960.985379641715
 20
2135.445101169249
 30
0.0
 11
3960.985379641715
 21
2235.44510116925
 31
0.0
  0
LINE
  5
AB7C
330
747D
100
AcDbEntity
  8
0
 48
15.0
100
AcDbLine
 10
3860.985379641716
 20
2235.44510116925
 30
0.0
 11
3960.985379641715
 21
2235.44510116925
 31
0.0
  0
LINE
  5
AB7D
330
747D
100
AcDbEntity
  8
0
 48
15.0
100
AcDbLine
 10
3870.985379641715
 20
2225.445101169249
 30
0.0
 11
3950.985379641715
 21
2225.445101169249
 31
0.0
  0
LINE
  5
AB7E
330
747D
100
AcDbEntity
  8
0
 48
15.0
100
AcDbLine
 10
3860.985379641715
 20
2135.445101169249
 30
0.0
 11
3960.985379641715
 21
2135.445101169249
 31
0.0
  0
LINE
  5
AB7F
330
747D
100
AcDbEntity
  8
0
 48
20.0
100
AcDbLine
 10
3860.985379641715
 20
2235.445101169249
 30
0.0
 11
3870.985379641715
 21
2225.445101169249
 31
0.0
  0
LINE
  5
AB80
330
747D
100
AcDbEntity
  8
0
 48
20.0
100
AcDbLine
 10
3870.985379641715
 20
2225.445101169249
 30
0.0
 11
3860.985379641715
 21
2135.445101169249
 31
0.0
  0
LINE
  5
AB81
330
747D
100
AcDbEntity
  8
0
 48
20.0
100
AcDbLine
 10
3960.985379641715
 20
2235.445101169249
 30
0.0
 11
3950.985379641715
 21
2225.445101169249
 31
0.0
  0
LINE
  5
AB82
330
747D
100
AcDbEntity
  8
0
 48
20.0
100
AcDbLine
 10
3950.985379641715
 20
2225.445101169249
 30
0.0
 11
3960.985379641715
 21
2135.445101169249
 31
0.0
  0
CIRCLE
  5
AB83
330
747D
100
AcDbEntity
  8
0
 48
20.0
100
AcDbCircle
 10
3910.985379641715
 20
2185.445101169249
 30
0.0
 40
10.0
  0
LINE
  5
AB8F
330
747D
100
AcDbEntity
  8
0
 48
20.0
100
AcDbLine
 10
1577.080920519786
 20
1848.44510116925
 30
0.0
 11
2026.152349091213
 21
1848.44510116925
 31
0.0
  0
LINE
  5
AB90
330
747D
100
AcDbEntity
  8
0
 48
20.0
100
AcDbLine
 10
1556.423777662643
 20
1868.445101169251
 30
0.0
 11
1531.616634805497
 21
2623.445101169249
 31
0.0
  0
LINE
  5
AB91
330
747D
100
AcDbEntity
  8
0
 48
20.0
100
AcDbLine
 10
2046.809491948359
 20
1868.445101169249
 30
0.0
 11
2071.616634805501
 21
2623.445101169249
 31
0.0
  0
LINE
  5
AB9F
330
747D
100
AcDbEntity
  8
0
 48
15.0
100
AcDbLine
 10
1596.411836723962
 20
2603.44510116925
 30
0.0
 11
1620.903228348181
 21
1991.160310563879
 31
0.0
  0
LINE
  5
ABA3
330
747D
100
AcDbEntity
  8
0
 48
15.0
100
AcDbLine
 10
2006.821432887034
 20
2603.445101169249
 30
0.0
 11
1982.330041262819
 21
1991.16031056388
 31
0.0
  0
LINE
  5
ABA4
330
747D
100
AcDbEntity
  8
0
 48
15.0
100
AcDbLine
 10
1581.399841520125
 20
2603.44510116925
 30
0.0
 11
1605.915213967354
 21
1990.560789988646
 31
0.0
  0
LINE
  5
ABA8
330
747D
100
AcDbEntity
  8
0
 48
15.0
100
AcDbLine
 10
2021.833428090869
 20
2603.445101169249
 30
0.0
 11
1997.318055643646
 21
1990.560789988647
 31
0.0
  0
LINE
  5
ABA9
330
747D
100
AcDbEntity
  8
0
 48
15.0
100
AcDbLine
 10
1577.396642799103
 20
2603.44510116925
 30
0.0
 11
1601.918410132466
 21
1990.40091783525
 31
0.0
  0
LINE
  5
ABAD
330
747D
100
AcDbEntity
  8
0
 48
15.0
100
AcDbLine
 10
2025.836626811893
 20
2603.445101169249
 30
0.0
 11
2001.314859478533
 21
1990.400917835251
 31
0.0
  0
LINE
  5
ABAE
330
747D
100
AcDbEntity
  8
0
 48
20.0
100
AcDbLine
 10
1590.116634805496
 20
2623.44510116925
 30
0.0
 11
1601.936634805496
 21
2615.44510116925
 31
0.0
  0
LINE
  5
ABB1
330
747D
100
AcDbEntity
  8
0
 48
20.0
100
AcDbLine
 10
2013.116634805503
 20
2623.44510116925
 30
0.0
 11
2001.296634805504
 21
2615.44510116925
 31
0.0
  0
ARC
  5
AE03
330
747D
100
AcDbEntity
  8
0
 48
20.0
100
AcDbCircle
 10
1801.616634805499
 20
2373.44510116925
 30
0.0
 40
450.0
100
AcDbArc
 50
251.8265078085265
 51
288.1734921914735
  0
ARC
  5
AE04
330
747D
100
AcDbEntity
  8
0
 48
20.0
100
AcDbCircle
 10
1676.858482036601
 20
1993.398520711416
 30
0.0
 40
50.0
100
AcDbArc
 50
182.2906100426395
 51
251.8265078085265
  0
ARC
  5
AE05
330
747D
100
AcDbEntity
  8
0
 48
20.0
100
AcDbCircle
 10
1926.374787574397
 20
1993.398520711416
 30
0.0
 40
50.0
100
AcDbArc
 50
288.1734921914735
 51
357.7093899573604
  0
ARC
  5
AE09
330
747D
100
AcDbEntity
  8
0
 48
20.0
100
AcDbCircle
 10
1676.858482036601
 20
1993.398520711416
 30
0.0
 40
56.0
100
AcDbArc
 50
182.2906100426395
 51
251.8265078085265
  0
ARC
  5
AE0A
330
747D
100
AcDbEntity
  8
0
 48
20.0
100
AcDbCircle
 10
1801.616634805499
 20
2373.44510116925
 30
0.0
 40
456.0
100
AcDbArc
 50
251.8265078085265
 51
288.1734921914735
  0
ARC
  5
AE0B
330
747D
100
AcDbEntity
  8
0
 48
20.0
100
AcDbCircle
 10
1926.374787574397
 20
1993.398520711416
 30
0.0
 40
56.0
100
AcDbArc
 50
288.1734921914735
 51
357.7093899573604
  0
ARC
  5
AE0C
330
747D
100
AcDbEntity
  8
0
 48
20.0
100
AcDbCircle
 10
1676.858482036601
 20
1993.398520711416
 30
0.0
 40
71.0
100
AcDbArc
 50
182.2906100426395
 51
251.8265078085265
  0
ARC
  5
AE0D
330
747D
100
AcDbEntity
  8
0
 48
20.0
100
AcDbCircle
 10
1801.616634805499
 20
2373.44510116925
 30
0.0
 40
471.0
100
AcDbArc
 50
251.8265078085265
 51
288.1734921914735
  0
ARC
  5
AE0E
330
747D
100
AcDbEntity
  8
0
 48
20.0
100
AcDbCircle
 10
1926.374787574397
 20
1993.398520711416
 30
0.0
 40
71.0
100
AcDbArc
 50
288.1734921914735
 51
357.7093899573604
  0
ARC
  5
AE0F
330
747D
100
AcDbEntity
  8
0
 48
20.0
100
AcDbCircle
 10
1676.858482036601
 20
1993.398520711416
 30
0.0
 40
75.0
100
AcDbArc
 50
182.2906100426395
 51
251.8265078085265
  0
ARC
  5
AE10
330
747D
100
AcDbEntity
  8
0
 48
20.0
100
AcDbCircle
 10
1801.616634805499
 20
2373.44510116925
 30
0.0
 40
475.0
100
AcDbArc
 50
251.8265078085265
 51
288.1734921914735
  0
ARC
  5
AE11
330
747D
100
AcDbEntity
  8
0
 48
20.0
100
AcDbCircle
 10
1926.374787574397
 20
1993.398520711416
 30
0.0
 40
75.0
100
AcDbArc
 50
288.1734921914735
 51
357.7093899573604
  0
DIMENSION
  5
AE15
330
747D
100
AcDbEntity
  8
寸法引出
 48
20.0
100
AcDbDimension
  2
*D6
 10
1571.616634805497
 20
2785.011532457537
 30
0.0
 11
1485.780305556491
 21
2825.160988188543
 31
0.0
 70
   160
 71
     5
 42
40.0
  3
SANWA
100
AcDbAlignedDimension
 13
1531.616634805497
 23
2708.945101169249
 33
0.0
 14
1571.616634805497
 24
2713.445101169249
 34
0.0
100
AcDbRotatedDimension
1001
ACAD
1000
DSTYLE
1002
{
1070
    40
1040
20.0
1070
    41
1040
1.5
1070
    43
1040
5.0
1070
    44
1040
0.5
1070
   140
1040
2.0
1070
   147
1040
1.0
1070
   176
1070
   256
1070
   177
1070
   256
1070
   178
1070
   256
1070
   279
1070
     2
1002
}
  0
DIMENSION
  5
AE24
330
747D
100
AcDbEntity
  8
寸法引出
 48
20.0
100
AcDbDimension
  2
*D7
 10
1574.116634805498
 20
2785.011532457537
 30
0.0
 11
1589.573596904461
 21
2881.454330821829
 31
0.0
 70
   160
 71
     5
 42
2.5
  3
SANWA
100
AcDbAlignedDimension
 13
1571.616634805497
 23
2713.445101169249
 33
0.0
 14
1574.116634805498
 24
2623.445101169249
 34
0.0
100
AcDbRotatedDimension
1001
ACAD
1000
DSTYLE
1002
{
1070
    40
1040
20.0
1070
    41
1040
1.5
1070
    43
1040
5.0
1070
    44
1040
0.5
1070
   140
1040
2.0
1070
   147
1040
1.0
1070
   176
1070
   256
1070
   177
1070
   256
1070
   178
1070
   256
1070
   279
1070
     2
1002
}
  0
DIMENSION
  5
AE33
330
747D
100
AcDbEntity
  8
寸法引出
 48
20.0
100
AcDbDimension
  2
*D8
 10
1601.616634805496
 20
2785.011532457537
 30
0.0
 11
1625.252525018201
 21
2825.750448715551
 31
0.0
 70
   160
 71
     5
 42
27.49999999999818
  3
SANWA
100
AcDbAlignedDimension
 13
1574.116634805498
 23
2623.445101169249
 33
0.0
 14
1601.616634805496
 24
2623.44510116925
 34
0.0
100
AcDbRotatedDimension
1001
ACAD
1000
DSTYLE
1002
{
1070
    40
1040
20.0
1070
    41
1040
1.5
1070
    43
1040
5.0
1070
    44
1040
0.5
1070
   140
1040
2.0
1070
   147
1040
1.0
1070
   176
1070
   256
1070
   177
1070
   256
1070
   178
1070
   256
1070
   279
1070
     2
1002
}
  0
DIMENSION
  5
AE42
330
747D
100
AcDbEntity
  8
寸法引出
 48
20.0
100
AcDbDimension
  2
*D9
 10
2001.6166348055
 20
2785.011532457537
 30
0.0
 11
1801.616634805498
 21
2825.011532457537
 31
0.0
 70
    32
 71
     5
 42
400.0000000000036
  3
SANWA
100
AcDbAlignedDimension
 13
1601.616634805496
 23
2623.44510116925
 33
0.0
 14
2001.6166348055
 24
2623.44510116925
 34
0.0
100
AcDbRotatedDimension
1001
ACAD
1000
DSTYLE
1002
{
1070
    40
1040
20.0
1070
    41
1040
1.5
1070
    43
1040
5.0
1070
    44
1040
0.5
1070
   140
1040
2.0
1070
   147
1040
1.0
1070
   176
1070
   256
1070
   177
1070
   256
1070
   178
1070
   256
1070
   279
1070
     2
1002
}
  0
DIMENSION
  5
AE4F
330
747D
100
AcDbEntity
  8
寸法引出
 48
20.0
100
AcDbDimension
  2
*D10
 10
2071.616634805498
 20
2785.011532457537
 30
0.0
 11
2036.616634805499
 21
2825.011532457537
 31
0.0
 70
    32
 71
     5
 42
69.99999999999818
  3
SANWA
100
AcDbAlignedDimension
 13
2001.6166348055
 23
2623.44510116925
 33
0.0
 14
2071.616634805498
 24
2708.945101169248
 34
0.0
100
AcDbRotatedDimension
1001
ACAD
1000
DSTYLE
1002
{
1070
    40
1040
20.0
1070
    41
1040
1.5
1070
    43
1040
5.0
1070
    44
1040
0.5
1070
   140
1040
2.0
1070
   147
1040
1.0
1070
   176
1070
   256
1070
   177
1070
   256
1070
   178
1070
   256
1070
   279
1070
     2
1002
}
  0
DIMENSION
  5
AEA6
330
747D
100
AcDbEntity
  8
寸法引出
 48
20.0
100
AcDbDimension
  2
*D11
 10
2071.616634805498
 20
2924.484842196542
 30
0.0
 11
1801.616634805498
 21
2964.484842196542
 31
0.0
 70
    32
 71
     5
 42
540.0
  3
SANWA
100
AcDbAlignedDimension
 13
1531.616634805497
 23
2708.945101169249
 33
0.0
 14
2071.616634805498
 24
2708.945101169248
 34
0.0
100
AcDbRotatedDimension
1001
ACAD
1000
DSTYLE
1002
{
1070
    40
1040
20.0
1070
    41
1040
1.5
1070
    43
1040
5.0
1070
    44
1040
0.5
1070
   140
1040
2.0
1070
   147
1040
1.0
1070
   176
1070
   256
1070
   177
1070
   256
1070
   178
1070
   256
1070
   279
1070
     2
1002
}
  0
DIMENSION
  5
AEB6
330
747D
100
AcDbEntity
  8
寸法引出
 48
20.0
100
AcDbDimension
  2
*D12
 10
1601.616634805496
 20
2659.584298428397
 30
0.0
 11
1667.319342506624
 21
2703.285969852908
 31
0.0
 70
   160
 71
     5
 42
11.5
  3
SANWA
100
AcDbAlignedDimension
 13
1590.116634805496
 23
2623.44510116925
 33
0.0
 14
1601.616634805496
 24
2623.44510116925
 34
0.0
100
AcDbRotatedDimension
1001
ACAD
1000
DSTYLE
1002
{
1070
    40
1040
20.0
1070
    41
1040
1.5
1070
    43
1040
5.0
1070
    44
1040
0.5
1070
   140
1040
2.0
1070
   147
1040
1.0
1070
   176
1070
   256
1070
   177
1070
   256
1070
   178
1070
   256
1070
   279
1070
     2
1002
}
  0
DIMENSION
  5
AEDB
330
747D
100
AcDbEntity
  8
寸法引出
 48
20.0
100
AcDbDimension
  2
*D13
 10
1728.69843315356
 20
2615.44510116925
 30
0.0
 11
1688.059303502963
 21
2589.756970858174
 31
0.0
 70
   160
 71
     5
 42
8.0
  3
SANWA
100
AcDbAlignedDimension
 13
1601.616634805496
 23
2623.44510116925
 33
0.0
 14
1601.936634805495
 24
2615.44510116925
 34
0.0
 50
90.0
100
AcDbRotatedDimension
1001
ACAD
1000
DSTYLE
1002
{
1070
    40
1040
20.0
1070
    41
1040
1.5
1070
    43
1040
5.0
1070
    44
1040
0.5
1070
   140
1040
2.0
1070
   147
1040
1.0
1070
   176
1070
   256
1070
   177
1070
   256
1070
   178
1070
   256
1070
   279
1070
     2
1002
}
  0
DIMENSION
  5
AF52
330
747D
100
AcDbEntity
  8
寸法引出
 48
20.0
100
AcDbDimension
  2
*D14
 10
2783.089733091256
 20
1848.445101169249
 30
0.0
 11
2743.089733091256
 21
2280.945101169249
 31
0.0
 70
    32
 71
     5
 42
864.9999999999998
  3
SANWA
100
AcDbAlignedDimension
 13
2911.985379641716
 23
2713.445101169249
 33
0.0
 14
2911.985379641716
 24
1848.445101169249
 34
0.0
 50
90.0
100
AcDbRotatedDimension
1001
ACAD
1000
DSTYLE
1002
{
1070
    40
1040
20.0
1070
    41
1040
1.5
1070
    43
1040
5.0
1070
    44
1040
0.5
1070
   140
1040
2.0
1070
   147
1040
1.0
1070
   176
1070
   256
1070
   177
1070
   256
1070
   178
1070
   256
1070
   279
1070
     2
1002
}
  0
DIMENSION
  5
AF5F
330
747D
100
AcDbEntity
  8
寸法引出
 48
20.0
100
AcDbDimension
  2
*D15
 10
4909.985379641716
 20
2840.029704655177
 30
0.0
 11
3910.985379641715
 21
2880.029704655177
 31
0.0
 70
    32
 71
     5
 42
1998.0
  3
SANWA
100
AcDbAlignedDimension
 13
2911.985379641716
 23
2713.445101169249
 33
0.0
 14
4909.985379641716
 24
2713.445101169249
 34
0.0
100
AcDbRotatedDimension
1001
ACAD
1000
DSTYLE
1002
{
1070
    40
1040
20.0
1070
    41
1040
1.5
1070
    43
1040
5.0
1070
    44
1040
0.5
1070
   140
1040
2.0
1070
   147
1040
1.0
1070
   176
1070
   256
1070
   177
1070
   256
1070
   178
1070
   256
1070
   279
1070
     2
1002
}
  0
DIMENSION
  5
AF89
330
747D
100
AcDbEntity
  8
寸法引出
 48
20.0
100
AcDbDimension
  2
*D16
 10
3870.985379641715
 20
2311.505618466489
 30
0.0
 11
3826.216298135131
 21
2352.186886072463
 31
0.0
 70
   160
 71
     5
 42
9.999999999998181
  3
SANWA
100
AcDbAlignedDimension
 13
3860.985379641716
 23
2235.44510116925
 33
0.0
 14
3870.985379641715
 24
2225.445101169249
 34
0.0
100
AcDbRotatedDimension
1001
ACAD
1000
DSTYLE
1002
{
1070
    40
1040
20.0
1070
    41
1040
1.5
1070
    43
1040
5.0
1070
    44
1040
0.5
1070
   140
1040
2.0
1070
   147
1040
1.0
1070
   176
1070
   256
1070
   177
1070
   256
1070
   178
1070
   256
1070
   279
1070
     2
1002
}
  0
DIMENSION
  5
AF98
330
747D
100
AcDbEntity
  8
寸法引出
 48
20.0
100
AcDbDimension
  2
*D17
 10
3950.985379641715
 20
2311.505618466489
 30
0.0
 11
3910.985379641715
 21
2351.505618466488
 31
0.0
 70
    32
 71
     5
 42
80.0
  3
SANWA
100
AcDbAlignedDimension
 13
3870.985379641715
 23
2225.445101169249
 33
0.0
 14
3950.985379641715
 24
2225.445101169249
 34
0.0
100
AcDbRotatedDimension
1001
ACAD
1000
DSTYLE
1002
{
1070
    40
1040
20.0
1070
    41
1040
1.5
1070
    43
1040
5.0
1070
    44
1040
0.5
1070
   140
1040
2.0
1070
   147
1040
1.0
1070
   176
1070
   256
1070
   177
1070
   256
1070
   178
1070
   256
1070
   279
1070
     2
1002
}
  0
DIMENSION
  5
AFA7
330
747D
100
AcDbEntity
  8
寸法引出
 48
20.0
100
AcDbDimension
  2
*D18
 10
3960.985379641715
 20
2311.505618466489
 30
0.0
 11
3997.078054052865
 21
2353.330511096685
 31
0.0
 70
   160
 71
     5
 42
10.0
  3
SANWA
100
AcDbAlignedDimension
 13
3950.985379641715
 23
2225.445101169249
 33
0.0
 14
3960.985379641715
 24
2235.44510116925
 34
0.0
100
AcDbRotatedDimension
1001
ACAD
1000
DSTYLE
1002
{
1070
    40
1040
20.0
1070
    41
1040
1.5
1070
    43
1040
5.0
1070
    44
1040
0.5
1070
   140
1040
2.0
1070
   147
1040
1.0
1070
   176
1070
   256
1070
   177
1070
   256
1070
   178
1070
   256
1070
   279
1070
     2
1002
}
  0
DIMENSION
  5
B0C9
330
747D
100
AcDbEntity
  8
寸法引出
 48
20.0
100
AcDbDimension
  2
*D19
 10
1629.6166348055
 20
2249.98252563996
 30
0.0
 11
1567.292759372554
 21
2290.861738644049
 31
0.0
 70
   160
 71
     5
 42
75.00000000000091
  3
SANWA
100
AcDbAlignedDimension
 13
1554.616634805499
 23
1923.445101169249
 33
0.0
 14
1629.6166348055
 24
1923.445101169249
 34
0.0
100
AcDbRotatedDimension
1001
ACAD
1000
DSTYLE
1002
{
1070
    40
1040
20.0
1070
    41
1040
1.5
1070
    43
1040
5.0
1070
    44
1040
0.5
1070
   140
1040
2.0
1070
   147
1040
1.0
1070
   176
1070
   256
1070
   177
1070
   256
1070
   178
1070
   256
1070
   279
1070
     2
1002
}
  0
DIMENSION
  5
B0D8
330
747D
100
AcDbEntity
  8
寸法引出
 48
20.0
100
AcDbDimension
  2
*D20
 10
1973.616634805496
 20
2249.98252563996
 30
0.0
 11
1801.616634805498
 21
2289.98252563996
 31
0.0
 70
    32
 71
     5
 42
343.9999999999955
  3
SANWA
100
AcDbAlignedDimension
 13
1629.6166348055
 23
1923.445101169249
 33
0.0
 14
1973.616634805496
 24
1923.445101169249
 34
0.0
100
AcDbRotatedDimension
1001
ACAD
1000
DSTYLE
1002
{
1070
    40
1040
20.0
1070
    41
1040
1.5
1070
    43
1040
5.0
1070
    44
1040
0.5
1070
   140
1040
2.0
1070
   147
1040
1.0
1070
   176
1070
   256
1070
   177
1070
   256
1070
   178
1070
   256
1070
   279
1070
     2
1002
}
  0
MTEXT
  5
B127
330
747D
100
AcDbEntity
  8
寸法引出
 48
20.0
100
AcDbMText
 10
1746.553652151412
 20
2099.01544651515
 30
0.0
 40
39.99999999999997
 41
0.0
 71
     5
 72
     1
  1
50r
  7
SANWA
 73
     1
 44
1.0
1001
ACAD
1000
MTEXTBEGIN
1070
    73
1070
     1
1070
    44
1040
1.0
1070
    74
1070
     0
1000
MTEXTEND
  0
LEADER
  5
B128
330
747D
100
AcDbEntity
  8
寸法引出
 48
20.0
100
AcDbLeader
  3
SANWA
 76
     3
 10
1636.957481518407
 20
1963.266973163256
 30
0.0
 10
1693.521303898874
 20
2070.360466911286
 30
0.0
 10
1787.782318938495
 20
2070.360466911286
 30
0.0
1001
ACAD
1000
DSTYLE
1002
{
1070
    77
1070
     0
1070
    40
1040
20.0
1070
    41
1040
1.5
1070
    43
1040
5.0
1070
    44
1040
0.5
1070
   140
1040
2.0
1070
   147
1040
1.0
1070
   176
1070
   256
1070
   177
1070
   256
1070
   178
1070
   256
1070
   279
1070
     2
1002
}
  0
MTEXT
  5
B129
330
747D
100
AcDbEntity
  8
寸法引出
 48
20.0
100
AcDbMText
 10
1840.621557814844
 20
2048.621427622256
 30
0.0
 40
39.99999999999997
 41
0.0
 71
     5
 72
     1
  1
450r
  7
SANWA
 73
     1
 44
1.0
1001
ACAD
1000
MTEXTBEGIN
1070
    73
1070
     1
1070
    44
1040
1.0
1070
    74
1070
     0
1000
MTEXTEND
  0
LEADER
  5
B12A
330
747D
100
AcDbEntity
  8
寸法引出
 48
20.0
100
AcDbLeader
  3
SANWA
 76
     3
 10
1720.522339995927
 20
1930.812391861252
 30
0.0
 10
1770.706103272669
 20
2017.15010265393
 30
0.0
 10
1897.779050623969
 20
2017.15010265393
 30
0.0
1001
ACAD
1000
DSTYLE
1002
{
1070
    77
1070
     0
1070
    40
1040
20.0
1070
    41
1040
1.5
1070
    43
1040
5.0
1070
    44
1040
0.5
1070
   140
1040
2.0
1070
   147
1040
1.0
1070
   176
1070
   256
1070
   177
1070
   256
1070
   178
1070
   256
1070
   279
1070
     2
1002
}
  0
MTEXT
  5
B12B
330
747D
100
AcDbEntity
  8
寸法引出
 48
20.0
100
AcDbMText
 10
2229.656987603774
 20
2826.827780112787
 30
0.0
 40
39.99999999999997
 41
0.0
 71
     5
 72
     1
  1
4.5C
  7
SANWA
 73
     1
 44
1.0
1001
ACAD
1000
MTEXTBEGIN
1070
    73
1070
     1
1070
    44
1040
1.0
1070
    74
1070
     0
1000
MTEXTEND
  0
LEADER
  5
B12C
330
747D
100
AcDbEntity
  8
寸法引出
 48
20.0
100
AcDbLeader
  3
SANWA
 76
     3
 10
2069.366634805497
 20
2711.195101169249
 30
0.0
 10
2164.368620231789
 20
2799.689651932148
 30
0.0
 10
2289.866998665721
 20
2799.689651932148
 30
0.0
1001
ACAD
1000
DSTYLE
1002
{
1070
    77
1070
     0
1070
    40
1040
20.0
1070
    41
1040
1.5
1070
    43
1040
5.0
1070
    44
1040
0.5
1070
   140
1040
2.0
1070
   147
1040
1.0
1070
   176
1070
   256
1070
   177
1070
   256
1070
   178
1070
   256
1070
   279
1070
     2
1002
}
  0
MTEXT
  5
B12D
330
747D
100
AcDbEntity
  8
寸法引出
 48
20.0
100
AcDbMText
 10
2200.781183849951
 20
1775.350970216855
 30
0.0
 40
39.99999999999997
 41
0.0
 71
     5
 72
     1
  1
20C
  7
SANWA
 73
     1
 44
1.0
1001
ACAD
1000
MTEXTBEGIN
1070
    73
1070
     1
1070
    44
1040
1.0
1070
    74
1070
     0
1000
MTEXTEND
  0
LEADER
  5
B12E
330
747D
100
AcDbEntity
  8
寸法引出
 48
20.0
100
AcDbLeader
  3
SANWA
 76
     3
 10
2036.480920519785
 20
1858.44510116925
 30
0.0
 10
2130.567872895535
 20
1747.074344303036
 30
0.0
 10
2250.804920067192
 20
1747.074344303036
 30
0.0
1001
ACAD
1000
DSTYLE
1002
{
1070
    77
1070
     0
1070
    40
1040
20.0
1070
    41
1040
1.5
1070
    43
1040
5.0
1070
    44
1040
0.5
1070
   140
1040
2.0
1070
   147
1040
1.0
1070
   176
1070
   256
1070
   177
1070
   256
1070
   178
1070
   256
1070
   279
1070
     2
1002
}
  0
LINE
  5
B13E
330
747D
100
AcDbEntity
  8
0
 48
20.0
100
AcDbLine
 10
1556.423777662644
 20
1868.44510116925
 30
0.0
 11
1577.080920519786
 21
1848.44510116925
 31
0.0
  0
LINE
  5
B148
330
747D
100
AcDbEntity
  8
0
 48
20.0
100
AcDbLine
 10
2026.152349091214
 20
1848.44510116925
 30
0.0
 11
2046.809491948357
 21
1868.445101169249
 31
0.0
  0
DIMENSION
  5
B16F
330
747D
100
AcDbEntity
  8
寸法引出
 48
20.0
100
AcDbDimension
  2
*D21
 10
1423.447313636254
 20
2623.44510116925
 30
0.0
 11
1383.447313636253
 21
2668.44510116925
 31
0.0
 70
    32
 71
     5
 42
89.99999999999909
  3
SANWA
100
AcDbAlignedDimension
 13
1536.116634805497
 23
2713.445101169249
 33
0.0
 14
1531.616634805497
 24
2623.44510116925
 34
0.0
 50
90.0
100
AcDbRotatedDimension
1001
ACAD
1000
DSTYLE
1002
{
1070
    40
1040
20.0
1070
    41
1040
1.5
1070
    43
1040
5.0
1070
    44
1040
0.5
1070
   140
1040
2.0
1070
   147
1040
1.0
1070
   176
1070
   256
1070
   177
1070
   256
1070
   178
1070
   256
1070
   279
1070
     2
1002
}
  0
DIMENSION
  5
B17E
330
747D
100
AcDbEntity
  8
寸法引出
 48
20.0
100
AcDbDimension
  2
*D22
 10
1423.447313636254
 20
1923.445101169249
 30
0.0
 11
1383.447313636254
 21
2273.44510116925
 31
0.0
 70
    32
 71
     5
 42
700.0000000000004
  3
SANWA
100
AcDbAlignedDimension
 13
1531.616634805497
 23
2623.44510116925
 33
0.0
 14
1554.6166348055
 24
1923.445101169249
 34
0.0
 50
90.0
100
AcDbRotatedDimension
1001
ACAD
1000
DSTYLE
1002
{
1070
    40
1040
20.0
1070
    41
1040
1.5
1070
    43
1040
5.0
1070
    44
1040
0.5
1070
   140
1040
2.0
1070
   147
1040
1.0
1070
   176
1070
   256
1070
   177
1070
   256
1070
   178
1070
   256
1070
   279
1070
     2
1002
}
  0
DIMENSION
  5
B18B
330
747D
100
AcDbEntity
  8
寸法引出
 48
20.0
100
AcDbDimension
  2
*D23
 10
1423.447313636254
 20
1848.44510116925
 30
0.0
 11
1383.447313636254
 21
1885.94510116925
 31
0.0
 70
    32
 71
     5
 42
74.99999999999954
  3
SANWA
100
AcDbAlignedDimension
 13
1554.6166348055
 23
1923.445101169249
 33
0.0
 14
1577.080920519786
 24
1848.44510116925
 34
0.0
 50
90.0
100
AcDbRotatedDimension
1001
ACAD
1000
DSTYLE
1002
{
1070
    40
1040
20.0
1070
    41
1040
1.5
1070
    43
1040
5.0
1070
    44
1040
0.5
1070
   140
1040
2.0
1070
   147
1040
1.0
1070
   176
1070
   256
1070
   177
1070
   256
1070
   178
1070
   256
1070
   279
1070
     2
1002
}
  0
DIMENSION
  5
B19A
330
747D
100
AcDbEntity
  8
寸法引出
 48
20.0
100
AcDbDimension
  2
*D24
 10
1332.156494337119
 20
1848.44510116925
 30
0.0
 11
1292.156494337119
 21
2280.94510116925
 31
0.0
 70
    32
 71
     5
 42
864.9999999999991
  3
SANWA
100
AcDbAlignedDimension
 13
1536.116634805497
 23
2713.445101169249
 33
0.0
 14
1577.080920519786
 24
1848.44510116925
 34
0.0
 50
90.0
100
AcDbRotatedDimension
1001
ACAD
1000
DSTYLE
1002
{
1070
    40
1040
20.0
1070
    41
1040
1.5
1070
    43
1040
5.0
1070
    44
1040
0.5
1070
   140
1040
2.0
1070
   147
1040
1.0
1070
   176
1070
   256
1070
   177
1070
   256
1070
   178
1070
   256
1070
   279
1070
     2
1002
}
  0
MTEXT
  5
B73F
330
747D
100
AcDbEntity
  8
寸法引出
 48
20.0
100
AcDbMText
 10
4522.306501138449
 20
1792.378040898643
 30
0.0
 40
39.99999999999997
 41
0.0
 71
     5
 72
     1
  1
吊り用ｲﾝﾊﾞｰﾄﾊﾝｶﾞｰ (20×65-70)
  7
SANWA
 73
     1
 44
1.0
1001
ACAD
1000
MTEXTBEGIN
1070
    73
1070
     1
1070
    44
1040
1.0
1070
    74
1070
     0
1000
MTEXTEND
  0
LEADER
  5
B740
330
747D
100
AcDbEntity
  8
寸法引出
 48
20.0
100
AcDbLeader
  3
SANWA
 76
     3
 10
3910.985379641715
 20
2175.445101169249
 30
0.0
 10
4082.485772432769
 20
1751.419377631188
 30
0.0
 10
4943.092059350409
 20
1751.419377631188
 30
0.0
1001
ACAD
1000
DSTYLE
1002
{
1070
    77
1070
     0
1070
    40
1040
20.0
1070
    41
1040
1.5
1070
    43
1040
5.0
1070
    44
1040
0.5
1070
   140
1040
2.0
1070
   147
1040
1.0
1070
   176
1070
   256
1070
   177
1070
   256
1070
   178
1070
   256
1070
   279
1070
     2
1002
}
  0
DIMENSION
  5
BB7E
330
747D
100
AcDbEntity
  8
寸法引出
 48
20.0
100
AcDbDimension
  2
*D29
 10
5048.570132666675
 20
2185.445101169249
 30
0.0
 11
5008.570132666674
 21
2016.94510116925
 31
0.0
 70
    32
 71
     5
 42
336.9999999999998
  3
SANWA
100
AcDbAlignedDimension
 13
4909.985379641716
 23
1848.445101169249
 33
0.0
 14
4909.985379641716
 24
2185.445101169249
 34
0.0
 50
90.0
100
AcDbRotatedDimension
1001
ACAD
1000
DSTYLE
1002
{
1070
    40
1040
20.0
1070
    41
1040
1.5
1070
    43
1040
5.0
1070
    44
1040
0.5
1070
   140
1040
2.0
1070
   147
1040
1.0
1070
   176
1070
   256
1070
   177
1070
   256
1070
   178
1070
   256
1070
   279
1070
     2
1002
}
  0
DIMENSION
  5
BB8B
330
747D
100
AcDbEntity
  8
寸法引出
 48
20.0
100
AcDbDimension
  2
*D30
 10
5048.570132666675
 20
2713.445101169249
 30
0.0
 11
5008.570132666674
 21
2449.44510116925
 31
0.0
 70
    32
 71
     5
 42
528.0
  3
SANWA
100
AcDbAlignedDimension
 13
4909.985379641716
 23
2185.445101169249
 33
0.0
 14
4909.985379641716
 24
2713.445101169249
 34
0.0
 50
90.0
100
AcDbRotatedDimension
1001
ACAD
1000
DSTYLE
1002
{
1070
    40
1040
20.0
1070
    41
1040
1.5
1070
    43
1040
5.0
1070
    44
1040
0.5
1070
   140
1040
2.0
1070
   147
1040
1.0
1070
   176
1070
   256
1070
   177
1070
   256
1070
   178
1070
   256
1070
   279
1070
     2
1002
}
  0
LINE
  5
BB9C
330
747D
100
AcDbEntity
  8
0
  6
HIDDEN2
 48
20.0
100
AcDbLine
 10
2055.582349091215
 20
2135.445101169249
 30
0.0
 11
2055.582349091215
 21
2225.445101169249
 31
0.0
  0
LINE
  5
BB9D
330
747D
100
AcDbEntity
  8
0
  6
HIDDEN2
 48
20.0
100
AcDbLine
 10
2055.582349091215
 20
2225.445101169249
 30
0.0
 11
2058.868063376929
 21
2235.44510116925
 31
0.0
  0
LINE
  5
BB9E
330
747D
100
AcDbEntity
  8
0
  6
HIDDEN2
 48
20.0
100
AcDbLine
 10
2055.582349091215
 20
2175.445101169248
 30
0.0
 11
1983.696634805497
 21
2175.445101169248
 31
0.0
  0
LINE
  5
BB9F
330
747D
100
AcDbEntity
  8
0
  6
HIDDEN2
 48
20.0
100
AcDbLine
 10
2055.582349091215
 20
2195.445101169249
 30
0.0
 11
1984.496634805497
 21
2195.445101169248
 31
0.0
  0
LINE
  5
BBB8
330
747D
100
AcDbEntity
  8
0
  6
HIDDEN2
 48
20.0
100
AcDbLine
 10
1547.650920519783
 20
2135.445101169249
 30
0.0
 11
1547.650920519783
 21
2225.445101169249
 31
0.0
  0
LINE
  5
BBB9
330
747D
100
AcDbEntity
  8
0
  6
HIDDEN2
 48
20.0
100
AcDbLine
 10
1547.650920519783
 20
2225.445101169249
 30
0.0
 11
1544.365206234069
 21
2235.44510116925
 31
0.0
  0
LINE
  5
BBBA
330
747D
100
AcDbEntity
  8
0
  6
HIDDEN2
 48
20.0
100
AcDbLine
 10
1547.650920519783
 20
2175.445101169248
 30
0.0
 11
1619.536634805501
 21
2175.445101169248
 31
0.0
  0
LINE
  5
BBBB
330
747D
100
AcDbEntity
  8
0
  6
HIDDEN2
 48
20.0
100
AcDbLine
 10
1547.650920519783
 20
2195.445101169249
 30
0.0
 11
1618.736634805501
 21
2195.445101169248
 31
0.0
  0
VIEWPORT
  5
7540
102
{ACAD_XDICTIONARY
360
BDF6
102
}
330
747A
100
AcDbEntity
 67
     1
  8
0
100
AcDbViewport
 10
2878.243789599006
 20
970.3639114717196
 30
0.0
 40
6257.342359533289
 41
4285.736489239756
 68
     1
 69
     1
 12
2878.243789599006
 22
970.3639114717196
 13
0.0
 23
0.0
 14
10.0
 24
10.0
 15
10.0
 25
10.0
 16
0.0
 26
0.0
 36
1.0
 17
0.0
 27
0.0
 37
0.0
 42
50.0
 43
0.0
 44
0.0
 45
4285.736489239756
 50
0.0
 51
0.0
 72
   100
 90
    32800
  1

281
     0
 71
     1
 74
     0
110
0.0
120
0.0
130
0.0
111
1.0
121
0.0
131
0.0
112
0.0
122
1.0
132
0.0
 79
     0
146
0.0
  0
TEXT
  5
7737
330
747A
100
AcDbEntity
 67
     1
  8
0
 48
2.0
100
AcDbText
 10
331.871196811185
 20
20.60428158404022
 30
0.0
 40
2.0
  1

  7
SANWA
100
AcDbText
  0
ENDSEC
  0
SECTION
  2
OBJECTS
  0
DICTIONARY
  5
7471
330
0
100
AcDbDictionary
281
     1
  3
ACAD_COLOR
350
A7A4
  3
ACAD_GROUP
350
7472
  3
ACAD_LAYOUT
350
7F6B
  3
ACAD_MATERIAL
350
A77A
  3
ACAD_MLEADERSTYLE
350
A7C9
  3
ACAD_MLINESTYLE
350
7473
  3
ACAD_PLOTSETTINGS
350
7F6C
  3
ACAD_PLOTSTYLENAME
350
7F69
  3
ACAD_SCALELIST
350
A7A7
  3
ACAD_TABLESTYLE
350
A7A5
  3
ACAD_VISUALSTYLE
350
A793
  3
AcadDim
350
A45F
  3
ACDB_RECOMPOSE_DATA
350
BB37
  3
ACDBVARIABLEDICTIONARY
350
789B
  3
ASE_INDEX_DICTIONARY
350
A764
  3
DWGPROPS
350
BDF5
  0
DICTIONARY
  5
A7D3
330
7474
100
AcDbDictionary
280
     1
281
     1
  3
ADSK_XREC_LAYER_RECONCILED
360
A7D4
  0
DICTIONARY
  5
A7D5
330
7486
100
AcDbDictionary
280
     1
281
     1
  3
ADSK_XREC_LAYER_RECONCILED
360
A7D6
  0
DICTIONARY
  5
A7D7
330
7950
100
AcDbDictionary
280
     1
281
     1
  3
ADSK_XREC_LAYER_RECONCILED
360
A7D8
  0
DICTIONARY
  5
A7D9
330
7D58
100
AcDbDictionary
280
     1
281
     1
  3
ADSK_XREC_LAYER_RECONCILED
360
A7DA
  0
DICTIONARY
  5
A7DB
330
7D59
100
AcDbDictionary
280
     1
281
     1
  3
ADSK_XREC_LAYER_RECONCILED
360
A7DC
  0
DICTIONARY
  5
A7DD
330
7D5A
100
AcDbDictionary
280
     1
281
     1
  3
ADSK_XREC_LAYER_RECONCILED
360
A7DE
  0
DICTIONARY
  5
A9D0
330
747D
100
AcDbDictionary
280
     1
281
     1
  3
ACAD_SORTENTS
360
A9D1
  0
DICTIONARY
  5
BDF6
330
7540
100
AcDbDictionary
280
     1
281
     1
  3
ACAD_XREC_ROUNDTRIP
360
BDF7
  0
DICTIONARY
  5
A7A4
102
{ACAD_REACTORS
330
7471
102
}
330
7471
100
AcDbDictionary
281
     1
  0
DICTIONARY
  5
7472
102
{ACAD_REACTORS
330
7471
102
}
330
0
100
AcDbDictionary
281
     1
  0
DICTIONARY
  5
7F6B
102
{ACAD_REACTORS
330
7471
102
}
330
7471
100
AcDbDictionary
281
     1
  3
Model
350
7F6D
  3
ﾚｲｱｳﾄ1
350
7F6E
  0
DICTIONARY
  5
A77A
102
{ACAD_REACTORS
330
7471
102
}
330
7471
100
AcDbDictionary
281
     1
  3
ByBlock
350
A783
  3
ByLayer
350
A77B
  3
Global
350
A78B
  0
DICTIONARY
  5
A7C9
102
{ACAD_REACTORS
330
7471
102
}
330
7471
100
AcDbDictionary
281
     1
  3
Standard
350
A7CA
  0
DICTIONARY
  5
7473
102
{ACAD_REACTORS
330
7471
102
}
330
0
100
AcDbDictionary
281
     1
  3
STANDARD
350
7480
  0
DICTIONARY
  5
7F6C
102
{ACAD_REACTORS
330
7471
102
}
330
7471
100
AcDbDictionary
281
     1
  0
ACDBDICTIONARYWDFLT
  5
7F69
102
{ACAD_REACTORS
330
7471
102
}
330
7471
100
AcDbDictionary
281
     1
  3
Normal
350
7F6A
100
AcDbDictionaryWithDefault
340
7F6A
  0
DICTIONARY
  5
A7A7
102
{ACAD_REACTORS
330
7471
102
}
330
7471
100
AcDbDictionary
281
     1
  3
A0
350
A7A8
  3
A1
350
A7A9
  3
A2
350
A7AA
  3
A3
350
A7AB
  3
A4
350
A7AC
  3
A5
350
A7AD
  3
A6
350
A7AE
  3
A7
350
A7AF
  3
A8
350
A7B0
  3
A9
350
A7B1
  3
B0
350
A7B2
  3
B1
350
A7B3
  3
B2
350
A7B4
  3
B3
350
A7B5
  3
B4
350
A7B6
  3
B5
350
A7B7
  3
B6
350
A7B8
  3
B7
350
A7B9
  3
B8
350
A7BA
  3
B9
350
A7BB
  3
C0
350
A7BC
  3
C1
350
A7BD
  3
C2
350
A7BE
  3
C3
350
A7BF
  3
C4
350
A7C0
  3
C5
350
A7C1
  3
C6
350
A7C2
  3
C7
350
A7C3
  3
C8
350
A7C4
  3
C9
350
A7C5
  3
D0
350
A7C6
  3
D1
350
A7C7
  3
D2
350
A7C8
  0
DICTIONARY
  5
A7A5
102
{ACAD_REACTORS
330
7471
102
}
330
7471
100
AcDbDictionary
281
     1
  3
Standard
350
A7A6
  0
DICTIONARY
  5
A793
102
{ACAD_REACTORS
330
7471
102
}
330
7471
100
AcDbDictionary
281
     1
  3
2dWireframe
350
A799
  3
3D Hidden
350
A79B
  3
3dWireframe
350
A79A
  3
Basic
350
A798
  3
Brighten
350
A79F
  3
ColorChange
350
A7A3
  3
Conceptual
350
A79C
  3
Dim
350
A79E
  3
Facepattern
350
A7A2
  3
Flat
350
A794
  3
FlatWithEdges
350
A795
  3
Gouraud
350
A796
  3
GouraudWithEdges
350
A797
  3
Linepattern
350
A7A1
  3
Realistic
350
A79D
  3
Thicken
350
A7A0
  0
XRECORD
  5
A45F
102
{ACAD_REACTORS
330
7471
102
}
330
7471
100
AcDbXrecord
280
     1
 90
   990106
  3

 60
     4
 61
     0
 62
     1
 63
     3
 64
     0
 65
     0
 66
     0
 67
     3
 68
     1
 69
     0
 70
     0
 71
     0
 72
     0
 40
0.0
170
     0
  0
XRECORD
  5
BB37
102
{ACAD_REACTORS
330
7471
102
}
330
7471
100
AcDbXrecord
280
     1
 90
        1
330
A7A6
  0
DICTIONARY
  5
789B
102
{ACAD_REACTORS
330
7471
102
}
330
7471
100
AcDbDictionary
281
     1
  3
CANNOSCALE
350
BB3B
  3
CMLEADERSTYLE
350
BB39
  3
CTABLESTYLE
350
BB38
  3
DIMASSOC
350
7F75
  3
INDEXCTL
350
BDF3
  3
LIGHTINGUNITS
350
BB3C
  3
MSLTSCALE
350
BB3A
  3
SORTENTS
350
789C
  0
DICTIONARY
  5
A764
102
{ACAD_REACTORS
330
7471
102
}
330
7471
100
AcDbDictionary
281
     1
  3
ASEBlockHierarchyIndexRecord
350
A766
1001
DCO15
1040
1551433742.562
  0
XRECORD
  5
BDF5
102
{ACAD_REACTORS
330
7471
102
}
330
7471
100
AcDbXrecord
280
     1
  1
DWGPROPS COOKIE
  2

  3

  4

  6

  7

  8
ooshima
  9

300
=
301
=
302
=
303
=
304
=
305
=
306
=
307
=
308
=
309
=
 40
1.016205567129629
 41
2451806.361679283
 42
2454849.378807165
  1

 90
        0
  0
XRECORD
  5
A7D4
102
{ACAD_REACTORS
330
A7D3
102
}
330
A7D3
100
AcDbXrecord
280
     1
290
     1
  0
XRECORD
  5
A7D6
102
{ACAD_REACTORS
330
A7D5
102
}
330
A7D5
100
AcDbXrecord
280
     1
290
     1
  0
XRECORD
  5
A7D8
102
{ACAD_REACTORS
330
A7D7
102
}
330
A7D7
100
AcDbXrecord
280
     1
290
     1
  0
XRECORD
  5
A7DA
102
{ACAD_REACTORS
330
A7D9
102
}
330
A7D9
100
AcDbXrecord
280
     1
290
     1
  0
XRECORD
  5
A7DC
102
{ACAD_REACTORS
330
A7DB
102
}
330
A7DB
100
AcDbXrecord
280
     1
290
     1
  0
XRECORD
  5
A7DE
102
{ACAD_REACTORS
330
A7DD
102
}
330
A7DD
100
AcDbXrecord
280
     1
290
     1
  0
SORTENTSTABLE
  5
A9D1
102
{ACAD_REACTORS
330
A9D0
102
}
330
A9D0
100
AcDbSortentsTable
330
747D
331
AA98
  5
AA98
331
AA59
  5
AA59
331
AA61
  5
AA61
331
AB8F
  5
AB91
331
AB58
  5
AB58
331
AA69
  5
AA69
331
B12B
  5
B12C
331
B19A
  5
B390
331
AB60
  5
AB60
331
AA71
  5
AA71
331
AB9F
  5
ABA4
331
9200
  5
9200
331
925F
  5
925F
331
AA2C
  5
AA2C
331
AA34
  5
AA34
331
928F
  5
928F
331
AA3C
  5
AA3C
331
AA81
  5
AA81
331
AB78
  5
AB7A
331
AB80
  5
AB82
331
AA89
  5
AA89
331
AA91
  5
AA91
331
AA44
  5
AA44
331
9250
  5
9250
331
AA4C
  5
AA4C
331
AA54
  5
AA54
331
AA5A
  5
AA5A
331
AA99
  5
AA99
331
AE0F
  5
AE24
331
AB90
  5
AB9F
331
AA62
  5
AA62
331
B18B
  5
B19A
331
AEA6
  5
AEDB
331
AB59
  5
AB59
331
AA6A
  5
AA6A
331
B12C
  5
B12D
331
AB61
  5
AB61
331
AA72
  5
AA72
331
9201
  5
9201
331
AEB6
  5
AF4E
331
AA2D
  5
AA2D
331
AA35
  5
AA35
331
AA3D
  5
AA3D
331
ABA8
  5
ABAD
331
AB79
  5
AB7B
331
9241
  5
9241
331
AA8A
  5
AA8A
331
AB81
  5
AB83
331
AA45
  5
AA45
331
AE4F
  5
AEB6
331
AA92
  5
AA92
331
AA4D
  5
AA4D
331
AA55
  5
AA55
331
AA5B
  5
AA5B
331
AA9A
  5
AA9A
331
AB91
  5
ABA3
331
AA63
  5
AA63
331
AE10
  5
AE0B
331
B12D
  5
B12E
331
91FA
  5
91FA
331
AA6B
  5
AA6B
331
AB5A
  5
AB5A
331
9202
  5
9202
331
AB62
  5
AB62
331
AA73
  5
AA73
331
AA2E
  5
AA2E
331
AA36
  5
AA36
331
AA3E
  5
AA3E
331
ABA9
  5
ABAE
331
AB72
  5
AB76
331
ABB1
  5
AE04
331
AA83
  5
AA83
331
AB7A
  5
AB7C
331
AB82
  5
AB84
331
AA8B
  5
AA8B
331
AA46
  5
AA46
331
AA93
  5
AA93
331
AA4E
  5
AA4E
331
AF5F
  5
AF89
331
AA56
  5
AA56
331
AA5C
  5
AA5C
331
AA9B
  5
AA9B
331
AE09
  5
AE11
331
AE11
  5
AE0F
331
AA64
  5
AA64
331
B12E
  5
B13E
331
91FB
  5
91FB
331
AB5B
  5
AB5B
331
AA6C
  5
AA6C
331
B13E
  5
B148
331
AB63
  5
AB65
331
AA74
  5
AA74
331
AA2F
  5
AA2F
331
AFA7
  5
B039
331
AA37
  5
AA37
331
AA3F
  5
AA3F
331
AB73
  5
AB77
331
AA84
  5
AA84
331
AB7B
  5
AB7D
331
AB83
  5
AB90
331
AA8C
  5
AA8C
331
B17E
  5
B18B
331
AA47
  5
AA47
331
AA94
  5
AA94
331
AA4F
  5
AA4F
331
91F4
  5
91F4
331
AA57
  5
AA57
331
AA5D
  5
AA5D
331
AA9C
  5
AA9C
331
AE0A
  5
AE09
331
AA65
  5
AA65
331
B127
  5
B128
331
91FC
  5
91FC
331
AB5C
  5
AB5C
331
AA6D
  5
AA6D
331
AF98
  5
AFA7
331
ABA3
  5
ABA8
331
AB64
  5
AB66
331
AA75
  5
AA75
331
AA30
  5
AA30
331
AA38
  5
AA38
331
AA7D
  5
AA7D
331
AA85
  5
AA85
331
AB7C
  5
AB7E
331
AE42
  5
AEA6
331
B16F
  5
B17E
331
AA40
  5
AA40
331
AA8D
  5
AA8D
331
B0D8
  5
B127
331
AA48
  5
AA48
331
AE03
  5
AE05
331
AA95
  5
AA95
331
AA50
  5
AA50
331
92EB
  5
92EB
331
AA5E
  5
AA5E
331
AE0B
  5
AE0D
331
AF89
  5
AF98
331
AA66
  5
AA66
331
B128
  5
B129
331
91FD
  5
91FD
331
AB5D
  5
AB5D
331
AA6E
  5
AA6E
331
ABA4
  5
ABA9
331
AB65
  5
AB72
331
AA76
  5
AA76
331
B148
  5
B16F
331
AA31
  5
AA31
331
AA39
  5
AA39
331
AE33
  5
AE4F
331
AA7E
  5
AA7E
331
AB7D
  5
AB7F
331
AA86
  5
AA86
331
B0C9
  5
B0D8
331
AA41
  5
AA41
331
AF52
  5
AF5F
331
AA8E
  5
AA8E
331
AA49
  5
AA49
331
B73F
  5
B740
331
AE04
  5
AE10
331
AA96
  5
AA96
331
AA51
  5
AA51
331
AE0C
  5
AE15
331
AA5F
  5
AA5F
331
AA67
  5
AA67
331
B129
  5
B12A
331
91FE
  5
91FE
331
AB5E
  5
AB5E
331
AA6F
  5
AA6F
331
AE24
  5
AE42
331
AB66
  5
AB73
331
AA32
  5
AA32
331
AA3A
  5
AA3A
331
ABAD
  5
ABB1
331
AB76
  5
AB78
331
AA7F
  5
AA7F
331
AEDB
  5
AF52
331
AA87
  5
AA87
331
AB7E
  5
AB80
331
AA42
  5
AA42
331
AA8F
  5
AA8F
331
AA4A
  5
AA4A
331
AE05
  5
AE0C
331
AA97
  5
AA97
331
AA52
  5
AA52
331
91F7
  5
91F7
331
B740
  5
B759
331
AA58
  5
AA58
331
AE0D
  5
AE0A
331
AA60
  5
AA60
331
AE15
  5
AE33
331
AA68
  5
AA68
331
AB57
  5
AB57
331
B12A
  5
B12B
331
91FF
  5
91FF
331
AA70
  5
AA70
331
AB5F
  5
AB5F
331
AA33
  5
AA33
331
AA3B
  5
AA3B
331
ABAE
  5
AE03
331
AA80
  5
AA80
331
AB77
  5
AB79
331
AB7F
  5
AB81
331
AA88
  5
AA88
331
AA43
  5
AA43
331
AA90
  5
AA90
331
AA4B
  5
AA4B
331
AA53
  5
AA53
  0
XRECORD
  5
BDF7
102
{ACAD_REACTORS
330
BDF6
102
}
330
BDF6
100
AcDbXrecord
280
     1
102
SHADEPLOT
 70
     0
  0
LAYOUT
  5
7F6D
102
{ACAD_XDICTIONARY
360
BDF8
102
}
102
{ACAD_REACTORS
330
7F6B
102
}
330
7F6B
100
AcDbPlotSettings
  1

  2
DocuPrint 205
  4
A4
  6

 40
4.900083065032958
 41
4.900057315826416
 42
4.90008544921875
 43
4.90008544921875
 44
210.0156707763672
 45
297.0106506347656
 46
5.107751131057739
 47
12.60525393486023
 48
1061.222155886495
 49
200.0
140
6301.222155886495
141
4000.0
142
1.0
143
20.0
 70
 11940
 72
     1
 73
     1
 74
     4
  7
sanwa3.ctb
 75
     0
147
0.0666666666666667
148
-1061.222155886495
149
-200.0
100
AcDbLayout
  1
Model
 70
     1
 71
     0
 10
0.0
 20
0.0
 11
12.0
 21
9.0
 12
0.0
 22
0.0
 32
0.0
 14
0.0
 24
0.0
 34
0.0
 15
0.0
 25
0.0
 35
0.0
146
0.0
 13
0.0
 23
0.0
 33
0.0
 16
1.0
 26
0.0
 36
0.0
 17
0.0
 27
1.0
 37
0.0
 76
     0
330
747D
331
A778
1001
ACAD_PSEXT
1000
DocuPrint 205
1000
FX DocuPrint 205
1000
172.16.8.101
1000

1070
     0
  0
LAYOUT
  5
7F6E
102
{ACAD_XDICTIONARY
360
BDFA
102
}
102
{ACAD_REACTORS
330
7F6B
102
}
330
7F6B
100
AcDbPlotSettings
  1

  2
RICOH NX-510
  4
A4
  6

 40
5.873749732971191
 41
4.92125654220581
 42
7.588241577148437
 43
5.81024169921875
 44
209.9944915771484
 45
296.989501953125
 46
0.0
 47
0.0
 48
0.0
 49
0.0
140
0.0
141
0.0
142
1.0
143
20.17331812743451
 70
   688
 72
     1
 73
     1
 74
     1
  7
sanwa3.ctb
 75
     0
147
0.0495704273180553
148
0.1762079097297828
149
1029.28590836146
100
AcDbLayout
  1
ﾚｲｱｳﾄ1
 70
     1
 71
     1
 10
-117.3880621053553
 20
-1147.778930325621
 11
5873.875641303368
 21
3088.506753269061
 12
0.0
 22
0.0
 32
0.0
 14
1.000000000000000E+20
 24
1.000000000000000E+20
 34
1.000000000000000E+20
 15
-1.000000000000000E+20
 25
-1.000000000000000E+20
 35
-1.000000000000000E+20
146
0.0
 13
0.0
 23
0.0
 33
0.0
 16
1.0
 26
0.0
 36
0.0
 17
0.0
 27
1.0
 37
0.0
 76
     0
330
747A
331
7540
  0
MATERIAL
  5
A783
102
{ACAD_XDICTIONARY
360
A784
102
}
102
{ACAD_REACTORS
330
A77A
102
}
330
A77A
100
AcDbMaterial
  1
ByBlock
 72
     0
 43
0.0208333333333333
 43
0.0
 43
0.0
 43
0.0
 43
0.0
 43
0.0208333333333333
 43
0.0
 43
0.0
 43
0.0
 43
0.0
 43
1.0
 43
0.0
 43
0.0
 43
0.0
 43
0.0
 43
1.0
 77
     0
 47
0.0208333333333333
 47
0.0
 47
0.0
 47
0.0
 47
0.0
 47
0.0208333333333333
 47
0.0
 47
0.0
 47
0.0
 47
0.0
 47
1.0
 47
0.0
 47
0.0
 47
0.0
 47
0.0
 47
1.0
171
     0
 49
0.0208333333333333
 49
0.0
 49
0.0
 49
0.0
 49
0.0
 49
0.0208333333333333
 49
0.0
 49
0.0
 49
0.0
 49
0.0
 49
1.0
 49
0.0
 49
0.0
 49
0.0
 49
0.0
 49
1.0
175
     0
142
0.0208333333333333
142
0.0
142
0.0
142
0.0
142
0.0
142
0.0208333333333333
142
0.0
142
0.0
142
0.0
142
0.0
142
1.0
142
0.0
142
0.0
142
0.0
142
0.0
142
1.0
179
     0
144
0.0208333333333333
144
0.0
144
0.0
144
0.0
144
0.0
144
0.0208333333333333
144
0.0
144
0.0
144
0.0
144
0.0
144
1.0
144
0.0
144
0.0
144
0.0
144
0.0
144
1.0
147
0.0208333333333333
147
0.0
147
0.0
147
0.0
147
0.0
147
0.0208333333333333
147
0.0
147
0.0
147
0.0
147
0.0
147
1.0
147
0.0
147
0.0
147
0.0
147
0.0
147
1.0
  0
MATERIAL
  5
A77B
102
{ACAD_XDICTIONARY
360
A77C
102
}
102
{ACAD_REACTORS
330
A77A
102
}
330
A77A
100
AcDbMaterial
  1
ByLayer
 72
     0
 43
0.0208333333333333
 43
0.0
 43
0.0
 43
0.0
 43
0.0
 43
0.0208333333333333
 43
0.0
 43
0.0
 43
0.0
 43
0.0
 43
1.0
 43
0.0
 43
0.0
 43
0.0
 43
0.0
 43
1.0
 77
     0
 47
0.0208333333333333
 47
0.0
 47
0.0
 47
0.0
 47
0.0
 47
0.0208333333333333
 47
0.0
 47
0.0
 47
0.0
 47
0.0
 47
1.0
 47
0.0
 47
0.0
 47
0.0
 47
0.0
 47
1.0
171
     0
 49
0.0208333333333333
 49
0.0
 49
0.0
 49
0.0
 49
0.0
 49
0.0208333333333333
 49
0.0
 49
0.0
 49
0.0
 49
0.0
 49
1.0
 49
0.0
 49
0.0
 49
0.0
 49
0.0
 49
1.0
175
     0
142
0.0208333333333333
142
0.0
142
0.0
142
0.0
142
0.0
142
0.0208333333333333
142
0.0
142
0.0
142
0.0
142
0.0
142
1.0
142
0.0
142
0.0
142
0.0
142
0.0
142
1.0
179
     0
144
0.0208333333333333
144
0.0
144
0.0
144
0.0
144
0.0
144
0.0208333333333333
144
0.0
144
0.0
144
0.0
144
0.0
144
1.0
144
0.0
144
0.0
144
0.0
144
0.0
144
1.0
147
0.0208333333333333
147
0.0
147
0.0
147
0.0
147
0.0
147
0.0208333333333333
147
0.0
147
0.0
147
0.0
147
0.0
147
1.0
147
0.0
147
0.0
147
0.0
147
0.0
147
1.0
  0
MATERIAL
  5
A78B
102
{ACAD_XDICTIONARY
360
A78C
102
}
102
{ACAD_REACTORS
330
A77A
102
}
330
A77A
100
AcDbMaterial
  1
Global
 72
     0
 43
0.0208333333333333
 43
0.0
 43
0.0
 43
0.0
 43
0.0
 43
0.0208333333333333
 43
0.0
 43
0.0
 43
0.0
 43
0.0
 43
1.0
 43
0.0
 43
0.0
 43
0.0
 43
0.0
 43
1.0
 77
     0
 47
0.0208333333333333
 47
0.0
 47
0.0
 47
0.0
 47
0.0
 47
0.0208333333333333
 47
0.0
 47
0.0
 47
0.0
 47
0.0
 47
1.0
 47
0.0
 47
0.0
 47
0.0
 47
0.0
 47
1.0
171
     0
 49
0.0208333333333333
 49
0.0
 49
0.0
 49
0.0
 49
0.0
 49
0.0208333333333333
 49
0.0
 49
0.0
 49
0.0
 49
0.0
 49
1.0
 49
0.0
 49
0.0
 49
0.0
 49
0.0
 49
1.0
175
     0
142
0.0208333333333333
142
0.0
142
0.0
142
0.0
142
0.0
142
0.0208333333333333
142
0.0
142
0.0
142
0.0
142
0.0
142
1.0
142
0.0
142
0.0
142
0.0
142
0.0
142
1.0
179
     0
144
0.0208333333333333
144
0.0
144
0.0
144
0.0
144
0.0
144
0.0208333333333333
144
0.0
144
0.0
144
0.0
144
0.0
144
1.0
144
0.0
144
0.0
144
0.0
144
0.0
144
1.0
147
0.0208333333333333
147
0.0
147
0.0
147
0.0
147
0.0
147
0.0208333333333333
147
0.0
147
0.0
147
0.0
147
0.0
147
1.0
147
0.0
147
0.0
147
0.0
147
0.0
147
1.0
  0
MLEADERSTYLE
  5
A7CA
102
{ACAD_REACTORS
330
A7C9
102
}
330
A7C9
100
AcDbMLeaderStyle
170
     2
171
     1
172
     0
 90
        2
 40
0.0
 41
0.0
173
     1
 91
-1056964608
340
7477
 92
       -2
290
     1
 42
2.0
291
     1
 43
0.36
  3
Standard
 44
4.0
300

342
7475
174
     1
178
     6
175
     1
176
     0
 93
-1056964608
 45
4.0
292
     0
297
     0
 46
4.0
 94
-1056964608
 47
1.0
 49
1.0
140
1.0
293
     1
141
0.0
294
     1
177
     0
142
1.0
295
     0
296
     0
143
0.125
1001
ACAD_MLEADERVER
1070
     2
  0
MLINESTYLE
  5
7480
102
{ACAD_REACTORS
330
7473
102
}
330
0
100
AcDbMlineStyle
  2
STANDARD
 70
     0
  3

 62
     0
 51
90.0
 52
90.0
 71
     2
 49
0.5
 62
   256
  6
BYLAYER
 49
-0.5
 62
   256
  6
BYLAYER
  0
ACDBPLACEHOLDER
  5
7F6A
102
{ACAD_REACTORS
330
7F69
102
}
330
7F69
  0
SCALE
  5
A7A8
102
{ACAD_REACTORS
330
A7A7
102
}
330
A7A7
100
AcDbScale
 70
     0
300
1:1
140
1.0
141
1.0
290
     1
  0
SCALE
  5
A7A9
102
{ACAD_REACTORS
330
A7A7
102
}
330
A7A7
100
AcDbScale
 70
     0
300
1:2
140
1.0
141
2.0
290
     0
  0
SCALE
  5
A7AA
102
{ACAD_REACTORS
330
A7A7
102
}
330
A7A7
100
AcDbScale
 70
     0
300
1:4
140
1.0
141
4.0
290
     0
  0
SCALE
  5
A7AB
102
{ACAD_REACTORS
330
A7A7
102
}
330
A7A7
100
AcDbScale
 70
     0
300
1:5
140
1.0
141
5.0
290
     0
  0
SCALE
  5
A7AC
102
{ACAD_REACTORS
330
A7A7
102
}
330
A7A7
100
AcDbScale
 70
     0
300
1:8
140
1.0
141
8.0
290
     0
  0
SCALE
  5
A7AD
102
{ACAD_REACTORS
330
A7A7
102
}
330
A7A7
100
AcDbScale
 70
     0
300
1:10
140
1.0
141
10.0
290
     0
  0
SCALE
  5
A7AE
102
{ACAD_REACTORS
330
A7A7
102
}
330
A7A7
100
AcDbScale
 70
     0
300
1:16
140
1.0
141
16.0
290
     0
  0
SCALE
  5
A7AF
102
{ACAD_REACTORS
330
A7A7
102
}
330
A7A7
100
AcDbScale
 70
     0
300
1:20
140
1.0
141
20.0
290
     0
  0
SCALE
  5
A7B0
102
{ACAD_REACTORS
330
A7A7
102
}
330
A7A7
100
AcDbScale
 70
     0
300
1:30
140
1.0
141
30.0
290
     0
  0
SCALE
  5
A7B1
102
{ACAD_REACTORS
330
A7A7
102
}
330
A7A7
100
AcDbScale
 70
     0
300
1:40
140
1.0
141
40.0
290
     0
  0
SCALE
  5
A7B2
102
{ACAD_REACTORS
330
A7A7
102
}
330
A7A7
100
AcDbScale
 70
     0
300
1:50
140
1.0
141
50.0
290
     0
  0
SCALE
  5
A7B3
102
{ACAD_REACTORS
330
A7A7
102
}
330
A7A7
100
AcDbScale
 70
     0
300
1:100
140
1.0
141
100.0
290
     0
  0
SCALE
  5
A7B4
102
{ACAD_REACTORS
330
A7A7
102
}
330
A7A7
100
AcDbScale
 70
     0
300
2:1
140
2.0
141
1.0
290
     0
  0
SCALE
  5
A7B5
102
{ACAD_REACTORS
330
A7A7
102
}
330
A7A7
100
AcDbScale
 70
     0
300
4:1
140
4.0
141
1.0
290
     0
  0
SCALE
  5
A7B6
102
{ACAD_REACTORS
330
A7A7
102
}
330
A7A7
100
AcDbScale
 70
     0
300
8:1
140
8.0
141
1.0
290
     0
  0
SCALE
  5
A7B7
102
{ACAD_REACTORS
330
A7A7
102
}
330
A7A7
100
AcDbScale
 70
     0
300
10:1
140
10.0
141
1.0
290
     0
  0
SCALE
  5
A7B8
102
{ACAD_REACTORS
330
A7A7
102
}
330
A7A7
100
AcDbScale
 70
     0
300
100:1
140
100.0
141
1.0
290
     0
  0
SCALE
  5
A7B9
102
{ACAD_REACTORS
330
A7A7
102
}
330
A7A7
100
AcDbScale
 70
     0
300
1/128" = 1'-0"
140
0.0078125
141
12.0
290
     0
  0
SCALE
  5
A7BA
102
{ACAD_REACTORS
330
A7A7
102
}
330
A7A7
100
AcDbScale
 70
     0
300
1/64" = 1'-0"
140
0.015625
141
12.0
290
     0
  0
SCALE
  5
A7BB
102
{ACAD_REACTORS
330
A7A7
102
}
330
A7A7
100
AcDbScale
 70
     0
300
1/32" = 1'-0"
140
0.03125
141
12.0
290
     0
  0
SCALE
  5
A7BC
102
{ACAD_REACTORS
330
A7A7
102
}
330
A7A7
100
AcDbScale
 70
     0
300
1/16" = 1'-0"
140
0.0625
141
12.0
290
     0
  0
SCALE
  5
A7BD
102
{ACAD_REACTORS
330
A7A7
102
}
330
A7A7
100
AcDbScale
 70
     0
300
3/32" = 1'-0"
140
0.09375
141
12.0
290
     0
  0
SCALE
  5
A7BE
102
{ACAD_REACTORS
330
A7A7
102
}
330
A7A7
100
AcDbScale
 70
     0
300
1/8" = 1'-0"
140
0.125
141
12.0
290
     0
  0
SCALE
  5
A7BF
102
{ACAD_REACTORS
330
A7A7
102
}
330
A7A7
100
AcDbScale
 70
     0
300
3/16" = 1'-0"
140
0.1875
141
12.0
290
     0
  0
SCALE
  5
A7C0
102
{ACAD_REACTORS
330
A7A7
102
}
330
A7A7
100
AcDbScale
 70
     0
300
1/4" = 1'-0"
140
0.25
141
12.0
290
     0
  0
SCALE
  5
A7C1
102
{ACAD_REACTORS
330
A7A7
102
}
330
A7A7
100
AcDbScale
 70
     0
300
3/8" = 1'-0"
140
0.375
141
12.0
290
     0
  0
SCALE
  5
A7C2
102
{ACAD_REACTORS
330
A7A7
102
}
330
A7A7
100
AcDbScale
 70
     0
300
1/2" = 1'-0"
140
0.5
141
12.0
290
     0
  0
SCALE
  5
A7C3
102
{ACAD_REACTORS
330
A7A7
102
}
330
A7A7
100
AcDbScale
 70
     0
300
3/4" = 1'-0"
140
0.75
141
12.0
290
     0
  0
SCALE
  5
A7C4
102
{ACAD_REACTORS
330
A7A7
102
}
330
A7A7
100
AcDbScale
 70
     0
300
1" = 1'-0"
140
1.0
141
12.0
290
     0
  0
SCALE
  5
A7C5
102
{ACAD_REACTORS
330
A7A7
102
}
330
A7A7
100
AcDbScale
 70
     0
300
1-1/2" = 1'-0"
140
1.5
141
12.0
290
     0
  0
SCALE
  5
A7C6
102
{ACAD_REACTORS
330
A7A7
102
}
330
A7A7
100
AcDbScale
 70
     0
300
3" = 1'-0"
140
3.0
141
12.0
290
     0
  0
SCALE
  5
A7C7
102
{ACAD_REACTORS
330
A7A7
102
}
330
A7A7
100
AcDbScale
 70
     0
300
6" = 1'-0"
140
6.0
141
12.0
290
     0
  0
SCALE
  5
A7C8
102
{ACAD_REACTORS
330
A7A7
102
}
330
A7A7
100
AcDbScale
 70
     0
300
1'-0" = 1'-0"
140
12.0
141
12.0
290
     0
  0
TABLESTYLE
  5
A7A6
102
{ACAD_XDICTIONARY
360
BB35
102
}
102
{ACAD_REACTORS
330
A7A5
102
}
330
A7A5
100
AcDbTableStyle
  3
Standard
 70
     0
 71
     0
 40
1.5
 41
1.5
280
     0
281
     0
  7
STANDARD
140
4.5
170
     2
 62
     0
 63
     7
283
     0
274
    -2
284
     1
 64
     0
275
    -2
285
     1
 65
     0
276
    -2
286
     1
 66
     0
277
    -2
287
     1
 67
     0
278
    -2
288
     1
 68
     0
279
    -2
289
     1
 69
     0
  7
STANDARD
140
6.0
170
     5
 62
     0
 63
     7
283
     0
274
    -2
284
     1
 64
     0
275
    -2
285
     1
 65
     0
276
    -2
286
     1
 66
     0
277
    -2
287
     1
 67
     0
278
    -2
288
     1
 68
     0
279
    -2
289
     1
 69
     0
  7
STANDARD
140
4.5
170
     5
 62
     0
 63
     7
283
     0
274
    -2
284
     1
 64
     0
275
    -2
285
     1
 65
     0
276
    -2
286
     1
 66
     0
277
    -2
287
     1
 67
     0
278
    -2
288
     1
 68
     0
279
    -2
289
     1
 69
     0
  0
VISUALSTYLE
  5
A799
102
{ACAD_REACTORS
330
A793
102
}
330
A793
100
AcDbVisualStyle
  2
2dWireframe
 70
     4
 71
     0
 72
     2
 73
     0
 90
        0
 40
-0.6
 41
-30.0
 62
     5
 63
     7
 74
     1
 91
        4
 64
     7
 65
   257
 75
     1
175
     1
 42
1.0
 92
        0
 66
   257
 43
1.0
 76
     1
 77
     6
 78
     2
 67
     7
 79
     5
170
     0
171
     0
290
     0
174
     0
 93
        1
 44
0.0
173
     0
291
     0
 45
0.0
1001
ACAD
1000
AcDbSavedByObjectVersion
1070
     0
  0
VISUALSTYLE
  5
A79B
102
{ACAD_REACTORS
330
A793
102
}
330
A793
100
AcDbVisualStyle
  2
3D Hidden
 70
     6
 71
     1
 72
     2
 73
     2
 90
        0
 40
-0.6
 41
-30.0
 62
     5
 63
     7
 74
     2
 91
        2
 64
     7
 65
   257
 75
     2
175
     1
 42
40.0
 92
        0
 66
   257
 43
1.0
 76
     1
 77
     6
 78
     2
 67
     7
 79
     3
170
     0
171
     0
290
     0
174
     0
 93
        1
 44
0.0
173
     0
291
     0
 45
0.0
1001
ACAD
1000
AcDbSavedByObjectVersion
1070
     0
  0
VISUALSTYLE
  5
A79A
102
{ACAD_REACTORS
330
A793
102
}
330
A793
100
AcDbVisualStyle
  2
3dWireframe
 70
     5
 71
     0
 72
     2
 73
     0
 90
        0
 40
-0.6
 41
-30.0
 62
     5
 63
     7
 74
     1
 91
        4
 64
     7
 65
   257
 75
     1
175
     1
 42
1.0
 92
        0
 66
   257
 43
1.0
 76
     1
 77
     6
 78
     2
 67
     7
 79
     5
170
     0
171
     0
290
     0
174
     0
 93
        1
 44
0.0
173
     0
291
     0
 45
0.0
1001
ACAD
1000
AcDbSavedByObjectVersion
1070
     0
  0
VISUALSTYLE
  5
A798
102
{ACAD_REACTORS
330
A793
102
}
330
A793
100
AcDbVisualStyle
  2
Basic
 70
     7
 71
     1
 72
     0
 73
     1
 90
        0
 40
-0.6
 41
-30.0
 62
     5
 63
     7
 74
     0
 91
        4
 64
     7
 65
   257
 75
     1
175
     1
 42
1.0
 92
        8
 66
     7
 43
1.0
 76
     1
 77
     6
 78
     2
 67
     7
 79
     5
170
     0
171
     0
290
     0
174
     0
 93
        1
 44
0.0
173
     0
291
     1
 45
0.0
1001
ACAD
1000
AcDbSavedByObjectVersion
1070
     0
  0
VISUALSTYLE
  5
A79F
102
{ACAD_REACTORS
330
A793
102
}
330
A793
100
AcDbVisualStyle
  2
Brighten
 70
    12
 71
     2
 72
     2
 73
     0
 90
        0
 40
-0.6
 41
-30.0
 62
     5
 63
     7
 74
     1
 91
        4
 64
     7
 65
   257
 75
     1
175
     1
 42
1.0
 92
        8
 66
     7
 43
1.0
 76
     1
 77
     6
 78
     2
 67
     7
 79
     5
170
     0
171
     0
290
     0
174
     0
 93
        1
 44
50.0
173
     0
291
     1
 45
0.0
1001
ACAD
1000
AcDbSavedByObjectVersion
1070
     0
  0
VISUALSTYLE
  5
A7A3
102
{ACAD_REACTORS
330
A793
102
}
330
A793
100
AcDbVisualStyle
  2
ColorChange
 70
    16
 71
     2
 72
     2
 73
     3
 90
        0
 40
-0.6
 41
-30.0
 62
     5
 63
     8
 74
     1
 91
        4
 64
     7
 65
   257
 75
     1
175
     1
 42
1.0
 92
        8
 66
     8
 43
1.0
 76
     1
 77
     6
 78
     2
 67
     7
 79
     5
170
     0
171
     0
290
     0
174
     0
 93
        1
 44
0.0
173
     0
291
     1
 45
0.0
1001
ACAD
1000
AcDbSavedByObjectVersion
1070
     0
  0
VISUALSTYLE
  5
A79C
102
{ACAD_REACTORS
330
A793
102
}
330
A793
100
AcDbVisualStyle
  2
Conceptual
 70
     9
 71
     3
 72
     2
 73
     0
 90
        0
 40
-0.6
 41
-30.0
 62
     5
 63
     7
 74
     2
 91
        2
 64
     7
 65
   257
 75
     1
175
     1
 42
40.0
 92
        8
 66
     7
 43
1.0
 76
     1
 77
     6
 78
     2
 67
     7
 79
     3
170
     0
171
     0
290
     0
174
     0
 93
        1
 44
0.0
173
     0
291
     0
 45
0.0
1001
ACAD
1000
AcDbSavedByObjectVersion
1070
     0
  0
VISUALSTYLE
  5
A79E
102
{ACAD_REACTORS
330
A793
102
}
330
A793
100
AcDbVisualStyle
  2
Dim
 70
    11
 71
     2
 72
     2
 73
     0
 90
        0
 40
-0.6
 41
-30.0
 62
     5
 63
     7
 74
     1
 91
        4
 64
     7
 65
   257
 75
     1
175
     1
 42
1.0
 92
        8
 66
     7
 43
1.0
 76
     1
 77
     6
 78
     2
 67
     7
 79
     5
170
     0
171
     0
290
     0
174
     0
 93
        1
 44
-50.0
173
     0
291
     1
 45
0.0
1001
ACAD
1000
AcDbSavedByObjectVersion
1070
     0
  0
VISUALSTYLE
  5
A7A2
102
{ACAD_REACTORS
330
A793
102
}
330
A793
100
AcDbVisualStyle
  2
Facepattern
 70
    15
 71
     2
 72
     2
 73
     0
 90
        0
 40
-0.6
 41
-30.0
 62
     5
 63
     7
 74
     1
 91
        4
 64
     7
 65
   257
 75
     1
175
     1
 42
1.0
 92
        8
 66
     7
 43
1.0
 76
     1
 77
     6
 78
     2
 67
     7
 79
     5
170
     0
171
     0
290
     0
174
     0
 93
        1
 44
0.0
173
     0
291
     1
 45
0.0
1001
ACAD
1000
AcDbSavedByObjectVersion
1070
     0
  0
VISUALSTYLE
  5
A794
102
{ACAD_REACTORS
330
A793
102
}
330
A793
100
AcDbVisualStyle
  2
Flat
 70
     0
 71
     2
 72
     1
 73
     1
 90
        2
 40
-0.6
 41
30.0
 62
     5
 63
     7
 74
     0
 91
        4
 64
     7
 65
   257
 75
     1
175
     1
 42
1.0
 92
        8
 66
     7
 43
1.0
 76
     1
 77
     6
 78
     2
 67
     7
 79
     5
170
     0
171
     0
290
     0
174
     0
 93
       13
 44
0.0
173
     0
291
     1
 45
0.0
1001
ACAD
1000
AcDbSavedByObjectVersion
1070
     0
  0
VISUALSTYLE
  5
A795
102
{ACAD_REACTORS
330
A793
102
}
330
A793
100
AcDbVisualStyle
  2
FlatWithEdges
 70
     1
 71
     2
 72
     1
 73
     1
 90
        2
 40
-0.6
 41
30.0
 62
     5
 63
     7
 74
     1
 91
        4
 64
     7
 65
   257
 75
     1
175
     1
 42
1.0
 92
        0
 66
   257
 43
1.0
 76
     1
 77
     6
 78
     2
 67
     7
 79
     5
170
     0
171
     0
290
     0
174
     0
 93
       13
 44
0.0
173
     0
291
     1
 45
0.0
1001
ACAD
1000
AcDbSavedByObjectVersion
1070
     0
  0
VISUALSTYLE
  5
A796
102
{ACAD_REACTORS
330
A793
102
}
330
A793
100
AcDbVisualStyle
  2
Gouraud
 70
     2
 71
     2
 72
     2
 73
     1
 90
        2
 40
-0.6
 41
30.0
 62
     5
 63
     7
 74
     0
 91
        4
 64
     7
 65
   257
 75
     1
175
     1
 42
1.0
 92
        0
 66
     7
 43
1.0
 76
     1
 77
     6
 78
     2
 67
     7
 79
     5
170
     0
171
     0
290
     0
174
     0
 93
       13
 44
0.0
173
     0
291
     1
 45
0.0
1001
ACAD
1000
AcDbSavedByObjectVersion
1070
     0
  0
VISUALSTYLE
  5
A797
102
{ACAD_REACTORS
330
A793
102
}
330
A793
100
AcDbVisualStyle
  2
GouraudWithEdges
 70
     3
 71
     2
 72
     2
 73
     1
 90
        2
 40
-0.6
 41
30.0
 62
     5
 63
     7
 74
     1
 91
        4
 64
     7
 65
   257
 75
     1
175
     1
 42
1.0
 92
        0
 66
   257
 43
1.0
 76
     1
 77
     6
 78
     2
 67
     7
 79
     5
170
     0
171
     0
290
     0
174
     0
 93
       13
 44
0.0
173
     0
291
     1
 45
0.0
1001
ACAD
1000
AcDbSavedByObjectVersion
1070
     0
  0
VISUALSTYLE
  5
A7A1
102
{ACAD_REACTORS
330
A793
102
}
330
A793
100
AcDbVisualStyle
  2
Linepattern
 70
    14
 71
     2
 72
     2
 73
     0
 90
        0
 40
-0.6
 41
-30.0
 62
     5
 63
     7
 74
     1
 91
        4
 64
     7
 65
   257
 75
     7
175
     7
 42
1.0
 92
        8
 66
     7
 43
1.0
 76
     1
 77
     6
 78
     2
 67
     7
 79
     5
170
     0
171
     0
290
     0
174
     0
 93
        1
 44
0.0
173
     0
291
     1
 45
0.0
1001
ACAD
1000
AcDbSavedByObjectVersion
1070
     0
  0
VISUALSTYLE
  5
A79D
102
{ACAD_REACTORS
330
A793
102
}
330
A793
100
AcDbVisualStyle
  2
Realistic
 70
     8
 71
     2
 72
     2
 73
     0
 90
        0
 40
-0.6
 41
-30.0
 62
     5
 63
     7
 74
     1
 91
        0
 64
     7
 65
   257
 75
     1
175
     1
 42
1.0
 92
        8
 66
     8
 43
1.0
 76
     1
 77
     6
 78
     2
 67
     7
 79
     5
170
     0
171
     0
290
     0
174
     0
 93
       13
 44
0.0
173
     0
291
     0
 45
0.0
1001
ACAD
1000
AcDbSavedByObjectVersion
1070
     0
  0
VISUALSTYLE
  5
A7A0
102
{ACAD_REACTORS
330
A793
102
}
330
A793
100
AcDbVisualStyle
  2
Thicken
 70
    13
 71
     2
 72
     2
 73
     0
 90
        0
 40
-0.6
 41
-30.0
 62
     5
 63
     7
 74
     1
 91
        4
 64
     7
 65
   257
 75
     1
175
     1
 42
1.0
 92
       12
 66
     7
 43
1.0
 76
     1
 77
     6
 78
     2
 67
     7
 79
     5
170
     0
171
     0
290
     0
174
     0
 93
        1
 44
0.0
173
     0
291
     1
 45
0.0
1001
ACAD
1000
AcDbSavedByObjectVersion
1070
     0
  0
DICTIONARYVAR
  5
BB3B
102
{ACAD_REACTORS
330
789B
102
}
330
789B
100
DictionaryVariables
280
     0
  1
1:1
  0
DICTIONARYVAR
  5
BB39
102
{ACAD_REACTORS
330
789B
102
}
330
789B
100
DictionaryVariables
280
     0
  1
STANDARD
  0
DICTIONARYVAR
  5
BB38
102
{ACAD_REACTORS
330
789B
102
}
330
789B
100
DictionaryVariables
280
     0
  1
STANDARD
  0
DICTIONARYVAR
  5
7F75
102
{ACAD_REACTORS
330
789B
102
}
330
789B
100
DictionaryVariables
280
     0
  1
1
  0
DICTIONARYVAR
  5
BDF3
102
{ACAD_REACTORS
330
789B
102
}
330
789B
100
DictionaryVariables
280
     0
  1
0
  0
DICTIONARYVAR
  5
BB3C
102
{ACAD_REACTORS
330
789B
102
}
330
789B
100
DictionaryVariables
280
     0
  1
0
  0
DICTIONARYVAR
  5
BB3A
102
{ACAD_REACTORS
330
789B
102
}
330
789B
100
DictionaryVariables
280
     0
  1
0
  0
DICTIONARYVAR
  5
789C
102
{ACAD_REACTORS
330
789B
102
}
330
789B
100
DictionaryVariables
280
     0
  1
96
  0
XRECORD
  5
A766
102
{ACAD_REACTORS
330
A764
102
}
330
A764
100
AcDbXrecord
280
     1
  0
DICTIONARY
  5
BDF8
330
7F6D
100
AcDbDictionary
280
     1
281
     1
  3
ACAD_XREC_ROUNDTRIP
360
BDF9
  0
DICTIONARY
  5
BDFA
330
7F6E
100
AcDbDictionary
280
     1
281
     1
  3
ACAD_XREC_ROUNDTRIP
360
BDFB
  0
DICTIONARY
  5
A784
330
A783
100
AcDbDictionary
280
     1
281
     1
  3
ACAD_XREC_ROUNDTRIP
360
BDFD
  3
BUMPTILE
360
A786
  3
DIFFUSETILE
360
A785
  3
OPACITYTILE
360
A789
  3
REFLECTIONTILE
360
A788
  3
REFRACTIONTILE
360
A78A
  3
SPECULARTILE
360
A787
  0
DICTIONARY
  5
A77C
330
A77B
100
AcDbDictionary
280
     1
281
     1
  3
ACAD_XREC_ROUNDTRIP
360
BDFC
  3
BUMPTILE
360
A77E
  3
DIFFUSETILE
360
A77D
  3
OPACITYTILE
360
A781
  3
REFLECTIONTILE
360
A780
  3
REFRACTIONTILE
360
A782
  3
SPECULARTILE
360
A77F
  0
DICTIONARY
  5
A78C
330
A78B
100
AcDbDictionary
280
     1
281
     1
  3
ACAD_XREC_ROUNDTRIP
360
BDFE
  3
BUMPTILE
360
A78E
  3
DIFFUSETILE
360
A78D
  3
OPACITYTILE
360
A791
  3
REFLECTIONTILE
360
A790
  3
REFRACTIONTILE
360
A792
  3
SPECULARTILE
360
A78F
  0
DICTIONARY
  5
BB35
330
A7A6
100
AcDbDictionary
280
     1
281
     1
  3
ACAD_ROUNDTRIP_2008_TABLESTYLE_CELLSTYLEMAP
360
BDF4
  3
ACAD_XREC_ROUNDTRIP
360
BDFF
  0
XRECORD
  5
BDF9
102
{ACAD_REACTORS
330
BDF8
102
}
330
BDF8
100
AcDbXrecord
280
     1
102
SHADEPLOT
 70
     0
102
SHADEPLOTRESLEVEL
 70
     2
102
SHADEPLOTCUSTOMDPI
 70
   300
  0
XRECORD
  5
BDFB
102
{ACAD_REACTORS
330
BDFA
102
}
330
BDFA
100
AcDbXrecord
280
     1
102
SHADEPLOT
 70
     0
102
SHADEPLOTRESLEVEL
 70
     2
102
SHADEPLOTCUSTOMDPI
 70
   300
  0
XRECORD
  5
BDFD
102
{ACAD_REACTORS
330
A784
102
}
330
A784
100
AcDbXrecord
280
     1
102
MATERIAL
148
0.0
149
0.0
149
0.0
 93
        0
 94
      127
282
     0
 72
     0
 77
     0
171
     0
175
     0
179
     0
273
     0
  0
XRECORD
  5
A786
102
{ACAD_REACTORS
330
A784
102
}
330
A784
100
AcDbXrecord
280
     1
270
     1
271
     1
  0
XRECORD
  5
A785
102
{ACAD_REACTORS
330
A784
102
}
330
A784
100
AcDbXrecord
280
     1
270
     1
271
     1
  0
XRECORD
  5
A789
102
{ACAD_REACTORS
330
A784
102
}
330
A784
100
AcDbXrecord
280
     1
270
     1
271
     1
  0
XRECORD
  5
A788
102
{ACAD_REACTORS
330
A784
102
}
330
A784
100
AcDbXrecord
280
     1
270
     1
271
     1
  0
XRECORD
  5
A78A
102
{ACAD_REACTORS
330
A784
102
}
330
A784
100
AcDbXrecord
280
     1
270
     1
271
     1
  0
XRECORD
  5
A787
102
{ACAD_REACTORS
330
A784
102
}
330
A784
100
AcDbXrecord
280
     1
270
     1
271
     1
  0
XRECORD
  5
BDFC
102
{ACAD_REACTORS
330
A77C
102
}
330
A77C
100
AcDbXrecord
280
     1
102
MATERIAL
148
0.0
149
0.0
149
0.0
 93
        0
 94
      127
282
     0
 72
     0
 77
     0
171
     0
175
     0
179
     0
273
     0
  0
XRECORD
  5
A77E
102
{ACAD_REACTORS
330
A77C
102
}
330
A77C
100
AcDbXrecord
280
     1
270
     1
271
     1
  0
XRECORD
  5
A77D
102
{ACAD_REACTORS
330
A77C
102
}
330
A77C
100
AcDbXrecord
280
     1
270
     1
271
     1
  0
XRECORD
  5
A781
102
{ACAD_REACTORS
330
A77C
102
}
330
A77C
100
AcDbXrecord
280
     1
270
     1
271
     1
  0
XRECORD
  5
A780
102
{ACAD_REACTORS
330
A77C
102
}
330
A77C
100
AcDbXrecord
280
     1
270
     1
271
     1
  0
XRECORD
  5
A782
102
{ACAD_REACTORS
330
A77C
102
}
330
A77C
100
AcDbXrecord
280
     1
270
     1
271
     1
  0
XRECORD
  5
A77F
102
{ACAD_REACTORS
330
A77C
102
}
330
A77C
100
AcDbXrecord
280
     1
270
     1
271
     1
  0
XRECORD
  5
BDFE
102
{ACAD_REACTORS
330
A78C
102
}
330
A78C
100
AcDbXrecord
280
     1
102
MATERIAL
148
0.0
149
0.0
149
0.0
 93
        0
 94
      127
282
     0
 72
     0
 77
     0
171
     0
175
     0
179
     0
273
     0
  0
XRECORD
  5
A78E
102
{ACAD_REACTORS
330
A78C
102
}
330
A78C
100
AcDbXrecord
280
     1
270
     1
271
     1
  0
XRECORD
  5
A78D
102
{ACAD_REACTORS
330
A78C
102
}
330
A78C
100
AcDbXrecord
280
     1
270
     1
271
     1
  0
XRECORD
  5
A791
102
{ACAD_REACTORS
330
A78C
102
}
330
A78C
100
AcDbXrecord
280
     1
270
     1
271
     1
  0
XRECORD
  5
A790
102
{ACAD_REACTORS
330
A78C
102
}
330
A78C
100
AcDbXrecord
280
     1
270
     1
271
     1
  0
XRECORD
  5
A792
102
{ACAD_REACTORS
330
A78C
102
}
330
A78C
100
AcDbXrecord
280
     1
270
     1
271
     1
  0
XRECORD
  5
A78F
102
{ACAD_REACTORS
330
A78C
102
}
330
A78C
100
AcDbXrecord
280
     1
270
     1
271
     1
  0
CELLSTYLEMAP
  5
BDF4
102
{ACAD_REACTORS
330
BB35
102
}
330
BB35
100
AcDbCellStyleMap
 90
        3
300
CELLSTYLE
  1
TABLEFORMAT_BEGIN
 90
        5
170
     1
 91
        0
 92
    32768
 62
   257
 93
        1
300
CONTENTFORMAT
  1
CONTENTFORMAT_BEGIN
 90
        0
 91
        0
 92
      512
 93
        0
300

 40
0.0
140
1.0
 94
        5
 62
     0
340
7475
144
6.0
309
CONTENTFORMAT_END
171
     1
301
MARGIN
  1
CELLMARGIN_BEGIN
 40
1.5
 40
1.5
 40
1.5
 40
1.5
 40
4.5
 40
4.5
309
CELLMARGIN_END
 94
        6
 95
        1
302
GRIDFORMAT
  1
GRIDFORMAT_BEGIN
 90
        0
 91
        1
 62
     0
 92
       -2
340
0
 93
        0
 40
1.125
309
GRIDFORMAT_END
 95
        2
302
GRIDFORMAT
  1
GRIDFORMAT_BEGIN
 90
        0
 91
        1
 62
     0
 92
       -2
340
0
 93
        0
 40
1.125
309
GRIDFORMAT_END
 95
        4
302
GRIDFORMAT
  1
GRIDFORMAT_BEGIN
 90
        0
 91
        1
 62
     0
 92
       -2
340
0
 93
        0
 40
1.125
309
GRIDFORMAT_END
 95
        8
302
GRIDFORMAT
  1
GRIDFORMAT_BEGIN
 90
        0
 91
        1
 62
     0
 92
       -2
340
0
 93
        0
 40
1.125
309
GRIDFORMAT_END
 95
       16
302
GRIDFORMAT
  1
GRIDFORMAT_BEGIN
 90
        0
 91
        1
 62
     0
 92
       -2
340
0
 93
        0
 40
1.125
309
GRIDFORMAT_END
 95
       32
302
GRIDFORMAT
  1
GRIDFORMAT_BEGIN
 90
        0
 91
        1
 62
     0
 92
       -2
340
0
 93
        0
 40
1.125
309
GRIDFORMAT_END
309
TABLEFORMAT_END
  1
CELLSTYLE_BEGIN
 90
        1
 91
        1
300
_TITLE
309
CELLSTYLE_END
300
CELLSTYLE
  1
TABLEFORMAT_BEGIN
 90
        5
170
     1
 91
        0
 92
        0
 62
   257
 93
        1
300
CONTENTFORMAT
  1
CONTENTFORMAT_BEGIN
 90
        0
 91
        0
 92
      512
 93
        0
300

 40
0.0
140
1.0
 94
        5
 62
     0
340
7475
144
4.5
309
CONTENTFORMAT_END
171
     1
301
MARGIN
  1
CELLMARGIN_BEGIN
 40
1.5
 40
1.5
 40
1.5
 40
1.5
 40
4.5
 40
4.5
309
CELLMARGIN_END
 94
        6
 95
        1
302
GRIDFORMAT
  1
GRIDFORMAT_BEGIN
 90
        0
 91
        1
 62
     0
 92
       -2
340
0
 93
        0
 40
1.125
309
GRIDFORMAT_END
 95
        2
302
GRIDFORMAT
  1
GRIDFORMAT_BEGIN
 90
        0
 91
        1
 62
     0
 92
       -2
340
0
 93
        0
 40
1.125
309
GRIDFORMAT_END
 95
        4
302
GRIDFORMAT
  1
GRIDFORMAT_BEGIN
 90
        0
 91
        1
 62
     0
 92
       -2
340
0
 93
        0
 40
1.125
309
GRIDFORMAT_END
 95
        8
302
GRIDFORMAT
  1
GRIDFORMAT_BEGIN
 90
        0
 91
        1
 62
     0
 92
       -2
340
0
 93
        0
 40
1.125
309
GRIDFORMAT_END
 95
       16
302
GRIDFORMAT
  1
GRIDFORMAT_BEGIN
 90
        0
 91
        1
 62
     0
 92
       -2
340
0
 93
        0
 40
1.125
309
GRIDFORMAT_END
 95
       32
302
GRIDFORMAT
  1
GRIDFORMAT_BEGIN
 90
        0
 91
        1
 62
     0
 92
       -2
340
0
 93
        0
 40
1.125
309
GRIDFORMAT_END
309
TABLEFORMAT_END
  1
CELLSTYLE_BEGIN
 90
        2
 91
        1
300
_HEADER
309
CELLSTYLE_END
300
CELLSTYLE
  1
TABLEFORMAT_BEGIN
 90
        5
170
     1
 91
        0
 92
        0
 62
   257
 93
        1
300
CONTENTFORMAT
  1
CONTENTFORMAT_BEGIN
 90
        0
 91
        0
 92
      512
 93
        0
300

 40
0.0
140
1.0
 94
        2
 62
     0
340
7475
144
4.5
309
CONTENTFORMAT_END
171
     1
301
MARGIN
  1
CELLMARGIN_BEGIN
 40
1.5
 40
1.5
 40
1.5
 40
1.5
 40
4.5
 40
4.5
309
CELLMARGIN_END
 94
        6
 95
        1
302
GRIDFORMAT
  1
GRIDFORMAT_BEGIN
 90
        0
 91
        1
 62
     0
 92
       -2
340
0
 93
        0
 40
1.125
309
GRIDFORMAT_END
 95
        2
302
GRIDFORMAT
  1
GRIDFORMAT_BEGIN
 90
        0
 91
        1
 62
     0
 92
       -2
340
0
 93
        0
 40
1.125
309
GRIDFORMAT_END
 95
        4
302
GRIDFORMAT
  1
GRIDFORMAT_BEGIN
 90
        0
 91
        1
 62
     0
 92
       -2
340
0
 93
        0
 40
1.125
309
GRIDFORMAT_END
 95
        8
302
GRIDFORMAT
  1
GRIDFORMAT_BEGIN
 90
        0
 91
        1
 62
     0
 92
       -2
340
0
 93
        0
 40
1.125
309
GRIDFORMAT_END
 95
       16
302
GRIDFORMAT
  1
GRIDFORMAT_BEGIN
 90
        0
 91
        1
 62
     0
 92
       -2
340
0
 93
        0
 40
1.125
309
GRIDFORMAT_END
 95
       32
302
GRIDFORMAT
  1
GRIDFORMAT_BEGIN
 90
        0
 91
        1
 62
     0
 92
       -2
340
0
 93
        0
 40
1.125
309
GRIDFORMAT_END
309
TABLEFORMAT_END
  1
CELLSTYLE_BEGIN
 90
        3
 91
        2
300
_DATA
309
CELLSTYLE_END
  0
XRECORD
  5
BDFF
102
{ACAD_REACTORS
330
BB35
102
}
330
BB35
100
AcDbXrecord
280
     1
102
ACAD_ROUNDTRIP_PRE2007_TABLESTYLE
 90
      512
 91
        0
  1

 92
      512
 93
        0
  2

 94
      512
 95
        0
  3

  0
ENDSEC
  0
EOF
