  0
SECTION
  2
HEADER
  9
$ACADVER
  1
AC1015
  9
$ACADMAINTVER
 70
    13
  9
$DWGCODEPAGE
  3
ANSI_932
  9
$INSBASE
 10
0.0
 20
0.0
 30
0.0
  9
$EXTMIN
 10
-0.3742639360716566
 20
-0.1440620642342765
 30
-0.0000000000000053
  9
$EXTMAX
 10
4455.280710211962
 20
3150.144260100351
 30
0.00000000000001
  9
$LIMMIN
 10
0.0
 20
0.0
  9
$LIMMAX
 10
420.0
 20
297.0
  9
$ORTHOMODE
 70
     1
  9
$REGENMODE
 70
     1
  9
$FILLMODE
 70
     1
  9
$QTEXTMODE
 70
     0
  9
$MIRRTEXT
 70
     1
  9
$LTSCALE
 40
0.5
  9
$ATTMODE
 70
     1
  9
$TEXTSIZE
 40
2.799999999999998
  9
$TRACEWID
 40
1.0
  9
$TEXTSTYLE
  7
SANWA
  9
$CLAYER
  8
0
  9
$CELTYPE
  6
BYLAYER
  9
$CECOLOR
 62
   256
  9
$CELTSCALE
 40
20.0
  9
$DISPSILH
 70
     0
  9
$DIMSCALE
 40
15.0
  9
$DIMASZ
 40
1.5
  9
$DIMEXO
 40
1.0
  9
$DIMDLI
 40
5.0
  9
$DIMRND
 40
0.0
  9
$DIMDLE
 40
0.0
  9
$DIMEXE
 40
0.5
  9
$DIMTP
 40
0.0
  9
$DIMTM
 40
0.0
  9
$DIMTXT
 40
2.0
  9
$DIMCEN
 40
0.0
  9
$DIMTSZ
 40
0.0
  9
$DIMTOL
 70
     0
  9
$DIMLIM
 70
     0
  9
$DIMTIH
 70
     0
  9
$DIMTOH
 70
     0
  9
$DIMSE1
 70
     0
  9
$DIMSE2
 70
     0
  9
$DIMTAD
 70
     1
  9
$DIMZIN
 70
     8
  9
$DIMBLK
  1

  9
$DIMASO
 70
     1
  9
$DIMSHO
 70
     1
  9
$DIMPOST
  1

  9
$DIMAPOST
  1

  9
$DIMALT
 70
     0
  9
$DIMALTD
 70
     2
  9
$DIMALTF
 40
0.0394
  9
$DIMLFAC
 40
1.0
  9
$DIMTOFL
 70
     1
  9
$DIMTVP
 40
0.0
  9
$DIMTIX
 70
     1
  9
$DIMSOXD
 70
     0
  9
$DIMSAH
 70
     0
  9
$DIMBLK1
  1

  9
$DIMBLK2
  1

  9
$DIMSTYLE
  2
SANWA
  9
$DIMCLRD
 70
   256
  9
$DIMCLRE
 70
   256
  9
$DIMCLRT
 70
   256
  9
$DIMTFAC
 40
1.0
  9
$DIMGAP
 40
1.0
  9
$DIMJUST
 70
     0
  9
$DIMSD1
 70
     0
  9
$DIMSD2
 70
     0
  9
$DIMTOLJ
 70
     1
  9
$DIMTZIN
 70
     0
  9
$DIMALTZ
 70
     0
  9
$DIMALTTZ
 70
     0
  9
$DIMUPT
 70
     0
  9
$DIMDEC
 70
     4
  9
$DIMTDEC
 70
     4
  9
$DIMALTU
 70
     2
  9
$DIMALTTD
 70
     2
  9
$DIMTXSTY
  7
SANWA
  9
$DIMAUNIT
 70
     0
  9
$DIMADEC
 70
     0
  9
$DIMALTRND
 40
0.0
  9
$DIMAZIN
 70
     0
  9
$DIMDSEP
 70
    46
  9
$DIMATFIT
 70
     3
  9
$DIMFRAC
 70
     0
  9
$DIMLDRBLK
  1

  9
$DIMLUNIT
 70
     2
  9
$DIMLWD
 70
    -2
  9
$DIMLWE
 70
    -2
  9
$DIMTMOVE
 70
     2
  9
$LUNITS
 70
     2
  9
$LUPREC
 70
     4
  9
$SKETCHINC
 40
1.0
  9
$FILLETRAD
 40
45.0
  9
$AUNITS
 70
     0
  9
$AUPREC
 70
     0
  9
$MENU
  1
acad
  9
$ELEVATION
 40
0.0
  9
$PELEVATION
 40
0.0
  9
$THICKNESS
 40
0.0
  9
$LIMCHECK
 70
     0
  9
$CHAMFERA
 40
0.0
  9
$CHAMFERB
 40
0.0
  9
$CHAMFERC
 40
0.0
  9
$CHAMFERD
 40
0.0
  9
$SKPOLY
 70
     1
  9
$TDCREATE
 40
2451806.361679282
  9
$TDUCREATE
 40
2451805.986679282
  9
$TDUPDATE
 40
2454257.471207314
  9
$TDUUPDATE
 40
2454257.096207314
  9
$TDINDWG
 40
0.8194633565
  9
$TDUSRTIMER
 40
0.8194631829
  9
$USRTIMER
 70
     1
  9
$ANGBASE
 50
0.0
  9
$ANGDIR
 70
     0
  9
$PDMODE
 70
     0
  9
$PDSIZE
 40
0.0
  9
$PLINEWID
 40
0.0
  9
$SPLFRAME
 70
     0
  9
$SPLINETYPE
 70
     6
  9
$SPLINESEGS
 70
     8
  9
$HANDSEED
  5
A9F6
  9
$SURFTAB1
 70
     6
  9
$SURFTAB2
 70
     6
  9
$SURFTYPE
 70
     6
  9
$SURFU
 70
     6
  9
$SURFV
 70
     6
  9
$UCSBASE
  2

  9
$UCSNAME
  2

  9
$UCSORG
 10
0.0
 20
0.0
 30
0.0
  9
$UCSXDIR
 10
1.0
 20
0.0
 30
0.0
  9
$UCSYDIR
 10
0.0
 20
1.0
 30
0.0
  9
$UCSORTHOREF
  2

  9
$UCSORTHOVIEW
 70
     0
  9
$UCSORGTOP
 10
0.0
 20
0.0
 30
0.0
  9
$UCSORGBOTTOM
 10
0.0
 20
0.0
 30
0.0
  9
$UCSORGLEFT
 10
0.0
 20
0.0
 30
0.0
  9
$UCSORGRIGHT
 10
0.0
 20
0.0
 30
0.0
  9
$UCSORGFRONT
 10
0.0
 20
0.0
 30
0.0
  9
$UCSORGBACK
 10
0.0
 20
0.0
 30
0.0
  9
$PUCSBASE
  2

  9
$PUCSNAME
  2

  9
$PUCSORG
 10
0.0
 20
0.0
 30
0.0
  9
$PUCSXDIR
 10
1.0
 20
0.0
 30
0.0
  9
$PUCSYDIR
 10
0.0
 20
1.0
 30
0.0
  9
$PUCSORTHOREF
  2

  9
$PUCSORTHOVIEW
 70
     0
  9
$PUCSORGTOP
 10
0.0
 20
0.0
 30
0.0
  9
$PUCSORGBOTTOM
 10
0.0
 20
0.0
 30
0.0
  9
$PUCSORGLEFT
 10
0.0
 20
0.0
 30
0.0
  9
$PUCSORGRIGHT
 10
0.0
 20
0.0
 30
0.0
  9
$PUCSORGFRONT
 10
0.0
 20
0.0
 30
0.0
  9
$PUCSORGBACK
 10
0.0
 20
0.0
 30
0.0
  9
$USERI1
 70
     0
  9
$USERI2
 70
     0
  9
$USERI3
 70
     0
  9
$USERI4
 70
     0
  9
$USERI5
 70
     0
  9
$USERR1
 40
0.0
  9
$USERR2
 40
0.0
  9
$USERR3
 40
0.0
  9
$USERR4
 40
0.0
  9
$USERR5
 40
0.0
  9
$WORLDVIEW
 70
     1
  9
$SHADEDGE
 70
     3
  9
$SHADEDIF
 70
    70
  9
$TILEMODE
 70
     1
  9
$MAXACTVP
 70
    48
  9
$PINSBASE
 10
0.0
 20
0.0
 30
0.0
  9
$PLIMCHECK
 70
     0
  9
$PEXTMIN
 10
1.000000000000000E+20
 20
1.000000000000000E+20
 30
1.000000000000000E+20
  9
$PEXTMAX
 10
-1.000000000000000E+20
 20
-1.000000000000000E+20
 30
-1.000000000000000E+20
  9
$PLIMMIN
 10
-117.3880621053551
 20
-1147.778930325621
  9
$PLIMMAX
 10
5873.875641303368
 20
3088.506753269061
  9
$UNITMODE
 70
     0
  9
$VISRETAIN
 70
     1
  9
$PLINEGEN
 70
     0
  9
$PSLTSCALE
 70
     1
  9
$TREEDEPTH
 70
  3020
  9
$CMLSTYLE
  2
STANDARD
  9
$CMLJUST
 70
     0
  9
$CMLSCALE
 40
1.0
  9
$PROXYGRAPHICS
 70
     1
  9
$MEASUREMENT
 70
     1
  9
$CELWEIGHT
370
    -1
  9
$ENDCAPS
280
     0
  9
$JOINSTYLE
280
     0
  9
$LWDISPLAY
290
     0
  9
$INSUNITS
 70
     0
  9
$HYPERLINKBASE
  1

  9
$STYLESHEET
  1
SANWA3.CTB
  9
$XEDIT
290
     1
  9
$CEPSNTYPE
380
     0
  9
$PSTYLEMODE
290
     1
  9
$FINGERPRINTGUID
  2
{FF69E217-7CBD-426C-8D1A-915AA093CE5F}
  9
$VERSIONGUID
  2
{B6D6EA0A-EDD1-4D60-B1ED-9A94B3D2FD87}
  9
$EXTNAMES
290
     1
  9
$PSVPSCALE
 40
0.0
  9
$OLESTARTUP
290
     0
  0
ENDSEC
  0
SECTION
  2
CLASSES
  0
CLASS
  1
LWPOLYLINE
  2
AcDbPolyline
  3
AutoCAD 2000
 90
    32768
280
     0
281
     1
  0
CLASS
  1
DICTIONARYVAR
  2
AcDbDictionaryVar
  3
AutoCAD 2000
 90
        0
280
     0
281
     0
  0
CLASS
  1
HATCH
  2
AcDbHatch
  3
AutoCAD 2000
 90
    32768
280
     0
281
     1
  0
CLASS
  1
ACDBDICTIONARYWDFLT
  2
AcDbDictionaryWithDefault
  3
AutoCAD 2000
 90
        0
280
     0
281
     0
  0
CLASS
  1
ACDBPLACEHOLDER
  2
AcDbPlaceHolder
  3
AutoCAD 2000
 90
        0
280
     0
281
     0
  0
CLASS
  1
LAYOUT
  2
AcDbLayout
  3
AutoCAD 2000
 90
        0
280
     0
281
     0
  0
ENDSEC
  0
SECTION
  2
TABLES
  0
TABLE
  2
VPORT
  5
746D
330
0
100
AcDbSymbolTable
 70
     2
  0
VPORT
  5
A9F5
330
746D
100
AcDbSymbolTableRecord
100
AcDbViewportTableRecord
  2
*Active
 70
     0
 10
0.0
 20
0.0
 11
1.0
 21
1.0
 12
2227.453223137945
 22
1575.000099018058
 13
0.0
 23
0.0
 14
10.0
 24
10.0
 15
10.0
 25
10.0
 16
0.0
 26
0.0
 36
1.0
 17
0.0
 27
0.0
 37
0.0
 40
3228.181545820307
 41
1.391812865497076
 42
50.0
 43
0.0
 44
0.0
 50
0.0
 51
0.0
 71
     0
 72
   100
 73
     1
 74
     0
 75
     0
 76
     0
 77
     0
 78
     0
281
     0
 65
     1
110
0.0
120
0.0
130
0.0
111
1.0
121
0.0
131
0.0
112
0.0
122
1.0
132
0.0
 79
     0
146
0.0
  0
ENDTAB
  0
TABLE
  2
LTYPE
  5
746A
330
0
100
AcDbSymbolTable
 70
     5
  0
LTYPE
  5
7477
330
746A
100
AcDbSymbolTableRecord
100
AcDbLinetypeTableRecord
  2
BYBLOCK
 70
     0
  3

 72
    65
 73
     0
 40
0.0
  0
LTYPE
  5
7478
330
746A
100
AcDbSymbolTableRecord
100
AcDbLinetypeTableRecord
  2
BYLAYER
 70
     0
  3

 72
    65
 73
     0
 40
0.0
  0
LTYPE
  5
7479
330
746A
100
AcDbSymbolTableRecord
100
AcDbLinetypeTableRecord
  2
CONTINUOUS
 70
     0
  3
Solid line
 72
    65
 73
     0
 40
0.0
  0
LTYPE
  5
7D54
330
746A
100
AcDbSymbolTableRecord
100
AcDbLinetypeTableRecord
  2
CENTER2
 70
     0
  3
Center (.5x) ___ _ ___ _ ___ _ ___ _ ___ _ ___
 72
    65
 73
     4
 40
28.57499999999999
 49
19.05
 74
     0
 49
-3.174999999999998
 74
     0
 49
3.174999999999998
 74
     0
 49
-3.174999999999998
 74
     0
  0
LTYPE
  5
7D55
330
746A
100
AcDbSymbolTableRecord
100
AcDbLinetypeTableRecord
  2
DOT
 70
     0
  3
Dot . . . . . . . . . . . . . . . . . . . . . .
 72
    65
 73
     2
 40
6.349999999999998
 49
0.0
 74
     0
 49
-6.349999999999998
 74
     0
  0
LTYPE
  5
7D56
330
746A
100
AcDbSymbolTableRecord
100
AcDbLinetypeTableRecord
  2
HIDDEN2
 70
     0
  3
Hidden (.5x) _ _ _ _ _ _ _ _ _ _ _ _ _ _ _ _ _
 72
    65
 73
     2
 40
4.762499999999998
 49
3.174999999999998
 74
     0
 49
-1.587499999999999
 74
     0
  0
LTYPE
  5
7D57
330
746A
100
AcDbSymbolTableRecord
100
AcDbLinetypeTableRecord
  2
PHANTOM2
 70
     0
  3
Phantom (.5x) ___ _ _ ___ _ _ ___ _ _ ___ _ _
 72
    65
 73
     6
 40
31.75
 49
15.875
 74
     0
 49
-3.174999999999998
 74
     0
 49
3.174999999999998
 74
     0
 49
-3.174999999999998
 74
     0
 49
3.174999999999998
 74
     0
 49
-3.174999999999998
 74
     0
  0
ENDTAB
  0
TABLE
  2
LAYER
  5
7467
330
0
100
AcDbSymbolTable
 70
     7
  0
LAYER
  5
7474
330
7467
100
AcDbSymbolTableRecord
100
AcDbLayerTableRecord
  2
0
 70
     0
 62
     7
  6
CONTINUOUS
370
    -3
390
7F6A
  0
LAYER
  5
7485
330
7467
100
AcDbSymbolTableRecord
100
AcDbLayerTableRecord
  2
DEFPOINTS
 70
     0
 62
     7
  6
CONTINUOUS
290
     0
370
    -3
390
7F6A
  0
LAYER
  5
7486
330
7467
100
AcDbSymbolTableRecord
100
AcDbLayerTableRecord
  2
OBJECT
 70
     0
 62
     7
  6
CONTINUOUS
370
    -3
390
7F6A
  0
LAYER
  5
7950
330
7467
100
AcDbSymbolTableRecord
100
AcDbLayerTableRecord
  2
枠
 70
     0
 62
     3
  6
CONTINUOUS
370
    -3
390
7F6A
  0
LAYER
  5
7D58
330
7467
100
AcDbSymbolTableRecord
100
AcDbLayerTableRecord
  2
寸法引出
 70
     0
 62
     2
  6
CONTINUOUS
370
    -3
390
7F6A
  0
LAYER
  5
7D59
330
7467
100
AcDbSymbolTableRecord
100
AcDbLayerTableRecord
  2
鉄筋
 70
     0
 62
     4
  6
CONTINUOUS
370
    -3
390
7F6A
  0
LAYER
  5
7D5A
330
7467
100
AcDbSymbolTableRecord
100
AcDbLayerTableRecord
  2
補助線
 70
     0
 62
     6
  6
CONTINUOUS
370
    -3
390
7F6A
  0
ENDTAB
  0
TABLE
  2
STYLE
  5
7468
330
0
100
AcDbSymbolTable
 70
     4
  0
STYLE
  5
7475
330
7468
100
AcDbSymbolTableRecord
100
AcDbTextStyleTableRecord
  2
STANDARD
 70
     0
 40
0.0
 41
1.0
 50
0.0
 71
     0
 42
3.5
  3
txt
  4

  0
STYLE
  5
7481
330
7468
100
AcDbSymbolTableRecord
100
AcDbTextStyleTableRecord
  2
ADESK1
 70
     0
 40
0.0
 41
1.0
 50
0.0
 71
     0
 42
5.0
  3
romans
  4
bigfont
  0
STYLE
  5
7731
330
7468
100
AcDbSymbolTableRecord
100
AcDbTextStyleTableRecord
  2
SANWA
 70
     0
 40
0.0
 41
1.0
 50
0.0
 71
     0
 42
2.799999999999998
  3
MS Mincho.ttf
  4

1001
ACAD
1000
MS Mincho
1071
    32785
  0
STYLE
  5
7D45
330
7468
100
AcDbSymbolTableRecord
100
AcDbTextStyleTableRecord
  2

 70
     1
 40
0.0
 41
1.0
 50
0.0
 71
     0
 42
3.5
  3
ltypeshp.shx
  4

  0
ENDTAB
  0
TABLE
  2
VIEW
  5
746B
330
0
100
AcDbSymbolTable
 70
     0
  0
ENDTAB
  0
TABLE
  2
UCS
  5
746C
330
0
100
AcDbSymbolTable
 70
     0
  0
ENDTAB
  0
TABLE
  2
APPID
  5
746E
330
0
100
AcDbSymbolTable
 70
     2
  0
APPID
  5
7476
330
746E
100
AcDbSymbolTableRecord
100
AcDbRegAppTableRecord
  2
ACAD
 70
     0
  0
APPID
  5
A765
330
746E
100
AcDbSymbolTableRecord
100
AcDbRegAppTableRecord
  2
DCO15
 70
     0
  0
ENDTAB
  0
TABLE
  2
DIMSTYLE
  5
746F
330
0
100
AcDbSymbolTable
 70
     4
100
AcDbDimStyleTable
 71
     1
340
796F
  0
DIMSTYLE
105
7484
330
746F
100
AcDbSymbolTableRecord
100
AcDbDimStyleTableRecord
  2
JIS
 70
     0
 41
2.5
 42
1.0
 43
7.0
 44
1.0
 73
     0
 74
     0
 77
     1
 78
     8
140
2.5
141
0.0
143
0.0394
147
0.0
172
     1
174
     1
176
     2
177
     2
178
     2
340
7731
  0
DIMSTYLE
105
796F
102
{ACAD_REACTORS
330
88FD
330
8917
330
8926
330
898D
330
899A
330
89A9
330
8A12
330
8CB4
330
8CC3
330
8CD0
330
8D89
330
8D96
330
8DA3
330
9083
330
9202
330
9241
330
9250
330
925F
330
928F
330
A02C
330
A039
330
A048
330
A072
330
A081
330
A484
330
A493
330
A6DD
330
A6EA
330
A6F9
102
}
330
746F
100
AcDbSymbolTableRecord
100
AcDbDimStyleTableRecord
  2
SANWA
 70
     0
 41
2.5
 42
1.0
 43
7.0
 44
1.0
 73
     0
 74
     0
 77
     1
 78
     8
140
2.5
141
0.0
143
0.0394
147
0.0
172
     1
174
     1
176
     2
177
     2
178
     2
340
7731
  0
DIMSTYLE
105
7C9D
330
746F
100
AcDbSymbolTableRecord
100
AcDbDimStyleTableRecord
  2
SANWA$4
 70
     0
 41
2.5
 42
1.0
 43
5.0
 44
1.0
 73
     0
 74
     0
 77
     1
 78
     8
140
2.5
141
0.0
143
0.0394
147
1.0
172
     1
174
     1
176
     2
177
     2
178
     2
289
     2
340
7731
  0
DIMSTYLE
105
7CB5
330
746F
100
AcDbSymbolTableRecord
100
AcDbDimStyleTableRecord
  2
SANWA$3
 70
     0
 41
2.5
 42
1.0
 43
7.0
 44
1.0
 73
     0
 74
     0
 77
     1
 78
     8
140
2.5
141
0.0
143
0.0394
147
0.0
172
     1
174
     1
176
     2
177
     2
178
     2
289
     0
340
7731
  0
ENDTAB
  0
TABLE
  2
BLOCK_RECORD
  5
7466
330
0
100
AcDbSymbolTable
 70
    35
  0
BLOCK_RECORD
  5
747D
330
7466
100
AcDbSymbolTableRecord
100
AcDbBlockTableRecord
  2
*MODEL_SPACE
340
7F6D
  0
BLOCK_RECORD
  5
747A
330
7466
100
AcDbSymbolTableRecord
100
AcDbBlockTableRecord
  2
*PAPER_SPACE
340
7F6E
  0
BLOCK_RECORD
  5
7493
330
7466
100
AcDbSymbolTableRecord
100
AcDbBlockTableRecord
  2
TITLE_BLOCK
340
0
  0
BLOCK_RECORD
  5
88FE
330
7466
100
AcDbSymbolTableRecord
100
AcDbBlockTableRecord
  2
*D1
340
0
  0
BLOCK_RECORD
  5
8918
330
7466
100
AcDbSymbolTableRecord
100
AcDbBlockTableRecord
  2
*D2
340
0
  0
BLOCK_RECORD
  5
8927
330
7466
100
AcDbSymbolTableRecord
100
AcDbBlockTableRecord
  2
*D3
340
0
  0
BLOCK_RECORD
  5
898E
330
7466
100
AcDbSymbolTableRecord
100
AcDbBlockTableRecord
  2
*D4
340
0
  0
BLOCK_RECORD
  5
899B
330
7466
100
AcDbSymbolTableRecord
100
AcDbBlockTableRecord
  2
*D5
340
0
  0
BLOCK_RECORD
  5
89AA
330
7466
100
AcDbSymbolTableRecord
100
AcDbBlockTableRecord
  2
*D6
340
0
  0
BLOCK_RECORD
  5
8A13
330
7466
100
AcDbSymbolTableRecord
100
AcDbBlockTableRecord
  2
*D7
340
0
  0
BLOCK_RECORD
  5
8CB5
330
7466
100
AcDbSymbolTableRecord
100
AcDbBlockTableRecord
  2
*D8
340
0
  0
BLOCK_RECORD
  5
8CC4
330
7466
100
AcDbSymbolTableRecord
100
AcDbBlockTableRecord
  2
*D9
340
0
  0
BLOCK_RECORD
  5
8CD1
330
7466
100
AcDbSymbolTableRecord
100
AcDbBlockTableRecord
  2
*D10
340
0
  0
BLOCK_RECORD
  5
8D8A
330
7466
100
AcDbSymbolTableRecord
100
AcDbBlockTableRecord
  2
*D11
340
0
  0
BLOCK_RECORD
  5
8D97
330
7466
100
AcDbSymbolTableRecord
100
AcDbBlockTableRecord
  2
*D12
340
0
  0
BLOCK_RECORD
  5
8DA4
330
7466
100
AcDbSymbolTableRecord
100
AcDbBlockTableRecord
  2
*D13
340
0
  0
BLOCK_RECORD
  5
8F2C
330
7466
100
AcDbSymbolTableRecord
100
AcDbBlockTableRecord
  2
*D14
340
0
  0
BLOCK_RECORD
  5
9077
330
7466
100
AcDbSymbolTableRecord
100
AcDbBlockTableRecord
  2
*D15
340
0
  0
BLOCK_RECORD
  5
9084
330
7466
100
AcDbSymbolTableRecord
100
AcDbBlockTableRecord
  2
*D16
340
0
  0
BLOCK_RECORD
  5
9203
330
7466
100
AcDbSymbolTableRecord
100
AcDbBlockTableRecord
  2
*D17
340
0
  0
BLOCK_RECORD
  5
9242
330
7466
100
AcDbSymbolTableRecord
100
AcDbBlockTableRecord
  2
*D18
340
0
  0
BLOCK_RECORD
  5
9251
330
7466
100
AcDbSymbolTableRecord
100
AcDbBlockTableRecord
  2
*D19
340
0
  0
BLOCK_RECORD
  5
9260
330
7466
100
AcDbSymbolTableRecord
100
AcDbBlockTableRecord
  2
*D20
340
0
  0
BLOCK_RECORD
  5
9290
330
7466
100
AcDbSymbolTableRecord
100
AcDbBlockTableRecord
  2
*D21
340
0
  0
BLOCK_RECORD
  5
A02D
330
7466
100
AcDbSymbolTableRecord
100
AcDbBlockTableRecord
  2
*D22
340
0
  0
BLOCK_RECORD
  5
A03A
330
7466
100
AcDbSymbolTableRecord
100
AcDbBlockTableRecord
  2
*D23
340
0
  0
BLOCK_RECORD
  5
A049
330
7466
100
AcDbSymbolTableRecord
100
AcDbBlockTableRecord
  2
*D24
340
0
  0
BLOCK_RECORD
  5
A073
330
7466
100
AcDbSymbolTableRecord
100
AcDbBlockTableRecord
  2
*D25
340
0
  0
BLOCK_RECORD
  5
A082
330
7466
100
AcDbSymbolTableRecord
100
AcDbBlockTableRecord
  2
*D26
340
0
  0
BLOCK_RECORD
  5
A2EC
330
7466
100
AcDbSymbolTableRecord
100
AcDbBlockTableRecord
  2
*D27
340
0
  0
BLOCK_RECORD
  5
A32A
330
7466
100
AcDbSymbolTableRecord
100
AcDbBlockTableRecord
  2
*D28
340
0
  0
BLOCK_RECORD
  5
A485
330
7466
100
AcDbSymbolTableRecord
100
AcDbBlockTableRecord
  2
*D29
340
0
  0
BLOCK_RECORD
  5
A494
330
7466
100
AcDbSymbolTableRecord
100
AcDbBlockTableRecord
  2
*D30
340
0
  0
BLOCK_RECORD
  5
A67B
330
7466
100
AcDbSymbolTableRecord
100
AcDbBlockTableRecord
  2
*D31
340
0
  0
BLOCK_RECORD
  5
A6DE
330
7466
100
AcDbSymbolTableRecord
100
AcDbBlockTableRecord
  2
*D32
340
0
  0
BLOCK_RECORD
  5
A6EB
330
7466
100
AcDbSymbolTableRecord
100
AcDbBlockTableRecord
  2
*D33
340
0
  0
BLOCK_RECORD
  5
A6FA
330
7466
100
AcDbSymbolTableRecord
100
AcDbBlockTableRecord
  2
*D34
340
0
  0
ENDTAB
  0
ENDSEC
  0
SECTION
  2
BLOCKS
  0
BLOCK
  5
7489
330
747D
100
AcDbEntity
  8
0
100
AcDbBlockBegin
  2
*MODEL_SPACE
 70
     0
 10
0.0
 20
0.0
 30
0.0
  3
*MODEL_SPACE
  1

  0
ENDBLK
  5
748A
330
747D
100
AcDbEntity
  8
0
100
AcDbBlockEnd
  0
BLOCK
  5
7487
330
747A
100
AcDbEntity
 67
     1
  8
0
100
AcDbBlockBegin
  2
*PAPER_SPACE
 70
     2
 10
0.0
 20
0.0
 30
0.0
  3
*PAPER_SPACE
  1

  0
ENDBLK
  5
7488
330
747A
100
AcDbEntity
 67
     1
  8
0
100
AcDbBlockEnd
  0
BLOCK
  5
7494
330
7493
100
AcDbEntity
  8
0
100
AcDbBlockBegin
  2
TITLE_BLOCK
 70
     2
 10
0.0
 20
0.0
 30
0.0
  3
TITLE_BLOCK
  1

  0
LINE
  5
7495
330
7493
100
AcDbEntity
  8
0
 62
     0
100
AcDbLine
 10
402.7943262411347
 20
16.00000000000008
 30
0.0
 11
410.0
 21
16.00000000000008
 31
0.0
  0
LINE
  5
7496
330
7493
100
AcDbEntity
  8
0
 62
     0
100
AcDbLine
 10
410.0
 20
10.0
 30
0.0
 11
410.0
 21
49.00000000000036
 31
0.0
  0
LINE
  5
7497
330
7493
100
AcDbEntity
  8
0
 62
     0
100
AcDbLine
 10
410.0
 20
49.00000000000036
 30
0.0
 11
410.0
 21
10.0
 31
0.0
  0
LINE
  5
7498
330
7493
100
AcDbEntity
  8
0
 62
     0
100
AcDbLine
 10
402.7943262411347
 20
22.00000000000012
 30
0.0
 11
402.7943262411347
 21
10.0
 31
0.0
  0
LINE
  5
7499
330
7493
100
AcDbEntity
  8
0
 62
     0
100
AcDbLine
 10
336.1418439716306
 20
49.00000000000036
 30
0.0
 11
336.1418439716306
 21
22.00000000000012
 31
0.0
  0
LINE
  5
749A
330
7493
100
AcDbEntity
  8
0
 62
     0
100
AcDbLine
 10
325.3333333333324
 20
37.00000000000024
 30
0.0
 11
325.3333333333324
 21
25.00000000000012
 31
0.0
  0
LINE
  5
749B
330
7493
100
AcDbEntity
  8
0
 62
     0
100
AcDbLine
 10
318.1276595744673
 20
49.00000000000036
 30
0.0
 11
318.1276595744673
 21
25.00000000000012
 31
0.0
  0
LINE
  5
749C
330
7493
100
AcDbEntity
  8
0
 62
     0
100
AcDbLine
 10
318.1276595744673
 20
25.00000000000012
 30
0.0
 11
348.7517730496447
 21
25.00000000000012
 31
0.0
  0
LINE
  5
749D
330
7493
100
AcDbEntity
  8
0
 62
     0
100
AcDbLine
 10
280.297872340424
 20
28.00000000000014
 30
0.0
 11
348.7517730496447
 21
28.00000000000014
 31
0.0
  0
LINE
  5
749E
330
7493
100
AcDbEntity
  8
0
 62
     0
100
AcDbLine
 10
280.297872340424
 20
31.0000000000002
 30
0.0
 11
348.7517730496447
 21
31.0000000000002
 31
0.0
  0
LINE
  5
749F
330
7493
100
AcDbEntity
  8
0
 62
     0
100
AcDbLine
 10
280.297872340424
 20
34.00000000000024
 30
0.0
 11
348.7517730496447
 21
34.00000000000024
 31
0.0
  0
LINE
  5
74A0
330
7493
100
AcDbEntity
  8
0
 62
     0
100
AcDbLine
 10
280.297872340424
 20
19.00000000000006
 30
0.0
 11
318.1276595744673
 21
19.00000000000012
 31
0.0
  0
LINE
  5
74A1
330
7493
100
AcDbEntity
  8
0
 62
     0
100
AcDbLine
 10
280.297872340424
 20
22.00000000000007
 30
0.0
 11
318.1276595744673
 21
22.00000000000012
 31
0.0
  0
LINE
  5
74A2
330
7493
100
AcDbEntity
  8
0
 62
     0
100
AcDbLine
 10
280.297872340424
 20
25.00000000000012
 30
0.0
 11
318.1276595744673
 21
25.00000000000012
 31
0.0
  0
TEXT
  5
74A3
330
7493
100
AcDbEntity
  8
0
 62
     0
100
AcDbText
 10
342.2447163844405
 20
10.55220101068185
 30
0.0
 40
1.791674070777746
  1
照査
  7
ADESK1
 72
     1
 11
344.1558353932701
 21
10.55220101068185
 31
0.0
100
AcDbText
  0
TEXT
  5
74A4
330
7493
100
AcDbEntity
  8
0
 62
     0
100
AcDbText
 10
332.2960689314087
 20
10.48329012996928
 30
0.0
 40
1.791674070777746
  1
設計
  7
ADESK1
 72
     1
 11
334.2071879402383
 21
10.48329012996928
 31
0.0
100
AcDbText
  0
TEXT
  5
74A5
330
7493
100
AcDbEntity
  8
0
 62
     0
100
AcDbText
 10
321.7174935280942
 20
10.48329012996928
 30
0.0
 40
1.791674070777746
  1
製図
  7
ADESK1
 72
     1
 11
323.5688900678979
 21
10.48329012996928
 31
0.0
100
AcDbText
  0
LINE
  5
74A6
330
7493
100
AcDbEntity
  8
0
 62
     0
100
AcDbLine
 10
280.297872340424
 20
10.0
 30
0.0
 11
280.297872340424
 21
13.00000000000003
 31
0.0
  0
LINE
  5
74A7
330
7493
100
AcDbEntity
  8
0
 62
     0
100
AcDbLine
 10
280.297872340424
 20
16.00000000000008
 30
0.0
 11
318.1276595744673
 21
16.00000000000008
 31
0.0
  0
LINE
  5
74A8
330
7493
100
AcDbEntity
  8
0
 62
     0
100
AcDbLine
 10
339.4042553191483
 20
22.00000000000007
 30
0.0
 11
339.4042553191483
 21
10.0
 31
0.0
  0
LINE
  5
74A9
330
7493
100
AcDbEntity
  8
0
 62
     0
100
AcDbLine
 10
328.7659574468076
 20
22.00000000000007
 30
0.0
 11
328.7659574468076
 21
10.0
 31
0.0
  0
LINE
  5
74AA
330
7493
100
AcDbEntity
  8
0
 62
     0
100
AcDbLine
 10
348.7517730496447
 20
49.00000000000036
 30
0.0
 11
348.7517730496447
 21
10.0
 31
0.0
  0
LINE
  5
74AB
330
7493
100
AcDbEntity
  8
0
 62
     0
100
AcDbLine
 10
280.297872340424
 20
49.00000000000036
 30
0.0
 11
280.297872340424
 21
10.0
 31
0.0
  0
LINE
  5
74AC
330
7493
100
AcDbEntity
  8
0
 62
     0
100
AcDbLine
 10
318.1276595744673
 20
25.00000000000012
 30
0.0
 11
318.1276595744673
 21
10.0
 31
0.0
  0
LINE
  5
74AD
330
7493
100
AcDbEntity
  8
0
 62
     0
100
AcDbLine
 10
312.7234042553183
 20
37.00000000000024
 30
0.0
 11
312.7234042553183
 21
10.0
 31
0.0
  0
LINE
  5
74AE
330
7493
100
AcDbEntity
  8
0
 62
     0
100
AcDbLine
 10
285.7021276595729
 20
37.00000000000024
 30
0.0
 11
285.7021276595729
 21
10.0
 31
0.0
  0
LINE
  5
74AF
330
7493
100
AcDbEntity
  8
0
 62
     0
100
AcDbLine
 10
303.7163120567365
 20
37.00000000000024
 30
0.0
 11
303.7163120567365
 21
10.0
 31
0.0
  0
LINE
  5
74B0
330
7493
100
AcDbEntity
  8
0
 62
     0
100
AcDbLine
 10
410.0
 20
49.00000000000036
 30
0.0
 11
280.297872340424
 21
49.00000000000036
 31
0.0
  0
LINE
  5
74B1
330
7493
100
AcDbEntity
  8
0
 62
     0
100
AcDbLine
 10
280.297872340424
 20
10.0
 30
0.0
 11
410.0
 21
10.0
 31
0.0
  0
LINE
  5
74B2
330
7493
100
AcDbEntity
  8
0
 62
     0
100
AcDbLine
 10
318.1276595744673
 20
22.00000000000012
 30
0.0
 11
410.0
 21
22.00000000000012
 31
0.0
  0
LINE
  5
74B3
330
7493
100
AcDbEntity
  8
0
 62
     0
100
AcDbLine
 10
280.297872340424
 20
37.00000000000024
 30
0.0
 11
410.0
 21
37.00000000000024
 31
0.0
  0
LINE
  5
74B4
330
7493
100
AcDbEntity
  8
0
 62
     0
100
AcDbLine
 10
280.297872340424
 20
13.00000000000003
 30
0.0
 11
410.0
 21
13.00000000000003
 31
0.0
  0
LINE
  5
74B5
330
7493
100
AcDbEntity
  8
0
 62
     0
100
AcDbLine
 10
280.297872340424
 20
49.00000000000036
 30
0.0
 11
410.0
 21
49.00000000000036
 31
0.0
  0
TEXT
  5
74B6
330
7493
100
AcDbEntity
  8
0
100
AcDbText
 10
411.3708251683467
 20
33.08333333333334
 30
0.0
 40
3.0
  1
F
  7
ADESK1
 72
     1
 11
412.8708251683468
 21
33.08333333333334
 31
0.0
100
AcDbText
  0
TEXT
  5
74B7
330
7493
100
AcDbEntity
  8
0
100
AcDbText
 10
411.3708251683467
 20
79.25
 30
0.0
 40
3.0
  1
E
  7
ADESK1
 72
     1
 11
412.8708251683468
 21
79.25
 31
0.0
100
AcDbText
  0
TEXT
  5
74B8
330
7493
100
AcDbEntity
  8
0
100
AcDbText
 10
411.2993965969182
 20
125.4166666666665
 30
0.0
 40
3.0
  1
D
  7
ADESK1
 72
     1
 11
412.8708251683468
 21
125.4166666666665
 31
0.0
100
AcDbText
  0
TEXT
  5
74B9
330
7493
100
AcDbEntity
  8
0
100
AcDbText
 10
411.3708251683467
 20
171.5833333333333
 30
0.0
 40
3.0
  1
C
  7
ADESK1
 72
     1
 11
412.8708251683468
 21
171.5833333333333
 31
0.0
100
AcDbText
  0
TEXT
  5
74BA
330
7493
100
AcDbEntity
  8
0
100
AcDbText
 10
411.2993965969182
 20
217.7499999999999
 30
0.0
 40
3.0
  1
B
  7
ADESK1
 72
     1
 11
412.8708251683468
 21
217.7499999999999
 31
0.0
100
AcDbText
  0
TEXT
  5
74BB
330
7493
100
AcDbEntity
  8
0
100
AcDbText
 10
411.5851108826324
 20
263.9166666666666
 30
0.0
 40
3.0
  1
A
  7
ADESK1
 72
     1
 11
412.8708251683468
 21
263.9166666666666
 31
0.0
100
AcDbText
  0
TEXT
  5
74BC
330
7493
100
AcDbEntity
  8
0
100
AcDbText
 10
384.5089285714285
 20
6.019997240728746
 30
0.0
 40
3.0
  1
8
  7
ADESK1
 72
     1
 11
385.9375
 21
6.019997240728746
 31
0.0
100
AcDbText
  0
TEXT
  5
74BD
330
7493
100
AcDbEntity
  8
0
100
AcDbText
 10
336.3839285714285
 20
6.019997240728746
 30
0.0
 40
3.0
  1
7
  7
ADESK1
 72
     1
 11
337.8125
 21
6.019997240728746
 31
0.0
100
AcDbText
  0
TEXT
  5
74BE
330
7493
100
AcDbEntity
  8
0
100
AcDbText
 10
288.1874999999999
 20
6.019997240728746
 30
0.0
 40
3.0
  1
6
  7
ADESK1
 72
     1
 11
289.6875
 21
6.019997240728746
 31
0.0
100
AcDbText
  0
TEXT
  5
74BF
330
7493
100
AcDbEntity
  8
0
100
AcDbText
 10
240.1339285714285
 20
6.019997240728746
 30
0.0
 40
3.0
  1
5
  7
ADESK1
 72
     1
 11
241.5624999999999
 21
6.019997240728746
 31
0.0
100
AcDbText
  0
TEXT
  5
74C0
330
7493
100
AcDbEntity
  8
0
100
AcDbText
 10
191.9375
 20
6.019997240728746
 30
0.0
 40
3.0
  1
4
  7
ADESK1
 72
     1
 11
193.4375
 21
6.019997240728746
 31
0.0
100
AcDbText
  0
TEXT
  5
74C1
330
7493
100
AcDbEntity
  8
0
100
AcDbText
 10
143.8839285714285
 20
6.019997240728746
 30
0.0
 40
3.0
  1
3
  7
ADESK1
 72
     1
 11
145.3125
 21
6.019997240728746
 31
0.0
100
AcDbText
  0
TEXT
  5
74C2
330
7493
100
AcDbEntity
  8
0
100
AcDbText
 10
95.75892857142857
 20
6.019997240728746
 30
0.0
 40
3.0
  1
2
  7
ADESK1
 72
     1
 11
97.1875
 21
6.019997240728746
 31
0.0
100
AcDbText
  0
TEXT
  5
74C3
330
7493
100
AcDbEntity
  8
0
100
AcDbText
 10
47.84821428571429
 20
6.019997240728746
 30
0.0
 40
3.0
  1
1
  7
ADESK1
 72
     1
 11
49.0625
 21
6.019997240728746
 31
0.0
100
AcDbText
  0
TEXT
  5
74C4
330
7493
100
AcDbEntity
  8
0
100
AcDbText
 10
21.10716135953389
 20
33.08333333333334
 30
0.0
 40
3.0
  1
F
  7
ADESK1
 72
     1
 11
22.60716135953388
 21
33.08333333333334
 31
0.0
100
AcDbText
  0
TEXT
  5
74C5
330
7493
100
AcDbEntity
  8
0
100
AcDbText
 10
21.10716135953389
 20
79.25
 30
0.0
 40
3.0
  1
E
  7
ADESK1
 72
     1
 11
22.60716135953388
 21
79.25
 31
0.0
100
AcDbText
  0
TEXT
  5
74C6
330
7493
100
AcDbEntity
  8
0
100
AcDbText
 10
21.03573278810532
 20
125.4166666666665
 30
0.0
 40
3.0
  1
D
  7
ADESK1
 72
     1
 11
22.60716135953388
 21
125.4166666666665
 31
0.0
100
AcDbText
  0
TEXT
  5
74C7
330
7493
100
AcDbEntity
  8
0
100
AcDbText
 10
21.10716135953389
 20
171.5833333333333
 30
0.0
 40
3.0
  1
C
  7
ADESK1
 72
     1
 11
22.60716135953388
 21
171.5833333333333
 31
0.0
100
AcDbText
  0
TEXT
  5
74C8
330
7493
100
AcDbEntity
  8
0
100
AcDbText
 10
21.03573278810532
 20
217.7499999999999
 30
0.0
 40
3.0
  1
B
  7
ADESK1
 72
     1
 11
22.60716135953388
 21
217.7499999999999
 31
0.0
100
AcDbText
  0
TEXT
  5
74C9
330
7493
100
AcDbEntity
  8
0
100
AcDbText
 10
384.5089285714285
 20
288.0
 30
0.0
 40
3.0
  1
8
  7
ADESK1
 72
     1
 11
385.9375
 21
288.0
 31
0.0
100
AcDbText
  0
TEXT
  5
74CA
330
7493
100
AcDbEntity
  8
0
100
AcDbText
 10
336.3839285714285
 20
288.0
 30
0.0
 40
3.0
  1
7
  7
ADESK1
 72
     1
 11
337.8125
 21
288.0
 31
0.0
100
AcDbText
  0
TEXT
  5
74CB
330
7493
100
AcDbEntity
  8
0
100
AcDbText
 10
288.1874999999999
 20
288.0
 30
0.0
 40
3.0
  1
6
  7
ADESK1
 72
     1
 11
289.6875
 21
288.0
 31
0.0
100
AcDbText
  0
TEXT
  5
74CC
330
7493
100
AcDbEntity
  8
0
100
AcDbText
 10
240.1339285714285
 20
288.0
 30
0.0
 40
3.0
  1
5
  7
ADESK1
 72
     1
 11
241.5624999999999
 21
288.0
 31
0.0
100
AcDbText
  0
TEXT
  5
74CD
330
7493
100
AcDbEntity
  8
0
100
AcDbText
 10
191.9375
 20
288.0
 30
0.0
 40
3.0
  1
4
  7
ADESK1
 72
     1
 11
193.4375
 21
288.0
 31
0.0
100
AcDbText
  0
TEXT
  5
74CE
330
7493
100
AcDbEntity
  8
0
100
AcDbText
 10
143.8839285714285
 20
288.0
 30
0.0
 40
3.0
  1
3
  7
ADESK1
 72
     1
 11
145.3125
 21
288.0
 31
0.0
100
AcDbText
  0
TEXT
  5
74CF
330
7493
100
AcDbEntity
  8
0
100
AcDbText
 10
95.75892857142857
 20
288.0
 30
0.0
 40
3.0
  1
2
  7
ADESK1
 72
     1
 11
97.1875
 21
288.0
 31
0.0
100
AcDbText
  0
TEXT
  5
74D0
330
7493
100
AcDbEntity
  8
0
100
AcDbText
 10
21.3214470738196
 20
263.9166666666666
 30
0.0
 40
3.0
  1
A
  7
ADESK1
 72
     1
 11
22.60716135953388
 21
263.9166666666666
 31
0.0
100
AcDbText
  0
TEXT
  5
74D1
330
7493
100
AcDbEntity
  8
0
100
AcDbText
 10
47.84821428571429
 20
288.0
 30
0.0
 40
3.0
  1
1
  7
ADESK1
 72
     1
 11
49.0625
 21
288.0
 31
0.0
100
AcDbText
  0
LINE
  5
74D2
330
7493
100
AcDbEntity
  8
0
100
AcDbLine
 10
73.125
 20
287.0
 30
0.0
 11
73.125
 21
292.0
 31
0.0
  0
LINE
  5
74D3
330
7493
100
AcDbEntity
  8
0
100
AcDbLine
 10
121.25
 20
287.0
 30
0.0
 11
121.25
 21
292.0
 31
0.0
  0
LINE
  5
74D4
330
7493
100
AcDbEntity
  8
0
100
AcDbLine
 10
169.375
 20
287.0
 30
0.0
 11
169.375
 21
292.0
 31
0.0
  0
LINE
  5
74D5
330
7493
100
AcDbEntity
  8
0
100
AcDbLine
 10
217.5
 20
287.0
 30
0.0
 11
217.5
 21
292.0
 31
0.0
  0
LINE
  5
74D6
330
7493
100
AcDbEntity
  8
0
100
AcDbLine
 10
265.625
 20
287.0
 30
0.0
 11
265.625
 21
292.0
 31
0.0
  0
LINE
  5
74D7
330
7493
100
AcDbEntity
  8
0
100
AcDbLine
 10
313.75
 20
287.0
 30
0.0
 11
313.75
 21
292.0
 31
0.0
  0
LINE
  5
74D8
330
7493
100
AcDbEntity
  8
0
100
AcDbLine
 10
361.8749999999998
 20
287.0
 30
0.0
 11
361.8749999999998
 21
292.0
 31
0.0
  0
LINE
  5
74D9
330
7493
100
AcDbEntity
  8
0
100
AcDbLine
 10
361.8749999999998
 20
10.0
 30
0.0
 11
361.8749999999998
 21
5.0
 31
0.0
  0
LINE
  5
74DA
330
7493
100
AcDbEntity
  8
0
100
AcDbLine
 10
313.75
 20
10.0
 30
0.0
 11
313.75
 21
5.0
 31
0.0
  0
LINE
  5
74DB
330
7493
100
AcDbEntity
  8
0
100
AcDbLine
 10
265.625
 20
10.0
 30
0.0
 11
265.625
 21
5.0
 31
0.0
  0
LINE
  5
74DC
330
7493
100
AcDbEntity
  8
0
100
AcDbLine
 10
217.5
 20
10.0
 30
0.0
 11
217.5
 21
5.0
 31
0.0
  0
LINE
  5
74DD
330
7493
100
AcDbEntity
  8
0
100
AcDbLine
 10
169.375
 20
10.0
 30
0.0
 11
169.375
 21
5.0
 31
0.0
  0
LINE
  5
74DE
330
7493
100
AcDbEntity
  8
0
100
AcDbLine
 10
121.25
 20
10.0
 30
0.0
 11
121.25
 21
5.0
 31
0.0
  0
LINE
  5
74DF
330
7493
100
AcDbEntity
  8
0
100
AcDbLine
 10
73.125
 20
10.0
 30
0.0
 11
73.125
 21
5.0
 31
0.0
  0
LINE
  5
74E0
330
7493
100
AcDbEntity
  8
0
100
AcDbLine
 10
410.0
 20
240.8333333333333
 30
0.0
 11
415.0
 21
240.8333333333333
 31
0.0
  0
LINE
  5
74E1
330
7493
100
AcDbEntity
  8
0
100
AcDbLine
 10
410.0
 20
194.6666666666667
 30
0.0
 11
415.0
 21
194.6666666666667
 31
0.0
  0
LINE
  5
74E2
330
7493
100
AcDbEntity
  8
0
100
AcDbLine
 10
410.0
 20
148.5
 30
0.0
 11
415.0
 21
148.5
 31
0.0
  0
LINE
  5
74E3
330
7493
100
AcDbEntity
  8
0
100
AcDbLine
 10
410.0
 20
102.3333333333332
 30
0.0
 11
415.0
 21
102.3333333333332
 31
0.0
  0
LINE
  5
74E4
330
7493
100
AcDbEntity
  8
0
100
AcDbLine
 10
410.0
 20
56.16666666666668
 30
0.0
 11
415.0
 21
56.16666666666668
 31
0.0
  0
LINE
  5
74E5
330
7493
100
AcDbEntity
  8
0
100
AcDbLine
 10
25.0
 20
56.16666666666667
 30
0.0
 11
20.0
 21
56.16666666666667
 31
0.0
  0
LINE
  5
74E6
330
7493
100
AcDbEntity
  8
0
100
AcDbLine
 10
25.0
 20
102.3333333333332
 30
0.0
 11
20.0
 21
102.3333333333332
 31
0.0
  0
LINE
  5
74E7
330
7493
100
AcDbEntity
  8
0
100
AcDbLine
 10
25.0
 20
148.5
 30
0.0
 11
20.0
 21
148.5
 31
0.0
  0
LINE
  5
74E8
330
7493
100
AcDbEntity
  8
0
100
AcDbLine
 10
25.0
 20
194.6666666666666
 30
0.0
 11
20.0
 21
194.6666666666666
 31
0.0
  0
LINE
  5
74E9
330
7493
100
AcDbEntity
  8
0
100
AcDbLine
 10
25.0
 20
240.8333333333333
 30
0.0
 11
20.0
 21
240.8333333333333
 31
0.0
  0
TEXT
  5
74EA
330
7493
100
AcDbEntity
  8
0
100
AcDbText
 10
1.0
 20
1.0
 30
0.0
 40
3.0
  1
この図枠はサンプルです。社内の規格やプロッタの出力範囲に合わせて適当に変更してご利用ください。
  7
ADESK1
100
AcDbText
  0
LINE
  5
74EB
330
7493
100
AcDbEntity
  8
0
100
AcDbLine
 10
25.0
 20
148.5
 30
0.0
 11
0.0
 21
148.5
 31
0.0
  0
LINE
  5
74EC
330
7493
100
AcDbEntity
  8
0
100
AcDbLine
 10
410.0
 20
148.5
 30
0.0
 11
420.0
 21
148.5
 31
0.0
  0
LINE
  5
74ED
330
7493
100
AcDbEntity
  8
0
100
AcDbLine
 10
217.5
 20
287.0
 30
0.0
 11
217.5
 21
297.0
 31
0.0
  0
LINE
  5
74EE
330
7493
100
AcDbEntity
  8
0
100
AcDbLine
 10
217.5
 20
10.0
 30
0.0
 11
217.5
 21
0.0
 31
0.0
  0
LINE
  5
74EF
330
7493
100
AcDbEntity
  8
OBJECT
100
AcDbLine
 10
130.0
 20
40.0
 30
0.0
 11
130.0
 21
10.0
 31
0.0
  0
LINE
  5
74F0
330
7493
100
AcDbEntity
  8
OBJECT
100
AcDbLine
 10
120.0
 20
10.0
 30
0.0
 11
120.0
 21
40.0
 31
0.0
  0
LINE
  5
74F1
330
7493
100
AcDbEntity
  8
OBJECT
100
AcDbLine
 10
44.5
 20
37.0
 30
0.0
 11
45.49999999999999
 21
37.0
 31
0.0
  0
LINE
  5
74F2
330
7493
100
AcDbEntity
  8
OBJECT
100
AcDbLine
 10
44.5
 20
31.0
 30
0.0
 11
45.49999999999999
 21
31.0
 31
0.0
  0
LINE
  5
74F3
330
7493
100
AcDbEntity
  8
OBJECT
100
AcDbLine
 10
39.5
 20
37.0
 30
0.0
 11
40.49999999999999
 21
37.0
 31
0.0
  0
LINE
  5
74F4
330
7493
100
AcDbEntity
  8
OBJECT
100
AcDbLine
 10
39.5
 20
31.0
 30
0.0
 11
40.49999999999999
 21
31.0
 31
0.0
  0
LINE
  5
74F5
330
7493
100
AcDbEntity
  8
OBJECT
100
AcDbLine
 10
44.5
 20
25.0
 30
0.0
 11
45.49999999999999
 21
25.0
 31
0.0
  0
LINE
  5
74F6
330
7493
100
AcDbEntity
  8
OBJECT
100
AcDbLine
 10
39.5
 20
25.0
 30
0.0
 11
40.49999999999999
 21
25.0
 31
0.0
  0
LINE
  5
74F7
330
7493
100
AcDbEntity
  8
OBJECT
100
AcDbLine
 10
44.5
 20
19.0
 30
0.0
 11
45.49999999999999
 21
19.0
 31
0.0
  0
LINE
  5
74F8
330
7493
100
AcDbEntity
  8
OBJECT
100
AcDbLine
 10
39.5
 20
19.0
 30
0.0
 11
40.49999999999999
 21
19.0
 31
0.0
  0
LINE
  5
74F9
330
7493
100
AcDbEntity
  8
OBJECT
100
AcDbLine
 10
28.0
 20
29.53589799999999
 30
0.0
 11
30.0
 21
33.0
 31
0.0
  0
LINE
  5
74FA
330
7493
100
AcDbEntity
  8
OBJECT
100
AcDbLine
 10
28.0
 20
29.53589799999999
 30
0.0
 11
32.0
 21
29.53589799999999
 31
0.0
  0
LINE
  5
74FB
330
7493
100
AcDbEntity
  8
OBJECT
100
AcDbLine
 10
32.0
 20
29.53589799999999
 30
0.0
 11
30.0
 21
33.0
 31
0.0
  0
LINE
  5
74FC
330
7493
100
AcDbEntity
  8
OBJECT
100
AcDbLine
 10
28.0
 20
35.53589799999999
 30
0.0
 11
32.0
 21
35.53589799999999
 31
0.0
  0
LINE
  5
74FD
330
7493
100
AcDbEntity
  8
OBJECT
100
AcDbLine
 10
32.0
 20
35.53589799999999
 30
0.0
 11
30.0
 21
39.0
 31
0.0
  0
LINE
  5
74FE
330
7493
100
AcDbEntity
  8
OBJECT
100
AcDbLine
 10
28.0
 20
35.53589799999999
 30
0.0
 11
30.0
 21
39.0
 31
0.0
  0
LINE
  5
74FF
330
7493
100
AcDbEntity
  8
OBJECT
100
AcDbLine
 10
28.0
 20
23.53589799999999
 30
0.0
 11
30.0
 21
26.99999999999999
 31
0.0
  0
LINE
  5
7500
330
7493
100
AcDbEntity
  8
OBJECT
100
AcDbLine
 10
28.0
 20
23.53589799999999
 30
0.0
 11
32.0
 21
23.53589799999999
 31
0.0
  0
LINE
  5
7501
330
7493
100
AcDbEntity
  8
OBJECT
100
AcDbLine
 10
32.0
 20
23.53589799999999
 30
0.0
 11
30.0
 21
26.99999999999999
 31
0.0
  0
LINE
  5
7502
330
7493
100
AcDbEntity
  8
OBJECT
100
AcDbLine
 10
28.0
 20
17.535898
 30
0.0
 11
30.0
 21
20.99999999999999
 31
0.0
  0
LINE
  5
7503
330
7493
100
AcDbEntity
  8
OBJECT
100
AcDbLine
 10
28.0
 20
17.535898
 30
0.0
 11
32.0
 21
17.535898
 31
0.0
  0
LINE
  5
7504
330
7493
100
AcDbEntity
  8
OBJECT
100
AcDbLine
 10
32.0
 20
17.535898
 30
0.0
 11
30.0
 21
20.99999999999999
 31
0.0
  0
LINE
  5
7505
330
7493
100
AcDbEntity
  8
OBJECT
100
AcDbLine
 10
44.5
 20
13.0
 30
0.0
 11
45.49999999999999
 21
13.0
 31
0.0
  0
LINE
  5
7506
330
7493
100
AcDbEntity
  8
OBJECT
100
AcDbLine
 10
39.5
 20
13.0
 30
0.0
 11
40.49999999999999
 21
13.0
 31
0.0
  0
LINE
  5
7507
330
7493
100
AcDbEntity
  8
OBJECT
100
AcDbLine
 10
28.0
 20
11.53589799999999
 30
0.0
 11
32.0
 21
11.53589799999999
 31
0.0
  0
LINE
  5
7508
330
7493
100
AcDbEntity
  8
OBJECT
100
AcDbLine
 10
80.0
 20
10.0
 30
0.0
 11
80.0
 21
40.0
 31
0.0
  0
LINE
  5
7509
330
7493
100
AcDbEntity
  8
OBJECT
100
AcDbLine
 10
50.0
 20
10.0
 30
0.0
 11
50.0
 21
40.0
 31
0.0
  0
LINE
  5
750A
330
7493
100
AcDbEntity
  8
OBJECT
100
AcDbLine
 10
35.0
 20
10.0
 30
0.0
 11
35.0
 21
40.0
 31
0.0
  0
LINE
  5
750B
330
7493
100
AcDbEntity
  8
OBJECT
100
AcDbLine
 10
32.0
 20
11.53589799999999
 30
0.0
 11
30.0
 21
15.0
 31
0.0
  0
LINE
  5
750C
330
7493
100
AcDbEntity
  8
OBJECT
100
AcDbLine
 10
28.0
 20
11.53589799999999
 30
0.0
 11
30.0
 21
15.0
 31
0.0
  0
LINE
  5
750D
330
7493
100
AcDbEntity
  8
OBJECT
100
AcDbLine
 10
130.0
 20
40.0
 30
0.0
 11
25.0
 21
40.0
 31
0.0
  0
LINE
  5
750E
330
7493
100
AcDbEntity
  8
OBJECT
100
AcDbLine
 10
130.0
 20
34.0
 30
0.0
 11
25.0
 21
34.0
 31
0.0
  0
LINE
  5
750F
330
7493
100
AcDbEntity
  8
OBJECT
100
AcDbLine
 10
130.0
 20
28.0
 30
0.0
 11
25.0
 21
28.0
 31
0.0
  0
LINE
  5
7510
330
7493
100
AcDbEntity
  8
OBJECT
100
AcDbLine
 10
130.0
 20
22.0
 30
0.0
 11
25.0
 21
22.0
 31
0.0
  0
LINE
  5
7511
330
7493
100
AcDbEntity
  8
OBJECT
100
AcDbLine
 10
130.0
 20
16.0
 30
0.0
 11
25.0
 21
16.0
 31
0.0
  0
ATTDEF
  5
7512
330
7493
100
AcDbEntity
  8
0
 62
     0
100
AcDbText
 10
19.0
 20
118.0
 30
0.0
 40
3.0
  1

 50
90.0
  7
ADESK1
100
AcDbAttributeDefinition
  3

  2
FNAME
 70
     8
  0
ATTDEF
  5
7513
330
7493
100
AcDbEntity
  8
0
 62
     0
100
AcDbText
 10
19.0
 20
70.0
 30
0.0
 40
3.0
  1

 50
90.0
  7
ADESK1
100
AcDbAttributeDefinition
  3

  2
REVDATE
 70
     8
  0
ATTDEF
  5
7514
330
7493
100
AcDbEntity
  8
0
 62
     0
100
AcDbText
 10
19.0
 20
10.0
 30
0.0
 40
3.0
  1

 50
90.0
  7
ADESK1
100
AcDbAttributeDefinition
  3

  2
USER
 70
     8
  0
LINE
  5
7515
330
7493
100
AcDbEntity
  8
0
100
AcDbLine
 10
410.0
 20
297.0
 30
0.0
 11
420.0
 21
297.0
 31
0.0
  0
LINE
  5
7516
330
7493
100
AcDbEntity
  8
0
100
AcDbLine
 10
420.0
 20
10.0
 30
0.0
 11
420.0
 21
0.0
 31
0.0
  0
LINE
  5
7517
330
7493
100
AcDbEntity
  8
0
100
AcDbLine
 10
25.0
 20
0.0
 30
0.0
 11
0.0
 21
0.0
 31
0.0
  0
LINE
  5
7518
330
7493
100
AcDbEntity
  8
0
100
AcDbLine
 10
0.0
 20
287.0
 30
0.0
 11
0.0
 21
297.0
 31
0.0
  0
LINE
  5
7519
330
7493
100
AcDbEntity
  8
0
100
AcDbLine
 10
25.0
 20
287.0
 30
0.0
 11
410.0
 21
287.0
 31
0.0
  0
LINE
  5
751A
330
7493
100
AcDbEntity
  8
0
100
AcDbLine
 10
410.0
 20
287.0
 30
0.0
 11
410.0
 21
10.0
 31
0.0
  0
LINE
  5
751B
330
7493
100
AcDbEntity
  8
0
100
AcDbLine
 10
410.0
 20
10.0
 30
0.0
 11
25.0
 21
10.0
 31
0.0
  0
LINE
  5
751C
330
7493
100
AcDbEntity
  8
0
100
AcDbLine
 10
25.0
 20
10.0
 30
0.0
 11
25.0
 21
287.0
 31
0.0
  0
LINE
  5
751D
330
7493
100
AcDbEntity
  8
0
100
AcDbLine
 10
420.0
 20
0.0
 30
0.0
 11
410.0
 21
0.0
 31
0.0
  0
LINE
  5
751E
330
7493
100
AcDbEntity
  8
0
100
AcDbLine
 10
420.0
 20
297.0
 30
0.0
 11
420.0
 21
287.0
 31
0.0
  0
LINE
  5
751F
330
7493
100
AcDbEntity
  8
0
100
AcDbLine
 10
0.0
 20
297.0
 30
0.0
 11
25.0
 21
297.0
 31
0.0
  0
LINE
  5
7520
330
7493
100
AcDbEntity
  8
0
100
AcDbLine
 10
0.0
 20
0.0
 30
0.0
 11
0.0
 21
10.0
 31
0.0
  0
ENDBLK
  5
7521
330
7493
100
AcDbEntity
  8
0
100
AcDbBlockEnd
  0
BLOCK
  5
890A
330
88FE
100
AcDbEntity
  8
0
 48
20.0
100
AcDbBlockBegin
  2
*D1
 70
     1
 10
0.0
 20
0.0
 30
0.0
  3
*D1
  1

  0
LINE
  5
A8EC
330
88FE
100
AcDbEntity
  8
寸法引出
 48
20.0
370
    -2
100
AcDbLine
 10
908.5782198007601
 20
1945.679872534183
 30
0.0
 11
908.5782198007601
 21
2006.651153297427
 31
0.0
  0
LINE
  5
A8ED
330
88FE
100
AcDbEntity
  8
寸法引出
 48
20.0
370
    -2
100
AcDbLine
 10
948.5782198007601
 20
1950.179872534183
 30
0.0
 11
948.5782198007601
 21
2006.651153297427
 31
0.0
  0
LINE
  5
A8EE
330
88FE
100
AcDbEntity
  8
寸法引出
 48
20.0
370
    -2
100
AcDbLine
 10
886.0782198007601
 20
1999.151153297427
 30
0.0
 11
863.5782198007602
 21
1999.151153297427
 31
0.0
  0
LINE
  5
A8EF
330
88FE
100
AcDbEntity
  8
寸法引出
 48
20.0
370
    -2
100
AcDbLine
 10
971.0782198007601
 20
1999.151153297427
 30
0.0
 11
993.5782198007601
 21
1999.151153297427
 31
0.0
  0
MTEXT
  5
A8F0
330
88FE
100
AcDbEntity
  8
寸法引出
 48
20.0
100
AcDbMText
 10
881.7710332749994
 20
2029.325432855688
 30
0.0
 40
30.0
 41
0.0
 71
     5
 72
     1
  1
\A1;40
  7
SANWA
 73
     1
 44
1.0
  0
LINE
  5
A8F1
330
88FE
100
AcDbEntity
  8
寸法引出
 48
20.0
370
    -2
100
AcDbLine
 10
908.5782198007601
 20
1999.151153297427
 30
0.0
 11
948.5782198007601
 21
1999.151153297427
 31
0.0
  0
SOLID
  5
A8F2
330
88FE
100
AcDbEntity
  8
寸法引出
 48
20.0
100
AcDbTrace
 10
886.0782198007601
 20
2002.901153297427
 30
0.0
 11
886.0782198007601
 21
1995.401153297427
 31
0.0
 12
908.5782198007601
 22
1999.151153297427
 32
0.0
 13
908.5782198007601
 23
1999.151153297427
 33
0.0
  0
SOLID
  5
A8F3
330
88FE
100
AcDbEntity
  8
寸法引出
 48
20.0
100
AcDbTrace
 10
971.0782198007601
 20
2002.901153297427
 30
0.0
 11
971.0782198007601
 21
1995.401153297427
 31
0.0
 12
948.5782198007601
 22
1999.151153297427
 32
0.0
 13
948.5782198007601
 23
1999.151153297427
 33
0.0
  0
POINT
  5
A8F4
330
88FE
100
AcDbEntity
  8
DEFPOINTS
 62
     0
 48
20.0
100
AcDbPoint
 10
908.5782198007601
 20
1930.679872534183
 30
0.0
  0
POINT
  5
A8F5
330
88FE
100
AcDbEntity
  8
DEFPOINTS
 62
     0
 48
20.0
100
AcDbPoint
 10
948.5782198007601
 20
1935.179872534183
 30
0.0
  0
POINT
  5
A8F6
330
88FE
100
AcDbEntity
  8
DEFPOINTS
 62
     0
 48
20.0
100
AcDbPoint
 10
948.5782198007601
 20
1999.151153297427
 30
0.0
  0
ENDBLK
  5
890B
330
88FE
100
AcDbEntity
  8
0
 48
20.0
100
AcDbBlockEnd
  0
BLOCK
  5
8924
330
8918
100
AcDbEntity
  8
0
 48
20.0
100
AcDbBlockBegin
  2
*D2
 70
     1
 10
0.0
 20
0.0
 30
0.0
  3
*D2
  1

  0
LINE
  5
A8F7
330
8918
100
AcDbEntity
  8
寸法引出
 48
20.0
370
    -2
100
AcDbLine
 10
948.5782198007601
 20
1950.179872534183
 30
0.0
 11
948.5782198007601
 21
2006.651153297427
 31
0.0
  0
LINE
  5
A8F8
330
8918
100
AcDbEntity
  8
寸法引出
 48
20.0
370
    -2
100
AcDbLine
 10
951.0782198007593
 20
1860.179872534183
 30
0.0
 11
951.0782198007593
 21
2006.651153297427
 31
0.0
  0
LINE
  5
A8F9
330
8918
100
AcDbEntity
  8
寸法引出
 48
20.0
370
    -2
100
AcDbLine
 10
926.0782198007602
 20
1999.151153297427
 30
0.0
 11
903.5782198007602
 21
1999.151153297427
 31
0.0
  0
LINE
  5
A8FA
330
8918
100
AcDbEntity
  8
寸法引出
 48
20.0
370
    -2
100
AcDbLine
 10
973.5782198007592
 20
1999.151153297427
 30
0.0
 11
996.0782198007592
 21
1999.151153297427
 31
0.0
  0
MTEXT
  5
A8FB
330
8918
100
AcDbEntity
  8
寸法引出
 48
20.0
100
AcDbMText
 10
948.3471139909051
 20
2063.368243719245
 30
0.0
 40
30.0
 41
0.0
 71
     5
 72
     1
  1
\A1;2.5
  7
SANWA
 73
     1
 44
1.0
  0
LINE
  5
A8FC
330
8918
100
AcDbEntity
  8
寸法引出
 48
20.0
370
    -2
100
AcDbLine
 10
948.5782198007601
 20
1999.151153297427
 30
0.0
 11
951.0782198007593
 21
1999.151153297427
 31
0.0
  0
SOLID
  5
A8FD
330
8918
100
AcDbEntity
  8
寸法引出
 48
20.0
100
AcDbTrace
 10
926.0782198007602
 20
2002.901153297427
 30
0.0
 11
926.0782198007602
 21
1995.401153297427
 31
0.0
 12
948.5782198007601
 22
1999.151153297427
 32
0.0
 13
948.5782198007601
 23
1999.151153297427
 33
0.0
  0
SOLID
  5
A8FE
330
8918
100
AcDbEntity
  8
寸法引出
 48
20.0
100
AcDbTrace
 10
973.5782198007592
 20
2002.901153297427
 30
0.0
 11
973.5782198007592
 21
1995.401153297427
 31
0.0
 12
951.0782198007593
 22
1999.151153297427
 32
0.0
 13
951.0782198007593
 23
1999.151153297427
 33
0.0
  0
POINT
  5
A8FF
330
8918
100
AcDbEntity
  8
DEFPOINTS
 62
     0
 48
20.0
100
AcDbPoint
 10
948.5782198007601
 20
1935.179872534183
 30
0.0
  0
POINT
  5
A900
330
8918
100
AcDbEntity
  8
DEFPOINTS
 62
     0
 48
20.0
100
AcDbPoint
 10
951.0782198007593
 20
1845.179872534183
 30
0.0
  0
POINT
  5
A901
330
8918
100
AcDbEntity
  8
DEFPOINTS
 62
     0
 48
20.0
100
AcDbPoint
 10
951.0782198007593
 20
1999.151153297427
 30
0.0
  0
ENDBLK
  5
8925
330
8918
100
AcDbEntity
  8
0
 48
20.0
100
AcDbBlockEnd
  0
BLOCK
  5
8933
330
8927
100
AcDbEntity
  8
0
 48
20.0
100
AcDbBlockBegin
  2
*D3
 70
     1
 10
0.0
 20
0.0
 30
0.0
  3
*D3
  1

  0
LINE
  5
A902
330
8927
100
AcDbEntity
  8
寸法引出
 48
20.0
370
    -2
100
AcDbLine
 10
951.0782198007593
 20
1860.179872534183
 30
0.0
 11
951.0782198007593
 21
2006.651153297427
 31
0.0
  0
LINE
  5
A903
330
8927
100
AcDbEntity
  8
寸法引出
 48
20.0
370
    -2
100
AcDbLine
 10
978.5782198007602
 20
1860.179872534183
 30
0.0
 11
978.5782198007602
 21
2006.651153297427
 31
0.0
  0
LINE
  5
A904
330
8927
100
AcDbEntity
  8
寸法引出
 48
20.0
370
    -2
100
AcDbLine
 10
928.5782198007593
 20
1999.151153297427
 30
0.0
 11
906.0782198007592
 21
1999.151153297427
 31
0.0
  0
LINE
  5
A905
330
8927
100
AcDbEntity
  8
寸法引出
 48
20.0
370
    -2
100
AcDbLine
 10
1001.07821980076
 20
1999.151153297427
 30
0.0
 11
1023.57821980076
 21
1999.151153297427
 31
0.0
  0
MTEXT
  5
A906
330
8927
100
AcDbEntity
  8
寸法引出
 48
20.0
100
AcDbMText
 10
963.8299082113693
 20
2027.778040953545
 30
0.0
 40
30.0
 41
0.0
 71
     5
 72
     1
  1
\A1;27.5
  7
SANWA
 73
     1
 44
1.0
  0
LINE
  5
A907
330
8927
100
AcDbEntity
  8
寸法引出
 48
20.0
370
    -2
100
AcDbLine
 10
951.0782198007593
 20
1999.151153297427
 30
0.0
 11
978.5782198007602
 21
1999.151153297427
 31
0.0
  0
SOLID
  5
A908
330
8927
100
AcDbEntity
  8
寸法引出
 48
20.0
100
AcDbTrace
 10
928.5782198007593
 20
2002.901153297427
 30
0.0
 11
928.5782198007593
 21
1995.401153297427
 31
0.0
 12
951.0782198007593
 22
1999.151153297427
 32
0.0
 13
951.0782198007593
 23
1999.151153297427
 33
0.0
  0
SOLID
  5
A909
330
8927
100
AcDbEntity
  8
寸法引出
 48
20.0
100
AcDbTrace
 10
1001.07821980076
 20
2002.901153297427
 30
0.0
 11
1001.07821980076
 21
1995.401153297427
 31
0.0
 12
978.5782198007602
 22
1999.151153297427
 32
0.0
 13
978.5782198007602
 23
1999.151153297427
 33
0.0
  0
POINT
  5
A90A
330
8927
100
AcDbEntity
  8
DEFPOINTS
 62
     0
 48
20.0
100
AcDbPoint
 10
951.0782198007593
 20
1845.179872534183
 30
0.0
  0
POINT
  5
A90B
330
8927
100
AcDbEntity
  8
DEFPOINTS
 62
     0
 48
20.0
100
AcDbPoint
 10
978.5782198007602
 20
1845.179872534183
 30
0.0
  0
POINT
  5
A90C
330
8927
100
AcDbEntity
  8
DEFPOINTS
 62
     0
 48
20.0
100
AcDbPoint
 10
978.5782198007602
 20
1999.151153297427
 30
0.0
  0
ENDBLK
  5
8934
330
8927
100
AcDbEntity
  8
0
 48
20.0
100
AcDbBlockEnd
  0
BLOCK
  5
8998
330
898E
100
AcDbEntity
  8
0
 48
20.0
100
AcDbBlockBegin
  2
*D4
 70
     1
 10
0.0
 20
0.0
 30
0.0
  3
*D4
  1

  0
LINE
  5
A933
330
898E
100
AcDbEntity
  8
寸法引出
 48
20.0
370
    -2
100
AcDbLine
 10
978.5782198007602
 20
1860.179872534183
 30
0.0
 11
978.5782198007602
 21
2006.651153297427
 31
0.0
  0
LINE
  5
A934
330
898E
100
AcDbEntity
  8
寸法引出
 48
20.0
370
    -2
100
AcDbLine
 10
1378.578219800759
 20
1860.179872534183
 30
0.0
 11
1378.578219800759
 21
2006.651153297427
 31
0.0
  0
LINE
  5
A935
330
898E
100
AcDbEntity
  8
寸法引出
 48
20.0
370
    -2
100
AcDbLine
 10
1001.07821980076
 20
1999.151153297427
 30
0.0
 11
1356.078219800759
 21
1999.151153297427
 31
0.0
  0
SOLID
  5
A936
330
898E
100
AcDbEntity
  8
寸法引出
 48
20.0
100
AcDbTrace
 10
1001.07821980076
 20
2002.901153297427
 30
0.0
 11
1001.07821980076
 21
1995.401153297427
 31
0.0
 12
978.5782198007602
 22
1999.151153297427
 32
0.0
 13
978.5782198007602
 23
1999.151153297427
 33
0.0
  0
SOLID
  5
A937
330
898E
100
AcDbEntity
  8
寸法引出
 48
20.0
100
AcDbTrace
 10
1356.078219800759
 20
2002.901153297427
 30
0.0
 11
1356.078219800759
 21
1995.401153297427
 31
0.0
 12
1378.578219800759
 22
1999.151153297427
 32
0.0
 13
1378.578219800759
 23
1999.151153297427
 33
0.0
  0
MTEXT
  5
A938
330
898E
100
AcDbEntity
  8
寸法引出
 48
20.0
100
AcDbMText
 10
1178.578219800759
 20
2029.151153297428
 30
0.0
 40
30.0
 41
0.0
 71
     5
 72
     1
  1
\A1;400
  7
SANWA
 73
     1
 44
1.0
  0
POINT
  5
A939
330
898E
100
AcDbEntity
  8
DEFPOINTS
 62
     0
 48
20.0
100
AcDbPoint
 10
978.5782198007602
 20
1845.179872534183
 30
0.0
  0
POINT
  5
A93A
330
898E
100
AcDbEntity
  8
DEFPOINTS
 62
     0
 48
20.0
100
AcDbPoint
 10
1378.578219800759
 20
1845.179872534183
 30
0.0
  0
POINT
  5
A93B
330
898E
100
AcDbEntity
  8
DEFPOINTS
 62
     0
 48
20.0
100
AcDbPoint
 10
1378.578219800759
 20
1999.151153297427
 30
0.0
  0
ENDBLK
  5
8999
330
898E
100
AcDbEntity
  8
0
 48
20.0
100
AcDbBlockEnd
  0
BLOCK
  5
89A7
330
899B
100
AcDbEntity
  8
0
 48
20.0
100
AcDbBlockBegin
  2
*D5
 70
     1
 10
0.0
 20
0.0
 30
0.0
  3
*D5
  1

  0
LINE
  5
A93C
330
899B
100
AcDbEntity
  8
寸法引出
 48
20.0
370
    -2
100
AcDbLine
 10
1378.578219800759
 20
1860.179872534183
 30
0.0
 11
1378.578219800759
 21
2006.651153297427
 31
0.0
  0
LINE
  5
A93D
330
899B
100
AcDbEntity
  8
寸法引出
 48
20.0
370
    -2
100
AcDbLine
 10
1448.57821980076
 20
1945.679872534182
 30
0.0
 11
1448.57821980076
 21
2006.651153297427
 31
0.0
  0
LINE
  5
A93E
330
899B
100
AcDbEntity
  8
寸法引出
 48
20.0
370
    -2
100
AcDbLine
 10
1356.078219800759
 20
1999.151153297427
 30
0.0
 11
1333.578219800759
 21
1999.151153297427
 31
0.0
  0
LINE
  5
A93F
330
899B
100
AcDbEntity
  8
寸法引出
 48
20.0
370
    -2
100
AcDbLine
 10
1471.07821980076
 20
1999.151153297427
 30
0.0
 11
1493.57821980076
 21
1999.151153297427
 31
0.0
  0
LINE
  5
A940
330
899B
100
AcDbEntity
  8
寸法引出
 48
20.0
370
    -2
100
AcDbLine
 10
1378.578219800759
 20
1999.151153297427
 30
0.0
 11
1448.57821980076
 21
1999.151153297427
 31
0.0
  0
SOLID
  5
A941
330
899B
100
AcDbEntity
  8
寸法引出
 48
20.0
100
AcDbTrace
 10
1356.078219800759
 20
2002.901153297427
 30
0.0
 11
1356.078219800759
 21
1995.401153297427
 31
0.0
 12
1378.578219800759
 22
1999.151153297427
 32
0.0
 13
1378.578219800759
 23
1999.151153297427
 33
0.0
  0
SOLID
  5
A942
330
899B
100
AcDbEntity
  8
寸法引出
 48
20.0
100
AcDbTrace
 10
1471.07821980076
 20
2002.901153297427
 30
0.0
 11
1471.07821980076
 21
1995.401153297427
 31
0.0
 12
1448.57821980076
 22
1999.151153297427
 32
0.0
 13
1448.57821980076
 23
1999.151153297427
 33
0.0
  0
MTEXT
  5
A943
330
899B
100
AcDbEntity
  8
寸法引出
 48
20.0
100
AcDbMText
 10
1413.578219800759
 20
2029.151153297428
 30
0.0
 40
30.0
 41
0.0
 71
     5
 72
     1
  1
\A1;70
  7
SANWA
 73
     1
 44
1.0
  0
POINT
  5
A944
330
899B
100
AcDbEntity
  8
DEFPOINTS
 62
     0
 48
20.0
100
AcDbPoint
 10
1378.578219800759
 20
1845.179872534183
 30
0.0
  0
POINT
  5
A945
330
899B
100
AcDbEntity
  8
DEFPOINTS
 62
     0
 48
20.0
100
AcDbPoint
 10
1448.57821980076
 20
1930.679872534182
 30
0.0
  0
POINT
  5
A946
330
899B
100
AcDbEntity
  8
DEFPOINTS
 62
     0
 48
20.0
100
AcDbPoint
 10
1448.57821980076
 20
1999.151153297427
 30
0.0
  0
ENDBLK
  5
89A8
330
899B
100
AcDbEntity
  8
0
 48
20.0
100
AcDbBlockEnd
  0
BLOCK
  5
89B4
330
89AA
100
AcDbEntity
  8
0
 48
20.0
100
AcDbBlockBegin
  2
*D6
 70
     1
 10
0.0
 20
0.0
 30
0.0
  3
*D6
  1

  0
LINE
  5
A90D
330
89AA
100
AcDbEntity
  8
寸法引出
 48
20.0
370
    -2
100
AcDbLine
 10
908.5782198007601
 20
1945.679872534183
 30
0.0
 11
908.5782198007601
 21
2100.686484986161
 31
0.0
  0
LINE
  5
A90E
330
89AA
100
AcDbEntity
  8
寸法引出
 48
20.0
370
    -2
100
AcDbLine
 10
1448.57821980076
 20
1945.679872534182
 30
0.0
 11
1448.57821980076
 21
2100.686484986161
 31
0.0
  0
LINE
  5
A90F
330
89AA
100
AcDbEntity
  8
寸法引出
 48
20.0
370
    -2
100
AcDbLine
 10
931.0782198007601
 20
2093.186484986162
 30
0.0
 11
1426.07821980076
 21
2093.186484986162
 31
0.0
  0
SOLID
  5
A910
330
89AA
100
AcDbEntity
  8
寸法引出
 48
20.0
100
AcDbTrace
 10
931.0782198007601
 20
2096.936484986161
 30
0.0
 11
931.0782198007601
 21
2089.436484986161
 31
0.0
 12
908.5782198007601
 22
2093.186484986162
 32
0.0
 13
908.5782198007601
 23
2093.186484986162
 33
0.0
  0
SOLID
  5
A911
330
89AA
100
AcDbEntity
  8
寸法引出
 48
20.0
100
AcDbTrace
 10
1426.07821980076
 20
2096.936484986161
 30
0.0
 11
1426.07821980076
 21
2089.436484986161
 31
0.0
 12
1448.57821980076
 22
2093.186484986162
 32
0.0
 13
1448.57821980076
 23
2093.186484986162
 33
0.0
  0
MTEXT
  5
A912
330
89AA
100
AcDbEntity
  8
寸法引出
 48
20.0
100
AcDbMText
 10
1178.57821980076
 20
2123.186484986161
 30
0.0
 40
30.0
 41
0.0
 71
     5
 72
     1
  1
\A1;540
  7
SANWA
 73
     1
 44
1.0
  0
POINT
  5
A913
330
89AA
100
AcDbEntity
  8
DEFPOINTS
 62
     0
 48
20.0
100
AcDbPoint
 10
908.5782198007601
 20
1930.679872534183
 30
0.0
  0
POINT
  5
A914
330
89AA
100
AcDbEntity
  8
DEFPOINTS
 62
     0
 48
20.0
100
AcDbPoint
 10
1448.57821980076
 20
1930.679872534182
 30
0.0
  0
POINT
  5
A915
330
89AA
100
AcDbEntity
  8
DEFPOINTS
 62
     0
 48
20.0
100
AcDbPoint
 10
1448.57821980076
 20
2093.186484986162
 30
0.0
  0
ENDBLK
  5
89B5
330
89AA
100
AcDbEntity
  8
0
 48
20.0
100
AcDbBlockEnd
  0
BLOCK
  5
8A1D
330
8A13
100
AcDbEntity
  8
0
 48
20.0
100
AcDbBlockBegin
  2
*D7
 70
     1
 10
0.0
 20
0.0
 30
0.0
  3
*D7
  1

  0
LINE
  5
A92A
330
8A13
100
AcDbEntity
  8
寸法引出
 48
20.0
370
    -2
100
AcDbLine
 10
898.0782198007601
 20
1935.179872534183
 30
0.0
 11
793.4095255738172
 21
1935.179872534183
 31
0.0
  0
LINE
  5
A92B
330
8A13
100
AcDbEntity
  8
寸法引出
 48
20.0
370
    -2
100
AcDbLine
 10
893.5782198007601
 20
1845.179872534183
 30
0.0
 11
793.4095255738172
 21
1845.179872534183
 31
0.0
  0
LINE
  5
A92C
330
8A13
100
AcDbEntity
  8
寸法引出
 48
20.0
370
    -2
100
AcDbLine
 10
800.9095255738172
 20
1912.679872534183
 30
0.0
 11
800.9095255738172
 21
1867.679872534183
 31
0.0
  0
SOLID
  5
A92D
330
8A13
100
AcDbEntity
  8
寸法引出
 48
20.0
100
AcDbTrace
 10
797.1595255738171
 20
1912.679872534183
 30
0.0
 11
804.6595255738171
 21
1912.679872534183
 31
0.0
 12
800.9095255738172
 22
1935.179872534183
 32
0.0
 13
800.9095255738172
 23
1935.179872534183
 33
0.0
  0
SOLID
  5
A92E
330
8A13
100
AcDbEntity
  8
寸法引出
 48
20.0
100
AcDbTrace
 10
797.1595255738171
 20
1867.679872534183
 30
0.0
 11
804.6595255738171
 21
1867.679872534183
 31
0.0
 12
800.9095255738172
 22
1845.179872534183
 32
0.0
 13
800.9095255738172
 23
1845.179872534183
 33
0.0
  0
MTEXT
  5
A92F
330
8A13
100
AcDbEntity
  8
寸法引出
 48
20.0
100
AcDbMText
 10
770.9095255738168
 20
1890.179872534183
 30
0.0
 40
30.0
 41
0.0
 71
     5
 72
     1
  1
\A1;90
  7
SANWA
 11
0.0000000000000001
 21
1.0
 31
0.0
 73
     1
 44
1.0
  0
POINT
  5
A930
330
8A13
100
AcDbEntity
  8
DEFPOINTS
 62
     0
 48
20.0
100
AcDbPoint
 10
913.0782198007601
 20
1935.179872534183
 30
0.0
  0
POINT
  5
A931
330
8A13
100
AcDbEntity
  8
DEFPOINTS
 62
     0
 48
20.0
100
AcDbPoint
 10
908.5782198007601
 20
1845.179872534183
 30
0.0
  0
POINT
  5
A932
330
8A13
100
AcDbEntity
  8
DEFPOINTS
 62
     0
 48
20.0
100
AcDbPoint
 10
800.9095255738172
 20
1845.179872534183
 30
0.0
  0
ENDBLK
  5
8A1E
330
8A13
100
AcDbEntity
  8
0
 48
20.0
100
AcDbBlockEnd
  0
BLOCK
  5
8CC1
330
8CB5
100
AcDbEntity
  8
0
 48
20.0
100
AcDbBlockBegin
  2
*D8
 70
     1
 10
0.0
 20
0.0
 30
0.0
  3
*D8
  1

  0
LINE
  5
A9D6
330
8CB5
100
AcDbEntity
  8
寸法引出
 48
20.0
370
    -2
100
AcDbLine
 10
2909.46864567378
 20
1526.179872534183
 30
0.0
 11
2909.46864567378
 21
1575.679694808866
 31
0.0
  0
LINE
  5
A9D7
330
8CB5
100
AcDbEntity
  8
寸法引出
 48
20.0
370
    -2
100
AcDbLine
 10
2919.468645673778
 20
1516.179872534183
 30
0.0
 11
2919.468645673778
 21
1575.679694808866
 31
0.0
  0
LINE
  5
A9D8
330
8CB5
100
AcDbEntity
  8
寸法引出
 48
20.0
370
    -2
100
AcDbLine
 10
2886.96864567378
 20
1568.179694808866
 30
0.0
 11
2864.46864567378
 21
1568.179694808866
 31
0.0
  0
LINE
  5
A9D9
330
8CB5
100
AcDbEntity
  8
寸法引出
 48
20.0
370
    -2
100
AcDbLine
 10
2941.968645673778
 20
1568.179694808866
 30
0.0
 11
2964.468645673778
 21
1568.179694808866
 31
0.0
  0
MTEXT
  5
A9DA
330
8CB5
100
AcDbEntity
  8
寸法引出
 48
20.0
100
AcDbMText
 10
2887.878528368961
 20
1598.408376743114
 30
0.0
 40
30.0
 41
0.0
 71
     5
 72
     1
  1
\A1;10
  7
SANWA
 73
     1
 44
1.0
  0
LINE
  5
A9DB
330
8CB5
100
AcDbEntity
  8
寸法引出
 48
20.0
370
    -2
100
AcDbLine
 10
2909.46864567378
 20
1568.179694808866
 30
0.0
 11
2919.468645673778
 21
1568.179694808866
 31
0.0
  0
SOLID
  5
A9DC
330
8CB5
100
AcDbEntity
  8
寸法引出
 48
20.0
100
AcDbTrace
 10
2886.96864567378
 20
1571.929694808866
 30
0.0
 11
2886.96864567378
 21
1564.429694808866
 31
0.0
 12
2909.46864567378
 22
1568.179694808866
 32
0.0
 13
2909.46864567378
 23
1568.179694808866
 33
0.0
  0
SOLID
  5
A9DD
330
8CB5
100
AcDbEntity
  8
寸法引出
 48
20.0
100
AcDbTrace
 10
2941.968645673778
 20
1571.929694808866
 30
0.0
 11
2941.968645673778
 21
1564.429694808866
 31
0.0
 12
2919.468645673778
 22
1568.179694808866
 32
0.0
 13
2919.468645673778
 23
1568.179694808866
 33
0.0
  0
POINT
  5
A9DE
330
8CB5
100
AcDbEntity
  8
DEFPOINTS
 62
     0
 48
20.0
100
AcDbPoint
 10
2909.46864567378
 20
1511.179872534183
 30
0.0
  0
POINT
  5
A9DF
330
8CB5
100
AcDbEntity
  8
DEFPOINTS
 62
     0
 48
20.0
100
AcDbPoint
 10
2919.468645673778
 20
1501.179872534183
 30
0.0
  0
POINT
  5
A9E0
330
8CB5
100
AcDbEntity
  8
DEFPOINTS
 62
     0
 48
20.0
100
AcDbPoint
 10
2919.468645673778
 20
1568.179694808866
 30
0.0
  0
ENDBLK
  5
8CC2
330
8CB5
100
AcDbEntity
  8
0
 48
20.0
100
AcDbBlockEnd
  0
BLOCK
  5
8CCE
330
8CC4
100
AcDbEntity
  8
0
 48
20.0
100
AcDbBlockBegin
  2
*D9
 70
     1
 10
0.0
 20
0.0
 30
0.0
  3
*D9
  1

  0
LINE
  5
A9CD
330
8CC4
100
AcDbEntity
  8
寸法引出
 48
20.0
370
    -2
100
AcDbLine
 10
2919.468645673778
 20
1516.179872534183
 30
0.0
 11
2919.468645673778
 21
1575.679694808866
 31
0.0
  0
LINE
  5
A9CE
330
8CC4
100
AcDbEntity
  8
寸法引出
 48
20.0
370
    -2
100
AcDbLine
 10
2999.468645673776
 20
1516.179872534183
 30
0.0
 11
2999.468645673776
 21
1575.679694808866
 31
0.0
  0
LINE
  5
A9CF
330
8CC4
100
AcDbEntity
  8
寸法引出
 48
20.0
370
    -2
100
AcDbLine
 10
2941.968645673778
 20
1568.179694808866
 30
0.0
 11
2976.968645673776
 21
1568.179694808866
 31
0.0
  0
SOLID
  5
A9D0
330
8CC4
100
AcDbEntity
  8
寸法引出
 48
20.0
100
AcDbTrace
 10
2941.968645673778
 20
1571.929694808866
 30
0.0
 11
2941.968645673778
 21
1564.429694808866
 31
0.0
 12
2919.468645673778
 22
1568.179694808866
 32
0.0
 13
2919.468645673778
 23
1568.179694808866
 33
0.0
  0
SOLID
  5
A9D1
330
8CC4
100
AcDbEntity
  8
寸法引出
 48
20.0
100
AcDbTrace
 10
2976.968645673776
 20
1571.929694808866
 30
0.0
 11
2976.968645673776
 21
1564.429694808866
 31
0.0
 12
2999.468645673776
 22
1568.179694808866
 32
0.0
 13
2999.468645673776
 23
1568.179694808866
 33
0.0
  0
MTEXT
  5
A9D2
330
8CC4
100
AcDbEntity
  8
寸法引出
 48
20.0
100
AcDbMText
 10
2959.468645673777
 20
1598.179694808866
 30
0.0
 40
30.0
 41
0.0
 71
     5
 72
     1
  1
\A1;80
  7
SANWA
 73
     1
 44
1.0
  0
POINT
  5
A9D3
330
8CC4
100
AcDbEntity
  8
DEFPOINTS
 62
     0
 48
20.0
100
AcDbPoint
 10
2919.468645673778
 20
1501.179872534183
 30
0.0
  0
POINT
  5
A9D4
330
8CC4
100
AcDbEntity
  8
DEFPOINTS
 62
     0
 48
20.0
100
AcDbPoint
 10
2999.468645673776
 20
1501.179872534183
 30
0.0
  0
POINT
  5
A9D5
330
8CC4
100
AcDbEntity
  8
DEFPOINTS
 62
     0
 48
20.0
100
AcDbPoint
 10
2999.468645673776
 20
1568.179694808866
 30
0.0
  0
ENDBLK
  5
8CCF
330
8CC4
100
AcDbEntity
  8
0
 48
20.0
100
AcDbBlockEnd
  0
BLOCK
  5
8CDD
330
8CD1
100
AcDbEntity
  8
0
 48
20.0
100
AcDbBlockBegin
  2
*D10
 70
     1
 10
0.0
 20
0.0
 30
0.0
  3
*D10
  1

  0
LINE
  5
A9E1
330
8CD1
100
AcDbEntity
  8
寸法引出
 48
20.0
370
    -2
100
AcDbLine
 10
2999.468645673776
 20
1516.179872534183
 30
0.0
 11
2999.468645673776
 21
1575.679694808866
 31
0.0
  0
LINE
  5
A9E2
330
8CD1
100
AcDbEntity
  8
寸法引出
 48
20.0
370
    -2
100
AcDbLine
 10
3009.468645673779
 20
1526.179872534183
 30
0.0
 11
3009.468645673779
 21
1575.679694808866
 31
0.0
  0
LINE
  5
A9E3
330
8CD1
100
AcDbEntity
  8
寸法引出
 48
20.0
370
    -2
100
AcDbLine
 10
2976.968645673776
 20
1568.179694808866
 30
0.0
 11
2954.468645673776
 21
1568.179694808866
 31
0.0
  0
LINE
  5
A9E4
330
8CD1
100
AcDbEntity
  8
寸法引出
 48
20.0
370
    -2
100
AcDbLine
 10
3031.968645673779
 20
1568.179694808866
 30
0.0
 11
3054.468645673779
 21
1568.179694808866
 31
0.0
  0
MTEXT
  5
A9E5
330
8CD1
100
AcDbEntity
  8
寸法引出
 48
20.0
100
AcDbMText
 10
3028.251052701893
 20
1598.806943739629
 30
0.0
 40
30.0
 41
0.0
 71
     5
 72
     1
  1
\A1;10
  7
SANWA
 73
     1
 44
1.0
  0
LINE
  5
A9E6
330
8CD1
100
AcDbEntity
  8
寸法引出
 48
20.0
370
    -2
100
AcDbLine
 10
2999.468645673776
 20
1568.179694808866
 30
0.0
 11
3009.468645673779
 21
1568.179694808866
 31
0.0
  0
SOLID
  5
A9E7
330
8CD1
100
AcDbEntity
  8
寸法引出
 48
20.0
100
AcDbTrace
 10
2976.968645673776
 20
1571.929694808866
 30
0.0
 11
2976.968645673776
 21
1564.429694808866
 31
0.0
 12
2999.468645673776
 22
1568.179694808866
 32
0.0
 13
2999.468645673776
 23
1568.179694808866
 33
0.0
  0
SOLID
  5
A9E8
330
8CD1
100
AcDbEntity
  8
寸法引出
 48
20.0
100
AcDbTrace
 10
3031.968645673779
 20
1571.929694808866
 30
0.0
 11
3031.968645673779
 21
1564.429694808866
 31
0.0
 12
3009.468645673779
 22
1568.179694808866
 32
0.0
 13
3009.468645673779
 23
1568.179694808866
 33
0.0
  0
POINT
  5
A9E9
330
8CD1
100
AcDbEntity
  8
DEFPOINTS
 62
     0
 48
20.0
100
AcDbPoint
 10
2999.468645673776
 20
1501.179872534183
 30
0.0
  0
POINT
  5
A9EA
330
8CD1
100
AcDbEntity
  8
DEFPOINTS
 62
     0
 48
20.0
100
AcDbPoint
 10
3009.468645673779
 20
1511.179872534183
 30
0.0
  0
POINT
  5
A9EB
330
8CD1
100
AcDbEntity
  8
DEFPOINTS
 62
     0
 48
20.0
100
AcDbPoint
 10
3009.468645673779
 20
1568.179694808866
 30
0.0
  0
ENDBLK
  5
8CDE
330
8CD1
100
AcDbEntity
  8
0
 48
20.0
100
AcDbBlockEnd
  0
BLOCK
  5
8D94
330
8D8A
100
AcDbEntity
  8
0
 48
20.0
100
AcDbBlockBegin
  2
*D11
 70
     1
 10
0.0
 20
0.0
 30
0.0
  3
*D11
  1

  0
LINE
  5
A9C4
330
8D8A
100
AcDbEntity
  8
寸法引出
 48
20.0
370
    -2
100
AcDbLine
 10
3973.468645673778
 20
1935.179872534183
 30
0.0
 11
4052.634204023023
 21
1935.179872534183
 31
0.0
  0
LINE
  5
A9C5
330
8D8A
100
AcDbEntity
  8
寸法引出
 48
20.0
370
    -2
100
AcDbLine
 10
3973.468645673778
 20
1461.179872534182
 30
0.0
 11
4052.634204023023
 21
1461.179872534182
 31
0.0
  0
LINE
  5
A9C6
330
8D8A
100
AcDbEntity
  8
寸法引出
 48
20.0
370
    -2
100
AcDbLine
 10
4045.134204023023
 20
1912.679872534183
 30
0.0
 11
4045.134204023023
 21
1483.679872534182
 31
0.0
  0
SOLID
  5
A9C7
330
8D8A
100
AcDbEntity
  8
寸法引出
 48
20.0
100
AcDbTrace
 10
4041.384204023023
 20
1912.679872534183
 30
0.0
 11
4048.884204023023
 21
1912.679872534183
 31
0.0
 12
4045.134204023023
 22
1935.179872534183
 32
0.0
 13
4045.134204023023
 23
1935.179872534183
 33
0.0
  0
SOLID
  5
A9C8
330
8D8A
100
AcDbEntity
  8
寸法引出
 48
20.0
100
AcDbTrace
 10
4041.384204023023
 20
1483.679872534182
 30
0.0
 11
4048.884204023023
 21
1483.679872534182
 31
0.0
 12
4045.134204023023
 22
1461.179872534182
 32
0.0
 13
4045.134204023023
 23
1461.179872534182
 33
0.0
  0
MTEXT
  5
A9C9
330
8D8A
100
AcDbEntity
  8
寸法引出
 48
20.0
100
AcDbMText
 10
4015.134204023023
 20
1698.179872534183
 30
0.0
 40
30.0
 41
0.0
 71
     5
 72
     1
  1
\A1;474
  7
SANWA
 11
0.0000000000000001
 21
1.0
 31
0.0
 73
     1
 44
1.0
  0
POINT
  5
A9CA
330
8D8A
100
AcDbEntity
  8
DEFPOINTS
 62
     0
 48
20.0
100
AcDbPoint
 10
3958.468645673778
 20
1935.179872534183
 30
0.0
  0
POINT
  5
A9CB
330
8D8A
100
AcDbEntity
  8
DEFPOINTS
 62
     0
 48
20.0
100
AcDbPoint
 10
3958.468645673778
 20
1461.179872534182
 30
0.0
  0
POINT
  5
A9CC
330
8D8A
100
AcDbEntity
  8
DEFPOINTS
 62
     0
 48
20.0
100
AcDbPoint
 10
4045.134204023023
 20
1461.179872534182
 30
0.0
  0
ENDBLK
  5
8D95
330
8D8A
100
AcDbEntity
  8
0
 48
20.0
100
AcDbBlockEnd
  0
BLOCK
  5
8DA1
330
8D97
100
AcDbEntity
  8
0
 48
20.0
100
AcDbBlockBegin
  2
*D12
 70
     1
 10
0.0
 20
0.0
 30
0.0
  3
*D12
  1

  0
LINE
  5
A9EC
330
8D97
100
AcDbEntity
  8
寸法引出
 48
20.0
370
    -2
100
AcDbLine
 10
3973.468645673778
 20
1461.179872534182
 30
0.0
 11
4052.634204023023
 21
1461.179872534182
 31
0.0
  0
LINE
  5
A9ED
330
8D97
100
AcDbEntity
  8
寸法引出
 48
20.0
370
    -2
100
AcDbLine
 10
3973.468645673778
 20
1170.179872534183
 30
0.0
 11
4052.634204023023
 21
1170.179872534183
 31
0.0
  0
LINE
  5
A9EE
330
8D97
100
AcDbEntity
  8
寸法引出
 48
20.0
370
    -2
100
AcDbLine
 10
4045.134204023023
 20
1438.679872534182
 30
0.0
 11
4045.134204023023
 21
1192.679872534183
 31
0.0
  0
SOLID
  5
A9EF
330
8D97
100
AcDbEntity
  8
寸法引出
 48
20.0
100
AcDbTrace
 10
4041.384204023023
 20
1438.679872534182
 30
0.0
 11
4048.884204023023
 21
1438.679872534182
 31
0.0
 12
4045.134204023023
 22
1461.179872534182
 32
0.0
 13
4045.134204023023
 23
1461.179872534182
 33
0.0
  0
SOLID
  5
A9F0
330
8D97
100
AcDbEntity
  8
寸法引出
 48
20.0
100
AcDbTrace
 10
4041.384204023023
 20
1192.679872534183
 30
0.0
 11
4048.884204023023
 21
1192.679872534183
 31
0.0
 12
4045.134204023023
 22
1170.179872534183
 32
0.0
 13
4045.134204023023
 23
1170.179872534183
 33
0.0
  0
MTEXT
  5
A9F1
330
8D97
100
AcDbEntity
  8
寸法引出
 48
20.0
100
AcDbMText
 10
4015.134204023023
 20
1315.679872534183
 30
0.0
 40
30.0
 41
0.0
 71
     5
 72
     1
  1
\A1;291
  7
SANWA
 11
0.0000000000000001
 21
1.0
 31
0.0
 73
     1
 44
1.0
  0
POINT
  5
A9F2
330
8D97
100
AcDbEntity
  8
DEFPOINTS
 62
     0
 48
20.0
100
AcDbPoint
 10
3958.468645673778
 20
1461.179872534182
 30
0.0
  0
POINT
  5
A9F3
330
8D97
100
AcDbEntity
  8
DEFPOINTS
 62
     0
 48
20.0
100
AcDbPoint
 10
3958.468645673778
 20
1170.179872534183
 30
0.0
  0
POINT
  5
A9F4
330
8D97
100
AcDbEntity
  8
DEFPOINTS
 62
     0
 48
20.0
100
AcDbPoint
 10
4045.134204023023
 20
1170.179872534183
 30
0.0
  0
ENDBLK
  5
8DA2
330
8D97
100
AcDbEntity
  8
0
 48
20.0
100
AcDbBlockEnd
  0
BLOCK
  5
8DAE
330
8DA4
100
AcDbEntity
  8
0
 48
20.0
100
AcDbBlockBegin
  2
*D13
 70
     1
 10
0.0
 20
0.0
 30
0.0
  3
*D13
  1

  0
LINE
  5
A9B2
330
8DA4
100
AcDbEntity
  8
寸法引出
 48
20.0
370
    -2
100
AcDbLine
 10
1960.468645673778
 20
1950.179872534183
 30
0.0
 11
1960.468645673778
 21
2053.74586053558
 31
0.0
  0
LINE
  5
A9B3
330
8DA4
100
AcDbEntity
  8
寸法引出
 48
20.0
370
    -2
100
AcDbLine
 10
3958.468645673778
 20
1950.179872534183
 30
0.0
 11
3958.468645673778
 21
2053.74586053558
 31
0.0
  0
LINE
  5
A9B4
330
8DA4
100
AcDbEntity
  8
寸法引出
 48
20.0
370
    -2
100
AcDbLine
 10
1982.968645673778
 20
2046.24586053558
 30
0.0
 11
3935.968645673778
 21
2046.24586053558
 31
0.0
  0
SOLID
  5
A9B5
330
8DA4
100
AcDbEntity
  8
寸法引出
 48
20.0
100
AcDbTrace
 10
1982.968645673778
 20
2049.99586053558
 30
0.0
 11
1982.968645673778
 21
2042.49586053558
 31
0.0
 12
1960.468645673778
 22
2046.24586053558
 32
0.0
 13
1960.468645673778
 23
2046.24586053558
 33
0.0
  0
SOLID
  5
A9B6
330
8DA4
100
AcDbEntity
  8
寸法引出
 48
20.0
100
AcDbTrace
 10
3935.968645673778
 20
2049.99586053558
 30
0.0
 11
3935.968645673778
 21
2042.49586053558
 31
0.0
 12
3958.468645673778
 22
2046.24586053558
 32
0.0
 13
3958.468645673778
 23
2046.24586053558
 33
0.0
  0
MTEXT
  5
A9B7
330
8DA4
100
AcDbEntity
  8
寸法引出
 48
20.0
100
AcDbMText
 10
2959.468645673778
 20
2076.24586053558
 30
0.0
 40
30.0
 41
0.0
 71
     5
 72
     1
  1
\A1;1998
  7
SANWA
 73
     1
 44
1.0
  0
POINT
  5
A9B8
330
8DA4
100
AcDbEntity
  8
DEFPOINTS
 62
     0
 48
20.0
100
AcDbPoint
 10
1960.468645673778
 20
1935.179872534183
 30
0.0
  0
POINT
  5
A9B9
330
8DA4
100
AcDbEntity
  8
DEFPOINTS
 62
     0
 48
20.0
100
AcDbPoint
 10
3958.468645673778
 20
1935.179872534183
 30
0.0
  0
POINT
  5
A9BA
330
8DA4
100
AcDbEntity
  8
DEFPOINTS
 62
     0
 48
20.0
100
AcDbPoint
 10
3958.468645673778
 20
2046.24586053558
 30
0.0
  0
ENDBLK
  5
8DAF
330
8DA4
100
AcDbEntity
  8
0
 48
20.0
100
AcDbBlockEnd
  0
BLOCK
  5
8F36
330
8F2C
100
AcDbEntity
  8
0
 48
20.0
100
AcDbBlockBegin
  2
*D14
 70
     1
 10
0.0
 20
0.0
 30
0.0
  3
*D14
  1

  0
LINE
  5
A77B
330
8F2C
100
AcDbEntity
  8
寸法引出
 48
20.0
370
    -2
100
AcDbLine
 10
1872.493333821983
 20
1499.55222456575
 30
0.0
 11
1872.493333821983
 21
1603.118212567147
 31
0.0
  0
LINE
  5
A77C
330
8F2C
100
AcDbEntity
  8
寸法引出
 48
20.0
370
    -2
100
AcDbLine
 10
3870.493333821984
 20
1499.55222456575
 30
0.0
 11
3870.493333821984
 21
1603.118212567147
 31
0.0
  0
LINE
  5
A77D
330
8F2C
100
AcDbEntity
  8
寸法引出
 48
20.0
370
    -2
100
AcDbLine
 10
1894.993333821983
 20
1595.618212567146
 30
0.0
 11
3847.993333821984
 21
1595.618212567146
 31
0.0
  0
SOLID
  5
A77E
330
8F2C
100
AcDbEntity
  8
寸法引出
 48
20.0
100
AcDbTrace
 10
1894.993333821983
 20
1599.368212567147
 30
0.0
 11
1894.993333821983
 21
1591.868212567146
 31
0.0
 12
1872.493333821983
 22
1595.618212567146
 32
0.0
 13
1872.493333821983
 23
1595.618212567146
 33
0.0
  0
SOLID
  5
A77F
330
8F2C
100
AcDbEntity
  8
寸法引出
 48
20.0
100
AcDbTrace
 10
3847.993333821984
 20
1599.368212567147
 30
0.0
 11
3847.993333821984
 21
1591.868212567146
 31
0.0
 12
3870.493333821984
 22
1595.618212567146
 32
0.0
 13
3870.493333821984
 23
1595.618212567146
 33
0.0
  0
MTEXT
  5
A780
330
8F2C
100
AcDbEntity
  8
寸法引出
 48
20.0
100
AcDbMText
 10
2871.493333821983
 20
1625.618212567147
 30
0.0
 40
30.0
 41
0.0
 71
     5
 72
     1
  1
\A1;1998
  7
SANWA
 73
     1
 44
1.0
  0
POINT
  5
A781
330
8F2C
100
AcDbEntity
  8
DEFPOINTS
 62
     0
 48
20.0
100
AcDbPoint
 10
1872.493333821983
 20
1484.55222456575
 30
0.0
  0
POINT
  5
A782
330
8F2C
100
AcDbEntity
  8
DEFPOINTS
 62
     0
 48
20.0
100
AcDbPoint
 10
3870.493333821984
 20
1484.55222456575
 30
0.0
  0
POINT
  5
A783
330
8F2C
100
AcDbEntity
  8
DEFPOINTS
 62
     0
 48
20.0
100
AcDbPoint
 10
3870.493333821984
 20
1595.618212567146
 30
0.0
  0
ENDBLK
  5
8F37
330
8F2C
100
AcDbEntity
  8
0
 48
20.0
100
AcDbBlockEnd
  0
BLOCK
  5
9081
330
9077
100
AcDbEntity
  8
0
 48
20.0
100
AcDbBlockBegin
  2
*D15
 70
     1
 10
0.0
 20
0.0
 30
0.0
  3
*D15
  1

  0
LINE
  5
A79F
330
9077
100
AcDbEntity
  8
寸法引出
 48
20.0
370
    -2
100
AcDbLine
 10
1857.493333821983
 20
1484.55222456575
 30
0.0
 11
1751.107486693144
 21
1484.55222456575
 31
0.0
  0
LINE
  5
A7A0
330
9077
100
AcDbEntity
  8
寸法引出
 48
20.0
370
    -2
100
AcDbLine
 10
1857.493333821983
 20
719.5522245657502
 30
0.0
 11
1751.107486693144
 21
719.5522245657504
 31
0.0
  0
LINE
  5
A7A1
330
9077
100
AcDbEntity
  8
寸法引出
 48
20.0
370
    -2
100
AcDbLine
 10
1758.607486693144
 20
1462.05222456575
 30
0.0
 11
1758.607486693144
 21
742.0522245657504
 31
0.0
  0
SOLID
  5
A7A2
330
9077
100
AcDbEntity
  8
寸法引出
 48
20.0
100
AcDbTrace
 10
1754.857486693143
 20
1462.05222456575
 30
0.0
 11
1762.357486693144
 21
1462.05222456575
 31
0.0
 12
1758.607486693144
 22
1484.55222456575
 32
0.0
 13
1758.607486693144
 23
1484.55222456575
 33
0.0
  0
SOLID
  5
A7A3
330
9077
100
AcDbEntity
  8
寸法引出
 48
20.0
100
AcDbTrace
 10
1754.857486693143
 20
742.0522245657504
 30
0.0
 11
1762.357486693144
 21
742.0522245657504
 31
0.0
 12
1758.607486693144
 22
719.5522245657504
 32
0.0
 13
1758.607486693144
 23
719.5522245657504
 33
0.0
  0
MTEXT
  5
A7A4
330
9077
100
AcDbEntity
  8
寸法引出
 48
20.0
100
AcDbMText
 10
1728.607486693143
 20
1102.05222456575
 30
0.0
 40
30.0
 41
0.0
 71
     5
 72
     1
  1
\A1;765
  7
SANWA
 11
0.0000000000000001
 21
1.0
 31
0.0
 73
     1
 44
1.0
  0
POINT
  5
A7A5
330
9077
100
AcDbEntity
  8
DEFPOINTS
 62
     0
 48
20.0
100
AcDbPoint
 10
1872.493333821983
 20
1484.55222456575
 30
0.0
  0
POINT
  5
A7A6
330
9077
100
AcDbEntity
  8
DEFPOINTS
 62
     0
 48
20.0
100
AcDbPoint
 10
1872.493333821983
 20
719.5522245657502
 30
0.0
  0
POINT
  5
A7A7
330
9077
100
AcDbEntity
  8
DEFPOINTS
 62
     0
 48
20.0
100
AcDbPoint
 10
1758.607486693144
 20
719.5522245657504
 30
0.0
  0
ENDBLK
  5
9082
330
9077
100
AcDbEntity
  8
0
 48
20.0
100
AcDbBlockEnd
  0
BLOCK
  5
908E
330
9084
100
AcDbEntity
  8
0
 48
20.0
100
AcDbBlockBegin
  2
*D16
 70
     1
 10
0.0
 20
0.0
 30
0.0
  3
*D16
  1

  0
LINE
  5
A9BB
330
9084
100
AcDbEntity
  8
寸法引出
 48
20.0
370
    -2
100
AcDbLine
 10
1945.468645673778
 20
1935.179872534183
 30
0.0
 11
1839.082798544938
 21
1935.179872534183
 31
0.0
  0
LINE
  5
A9BC
330
9084
100
AcDbEntity
  8
寸法引出
 48
20.0
370
    -2
100
AcDbLine
 10
1945.468645673778
 20
1170.179872534183
 30
0.0
 11
1839.082798544938
 21
1170.179872534183
 31
0.0
  0
LINE
  5
A9BD
330
9084
100
AcDbEntity
  8
寸法引出
 48
20.0
370
    -2
100
AcDbLine
 10
1846.582798544939
 20
1912.679872534183
 30
0.0
 11
1846.582798544938
 21
1192.679872534183
 31
0.0
  0
SOLID
  5
A9BE
330
9084
100
AcDbEntity
  8
寸法引出
 48
20.0
100
AcDbTrace
 10
1842.832798544939
 20
1912.679872534183
 30
0.0
 11
1850.332798544938
 21
1912.679872534183
 31
0.0
 12
1846.582798544939
 22
1935.179872534183
 32
0.0
 13
1846.582798544939
 23
1935.179872534183
 33
0.0
  0
SOLID
  5
A9BF
330
9084
100
AcDbEntity
  8
寸法引出
 48
20.0
100
AcDbTrace
 10
1842.832798544938
 20
1192.679872534183
 30
0.0
 11
1850.332798544938
 21
1192.679872534183
 31
0.0
 12
1846.582798544938
 22
1170.179872534183
 32
0.0
 13
1846.582798544938
 23
1170.179872534183
 33
0.0
  0
MTEXT
  5
A9C0
330
9084
100
AcDbEntity
  8
寸法引出
 48
20.0
100
AcDbMText
 10
1816.582798544938
 20
1552.679872534183
 30
0.0
 40
30.0
 41
0.0
 71
     5
 72
     1
  1
\A1;765
  7
SANWA
 11
0.0000000000000001
 21
1.0
 31
0.0
 73
     1
 44
1.0
  0
POINT
  5
A9C1
330
9084
100
AcDbEntity
  8
DEFPOINTS
 62
     0
 48
20.0
100
AcDbPoint
 10
1960.468645673778
 20
1935.179872534183
 30
0.0
  0
POINT
  5
A9C2
330
9084
100
AcDbEntity
  8
DEFPOINTS
 62
     0
 48
20.0
100
AcDbPoint
 10
1960.468645673778
 20
1170.179872534183
 30
0.0
  0
POINT
  5
A9C3
330
9084
100
AcDbEntity
  8
DEFPOINTS
 62
     0
 48
20.0
100
AcDbPoint
 10
1846.582798544938
 20
1170.179872534183
 30
0.0
  0
ENDBLK
  5
908F
330
9084
100
AcDbEntity
  8
0
 48
20.0
100
AcDbBlockEnd
  0
BLOCK
  5
920F
330
9203
100
AcDbEntity
  8
0
 48
20.0
100
AcDbBlockBegin
  2
*D17
 70
     1
 10
0.0
 20
0.0
 30
0.0
  3
*D17
  1

  0
LINE
  5
A872
330
9203
100
AcDbEntity
  8
寸法引出
 48
20.0
370
    -2
100
AcDbLine
 10
2233.486632061834
 20
290.68087367748
 30
0.0
 11
2233.486632061834
 21
472.6369083824228
 31
0.0
  0
LINE
  5
A873
330
9203
100
AcDbEntity
  8
寸法引出
 48
20.0
370
    -2
100
AcDbLine
 10
2208.486632061834
 20
415.6808736774801
 30
0.0
 11
2208.486632061834
 21
472.6369083824228
 31
0.0
  0
LINE
  5
A874
330
9203
100
AcDbEntity
  8
寸法引出
 48
20.0
370
    -2
100
AcDbLine
 10
2255.986632061834
 20
465.1369083824228
 30
0.0
 11
2278.486632061834
 21
465.1369083824228
 31
0.0
  0
LINE
  5
A875
330
9203
100
AcDbEntity
  8
寸法引出
 48
20.0
370
    -2
100
AcDbLine
 10
2185.986632061834
 20
465.1369083824228
 30
0.0
 11
2163.486632061834
 21
465.1369083824228
 31
0.0
  0
LINE
  5
A876
330
9203
100
AcDbEntity
  8
寸法引出
 48
20.0
370
    -2
100
AcDbLine
 10
2233.486632061834
 20
465.1369083824228
 30
0.0
 11
2208.486632061834
 21
465.1369083824228
 31
0.0
  0
SOLID
  5
A877
330
9203
100
AcDbEntity
  8
寸法引出
 48
20.0
100
AcDbTrace
 10
2255.986632061834
 20
468.8869083824228
 30
0.0
 11
2255.986632061834
 21
461.3869083824228
 31
0.0
 12
2233.486632061834
 22
465.1369083824228
 32
0.0
 13
2233.486632061834
 23
465.1369083824228
 33
0.0
  0
SOLID
  5
A878
330
9203
100
AcDbEntity
  8
寸法引出
 48
20.0
100
AcDbTrace
 10
2185.986632061834
 20
468.8869083824228
 30
0.0
 11
2185.986632061834
 21
461.3869083824228
 31
0.0
 12
2208.486632061834
 22
465.1369083824228
 32
0.0
 13
2208.486632061834
 23
465.1369083824228
 33
0.0
  0
MTEXT
  5
A879
330
9203
100
AcDbEntity
  8
寸法引出
 48
20.0
100
AcDbMText
 10
2220.986632061834
 20
495.1369083824229
 30
0.0
 40
30.0
 41
0.0
 71
     5
 72
     1
  1
\A1;5
  7
SANWA
 73
     1
 44
1.0
  0
POINT
  5
A87A
330
9203
100
AcDbEntity
  8
DEFPOINTS
 62
     0
 48
20.0
100
AcDbPoint
 10
2233.486632061834
 20
275.68087367748
 30
0.0
  0
POINT
  5
A87B
330
9203
100
AcDbEntity
  8
DEFPOINTS
 62
     0
 48
20.0
100
AcDbPoint
 10
2208.486632061834
 20
400.68087367748
 30
0.0
  0
POINT
  5
A87C
330
9203
100
AcDbEntity
  8
DEFPOINTS
 62
     0
 48
20.0
100
AcDbPoint
 10
2208.486632061834
 20
465.1369083824228
 30
0.0
  0
ENDBLK
  5
9210
330
9203
100
AcDbEntity
  8
0
 48
20.0
100
AcDbBlockEnd
  0
BLOCK
  5
924E
330
9242
100
AcDbEntity
  8
0
 48
20.0
100
AcDbBlockBegin
  2
*D18
 70
     1
 10
0.0
 20
0.0
 30
0.0
  3
*D18
  1

  0
LINE
  5
A867
330
9242
100
AcDbEntity
  8
寸法引出
 48
20.0
370
    -2
100
AcDbLine
 10
2093.486632061834
 20
400.68087367748
 30
0.0
 11
2060.498898564288
 21
400.68087367748
 31
0.0
  0
LINE
  5
A868
330
9242
100
AcDbEntity
  8
寸法引出
 48
20.0
370
    -2
100
AcDbLine
 10
2193.486632061834
 20
370.68087367748
 30
0.0
 11
2060.498898564288
 21
370.6808736774801
 31
0.0
  0
LINE
  5
A869
330
9242
100
AcDbEntity
  8
寸法引出
 48
20.0
370
    -2
100
AcDbLine
 10
2067.998898564288
 20
423.18087367748
 30
0.0
 11
2067.998898564288
 21
445.68087367748
 31
0.0
  0
LINE
  5
A86A
330
9242
100
AcDbEntity
  8
寸法引出
 48
20.0
370
    -2
100
AcDbLine
 10
2067.998898564288
 20
348.1808736774801
 30
0.0
 11
2067.998898564288
 21
325.6808736774801
 31
0.0
  0
MTEXT
  5
A86B
330
9242
100
AcDbEntity
  8
寸法引出
 48
20.0
100
AcDbMText
 10
2034.924780979257
 20
419.4246778782289
 30
0.0
 40
30.0
 41
0.0
 71
     5
 72
     1
  1
\A1;6
  7
SANWA
 11
0.0000000000000001
 21
1.0
 31
0.0
 73
     1
 44
1.0
  0
LINE
  5
A86C
330
9242
100
AcDbEntity
  8
寸法引出
 48
20.0
370
    -2
100
AcDbLine
 10
2067.998898564288
 20
400.68087367748
 30
0.0
 11
2067.998898564288
 21
370.6808736774801
 31
0.0
  0
SOLID
  5
A86D
330
9242
100
AcDbEntity
  8
寸法引出
 48
20.0
100
AcDbTrace
 10
2064.248898564288
 20
423.18087367748
 30
0.0
 11
2071.748898564288
 21
423.18087367748
 31
0.0
 12
2067.998898564288
 22
400.68087367748
 32
0.0
 13
2067.998898564288
 23
400.68087367748
 33
0.0
  0
SOLID
  5
A86E
330
9242
100
AcDbEntity
  8
寸法引出
 48
20.0
100
AcDbTrace
 10
2064.248898564288
 20
348.1808736774801
 30
0.0
 11
2071.748898564288
 21
348.1808736774801
 31
0.0
 12
2067.998898564288
 22
370.6808736774801
 32
0.0
 13
2067.998898564288
 23
370.6808736774801
 33
0.0
  0
POINT
  5
A86F
330
9242
100
AcDbEntity
  8
DEFPOINTS
 62
     0
 48
20.0
100
AcDbPoint
 10
2108.486632061834
 20
400.68087367748
 30
0.0
  0
POINT
  5
A870
330
9242
100
AcDbEntity
  8
DEFPOINTS
 62
     0
 48
20.0
100
AcDbPoint
 10
2208.486632061834
 20
370.68087367748
 30
0.0
  0
POINT
  5
A871
330
9242
100
AcDbEntity
  8
DEFPOINTS
 62
     0
 48
20.0
100
AcDbPoint
 10
2067.998898564288
 20
370.6808736774801
 30
0.0
  0
ENDBLK
  5
924F
330
9242
100
AcDbEntity
  8
0
 48
20.0
100
AcDbBlockEnd
  0
BLOCK
  5
925D
330
9251
100
AcDbEntity
  8
0
 48
20.0
100
AcDbBlockBegin
  2
*D19
 70
     1
 10
0.0
 20
0.0
 30
0.0
  3
*D19
  1

  0
LINE
  5
A85C
330
9251
100
AcDbEntity
  8
寸法引出
 48
20.0
370
    -2
100
AcDbLine
 10
2193.486632061834
 20
370.68087367748
 30
0.0
 11
2060.498898564288
 21
370.6808736774801
 31
0.0
  0
LINE
  5
A85D
330
9251
100
AcDbEntity
  8
寸法引出
 48
20.0
370
    -2
100
AcDbLine
 10
2168.486632061834
 20
295.6808736774801
 30
0.0
 11
2060.498898564288
 21
295.6808736774801
 31
0.0
  0
LINE
  5
A85E
330
9251
100
AcDbEntity
  8
寸法引出
 48
20.0
370
    -2
100
AcDbLine
 10
2067.998898564288
 20
393.1808736774801
 30
0.0
 11
2067.998898564288
 21
415.6808736774801
 31
0.0
  0
LINE
  5
A85F
330
9251
100
AcDbEntity
  8
寸法引出
 48
20.0
370
    -2
100
AcDbLine
 10
2067.998898564288
 20
273.1808736774801
 30
0.0
 11
2067.998898564288
 21
250.6808736774801
 31
0.0
  0
LINE
  5
A860
330
9251
100
AcDbEntity
  8
寸法引出
 48
20.0
370
    -2
100
AcDbLine
 10
2067.998898564288
 20
370.6808736774801
 30
0.0
 11
2067.998898564288
 21
295.6808736774801
 31
0.0
  0
SOLID
  5
A861
330
9251
100
AcDbEntity
  8
寸法引出
 48
20.0
100
AcDbTrace
 10
2064.248898564288
 20
393.1808736774801
 30
0.0
 11
2071.748898564288
 21
393.1808736774801
 31
0.0
 12
2067.998898564288
 22
370.6808736774801
 32
0.0
 13
2067.998898564288
 23
370.6808736774801
 33
0.0
  0
SOLID
  5
A862
330
9251
100
AcDbEntity
  8
寸法引出
 48
20.0
100
AcDbTrace
 10
2064.248898564288
 20
273.1808736774801
 30
0.0
 11
2071.748898564288
 21
273.1808736774801
 31
0.0
 12
2067.998898564288
 22
295.6808736774801
 32
0.0
 13
2067.998898564288
 23
295.6808736774801
 33
0.0
  0
MTEXT
  5
A863
330
9251
100
AcDbEntity
  8
寸法引出
 48
20.0
100
AcDbMText
 10
2037.998898564288
 20
333.1808736774804
 30
0.0
 40
30.0
 41
0.0
 71
     5
 72
     1
  1
\A1;15
  7
SANWA
 11
0.0000000000000001
 21
1.0
 31
0.0
 73
     1
 44
1.0
  0
POINT
  5
A864
330
9251
100
AcDbEntity
  8
DEFPOINTS
 62
     0
 48
20.0
100
AcDbPoint
 10
2208.486632061834
 20
370.68087367748
 30
0.0
  0
POINT
  5
A865
330
9251
100
AcDbEntity
  8
DEFPOINTS
 62
     0
 48
20.0
100
AcDbPoint
 10
2183.486632061834
 20
295.6808736774801
 30
0.0
  0
POINT
  5
A866
330
9251
100
AcDbEntity
  8
DEFPOINTS
 62
     0
 48
20.0
100
AcDbPoint
 10
2067.998898564288
 20
295.6808736774801
 30
0.0
  0
ENDBLK
  5
925E
330
9251
100
AcDbEntity
  8
0
 48
20.0
100
AcDbBlockEnd
  0
BLOCK
  5
926C
330
9260
100
AcDbEntity
  8
0
 48
20.0
100
AcDbBlockBegin
  2
*D20
 70
     1
 10
0.0
 20
0.0
 30
0.0
  3
*D20
  1

  0
LINE
  5
A87D
330
9260
100
AcDbEntity
  8
寸法引出
 48
20.0
370
    -2
100
AcDbLine
 10
2168.486632061834
 20
295.6808736774801
 30
0.0
 11
2060.498898564288
 21
295.6808736774801
 31
0.0
  0
LINE
  5
A87E
330
9260
100
AcDbEntity
  8
寸法引出
 48
20.0
370
    -2
100
AcDbLine
 10
2218.486632061834
 20
275.68087367748
 30
0.0
 11
2060.498898564288
 21
275.6808736774801
 31
0.0
  0
LINE
  5
A87F
330
9260
100
AcDbEntity
  8
寸法引出
 48
20.0
370
    -2
100
AcDbLine
 10
2067.998898564288
 20
318.1808736774801
 30
0.0
 11
2067.998898564288
 21
340.6808736774801
 31
0.0
  0
LINE
  5
A880
330
9260
100
AcDbEntity
  8
寸法引出
 48
20.0
370
    -2
100
AcDbLine
 10
2067.998898564288
 20
253.1808736774801
 30
0.0
 11
2067.998898564288
 21
230.6808736774801
 31
0.0
  0
MTEXT
  5
A881
330
9260
100
AcDbEntity
  8
寸法引出
 48
20.0
100
AcDbMText
 10
2037.526880556331
 20
259.0538310957398
 30
0.0
 40
30.0
 41
0.0
 71
     5
 72
     1
  1
\A1;4
  7
SANWA
 11
0.0000000000000001
 21
1.0
 31
0.0
 73
     1
 44
1.0
  0
LINE
  5
A882
330
9260
100
AcDbEntity
  8
寸法引出
 48
20.0
370
    -2
100
AcDbLine
 10
2067.998898564288
 20
295.6808736774801
 30
0.0
 11
2067.998898564288
 21
275.6808736774801
 31
0.0
  0
SOLID
  5
A883
330
9260
100
AcDbEntity
  8
寸法引出
 48
20.0
100
AcDbTrace
 10
2064.248898564288
 20
318.1808736774801
 30
0.0
 11
2071.748898564288
 21
318.1808736774801
 31
0.0
 12
2067.998898564288
 22
295.6808736774801
 32
0.0
 13
2067.998898564288
 23
295.6808736774801
 33
0.0
  0
SOLID
  5
A884
330
9260
100
AcDbEntity
  8
寸法引出
 48
20.0
100
AcDbTrace
 10
2064.248898564288
 20
253.1808736774801
 30
0.0
 11
2071.748898564288
 21
253.1808736774801
 31
0.0
 12
2067.998898564288
 22
275.6808736774801
 32
0.0
 13
2067.998898564288
 23
275.6808736774801
 33
0.0
  0
POINT
  5
A885
330
9260
100
AcDbEntity
  8
DEFPOINTS
 62
     0
 48
20.0
100
AcDbPoint
 10
2183.486632061834
 20
295.6808736774801
 30
0.0
  0
POINT
  5
A886
330
9260
100
AcDbEntity
  8
DEFPOINTS
 62
     0
 48
20.0
100
AcDbPoint
 10
2233.486632061834
 20
275.68087367748
 30
0.0
  0
POINT
  5
A887
330
9260
100
AcDbEntity
  8
DEFPOINTS
 62
     0
 48
20.0
100
AcDbPoint
 10
2067.998898564288
 20
275.6808736774801
 30
0.0
  0
ENDBLK
  5
926D
330
9260
100
AcDbEntity
  8
0
 48
20.0
100
AcDbBlockEnd
  0
BLOCK
  5
929C
330
9290
100
AcDbEntity
  8
0
 48
20.0
100
AcDbBlockBegin
  2
*D21
 70
     1
 10
0.0
 20
0.0
 30
0.0
  3
*D21
  1

  0
LINE
  5
A888
330
9290
100
AcDbEntity
  8
寸法引出
 48
20.0
370
    -2
100
AcDbLine
 10
2183.486632061834
 20
280.6808736774801
 30
0.0
 11
2183.486632061834
 21
198.5840701650904
 31
0.0
  0
LINE
  5
A889
330
9290
100
AcDbEntity
  8
寸法引出
 48
20.0
370
    -2
100
AcDbLine
 10
2233.486632061834
 20
260.68087367748
 30
0.0
 11
2233.486632061834
 21
198.5840701650904
 31
0.0
  0
LINE
  5
A88A
330
9290
100
AcDbEntity
  8
寸法引出
 48
20.0
370
    -2
100
AcDbLine
 10
2160.986632061834
 20
206.0840701650903
 30
0.0
 11
2138.486632061834
 21
206.0840701650903
 31
0.0
  0
LINE
  5
A88B
330
9290
100
AcDbEntity
  8
寸法引出
 48
20.0
370
    -2
100
AcDbLine
 10
2255.986632061834
 20
206.0840701650903
 30
0.0
 11
2278.486632061834
 21
206.0840701650903
 31
0.0
  0
LINE
  5
A88C
330
9290
100
AcDbEntity
  8
寸法引出
 48
20.0
370
    -2
100
AcDbLine
 10
2183.486632061834
 20
206.0840701650903
 30
0.0
 11
2233.486632061834
 21
206.0840701650903
 31
0.0
  0
SOLID
  5
A88D
330
9290
100
AcDbEntity
  8
寸法引出
 48
20.0
100
AcDbTrace
 10
2160.986632061834
 20
209.8340701650903
 30
0.0
 11
2160.986632061834
 21
202.3340701650904
 31
0.0
 12
2183.486632061834
 22
206.0840701650903
 32
0.0
 13
2183.486632061834
 23
206.0840701650903
 33
0.0
  0
SOLID
  5
A88E
330
9290
100
AcDbEntity
  8
寸法引出
 48
20.0
100
AcDbTrace
 10
2255.986632061834
 20
209.8340701650903
 30
0.0
 11
2255.986632061834
 21
202.3340701650904
 31
0.0
 12
2233.486632061834
 22
206.0840701650903
 32
0.0
 13
2233.486632061834
 23
206.0840701650903
 33
0.0
  0
MTEXT
  5
A88F
330
9290
100
AcDbEntity
  8
寸法引出
 48
20.0
100
AcDbMText
 10
2208.486632061834
 20
236.0840701650904
 30
0.0
 40
30.0
 41
0.0
 71
     5
 72
     1
  1
\A1;10
  7
SANWA
 73
     1
 44
1.0
  0
POINT
  5
A890
330
9290
100
AcDbEntity
  8
DEFPOINTS
 62
     0
 48
20.0
100
AcDbPoint
 10
2183.486632061834
 20
295.6808736774801
 30
0.0
  0
POINT
  5
A891
330
9290
100
AcDbEntity
  8
DEFPOINTS
 62
     0
 48
20.0
100
AcDbPoint
 10
2233.486632061834
 20
275.68087367748
 30
0.0
  0
POINT
  5
A892
330
9290
100
AcDbEntity
  8
DEFPOINTS
 62
     0
 48
20.0
100
AcDbPoint
 10
2233.486632061834
 20
206.0840701650903
 30
0.0
  0
ENDBLK
  5
929D
330
9290
100
AcDbEntity
  8
0
 48
20.0
100
AcDbBlockEnd
  0
BLOCK
  5
A037
330
A02D
100
AcDbEntity
  8
0
 48
20.0
100
AcDbBlockBegin
  2
*D22
 70
     1
 10
0.0
 20
0.0
 30
0.0
  3
*D22
  1

  0
LINE
  5
A921
330
A02D
100
AcDbEntity
  8
寸法引出
 48
20.0
370
    -2
100
AcDbLine
 10
893.5782198007601
 20
1845.179872534183
 30
0.0
 11
793.4095255738173
 21
1845.179872534183
 31
0.0
  0
LINE
  5
A922
330
A02D
100
AcDbEntity
  8
寸法引出
 48
20.0
370
    -2
100
AcDbLine
 10
917.5782198007624
 20
1245.179872534183
 30
0.0
 11
793.4095255738172
 21
1245.179872534183
 31
0.0
  0
LINE
  5
A923
330
A02D
100
AcDbEntity
  8
寸法引出
 48
20.0
370
    -2
100
AcDbLine
 10
800.9095255738174
 20
1822.679872534183
 30
0.0
 11
800.9095255738172
 21
1267.679872534183
 31
0.0
  0
SOLID
  5
A924
330
A02D
100
AcDbEntity
  8
寸法引出
 48
20.0
100
AcDbTrace
 10
797.1595255738174
 20
1822.679872534183
 30
0.0
 11
804.6595255738173
 21
1822.679872534183
 31
0.0
 12
800.9095255738174
 22
1845.179872534183
 32
0.0
 13
800.9095255738174
 23
1845.179872534183
 33
0.0
  0
SOLID
  5
A925
330
A02D
100
AcDbEntity
  8
寸法引出
 48
20.0
100
AcDbTrace
 10
797.1595255738171
 20
1267.679872534183
 30
0.0
 11
804.6595255738171
 21
1267.679872534183
 31
0.0
 12
800.9095255738172
 22
1245.179872534183
 32
0.0
 13
800.9095255738172
 23
1245.179872534183
 33
0.0
  0
MTEXT
  5
A926
330
A02D
100
AcDbEntity
  8
寸法引出
 48
20.0
100
AcDbMText
 10
770.909525573817
 20
1545.179872534183
 30
0.0
 40
30.0
 41
0.0
 71
     5
 72
     1
  1
\A1;600
  7
SANWA
 11
0.0000000000000001
 21
1.0
 31
0.0
 73
     1
 44
1.0
  0
POINT
  5
A927
330
A02D
100
AcDbEntity
  8
DEFPOINTS
 62
     0
 48
20.0
100
AcDbPoint
 10
908.5782198007601
 20
1845.179872534183
 30
0.0
  0
POINT
  5
A928
330
A02D
100
AcDbEntity
  8
DEFPOINTS
 62
     0
 48
20.0
100
AcDbPoint
 10
932.5782198007624
 20
1245.179872534183
 30
0.0
  0
POINT
  5
A929
330
A02D
100
AcDbEntity
  8
DEFPOINTS
 62
     0
 48
20.0
100
AcDbPoint
 10
800.9095255738172
 20
1245.179872534183
 30
0.0
  0
ENDBLK
  5
A038
330
A02D
100
AcDbEntity
  8
0
 48
20.0
100
AcDbBlockEnd
  0
BLOCK
  5
A046
330
A03A
100
AcDbEntity
  8
0
 48
20.0
100
AcDbBlockBegin
  2
*D23
 70
     1
 10
0.0
 20
0.0
 30
0.0
  3
*D23
  1

  0
LINE
  5
A8CD
330
A03A
100
AcDbEntity
  8
寸法引出
 48
20.0
370
    -2
100
AcDbLine
 10
917.5782198007624
 20
1245.179872534183
 30
0.0
 11
793.4095255738172
 21
1245.179872534183
 31
0.0
  0
LINE
  5
A8CE
330
A03A
100
AcDbEntity
  8
寸法引出
 48
20.0
370
    -2
100
AcDbLine
 10
940.5782198007624
 20
1170.179872534183
 30
0.0
 11
793.4095255738172
 21
1170.179872534183
 31
0.0
  0
LINE
  5
A8CF
330
A03A
100
AcDbEntity
  8
寸法引出
 48
20.0
370
    -2
100
AcDbLine
 10
800.9095255738172
 20
1267.679872534183
 30
0.0
 11
800.9095255738172
 21
1290.179872534183
 31
0.0
  0
LINE
  5
A8D0
330
A03A
100
AcDbEntity
  8
寸法引出
 48
20.0
370
    -2
100
AcDbLine
 10
800.9095255738172
 20
1147.679872534183
 30
0.0
 11
800.9095255738172
 21
1125.179872534183
 31
0.0
  0
LINE
  5
A8D1
330
A03A
100
AcDbEntity
  8
寸法引出
 48
20.0
370
    -2
100
AcDbLine
 10
800.9095255738172
 20
1245.179872534183
 30
0.0
 11
800.9095255738172
 21
1170.179872534183
 31
0.0
  0
SOLID
  5
A8D2
330
A03A
100
AcDbEntity
  8
寸法引出
 48
20.0
100
AcDbTrace
 10
797.1595255738171
 20
1267.679872534183
 30
0.0
 11
804.6595255738171
 21
1267.679872534183
 31
0.0
 12
800.9095255738172
 22
1245.179872534183
 32
0.0
 13
800.9095255738172
 23
1245.179872534183
 33
0.0
  0
SOLID
  5
A8D3
330
A03A
100
AcDbEntity
  8
寸法引出
 48
20.0
100
AcDbTrace
 10
797.1595255738171
 20
1147.679872534183
 30
0.0
 11
804.6595255738171
 21
1147.679872534183
 31
0.0
 12
800.9095255738172
 22
1170.179872534183
 32
0.0
 13
800.9095255738172
 23
1170.179872534183
 33
0.0
  0
MTEXT
  5
A8D4
330
A03A
100
AcDbEntity
  8
寸法引出
 48
20.0
100
AcDbMText
 10
770.909525573817
 20
1207.679872534183
 30
0.0
 40
30.0
 41
0.0
 71
     5
 72
     1
  1
\A1;75
  7
SANWA
 11
0.0000000000000001
 21
1.0
 31
0.0
 73
     1
 44
1.0
  0
POINT
  5
A8D5
330
A03A
100
AcDbEntity
  8
DEFPOINTS
 62
     0
 48
20.0
100
AcDbPoint
 10
932.5782198007624
 20
1245.179872534183
 30
0.0
  0
POINT
  5
A8D6
330
A03A
100
AcDbEntity
  8
DEFPOINTS
 62
     0
 48
20.0
100
AcDbPoint
 10
955.5782198007625
 20
1170.179872534183
 30
0.0
  0
POINT
  5
A8D7
330
A03A
100
AcDbEntity
  8
DEFPOINTS
 62
     0
 48
20.0
100
AcDbPoint
 10
800.9095255738172
 20
1170.179872534183
 30
0.0
  0
ENDBLK
  5
A047
330
A03A
100
AcDbEntity
  8
0
 48
20.0
100
AcDbBlockEnd
  0
BLOCK
  5
A053
330
A049
100
AcDbEntity
  8
0
 48
20.0
100
AcDbBlockBegin
  2
*D24
 70
     1
 10
0.0
 20
0.0
 30
0.0
  3
*D24
  1

  0
LINE
  5
A8D8
330
A049
100
AcDbEntity
  8
寸法引出
 48
20.0
370
    -2
100
AcDbLine
 10
898.0782198007601
 20
1935.179872534183
 30
0.0
 11
714.1704700963565
 21
1935.179872534183
 31
0.0
  0
LINE
  5
A8D9
330
A049
100
AcDbEntity
  8
寸法引出
 48
20.0
370
    -2
100
AcDbLine
 10
940.5782198007624
 20
1170.179872534183
 30
0.0
 11
714.1704700963563
 21
1170.179872534183
 31
0.0
  0
LINE
  5
A8DA
330
A049
100
AcDbEntity
  8
寸法引出
 48
20.0
370
    -2
100
AcDbLine
 10
721.6704700963565
 20
1912.679872534183
 30
0.0
 11
721.6704700963563
 21
1192.679872534183
 31
0.0
  0
SOLID
  5
A8DB
330
A049
100
AcDbEntity
  8
寸法引出
 48
20.0
100
AcDbTrace
 10
717.9204700963565
 20
1912.679872534183
 30
0.0
 11
725.4204700963565
 21
1912.679872534183
 31
0.0
 12
721.6704700963565
 22
1935.179872534183
 32
0.0
 13
721.6704700963565
 23
1935.179872534183
 33
0.0
  0
SOLID
  5
A8DC
330
A049
100
AcDbEntity
  8
寸法引出
 48
20.0
100
AcDbTrace
 10
717.9204700963563
 20
1192.679872534183
 30
0.0
 11
725.4204700963563
 21
1192.679872534183
 31
0.0
 12
721.6704700963563
 22
1170.179872534183
 32
0.0
 13
721.6704700963563
 23
1170.179872534183
 33
0.0
  0
MTEXT
  5
A8DD
330
A049
100
AcDbEntity
  8
寸法引出
 48
20.0
100
AcDbMText
 10
691.6704700963562
 20
1552.679872534183
 30
0.0
 40
30.0
 41
0.0
 71
     5
 72
     1
  1
\A1;765
  7
SANWA
 11
0.0000000000000001
 21
1.0
 31
0.0
 73
     1
 44
1.0
  0
POINT
  5
A8DE
330
A049
100
AcDbEntity
  8
DEFPOINTS
 62
     0
 48
20.0
100
AcDbPoint
 10
913.0782198007601
 20
1935.179872534183
 30
0.0
  0
POINT
  5
A8DF
330
A049
100
AcDbEntity
  8
DEFPOINTS
 62
     0
 48
20.0
100
AcDbPoint
 10
955.5782198007625
 20
1170.179872534183
 30
0.0
  0
POINT
  5
A8E0
330
A049
100
AcDbEntity
  8
DEFPOINTS
 62
     0
 48
20.0
100
AcDbPoint
 10
721.6704700963563
 20
1170.179872534183
 30
0.0
  0
ENDBLK
  5
A054
330
A049
100
AcDbEntity
  8
0
 48
20.0
100
AcDbBlockEnd
  0
BLOCK
  5
A07F
330
A073
100
AcDbEntity
  8
0
 48
20.0
100
AcDbBlockBegin
  2
*D25
 70
     1
 10
0.0
 20
0.0
 30
0.0
  3
*D25
  1

  0
LINE
  5
A8E1
330
A073
100
AcDbEntity
  8
寸法引出
 48
20.0
370
    -2
100
AcDbLine
 10
932.5782198007624
 20
1260.179872534183
 30
0.0
 11
932.5782198007624
 21
1532.749116888628
 31
0.0
  0
LINE
  5
A8E2
330
A073
100
AcDbEntity
  8
寸法引出
 48
20.0
370
    -2
100
AcDbLine
 10
1002.578219800762
 20
1260.179872534183
 30
0.0
 11
1002.578219800762
 21
1532.749116888628
 31
0.0
  0
LINE
  5
A8E3
330
A073
100
AcDbEntity
  8
寸法引出
 48
20.0
370
    -2
100
AcDbLine
 10
910.0782198007625
 20
1525.249116888628
 30
0.0
 11
887.5782198007625
 21
1525.249116888628
 31
0.0
  0
LINE
  5
A8E4
330
A073
100
AcDbEntity
  8
寸法引出
 48
20.0
370
    -2
100
AcDbLine
 10
1025.078219800762
 20
1525.249116888628
 30
0.0
 11
1047.578219800762
 21
1525.249116888628
 31
0.0
  0
MTEXT
  5
A8E5
330
A073
100
AcDbEntity
  8
寸法引出
 48
20.0
100
AcDbMText
 10
944.7917120105323
 20
1558.695472557295
 30
0.0
 40
30.0
 41
0.0
 71
     5
 72
     1
  1
\A1;70
  7
SANWA
 73
     1
 44
1.0
  0
LINE
  5
A8E6
330
A073
100
AcDbEntity
  8
寸法引出
 48
20.0
370
    -2
100
AcDbLine
 10
932.5782198007624
 20
1525.249116888628
 30
0.0
 11
1002.578219800762
 21
1525.249116888628
 31
0.0
  0
SOLID
  5
A8E7
330
A073
100
AcDbEntity
  8
寸法引出
 48
20.0
100
AcDbTrace
 10
910.0782198007625
 20
1528.999116888628
 30
0.0
 11
910.0782198007625
 21
1521.499116888628
 31
0.0
 12
932.5782198007624
 22
1525.249116888628
 32
0.0
 13
932.5782198007624
 23
1525.249116888628
 33
0.0
  0
SOLID
  5
A8E8
330
A073
100
AcDbEntity
  8
寸法引出
 48
20.0
100
AcDbTrace
 10
1025.078219800762
 20
1528.999116888628
 30
0.0
 11
1025.078219800762
 21
1521.499116888628
 31
0.0
 12
1002.578219800762
 22
1525.249116888628
 32
0.0
 13
1002.578219800762
 23
1525.249116888628
 33
0.0
  0
POINT
  5
A8E9
330
A073
100
AcDbEntity
  8
DEFPOINTS
 62
     0
 48
20.0
100
AcDbPoint
 10
932.5782198007624
 20
1245.179872534183
 30
0.0
  0
POINT
  5
A8EA
330
A073
100
AcDbEntity
  8
DEFPOINTS
 62
     0
 48
20.0
100
AcDbPoint
 10
1002.578219800762
 20
1245.179872534183
 30
0.0
  0
POINT
  5
A8EB
330
A073
100
AcDbEntity
  8
DEFPOINTS
 62
     0
 48
20.0
100
AcDbPoint
 10
1002.578219800762
 20
1525.249116888628
 30
0.0
  0
ENDBLK
  5
A080
330
A073
100
AcDbEntity
  8
0
 48
20.0
100
AcDbBlockEnd
  0
BLOCK
  5
A08C
330
A082
100
AcDbEntity
  8
0
 48
20.0
100
AcDbBlockBegin
  2
*D26
 70
     1
 10
0.0
 20
0.0
 30
0.0
  3
*D26
  1

  0
LINE
  5
A959
330
A082
100
AcDbEntity
  8
寸法引出
 48
20.0
370
    -2
100
AcDbLine
 10
1002.578219800762
 20
1260.179872534183
 30
0.0
 11
1002.578219800762
 21
1532.749116888628
 31
0.0
  0
LINE
  5
A95A
330
A082
100
AcDbEntity
  8
寸法引出
 48
20.0
370
    -2
100
AcDbLine
 10
1354.578219800761
 20
1260.179872534183
 30
0.0
 11
1354.578219800761
 21
1532.749116888628
 31
0.0
  0
LINE
  5
A95B
330
A082
100
AcDbEntity
  8
寸法引出
 48
20.0
370
    -2
100
AcDbLine
 10
1025.078219800762
 20
1525.249116888628
 30
0.0
 11
1332.078219800761
 21
1525.249116888628
 31
0.0
  0
SOLID
  5
A95C
330
A082
100
AcDbEntity
  8
寸法引出
 48
20.0
100
AcDbTrace
 10
1025.078219800762
 20
1528.999116888628
 30
0.0
 11
1025.078219800762
 21
1521.499116888628
 31
0.0
 12
1002.578219800762
 22
1525.249116888628
 32
0.0
 13
1002.578219800762
 23
1525.249116888628
 33
0.0
  0
SOLID
  5
A95D
330
A082
100
AcDbEntity
  8
寸法引出
 48
20.0
100
AcDbTrace
 10
1332.078219800761
 20
1528.999116888628
 30
0.0
 11
1332.078219800761
 21
1521.499116888628
 31
0.0
 12
1354.578219800761
 22
1525.249116888628
 32
0.0
 13
1354.578219800761
 23
1525.249116888628
 33
0.0
  0
MTEXT
  5
A95E
330
A082
100
AcDbEntity
  8
寸法引出
 48
20.0
100
AcDbMText
 10
1178.578219800761
 20
1555.249116888628
 30
0.0
 40
30.0
 41
0.0
 71
     5
 72
     1
  1
\A1;352
  7
SANWA
 73
     1
 44
1.0
  0
POINT
  5
A95F
330
A082
100
AcDbEntity
  8
DEFPOINTS
 62
     0
 48
20.0
100
AcDbPoint
 10
1002.578219800762
 20
1245.179872534183
 30
0.0
  0
POINT
  5
A960
330
A082
100
AcDbEntity
  8
DEFPOINTS
 62
     0
 48
20.0
100
AcDbPoint
 10
1354.578219800761
 20
1245.179872534183
 30
0.0
  0
POINT
  5
A961
330
A082
100
AcDbEntity
  8
DEFPOINTS
 62
     0
 48
20.0
100
AcDbPoint
 10
1354.578219800761
 20
1525.249116888628
 30
0.0
  0
ENDBLK
  5
A08D
330
A082
100
AcDbEntity
  8
0
 48
20.0
100
AcDbBlockEnd
  0
BLOCK
  5
A2F6
330
A2EC
100
AcDbEntity
  8
0
 48
20.0
100
AcDbBlockBegin
  2
*D27
 70
     1
 10
0.0
 20
0.0
 30
0.0
  3
*D27
  1

  0
LINE
  5
A78D
330
A2EC
100
AcDbEntity
  8
寸法引出
 48
20.0
370
    -2
100
AcDbLine
 10
908.5782198007601
 20
1495.052224565749
 30
0.0
 11
908.5782198007601
 21
1603.118212567147
 31
0.0
  0
LINE
  5
A78E
330
A2EC
100
AcDbEntity
  8
寸法引出
 48
20.0
370
    -2
100
AcDbLine
 10
1448.57821980076
 20
1495.052224565748
 30
0.0
 11
1448.57821980076
 21
1603.118212567147
 31
0.0
  0
LINE
  5
A78F
330
A2EC
100
AcDbEntity
  8
寸法引出
 48
20.0
370
    -2
100
AcDbLine
 10
931.0782198007601
 20
1595.618212567146
 30
0.0
 11
1426.07821980076
 21
1595.618212567146
 31
0.0
  0
SOLID
  5
A790
330
A2EC
100
AcDbEntity
  8
寸法引出
 48
20.0
100
AcDbTrace
 10
931.0782198007601
 20
1599.368212567147
 30
0.0
 11
931.0782198007601
 21
1591.868212567146
 31
0.0
 12
908.5782198007601
 22
1595.618212567146
 32
0.0
 13
908.5782198007601
 23
1595.618212567146
 33
0.0
  0
SOLID
  5
A791
330
A2EC
100
AcDbEntity
  8
寸法引出
 48
20.0
100
AcDbTrace
 10
1426.07821980076
 20
1599.368212567147
 30
0.0
 11
1426.07821980076
 21
1591.868212567146
 31
0.0
 12
1448.57821980076
 22
1595.618212567146
 32
0.0
 13
1448.57821980076
 23
1595.618212567146
 33
0.0
  0
MTEXT
  5
A792
330
A2EC
100
AcDbEntity
  8
寸法引出
 48
20.0
100
AcDbMText
 10
1178.57821980076
 20
1625.618212567147
 30
0.0
 40
30.0
 41
0.0
 71
     5
 72
     1
  1
\A1;540
  7
SANWA
 73
     1
 44
1.0
  0
POINT
  5
A793
330
A2EC
100
AcDbEntity
  8
DEFPOINTS
 62
     0
 48
20.0
100
AcDbPoint
 10
908.5782198007601
 20
1480.052224565748
 30
0.0
  0
POINT
  5
A794
330
A2EC
100
AcDbEntity
  8
DEFPOINTS
 62
     0
 48
20.0
100
AcDbPoint
 10
1448.57821980076
 20
1480.052224565748
 30
0.0
  0
POINT
  5
A795
330
A2EC
100
AcDbEntity
  8
DEFPOINTS
 62
     0
 48
20.0
100
AcDbPoint
 10
1448.57821980076
 20
1595.618212567146
 30
0.0
  0
ENDBLK
  5
A2F7
330
A2EC
100
AcDbEntity
  8
0
 48
20.0
100
AcDbBlockEnd
  0
BLOCK
  5
A334
330
A32A
100
AcDbEntity
  8
0
 48
20.0
100
AcDbBlockBegin
  2
*D28
 70
     1
 10
0.0
 20
0.0
 30
0.0
  3
*D28
  1

  0
LINE
  5
A796
330
A32A
100
AcDbEntity
  8
寸法引出
 48
20.0
370
    -2
100
AcDbLine
 10
940.5782198007624
 20
719.5522245657506
 30
0.0
 11
747.9777094708562
 21
719.5522245657507
 31
0.0
  0
LINE
  5
A797
330
A32A
100
AcDbEntity
  8
寸法引出
 48
20.0
370
    -2
100
AcDbLine
 10
898.0782198007601
 20
1484.552224565748
 30
0.0
 11
747.9777094708564
 21
1484.552224565748
 31
0.0
  0
LINE
  5
A798
330
A32A
100
AcDbEntity
  8
寸法引出
 48
20.0
370
    -2
100
AcDbLine
 10
755.4777094708562
 20
742.0522245657507
 30
0.0
 11
755.4777094708564
 21
1462.052224565749
 31
0.0
  0
SOLID
  5
A799
330
A32A
100
AcDbEntity
  8
寸法引出
 48
20.0
100
AcDbTrace
 10
751.7277094708561
 20
742.0522245657507
 30
0.0
 11
759.2277094708562
 21
742.0522245657507
 31
0.0
 12
755.4777094708562
 22
719.5522245657507
 32
0.0
 13
755.4777094708562
 23
719.5522245657507
 33
0.0
  0
SOLID
  5
A79A
330
A32A
100
AcDbEntity
  8
寸法引出
 48
20.0
100
AcDbTrace
 10
751.7277094708564
 20
1462.052224565749
 30
0.0
 11
759.2277094708564
 21
1462.052224565749
 31
0.0
 12
755.4777094708564
 22
1484.552224565748
 32
0.0
 13
755.4777094708564
 23
1484.552224565748
 33
0.0
  0
MTEXT
  5
A79B
330
A32A
100
AcDbEntity
  8
寸法引出
 48
20.0
100
AcDbMText
 10
725.4777094708562
 20
1102.05222456575
 30
0.0
 40
30.0
 41
0.0
 71
     5
 72
     1
  1
\A1;765
  7
SANWA
 11
0.0000000000000001
 21
1.0
 31
0.0
 73
     1
 44
1.0
  0
POINT
  5
A79C
330
A32A
100
AcDbEntity
  8
DEFPOINTS
 62
     0
 48
20.0
100
AcDbPoint
 10
955.5782198007625
 20
719.5522245657506
 30
0.0
  0
POINT
  5
A79D
330
A32A
100
AcDbEntity
  8
DEFPOINTS
 62
     0
 48
20.0
100
AcDbPoint
 10
913.0782198007601
 20
1484.552224565748
 30
0.0
  0
POINT
  5
A79E
330
A32A
100
AcDbEntity
  8
DEFPOINTS
 62
     0
 48
20.0
100
AcDbPoint
 10
755.4777094708564
 20
1484.552224565748
 30
0.0
  0
ENDBLK
  5
A335
330
A32A
100
AcDbEntity
  8
0
 48
20.0
100
AcDbBlockEnd
  0
BLOCK
  5
A491
330
A485
100
AcDbEntity
  8
0
 48
20.0
100
AcDbBlockBegin
  2
*D29
 70
     1
 10
0.0
 20
0.0
 30
0.0
  3
*D29
  1

  0
LINE
  5
A916
330
A485
100
AcDbEntity
  8
寸法引出
 48
20.0
370
    -2
100
AcDbLine
 10
967.0782198007584
 20
1860.179872534183
 30
0.0
 11
967.0782198007584
 21
1892.547951186833
 31
0.0
  0
LINE
  5
A917
330
A485
100
AcDbEntity
  8
寸法引出
 48
20.0
370
    -2
100
AcDbLine
 10
978.5782198007602
 20
1860.179872534183
 30
0.0
 11
978.5782198007602
 21
1892.547951186833
 31
0.0
  0
LINE
  5
A918
330
A485
100
AcDbEntity
  8
寸法引出
 48
20.0
370
    -2
100
AcDbLine
 10
944.5782198007583
 20
1885.047951186833
 30
0.0
 11
922.0782198007583
 21
1885.047951186833
 31
0.0
  0
LINE
  5
A919
330
A485
100
AcDbEntity
  8
寸法引出
 48
20.0
370
    -2
100
AcDbLine
 10
1001.07821980076
 20
1885.047951186833
 30
0.0
 11
1023.57821980076
 21
1885.047951186833
 31
0.0
  0
MTEXT
  5
A91A
330
A485
100
AcDbEntity
  8
寸法引出
 48
20.0
100
AcDbMText
 10
1001.644546622799
 20
1915.337076186987
 30
0.0
 40
30.0
 41
0.0
 71
     5
 72
     1
  1
\A1;11.5
  7
SANWA
 73
     1
 44
1.0
  0
LINE
  5
A91B
330
A485
100
AcDbEntity
  8
寸法引出
 48
20.0
370
    -2
100
AcDbLine
 10
967.0782198007584
 20
1885.047951186833
 30
0.0
 11
978.5782198007602
 21
1885.047951186833
 31
0.0
  0
SOLID
  5
A91C
330
A485
100
AcDbEntity
  8
寸法引出
 48
20.0
100
AcDbTrace
 10
944.5782198007583
 20
1888.797951186833
 30
0.0
 11
944.5782198007583
 21
1881.297951186833
 31
0.0
 12
967.0782198007584
 22
1885.047951186833
 32
0.0
 13
967.0782198007584
 23
1885.047951186833
 33
0.0
  0
SOLID
  5
A91D
330
A485
100
AcDbEntity
  8
寸法引出
 48
20.0
100
AcDbTrace
 10
1001.07821980076
 20
1888.797951186833
 30
0.0
 11
1001.07821980076
 21
1881.297951186833
 31
0.0
 12
978.5782198007602
 22
1885.047951186833
 32
0.0
 13
978.5782198007602
 23
1885.047951186833
 33
0.0
  0
POINT
  5
A91E
330
A485
100
AcDbEntity
  8
DEFPOINTS
 62
     0
 48
20.0
100
AcDbPoint
 10
967.0782198007584
 20
1845.179872534183
 30
0.0
  0
POINT
  5
A91F
330
A485
100
AcDbEntity
  8
DEFPOINTS
 62
     0
 48
20.0
100
AcDbPoint
 10
978.5782198007602
 20
1845.179872534183
 30
0.0
  0
POINT
  5
A920
330
A485
100
AcDbEntity
  8
DEFPOINTS
 62
     0
 48
20.0
100
AcDbPoint
 10
978.5782198007602
 20
1885.047951186833
 30
0.0
  0
ENDBLK
  5
A492
330
A485
100
AcDbEntity
  8
0
 48
20.0
100
AcDbBlockEnd
  0
BLOCK
  5
A4A0
330
A494
100
AcDbEntity
  8
0
 48
20.0
100
AcDbBlockBegin
  2
*D30
 70
     1
 10
0.0
 20
0.0
 30
0.0
  3
*D30
  1

  0
LINE
  5
A962
330
A494
100
AcDbEntity
  8
寸法引出
 48
20.0
370
    -2
100
AcDbLine
 10
993.5782198007601
 20
1845.179872534183
 30
0.0
 11
1050.260674839681
 21
1845.179872534183
 31
0.0
  0
LINE
  5
A963
330
A494
100
AcDbEntity
  8
寸法引出
 48
20.0
370
    -2
100
AcDbLine
 10
993.8982198007584
 20
1837.179872534183
 30
0.0
 11
1050.260674839681
 21
1837.179872534183
 31
0.0
  0
LINE
  5
A964
330
A494
100
AcDbEntity
  8
寸法引出
 48
20.0
370
    -2
100
AcDbLine
 10
1042.760674839681
 20
1867.679872534183
 30
0.0
 11
1042.760674839681
 21
1890.179872534183
 31
0.0
  0
LINE
  5
A965
330
A494
100
AcDbEntity
  8
寸法引出
 48
20.0
370
    -2
100
AcDbLine
 10
1042.760674839681
 20
1814.679872534183
 30
0.0
 11
1042.760674839681
 21
1792.179872534183
 31
0.0
  0
MTEXT
  5
A966
330
A494
100
AcDbEntity
  8
寸法引出
 48
20.0
100
AcDbMText
 10
1013.273348804381
 20
1817.830978997812
 30
0.0
 40
30.0
 41
0.0
 71
     5
 72
     1
  1
\A1;8
  7
SANWA
 11
0.0000000000000001
 21
1.0
 31
0.0
 73
     1
 44
1.0
  0
LINE
  5
A967
330
A494
100
AcDbEntity
  8
寸法引出
 48
20.0
370
    -2
100
AcDbLine
 10
1042.760674839681
 20
1845.179872534183
 30
0.0
 11
1042.760674839681
 21
1837.179872534183
 31
0.0
  0
SOLID
  5
A968
330
A494
100
AcDbEntity
  8
寸法引出
 48
20.0
100
AcDbTrace
 10
1039.010674839681
 20
1867.679872534183
 30
0.0
 11
1046.510674839681
 21
1867.679872534183
 31
0.0
 12
1042.760674839681
 22
1845.179872534183
 32
0.0
 13
1042.760674839681
 23
1845.179872534183
 33
0.0
  0
SOLID
  5
A969
330
A494
100
AcDbEntity
  8
寸法引出
 48
20.0
100
AcDbTrace
 10
1039.010674839681
 20
1814.679872534183
 30
0.0
 11
1046.510674839681
 21
1814.679872534183
 31
0.0
 12
1042.760674839681
 22
1837.179872534183
 32
0.0
 13
1042.760674839681
 23
1837.179872534183
 33
0.0
  0
POINT
  5
A96A
330
A494
100
AcDbEntity
  8
DEFPOINTS
 62
     0
 48
20.0
100
AcDbPoint
 10
978.5782198007602
 20
1845.179872534183
 30
0.0
  0
POINT
  5
A96B
330
A494
100
AcDbEntity
  8
DEFPOINTS
 62
     0
 48
20.0
100
AcDbPoint
 10
978.8982198007586
 20
1837.179872534183
 30
0.0
  0
POINT
  5
A96C
330
A494
100
AcDbEntity
  8
DEFPOINTS
 62
     0
 48
20.0
100
AcDbPoint
 10
1042.760674839681
 20
1837.179872534183
 30
0.0
  0
ENDBLK
  5
A4A1
330
A494
100
AcDbEntity
  8
0
 48
20.0
100
AcDbBlockEnd
  0
BLOCK
  5
A685
330
A67B
100
AcDbEntity
  8
0
 48
20.0
100
AcDbBlockBegin
  2
*D31
 70
     1
 10
0.0
 20
0.0
 30
0.0
  3
*D31
  1

  0
LINE
  5
A67C
330
A67B
100
AcDbEntity
  8
寸法引出
 48
20.0
370
    -2
100
AcDbLine
 10
5318.317008653675
 20
1776.950245934466
 30
0.0
 11
5318.317008653675
 21
1652.890227641353
 31
0.0
  0
LINE
  5
A67D
330
A67B
100
AcDbEntity
  8
寸法引出
 48
20.0
370
    -2
100
AcDbLine
 10
5804.317008653675
 20
1776.950245934466
 30
0.0
 11
5804.317008653675
 21
1652.890227641353
 31
0.0
  0
LINE
  5
A67E
330
A67B
100
AcDbEntity
  8
寸法引出
 48
20.0
370
    -2
100
AcDbLine
 10
5340.817008653675
 20
1660.390227641351
 30
0.0
 11
5781.817008653675
 21
1660.390227641351
 31
0.0
  0
SOLID
  5
A67F
330
A67B
100
AcDbEntity
  8
寸法引出
 48
20.0
100
AcDbTrace
 10
5340.817008653675
 20
1664.140227641353
 30
0.0
 11
5340.817008653675
 21
1656.640227641352
 31
0.0
 12
5318.317008653675
 22
1660.390227641351
 32
0.0
 13
5318.317008653675
 23
1660.390227641351
 33
0.0
  0
SOLID
  5
A680
330
A67B
100
AcDbEntity
  8
寸法引出
 48
20.0
100
AcDbTrace
 10
5781.817008653675
 20
1664.140227641353
 30
0.0
 11
5781.817008653675
 21
1656.640227641352
 31
0.0
 12
5804.317008653675
 22
1660.390227641351
 32
0.0
 13
5804.317008653675
 23
1660.390227641351
 33
0.0
  0
MTEXT
  5
A681
330
A67B
100
AcDbEntity
  8
寸法引出
 48
20.0
100
AcDbMText
 10
5561.317008653674
 20
1690.390227641351
 30
0.0
 40
30.0
 41
0.0
 71
     5
 72
     1
  1
\A1;486
  7
SANWA
 73
     1
 44
1.0
  0
POINT
  5
A682
330
A67B
100
AcDbEntity
  8
DEFPOINTS
 62
     0
 48
20.0
100
AcDbPoint
 10
5318.317008653675
 20
1791.950245934466
 30
0.0
  0
POINT
  5
A683
330
A67B
100
AcDbEntity
  8
DEFPOINTS
 62
     0
 48
20.0
100
AcDbPoint
 10
5804.317008653675
 20
1791.950245934466
 30
0.0
  0
POINT
  5
A684
330
A67B
100
AcDbEntity
  8
DEFPOINTS
 62
     0
 48
20.0
100
AcDbPoint
 10
5804.317008653675
 20
1660.390227641351
 30
0.0
  0
ENDBLK
  5
A686
330
A67B
100
AcDbEntity
  8
0
 48
20.0
100
AcDbBlockEnd
  0
BLOCK
  5
A6E8
330
A6DE
100
AcDbEntity
  8
0
 48
20.0
100
AcDbBlockBegin
  2
*D32
 70
     1
 10
0.0
 20
0.0
 30
0.0
  3
*D32
  1

  0
LINE
  5
A96D
330
A6DE
100
AcDbEntity
  8
寸法引出
 48
20.0
370
    -2
100
AcDbLine
 10
1459.078219800758
 20
1935.179872534183
 30
0.0
 11
1541.438663960516
 21
1935.179872534183
 31
0.0
  0
LINE
  5
A96E
330
A6DE
100
AcDbEntity
  8
寸法引出
 48
20.0
370
    -2
100
AcDbLine
 10
1450.218219800762
 20
1511.179872534183
 30
0.0
 11
1541.438663960516
 21
1511.179872534182
 31
0.0
  0
LINE
  5
A96F
330
A6DE
100
AcDbEntity
  8
寸法引出
 48
20.0
370
    -2
100
AcDbLine
 10
1533.938663960516
 20
1912.679872534183
 30
0.0
 11
1533.938663960516
 21
1533.679872534183
 31
0.0
  0
SOLID
  5
A970
330
A6DE
100
AcDbEntity
  8
寸法引出
 48
20.0
100
AcDbTrace
 10
1530.188663960516
 20
1912.679872534183
 30
0.0
 11
1537.688663960516
 21
1912.679872534183
 31
0.0
 12
1533.938663960516
 22
1935.179872534183
 32
0.0
 13
1533.938663960516
 23
1935.179872534183
 33
0.0
  0
SOLID
  5
A971
330
A6DE
100
AcDbEntity
  8
寸法引出
 48
20.0
100
AcDbTrace
 10
1530.188663960516
 20
1533.679872534183
 30
0.0
 11
1537.688663960516
 21
1533.679872534183
 31
0.0
 12
1533.938663960516
 22
1511.179872534183
 32
0.0
 13
1533.938663960516
 23
1511.179872534183
 33
0.0
  0
MTEXT
  5
A972
330
A6DE
100
AcDbEntity
  8
寸法引出
 48
20.0
100
AcDbMText
 10
1503.938663960516
 20
1723.179872534183
 30
0.0
 40
30.0
 41
0.0
 71
     5
 72
     1
  1
\A1;424
  7
SANWA
 11
0.0000000000000001
 21
1.0
 31
0.0
 73
     1
 44
1.0
  0
POINT
  5
A973
330
A6DE
100
AcDbEntity
  8
DEFPOINTS
 62
     0
 48
20.0
100
AcDbPoint
 10
1444.078219800758
 20
1935.179872534183
 30
0.0
  0
POINT
  5
A974
330
A6DE
100
AcDbEntity
  8
DEFPOINTS
 62
     0
 48
20.0
100
AcDbPoint
 10
1435.218219800762
 20
1511.179872534183
 30
0.0
  0
POINT
  5
A975
330
A6DE
100
AcDbEntity
  8
DEFPOINTS
 62
     0
 48
20.0
100
AcDbPoint
 10
1533.938663960516
 20
1511.179872534183
 30
0.0
  0
ENDBLK
  5
A6E9
330
A6DE
100
AcDbEntity
  8
0
 48
20.0
100
AcDbBlockEnd
  0
BLOCK
  5
A6F7
330
A6EB
100
AcDbEntity
  8
0
 48
20.0
100
AcDbBlockBegin
  2
*D33
 70
     1
 10
0.0
 20
0.0
 30
0.0
  3
*D33
  1

  0
LINE
  5
A976
330
A6EB
100
AcDbEntity
  8
寸法引出
 48
20.0
370
    -2
100
AcDbLine
 10
1450.218219800762
 20
1511.179872534183
 30
0.0
 11
1541.438663960516
 21
1511.179872534182
 31
0.0
  0
LINE
  5
A977
330
A6EB
100
AcDbEntity
  8
寸法引出
 48
20.0
370
    -2
100
AcDbLine
 10
1446.218219800762
 20
1501.179872534183
 30
0.0
 11
1541.438663960516
 21
1501.179872534183
 31
0.0
  0
LINE
  5
A978
330
A6EB
100
AcDbEntity
  8
寸法引出
 48
20.0
370
    -2
100
AcDbLine
 10
1533.938663960516
 20
1533.679872534183
 30
0.0
 11
1533.938663960516
 21
1556.179872534183
 31
0.0
  0
LINE
  5
A979
330
A6EB
100
AcDbEntity
  8
寸法引出
 48
20.0
370
    -2
100
AcDbLine
 10
1533.938663960516
 20
1478.679872534183
 30
0.0
 11
1533.938663960516
 21
1456.179872534183
 31
0.0
  0
MTEXT
  5
A97A
330
A6EB
100
AcDbEntity
  8
寸法引出
 48
20.0
100
AcDbMText
 10
1566.404960568566
 20
1508.937966238531
 30
0.0
 40
30.0
 41
0.0
 71
     5
 72
     1
  1
\A1;10
  7
SANWA
 11
0.0000000000000001
 21
1.0
 31
0.0
 73
     1
 44
1.0
  0
LINE
  5
A97B
330
A6EB
100
AcDbEntity
  8
寸法引出
 48
20.0
370
    -2
100
AcDbLine
 10
1533.938663960516
 20
1511.179872534183
 30
0.0
 11
1533.938663960516
 21
1501.179872534183
 31
0.0
  0
SOLID
  5
A97C
330
A6EB
100
AcDbEntity
  8
寸法引出
 48
20.0
100
AcDbTrace
 10
1530.188663960516
 20
1533.679872534183
 30
0.0
 11
1537.688663960516
 21
1533.679872534183
 31
0.0
 12
1533.938663960516
 22
1511.179872534183
 32
0.0
 13
1533.938663960516
 23
1511.179872534183
 33
0.0
  0
SOLID
  5
A97D
330
A6EB
100
AcDbEntity
  8
寸法引出
 48
20.0
100
AcDbTrace
 10
1530.188663960516
 20
1478.679872534183
 30
0.0
 11
1537.688663960516
 21
1478.679872534183
 31
0.0
 12
1533.938663960516
 22
1501.179872534183
 32
0.0
 13
1533.938663960516
 23
1501.179872534183
 33
0.0
  0
POINT
  5
A97E
330
A6EB
100
AcDbEntity
  8
DEFPOINTS
 62
     0
 48
20.0
100
AcDbPoint
 10
1435.218219800762
 20
1511.179872534183
 30
0.0
  0
POINT
  5
A97F
330
A6EB
100
AcDbEntity
  8
DEFPOINTS
 62
     0
 48
20.0
100
AcDbPoint
 10
1431.218219800762
 20
1501.179872534183
 30
0.0
  0
POINT
  5
A980
330
A6EB
100
AcDbEntity
  8
DEFPOINTS
 62
     0
 48
20.0
100
AcDbPoint
 10
1533.938663960516
 20
1501.179872534183
 30
0.0
  0
ENDBLK
  5
A6F8
330
A6EB
100
AcDbEntity
  8
0
 48
20.0
100
AcDbBlockEnd
  0
BLOCK
  5
A704
330
A6FA
100
AcDbEntity
  8
0
 48
20.0
100
AcDbBlockBegin
  2
*D34
 70
     1
 10
0.0
 20
0.0
 30
0.0
  3
*D34
  1

  0
LINE
  5
A950
330
A6FA
100
AcDbEntity
  8
寸法引出
 48
20.0
370
    -2
100
AcDbLine
 10
1446.218219800762
 20
1501.179872534183
 30
0.0
 11
1541.438663960516
 21
1501.179872534183
 31
0.0
  0
LINE
  5
A951
330
A6FA
100
AcDbEntity
  8
寸法引出
 48
20.0
370
    -2
100
AcDbLine
 10
1446.218219800762
 20
1411.179872534183
 30
0.0
 11
1541.438663960516
 21
1411.179872534183
 31
0.0
  0
LINE
  5
A952
330
A6FA
100
AcDbEntity
  8
寸法引出
 48
20.0
370
    -2
100
AcDbLine
 10
1533.938663960516
 20
1478.679872534183
 30
0.0
 11
1533.938663960516
 21
1433.679872534183
 31
0.0
  0
SOLID
  5
A953
330
A6FA
100
AcDbEntity
  8
寸法引出
 48
20.0
100
AcDbTrace
 10
1530.188663960516
 20
1478.679872534183
 30
0.0
 11
1537.688663960516
 21
1478.679872534183
 31
0.0
 12
1533.938663960516
 22
1501.179872534183
 32
0.0
 13
1533.938663960516
 23
1501.179872534183
 33
0.0
  0
SOLID
  5
A954
330
A6FA
100
AcDbEntity
  8
寸法引出
 48
20.0
100
AcDbTrace
 10
1530.188663960516
 20
1433.679872534183
 30
0.0
 11
1537.688663960516
 21
1433.679872534183
 31
0.0
 12
1533.938663960516
 22
1411.179872534183
 32
0.0
 13
1533.938663960516
 23
1411.179872534183
 33
0.0
  0
MTEXT
  5
A955
330
A6FA
100
AcDbEntity
  8
寸法引出
 48
20.0
100
AcDbMText
 10
1503.938663960516
 20
1456.179872534183
 30
0.0
 40
30.0
 41
0.0
 71
     5
 72
     1
  1
\A1;90
  7
SANWA
 11
0.0000000000000001
 21
1.0
 31
0.0
 73
     1
 44
1.0
  0
POINT
  5
A956
330
A6FA
100
AcDbEntity
  8
DEFPOINTS
 62
     0
 48
20.0
100
AcDbPoint
 10
1431.218219800762
 20
1501.179872534183
 30
0.0
  0
POINT
  5
A957
330
A6FA
100
AcDbEntity
  8
DEFPOINTS
 62
     0
 48
20.0
100
AcDbPoint
 10
1431.218219800762
 20
1411.179872534183
 30
0.0
  0
POINT
  5
A958
330
A6FA
100
AcDbEntity
  8
DEFPOINTS
 62
     0
 48
20.0
100
AcDbPoint
 10
1533.938663960516
 20
1411.179872534183
 30
0.0
  0
ENDBLK
  5
A705
330
A6FA
100
AcDbEntity
  8
0
 48
20.0
100
AcDbBlockEnd
  0
ENDSEC
  0
SECTION
  2
ENTITIES
  0
LINE
  5
886A
330
747D
100
AcDbEntity
  8
0
 48
15.0
100
AcDbLine
 10
1448.57821980076
 20
1930.679872534182
 30
0.0
 11
1448.57821980076
 21
1845.179872534183
 31
0.0
  0
LINE
  5
886B
330
747D
100
AcDbEntity
  8
0
 48
15.0
100
AcDbLine
 10
908.5782198007601
 20
1930.679872534183
 30
0.0
 11
908.5782198007601
 21
1845.179872534183
 31
0.0
  0
LINE
  5
886C
330
747D
100
AcDbEntity
  8
0
 48
15.0
100
AcDbLine
 10
913.0782198007601
 20
1935.179872534183
 30
0.0
 11
948.5782198007601
 21
1935.179872534183
 31
0.0
  0
LINE
  5
886F
330
747D
100
AcDbEntity
  8
0
 48
15.0
100
AcDbLine
 10
948.5782198007601
 20
1935.179872534183
 30
0.0
 11
951.0782198007593
 21
1845.179872534183
 31
0.0
  0
LINE
  5
8870
330
747D
100
AcDbEntity
  8
0
 48
15.0
100
AcDbLine
 10
951.0782198007593
 20
1845.179872534183
 30
0.0
 11
967.0782198007584
 21
1845.179872534183
 31
0.0
  0
LINE
  5
8872
330
747D
100
AcDbEntity
  8
0
 48
15.0
100
AcDbLine
 10
1406.078219800759
 20
1845.179872534183
 30
0.0
 11
1390.078219800765
 21
1845.179872534183
 31
0.0
  0
LINE
  5
8873
330
747D
100
AcDbEntity
  8
0
 48
15.0
100
AcDbLine
 10
1408.57821980076
 20
1935.179872534183
 30
0.0
 11
1406.078219800759
 21
1845.179872534183
 31
0.0
  0
LINE
  5
8874
330
747D
100
AcDbEntity
  8
0
 48
15.0
100
AcDbLine
 10
1444.078219800758
 20
1935.179872534183
 30
0.0
 11
1408.57821980076
 21
1935.179872534183
 31
0.0
  0
LINE
  5
887A
330
747D
100
AcDbEntity
  8
0
 48
15.0
100
AcDbLine
 10
978.8982198007586
 20
1837.179872534182
 30
0.0
 11
999.8058225580331
 21
1314.489803602394
 31
0.0
  0
LINE
  5
887B
330
747D
100
AcDbEntity
  8
0
 48
15.0
100
AcDbLine
 10
1378.258219800761
 20
1837.17987253418
 30
0.0
 11
1357.350617043489
 21
1314.489803602393
 31
0.0
  0
LINE
  5
8882
330
747D
100
AcDbEntity
  8
0
 48
15.0
100
AcDbLine
 10
1960.468645673778
 20
1935.179872534183
 30
0.0
 11
1960.468645673778
 21
1170.179872534183
 31
0.0
  0
LINE
  5
8883
330
747D
100
AcDbEntity
  8
0
 48
15.0
100
AcDbLine
 10
1960.468645673778
 20
1170.179872534183
 30
0.0
 11
3958.468645673778
 21
1170.179872534183
 31
0.0
  0
LINE
  5
8884
330
747D
100
AcDbEntity
  8
0
 48
15.0
100
AcDbLine
 10
1960.468645673778
 20
1935.179872534183
 30
0.0
 11
3958.468645673778
 21
1935.179872534183
 31
0.0
  0
LINE
  5
8885
330
747D
100
AcDbEntity
  8
0
 48
15.0
100
AcDbLine
 10
3958.468645673778
 20
1935.179872534183
 30
0.0
 11
3958.468645673778
 21
1170.179872534183
 31
0.0
  0
TEXT
  5
8888
330
747D
100
AcDbEntity
  8
0
100
AcDbText
 10
1399.474232270368
 20
2872.52899042226
 30
0.0
 40
42.00000000000001
  1
エコノミー側溝（Ｈタイプ）４００×６００×１９９８
  7
SANWA
 72
     4
 11
2167.474232270368
 21
2893.768990422261
 31
0.0
100
AcDbText
  0
LINE
  5
8889
330
747D
100
AcDbEntity
  8
0
100
AcDbLine
 10
1393.896118833689
 20
2850.0
 30
0.0
 11
3286.10388116631
 21
2850.0
 31
0.0
  0
LINE
  5
888A
330
747D
100
AcDbEntity
  8
0
100
AcDbLine
 10
1393.896118833689
 20
2838.0
 30
0.0
 11
3286.10388116631
 21
2838.0
 31
0.0
  0
LINE
  5
888B
330
747D
100
AcDbEntity
  8
枠
100
AcDbLine
 10
375.0
 20
3000.0
 30
0.0
 11
4305.0
 21
3000.0
 31
0.0
  0
LINE
  5
888C
330
747D
100
AcDbEntity
  8
枠
100
AcDbLine
 10
375.0
 20
150.0
 30
0.0
 11
4305.0
 21
150.0000000000034
 31
0.0
  0
LINE
  5
888D
330
747D
100
AcDbEntity
  8
枠
100
AcDbLine
 10
375.0
 20
150.0
 30
0.0
 11
375.0
 21
3000.0
 31
0.0
  0
LINE
  5
888E
330
747D
100
AcDbEntity
  8
0
100
AcDbLine
 10
375.0
 20
0.0
 30
0.0
 11
0.0
 21
0.0
 31
0.0
  0
LINE
  5
888F
330
747D
100
AcDbEntity
  8
0
100
AcDbLine
 10
0.0
 20
0.0
 30
0.0
 11
0.0
 21
150.0
 31
0.0
  0
TEXT
  5
8890
330
747D
100
AcDbEntity
  8
0
100
AcDbText
 10
902.0440266348476
 20
2164.060252566096
 30
0.0
 40
36.0
  1
構造図
  7
SANWA
 72
     4
 11
981.0383123491334
 21
2182.574538280381
 31
0.0
100
AcDbText
  0
LINE
  5
8891
330
747D
100
AcDbEntity
  8
0
100
AcDbLine
 10
904.8761766520833
 20
2152.116144938682
 30
0.0
 11
1053.064045385632
 21
2152.116144938682
 31
0.0
  0
LINE
  5
8892
330
747D
100
AcDbEntity
  8
0
100
AcDbLine
 10
0.0
 20
3000.0
 30
0.0
 11
0.0
 21
3150.0
 31
0.0
  0
LINE
  5
8893
330
747D
100
AcDbEntity
  8
0
100
AcDbLine
 10
0.0
 20
3150.0
 30
0.0
 11
375.0
 21
3150.0
 31
0.0
  0
LINE
  5
8894
330
747D
100
AcDbEntity
  8
0
100
AcDbLine
 10
3646.531914893608
 20
306.0000000000012
 30
0.0
 11
3646.531914893608
 21
594.0000000000036
 31
0.0
  0
TEXT
  5
8895
330
747D
100
AcDbEntity
  8
0
 48
2.0
100
AcDbText
 10
3609.74309726096
 20
560.3768966870497
 30
0.0
 40
16.79999999999999
  1
品
  7
SANWA
100
AcDbText
  0
TEXT
  5
8896
330
747D
100
AcDbEntity
  8
0
 48
2.0
100
AcDbText
 10
3325.407362835249
 20
557.2772861648262
 30
0.0
 40
24.0
  1
図面
  7
SANWA
100
AcDbText
  0
LINE
  5
8897
330
747D
100
AcDbEntity
  8
0
100
AcDbLine
 10
3202.531914893616
 20
594.0000000000036
 30
0.0
 11
3202.531914893616
 21
522.0000000000026
 31
0.0
  0
TEXT
  5
8898
330
747D
100
AcDbEntity
  8
0
 48
2.0
100
AcDbText
 10
3392.339284911449
 20
558.6411916425953
 30
0.0
 40
24.0
  1
番号
  7
SANWA
100
AcDbText
  0
LINE
  5
8899
330
747D
100
AcDbEntity
  8
0
100
AcDbLine
 10
3598.531914893611
 20
150.0000000000034
 30
0.0
 11
3598.531914893611
 21
594.0000000000036
 31
0.0
  0
LINE
  5
889A
330
747D
100
AcDbEntity
  8
枠
100
AcDbLine
 10
4305.0
 20
150.0
 30
0.0
 11
4305.0
 21
3000.0
 31
0.0
  0
LINE
  5
889B
330
747D
100
AcDbEntity
  8
0
100
AcDbLine
 10
4455.0
 20
0.0
 30
0.0
 11
4305.0
 21
0.0
 31
0.0
  0
HATCH
  5
889C
330
747D
100
AcDbEntity
  8
0
100
AcDbHatch
 10
0.0
 20
0.0
 30
0.0
210
0.0
220
0.0
230
1.0
  2
SOLID
 70
     1
 71
     0
 91
        2
 92
        7
 72
     1
 73
     1
 93
        2
 10
3316.517041237145
 20
210.0000000000025
 42
1.0
 10
3220.546788550063
 20
210.0000000000025
 42
1.0
 97
        0
 92
       22
 72
     1
 73
     1
 93
        2
 10
3314.117041237151
 20
210.0000000000025
 42
-1.0
 10
3222.946788550071
 20
210.0000000000025
 42
-1.0
 97
        0
 75
     0
 76
     1
 47
0.0602706122334892
 98
        2
 10
3291.52220075993
 20
251.2492511007806
 10
3291.52220075993
 20
251.2492511007806
  0
CIRCLE
  5
889D
330
747D
100
AcDbEntity
  8
0
100
AcDbCircle
 10
3268.53191489361
 20
210.0000000000025
 30
0.0
 40
45.58512634354756
  0
CIRCLE
  5
889E
330
747D
100
AcDbEntity
  8
0
100
AcDbCircle
 10
3268.53191489361
 20
210.0000000000025
 30
0.0
 40
47.98512634354756
  0
ARC
  5
889F
330
747D
100
AcDbEntity
  8
0
100
AcDbCircle
 10
3680.136214331804
 20
223.2088158088008
 30
0.0
 40
33.0637889330479
100
AcDbArc
 50
274.1625874111285
 51
40.83741258887069
  0
ARC
  5
88A0
330
747D
100
AcDbEntity
  8
0
100
AcDbCircle
 10
3680.136214331804
 20
223.2088158088008
 30
0.0
 40
35.4637889330479
100
AcDbArc
 50
277.7788203119025
 51
37.2211796880979
  0
ARC
  5
88A1
330
747D
100
AcDbEntity
  8
0
100
AcDbCircle
 10
3680.136214331804
 20
223.2088158088008
 30
0.0
 40
43.8637889330479
100
AcDbArc
 50
273.1364954470843
 51
41.86350455291268
  0
ARC
  5
88A2
330
747D
100
AcDbEntity
  8
0
100
AcDbCircle
 10
3680.136214331804
 20
223.2088158088008
 30
0.0
 40
41.46378893304792
100
AcDbArc
 50
276.6476737862029
 51
38.35232621379395
  0
TEXT
  5
88A3
330
747D
100
AcDbEntity
  8
0
100
AcDbText
 10
3666.709002834941
 20
206.71887241068
 30
0.0
 40
18.0
  1
和
  7
SANWA
100
AcDbText
  0
LINE
  5
88A4
330
747D
100
AcDbEntity
  8
0
100
AcDbLine
 10
3466.531914893607
 20
150.0000000000034
 30
0.0
 11
3466.531914893607
 21
306.0000000000012
 31
0.0
  0
LINE
  5
88A5
330
747D
100
AcDbEntity
  8
0
100
AcDbLine
 10
3334.531914893604
 20
150.0000000000034
 30
0.0
 11
3334.531914893604
 21
342.0000000000026
 31
0.0
  0
LINE
  5
88A6
330
747D
100
AcDbEntity
  8
0
 62
     0
100
AcDbLine
 10
3202.531914893616
 20
378.0000000000022
 30
0.0
 11
3202.531914893616
 21
150.0000000000034
 31
0.0
  0
ARC
  5
88A7
330
747D
100
AcDbEntity
  8
0
100
AcDbCircle
 10
3680.136214331804
 20
223.2088158088008
 30
0.0
 40
41.46378893304792
100
AcDbArc
 50
141.6476737862061
 51
263.3523262137979
  0
ARC
  5
88A8
330
747D
100
AcDbEntity
  8
0
100
AcDbCircle
 10
3680.136214331804
 20
223.2088158088008
 30
0.0
 40
43.8637889330479
100
AcDbArc
 50
138.1364954470877
 51
266.8635045529164
  0
ARC
  5
88A9
330
747D
100
AcDbEntity
  8
0
100
AcDbCircle
 10
3680.136214331804
 20
223.2088158088008
 30
0.0
 40
35.4637889330479
100
AcDbArc
 50
142.7788203119019
 51
262.2211796880995
  0
ARC
  5
88AA
330
747D
100
AcDbEntity
  8
0
100
AcDbCircle
 10
3680.136214331804
 20
223.2088158088008
 30
0.0
 40
33.0637889330479
100
AcDbArc
 50
139.1625874111294
 51
265.8374125888726
  0
HATCH
  5
88AB
330
747D
100
AcDbEntity
  8
0
100
AcDbHatch
 10
0.0
 20
0.0
 30
0.0
210
0.0
220
0.0
230
1.0
  2
SOLID
 70
     1
 71
     0
 91
        6
 92
        7
 72
     1
 73
     1
 93
        4
 10
3650.863349880539
 20
255.8757928097576
 42
0.0
 10
3658.515314664834
 20
248.2238280254664
 42
-0.3722683533228753
 10
3701.757113998766
 20
248.2238280254664
 42
0.0
 10
3709.40907878306
 20
255.8757928097594
 42
0.3824979940290045
 97
        0
 92
       22
 72
     1
 73
     1
 93
        4
 10
3705.864308023094
 20
255.7251345994778
 42
0.0
 10
3701.588030276408
 20
251.448856852795
 42
0.3367429548951066
 10
3658.684398387205
 20
251.4488568527969
 42
0.0
 10
3654.40812064052
 20
255.7251345994763
 42
-0.347770427523089
 97
        0
 92
        7
 72
     1
 73
     1
 93
        4
 10
3705.151226548458
 20
244.8297154757716
 42
-0.6168583269099046
 10
3682.536214331801
 20
190.2322462690618
 42
0.0
 10
3682.536214331801
 20
179.4107338923163
 42
0.6292889159379735
 10
3712.803191332769
 20
252.4816802600628
 42
0.0
 97
        0
 92
       22
 72
     1
 73
     1
 93
        4
 10
3712.65253312248
 20
248.9369095000864
 42
-0.5873104908889239
 10
3684.936214331797
 20
182.0237967765786
 42
0.0
 10
3684.936214331797
 20
188.071366762408
 42
0.5741105922167471
 10
3708.376255375795
 20
244.6606317534053
 42
0.0
 97
        0
 92
        7
 72
     1
 73
     1
 93
        4
 10
3647.469237330846
 20
252.4816802600628
 42
0.6292889159379591
 10
3677.736214331813
 20
179.4107338923163
 42
0.0
 10
3677.736214331813
 20
190.2322462690618
 42
-0.6168583269099637
 10
3655.121202115139
 20
244.8297154757716
 42
0.0
 97
        0
 92
       22
 72
     1
 73
     1
 93
        4
 10
3651.896173287805
 20
244.6606317534053
 42
0.5741105922167496
 10
3675.336214331805
 20
188.071366762408
 42
0.0
 10
3675.336214331805
 20
182.0237967765786
 42
-0.5873104908889168
 10
3647.619895541135
 20
248.9369095000864
 42
0.0
 97
        0
 75
     0
 76
     1
 47
0.0143554168026844
 98
        6
 10
3699.348496783986
 20
260.8853257705129
 10
3699.348496783986
 20
260.8853257705129
 10
3708.313957346875
 20
246.9318614530628
 10
3708.313957346875
 20
246.9318614530628
 10
3652.969453356035
 20
246.4150661606038
 10
3652.969453356035
 20
246.4150661606038
  0
TEXT
  5
88AC
330
747D
100
AcDbEntity
  8
0
100
AcDbText
 10
3766.408313412449
 20
206.71887241068
 30
0.0
 40
24.0
  1
三和コンクリート工業株式会社
  7
SANWA
100
AcDbText
  0
LINE
  5
88AD
330
747D
100
AcDbEntity
  8
0
100
AcDbLine
 10
3677.736214331808
 20
179.4107338923163
 30
0.0
 11
3677.736214331808
 21
190.2322462690618
 31
0.0
  0
LINE
  5
88AE
330
747D
100
AcDbEntity
  8
0
100
AcDbLine
 10
3682.536214331804
 20
179.4107338923163
 30
0.0
 11
3682.536214331804
 21
190.2322462690618
 31
0.0
  0
LINE
  5
88AF
330
747D
100
AcDbEntity
  8
0
100
AcDbLine
 10
3684.9362143318
 20
182.0237967765786
 30
0.0
 11
3684.9362143318
 21
188.071366762408
 31
0.0
  0
LINE
  5
88B0
330
747D
100
AcDbEntity
  8
0
100
AcDbLine
 10
3675.336214331809
 20
182.0237967765786
 30
0.0
 11
3675.336214331809
 21
188.071366762408
 31
0.0
  0
TEXT
  5
88B1
330
747D
100
AcDbEntity
  8
0
 48
2.0
100
AcDbText
 10
3515.973620720816
 20
218.001897530876
 30
0.0
 40
24.0
  1
中
  7
SANWA
100
AcDbText
  0
TEXT
  5
88B2
330
747D
100
AcDbEntity
  8
0
 48
2.0
100
AcDbText
 10
3515.409250158043
 20
184.0310864446442
 30
0.0
 40
24.0
  1
川
  7
SANWA
100
AcDbText
  0
TEXT
  5
88B3
330
747D
100
AcDbEntity
  8
0
 48
2.0
100
AcDbText
 10
3424.24975579649
 20
80.91869382887693
 30
0.0
 40
24.0
  1
大
  7
SANWA
100
AcDbText
  0
TEXT
  5
88B4
330
747D
100
AcDbEntity
  8
0
 48
2.0
100
AcDbText
 10
3423.68538523373
 20
46.94788274264509
 30
0.0
 40
24.0
  1
嶋
  7
SANWA
100
AcDbText
  0
HATCH
  5
88B5
330
747D
100
AcDbEntity
  8
0
100
AcDbHatch
 10
0.0
 20
0.0
 30
0.0
210
0.0
220
0.0
230
1.0
  2
SOLID
 70
     1
 71
     0
 91
        4
 92
        7
 72
     1
 73
     1
 93
        2
 10
3580.51704123715
 20
210.0000000000025
 42
1.0
 10
3484.546788550069
 20
210.0000000000025
 42
1.0
 97
        0
 92
       22
 72
     1
 73
     1
 93
        2
 10
3578.117041237158
 20
210.0000000000025
 42
-1.0
 10
3486.946788550063
 20
210.0000000000025
 42
-1.0
 97
        0
 92
      136
 93
        4
 72
     1
 10
3507.985049292256
 20
206.0361832451618
 11
3559.070763577974
 21
206.0361832451618
 72
     1
 10
3559.070763577954
 20
206.0361832451618
 11
3559.070763577954
 21
253.9676118165904
 72
     1
 10
3559.070763577954
 20
253.9676118165904
 11
3507.985049292235
 21
253.9676118165904
 72
     1
 10
3507.985049292256
 20
253.9676118165904
 11
3507.985049292256
 21
206.0361832451618
 97
        0
 92
      136
 93
        4
 72
     1
 10
3507.900678729479
 20
173.6425150160728
 11
3558.026393015191
 21
173.6425150160728
 72
     1
 10
3558.026393015199
 20
173.6425150160728
 11
3558.026393015199
 21
218.6939435875014
 72
     1
 10
3558.026393015199
 20
218.6939435875014
 11
3507.900678729486
 21
218.6939435875014
 72
     1
 10
3507.900678729479
 20
218.6939435875014
 11
3507.900678729479
 21
173.6425150160728
 97
        0
 75
     0
 76
     1
 47
0.0602706122334892
 98
        2
 10
3555.522200759922
 20
251.2492511007806
 10
3555.522200759922
 20
251.2492511007806
  0
CIRCLE
  5
88B6
330
747D
100
AcDbEntity
  8
0
100
AcDbCircle
 10
3532.531914893608
 20
210.0000000000025
 30
0.0
 40
45.58512634354756
  0
CIRCLE
  5
88B7
330
747D
100
AcDbEntity
  8
0
100
AcDbCircle
 10
3532.531914893608
 20
210.0000000000025
 30
0.0
 40
47.98512634354756
  0
TEXT
  5
88B8
330
747D
100
AcDbEntity
  8
0
 48
2.0
100
AcDbText
 10
3302.854024831002
 20
79.62983329778467
 30
0.0
 40
24.0
  1
蒔
  7
SANWA
100
AcDbText
  0
CIRCLE
  5
88B9
330
747D
100
AcDbEntity
  8
0
100
AcDbCircle
 10
3320.649581970728
 20
72.91679629800341
 30
0.0
 40
45.58512634354756
  0
TEXT
  5
88BA
330
747D
100
AcDbEntity
  8
0
 48
2.0
100
AcDbText
 10
3302.289654268228
 20
43.08129504455904
 30
0.0
 40
24.0
  1
田
  7
SANWA
100
AcDbText
  0
TEXT
  5
88BB
330
747D
100
AcDbEntity
  8
0
 48
2.0
100
AcDbText
 10
3251.973620720832
 20
213.1710422595031
 30
0.0
 40
24.0
  1
河
  7
SANWA
100
AcDbText
  0
TEXT
  5
88BC
330
747D
100
AcDbEntity
  8
0
 48
2.0
100
AcDbText
 10
3251.409250158044
 20
179.2002311732713
 30
0.0
 40
24.0
  1
口
  7
SANWA
100
AcDbText
  0
CIRCLE
  5
88BD
330
747D
100
AcDbEntity
  8
0
100
AcDbCircle
 10
3320.649581970728
 20
72.91679629800341
 30
0.0
 40
47.98512634354756
  0
HATCH
  5
88BE
330
747D
100
AcDbEntity
  8
0
100
AcDbHatch
 10
0.0
 20
0.0
 30
0.0
210
0.0
220
0.0
230
1.0
  2
SOLID
 70
     1
 71
     0
 91
        4
 92
        7
 72
     1
 73
     1
 93
        2
 10
3368.634708314286
 20
72.91679629800341
 42
1.0
 10
3272.664455627189
 20
72.91679629800341
 42
1.0
 97
        0
 92
       22
 72
     1
 73
     1
 93
        2
 10
3366.234708314292
 20
72.91679629800341
 42
-1.0
 10
3275.064455627183
 20
72.91679629800341
 42
-1.0
 97
        0
 92
      136
 93
        4
 72
     1
 10
3296.47985922651
 20
71.11297954316267
 11
3346.811287797945
 21
71.11297954316267
 72
     1
 10
3346.811287797954
 20
71.11297954316267
 11
3346.811287797954
 21
116.7815509717341
 72
     1
 10
3346.811287797954
 20
116.7815509717341
 11
3296.479859226518
 21
116.7815509717341
 72
     1
 10
3296.47985922651
 20
116.7815509717341
 11
3296.47985922651
 21
71.11297954316267
 97
        0
 92
      136
 93
        4
 72
     1
 10
3295.538345806602
 20
35.39359702835938
 11
3346.624060092321
 21
35.39359702835938
 72
     1
 10
3346.624060092315
 20
35.39359702835938
 11
3346.624060092315
 21
83.32502559978797
 72
     1
 10
3346.624060092315
 20
83.32502559978797
 11
3295.538345806597
 21
83.32502559978797
 72
     1
 10
3295.538345806602
 20
83.32502559978797
 11
3295.538345806602
 21
35.39359702835938
 97
        0
 75
     0
 76
     1
 47
0.0602706122334892
 98
        2
 10
3343.639867837042
 20
114.1660473987815
 10
3343.639867837042
 20
114.1660473987815
  0
HATCH
  5
88BF
330
747D
100
AcDbEntity
  8
0
100
AcDbHatch
 10
0.0
 20
0.0
 30
0.0
210
0.0
220
0.0
230
1.0
  2
SOLID
 70
     1
 71
     0
 91
        4
 92
        7
 72
     1
 73
     1
 93
        2
 10
3488.793176312841
 20
72.91679629800341
 42
1.0
 10
3392.822923625742
 20
72.91679629800341
 42
1.0
 97
        0
 92
       22
 72
     1
 73
     1
 93
        2
 10
3486.393176312846
 20
72.91679629800341
 42
-1.0
 10
3395.222923625736
 20
72.91679629800341
 42
-1.0
 97
        0
 92
      136
 93
        4
 72
     1
 10
3416.638327225063
 20
71.11297954316267
 11
3466.969755796499
 21
71.11297954316267
 72
     1
 10
3466.969755796508
 20
71.11297954316267
 11
3466.969755796508
 21
116.7815509717341
 72
     1
 10
3466.969755796508
 20
116.7815509717341
 11
3416.638327225074
 21
116.7815509717341
 72
     1
 10
3416.638327225063
 20
116.7815509717341
 11
3416.638327225063
 21
71.11297954316267
 97
        0
 92
      136
 93
        4
 72
     1
 10
3415.696813805157
 20
35.39359702835938
 11
3466.782528090876
 21
35.39359702835938
 72
     1
 10
3466.782528090868
 20
35.39359702835938
 11
3466.782528090868
 21
83.32502559978797
 72
     1
 10
3466.782528090868
 20
83.32502559978797
 11
3415.69681380515
 21
83.32502559978797
 72
     1
 10
3415.696813805157
 20
83.32502559978797
 11
3415.696813805157
 21
35.39359702835938
 97
        0
 75
     0
 76
     1
 47
0.0602706122334892
 98
        2
 10
3463.798335835596
 20
114.1660473987815
 10
3463.798335835596
 20
114.1660473987815
  0
CIRCLE
  5
88C0
330
747D
100
AcDbEntity
  8
0
100
AcDbCircle
 10
3440.808049969282
 20
72.91679629800341
 30
0.0
 40
47.98512634354756
  0
CIRCLE
  5
88C1
330
747D
100
AcDbEntity
  8
0
100
AcDbCircle
 10
3440.808049969282
 20
72.91679629800341
 30
0.0
 40
45.58512634354756
  0
LINE
  5
88C2
330
747D
100
AcDbEntity
  8
0
 62
     0
100
AcDbLine
 10
3598.531914893611
 20
498.0000000000041
 30
0.0
 11
4305.0
 21
498.0000000000041
 31
0.0
  0
LINE
  5
88C3
330
747D
100
AcDbEntity
  8
0
 62
     0
100
AcDbLine
 10
3598.531914893611
 20
402.0000000000027
 30
0.0
 11
4305.0
 21
402.0000000000027
 31
0.0
  0
LINE
  5
88C4
330
747D
100
AcDbEntity
  8
0
100
AcDbLine
 10
3202.531914893616
 20
306.0000000000012
 30
0.0
 11
4305.0
 21
306.0000000000012
 31
0.0
  0
LINE
  5
88C5
330
747D
100
AcDbEntity
  8
0
100
AcDbLine
 10
3705.151226548464
 20
244.8297154757714
 30
0.0
 11
3712.803191332763
 21
252.4816802600628
 31
0.0
  0
LINE
  5
88C6
330
747D
100
AcDbEntity
  8
0
100
AcDbLine
 10
3708.3762553758
 20
244.6606317534053
 30
0.0
 11
3712.652533122477
 21
248.9369095000865
 31
0.0
  0
ARC
  5
88C7
330
747D
100
AcDbEntity
  8
0
100
AcDbCircle
 10
3680.136214331804
 20
223.2088158088008
 30
0.0
 40
33.0637889330479
100
AcDbArc
 50
49.16258741113066
 51
130.83741258887
  0
ARC
  5
88C8
330
747D
100
AcDbEntity
  8
0
100
AcDbCircle
 10
3680.136214331804
 20
223.2088158088008
 30
0.0
 40
35.4637889330479
100
AcDbArc
 50
52.77882031190562
 51
127.2211796880944
  0
LINE
  5
88C9
330
747D
100
AcDbEntity
  8
0
100
AcDbLine
 10
3658.515314664827
 20
248.2238280254664
 30
0.0
 11
3650.816888003564
 21
255.9222546867419
 31
0.0
  0
LINE
  5
88CA
330
747D
100
AcDbEntity
  8
0
100
AcDbLine
 10
3655.121202115133
 20
244.8297154757714
 30
0.0
 11
3647.422775453869
 21
252.528142137047
 31
0.0
  0
LINE
  5
88CB
330
747D
100
AcDbEntity
  8
0
100
AcDbLine
 10
3651.896173287809
 20
244.6606317534053
 30
0.0
 11
3647.619895541119
 21
248.9369095000865
 31
0.0
  0
LINE
  5
88CC
330
747D
100
AcDbEntity
  8
0
100
AcDbLine
 10
3658.684398387199
 20
251.4488568527966
 30
0.0
 11
3654.408120640509
 21
255.7251345994763
 31
0.0
  0
TEXT
  5
88CD
330
747D
100
AcDbEntity
  8
0
100
AcDbText
 10
3666.709002834941
 20
230.6320916026407
 30
0.0
 40
18.0
  1
三
  7
SANWA
100
AcDbText
  0
ARC
  5
88CE
330
747D
100
AcDbEntity
  8
0
100
AcDbCircle
 10
3680.136214331804
 20
223.2088158088008
 30
0.0
 40
41.46378893304792
100
AcDbArc
 50
51.64767378620884
 51
128.3523262138006
  0
ARC
  5
88CF
330
747D
100
AcDbEntity
  8
0
100
AcDbCircle
 10
3680.136214331804
 20
223.2088158088008
 30
0.0
 40
43.8637889330479
100
AcDbArc
 50
48.13649544708379
 51
131.8635045529163
  0
LINE
  5
88D0
330
747D
100
AcDbEntity
  8
0
100
AcDbLine
 10
3701.757113998769
 20
248.2238280254664
 30
0.0
 11
3709.409078783054
 21
255.8757928097593
 31
0.0
  0
LINE
  5
88D1
330
747D
100
AcDbEntity
  8
0
100
AcDbLine
 10
3701.588030276411
 20
251.4488568527966
 30
0.0
 11
3705.864308023087
 21
255.7251345994778
 31
0.0
  0
TEXT
  5
88D2
330
747D
100
AcDbEntity
  8
0
 48
2.0
100
AcDbText
 10
3608.833038597698
 20
520.9962632445932
 30
0.0
 40
16.79999999999999
  1
名
  7
SANWA
100
AcDbText
  0
LINE
  5
88D3
330
747D
100
AcDbEntity
  8
0
 62
     0
100
AcDbLine
 10
3202.531914893616
 20
546.0000000000031
 30
0.0
 11
3598.531914893611
 21
546.0000000000031
 31
0.0
  0
LINE
  5
88D4
330
747D
100
AcDbEntity
  8
0
 62
     0
100
AcDbLine
 10
3202.531914893616
 20
546.0000000000031
 30
0.0
 11
3598.531914893611
 21
546.0000000000031
 31
0.0
  0
TEXT
  5
88D6
330
747D
100
AcDbEntity
  8
0
 48
2.0
100
AcDbText
 10
3608.525134886859
 20
443.4326160008049
 30
0.0
 40
16.79999999999999
  1
び
  7
SANWA
100
AcDbText
  0
TEXT
  5
88D7
330
747D
100
AcDbEntity
  8
0
 48
2.0
100
AcDbText
 10
3608.865365864922
 20
419.9263485547304
 30
0.0
 40
16.79999999999999
  1
名
  7
SANWA
100
AcDbText
  0
TEXT
  5
88D8
330
747D
100
AcDbEntity
  8
0
 48
2.0
100
AcDbText
 10
3609.288067929337
 20
360.6846153128758
 30
0.0
 40
16.79999999999999
  1
規
  7
SANWA
100
AcDbText
  0
TEXT
  5
88D9
330
747D
100
AcDbEntity
  8
0
 48
2.0
100
AcDbText
 10
3609.288067929337
 20
324.9410917409396
 30
0.0
 40
16.79999999999999
  1
格
  7
SANWA
100
AcDbText
  0
TEXT
  5
88DA
330
747D
100
AcDbEntity
  8
0
 48
2.0
100
AcDbText
 10
3498.749396044367
 20
277.2513790084826
 30
0.0
 40
24.0
  1
製図
  7
SANWA
100
AcDbText
  0
LINE
  5
88DB
330
747D
100
AcDbEntity
  8
0
100
AcDbLine
 10
3202.531914893616
 20
402.0000000000027
 30
0.0
 11
3202.531914893616
 21
436.0565675878984
 31
0.0
  0
LINE
  5
88DC
330
747D
100
AcDbEntity
  8
0
100
AcDbLine
 10
3202.531914893616
 20
342.0000000000026
 30
0.0
 11
3202.531914893616
 21
378.0000000000022
 31
0.0
  0
TEXT
  5
88DD
330
747D
100
AcDbEntity
  8
0
 48
2.0
100
AcDbText
 10
3231.216179933126
 20
275.7717951156461
 30
0.0
 40
24.0
  1
検図
  7
SANWA
100
AcDbText
  0
LINE
  5
88DE
330
747D
100
AcDbEntity
  8
0
100
AcDbLine
 10
3202.531914893616
 20
342.0000000000026
 30
0.0
 11
3202.531914893616
 21
306.0000000000012
 31
0.0
  0
TEXT
  5
88DF
330
747D
100
AcDbEntity
  8
0
 48
2.0
100
AcDbText
 10
3234.749396044362
 20
313.2513790084821
 30
0.0
 40
24.0
  1
製図
  7
SANWA
100
AcDbText
  0
LINE
  5
88E0
330
747D
100
AcDbEntity
  8
0
100
AcDbLine
 10
3202.531914893616
 20
378.0000000000022
 30
0.0
 11
3202.531914893616
 21
299.9351497097658
 31
0.0
  0
LINE
  5
88E1
330
747D
100
AcDbEntity
  8
0
 62
     0
100
AcDbLine
 10
3202.531914893616
 20
474.0000000000036
 30
0.0
 11
3598.531914893611
 21
474.0000000000036
 31
0.0
  0
LINE
  5
88E2
330
747D
100
AcDbEntity
  8
0
 62
     0
100
AcDbLine
 10
3202.531914893616
 20
426.0000000000031
 30
0.0
 11
3598.531914893611
 21
426.0000000000031
 31
0.0
  0
TEXT
  5
88E3
330
747D
100
AcDbEntity
  8
0
 48
2.0
100
AcDbText
 10
3326.458873159408
 20
434.3839146702152
 30
0.0
 40
24.0
  1
縮    尺
  7
SANWA
100
AcDbText
  0
TEXT
  5
88E4
330
747D
100
AcDbEntity
  8
0
 48
2.0
100
AcDbText
 10
3342.663150318294
 20
378.5853012973511
 30
0.0
 40
24.0
  1
1 : 15
  7
SANWA
100
AcDbText
  0
LINE
  5
88E5
330
747D
100
AcDbEntity
  8
0
 62
     0
100
AcDbLine
 10
3202.531914893616
 20
342.0000000000026
 30
0.0
 11
3598.531914893611
 21
342.0000000000026
 31
0.0
  0
TEXT
  5
88E6
330
747D
100
AcDbEntity
  8
0
 48
2.0
100
AcDbText
 10
3369.075985825584
 20
277.1357177512963
 30
0.0
 40
24.0
  1
設計
  7
SANWA
100
AcDbText
  0
LINE
  5
88E7
330
747D
100
AcDbEntity
  8
0
 62
     0
100
AcDbLine
 10
3202.531914893616
 20
270.0000000000018
 30
0.0
 11
3598.531914893611
 21
270.0000000000018
 31
0.0
  0
TEXT
  5
88E8
330
747D
100
AcDbEntity
  8
0
 48
2.0
100
AcDbText
 10
3388.972302949391
 20
313.2513790084821
 30
0.0
 40
24.0
  1
2005. 2.21
  7
SANWA
100
AcDbText
  0
LINE
  5
88E9
330
747D
100
AcDbEntity
  8
0
 62
     0
100
AcDbLine
 10
3202.531914893616
 20
522.0000000000026
 30
0.0
 11
3202.531914893616
 21
378.0000000000022
 31
0.0
  0
LINE
  5
88EA
330
747D
100
AcDbEntity
  8
0
100
AcDbLine
 10
3202.531914893616
 20
436.0565675878984
 30
0.0
 11
3202.531914893616
 21
529.2701469420904
 31
0.0
  0
TEXT
  5
88EB
330
747D
100
AcDbEntity
  8
0
 48
2.0
100
AcDbText
 10
3608.763425308412
 20
466.4348193000683
 30
0.0
 40
16.79999999999999
  1
呼
  7
SANWA
100
AcDbText
  0
TEXT
  5
88EC
330
747D
100
AcDbEntity
  8
0
100
AcDbText
 10
3852.88595744681
 20
534.0000000000031
 30
0.0
 40
24.0
  1
エコノミー側溝
  7
SANWA
 72
     4
 11
3975.76595744681
 21
546.0000000000031
 31
0.0
100
AcDbText
  0
TEXT
  5
88ED
330
747D
100
AcDbEntity
  8
0
100
AcDbText
 10
3905.548814589666
 20
436.9028571428605
 30
0.0
 40
24.0
  1
Ｈタイプ
  7
SANWA
 72
     4
 11
3975.76595744681
 21
450.0000000000033
 31
0.0
100
AcDbText
  0
TEXT
  5
88EE
330
747D
100
AcDbEntity
  8
0
100
AcDbText
 10
3852.88595744681
 20
342.2742857142893
 30
0.0
 40
24.0
  1
400×600×1998
  7
SANWA
 72
     4
 11
3975.76595744681
 21
354.0000000000036
 31
0.0
100
AcDbText
  0
LINE
  5
88EF
330
747D
100
AcDbEntity
  8
0
100
AcDbLine
 10
4455.0
 20
150.0
 30
0.0
 11
4455.0
 21
0.0
 31
0.0
  0
LINE
  5
88F0
330
747D
100
AcDbEntity
  8
0
 62
     0
100
AcDbLine
 10
3202.531914893616
 20
594.0000000000036
 30
0.0
 11
4305.0
 21
594.0000000000036
 31
0.0
  0
LINE
  5
88F1
330
747D
100
AcDbEntity
  8
0
100
AcDbLine
 10
3598.531914893611
 20
594.0000000000036
 30
0.0
 11
3621.277272305447
 21
594.0000000000036
 31
0.0
  0
LINE
  5
88F2
330
747D
100
AcDbEntity
  8
0
100
AcDbLine
 10
4305.0
 20
3150.0
 30
0.0
 11
4455.0
 21
3150.0
 31
0.0
  0
TEXT
  5
88F5
330
747D
100
AcDbEntity
  8
0
100
AcDbText
 10
3083.762586563029
 20
2876.694704707975
 30
0.0
 40
36.0
  1
W=634㎏
  7
SANWA
 72
     4
 11
3175.922586563029
 21
2893.768990422261
 31
0.0
100
AcDbText
  0
LINE
  5
88F6
330
747D
100
AcDbEntity
  8
0
100
AcDbLine
 10
4455.0
 20
3150.0
 30
0.0
 11
4455.0
 21
3000.0
 31
0.0
  0
LINE
  5
88FB
330
747D
100
AcDbEntity
  8
0
 48
20.0
100
AcDbLine
 10
908.5782198007601
 20
1930.679872534183
 30
0.0
 11
913.0782198007601
 21
1935.179872534183
 31
0.0
  0
LINE
  5
88FC
330
747D
100
AcDbEntity
  8
0
 48
20.0
100
AcDbLine
 10
1448.57821980076
 20
1930.679872534183
 30
0.0
 11
1444.07821980076
 21
1935.179872534183
 31
0.0
  0
DIMENSION
  5
88FD
330
747D
100
AcDbEntity
  8
寸法引出
 48
20.0
100
AcDbDimension
  2
*D1
 10
948.5782198007601
 20
1999.151153297427
 30
0.0
 11
881.7710332749994
 21
2029.325432855688
 31
0.0
 70
   160
 71
     5
 42
40.0
  3
SANWA
100
AcDbAlignedDimension
 13
908.5782198007601
 23
1930.679872534183
 33
0.0
 14
948.5782198007601
 24
1935.179872534183
 34
0.0
100
AcDbRotatedDimension
1001
ACAD
1000
DSTYLE
1002
{
1070
    40
1040
15.0
1070
    41
1040
1.5
1070
    43
1040
5.0
1070
    44
1040
0.5
1070
   140
1040
2.0
1070
   147
1040
1.0
1070
   176
1070
   256
1070
   177
1070
   256
1070
   178
1070
   256
1070
   279
1070
     2
1002
}
  0
DIMENSION
  5
8917
330
747D
100
AcDbEntity
  8
寸法引出
 48
20.0
100
AcDbDimension
  2
*D2
 10
951.0782198007593
 20
1999.151153297427
 30
0.0
 11
948.3471139909051
 21
2063.368243719245
 31
0.0
 70
   160
 71
     5
 42
2.49999999999909
  3
SANWA
100
AcDbAlignedDimension
 13
948.5782198007601
 23
1935.179872534183
 33
0.0
 14
951.0782198007593
 24
1845.179872534183
 34
0.0
100
AcDbRotatedDimension
1001
ACAD
1000
DSTYLE
1002
{
1070
    40
1040
15.0
1070
    41
1040
1.5
1070
    43
1040
5.0
1070
    44
1040
0.5
1070
   140
1040
2.0
1070
   147
1040
1.0
1070
   176
1070
   256
1070
   177
1070
   256
1070
   178
1070
   256
1070
   279
1070
     2
1002
}
  0
DIMENSION
  5
8926
330
747D
100
AcDbEntity
  8
寸法引出
 48
20.0
100
AcDbDimension
  2
*D3
 10
978.5782198007602
 20
1999.151153297427
 30
0.0
 11
963.8299082113693
 21
2027.778040953545
 31
0.0
 70
   160
 71
     5
 42
27.50000000000091
  3
SANWA
100
AcDbAlignedDimension
 13
951.0782198007593
 23
1845.179872534183
 33
0.0
 14
978.5782198007602
 24
1845.179872534183
 34
0.0
100
AcDbRotatedDimension
1001
ACAD
1000
DSTYLE
1002
{
1070
    40
1040
15.0
1070
    41
1040
1.5
1070
    43
1040
5.0
1070
    44
1040
0.5
1070
   140
1040
2.0
1070
   147
1040
1.0
1070
   176
1070
   256
1070
   177
1070
   256
1070
   178
1070
   256
1070
   279
1070
     2
1002
}
  0
DIMENSION
  5
898D
330
747D
100
AcDbEntity
  8
寸法引出
 48
20.0
100
AcDbDimension
  2
*D4
 10
1378.578219800759
 20
1999.151153297427
 30
0.0
 11
1178.578219800759
 21
2029.151153297428
 31
0.0
 70
    32
 71
     5
 42
399.9999999999989
  3
SANWA
100
AcDbAlignedDimension
 13
978.5782198007602
 23
1845.179872534183
 33
0.0
 14
1378.578219800759
 24
1845.179872534183
 34
0.0
100
AcDbRotatedDimension
1001
ACAD
1000
DSTYLE
1002
{
1070
    40
1040
15.0
1070
    41
1040
1.5
1070
    43
1040
5.0
1070
    44
1040
0.5
1070
   140
1040
2.0
1070
   147
1040
1.0
1070
   176
1070
   256
1070
   177
1070
   256
1070
   178
1070
   256
1070
   279
1070
     2
1002
}
  0
DIMENSION
  5
899A
330
747D
100
AcDbEntity
  8
寸法引出
 48
20.0
100
AcDbDimension
  2
*D5
 10
1448.57821980076
 20
1999.151153297427
 30
0.0
 11
1413.578219800759
 21
2029.151153297428
 31
0.0
 70
    32
 71
     5
 42
70.00000000000091
  3
SANWA
100
AcDbAlignedDimension
 13
1378.578219800759
 23
1845.179872534183
 33
0.0
 14
1448.57821980076
 24
1930.679872534182
 34
0.0
100
AcDbRotatedDimension
1001
ACAD
1000
DSTYLE
1002
{
1070
    40
1040
15.0
1070
    41
1040
1.5
1070
    43
1040
5.0
1070
    44
1040
0.5
1070
   140
1040
2.0
1070
   147
1040
1.0
1070
   176
1070
   256
1070
   177
1070
   256
1070
   178
1070
   256
1070
   279
1070
     2
1002
}
  0
DIMENSION
  5
89A9
330
747D
100
AcDbEntity
  8
寸法引出
 48
20.0
100
AcDbDimension
  2
*D6
 10
1448.57821980076
 20
2093.186484986162
 30
0.0
 11
1178.57821980076
 21
2123.186484986161
 31
0.0
 70
    32
 71
     5
 42
539.9999999999998
  3
SANWA
100
AcDbAlignedDimension
 13
908.5782198007601
 23
1930.679872534183
 33
0.0
 14
1448.57821980076
 24
1930.679872534182
 34
0.0
100
AcDbRotatedDimension
1001
ACAD
1000
DSTYLE
1002
{
1070
    40
1040
15.0
1070
    41
1040
1.5
1070
    43
1040
5.0
1070
    44
1040
0.5
1070
   140
1040
2.0
1070
   147
1040
1.0
1070
   176
1070
   256
1070
   177
1070
   256
1070
   178
1070
   256
1070
   279
1070
     2
1002
}
  0
DIMENSION
  5
8A12
330
747D
100
AcDbEntity
  8
寸法引出
 48
20.0
100
AcDbDimension
  2
*D7
 10
800.9095255738172
 20
1845.179872534183
 30
0.0
 11
770.9095255738168
 21
1890.179872534183
 31
0.0
 70
    32
 71
     5
 42
90.0
  3
SANWA
100
AcDbAlignedDimension
 13
913.0782198007601
 23
1935.179872534183
 33
0.0
 14
908.5782198007601
 24
1845.179872534183
 34
0.0
 50
90.0
100
AcDbRotatedDimension
1001
ACAD
1000
DSTYLE
1002
{
1070
    40
1040
15.0
1070
    41
1040
1.5
1070
    43
1040
5.0
1070
    44
1040
0.5
1070
   140
1040
2.0
1070
   147
1040
1.0
1070
   176
1070
   256
1070
   177
1070
   256
1070
   178
1070
   256
1070
   279
1070
     2
1002
}
  0
MTEXT
  5
8A79
330
747D
100
AcDbEntity
  8
寸法引出
 48
20.0
100
AcDbMText
 10
1091.901566741593
 20
1388.381644697923
 30
0.0
 40
30.0
 41
0.0
 71
     5
 72
     1
  1
50r
  7
SANWA
 73
     1
 44
1.0
  0
LEADER
  5
8A7B
330
747D
100
AcDbEntity
  8
寸法引出
 48
20.0
100
AcDbLeader
  3
SANWA
 76
     3
 10
1009.704438766838
 20
1286.570289684003
 30
0.0
 10
1052.127305552188
 20
1366.890409995025
 30
0.0
 10
1122.823066831904
 20
1366.890409995025
 30
0.0
1001
ACAD
1000
DSTYLE
1002
{
1070
    77
1070
     0
1070
    40
1040
15.0
1070
    41
1040
1.5
1070
    43
1040
5.0
1070
    44
1040
0.5
1070
   140
1040
2.0
1070
   147
1040
1.0
1070
   176
1070
   256
1070
   177
1070
   256
1070
   178
1070
   256
1070
   279
1070
     2
1002
}
  0
MTEXT
  5
8A7C
330
747D
100
AcDbEntity
  8
寸法引出
 48
20.0
100
AcDbMText
 10
1216.998229843796
 20
1336.511121428918
 30
0.0
 40
30.0
 41
0.0
 71
     5
 72
     1
  1
450r
  7
SANWA
 73
     1
 44
1.0
  0
LEADER
  5
8A7D
330
747D
100
AcDbEntity
  8
寸法引出
 48
20.0
100
AcDbLeader
  3
SANWA
 76
     3
 10
1126.923816479608
 20
1248.154344608165
 30
0.0
 10
1164.561638937165
 20
1312.907627702673
 30
0.0
 10
1259.866349450641
 20
1312.907627702673
 30
0.0
1001
ACAD
1000
DSTYLE
1002
{
1070
    77
1070
     0
1070
    40
1040
15.0
1070
    41
1040
1.5
1070
    43
1040
5.0
1070
    44
1040
0.5
1070
   140
1040
2.0
1070
   147
1040
1.0
1070
   176
1070
   256
1070
   177
1070
   256
1070
   178
1070
   256
1070
   279
1070
     2
1002
}
  0
LINE
  5
8A7E
330
747D
100
AcDbEntity
  8
0
 48
15.0
100
AcDbLine
 10
954.3582277943652
 20
1825.179872534183
 30
0.0
 11
979.3782198007592
 21
1825.179872534182
 31
0.0
  0
LINE
  5
8A7F
330
747D
100
AcDbEntity
  8
0
 48
15.0
100
AcDbLine
 10
1402.798211807154
 20
1825.179872534182
 30
0.0
 11
1377.77821980076
 21
1825.179872534182
 31
0.0
  0
MTEXT
  5
8AA9
330
747D
100
AcDbEntity
  8
寸法引出
 48
20.0
100
AcDbMText
 10
1566.545984399466
 20
2019.654381741836
 30
0.0
 40
30.0
 41
0.0
 71
     5
 72
     1
  1
4.5C
  7
SANWA
 73
     1
 44
1.0
  0
LEADER
  5
8AAB
330
747D
100
AcDbEntity
  8
寸法引出
 48
20.0
100
AcDbLeader
  3
SANWA
 76
     3
 10
1446.328219800759
 20
1932.929872534183
 30
0.0
 10
1517.579708870478
 20
1999.300785606357
 30
0.0
 10
1611.703492695927
 20
1999.300785606357
 30
0.0
1001
ACAD
1000
DSTYLE
1002
{
1070
    77
1070
     0
1070
    40
1040
15.0
1070
    41
1040
1.5
1070
    43
1040
5.0
1070
    44
1040
0.5
1070
   140
1040
2.0
1070
   147
1040
1.0
1070
   176
1070
   256
1070
   177
1070
   256
1070
   178
1070
   256
1070
   279
1070
     2
1002
}
  0
LINE
  5
8C77
330
747D
100
AcDbEntity
  8
0
  6
HIDDEN2
 48
15.0
100
AcDbLine
 10
1960.468645673778
 20
1845.179872534183
 30
0.0
 11
3958.468645673778
 21
1845.179872534183
 31
0.0
  0
LINE
  5
8C78
330
747D
100
AcDbEntity
  8
0
  6
HIDDEN2
 48
15.0
100
AcDbLine
 10
1960.468645673778
 20
1245.179872534182
 30
0.0
 11
3958.468645673778
 21
1245.179872534182
 31
0.0
  0
LINE
  5
8C79
330
747D
100
AcDbEntity
  8
0
 48
15.0
100
AcDbLine
 10
1960.468645673778
 20
1930.679872534183
 30
0.0
 11
3958.468645673778
 21
1930.679872534183
 31
0.0
  0
LINE
  5
8C7A
330
747D
100
AcDbEntity
  8
0
 48
15.0
100
AcDbLine
 10
1960.468645673778
 20
1190.179872534183
 30
0.0
 11
3958.468645673778
 21
1190.179872534183
 31
0.0
  0
LINE
  5
8C7C
330
747D
100
AcDbEntity
  8
0
 48
20.0
100
AcDbLine
 10
2909.468645673779
 20
1411.179872534183
 30
0.0
 11
2909.46864567378
 21
1511.179872534183
 31
0.0
  0
LINE
  5
8C7D
330
747D
100
AcDbEntity
  8
0
 48
20.0
100
AcDbLine
 10
3009.468645673779
 20
1411.179872534183
 30
0.0
 11
3009.468645673779
 21
1511.179872534183
 31
0.0
  0
LINE
  5
8C80
330
747D
100
AcDbEntity
  8
0
 48
15.0
100
AcDbLine
 10
2909.46864567378
 20
1511.179872534183
 30
0.0
 11
3009.468645673779
 21
1511.179872534183
 31
0.0
  0
LINE
  5
8C81
330
747D
100
AcDbEntity
  8
0
 48
15.0
100
AcDbLine
 10
2919.468645673778
 20
1501.179872534183
 30
0.0
 11
2999.468645673776
 21
1501.179872534183
 31
0.0
  0
LINE
  5
8C82
330
747D
100
AcDbEntity
  8
0
 48
15.0
100
AcDbLine
 10
2909.468645673779
 20
1411.179872534183
 30
0.0
 11
3009.468645673779
 21
1411.179872534183
 31
0.0
  0
LINE
  5
8C83
330
747D
100
AcDbEntity
  8
0
 48
20.0
100
AcDbLine
 10
2909.468645673779
 20
1511.179872534183
 30
0.0
 11
2919.468645673778
 21
1501.179872534183
 31
0.0
  0
LINE
  5
8C84
330
747D
100
AcDbEntity
  8
0
 48
20.0
100
AcDbLine
 10
2919.468645673778
 20
1501.179872534183
 30
0.0
 11
2909.468645673779
 21
1411.179872534183
 31
0.0
  0
LINE
  5
8C85
330
747D
100
AcDbEntity
  8
0
 48
20.0
100
AcDbLine
 10
3009.468645673779
 20
1511.179872534183
 30
0.0
 11
2999.468645673778
 21
1501.179872534183
 31
0.0
  0
LINE
  5
8C86
330
747D
100
AcDbEntity
  8
0
 48
20.0
100
AcDbLine
 10
2999.468645673778
 20
1501.179872534183
 30
0.0
 11
3009.468645673779
 21
1411.179872534183
 31
0.0
  0
CIRCLE
  5
8C89
330
747D
100
AcDbEntity
  8
0
 48
20.0
100
AcDbCircle
 10
2959.468645673778
 20
1461.179872534182
 30
0.0
 40
10.0
  0
DIMENSION
  5
8CB4
330
747D
100
AcDbEntity
  8
寸法引出
 48
20.0
100
AcDbDimension
  2
*D8
 10
2919.468645673778
 20
1568.179694808866
 30
0.0
 11
2887.878528368961
 21
1598.408376743114
 31
0.0
 70
   160
 71
     5
 42
9.999999999998181
  3
SANWA
100
AcDbAlignedDimension
 13
2909.46864567378
 23
1511.179872534183
 33
0.0
 14
2919.468645673778
 24
1501.179872534183
 34
0.0
100
AcDbRotatedDimension
1001
ACAD
1000
DSTYLE
1002
{
1070
    40
1040
15.0
1070
    41
1040
1.5
1070
    43
1040
5.0
1070
    44
1040
0.5
1070
   140
1040
2.0
1070
   147
1040
1.0
1070
   176
1070
   256
1070
   177
1070
   256
1070
   178
1070
   256
1070
   279
1070
     2
1002
}
  0
DIMENSION
  5
8CC3
330
747D
100
AcDbEntity
  8
寸法引出
 48
20.0
100
AcDbDimension
  2
*D9
 10
2999.468645673776
 20
1568.179694808866
 30
0.0
 11
2959.468645673777
 21
1598.179694808866
 31
0.0
 70
    32
 71
     5
 42
79.99999999999864
  3
SANWA
100
AcDbAlignedDimension
 13
2919.468645673778
 23
1501.179872534183
 33
0.0
 14
2999.468645673776
 24
1501.179872534183
 34
0.0
100
AcDbRotatedDimension
1001
ACAD
1000
DSTYLE
1002
{
1070
    40
1040
15.0
1070
    41
1040
1.5
1070
    43
1040
5.0
1070
    44
1040
0.5
1070
   140
1040
2.0
1070
   147
1040
1.0
1070
   176
1070
   256
1070
   177
1070
   256
1070
   178
1070
   256
1070
   279
1070
     2
1002
}
  0
DIMENSION
  5
8CD0
330
747D
100
AcDbEntity
  8
寸法引出
 48
20.0
100
AcDbDimension
  2
*D10
 10
3009.468645673779
 20
1568.179694808866
 30
0.0
 11
3028.251052701893
 21
1598.806943739629
 31
0.0
 70
   160
 71
     5
 42
10.00000000000227
  3
SANWA
100
AcDbAlignedDimension
 13
2999.468645673776
 23
1501.179872534183
 33
0.0
 14
3009.468645673779
 24
1511.179872534183
 34
0.0
100
AcDbRotatedDimension
1001
ACAD
1000
DSTYLE
1002
{
1070
    40
1040
15.0
1070
    41
1040
1.5
1070
    43
1040
5.0
1070
    44
1040
0.5
1070
   140
1040
2.0
1070
   147
1040
1.0
1070
   176
1070
   256
1070
   177
1070
   256
1070
   178
1070
   256
1070
   279
1070
     2
1002
}
  0
DIMENSION
  5
8D89
330
747D
100
AcDbEntity
  8
寸法引出
 48
20.0
100
AcDbDimension
  2
*D11
 10
4045.134204023023
 20
1461.179872534182
 30
0.0
 11
4015.134204023023
 21
1698.179872534183
 31
0.0
 70
    32
 71
     5
 42
474.0000000000009
  3
SANWA
100
AcDbAlignedDimension
 13
3958.468645673778
 23
1935.179872534183
 33
0.0
 14
3958.468645673778
 24
1461.179872534182
 34
0.0
 50
90.0
100
AcDbRotatedDimension
1001
ACAD
1000
DSTYLE
1002
{
1070
    40
1040
15.0
1070
    41
1040
1.5
1070
    43
1040
5.0
1070
    44
1040
0.5
1070
   140
1040
2.0
1070
   147
1040
1.0
1070
   176
1070
   256
1070
   177
1070
   256
1070
   178
1070
   256
1070
   279
1070
     2
1002
}
  0
DIMENSION
  5
8D96
330
747D
100
AcDbEntity
  8
寸法引出
 48
20.0
100
AcDbDimension
  2
*D12
 10
4045.134204023023
 20
1170.179872534183
 30
0.0
 11
4015.134204023023
 21
1315.679872534183
 31
0.0
 70
    32
 71
     5
 42
290.9999999999988
  3
SANWA
100
AcDbAlignedDimension
 13
3958.468645673778
 23
1461.179872534182
 33
0.0
 14
3958.468645673778
 24
1170.179872534183
 34
0.0
 50
90.0
100
AcDbRotatedDimension
1001
ACAD
1000
DSTYLE
1002
{
1070
    40
1040
15.0
1070
    41
1040
1.5
1070
    43
1040
5.0
1070
    44
1040
0.5
1070
   140
1040
2.0
1070
   147
1040
1.0
1070
   176
1070
   256
1070
   177
1070
   256
1070
   178
1070
   256
1070
   279
1070
     2
1002
}
  0
DIMENSION
  5
8DA3
330
747D
100
AcDbEntity
  8
寸法引出
 48
20.0
100
AcDbDimension
  2
*D13
 10
3958.468645673778
 20
2046.24586053558
 30
0.0
 11
2959.468645673778
 21
2076.24586053558
 31
0.0
 70
    32
 71
     5
 42
1998.0
  3
SANWA
100
AcDbAlignedDimension
 13
1960.468645673778
 23
1935.179872534183
 33
0.0
 14
3958.468645673778
 24
1935.179872534183
 34
0.0
100
AcDbRotatedDimension
1001
ACAD
1000
DSTYLE
1002
{
1070
    40
1040
15.0
1070
    41
1040
1.5
1070
    43
1040
5.0
1070
    44
1040
0.5
1070
   140
1040
2.0
1070
   147
1040
1.0
1070
   176
1070
   256
1070
   177
1070
   256
1070
   178
1070
   256
1070
   279
1070
     2
1002
}
  0
MTEXT
  5
8DCF
330
747D
100
AcDbEntity
  8
寸法引出
 48
20.0
100
AcDbMText
 10
3372.787004754183
 20
1361.927622200005
 30
0.0
 40
30.0
 41
0.0
 71
     5
 72
     1
  1
吊り用ｲﾝﾊﾞｰﾄﾊﾝｶﾞｰ（20×65-70）
  7
SANWA
 73
     1
 44
1.0
  0
LEADER
  5
8DD0
330
747D
100
AcDbEntity
  8
寸法引出
 48
20.0
100
AcDbLeader
  3
SANWA
 76
     3
 10
2959.468645673778
 20
1451.179872534182
 30
0.0
 10
3044.825819807956
 20
1336.927606079244
 30
0.0
 10
3683.872461393967
 20
1336.927606079244
 30
0.0
1001
ACAD
1000
DSTYLE
1002
{
1070
    77
1070
     0
1070
    40
1040
15.0
1070
    41
1040
1.5
1070
    43
1040
5.0
1070
    44
1040
0.5
1070
   140
1040
2.0
1070
   147
1040
1.0
1070
   176
1070
   256
1070
   177
1070
   256
1070
   178
1070
   256
1070
   279
1070
     2
1002
}
  0
MTEXT
  5
8DD1
330
747D
100
AcDbEntity
  8
寸法引出
 48
20.0
100
AcDbMText
 10
1535.203417298386
 20
1117.859274319888
 30
0.0
 40
30.0
 41
0.0
 71
     5
 72
     1
  1
20C
  7
SANWA
 73
     1
 44
1.0
  0
LEADER
  5
8DD2
330
747D
100
AcDbEntity
  8
寸法引出
 48
20.0
100
AcDbLeader
  3
SANWA
 76
     3
 10
1411.978219800761
 20
1180.179872534183
 30
0.0
 10
1482.543434082574
 20
1096.651804884522
 30
0.0
 10
1572.721219461317
 20
1096.651804884522
 30
0.0
1001
ACAD
1000
DSTYLE
1002
{
1070
    77
1070
     0
1070
    40
1040
15.0
1070
    41
1040
1.5
1070
    43
1040
5.0
1070
    44
1040
0.5
1070
   140
1040
2.0
1070
   147
1040
1.0
1070
   176
1070
   256
1070
   177
1070
   256
1070
   178
1070
   256
1070
   279
1070
     2
1002
}
  0
DIMENSION
  5
9083
330
747D
100
AcDbEntity
  8
寸法引出
 48
20.0
100
AcDbDimension
  2
*D16
 10
1846.582798544938
 20
1170.179872534183
 30
0.0
 11
1816.582798544938
 21
1552.679872534183
 31
0.0
 70
    32
 71
     5
 42
764.9999999999997
  3
SANWA
100
AcDbAlignedDimension
 13
1960.468645673778
 23
1935.179872534183
 33
0.0
 14
1960.468645673778
 24
1170.179872534183
 34
0.0
 50
90.0
100
AcDbRotatedDimension
1001
ACAD
1000
DSTYLE
1002
{
1070
    40
1040
15.0
1070
    41
1040
1.5
1070
    43
1040
5.0
1070
    44
1040
0.5
1070
   140
1040
2.0
1070
   147
1040
1.0
1070
   176
1070
   256
1070
   177
1070
   256
1070
   178
1070
   256
1070
   279
1070
     2
1002
}
  0
LINE
  5
91F4
330
747D
100
AcDbEntity
  8
0
 48
20.0
100
AcDbLine
 10
2208.486632061834
 20
400.68087367748
 30
0.0
 11
2208.486632061834
 21
370.68087367748
 31
0.0
  0
LINE
  5
91F7
330
747D
100
AcDbEntity
  8
0
 48
20.0
100
AcDbLine
 10
2183.486632061834
 20
295.6808736774801
 30
0.0
 11
2208.486632061834
 21
370.68087367748
 31
0.0
  0
LINE
  5
91FA
330
747D
100
AcDbEntity
  8
0
 48
20.0
100
AcDbLine
 10
2233.486632061834
 20
275.68087367748
 30
0.0
 11
2183.486632061834
 21
295.6808736774801
 31
0.0
  0
LINE
  5
91FB
330
747D
100
AcDbEntity
  8
0
 48
20.0
100
AcDbLine
 10
2208.486632061834
 20
400.68087367748
 30
0.0
 11
2108.486632061834
 21
400.68087367748
 31
0.0
  0
LINE
  5
91FC
330
747D
100
AcDbEntity
  8
0
 48
20.0
100
AcDbLine
 10
2258.486632061834
 20
400.68087367748
 30
0.0
 11
2358.486632061834
 21
400.68087367748
 31
0.0
  0
LINE
  5
91FD
330
747D
100
AcDbEntity
  8
0
 48
20.0
100
AcDbLine
 10
2233.486632061834
 20
275.68087367748
 30
0.0
 11
2283.486632061834
 21
295.6808736774801
 31
0.0
  0
LINE
  5
91FE
330
747D
100
AcDbEntity
  8
0
 48
20.0
100
AcDbLine
 10
2283.486632061834
 20
295.6808736774801
 30
0.0
 11
2258.486632061834
 21
370.68087367748
 31
0.0
  0
LINE
  5
91FF
330
747D
100
AcDbEntity
  8
0
 48
20.0
100
AcDbLine
 10
2258.486632061834
 20
400.68087367748
 30
0.0
 11
2258.486632061834
 21
370.68087367748
 31
0.0
  0
LINE
  5
9200
330
747D
100
AcDbEntity
  8
0
100
AcDbLine
 10
2068.753135859519
 20
543.8205898430392
 30
0.0
 11
2391.649022268593
 21
543.8205898430392
 31
0.0
  0
TEXT
  5
9201
330
747D
100
AcDbEntity
  8
0
100
AcDbText
 10
2066.954243841499
 20
555.6618403275961
 30
0.0
 40
36.0
  1
目地部詳細図
  7
SANWA
 72
     4
 11
2224.942815270071
 21
574.278983184739
 31
0.0
100
AcDbText
  0
DIMENSION
  5
9202
330
747D
100
AcDbEntity
  8
寸法引出
 48
20.0
100
AcDbDimension
  2
*D17
 10
2208.486632061834
 20
465.1369083824228
 30
0.0
 11
2220.986632061834
 21
495.1369083824229
 31
0.0
 70
    32
  1
5
 71
     5
 42
25.0
  3
SANWA
100
AcDbAlignedDimension
 13
2233.486632061834
 23
275.68087367748
 33
0.0
 14
2208.486632061834
 24
400.68087367748
 34
0.0
100
AcDbRotatedDimension
1001
ACAD
1000
DSTYLE
1002
{
1070
    40
1040
15.0
1070
    41
1040
1.5
1070
    43
1040
5.0
1070
    44
1040
0.5
1070
   140
1040
2.0
1070
   147
1040
1.0
1070
   176
1070
   256
1070
   177
1070
   256
1070
   178
1070
   256
1070
   279
1070
     2
1002
}
  0
DIMENSION
  5
9241
330
747D
100
AcDbEntity
  8
寸法引出
 48
20.0
100
AcDbDimension
  2
*D18
 10
2067.998898564288
 20
370.6808736774801
 30
0.0
 11
2034.924780979257
 21
419.4246778782289
 31
0.0
 70
   160
  1
6
 71
     5
 42
29.99999999999994
  3
SANWA
100
AcDbAlignedDimension
 13
2108.486632061834
 23
400.68087367748
 33
0.0
 14
2208.486632061834
 24
370.68087367748
 34
0.0
 50
90.0
100
AcDbRotatedDimension
1001
ACAD
1000
DSTYLE
1002
{
1070
    40
1040
15.0
1070
    41
1040
1.5
1070
    43
1040
5.0
1070
    44
1040
0.5
1070
   140
1040
2.0
1070
   147
1040
1.0
1070
   176
1070
   256
1070
   177
1070
   256
1070
   178
1070
   256
1070
   279
1070
     2
1002
}
  0
DIMENSION
  5
9250
330
747D
100
AcDbEntity
  8
寸法引出
 48
20.0
100
AcDbDimension
  2
*D19
 10
2067.998898564288
 20
295.6808736774801
 30
0.0
 11
2037.998898564288
 21
333.1808736774804
 31
0.0
 70
    32
  1
15
 71
     5
 42
74.99999999999994
  3
SANWA
100
AcDbAlignedDimension
 13
2208.486632061834
 23
370.68087367748
 33
0.0
 14
2183.486632061834
 24
295.6808736774801
 34
0.0
 50
90.0
100
AcDbRotatedDimension
1001
ACAD
1000
DSTYLE
1002
{
1070
    40
1040
15.0
1070
    41
1040
1.5
1070
    43
1040
5.0
1070
    44
1040
0.5
1070
   140
1040
2.0
1070
   147
1040
1.0
1070
   176
1070
   256
1070
   177
1070
   256
1070
   178
1070
   256
1070
   279
1070
     2
1002
}
  0
DIMENSION
  5
925F
330
747D
100
AcDbEntity
  8
寸法引出
 48
20.0
100
AcDbDimension
  2
*D20
 10
2067.998898564288
 20
275.6808736774801
 30
0.0
 11
2037.526880556331
 21
259.0538310957398
 31
0.0
 70
   160
  1
4
 71
     5
 42
20.00000000000005
  3
SANWA
100
AcDbAlignedDimension
 13
2183.486632061834
 23
295.6808736774801
 33
0.0
 14
2233.486632061834
 24
275.68087367748
 34
0.0
 50
90.0
100
AcDbRotatedDimension
1001
ACAD
1000
DSTYLE
1002
{
1070
    40
1040
15.0
1070
    41
1040
1.5
1070
    43
1040
5.0
1070
    44
1040
0.5
1070
   140
1040
2.0
1070
   147
1040
1.0
1070
   176
1070
   256
1070
   177
1070
   256
1070
   178
1070
   256
1070
   279
1070
     2
1002
}
  0
DIMENSION
  5
928F
330
747D
100
AcDbEntity
  8
寸法引出
 48
20.0
100
AcDbDimension
  2
*D21
 10
2233.486632061834
 20
206.0840701650903
 30
0.0
 11
2208.486632061834
 21
236.0840701650904
 31
0.0
 70
    32
  1
10
 71
     5
 42
50.0
  3
SANWA
100
AcDbAlignedDimension
 13
2183.486632061834
 23
295.6808736774801
 33
0.0
 14
2233.486632061834
 24
275.68087367748
 34
0.0
100
AcDbRotatedDimension
1001
ACAD
1000
DSTYLE
1002
{
1070
    40
1040
15.0
1070
    41
1040
1.5
1070
    43
1040
5.0
1070
    44
1040
0.5
1070
   140
1040
2.0
1070
   147
1040
1.0
1070
   176
1070
   256
1070
   177
1070
   256
1070
   178
1070
   256
1070
   279
1070
     2
1002
}
  0
MTEXT
  5
92EB
330
747D
100
AcDbEntity
  8
寸法引出
 48
20.0
100
AcDbMText
 10
2356.282737768199
 20
435.9882069313262
 30
0.0
 40
30.0
 41
0.0
 71
     5
 72
     1
  1
内面
  7
SANWA
 73
     1
 44
1.0
  0
LINE
  5
9376
330
747D
100
AcDbEntity
  8
0
 48
20.0
100
AcDbLine
 10
955.5782198007625
 20
1170.179872534183
 30
0.0
 11
1401.578219800761
 21
1170.179872534183
 31
0.0
  0
LINE
  5
97F8
330
747D
100
AcDbEntity
  8
0
 48
20.0
100
AcDbLine
 10
934.7782198007624
 20
1190.179872534183
 30
0.0
 11
908.5782198007601
 21
1845.179872534183
 31
0.0
  0
LINE
  5
97F9
330
747D
100
AcDbEntity
  8
0
 48
20.0
100
AcDbLine
 10
1422.378219800762
 20
1190.179872534183
 30
0.0
 11
1448.578219800762
 21
1845.179872534183
 31
0.0
  0
LINE
  5
980A
330
747D
100
AcDbEntity
  8
0
  6
CENTER2
 48
5.0
100
AcDbLine
 10
1463.218219800762
 20
1461.179872534183
 30
0.0
 11
1333.218219800763
 21
1461.179872534182
 31
0.0
  0
LINE
  5
A013
330
747D
100
AcDbEntity
  8
0
 48
20.0
100
AcDbLine
 10
934.7782198007624
 20
1190.179872534183
 30
0.0
 11
955.5782198007625
 21
1170.179872534183
 31
0.0
  0
LINE
  5
A014
330
747D
100
AcDbEntity
  8
0
 48
20.0
100
AcDbLine
 10
1422.378219800762
 20
1190.179872534183
 30
0.0
 11
1401.578219800761
 21
1170.179872534183
 31
0.0
  0
LINE
  5
A01A
330
747D
100
AcDbEntity
  8
0
  6
HIDDEN2
 48
15.0
100
AcDbLine
 10
1431.218219800762
 20
1411.179872534183
 30
0.0
 11
1431.218219800762
 21
1501.179872534183
 31
0.0
  0
LINE
  5
A01B
330
747D
100
AcDbEntity
  8
0
  6
HIDDEN2
 48
15.0
100
AcDbLine
 10
1431.218219800762
 20
1501.179872534183
 30
0.0
 11
1435.218219800762
 21
1511.179872534183
 31
0.0
  0
ARC
  5
A02B
330
747D
100
AcDbEntity
  8
0
 48
20.0
100
AcDbCircle
 10
1178.578219800762
 20
1695.179872534183
 30
0.0
 40
450.0
100
AcDbArc
 50
251.2142119580574
 51
288.7857880419426
  0
DIMENSION
  5
A02C
330
747D
100
AcDbEntity
  8
寸法引出
 48
20.0
100
AcDbDimension
  2
*D22
 10
800.9095255738172
 20
1245.179872534183
 30
0.0
 11
770.909525573817
 21
1545.179872534183
 31
0.0
 70
    32
 71
     5
 42
599.9999999999998
  3
SANWA
100
AcDbAlignedDimension
 13
908.5782198007601
 23
1845.179872534183
 33
0.0
 14
932.5782198007624
 24
1245.179872534183
 34
0.0
 50
90.0
100
AcDbRotatedDimension
1001
ACAD
1000
DSTYLE
1002
{
1070
    40
1040
15.0
1070
    41
1040
1.5
1070
    43
1040
5.0
1070
    44
1040
0.5
1070
   140
1040
2.0
1070
   147
1040
1.0
1070
   176
1070
   256
1070
   177
1070
   256
1070
   178
1070
   256
1070
   279
1070
     2
1002
}
  0
DIMENSION
  5
A039
330
747D
100
AcDbEntity
  8
寸法引出
 48
20.0
100
AcDbDimension
  2
*D23
 10
800.9095255738172
 20
1170.179872534183
 30
0.0
 11
770.909525573817
 21
1207.679872534183
 31
0.0
 70
    32
 71
     5
 42
75.0
  3
SANWA
100
AcDbAlignedDimension
 13
932.5782198007624
 23
1245.179872534183
 33
0.0
 14
955.5782198007625
 24
1170.179872534183
 34
0.0
 50
90.0
100
AcDbRotatedDimension
1001
ACAD
1000
DSTYLE
1002
{
1070
    40
1040
15.0
1070
    41
1040
1.5
1070
    43
1040
5.0
1070
    44
1040
0.5
1070
   140
1040
2.0
1070
   147
1040
1.0
1070
   176
1070
   256
1070
   177
1070
   256
1070
   178
1070
   256
1070
   279
1070
     2
1002
}
  0
DIMENSION
  5
A048
330
747D
100
AcDbEntity
  8
寸法引出
 48
20.0
100
AcDbDimension
  2
*D24
 10
721.6704700963563
 20
1170.179872534183
 30
0.0
 11
691.6704700963562
 21
1552.679872534183
 31
0.0
 70
    32
 71
     5
 42
764.9999999999997
  3
SANWA
100
AcDbAlignedDimension
 13
913.0782198007601
 23
1935.179872534183
 33
0.0
 14
955.5782198007625
 24
1170.179872534183
 34
0.0
 50
90.0
100
AcDbRotatedDimension
1001
ACAD
1000
DSTYLE
1002
{
1070
    40
1040
15.0
1070
    41
1040
1.5
1070
    43
1040
5.0
1070
    44
1040
0.5
1070
   140
1040
2.0
1070
   147
1040
1.0
1070
   176
1070
   256
1070
   177
1070
   256
1070
   178
1070
   256
1070
   279
1070
     2
1002
}
  0
DIMENSION
  5
A072
330
747D
100
AcDbEntity
  8
寸法引出
 48
20.0
100
AcDbDimension
  2
*D25
 10
1002.578219800762
 20
1525.249116888628
 30
0.0
 11
944.7917120105323
 21
1558.695472557295
 31
0.0
 70
   160
 71
     5
 42
70.0
  3
SANWA
100
AcDbAlignedDimension
 13
932.5782198007624
 23
1245.179872534183
 33
0.0
 14
1002.578219800762
 24
1245.179872534183
 34
0.0
100
AcDbRotatedDimension
1001
ACAD
1000
DSTYLE
1002
{
1070
    40
1040
15.0
1070
    41
1040
1.5
1070
    43
1040
5.0
1070
    44
1040
0.5
1070
   140
1040
2.0
1070
   147
1040
1.0
1070
   176
1070
   256
1070
   177
1070
   256
1070
   178
1070
   256
1070
   279
1070
     2
1002
}
  0
DIMENSION
  5
A081
330
747D
100
AcDbEntity
  8
寸法引出
 48
20.0
100
AcDbDimension
  2
*D26
 10
1354.578219800761
 20
1525.249116888628
 30
0.0
 11
1178.578219800761
 21
1555.249116888628
 31
0.0
 70
    32
 71
     5
 42
351.9999999999989
  3
SANWA
100
AcDbAlignedDimension
 13
1002.578219800762
 23
1245.179872534183
 33
0.0
 14
1354.578219800761
 24
1245.179872534183
 34
0.0
100
AcDbRotatedDimension
1001
ACAD
1000
DSTYLE
1002
{
1070
    40
1040
15.0
1070
    41
1040
1.5
1070
    43
1040
5.0
1070
    44
1040
0.5
1070
   140
1040
2.0
1070
   147
1040
1.0
1070
   176
1070
   256
1070
   177
1070
   256
1070
   178
1070
   256
1070
   279
1070
     2
1002
}
  0
ARC
  5
A08E
330
747D
100
AcDbEntity
  8
0
 48
20.0
100
AcDbCircle
 10
1049.765870494123
 20
1316.488205519837
 30
0.0
 40
50.0
100
AcDbArc
 50
182.2906100426384
 51
251.2142119580571
  0
ARC
  5
A08F
330
747D
100
AcDbEntity
  8
0
 48
20.0
100
AcDbCircle
 10
1307.3905691074
 20
1316.488205519837
 30
0.0
 40
50.0
100
AcDbArc
 50
288.7857880419423
 51
357.7093899573612
  0
LINE
  5
A090
330
747D
100
AcDbEntity
  8
0
 48
15.0
100
AcDbLine
 10
973.3734217192242
 20
1825.179872534183
 30
0.0
 11
993.8106168057034
 21
1314.2499953723
 31
0.0
  0
ARC
  5
A091
330
747D
100
AcDbEntity
  8
0
 48
20.0
100
AcDbCircle
 10
1049.765870494123
 20
1316.488205519837
 30
0.0
 40
56.0
100
AcDbArc
 50
182.2906100426384
 51
251.2142119580571
  0
ARC
  5
A092
330
747D
100
AcDbEntity
  8
0
 48
20.0
100
AcDbCircle
 10
1178.578219800762
 20
1695.179872534183
 30
0.0
 40
456.0
100
AcDbArc
 50
251.2142119580574
 51
288.7857880419426
  0
ARC
  5
A093
330
747D
100
AcDbEntity
  8
0
 48
20.0
100
AcDbCircle
 10
1307.3905691074
 20
1316.488205519837
 30
0.0
 40
56.0
100
AcDbArc
 50
288.7857880419423
 51
357.7093899573612
  0
LINE
  5
A094
330
747D
100
AcDbEntity
  8
0
 48
15.0
100
AcDbLine
 10
1383.783017882295
 20
1825.179872534182
 30
0.0
 11
1363.34582279582
 21
1314.2499953723
 31
0.0
  0
LINE
  5
A095
330
747D
100
AcDbEntity
  8
0
 48
15.0
100
AcDbLine
 10
958.3614265153881
 20
1825.179872534183
 30
0.0
 11
978.8226024248764
 21
1313.650474797067
 31
0.0
  0
ARC
  5
A096
330
747D
100
AcDbEntity
  8
0
 48
20.0
100
AcDbCircle
 10
1049.765870494123
 20
1316.488205519837
 30
0.0
 40
71.0
100
AcDbArc
 50
182.2906100426384
 51
251.2142119580571
  0
ARC
  5
A097
330
747D
100
AcDbEntity
  8
0
 48
20.0
100
AcDbCircle
 10
1178.578219800762
 20
1695.179872534183
 30
0.0
 40
471.0
100
AcDbArc
 50
251.2142119580574
 51
288.7857880419426
  0
ARC
  5
A098
330
747D
100
AcDbEntity
  8
0
 48
20.0
100
AcDbCircle
 10
1307.3905691074
 20
1316.488205519837
 30
0.0
 40
71.0
100
AcDbArc
 50
288.7857880419423
 51
357.7093899573612
  0
LINE
  5
A099
330
747D
100
AcDbEntity
  8
0
 48
15.0
100
AcDbLine
 10
1398.795013086131
 20
1825.179872534182
 30
0.0
 11
1378.333837176647
 21
1313.650474797067
 31
0.0
  0
LINE
  5
A09A
330
747D
100
AcDbEntity
  8
0
 48
15.0
100
AcDbLine
 10
954.3582277943652
 20
1825.179872534183
 30
0.0
 11
974.8257985899885
 21
1313.490602643671
 31
0.0
  0
ARC
  5
A09B
330
747D
100
AcDbEntity
  8
0
 48
20.0
100
AcDbCircle
 10
1049.765870494123
 20
1316.488205519837
 30
0.0
 40
75.0
100
AcDbArc
 50
182.2906100426384
 51
251.2142119580571
  0
ARC
  5
A09C
330
747D
100
AcDbEntity
  8
0
 48
20.0
100
AcDbCircle
 10
1178.578219800762
 20
1695.179872534183
 30
0.0
 40
475.0
100
AcDbArc
 50
251.2142119580574
 51
288.7857880419426
  0
ARC
  5
A09D
330
747D
100
AcDbEntity
  8
0
 48
20.0
100
AcDbCircle
 10
1307.3905691074
 20
1316.488205519837
 30
0.0
 40
75.0
100
AcDbArc
 50
288.7857880419423
 51
357.7093899573612
  0
LINE
  5
A09E
330
747D
100
AcDbEntity
  8
0
 48
15.0
100
AcDbLine
 10
1402.798211807154
 20
1825.179872534182
 30
0.0
 11
1382.330641011534
 21
1313.490602643671
 31
0.0
  0
LINE
  5
A483
330
747D
100
AcDbEntity
  8
0
 48
20.0
100
AcDbLine
 10
967.0782198007584
 20
1845.179872534183
 30
0.0
 11
978.8982198007586
 21
1837.179872534183
 31
0.0
  0
DIMENSION
  5
A484
330
747D
100
AcDbEntity
  8
寸法引出
 48
20.0
100
AcDbDimension
  2
*D29
 10
978.5782198007602
 20
1885.047951186833
 30
0.0
 11
1001.644546622799
 21
1915.337076186987
 31
0.0
 70
   160
 71
     5
 42
11.50000000000181
  3
SANWA
100
AcDbAlignedDimension
 13
967.0782198007584
 23
1845.179872534183
 33
0.0
 14
978.5782198007602
 24
1845.179872534183
 34
0.0
100
AcDbRotatedDimension
1001
ACAD
1000
DSTYLE
1002
{
1070
    40
1040
15.0
1070
    41
1040
1.5
1070
    43
1040
5.0
1070
    44
1040
0.5
1070
   140
1040
2.0
1070
   147
1040
1.0
1070
   176
1070
   256
1070
   177
1070
   256
1070
   178
1070
   256
1070
   279
1070
     2
1002
}
  0
DIMENSION
  5
A493
330
747D
100
AcDbEntity
  8
寸法引出
 48
20.0
100
AcDbDimension
  2
*D30
 10
1042.760674839681
 20
1837.179872534183
 30
0.0
 11
1013.273348804381
 21
1817.830978997812
 31
0.0
 70
   160
 71
     5
 42
8.0
  3
SANWA
100
AcDbAlignedDimension
 13
978.5782198007602
 23
1845.179872534183
 33
0.0
 14
978.8982198007586
 24
1837.179872534183
 34
0.0
 50
90.0
100
AcDbRotatedDimension
1001
ACAD
1000
DSTYLE
1002
{
1070
    40
1040
15.0
1070
    41
1040
1.5
1070
    43
1040
5.0
1070
    44
1040
0.5
1070
   140
1040
2.0
1070
   147
1040
1.0
1070
   176
1070
   256
1070
   177
1070
   256
1070
   178
1070
   256
1070
   279
1070
     2
1002
}
  0
LINE
  5
A4CE
330
747D
100
AcDbEntity
  8
0
 48
20.0
100
AcDbLine
 10
1390.078219800765
 20
1845.179872534183
 30
0.0
 11
1378.258219800765
 21
1837.179872534183
 31
0.0
  0
LINE
  5
A6C2
330
747D
100
AcDbEntity
  8
0
  6
HIDDEN2
 48
15.0
100
AcDbLine
 10
1431.218219800762
 20
1471.179872534183
 30
0.0
 11
1363.618219800761
 21
1471.179872534182
 31
0.0
  0
LINE
  5
A6C3
330
747D
100
AcDbEntity
  8
0
  6
HIDDEN2
 48
15.0
100
AcDbLine
 10
1431.218219800762
 20
1451.179872534183
 30
0.0
 11
1362.81821980076
 21
1451.179872534182
 31
0.0
  0
LINE
  5
A6D8
330
747D
100
AcDbEntity
  8
0
  6
HIDDEN2
 48
15.0
100
AcDbLine
 10
925.9382198007614
 20
1411.179872534183
 30
0.0
 11
925.9382198007614
 21
1501.179872534183
 31
0.0
  0
LINE
  5
A6D9
330
747D
100
AcDbEntity
  8
0
  6
HIDDEN2
 48
15.0
100
AcDbLine
 10
925.9382198007614
 20
1451.179872534183
 30
0.0
 11
994.3382198007633
 21
1451.179872534182
 31
0.0
  0
LINE
  5
A6DA
330
747D
100
AcDbEntity
  8
0
  6
CENTER2
 48
5.0
100
AcDbLine
 10
893.9382198007614
 20
1461.179872534183
 30
0.0
 11
1023.93821980076
 21
1461.179872534182
 31
0.0
  0
LINE
  5
A6DB
330
747D
100
AcDbEntity
  8
0
  6
HIDDEN2
 48
15.0
100
AcDbLine
 10
925.9382198007614
 20
1501.179872534183
 30
0.0
 11
921.9382198007615
 21
1511.179872534183
 31
0.0
  0
LINE
  5
A6DC
330
747D
100
AcDbEntity
  8
0
  6
HIDDEN2
 48
15.0
100
AcDbLine
 10
925.9382198007614
 20
1471.179872534183
 30
0.0
 11
993.5382198007634
 21
1471.179872534182
 31
0.0
  0
DIMENSION
  5
A6DD
330
747D
100
AcDbEntity
  8
寸法引出
 48
20.0
100
AcDbDimension
  2
*D32
 10
1533.938663960516
 20
1511.179872534183
 30
0.0
 11
1503.938663960516
 21
1723.179872534183
 31
0.0
 70
    32
 71
     5
 42
424.0
  3
SANWA
100
AcDbAlignedDimension
 13
1444.078219800758
 23
1935.179872534183
 33
0.0
 14
1435.218219800762
 24
1511.179872534183
 34
0.0
 50
90.0
100
AcDbRotatedDimension
1001
ACAD
1000
DSTYLE
1002
{
1070
    40
1040
15.0
1070
    41
1040
1.5
1070
    43
1040
5.0
1070
    44
1040
0.5
1070
   140
1040
2.0
1070
   147
1040
1.0
1070
   176
1070
   256
1070
   177
1070
   256
1070
   178
1070
   256
1070
   279
1070
     2
1002
}
  0
DIMENSION
  5
A6EA
330
747D
100
AcDbEntity
  8
寸法引出
 48
20.0
100
AcDbDimension
  2
*D33
 10
1533.938663960516
 20
1501.179872534183
 30
0.0
 11
1566.404960568566
 21
1508.937966238531
 31
0.0
 70
   160
 71
     5
 42
10.0
  3
SANWA
100
AcDbAlignedDimension
 13
1435.218219800762
 23
1511.179872534183
 33
0.0
 14
1431.218219800762
 24
1501.179872534183
 34
0.0
 50
90.0
100
AcDbRotatedDimension
1001
ACAD
1000
DSTYLE
1002
{
1070
    40
1040
15.0
1070
    41
1040
1.5
1070
    43
1040
5.0
1070
    44
1040
0.5
1070
   140
1040
2.0
1070
   147
1040
1.0
1070
   176
1070
   256
1070
   177
1070
   256
1070
   178
1070
   256
1070
   279
1070
     2
1002
}
  0
DIMENSION
  5
A6F9
330
747D
100
AcDbEntity
  8
寸法引出
 48
20.0
100
AcDbDimension
  2
*D34
 10
1533.938663960516
 20
1411.179872534183
 30
0.0
 11
1503.938663960516
 21
1456.179872534183
 31
0.0
 70
    32
 71
     5
 42
89.99999999999976
  3
SANWA
100
AcDbAlignedDimension
 13
1431.218219800762
 23
1501.179872534183
 33
0.0
 14
1431.218219800762
 24
1411.179872534183
 34
0.0
 50
90.0
100
AcDbRotatedDimension
1001
ACAD
1000
DSTYLE
1002
{
1070
    40
1040
15.0
1070
    41
1040
1.5
1070
    43
1040
5.0
1070
    44
1040
0.5
1070
   140
1040
2.0
1070
   147
1040
1.0
1070
   176
1070
   256
1070
   177
1070
   256
1070
   178
1070
   256
1070
   279
1070
     2
1002
}
  0
VIEWPORT
  5
7540
330
747A
100
AcDbEntity
 67
     1
  8
0
100
AcDbViewport
 10
2878.243789599006
 20
970.3639114717196
 30
0.0
 40
6257.342359533289
 41
4285.736489239755
 68
     1
 69
     1
 12
2878.243789599006
 22
970.3639114717196
 13
0.0
 23
0.0
 14
10.0
 24
10.0
 15
10.0
 25
10.0
 16
0.0
 26
0.0
 36
1.0
 17
0.0
 27
0.0
 37
0.0
 42
50.0
 43
0.0
 44
0.0
 45
4285.736489239755
 50
0.0
 51
0.0
 72
   100
 90
    32800
  1

281
     0
 71
     1
 74
     0
110
0.0
120
0.0
130
0.0
111
1.0
121
0.0
131
0.0
112
0.0
122
1.0
132
0.0
 79
     0
146
0.0
  0
TEXT
  5
7737
330
747A
100
AcDbEntity
 67
     1
  8
0
 48
2.0
100
AcDbText
 10
331.8711968111848
 20
20.60428158404021
 30
0.0
 40
2.0
  1

  7
SANWA
100
AcDbText
  0
ENDSEC
  0
SECTION
  2
OBJECTS
  0
DICTIONARY
  5
7471
330
0
100
AcDbDictionary
281
     1
  3
ACAD_GROUP
350
7472
  3
ACAD_LAYOUT
350
7F6B
  3
ACAD_MLINESTYLE
350
7473
  3
ACAD_PLOTSETTINGS
350
7F6C
  3
ACAD_PLOTSTYLENAME
350
7F69
  3
AcadDim
350
A45F
  3
ACDBVARIABLEDICTIONARY
350
789B
  3
ASE_INDEX_DICTIONARY
350
A764
  0
DICTIONARY
  5
7472
102
{ACAD_REACTORS
330
7471
102
}
330
7471
100
AcDbDictionary
281
     1
  0
DICTIONARY
  5
7F6B
102
{ACAD_REACTORS
330
7471
102
}
330
7471
100
AcDbDictionary
281
     1
  3
Model
350
7F6D
  3
ﾚｲｱｳﾄ1
350
7F6E
  0
DICTIONARY
  5
7473
102
{ACAD_REACTORS
330
7471
102
}
330
7471
100
AcDbDictionary
281
     1
  3
STANDARD
350
7480
  0
DICTIONARY
  5
7F6C
102
{ACAD_REACTORS
330
7471
102
}
330
7471
100
AcDbDictionary
281
     1
  0
ACDBDICTIONARYWDFLT
  5
7F69
102
{ACAD_REACTORS
330
7471
102
}
330
7471
100
AcDbDictionary
281
     1
  3
Normal
350
7F6A
100
AcDbDictionaryWithDefault
340
7F6A
  0
XRECORD
  5
A45F
102
{ACAD_REACTORS
330
7471
102
}
330
7471
100
AcDbXrecord
280
     1
 90
   990106
  3

 60
     4
 61
     0
 62
     1
 63
     3
 64
     0
 65
     0
 66
     0
 67
     3
 68
     1
 69
     0
 70
     0
 71
     0
 72
     0
 40
0.0
170
     0
  0
DICTIONARY
  5
789B
102
{ACAD_REACTORS
330
7471
102
}
330
7471
100
AcDbDictionary
281
     1
  3
DIMASSOC
350
7F75
  3
SORTENTS
350
789C
  0
DICTIONARY
  5
A764
102
{ACAD_REACTORS
330
7471
102
}
330
7471
100
AcDbDictionary
281
     1
  3
ASEBlockHierarchyIndexRecord
350
A766
1001
DCO15
1040
1551433742.562
  0
LAYOUT
  5
7F6D
102
{ACAD_REACTORS
330
7F6B
102
}
330
7F6B
100
AcDbPlotSettings
  1

  2
DocuCentre Color f360
  4
A4
  6

 40
4.857749938964842
 41
4.942390441894531
 42
4.942413330078125
 43
4.857757568359375
 44
209.9733276367186
 45
297.0106506347656
 46
5.089999999999998
 47
12.61
 48
964.9375195598366
 49
150.0
140
4894.937519559837
141
3000.0
142
1.0
143
15.0
 70
 11940
 72
     1
 73
     1
 74
     4
  7
sanwa3.ctb
 75
     0
147
0.0666666666666667
148
-964.9375195598366
149
-150.0
100
AcDbLayout
  1
Model
 70
     1
 71
     0
 10
0.0
 20
0.0
 11
12.0
 21
9.0
 12
0.0
 22
0.0
 32
0.0
 14
0.0
 24
0.0
 34
0.0
 15
0.0
 25
0.0
 35
0.0
146
0.0
 13
0.0
 23
0.0
 33
0.0
 16
1.0
 26
0.0
 36
0.0
 17
0.0
 27
1.0
 37
0.0
 76
     0
330
747D
  0
LAYOUT
  5
7F6E
102
{ACAD_REACTORS
330
7F6B
102
}
330
7F6B
100
AcDbPlotSettings
  1

  2
RICOH NX-510
  4
A4
  6

 40
5.873749732971191
 41
4.921256542205809
 42
7.588241577148437
 43
5.81024169921875
 44
209.9944915771484
 45
296.989501953125
 46
0.0
 47
0.0
 48
0.0
 49
0.0
140
0.0
141
0.0
142
1.0
143
20.17331812743451
 70
   688
 72
     1
 73
     1
 74
     1
  7
sanwa3.ctb
 75
     0
147
0.0495704273180553
148
0.1762079097297828
149
1029.28590836146
100
AcDbLayout
  1
ﾚｲｱｳﾄ1
 70
     1
 71
     1
 10
-117.3880621053551
 20
-1147.778930325621
 11
5873.875641303368
 21
3088.506753269061
 12
0.0
 22
0.0
 32
0.0
 14
1.000000000000000E+20
 24
1.000000000000000E+20
 34
1.000000000000000E+20
 15
-1.000000000000000E+20
 25
-1.000000000000000E+20
 35
-1.000000000000000E+20
146
0.0
 13
0.0
 23
0.0
 33
0.0
 16
1.0
 26
0.0
 36
0.0
 17
0.0
 27
1.0
 37
0.0
 76
     0
330
747A
331
7540
  0
MLINESTYLE
  5
7480
102
{ACAD_REACTORS
330
7473
102
}
330
7473
100
AcDbMlineStyle
  2
STANDARD
 70
     0
  3

 62
     0
 51
90.0
 52
90.0
 71
     2
 49
0.5
 62
   256
  6
BYLAYER
 49
-0.5
 62
   256
  6
BYLAYER
  0
ACDBPLACEHOLDER
  5
7F6A
102
{ACAD_REACTORS
330
7F69
102
}
330
7F69
  0
DICTIONARYVAR
  5
7F75
102
{ACAD_REACTORS
330
789B
102
}
330
789B
100
DictionaryVariables
280
     0
  1
1
  0
DICTIONARYVAR
  5
789C
102
{ACAD_REACTORS
330
789B
102
}
330
789B
100
DictionaryVariables
280
     0
  1
96
  0
XRECORD
  5
A766
102
{ACAD_REACTORS
330
A764
102
}
330
A764
100
AcDbXrecord
280
     1
  0
ENDSEC
  0
EOF
