  0
SECTION
  2
HEADER
  9
$ACADVER
  1
AC1015
  9
$ACADMAINTVER
 70
    13
  9
$DWGCODEPAGE
  3
ANSI_932
  9
$INSBASE
 10
0.0
 20
0.0
 30
0.0
  9
$EXTMIN
 10
-0.0290595796504931
 20
-0.1279586770961032
 30
-0.000000000000013
  9
$EXTMAX
 10
4455.097491986708
 20
3150.064198157028
 30
0.0000000000000023
  9
$LIMMIN
 10
0.0
 20
0.0
  9
$LIMMAX
 10
420.0
 20
297.0
  9
$ORTHOMODE
 70
     1
  9
$REGENMODE
 70
     1
  9
$FILLMODE
 70
     1
  9
$QTEXTMODE
 70
     0
  9
$MIRRTEXT
 70
     1
  9
$LTSCALE
 40
0.5
  9
$ATTMODE
 70
     1
  9
$TEXTSIZE
 40
2.799999999999998
  9
$TRACEWID
 40
1.0
  9
$TEXTSTYLE
  7
SANWA
  9
$CLAYER
  8
寸法引出
  9
$CELTYPE
  6
BYLAYER
  9
$CECOLOR
 62
   256
  9
$CELTSCALE
 40
20.0
  9
$DISPSILH
 70
     0
  9
$DIMSCALE
 40
15.0
  9
$DIMASZ
 40
1.5
  9
$DIMEXO
 40
1.0
  9
$DIMDLI
 40
5.0
  9
$DIMRND
 40
0.0
  9
$DIMDLE
 40
0.0
  9
$DIMEXE
 40
0.5
  9
$DIMTP
 40
0.0
  9
$DIMTM
 40
0.0
  9
$DIMTXT
 40
2.0
  9
$DIMCEN
 40
0.0
  9
$DIMTSZ
 40
0.0
  9
$DIMTOL
 70
     0
  9
$DIMLIM
 70
     0
  9
$DIMTIH
 70
     0
  9
$DIMTOH
 70
     0
  9
$DIMSE1
 70
     0
  9
$DIMSE2
 70
     0
  9
$DIMTAD
 70
     1
  9
$DIMZIN
 70
     8
  9
$DIMBLK
  1

  9
$DIMASO
 70
     1
  9
$DIMSHO
 70
     1
  9
$DIMPOST
  1

  9
$DIMAPOST
  1

  9
$DIMALT
 70
     0
  9
$DIMALTD
 70
     2
  9
$DIMALTF
 40
0.0394
  9
$DIMLFAC
 40
1.0
  9
$DIMTOFL
 70
     1
  9
$DIMTVP
 40
0.0
  9
$DIMTIX
 70
     1
  9
$DIMSOXD
 70
     0
  9
$DIMSAH
 70
     0
  9
$DIMBLK1
  1

  9
$DIMBLK2
  1

  9
$DIMSTYLE
  2
SANWA
  9
$DIMCLRD
 70
   256
  9
$DIMCLRE
 70
   256
  9
$DIMCLRT
 70
   256
  9
$DIMTFAC
 40
1.0
  9
$DIMGAP
 40
1.0
  9
$DIMJUST
 70
     0
  9
$DIMSD1
 70
     0
  9
$DIMSD2
 70
     0
  9
$DIMTOLJ
 70
     1
  9
$DIMTZIN
 70
     0
  9
$DIMALTZ
 70
     0
  9
$DIMALTTZ
 70
     0
  9
$DIMUPT
 70
     0
  9
$DIMDEC
 70
     4
  9
$DIMTDEC
 70
     4
  9
$DIMALTU
 70
     2
  9
$DIMALTTD
 70
     2
  9
$DIMTXSTY
  7
SANWA
  9
$DIMAUNIT
 70
     0
  9
$DIMADEC
 70
     0
  9
$DIMALTRND
 40
0.0
  9
$DIMAZIN
 70
     0
  9
$DIMDSEP
 70
    46
  9
$DIMATFIT
 70
     3
  9
$DIMFRAC
 70
     0
  9
$DIMLDRBLK
  1

  9
$DIMLUNIT
 70
     2
  9
$DIMLWD
 70
    -2
  9
$DIMLWE
 70
    -2
  9
$DIMTMOVE
 70
     2
  9
$LUNITS
 70
     2
  9
$LUPREC
 70
     4
  9
$SKETCHINC
 40
1.0
  9
$FILLETRAD
 40
40.0
  9
$AUNITS
 70
     0
  9
$AUPREC
 70
     0
  9
$MENU
  1
acad
  9
$ELEVATION
 40
0.0
  9
$PELEVATION
 40
0.0
  9
$THICKNESS
 40
0.0
  9
$LIMCHECK
 70
     0
  9
$CHAMFERA
 40
0.0
  9
$CHAMFERB
 40
0.0
  9
$CHAMFERC
 40
0.0
  9
$CHAMFERD
 40
0.0
  9
$SKPOLY
 70
     1
  9
$TDCREATE
 40
2451806.361679282
  9
$TDUCREATE
 40
2451805.986679282
  9
$TDUPDATE
 40
2454257.466905382
  9
$TDUUPDATE
 40
2454257.091905382
  9
$TDINDWG
 40
0.7365245949
  9
$TDUSRTIMER
 40
0.7365244097
  9
$USRTIMER
 70
     1
  9
$ANGBASE
 50
0.0
  9
$ANGDIR
 70
     0
  9
$PDMODE
 70
     0
  9
$PDSIZE
 40
0.0
  9
$PLINEWID
 40
0.0
  9
$SPLFRAME
 70
     0
  9
$SPLINETYPE
 70
     6
  9
$SPLINESEGS
 70
     8
  9
$HANDSEED
  5
A430
  9
$SURFTAB1
 70
     6
  9
$SURFTAB2
 70
     6
  9
$SURFTYPE
 70
     6
  9
$SURFU
 70
     6
  9
$SURFV
 70
     6
  9
$UCSBASE
  2

  9
$UCSNAME
  2

  9
$UCSORG
 10
0.0
 20
0.0
 30
0.0
  9
$UCSXDIR
 10
1.0
 20
0.0
 30
0.0
  9
$UCSYDIR
 10
0.0
 20
1.0
 30
0.0
  9
$UCSORTHOREF
  2

  9
$UCSORTHOVIEW
 70
     0
  9
$UCSORGTOP
 10
0.0
 20
0.0
 30
0.0
  9
$UCSORGBOTTOM
 10
0.0
 20
0.0
 30
0.0
  9
$UCSORGLEFT
 10
0.0
 20
0.0
 30
0.0
  9
$UCSORGRIGHT
 10
0.0
 20
0.0
 30
0.0
  9
$UCSORGFRONT
 10
0.0
 20
0.0
 30
0.0
  9
$UCSORGBACK
 10
0.0
 20
0.0
 30
0.0
  9
$PUCSBASE
  2

  9
$PUCSNAME
  2

  9
$PUCSORG
 10
0.0
 20
0.0
 30
0.0
  9
$PUCSXDIR
 10
1.0
 20
0.0
 30
0.0
  9
$PUCSYDIR
 10
0.0
 20
1.0
 30
0.0
  9
$PUCSORTHOREF
  2

  9
$PUCSORTHOVIEW
 70
     0
  9
$PUCSORGTOP
 10
0.0
 20
0.0
 30
0.0
  9
$PUCSORGBOTTOM
 10
0.0
 20
0.0
 30
0.0
  9
$PUCSORGLEFT
 10
0.0
 20
0.0
 30
0.0
  9
$PUCSORGRIGHT
 10
0.0
 20
0.0
 30
0.0
  9
$PUCSORGFRONT
 10
0.0
 20
0.0
 30
0.0
  9
$PUCSORGBACK
 10
0.0
 20
0.0
 30
0.0
  9
$USERI1
 70
     0
  9
$USERI2
 70
     0
  9
$USERI3
 70
     0
  9
$USERI4
 70
     0
  9
$USERI5
 70
     0
  9
$USERR1
 40
0.0
  9
$USERR2
 40
0.0
  9
$USERR3
 40
0.0
  9
$USERR4
 40
0.0
  9
$USERR5
 40
0.0
  9
$WORLDVIEW
 70
     1
  9
$SHADEDGE
 70
     3
  9
$SHADEDIF
 70
    70
  9
$TILEMODE
 70
     1
  9
$MAXACTVP
 70
    48
  9
$PINSBASE
 10
0.0
 20
0.0
 30
0.0
  9
$PLIMCHECK
 70
     0
  9
$PEXTMIN
 10
1.000000000000000E+20
 20
1.000000000000000E+20
 30
1.000000000000000E+20
  9
$PEXTMAX
 10
-1.000000000000000E+20
 20
-1.000000000000000E+20
 30
-1.000000000000000E+20
  9
$PLIMMIN
 10
-117.3880621053551
 20
-1147.778930325621
  9
$PLIMMAX
 10
5873.875641303368
 20
3088.506753269061
  9
$UNITMODE
 70
     0
  9
$VISRETAIN
 70
     1
  9
$PLINEGEN
 70
     0
  9
$PSLTSCALE
 70
     1
  9
$TREEDEPTH
 70
  3020
  9
$CMLSTYLE
  2
STANDARD
  9
$CMLJUST
 70
     0
  9
$CMLSCALE
 40
1.0
  9
$PROXYGRAPHICS
 70
     1
  9
$MEASUREMENT
 70
     1
  9
$CELWEIGHT
370
    -1
  9
$ENDCAPS
280
     0
  9
$JOINSTYLE
280
     0
  9
$LWDISPLAY
290
     0
  9
$INSUNITS
 70
     0
  9
$HYPERLINKBASE
  1

  9
$STYLESHEET
  1
SANWA3.CTB
  9
$XEDIT
290
     1
  9
$CEPSNTYPE
380
     0
  9
$PSTYLEMODE
290
     1
  9
$FINGERPRINTGUID
  2
{FF69E217-7CBD-426C-8D1A-915AA093CE5F}
  9
$VERSIONGUID
  2
{8FAAAB8A-00FD-4753-844F-B7D11D42F223}
  9
$EXTNAMES
290
     1
  9
$PSVPSCALE
 40
0.0
  9
$OLESTARTUP
290
     0
  0
ENDSEC
  0
SECTION
  2
CLASSES
  0
CLASS
  1
LWPOLYLINE
  2
AcDbPolyline
  3
AutoCAD 2000
 90
    32768
280
     0
281
     1
  0
CLASS
  1
DICTIONARYVAR
  2
AcDbDictionaryVar
  3
AutoCAD 2000
 90
        0
280
     0
281
     0
  0
CLASS
  1
HATCH
  2
AcDbHatch
  3
AutoCAD 2000
 90
    32768
280
     0
281
     1
  0
CLASS
  1
ACDBDICTIONARYWDFLT
  2
AcDbDictionaryWithDefault
  3
AutoCAD 2000
 90
        0
280
     0
281
     0
  0
CLASS
  1
ACDBPLACEHOLDER
  2
AcDbPlaceHolder
  3
AutoCAD 2000
 90
        0
280
     0
281
     0
  0
CLASS
  1
LAYOUT
  2
AcDbLayout
  3
AutoCAD 2000
 90
        0
280
     0
281
     0
  0
ENDSEC
  0
SECTION
  2
TABLES
  0
TABLE
  2
VPORT
  5
746D
330
0
100
AcDbSymbolTable
 70
     2
  0
VPORT
  5
A42F
330
746D
100
AcDbSymbolTableRecord
100
AcDbViewportTableRecord
  2
*Active
 70
     0
 10
0.0
 20
0.0
 11
1.0
 21
1.0
 12
2227.534216203528
 22
1574.968119739966
 13
0.0
 23
0.0
 14
10.0
 24
10.0
 15
10.0
 25
10.0
 16
0.0
 26
0.0
 36
1.0
 17
0.0
 27
0.0
 37
0.0
 40
3227.798696601403
 41
1.391812865497076
 42
50.0
 43
0.0
 44
0.0
 50
0.0
 51
0.0
 71
     0
 72
   100
 73
     1
 74
     0
 75
     0
 76
     0
 77
     0
 78
     0
281
     0
 65
     1
110
0.0
120
0.0
130
0.0
111
1.0
121
0.0
131
0.0
112
0.0
122
1.0
132
0.0
 79
     0
146
0.0
  0
ENDTAB
  0
TABLE
  2
LTYPE
  5
746A
330
0
100
AcDbSymbolTable
 70
     5
  0
LTYPE
  5
7477
330
746A
100
AcDbSymbolTableRecord
100
AcDbLinetypeTableRecord
  2
BYBLOCK
 70
     0
  3

 72
    65
 73
     0
 40
0.0
  0
LTYPE
  5
7478
330
746A
100
AcDbSymbolTableRecord
100
AcDbLinetypeTableRecord
  2
BYLAYER
 70
     0
  3

 72
    65
 73
     0
 40
0.0
  0
LTYPE
  5
7479
330
746A
100
AcDbSymbolTableRecord
100
AcDbLinetypeTableRecord
  2
CONTINUOUS
 70
     0
  3
Solid line
 72
    65
 73
     0
 40
0.0
  0
LTYPE
  5
7D54
330
746A
100
AcDbSymbolTableRecord
100
AcDbLinetypeTableRecord
  2
CENTER2
 70
     0
  3
Center (.5x) ___ _ ___ _ ___ _ ___ _ ___ _ ___
 72
    65
 73
     4
 40
28.57499999999999
 49
19.05
 74
     0
 49
-3.174999999999998
 74
     0
 49
3.174999999999998
 74
     0
 49
-3.174999999999998
 74
     0
  0
LTYPE
  5
7D55
330
746A
100
AcDbSymbolTableRecord
100
AcDbLinetypeTableRecord
  2
DOT
 70
     0
  3
Dot . . . . . . . . . . . . . . . . . . . . . .
 72
    65
 73
     2
 40
6.349999999999998
 49
0.0
 74
     0
 49
-6.349999999999998
 74
     0
  0
LTYPE
  5
7D56
330
746A
100
AcDbSymbolTableRecord
100
AcDbLinetypeTableRecord
  2
HIDDEN2
 70
     0
  3
Hidden (.5x) _ _ _ _ _ _ _ _ _ _ _ _ _ _ _ _ _
 72
    65
 73
     2
 40
4.762499999999998
 49
3.174999999999998
 74
     0
 49
-1.587499999999999
 74
     0
  0
LTYPE
  5
7D57
330
746A
100
AcDbSymbolTableRecord
100
AcDbLinetypeTableRecord
  2
PHANTOM2
 70
     0
  3
Phantom (.5x) ___ _ _ ___ _ _ ___ _ _ ___ _ _
 72
    65
 73
     6
 40
31.75
 49
15.875
 74
     0
 49
-3.174999999999998
 74
     0
 49
3.174999999999998
 74
     0
 49
-3.174999999999998
 74
     0
 49
3.174999999999998
 74
     0
 49
-3.174999999999998
 74
     0
  0
ENDTAB
  0
TABLE
  2
LAYER
  5
7467
330
0
100
AcDbSymbolTable
 70
     7
  0
LAYER
  5
7474
330
7467
100
AcDbSymbolTableRecord
100
AcDbLayerTableRecord
  2
0
 70
     0
 62
     7
  6
CONTINUOUS
370
    -3
390
7F6A
  0
LAYER
  5
7485
330
7467
100
AcDbSymbolTableRecord
100
AcDbLayerTableRecord
  2
DEFPOINTS
 70
     0
 62
     7
  6
CONTINUOUS
290
     0
370
    -3
390
7F6A
  0
LAYER
  5
7486
330
7467
100
AcDbSymbolTableRecord
100
AcDbLayerTableRecord
  2
OBJECT
 70
     0
 62
     7
  6
CONTINUOUS
370
    -3
390
7F6A
  0
LAYER
  5
7950
330
7467
100
AcDbSymbolTableRecord
100
AcDbLayerTableRecord
  2
枠
 70
     0
 62
     3
  6
CONTINUOUS
370
    -3
390
7F6A
  0
LAYER
  5
7D58
330
7467
100
AcDbSymbolTableRecord
100
AcDbLayerTableRecord
  2
寸法引出
 70
     0
 62
     2
  6
CONTINUOUS
370
    -3
390
7F6A
  0
LAYER
  5
7D59
330
7467
100
AcDbSymbolTableRecord
100
AcDbLayerTableRecord
  2
鉄筋
 70
     0
 62
     4
  6
CONTINUOUS
370
    -3
390
7F6A
  0
LAYER
  5
7D5A
330
7467
100
AcDbSymbolTableRecord
100
AcDbLayerTableRecord
  2
補助線
 70
     0
 62
     6
  6
CONTINUOUS
370
    -3
390
7F6A
  0
ENDTAB
  0
TABLE
  2
STYLE
  5
7468
330
0
100
AcDbSymbolTable
 70
     4
  0
STYLE
  5
7475
330
7468
100
AcDbSymbolTableRecord
100
AcDbTextStyleTableRecord
  2
STANDARD
 70
     0
 40
0.0
 41
1.0
 50
0.0
 71
     0
 42
3.5
  3
txt
  4

  0
STYLE
  5
7481
330
7468
100
AcDbSymbolTableRecord
100
AcDbTextStyleTableRecord
  2
ADESK1
 70
     0
 40
0.0
 41
1.0
 50
0.0
 71
     0
 42
5.0
  3
romans
  4
bigfont
  0
STYLE
  5
7731
330
7468
100
AcDbSymbolTableRecord
100
AcDbTextStyleTableRecord
  2
SANWA
 70
     0
 40
0.0
 41
1.0
 50
0.0
 71
     0
 42
2.799999999999998
  3
MS Mincho.ttf
  4

1001
ACAD
1000
MS Mincho
1071
    32785
  0
STYLE
  5
7D45
330
7468
100
AcDbSymbolTableRecord
100
AcDbTextStyleTableRecord
  2

 70
     1
 40
0.0
 41
1.0
 50
0.0
 71
     0
 42
3.5
  3
ltypeshp.shx
  4

  0
ENDTAB
  0
TABLE
  2
VIEW
  5
746B
330
0
100
AcDbSymbolTable
 70
     0
  0
ENDTAB
  0
TABLE
  2
UCS
  5
746C
330
0
100
AcDbSymbolTable
 70
     0
  0
ENDTAB
  0
TABLE
  2
APPID
  5
746E
330
0
100
AcDbSymbolTable
 70
     2
  0
APPID
  5
7476
330
746E
100
AcDbSymbolTableRecord
100
AcDbRegAppTableRecord
  2
ACAD
 70
     0
  0
APPID
  5
A207
330
746E
100
AcDbSymbolTableRecord
100
AcDbRegAppTableRecord
  2
DCO15
 70
     0
  0
ENDTAB
  0
TABLE
  2
DIMSTYLE
  5
746F
330
0
100
AcDbSymbolTable
 70
     4
100
AcDbDimStyleTable
 71
     1
340
796F
  0
DIMSTYLE
105
7484
330
746F
100
AcDbSymbolTableRecord
100
AcDbDimStyleTableRecord
  2
JIS
 70
     0
 41
2.5
 42
1.0
 43
7.0
 44
1.0
 73
     0
 74
     0
 77
     1
 78
     8
140
2.5
141
0.0
143
0.0394
147
0.0
172
     1
174
     1
176
     2
177
     2
178
     2
340
7731
  0
DIMSTYLE
105
796F
102
{ACAD_REACTORS
330
88FD
330
8917
330
8926
330
898D
330
899A
330
89A9
330
8A12
330
8CB4
330
8CC3
330
8CD0
330
8D89
330
8D96
330
8DA3
330
9083
330
9202
330
9241
330
9250
330
925F
330
928F
330
9C5F
330
9C6C
330
9C7B
330
9C88
330
9C97
330
9F4A
330
9F6F
330
A1B6
330
A1C3
330
A1D2
102
}
330
746F
100
AcDbSymbolTableRecord
100
AcDbDimStyleTableRecord
  2
SANWA
 70
     0
 41
2.5
 42
1.0
 43
7.0
 44
1.0
 73
     0
 74
     0
 77
     1
 78
     8
140
2.5
141
0.0
143
0.0394
147
0.0
172
     1
174
     1
176
     2
177
     2
178
     2
340
7731
  0
DIMSTYLE
105
7C9D
330
746F
100
AcDbSymbolTableRecord
100
AcDbDimStyleTableRecord
  2
SANWA$4
 70
     0
 41
2.5
 42
1.0
 43
5.0
 44
1.0
 73
     0
 74
     0
 77
     1
 78
     8
140
2.5
141
0.0
143
0.0394
147
1.0
172
     1
174
     1
176
     2
177
     2
178
     2
289
     2
340
7731
  0
DIMSTYLE
105
7CB5
330
746F
100
AcDbSymbolTableRecord
100
AcDbDimStyleTableRecord
  2
SANWA$3
 70
     0
 41
2.5
 42
1.0
 43
7.0
 44
1.0
 73
     0
 74
     0
 77
     1
 78
     8
140
2.5
141
0.0
143
0.0394
147
0.0
172
     1
174
     1
176
     2
177
     2
178
     2
289
     0
340
7731
  0
ENDTAB
  0
TABLE
  2
BLOCK_RECORD
  5
7466
330
0
100
AcDbSymbolTable
 70
    35
  0
BLOCK_RECORD
  5
747D
330
7466
100
AcDbSymbolTableRecord
100
AcDbBlockTableRecord
  2
*MODEL_SPACE
340
7F6D
  0
BLOCK_RECORD
  5
747A
330
7466
100
AcDbSymbolTableRecord
100
AcDbBlockTableRecord
  2
*PAPER_SPACE
340
7F6E
  0
BLOCK_RECORD
  5
7493
330
7466
100
AcDbSymbolTableRecord
100
AcDbBlockTableRecord
  2
TITLE_BLOCK
340
0
  0
BLOCK_RECORD
  5
88FE
330
7466
100
AcDbSymbolTableRecord
100
AcDbBlockTableRecord
  2
*D1
340
0
  0
BLOCK_RECORD
  5
8918
330
7466
100
AcDbSymbolTableRecord
100
AcDbBlockTableRecord
  2
*D2
340
0
  0
BLOCK_RECORD
  5
8927
330
7466
100
AcDbSymbolTableRecord
100
AcDbBlockTableRecord
  2
*D3
340
0
  0
BLOCK_RECORD
  5
898E
330
7466
100
AcDbSymbolTableRecord
100
AcDbBlockTableRecord
  2
*D4
340
0
  0
BLOCK_RECORD
  5
899B
330
7466
100
AcDbSymbolTableRecord
100
AcDbBlockTableRecord
  2
*D5
340
0
  0
BLOCK_RECORD
  5
89AA
330
7466
100
AcDbSymbolTableRecord
100
AcDbBlockTableRecord
  2
*D6
340
0
  0
BLOCK_RECORD
  5
8A13
330
7466
100
AcDbSymbolTableRecord
100
AcDbBlockTableRecord
  2
*D7
340
0
  0
BLOCK_RECORD
  5
8CB5
330
7466
100
AcDbSymbolTableRecord
100
AcDbBlockTableRecord
  2
*D8
340
0
  0
BLOCK_RECORD
  5
8CC4
330
7466
100
AcDbSymbolTableRecord
100
AcDbBlockTableRecord
  2
*D9
340
0
  0
BLOCK_RECORD
  5
8CD1
330
7466
100
AcDbSymbolTableRecord
100
AcDbBlockTableRecord
  2
*D10
340
0
  0
BLOCK_RECORD
  5
8D8A
330
7466
100
AcDbSymbolTableRecord
100
AcDbBlockTableRecord
  2
*D11
340
0
  0
BLOCK_RECORD
  5
8D97
330
7466
100
AcDbSymbolTableRecord
100
AcDbBlockTableRecord
  2
*D12
340
0
  0
BLOCK_RECORD
  5
8DA4
330
7466
100
AcDbSymbolTableRecord
100
AcDbBlockTableRecord
  2
*D13
340
0
  0
BLOCK_RECORD
  5
8F2C
330
7466
100
AcDbSymbolTableRecord
100
AcDbBlockTableRecord
  2
*D14
340
0
  0
BLOCK_RECORD
  5
9077
330
7466
100
AcDbSymbolTableRecord
100
AcDbBlockTableRecord
  2
*D15
340
0
  0
BLOCK_RECORD
  5
9084
330
7466
100
AcDbSymbolTableRecord
100
AcDbBlockTableRecord
  2
*D16
340
0
  0
BLOCK_RECORD
  5
9203
330
7466
100
AcDbSymbolTableRecord
100
AcDbBlockTableRecord
  2
*D17
340
0
  0
BLOCK_RECORD
  5
9242
330
7466
100
AcDbSymbolTableRecord
100
AcDbBlockTableRecord
  2
*D18
340
0
  0
BLOCK_RECORD
  5
9251
330
7466
100
AcDbSymbolTableRecord
100
AcDbBlockTableRecord
  2
*D19
340
0
  0
BLOCK_RECORD
  5
9260
330
7466
100
AcDbSymbolTableRecord
100
AcDbBlockTableRecord
  2
*D20
340
0
  0
BLOCK_RECORD
  5
9290
330
7466
100
AcDbSymbolTableRecord
100
AcDbBlockTableRecord
  2
*D21
340
0
  0
BLOCK_RECORD
  5
9C60
330
7466
100
AcDbSymbolTableRecord
100
AcDbBlockTableRecord
  2
*D22
340
0
  0
BLOCK_RECORD
  5
9C6D
330
7466
100
AcDbSymbolTableRecord
100
AcDbBlockTableRecord
  2
*D23
340
0
  0
BLOCK_RECORD
  5
9C7C
330
7466
100
AcDbSymbolTableRecord
100
AcDbBlockTableRecord
  2
*D24
340
0
  0
BLOCK_RECORD
  5
9C89
330
7466
100
AcDbSymbolTableRecord
100
AcDbBlockTableRecord
  2
*D25
340
0
  0
BLOCK_RECORD
  5
9C98
330
7466
100
AcDbSymbolTableRecord
100
AcDbBlockTableRecord
  2
*D26
340
0
  0
BLOCK_RECORD
  5
9E05
330
7466
100
AcDbSymbolTableRecord
100
AcDbBlockTableRecord
  2
*D27
340
0
  0
BLOCK_RECORD
  5
9E12
330
7466
100
AcDbSymbolTableRecord
100
AcDbBlockTableRecord
  2
*D28
340
0
  0
BLOCK_RECORD
  5
9F4B
330
7466
100
AcDbSymbolTableRecord
100
AcDbBlockTableRecord
  2
*D29
340
0
  0
BLOCK_RECORD
  5
9F70
330
7466
100
AcDbSymbolTableRecord
100
AcDbBlockTableRecord
  2
*D30
340
0
  0
BLOCK_RECORD
  5
A142
330
7466
100
AcDbSymbolTableRecord
100
AcDbBlockTableRecord
  2
*D31
340
0
  0
BLOCK_RECORD
  5
A1B7
330
7466
100
AcDbSymbolTableRecord
100
AcDbBlockTableRecord
  2
*D32
340
0
  0
BLOCK_RECORD
  5
A1C4
330
7466
100
AcDbSymbolTableRecord
100
AcDbBlockTableRecord
  2
*D33
340
0
  0
BLOCK_RECORD
  5
A1D3
330
7466
100
AcDbSymbolTableRecord
100
AcDbBlockTableRecord
  2
*D34
340
0
  0
ENDTAB
  0
ENDSEC
  0
SECTION
  2
BLOCKS
  0
BLOCK
  5
7489
330
747D
100
AcDbEntity
  8
0
100
AcDbBlockBegin
  2
*MODEL_SPACE
 70
     0
 10
0.0
 20
0.0
 30
0.0
  3
*MODEL_SPACE
  1

  0
ENDBLK
  5
748A
330
747D
100
AcDbEntity
  8
0
100
AcDbBlockEnd
  0
BLOCK
  5
7487
330
747A
100
AcDbEntity
 67
     1
  8
0
100
AcDbBlockBegin
  2
*PAPER_SPACE
 70
     2
 10
0.0
 20
0.0
 30
0.0
  3
*PAPER_SPACE
  1

  0
ENDBLK
  5
7488
330
747A
100
AcDbEntity
 67
     1
  8
0
100
AcDbBlockEnd
  0
BLOCK
  5
7494
330
7493
100
AcDbEntity
  8
0
100
AcDbBlockBegin
  2
TITLE_BLOCK
 70
     2
 10
0.0
 20
0.0
 30
0.0
  3
TITLE_BLOCK
  1

  0
LINE
  5
7495
330
7493
100
AcDbEntity
  8
0
 62
     0
100
AcDbLine
 10
402.7943262411347
 20
16.00000000000008
 30
0.0
 11
410.0
 21
16.00000000000008
 31
0.0
  0
LINE
  5
7496
330
7493
100
AcDbEntity
  8
0
 62
     0
100
AcDbLine
 10
410.0
 20
10.0
 30
0.0
 11
410.0
 21
49.00000000000036
 31
0.0
  0
LINE
  5
7497
330
7493
100
AcDbEntity
  8
0
 62
     0
100
AcDbLine
 10
410.0
 20
49.00000000000036
 30
0.0
 11
410.0
 21
10.0
 31
0.0
  0
LINE
  5
7498
330
7493
100
AcDbEntity
  8
0
 62
     0
100
AcDbLine
 10
402.7943262411347
 20
22.00000000000012
 30
0.0
 11
402.7943262411347
 21
10.0
 31
0.0
  0
LINE
  5
7499
330
7493
100
AcDbEntity
  8
0
 62
     0
100
AcDbLine
 10
336.1418439716306
 20
49.00000000000036
 30
0.0
 11
336.1418439716306
 21
22.00000000000012
 31
0.0
  0
LINE
  5
749A
330
7493
100
AcDbEntity
  8
0
 62
     0
100
AcDbLine
 10
325.3333333333324
 20
37.00000000000024
 30
0.0
 11
325.3333333333324
 21
25.00000000000012
 31
0.0
  0
LINE
  5
749B
330
7493
100
AcDbEntity
  8
0
 62
     0
100
AcDbLine
 10
318.1276595744673
 20
49.00000000000036
 30
0.0
 11
318.1276595744673
 21
25.00000000000012
 31
0.0
  0
LINE
  5
749C
330
7493
100
AcDbEntity
  8
0
 62
     0
100
AcDbLine
 10
318.1276595744673
 20
25.00000000000012
 30
0.0
 11
348.7517730496447
 21
25.00000000000012
 31
0.0
  0
LINE
  5
749D
330
7493
100
AcDbEntity
  8
0
 62
     0
100
AcDbLine
 10
280.297872340424
 20
28.00000000000014
 30
0.0
 11
348.7517730496447
 21
28.00000000000014
 31
0.0
  0
LINE
  5
749E
330
7493
100
AcDbEntity
  8
0
 62
     0
100
AcDbLine
 10
280.297872340424
 20
31.0000000000002
 30
0.0
 11
348.7517730496447
 21
31.0000000000002
 31
0.0
  0
LINE
  5
749F
330
7493
100
AcDbEntity
  8
0
 62
     0
100
AcDbLine
 10
280.297872340424
 20
34.00000000000024
 30
0.0
 11
348.7517730496447
 21
34.00000000000024
 31
0.0
  0
LINE
  5
74A0
330
7493
100
AcDbEntity
  8
0
 62
     0
100
AcDbLine
 10
280.297872340424
 20
19.00000000000006
 30
0.0
 11
318.1276595744673
 21
19.00000000000012
 31
0.0
  0
LINE
  5
74A1
330
7493
100
AcDbEntity
  8
0
 62
     0
100
AcDbLine
 10
280.297872340424
 20
22.00000000000007
 30
0.0
 11
318.1276595744673
 21
22.00000000000012
 31
0.0
  0
LINE
  5
74A2
330
7493
100
AcDbEntity
  8
0
 62
     0
100
AcDbLine
 10
280.297872340424
 20
25.00000000000012
 30
0.0
 11
318.1276595744673
 21
25.00000000000012
 31
0.0
  0
TEXT
  5
74A3
330
7493
100
AcDbEntity
  8
0
 62
     0
100
AcDbText
 10
342.2447163844405
 20
10.55220101068185
 30
0.0
 40
1.791674070777746
  1
照査
  7
ADESK1
 72
     1
 11
344.1558353932701
 21
10.55220101068185
 31
0.0
100
AcDbText
  0
TEXT
  5
74A4
330
7493
100
AcDbEntity
  8
0
 62
     0
100
AcDbText
 10
332.2960689314087
 20
10.48329012996928
 30
0.0
 40
1.791674070777746
  1
設計
  7
ADESK1
 72
     1
 11
334.2071879402383
 21
10.48329012996928
 31
0.0
100
AcDbText
  0
TEXT
  5
74A5
330
7493
100
AcDbEntity
  8
0
 62
     0
100
AcDbText
 10
321.7174935280942
 20
10.48329012996928
 30
0.0
 40
1.791674070777746
  1
製図
  7
ADESK1
 72
     1
 11
323.5688900678979
 21
10.48329012996928
 31
0.0
100
AcDbText
  0
LINE
  5
74A6
330
7493
100
AcDbEntity
  8
0
 62
     0
100
AcDbLine
 10
280.297872340424
 20
10.0
 30
0.0
 11
280.297872340424
 21
13.00000000000003
 31
0.0
  0
LINE
  5
74A7
330
7493
100
AcDbEntity
  8
0
 62
     0
100
AcDbLine
 10
280.297872340424
 20
16.00000000000008
 30
0.0
 11
318.1276595744673
 21
16.00000000000008
 31
0.0
  0
LINE
  5
74A8
330
7493
100
AcDbEntity
  8
0
 62
     0
100
AcDbLine
 10
339.4042553191483
 20
22.00000000000007
 30
0.0
 11
339.4042553191483
 21
10.0
 31
0.0
  0
LINE
  5
74A9
330
7493
100
AcDbEntity
  8
0
 62
     0
100
AcDbLine
 10
328.7659574468076
 20
22.00000000000007
 30
0.0
 11
328.7659574468076
 21
10.0
 31
0.0
  0
LINE
  5
74AA
330
7493
100
AcDbEntity
  8
0
 62
     0
100
AcDbLine
 10
348.7517730496447
 20
49.00000000000036
 30
0.0
 11
348.7517730496447
 21
10.0
 31
0.0
  0
LINE
  5
74AB
330
7493
100
AcDbEntity
  8
0
 62
     0
100
AcDbLine
 10
280.297872340424
 20
49.00000000000036
 30
0.0
 11
280.297872340424
 21
10.0
 31
0.0
  0
LINE
  5
74AC
330
7493
100
AcDbEntity
  8
0
 62
     0
100
AcDbLine
 10
318.1276595744673
 20
25.00000000000012
 30
0.0
 11
318.1276595744673
 21
10.0
 31
0.0
  0
LINE
  5
74AD
330
7493
100
AcDbEntity
  8
0
 62
     0
100
AcDbLine
 10
312.7234042553183
 20
37.00000000000024
 30
0.0
 11
312.7234042553183
 21
10.0
 31
0.0
  0
LINE
  5
74AE
330
7493
100
AcDbEntity
  8
0
 62
     0
100
AcDbLine
 10
285.7021276595729
 20
37.00000000000024
 30
0.0
 11
285.7021276595729
 21
10.0
 31
0.0
  0
LINE
  5
74AF
330
7493
100
AcDbEntity
  8
0
 62
     0
100
AcDbLine
 10
303.7163120567365
 20
37.00000000000024
 30
0.0
 11
303.7163120567365
 21
10.0
 31
0.0
  0
LINE
  5
74B0
330
7493
100
AcDbEntity
  8
0
 62
     0
100
AcDbLine
 10
410.0
 20
49.00000000000036
 30
0.0
 11
280.297872340424
 21
49.00000000000036
 31
0.0
  0
LINE
  5
74B1
330
7493
100
AcDbEntity
  8
0
 62
     0
100
AcDbLine
 10
280.297872340424
 20
10.0
 30
0.0
 11
410.0
 21
10.0
 31
0.0
  0
LINE
  5
74B2
330
7493
100
AcDbEntity
  8
0
 62
     0
100
AcDbLine
 10
318.1276595744673
 20
22.00000000000012
 30
0.0
 11
410.0
 21
22.00000000000012
 31
0.0
  0
LINE
  5
74B3
330
7493
100
AcDbEntity
  8
0
 62
     0
100
AcDbLine
 10
280.297872340424
 20
37.00000000000024
 30
0.0
 11
410.0
 21
37.00000000000024
 31
0.0
  0
LINE
  5
74B4
330
7493
100
AcDbEntity
  8
0
 62
     0
100
AcDbLine
 10
280.297872340424
 20
13.00000000000003
 30
0.0
 11
410.0
 21
13.00000000000003
 31
0.0
  0
LINE
  5
74B5
330
7493
100
AcDbEntity
  8
0
 62
     0
100
AcDbLine
 10
280.297872340424
 20
49.00000000000036
 30
0.0
 11
410.0
 21
49.00000000000036
 31
0.0
  0
TEXT
  5
74B6
330
7493
100
AcDbEntity
  8
0
100
AcDbText
 10
411.3708251683467
 20
33.08333333333334
 30
0.0
 40
3.0
  1
F
  7
ADESK1
 72
     1
 11
412.8708251683468
 21
33.08333333333334
 31
0.0
100
AcDbText
  0
TEXT
  5
74B7
330
7493
100
AcDbEntity
  8
0
100
AcDbText
 10
411.3708251683467
 20
79.25
 30
0.0
 40
3.0
  1
E
  7
ADESK1
 72
     1
 11
412.8708251683468
 21
79.25
 31
0.0
100
AcDbText
  0
TEXT
  5
74B8
330
7493
100
AcDbEntity
  8
0
100
AcDbText
 10
411.2993965969182
 20
125.4166666666665
 30
0.0
 40
3.0
  1
D
  7
ADESK1
 72
     1
 11
412.8708251683468
 21
125.4166666666665
 31
0.0
100
AcDbText
  0
TEXT
  5
74B9
330
7493
100
AcDbEntity
  8
0
100
AcDbText
 10
411.3708251683467
 20
171.5833333333333
 30
0.0
 40
3.0
  1
C
  7
ADESK1
 72
     1
 11
412.8708251683468
 21
171.5833333333333
 31
0.0
100
AcDbText
  0
TEXT
  5
74BA
330
7493
100
AcDbEntity
  8
0
100
AcDbText
 10
411.2993965969182
 20
217.7499999999999
 30
0.0
 40
3.0
  1
B
  7
ADESK1
 72
     1
 11
412.8708251683468
 21
217.7499999999999
 31
0.0
100
AcDbText
  0
TEXT
  5
74BB
330
7493
100
AcDbEntity
  8
0
100
AcDbText
 10
411.5851108826324
 20
263.9166666666666
 30
0.0
 40
3.0
  1
A
  7
ADESK1
 72
     1
 11
412.8708251683468
 21
263.9166666666666
 31
0.0
100
AcDbText
  0
TEXT
  5
74BC
330
7493
100
AcDbEntity
  8
0
100
AcDbText
 10
384.5089285714285
 20
6.019997240728746
 30
0.0
 40
3.0
  1
8
  7
ADESK1
 72
     1
 11
385.9375
 21
6.019997240728746
 31
0.0
100
AcDbText
  0
TEXT
  5
74BD
330
7493
100
AcDbEntity
  8
0
100
AcDbText
 10
336.3839285714285
 20
6.019997240728746
 30
0.0
 40
3.0
  1
7
  7
ADESK1
 72
     1
 11
337.8125
 21
6.019997240728746
 31
0.0
100
AcDbText
  0
TEXT
  5
74BE
330
7493
100
AcDbEntity
  8
0
100
AcDbText
 10
288.1874999999999
 20
6.019997240728746
 30
0.0
 40
3.0
  1
6
  7
ADESK1
 72
     1
 11
289.6875
 21
6.019997240728746
 31
0.0
100
AcDbText
  0
TEXT
  5
74BF
330
7493
100
AcDbEntity
  8
0
100
AcDbText
 10
240.1339285714285
 20
6.019997240728746
 30
0.0
 40
3.0
  1
5
  7
ADESK1
 72
     1
 11
241.5624999999999
 21
6.019997240728746
 31
0.0
100
AcDbText
  0
TEXT
  5
74C0
330
7493
100
AcDbEntity
  8
0
100
AcDbText
 10
191.9375
 20
6.019997240728746
 30
0.0
 40
3.0
  1
4
  7
ADESK1
 72
     1
 11
193.4375
 21
6.019997240728746
 31
0.0
100
AcDbText
  0
TEXT
  5
74C1
330
7493
100
AcDbEntity
  8
0
100
AcDbText
 10
143.8839285714285
 20
6.019997240728746
 30
0.0
 40
3.0
  1
3
  7
ADESK1
 72
     1
 11
145.3125
 21
6.019997240728746
 31
0.0
100
AcDbText
  0
TEXT
  5
74C2
330
7493
100
AcDbEntity
  8
0
100
AcDbText
 10
95.75892857142857
 20
6.019997240728746
 30
0.0
 40
3.0
  1
2
  7
ADESK1
 72
     1
 11
97.1875
 21
6.019997240728746
 31
0.0
100
AcDbText
  0
TEXT
  5
74C3
330
7493
100
AcDbEntity
  8
0
100
AcDbText
 10
47.84821428571429
 20
6.019997240728746
 30
0.0
 40
3.0
  1
1
  7
ADESK1
 72
     1
 11
49.0625
 21
6.019997240728746
 31
0.0
100
AcDbText
  0
TEXT
  5
74C4
330
7493
100
AcDbEntity
  8
0
100
AcDbText
 10
21.10716135953389
 20
33.08333333333334
 30
0.0
 40
3.0
  1
F
  7
ADESK1
 72
     1
 11
22.60716135953388
 21
33.08333333333334
 31
0.0
100
AcDbText
  0
TEXT
  5
74C5
330
7493
100
AcDbEntity
  8
0
100
AcDbText
 10
21.10716135953389
 20
79.25
 30
0.0
 40
3.0
  1
E
  7
ADESK1
 72
     1
 11
22.60716135953388
 21
79.25
 31
0.0
100
AcDbText
  0
TEXT
  5
74C6
330
7493
100
AcDbEntity
  8
0
100
AcDbText
 10
21.03573278810532
 20
125.4166666666665
 30
0.0
 40
3.0
  1
D
  7
ADESK1
 72
     1
 11
22.60716135953388
 21
125.4166666666665
 31
0.0
100
AcDbText
  0
TEXT
  5
74C7
330
7493
100
AcDbEntity
  8
0
100
AcDbText
 10
21.10716135953389
 20
171.5833333333333
 30
0.0
 40
3.0
  1
C
  7
ADESK1
 72
     1
 11
22.60716135953388
 21
171.5833333333333
 31
0.0
100
AcDbText
  0
TEXT
  5
74C8
330
7493
100
AcDbEntity
  8
0
100
AcDbText
 10
21.03573278810532
 20
217.7499999999999
 30
0.0
 40
3.0
  1
B
  7
ADESK1
 72
     1
 11
22.60716135953388
 21
217.7499999999999
 31
0.0
100
AcDbText
  0
TEXT
  5
74C9
330
7493
100
AcDbEntity
  8
0
100
AcDbText
 10
384.5089285714285
 20
288.0
 30
0.0
 40
3.0
  1
8
  7
ADESK1
 72
     1
 11
385.9375
 21
288.0
 31
0.0
100
AcDbText
  0
TEXT
  5
74CA
330
7493
100
AcDbEntity
  8
0
100
AcDbText
 10
336.3839285714285
 20
288.0
 30
0.0
 40
3.0
  1
7
  7
ADESK1
 72
     1
 11
337.8125
 21
288.0
 31
0.0
100
AcDbText
  0
TEXT
  5
74CB
330
7493
100
AcDbEntity
  8
0
100
AcDbText
 10
288.1874999999999
 20
288.0
 30
0.0
 40
3.0
  1
6
  7
ADESK1
 72
     1
 11
289.6875
 21
288.0
 31
0.0
100
AcDbText
  0
TEXT
  5
74CC
330
7493
100
AcDbEntity
  8
0
100
AcDbText
 10
240.1339285714285
 20
288.0
 30
0.0
 40
3.0
  1
5
  7
ADESK1
 72
     1
 11
241.5624999999999
 21
288.0
 31
0.0
100
AcDbText
  0
TEXT
  5
74CD
330
7493
100
AcDbEntity
  8
0
100
AcDbText
 10
191.9375
 20
288.0
 30
0.0
 40
3.0
  1
4
  7
ADESK1
 72
     1
 11
193.4375
 21
288.0
 31
0.0
100
AcDbText
  0
TEXT
  5
74CE
330
7493
100
AcDbEntity
  8
0
100
AcDbText
 10
143.8839285714285
 20
288.0
 30
0.0
 40
3.0
  1
3
  7
ADESK1
 72
     1
 11
145.3125
 21
288.0
 31
0.0
100
AcDbText
  0
TEXT
  5
74CF
330
7493
100
AcDbEntity
  8
0
100
AcDbText
 10
95.75892857142857
 20
288.0
 30
0.0
 40
3.0
  1
2
  7
ADESK1
 72
     1
 11
97.1875
 21
288.0
 31
0.0
100
AcDbText
  0
TEXT
  5
74D0
330
7493
100
AcDbEntity
  8
0
100
AcDbText
 10
21.3214470738196
 20
263.9166666666666
 30
0.0
 40
3.0
  1
A
  7
ADESK1
 72
     1
 11
22.60716135953388
 21
263.9166666666666
 31
0.0
100
AcDbText
  0
TEXT
  5
74D1
330
7493
100
AcDbEntity
  8
0
100
AcDbText
 10
47.84821428571429
 20
288.0
 30
0.0
 40
3.0
  1
1
  7
ADESK1
 72
     1
 11
49.0625
 21
288.0
 31
0.0
100
AcDbText
  0
LINE
  5
74D2
330
7493
100
AcDbEntity
  8
0
100
AcDbLine
 10
73.125
 20
287.0
 30
0.0
 11
73.125
 21
292.0
 31
0.0
  0
LINE
  5
74D3
330
7493
100
AcDbEntity
  8
0
100
AcDbLine
 10
121.25
 20
287.0
 30
0.0
 11
121.25
 21
292.0
 31
0.0
  0
LINE
  5
74D4
330
7493
100
AcDbEntity
  8
0
100
AcDbLine
 10
169.375
 20
287.0
 30
0.0
 11
169.375
 21
292.0
 31
0.0
  0
LINE
  5
74D5
330
7493
100
AcDbEntity
  8
0
100
AcDbLine
 10
217.5
 20
287.0
 30
0.0
 11
217.5
 21
292.0
 31
0.0
  0
LINE
  5
74D6
330
7493
100
AcDbEntity
  8
0
100
AcDbLine
 10
265.625
 20
287.0
 30
0.0
 11
265.625
 21
292.0
 31
0.0
  0
LINE
  5
74D7
330
7493
100
AcDbEntity
  8
0
100
AcDbLine
 10
313.75
 20
287.0
 30
0.0
 11
313.75
 21
292.0
 31
0.0
  0
LINE
  5
74D8
330
7493
100
AcDbEntity
  8
0
100
AcDbLine
 10
361.8749999999998
 20
287.0
 30
0.0
 11
361.8749999999998
 21
292.0
 31
0.0
  0
LINE
  5
74D9
330
7493
100
AcDbEntity
  8
0
100
AcDbLine
 10
361.8749999999998
 20
10.0
 30
0.0
 11
361.8749999999998
 21
5.0
 31
0.0
  0
LINE
  5
74DA
330
7493
100
AcDbEntity
  8
0
100
AcDbLine
 10
313.75
 20
10.0
 30
0.0
 11
313.75
 21
5.0
 31
0.0
  0
LINE
  5
74DB
330
7493
100
AcDbEntity
  8
0
100
AcDbLine
 10
265.625
 20
10.0
 30
0.0
 11
265.625
 21
5.0
 31
0.0
  0
LINE
  5
74DC
330
7493
100
AcDbEntity
  8
0
100
AcDbLine
 10
217.5
 20
10.0
 30
0.0
 11
217.5
 21
5.0
 31
0.0
  0
LINE
  5
74DD
330
7493
100
AcDbEntity
  8
0
100
AcDbLine
 10
169.375
 20
10.0
 30
0.0
 11
169.375
 21
5.0
 31
0.0
  0
LINE
  5
74DE
330
7493
100
AcDbEntity
  8
0
100
AcDbLine
 10
121.25
 20
10.0
 30
0.0
 11
121.25
 21
5.0
 31
0.0
  0
LINE
  5
74DF
330
7493
100
AcDbEntity
  8
0
100
AcDbLine
 10
73.125
 20
10.0
 30
0.0
 11
73.125
 21
5.0
 31
0.0
  0
LINE
  5
74E0
330
7493
100
AcDbEntity
  8
0
100
AcDbLine
 10
410.0
 20
240.8333333333333
 30
0.0
 11
415.0
 21
240.8333333333333
 31
0.0
  0
LINE
  5
74E1
330
7493
100
AcDbEntity
  8
0
100
AcDbLine
 10
410.0
 20
194.6666666666667
 30
0.0
 11
415.0
 21
194.6666666666667
 31
0.0
  0
LINE
  5
74E2
330
7493
100
AcDbEntity
  8
0
100
AcDbLine
 10
410.0
 20
148.5
 30
0.0
 11
415.0
 21
148.5
 31
0.0
  0
LINE
  5
74E3
330
7493
100
AcDbEntity
  8
0
100
AcDbLine
 10
410.0
 20
102.3333333333332
 30
0.0
 11
415.0
 21
102.3333333333332
 31
0.0
  0
LINE
  5
74E4
330
7493
100
AcDbEntity
  8
0
100
AcDbLine
 10
410.0
 20
56.16666666666668
 30
0.0
 11
415.0
 21
56.16666666666668
 31
0.0
  0
LINE
  5
74E5
330
7493
100
AcDbEntity
  8
0
100
AcDbLine
 10
25.0
 20
56.16666666666667
 30
0.0
 11
20.0
 21
56.16666666666667
 31
0.0
  0
LINE
  5
74E6
330
7493
100
AcDbEntity
  8
0
100
AcDbLine
 10
25.0
 20
102.3333333333332
 30
0.0
 11
20.0
 21
102.3333333333332
 31
0.0
  0
LINE
  5
74E7
330
7493
100
AcDbEntity
  8
0
100
AcDbLine
 10
25.0
 20
148.5
 30
0.0
 11
20.0
 21
148.5
 31
0.0
  0
LINE
  5
74E8
330
7493
100
AcDbEntity
  8
0
100
AcDbLine
 10
25.0
 20
194.6666666666666
 30
0.0
 11
20.0
 21
194.6666666666666
 31
0.0
  0
LINE
  5
74E9
330
7493
100
AcDbEntity
  8
0
100
AcDbLine
 10
25.0
 20
240.8333333333333
 30
0.0
 11
20.0
 21
240.8333333333333
 31
0.0
  0
TEXT
  5
74EA
330
7493
100
AcDbEntity
  8
0
100
AcDbText
 10
1.0
 20
1.0
 30
0.0
 40
3.0
  1
この図枠はサンプルです。社内の規格やプロッタの出力範囲に合わせて適当に変更してご利用ください。
  7
ADESK1
100
AcDbText
  0
LINE
  5
74EB
330
7493
100
AcDbEntity
  8
0
100
AcDbLine
 10
25.0
 20
148.5
 30
0.0
 11
0.0
 21
148.5
 31
0.0
  0
LINE
  5
74EC
330
7493
100
AcDbEntity
  8
0
100
AcDbLine
 10
410.0
 20
148.5
 30
0.0
 11
420.0
 21
148.5
 31
0.0
  0
LINE
  5
74ED
330
7493
100
AcDbEntity
  8
0
100
AcDbLine
 10
217.5
 20
287.0
 30
0.0
 11
217.5
 21
297.0
 31
0.0
  0
LINE
  5
74EE
330
7493
100
AcDbEntity
  8
0
100
AcDbLine
 10
217.5
 20
10.0
 30
0.0
 11
217.5
 21
0.0
 31
0.0
  0
LINE
  5
74EF
330
7493
100
AcDbEntity
  8
OBJECT
100
AcDbLine
 10
130.0
 20
40.0
 30
0.0
 11
130.0
 21
10.0
 31
0.0
  0
LINE
  5
74F0
330
7493
100
AcDbEntity
  8
OBJECT
100
AcDbLine
 10
120.0
 20
10.0
 30
0.0
 11
120.0
 21
40.0
 31
0.0
  0
LINE
  5
74F1
330
7493
100
AcDbEntity
  8
OBJECT
100
AcDbLine
 10
44.5
 20
37.0
 30
0.0
 11
45.49999999999999
 21
37.0
 31
0.0
  0
LINE
  5
74F2
330
7493
100
AcDbEntity
  8
OBJECT
100
AcDbLine
 10
44.5
 20
31.0
 30
0.0
 11
45.49999999999999
 21
31.0
 31
0.0
  0
LINE
  5
74F3
330
7493
100
AcDbEntity
  8
OBJECT
100
AcDbLine
 10
39.5
 20
37.0
 30
0.0
 11
40.49999999999999
 21
37.0
 31
0.0
  0
LINE
  5
74F4
330
7493
100
AcDbEntity
  8
OBJECT
100
AcDbLine
 10
39.5
 20
31.0
 30
0.0
 11
40.49999999999999
 21
31.0
 31
0.0
  0
LINE
  5
74F5
330
7493
100
AcDbEntity
  8
OBJECT
100
AcDbLine
 10
44.5
 20
25.0
 30
0.0
 11
45.49999999999999
 21
25.0
 31
0.0
  0
LINE
  5
74F6
330
7493
100
AcDbEntity
  8
OBJECT
100
AcDbLine
 10
39.5
 20
25.0
 30
0.0
 11
40.49999999999999
 21
25.0
 31
0.0
  0
LINE
  5
74F7
330
7493
100
AcDbEntity
  8
OBJECT
100
AcDbLine
 10
44.5
 20
19.0
 30
0.0
 11
45.49999999999999
 21
19.0
 31
0.0
  0
LINE
  5
74F8
330
7493
100
AcDbEntity
  8
OBJECT
100
AcDbLine
 10
39.5
 20
19.0
 30
0.0
 11
40.49999999999999
 21
19.0
 31
0.0
  0
LINE
  5
74F9
330
7493
100
AcDbEntity
  8
OBJECT
100
AcDbLine
 10
28.0
 20
29.53589799999999
 30
0.0
 11
30.0
 21
33.0
 31
0.0
  0
LINE
  5
74FA
330
7493
100
AcDbEntity
  8
OBJECT
100
AcDbLine
 10
28.0
 20
29.53589799999999
 30
0.0
 11
32.0
 21
29.53589799999999
 31
0.0
  0
LINE
  5
74FB
330
7493
100
AcDbEntity
  8
OBJECT
100
AcDbLine
 10
32.0
 20
29.53589799999999
 30
0.0
 11
30.0
 21
33.0
 31
0.0
  0
LINE
  5
74FC
330
7493
100
AcDbEntity
  8
OBJECT
100
AcDbLine
 10
28.0
 20
35.53589799999999
 30
0.0
 11
32.0
 21
35.53589799999999
 31
0.0
  0
LINE
  5
74FD
330
7493
100
AcDbEntity
  8
OBJECT
100
AcDbLine
 10
32.0
 20
35.53589799999999
 30
0.0
 11
30.0
 21
39.0
 31
0.0
  0
LINE
  5
74FE
330
7493
100
AcDbEntity
  8
OBJECT
100
AcDbLine
 10
28.0
 20
35.53589799999999
 30
0.0
 11
30.0
 21
39.0
 31
0.0
  0
LINE
  5
74FF
330
7493
100
AcDbEntity
  8
OBJECT
100
AcDbLine
 10
28.0
 20
23.53589799999999
 30
0.0
 11
30.0
 21
26.99999999999999
 31
0.0
  0
LINE
  5
7500
330
7493
100
AcDbEntity
  8
OBJECT
100
AcDbLine
 10
28.0
 20
23.53589799999999
 30
0.0
 11
32.0
 21
23.53589799999999
 31
0.0
  0
LINE
  5
7501
330
7493
100
AcDbEntity
  8
OBJECT
100
AcDbLine
 10
32.0
 20
23.53589799999999
 30
0.0
 11
30.0
 21
26.99999999999999
 31
0.0
  0
LINE
  5
7502
330
7493
100
AcDbEntity
  8
OBJECT
100
AcDbLine
 10
28.0
 20
17.535898
 30
0.0
 11
30.0
 21
20.99999999999999
 31
0.0
  0
LINE
  5
7503
330
7493
100
AcDbEntity
  8
OBJECT
100
AcDbLine
 10
28.0
 20
17.535898
 30
0.0
 11
32.0
 21
17.535898
 31
0.0
  0
LINE
  5
7504
330
7493
100
AcDbEntity
  8
OBJECT
100
AcDbLine
 10
32.0
 20
17.535898
 30
0.0
 11
30.0
 21
20.99999999999999
 31
0.0
  0
LINE
  5
7505
330
7493
100
AcDbEntity
  8
OBJECT
100
AcDbLine
 10
44.5
 20
13.0
 30
0.0
 11
45.49999999999999
 21
13.0
 31
0.0
  0
LINE
  5
7506
330
7493
100
AcDbEntity
  8
OBJECT
100
AcDbLine
 10
39.5
 20
13.0
 30
0.0
 11
40.49999999999999
 21
13.0
 31
0.0
  0
LINE
  5
7507
330
7493
100
AcDbEntity
  8
OBJECT
100
AcDbLine
 10
28.0
 20
11.53589799999999
 30
0.0
 11
32.0
 21
11.53589799999999
 31
0.0
  0
LINE
  5
7508
330
7493
100
AcDbEntity
  8
OBJECT
100
AcDbLine
 10
80.0
 20
10.0
 30
0.0
 11
80.0
 21
40.0
 31
0.0
  0
LINE
  5
7509
330
7493
100
AcDbEntity
  8
OBJECT
100
AcDbLine
 10
50.0
 20
10.0
 30
0.0
 11
50.0
 21
40.0
 31
0.0
  0
LINE
  5
750A
330
7493
100
AcDbEntity
  8
OBJECT
100
AcDbLine
 10
35.0
 20
10.0
 30
0.0
 11
35.0
 21
40.0
 31
0.0
  0
LINE
  5
750B
330
7493
100
AcDbEntity
  8
OBJECT
100
AcDbLine
 10
32.0
 20
11.53589799999999
 30
0.0
 11
30.0
 21
15.0
 31
0.0
  0
LINE
  5
750C
330
7493
100
AcDbEntity
  8
OBJECT
100
AcDbLine
 10
28.0
 20
11.53589799999999
 30
0.0
 11
30.0
 21
15.0
 31
0.0
  0
LINE
  5
750D
330
7493
100
AcDbEntity
  8
OBJECT
100
AcDbLine
 10
130.0
 20
40.0
 30
0.0
 11
25.0
 21
40.0
 31
0.0
  0
LINE
  5
750E
330
7493
100
AcDbEntity
  8
OBJECT
100
AcDbLine
 10
130.0
 20
34.0
 30
0.0
 11
25.0
 21
34.0
 31
0.0
  0
LINE
  5
750F
330
7493
100
AcDbEntity
  8
OBJECT
100
AcDbLine
 10
130.0
 20
28.0
 30
0.0
 11
25.0
 21
28.0
 31
0.0
  0
LINE
  5
7510
330
7493
100
AcDbEntity
  8
OBJECT
100
AcDbLine
 10
130.0
 20
22.0
 30
0.0
 11
25.0
 21
22.0
 31
0.0
  0
LINE
  5
7511
330
7493
100
AcDbEntity
  8
OBJECT
100
AcDbLine
 10
130.0
 20
16.0
 30
0.0
 11
25.0
 21
16.0
 31
0.0
  0
ATTDEF
  5
7512
330
7493
100
AcDbEntity
  8
0
 62
     0
100
AcDbText
 10
19.0
 20
118.0
 30
0.0
 40
3.0
  1

 50
90.0
  7
ADESK1
100
AcDbAttributeDefinition
  3

  2
FNAME
 70
     8
  0
ATTDEF
  5
7513
330
7493
100
AcDbEntity
  8
0
 62
     0
100
AcDbText
 10
19.0
 20
70.0
 30
0.0
 40
3.0
  1

 50
90.0
  7
ADESK1
100
AcDbAttributeDefinition
  3

  2
REVDATE
 70
     8
  0
ATTDEF
  5
7514
330
7493
100
AcDbEntity
  8
0
 62
     0
100
AcDbText
 10
19.0
 20
10.0
 30
0.0
 40
3.0
  1

 50
90.0
  7
ADESK1
100
AcDbAttributeDefinition
  3

  2
USER
 70
     8
  0
LINE
  5
7515
330
7493
100
AcDbEntity
  8
0
100
AcDbLine
 10
410.0
 20
297.0
 30
0.0
 11
420.0
 21
297.0
 31
0.0
  0
LINE
  5
7516
330
7493
100
AcDbEntity
  8
0
100
AcDbLine
 10
420.0
 20
10.0
 30
0.0
 11
420.0
 21
0.0
 31
0.0
  0
LINE
  5
7517
330
7493
100
AcDbEntity
  8
0
100
AcDbLine
 10
25.0
 20
0.0
 30
0.0
 11
0.0
 21
0.0
 31
0.0
  0
LINE
  5
7518
330
7493
100
AcDbEntity
  8
0
100
AcDbLine
 10
0.0
 20
287.0
 30
0.0
 11
0.0
 21
297.0
 31
0.0
  0
LINE
  5
7519
330
7493
100
AcDbEntity
  8
0
100
AcDbLine
 10
25.0
 20
287.0
 30
0.0
 11
410.0
 21
287.0
 31
0.0
  0
LINE
  5
751A
330
7493
100
AcDbEntity
  8
0
100
AcDbLine
 10
410.0
 20
287.0
 30
0.0
 11
410.0
 21
10.0
 31
0.0
  0
LINE
  5
751B
330
7493
100
AcDbEntity
  8
0
100
AcDbLine
 10
410.0
 20
10.0
 30
0.0
 11
25.0
 21
10.0
 31
0.0
  0
LINE
  5
751C
330
7493
100
AcDbEntity
  8
0
100
AcDbLine
 10
25.0
 20
10.0
 30
0.0
 11
25.0
 21
287.0
 31
0.0
  0
LINE
  5
751D
330
7493
100
AcDbEntity
  8
0
100
AcDbLine
 10
420.0
 20
0.0
 30
0.0
 11
410.0
 21
0.0
 31
0.0
  0
LINE
  5
751E
330
7493
100
AcDbEntity
  8
0
100
AcDbLine
 10
420.0
 20
297.0
 30
0.0
 11
420.0
 21
287.0
 31
0.0
  0
LINE
  5
751F
330
7493
100
AcDbEntity
  8
0
100
AcDbLine
 10
0.0
 20
297.0
 30
0.0
 11
25.0
 21
297.0
 31
0.0
  0
LINE
  5
7520
330
7493
100
AcDbEntity
  8
0
100
AcDbLine
 10
0.0
 20
0.0
 30
0.0
 11
0.0
 21
10.0
 31
0.0
  0
ENDBLK
  5
7521
330
7493
100
AcDbEntity
  8
0
100
AcDbBlockEnd
  0
BLOCK
  5
890A
330
88FE
100
AcDbEntity
  8
0
 48
20.0
100
AcDbBlockBegin
  2
*D1
 70
     1
 10
0.0
 20
0.0
 30
0.0
  3
*D1
  1

  0
LINE
  5
A34A
330
88FE
100
AcDbEntity
  8
寸法引出
 48
20.0
370
    -2
100
AcDbLine
 10
908.5782198007601
 20
1921.348890208358
 30
0.0
 11
908.5782198007601
 21
1982.320170971603
 31
0.0
  0
LINE
  5
A34B
330
88FE
100
AcDbEntity
  8
寸法引出
 48
20.0
370
    -2
100
AcDbLine
 10
948.5782198007601
 20
1925.848890208358
 30
0.0
 11
948.5782198007601
 21
1982.320170971603
 31
0.0
  0
LINE
  5
A34C
330
88FE
100
AcDbEntity
  8
寸法引出
 48
20.0
370
    -2
100
AcDbLine
 10
886.0782198007601
 20
1974.820170971603
 30
0.0
 11
863.5782198007602
 21
1974.820170971603
 31
0.0
  0
LINE
  5
A34D
330
88FE
100
AcDbEntity
  8
寸法引出
 48
20.0
370
    -2
100
AcDbLine
 10
971.0782198007601
 20
1974.820170971603
 30
0.0
 11
993.5782198007601
 21
1974.820170971603
 31
0.0
  0
MTEXT
  5
A34E
330
88FE
100
AcDbEntity
  8
寸法引出
 48
20.0
100
AcDbMText
 10
881.7710332749994
 20
2004.994450529864
 30
0.0
 40
30.0
 41
0.0
 71
     5
 72
     1
  1
\A1;40
  7
SANWA
 73
     1
 44
1.0
  0
LINE
  5
A34F
330
88FE
100
AcDbEntity
  8
寸法引出
 48
20.0
370
    -2
100
AcDbLine
 10
908.5782198007601
 20
1974.820170971603
 30
0.0
 11
948.5782198007601
 21
1974.820170971603
 31
0.0
  0
SOLID
  5
A350
330
88FE
100
AcDbEntity
  8
寸法引出
 48
20.0
100
AcDbTrace
 10
886.0782198007601
 20
1978.570170971603
 30
0.0
 11
886.0782198007601
 21
1971.070170971603
 31
0.0
 12
908.5782198007601
 22
1974.820170971603
 32
0.0
 13
908.5782198007601
 23
1974.820170971603
 33
0.0
  0
SOLID
  5
A351
330
88FE
100
AcDbEntity
  8
寸法引出
 48
20.0
100
AcDbTrace
 10
971.0782198007601
 20
1978.570170971603
 30
0.0
 11
971.0782198007601
 21
1971.070170971603
 31
0.0
 12
948.5782198007601
 22
1974.820170971603
 32
0.0
 13
948.5782198007601
 23
1974.820170971603
 33
0.0
  0
POINT
  5
A352
330
88FE
100
AcDbEntity
  8
DEFPOINTS
 62
     0
 48
20.0
100
AcDbPoint
 10
908.5782198007601
 20
1906.348890208359
 30
0.0
  0
POINT
  5
A353
330
88FE
100
AcDbEntity
  8
DEFPOINTS
 62
     0
 48
20.0
100
AcDbPoint
 10
948.5782198007601
 20
1910.848890208358
 30
0.0
  0
POINT
  5
A354
330
88FE
100
AcDbEntity
  8
DEFPOINTS
 62
     0
 48
20.0
100
AcDbPoint
 10
948.5782198007601
 20
1974.820170971603
 30
0.0
  0
ENDBLK
  5
890B
330
88FE
100
AcDbEntity
  8
0
 48
20.0
100
AcDbBlockEnd
  0
BLOCK
  5
8924
330
8918
100
AcDbEntity
  8
0
 48
20.0
100
AcDbBlockBegin
  2
*D2
 70
     1
 10
0.0
 20
0.0
 30
0.0
  3
*D2
  1

  0
LINE
  5
A355
330
8918
100
AcDbEntity
  8
寸法引出
 48
20.0
370
    -2
100
AcDbLine
 10
948.5782198007601
 20
1925.848890208358
 30
0.0
 11
948.5782198007601
 21
1982.320170971603
 31
0.0
  0
LINE
  5
A356
330
8918
100
AcDbEntity
  8
寸法引出
 48
20.0
370
    -2
100
AcDbLine
 10
951.0782198007593
 20
1835.848890208358
 30
0.0
 11
951.0782198007593
 21
1982.320170971603
 31
0.0
  0
LINE
  5
A357
330
8918
100
AcDbEntity
  8
寸法引出
 48
20.0
370
    -2
100
AcDbLine
 10
926.0782198007602
 20
1974.820170971603
 30
0.0
 11
903.5782198007602
 21
1974.820170971603
 31
0.0
  0
LINE
  5
A358
330
8918
100
AcDbEntity
  8
寸法引出
 48
20.0
370
    -2
100
AcDbLine
 10
973.5782198007592
 20
1974.820170971603
 30
0.0
 11
996.0782198007592
 21
1974.820170971603
 31
0.0
  0
MTEXT
  5
A359
330
8918
100
AcDbEntity
  8
寸法引出
 48
20.0
100
AcDbMText
 10
948.3471139909051
 20
2039.037261393421
 30
0.0
 40
30.0
 41
0.0
 71
     5
 72
     1
  1
\A1;2.5
  7
SANWA
 73
     1
 44
1.0
  0
LINE
  5
A35A
330
8918
100
AcDbEntity
  8
寸法引出
 48
20.0
370
    -2
100
AcDbLine
 10
948.5782198007601
 20
1974.820170971603
 30
0.0
 11
951.0782198007593
 21
1974.820170971603
 31
0.0
  0
SOLID
  5
A35B
330
8918
100
AcDbEntity
  8
寸法引出
 48
20.0
100
AcDbTrace
 10
926.0782198007602
 20
1978.570170971603
 30
0.0
 11
926.0782198007602
 21
1971.070170971603
 31
0.0
 12
948.5782198007601
 22
1974.820170971603
 32
0.0
 13
948.5782198007601
 23
1974.820170971603
 33
0.0
  0
SOLID
  5
A35C
330
8918
100
AcDbEntity
  8
寸法引出
 48
20.0
100
AcDbTrace
 10
973.5782198007592
 20
1978.570170971603
 30
0.0
 11
973.5782198007592
 21
1971.070170971603
 31
0.0
 12
951.0782198007593
 22
1974.820170971603
 32
0.0
 13
951.0782198007593
 23
1974.820170971603
 33
0.0
  0
POINT
  5
A35D
330
8918
100
AcDbEntity
  8
DEFPOINTS
 62
     0
 48
20.0
100
AcDbPoint
 10
948.5782198007601
 20
1910.848890208358
 30
0.0
  0
POINT
  5
A35E
330
8918
100
AcDbEntity
  8
DEFPOINTS
 62
     0
 48
20.0
100
AcDbPoint
 10
951.0782198007593
 20
1820.848890208358
 30
0.0
  0
POINT
  5
A35F
330
8918
100
AcDbEntity
  8
DEFPOINTS
 62
     0
 48
20.0
100
AcDbPoint
 10
951.0782198007593
 20
1974.820170971603
 30
0.0
  0
ENDBLK
  5
8925
330
8918
100
AcDbEntity
  8
0
 48
20.0
100
AcDbBlockEnd
  0
BLOCK
  5
8933
330
8927
100
AcDbEntity
  8
0
 48
20.0
100
AcDbBlockBegin
  2
*D3
 70
     1
 10
0.0
 20
0.0
 30
0.0
  3
*D3
  1

  0
LINE
  5
A360
330
8927
100
AcDbEntity
  8
寸法引出
 48
20.0
370
    -2
100
AcDbLine
 10
951.0782198007593
 20
1835.848890208358
 30
0.0
 11
951.0782198007593
 21
1982.320170971603
 31
0.0
  0
LINE
  5
A361
330
8927
100
AcDbEntity
  8
寸法引出
 48
20.0
370
    -2
100
AcDbLine
 10
978.5782198007602
 20
1835.848890208358
 30
0.0
 11
978.5782198007602
 21
1982.320170971603
 31
0.0
  0
LINE
  5
A362
330
8927
100
AcDbEntity
  8
寸法引出
 48
20.0
370
    -2
100
AcDbLine
 10
928.5782198007593
 20
1974.820170971603
 30
0.0
 11
906.0782198007592
 21
1974.820170971603
 31
0.0
  0
LINE
  5
A363
330
8927
100
AcDbEntity
  8
寸法引出
 48
20.0
370
    -2
100
AcDbLine
 10
1001.07821980076
 20
1974.820170971603
 30
0.0
 11
1023.57821980076
 21
1974.820170971603
 31
0.0
  0
MTEXT
  5
A364
330
8927
100
AcDbEntity
  8
寸法引出
 48
20.0
100
AcDbMText
 10
963.8299082113693
 20
2003.447058627721
 30
0.0
 40
30.0
 41
0.0
 71
     5
 72
     1
  1
\A1;27.5
  7
SANWA
 73
     1
 44
1.0
  0
LINE
  5
A365
330
8927
100
AcDbEntity
  8
寸法引出
 48
20.0
370
    -2
100
AcDbLine
 10
951.0782198007593
 20
1974.820170971603
 30
0.0
 11
978.5782198007602
 21
1974.820170971603
 31
0.0
  0
SOLID
  5
A366
330
8927
100
AcDbEntity
  8
寸法引出
 48
20.0
100
AcDbTrace
 10
928.5782198007593
 20
1978.570170971603
 30
0.0
 11
928.5782198007593
 21
1971.070170971603
 31
0.0
 12
951.0782198007593
 22
1974.820170971603
 32
0.0
 13
951.0782198007593
 23
1974.820170971603
 33
0.0
  0
SOLID
  5
A367
330
8927
100
AcDbEntity
  8
寸法引出
 48
20.0
100
AcDbTrace
 10
1001.07821980076
 20
1978.570170971603
 30
0.0
 11
1001.07821980076
 21
1971.070170971603
 31
0.0
 12
978.5782198007602
 22
1974.820170971603
 32
0.0
 13
978.5782198007602
 23
1974.820170971603
 33
0.0
  0
POINT
  5
A368
330
8927
100
AcDbEntity
  8
DEFPOINTS
 62
     0
 48
20.0
100
AcDbPoint
 10
951.0782198007593
 20
1820.848890208358
 30
0.0
  0
POINT
  5
A369
330
8927
100
AcDbEntity
  8
DEFPOINTS
 62
     0
 48
20.0
100
AcDbPoint
 10
978.5782198007602
 20
1820.848890208358
 30
0.0
  0
POINT
  5
A36A
330
8927
100
AcDbEntity
  8
DEFPOINTS
 62
     0
 48
20.0
100
AcDbPoint
 10
978.5782198007602
 20
1974.820170971603
 30
0.0
  0
ENDBLK
  5
8934
330
8927
100
AcDbEntity
  8
0
 48
20.0
100
AcDbBlockEnd
  0
BLOCK
  5
8998
330
898E
100
AcDbEntity
  8
0
 48
20.0
100
AcDbBlockBegin
  2
*D4
 70
     1
 10
0.0
 20
0.0
 30
0.0
  3
*D4
  1

  0
LINE
  5
A3EA
330
898E
100
AcDbEntity
  8
寸法引出
 48
20.0
370
    -2
100
AcDbLine
 10
978.5782198007602
 20
1835.848890208358
 30
0.0
 11
978.5782198007602
 21
1982.320170971603
 31
0.0
  0
LINE
  5
A3EB
330
898E
100
AcDbEntity
  8
寸法引出
 48
20.0
370
    -2
100
AcDbLine
 10
1378.578219800759
 20
1835.848890208358
 30
0.0
 11
1378.578219800759
 21
1982.320170971603
 31
0.0
  0
LINE
  5
A3EC
330
898E
100
AcDbEntity
  8
寸法引出
 48
20.0
370
    -2
100
AcDbLine
 10
1001.07821980076
 20
1974.820170971603
 30
0.0
 11
1356.078219800759
 21
1974.820170971603
 31
0.0
  0
SOLID
  5
A3ED
330
898E
100
AcDbEntity
  8
寸法引出
 48
20.0
100
AcDbTrace
 10
1001.07821980076
 20
1978.570170971603
 30
0.0
 11
1001.07821980076
 21
1971.070170971603
 31
0.0
 12
978.5782198007602
 22
1974.820170971603
 32
0.0
 13
978.5782198007602
 23
1974.820170971603
 33
0.0
  0
SOLID
  5
A3EE
330
898E
100
AcDbEntity
  8
寸法引出
 48
20.0
100
AcDbTrace
 10
1356.078219800759
 20
1978.570170971603
 30
0.0
 11
1356.078219800759
 21
1971.070170971603
 31
0.0
 12
1378.578219800759
 22
1974.820170971603
 32
0.0
 13
1378.578219800759
 23
1974.820170971603
 33
0.0
  0
MTEXT
  5
A3EF
330
898E
100
AcDbEntity
  8
寸法引出
 48
20.0
100
AcDbMText
 10
1178.578219800759
 20
2004.820170971603
 30
0.0
 40
30.0
 41
0.0
 71
     5
 72
     1
  1
\A1;400
  7
SANWA
 73
     1
 44
1.0
  0
POINT
  5
A3F0
330
898E
100
AcDbEntity
  8
DEFPOINTS
 62
     0
 48
20.0
100
AcDbPoint
 10
978.5782198007602
 20
1820.848890208358
 30
0.0
  0
POINT
  5
A3F1
330
898E
100
AcDbEntity
  8
DEFPOINTS
 62
     0
 48
20.0
100
AcDbPoint
 10
1378.578219800759
 20
1820.848890208358
 30
0.0
  0
POINT
  5
A3F2
330
898E
100
AcDbEntity
  8
DEFPOINTS
 62
     0
 48
20.0
100
AcDbPoint
 10
1378.578219800759
 20
1974.820170971603
 30
0.0
  0
ENDBLK
  5
8999
330
898E
100
AcDbEntity
  8
0
 48
20.0
100
AcDbBlockEnd
  0
BLOCK
  5
89A7
330
899B
100
AcDbEntity
  8
0
 48
20.0
100
AcDbBlockBegin
  2
*D5
 70
     1
 10
0.0
 20
0.0
 30
0.0
  3
*D5
  1

  0
LINE
  5
A3DF
330
899B
100
AcDbEntity
  8
寸法引出
 48
20.0
370
    -2
100
AcDbLine
 10
1378.578219800759
 20
1835.848890208358
 30
0.0
 11
1378.578219800759
 21
1982.320170971603
 31
0.0
  0
LINE
  5
A3E0
330
899B
100
AcDbEntity
  8
寸法引出
 48
20.0
370
    -2
100
AcDbLine
 10
1448.57821980076
 20
1921.348890208358
 30
0.0
 11
1448.57821980076
 21
1982.320170971603
 31
0.0
  0
LINE
  5
A3E1
330
899B
100
AcDbEntity
  8
寸法引出
 48
20.0
370
    -2
100
AcDbLine
 10
1356.078219800759
 20
1974.820170971603
 30
0.0
 11
1333.578219800759
 21
1974.820170971603
 31
0.0
  0
LINE
  5
A3E2
330
899B
100
AcDbEntity
  8
寸法引出
 48
20.0
370
    -2
100
AcDbLine
 10
1471.07821980076
 20
1974.820170971603
 30
0.0
 11
1493.57821980076
 21
1974.820170971603
 31
0.0
  0
LINE
  5
A3E3
330
899B
100
AcDbEntity
  8
寸法引出
 48
20.0
370
    -2
100
AcDbLine
 10
1378.578219800759
 20
1974.820170971603
 30
0.0
 11
1448.57821980076
 21
1974.820170971603
 31
0.0
  0
SOLID
  5
A3E4
330
899B
100
AcDbEntity
  8
寸法引出
 48
20.0
100
AcDbTrace
 10
1356.078219800759
 20
1978.570170971603
 30
0.0
 11
1356.078219800759
 21
1971.070170971603
 31
0.0
 12
1378.578219800759
 22
1974.820170971603
 32
0.0
 13
1378.578219800759
 23
1974.820170971603
 33
0.0
  0
SOLID
  5
A3E5
330
899B
100
AcDbEntity
  8
寸法引出
 48
20.0
100
AcDbTrace
 10
1471.07821980076
 20
1978.570170971603
 30
0.0
 11
1471.07821980076
 21
1971.070170971603
 31
0.0
 12
1448.57821980076
 22
1974.820170971603
 32
0.0
 13
1448.57821980076
 23
1974.820170971603
 33
0.0
  0
MTEXT
  5
A3E6
330
899B
100
AcDbEntity
  8
寸法引出
 48
20.0
100
AcDbMText
 10
1413.578219800759
 20
2004.820170971603
 30
0.0
 40
30.0
 41
0.0
 71
     5
 72
     1
  1
\A1;70
  7
SANWA
 73
     1
 44
1.0
  0
POINT
  5
A3E7
330
899B
100
AcDbEntity
  8
DEFPOINTS
 62
     0
 48
20.0
100
AcDbPoint
 10
1378.578219800759
 20
1820.848890208358
 30
0.0
  0
POINT
  5
A3E8
330
899B
100
AcDbEntity
  8
DEFPOINTS
 62
     0
 48
20.0
100
AcDbPoint
 10
1448.57821980076
 20
1906.348890208358
 30
0.0
  0
POINT
  5
A3E9
330
899B
100
AcDbEntity
  8
DEFPOINTS
 62
     0
 48
20.0
100
AcDbPoint
 10
1448.57821980076
 20
1974.820170971603
 30
0.0
  0
ENDBLK
  5
89A8
330
899B
100
AcDbEntity
  8
0
 48
20.0
100
AcDbBlockEnd
  0
BLOCK
  5
89B4
330
89AA
100
AcDbEntity
  8
0
 48
20.0
100
AcDbBlockBegin
  2
*D6
 70
     1
 10
0.0
 20
0.0
 30
0.0
  3
*D6
  1

  0
LINE
  5
A395
330
89AA
100
AcDbEntity
  8
寸法引出
 48
20.0
370
    -2
100
AcDbLine
 10
908.5782198007601
 20
1921.348890208358
 30
0.0
 11
908.5782198007601
 21
2076.355502660337
 31
0.0
  0
LINE
  5
A396
330
89AA
100
AcDbEntity
  8
寸法引出
 48
20.0
370
    -2
100
AcDbLine
 10
1448.57821980076
 20
1921.348890208358
 30
0.0
 11
1448.57821980076
 21
2076.355502660337
 31
0.0
  0
LINE
  5
A397
330
89AA
100
AcDbEntity
  8
寸法引出
 48
20.0
370
    -2
100
AcDbLine
 10
931.0782198007601
 20
2068.855502660337
 30
0.0
 11
1426.07821980076
 21
2068.855502660337
 31
0.0
  0
SOLID
  5
A398
330
89AA
100
AcDbEntity
  8
寸法引出
 48
20.0
100
AcDbTrace
 10
931.0782198007601
 20
2072.605502660337
 30
0.0
 11
931.0782198007601
 21
2065.105502660337
 31
0.0
 12
908.5782198007601
 22
2068.855502660337
 32
0.0
 13
908.5782198007601
 23
2068.855502660337
 33
0.0
  0
SOLID
  5
A399
330
89AA
100
AcDbEntity
  8
寸法引出
 48
20.0
100
AcDbTrace
 10
1426.07821980076
 20
2072.605502660337
 30
0.0
 11
1426.07821980076
 21
2065.105502660337
 31
0.0
 12
1448.57821980076
 22
2068.855502660337
 32
0.0
 13
1448.57821980076
 23
2068.855502660337
 33
0.0
  0
MTEXT
  5
A39A
330
89AA
100
AcDbEntity
  8
寸法引出
 48
20.0
100
AcDbMText
 10
1178.57821980076
 20
2098.855502660337
 30
0.0
 40
30.0
 41
0.0
 71
     5
 72
     1
  1
\A1;540
  7
SANWA
 73
     1
 44
1.0
  0
POINT
  5
A39B
330
89AA
100
AcDbEntity
  8
DEFPOINTS
 62
     0
 48
20.0
100
AcDbPoint
 10
908.5782198007601
 20
1906.348890208359
 30
0.0
  0
POINT
  5
A39C
330
89AA
100
AcDbEntity
  8
DEFPOINTS
 62
     0
 48
20.0
100
AcDbPoint
 10
1448.57821980076
 20
1906.348890208358
 30
0.0
  0
POINT
  5
A39D
330
89AA
100
AcDbEntity
  8
DEFPOINTS
 62
     0
 48
20.0
100
AcDbPoint
 10
1448.57821980076
 20
2068.855502660337
 30
0.0
  0
ENDBLK
  5
89B5
330
89AA
100
AcDbEntity
  8
0
 48
20.0
100
AcDbBlockEnd
  0
BLOCK
  5
8A1D
330
8A13
100
AcDbEntity
  8
0
 48
20.0
100
AcDbBlockBegin
  2
*D7
 70
     1
 10
0.0
 20
0.0
 30
0.0
  3
*D7
  1

  0
LINE
  5
A3A7
330
8A13
100
AcDbEntity
  8
寸法引出
 48
20.0
370
    -2
100
AcDbLine
 10
898.0782198007601
 20
1910.848890208358
 30
0.0
 11
793.4095255738172
 21
1910.848890208358
 31
0.0
  0
LINE
  5
A3A8
330
8A13
100
AcDbEntity
  8
寸法引出
 48
20.0
370
    -2
100
AcDbLine
 10
893.5782198007601
 20
1820.848890208358
 30
0.0
 11
793.4095255738172
 21
1820.848890208358
 31
0.0
  0
LINE
  5
A3A9
330
8A13
100
AcDbEntity
  8
寸法引出
 48
20.0
370
    -2
100
AcDbLine
 10
800.9095255738172
 20
1888.348890208358
 30
0.0
 11
800.9095255738172
 21
1843.348890208358
 31
0.0
  0
SOLID
  5
A3AA
330
8A13
100
AcDbEntity
  8
寸法引出
 48
20.0
100
AcDbTrace
 10
797.1595255738171
 20
1888.348890208358
 30
0.0
 11
804.6595255738171
 21
1888.348890208358
 31
0.0
 12
800.9095255738172
 22
1910.848890208358
 32
0.0
 13
800.9095255738172
 23
1910.848890208358
 33
0.0
  0
SOLID
  5
A3AB
330
8A13
100
AcDbEntity
  8
寸法引出
 48
20.0
100
AcDbTrace
 10
797.1595255738171
 20
1843.348890208358
 30
0.0
 11
804.6595255738171
 21
1843.348890208358
 31
0.0
 12
800.9095255738172
 22
1820.848890208358
 32
0.0
 13
800.9095255738172
 23
1820.848890208358
 33
0.0
  0
MTEXT
  5
A3AC
330
8A13
100
AcDbEntity
  8
寸法引出
 48
20.0
100
AcDbMText
 10
770.9095255738168
 20
1865.848890208358
 30
0.0
 40
30.0
 41
0.0
 71
     5
 72
     1
  1
\A1;90
  7
SANWA
 11
0.0000000000000001
 21
1.0
 31
0.0
 73
     1
 44
1.0
  0
POINT
  5
A3AD
330
8A13
100
AcDbEntity
  8
DEFPOINTS
 62
     0
 48
20.0
100
AcDbPoint
 10
913.0782198007601
 20
1910.848890208358
 30
0.0
  0
POINT
  5
A3AE
330
8A13
100
AcDbEntity
  8
DEFPOINTS
 62
     0
 48
20.0
100
AcDbPoint
 10
908.5782198007601
 20
1820.848890208358
 30
0.0
  0
POINT
  5
A3AF
330
8A13
100
AcDbEntity
  8
DEFPOINTS
 62
     0
 48
20.0
100
AcDbPoint
 10
800.9095255738172
 20
1820.848890208358
 30
0.0
  0
ENDBLK
  5
8A1E
330
8A13
100
AcDbEntity
  8
0
 48
20.0
100
AcDbBlockEnd
  0
BLOCK
  5
8CC1
330
8CB5
100
AcDbEntity
  8
0
 48
20.0
100
AcDbBlockBegin
  2
*D8
 70
     1
 10
0.0
 20
0.0
 30
0.0
  3
*D8
  1

  0
LINE
  5
A3FE
330
8CB5
100
AcDbEntity
  8
寸法引出
 48
20.0
370
    -2
100
AcDbLine
 10
2821.493333821985
 20
1561.848890208359
 30
0.0
 11
2821.493333821985
 21
1611.348712483042
 31
0.0
  0
LINE
  5
A3FF
330
8CB5
100
AcDbEntity
  8
寸法引出
 48
20.0
370
    -2
100
AcDbLine
 10
2831.493333821983
 20
1551.848890208359
 30
0.0
 11
2831.493333821983
 21
1611.348712483042
 31
0.0
  0
LINE
  5
A400
330
8CB5
100
AcDbEntity
  8
寸法引出
 48
20.0
370
    -2
100
AcDbLine
 10
2798.993333821985
 20
1603.848712483042
 30
0.0
 11
2776.493333821985
 21
1603.848712483042
 31
0.0
  0
LINE
  5
A401
330
8CB5
100
AcDbEntity
  8
寸法引出
 48
20.0
370
    -2
100
AcDbLine
 10
2853.993333821983
 20
1603.848712483042
 30
0.0
 11
2876.493333821983
 21
1603.848712483042
 31
0.0
  0
MTEXT
  5
A402
330
8CB5
100
AcDbEntity
  8
寸法引出
 48
20.0
100
AcDbMText
 10
2799.903216517166
 20
1634.07739441729
 30
0.0
 40
30.0
 41
0.0
 71
     5
 72
     1
  1
\A1;10
  7
SANWA
 73
     1
 44
1.0
  0
LINE
  5
A403
330
8CB5
100
AcDbEntity
  8
寸法引出
 48
20.0
370
    -2
100
AcDbLine
 10
2821.493333821985
 20
1603.848712483042
 30
0.0
 11
2831.493333821983
 21
1603.848712483042
 31
0.0
  0
SOLID
  5
A404
330
8CB5
100
AcDbEntity
  8
寸法引出
 48
20.0
100
AcDbTrace
 10
2798.993333821985
 20
1607.598712483042
 30
0.0
 11
2798.993333821985
 21
1600.098712483042
 31
0.0
 12
2821.493333821985
 22
1603.848712483042
 32
0.0
 13
2821.493333821985
 23
1603.848712483042
 33
0.0
  0
SOLID
  5
A405
330
8CB5
100
AcDbEntity
  8
寸法引出
 48
20.0
100
AcDbTrace
 10
2853.993333821983
 20
1607.598712483042
 30
0.0
 11
2853.993333821983
 21
1600.098712483042
 31
0.0
 12
2831.493333821983
 22
1603.848712483042
 32
0.0
 13
2831.493333821983
 23
1603.848712483042
 33
0.0
  0
POINT
  5
A406
330
8CB5
100
AcDbEntity
  8
DEFPOINTS
 62
     0
 48
20.0
100
AcDbPoint
 10
2821.493333821985
 20
1546.848890208359
 30
0.0
  0
POINT
  5
A407
330
8CB5
100
AcDbEntity
  8
DEFPOINTS
 62
     0
 48
20.0
100
AcDbPoint
 10
2831.493333821983
 20
1536.848890208359
 30
0.0
  0
POINT
  5
A408
330
8CB5
100
AcDbEntity
  8
DEFPOINTS
 62
     0
 48
20.0
100
AcDbPoint
 10
2831.493333821983
 20
1603.848712483042
 30
0.0
  0
ENDBLK
  5
8CC2
330
8CB5
100
AcDbEntity
  8
0
 48
20.0
100
AcDbBlockEnd
  0
BLOCK
  5
8CCE
330
8CC4
100
AcDbEntity
  8
0
 48
20.0
100
AcDbBlockBegin
  2
*D9
 70
     1
 10
0.0
 20
0.0
 30
0.0
  3
*D9
  1

  0
LINE
  5
A409
330
8CC4
100
AcDbEntity
  8
寸法引出
 48
20.0
370
    -2
100
AcDbLine
 10
2831.493333821983
 20
1551.848890208359
 30
0.0
 11
2831.493333821983
 21
1611.348712483042
 31
0.0
  0
LINE
  5
A40A
330
8CC4
100
AcDbEntity
  8
寸法引出
 48
20.0
370
    -2
100
AcDbLine
 10
2911.493333821982
 20
1551.848890208359
 30
0.0
 11
2911.493333821982
 21
1611.348712483042
 31
0.0
  0
LINE
  5
A40B
330
8CC4
100
AcDbEntity
  8
寸法引出
 48
20.0
370
    -2
100
AcDbLine
 10
2853.993333821983
 20
1603.848712483042
 30
0.0
 11
2888.993333821982
 21
1603.848712483042
 31
0.0
  0
SOLID
  5
A40C
330
8CC4
100
AcDbEntity
  8
寸法引出
 48
20.0
100
AcDbTrace
 10
2853.993333821983
 20
1607.598712483042
 30
0.0
 11
2853.993333821983
 21
1600.098712483042
 31
0.0
 12
2831.493333821983
 22
1603.848712483042
 32
0.0
 13
2831.493333821983
 23
1603.848712483042
 33
0.0
  0
SOLID
  5
A40D
330
8CC4
100
AcDbEntity
  8
寸法引出
 48
20.0
100
AcDbTrace
 10
2888.993333821982
 20
1607.598712483042
 30
0.0
 11
2888.993333821982
 21
1600.098712483042
 31
0.0
 12
2911.493333821982
 22
1603.848712483042
 32
0.0
 13
2911.493333821982
 23
1603.848712483042
 33
0.0
  0
MTEXT
  5
A40E
330
8CC4
100
AcDbEntity
  8
寸法引出
 48
20.0
100
AcDbMText
 10
2871.493333821982
 20
1633.848712483042
 30
0.0
 40
30.0
 41
0.0
 71
     5
 72
     1
  1
\A1;80
  7
SANWA
 73
     1
 44
1.0
  0
POINT
  5
A40F
330
8CC4
100
AcDbEntity
  8
DEFPOINTS
 62
     0
 48
20.0
100
AcDbPoint
 10
2831.493333821983
 20
1536.848890208359
 30
0.0
  0
POINT
  5
A410
330
8CC4
100
AcDbEntity
  8
DEFPOINTS
 62
     0
 48
20.0
100
AcDbPoint
 10
2911.493333821982
 20
1536.848890208359
 30
0.0
  0
POINT
  5
A411
330
8CC4
100
AcDbEntity
  8
DEFPOINTS
 62
     0
 48
20.0
100
AcDbPoint
 10
2911.493333821982
 20
1603.848712483042
 30
0.0
  0
ENDBLK
  5
8CCF
330
8CC4
100
AcDbEntity
  8
0
 48
20.0
100
AcDbBlockEnd
  0
BLOCK
  5
8CDD
330
8CD1
100
AcDbEntity
  8
0
 48
20.0
100
AcDbBlockBegin
  2
*D10
 70
     1
 10
0.0
 20
0.0
 30
0.0
  3
*D10
  1

  0
LINE
  5
A412
330
8CD1
100
AcDbEntity
  8
寸法引出
 48
20.0
370
    -2
100
AcDbLine
 10
2911.493333821982
 20
1551.848890208359
 30
0.0
 11
2911.493333821982
 21
1611.348712483042
 31
0.0
  0
LINE
  5
A413
330
8CD1
100
AcDbEntity
  8
寸法引出
 48
20.0
370
    -2
100
AcDbLine
 10
2921.493333821984
 20
1561.848890208358
 30
0.0
 11
2921.493333821984
 21
1611.348712483042
 31
0.0
  0
LINE
  5
A414
330
8CD1
100
AcDbEntity
  8
寸法引出
 48
20.0
370
    -2
100
AcDbLine
 10
2888.993333821982
 20
1603.848712483042
 30
0.0
 11
2866.493333821982
 21
1603.848712483042
 31
0.0
  0
LINE
  5
A415
330
8CD1
100
AcDbEntity
  8
寸法引出
 48
20.0
370
    -2
100
AcDbLine
 10
2943.993333821984
 20
1603.848712483042
 30
0.0
 11
2966.493333821984
 21
1603.848712483042
 31
0.0
  0
MTEXT
  5
A416
330
8CD1
100
AcDbEntity
  8
寸法引出
 48
20.0
100
AcDbMText
 10
2940.275740850098
 20
1634.475961413805
 30
0.0
 40
30.0
 41
0.0
 71
     5
 72
     1
  1
\A1;10
  7
SANWA
 73
     1
 44
1.0
  0
LINE
  5
A417
330
8CD1
100
AcDbEntity
  8
寸法引出
 48
20.0
370
    -2
100
AcDbLine
 10
2911.493333821982
 20
1603.848712483042
 30
0.0
 11
2921.493333821984
 21
1603.848712483042
 31
0.0
  0
SOLID
  5
A418
330
8CD1
100
AcDbEntity
  8
寸法引出
 48
20.0
100
AcDbTrace
 10
2888.993333821982
 20
1607.598712483042
 30
0.0
 11
2888.993333821982
 21
1600.098712483042
 31
0.0
 12
2911.493333821982
 22
1603.848712483042
 32
0.0
 13
2911.493333821982
 23
1603.848712483042
 33
0.0
  0
SOLID
  5
A419
330
8CD1
100
AcDbEntity
  8
寸法引出
 48
20.0
100
AcDbTrace
 10
2943.993333821984
 20
1607.598712483042
 30
0.0
 11
2943.993333821984
 21
1600.098712483042
 31
0.0
 12
2921.493333821984
 22
1603.848712483042
 32
0.0
 13
2921.493333821984
 23
1603.848712483042
 33
0.0
  0
POINT
  5
A41A
330
8CD1
100
AcDbEntity
  8
DEFPOINTS
 62
     0
 48
20.0
100
AcDbPoint
 10
2911.493333821982
 20
1536.848890208359
 30
0.0
  0
POINT
  5
A41B
330
8CD1
100
AcDbEntity
  8
DEFPOINTS
 62
     0
 48
20.0
100
AcDbPoint
 10
2921.493333821984
 20
1546.848890208358
 30
0.0
  0
POINT
  5
A41C
330
8CD1
100
AcDbEntity
  8
DEFPOINTS
 62
     0
 48
20.0
100
AcDbPoint
 10
2921.493333821984
 20
1603.848712483042
 30
0.0
  0
ENDBLK
  5
8CDE
330
8CD1
100
AcDbEntity
  8
0
 48
20.0
100
AcDbBlockEnd
  0
BLOCK
  5
8D94
330
8D8A
100
AcDbEntity
  8
0
 48
20.0
100
AcDbBlockBegin
  2
*D11
 70
     1
 10
0.0
 20
0.0
 30
0.0
  3
*D11
  1

  0
LINE
  5
A41D
330
8D8A
100
AcDbEntity
  8
寸法引出
 48
20.0
370
    -2
100
AcDbLine
 10
3885.493333821983
 20
1910.848890208358
 30
0.0
 11
3964.658892171228
 21
1910.848890208358
 31
0.0
  0
LINE
  5
A41E
330
8D8A
100
AcDbEntity
  8
寸法引出
 48
20.0
370
    -2
100
AcDbLine
 10
3885.493333821983
 20
1496.848890208358
 30
0.0
 11
3964.658892171228
 21
1496.848890208358
 31
0.0
  0
LINE
  5
A41F
330
8D8A
100
AcDbEntity
  8
寸法引出
 48
20.0
370
    -2
100
AcDbLine
 10
3957.158892171228
 20
1888.348890208358
 30
0.0
 11
3957.158892171228
 21
1519.348890208358
 31
0.0
  0
SOLID
  5
A420
330
8D8A
100
AcDbEntity
  8
寸法引出
 48
20.0
100
AcDbTrace
 10
3953.408892171228
 20
1888.348890208358
 30
0.0
 11
3960.908892171228
 21
1888.348890208358
 31
0.0
 12
3957.158892171228
 22
1910.848890208358
 32
0.0
 13
3957.158892171228
 23
1910.848890208358
 33
0.0
  0
SOLID
  5
A421
330
8D8A
100
AcDbEntity
  8
寸法引出
 48
20.0
100
AcDbTrace
 10
3953.408892171228
 20
1519.348890208358
 30
0.0
 11
3960.908892171228
 21
1519.348890208358
 31
0.0
 12
3957.158892171228
 22
1496.848890208358
 32
0.0
 13
3957.158892171228
 23
1496.848890208358
 33
0.0
  0
MTEXT
  5
A422
330
8D8A
100
AcDbEntity
  8
寸法引出
 48
20.0
100
AcDbMText
 10
3927.158892171227
 20
1703.848890208359
 30
0.0
 40
30.0
 41
0.0
 71
     5
 72
     1
  1
\A1;414
  7
SANWA
 11
0.0000000000000001
 21
1.0
 31
0.0
 73
     1
 44
1.0
  0
POINT
  5
A423
330
8D8A
100
AcDbEntity
  8
DEFPOINTS
 62
     0
 48
20.0
100
AcDbPoint
 10
3870.493333821984
 20
1910.848890208358
 30
0.0
  0
POINT
  5
A424
330
8D8A
100
AcDbEntity
  8
DEFPOINTS
 62
     0
 48
20.0
100
AcDbPoint
 10
3870.493333821984
 20
1496.848890208358
 30
0.0
  0
POINT
  5
A425
330
8D8A
100
AcDbEntity
  8
DEFPOINTS
 62
     0
 48
20.0
100
AcDbPoint
 10
3957.158892171228
 20
1496.848890208358
 30
0.0
  0
ENDBLK
  5
8D95
330
8D8A
100
AcDbEntity
  8
0
 48
20.0
100
AcDbBlockEnd
  0
BLOCK
  5
8DA1
330
8D97
100
AcDbEntity
  8
0
 48
20.0
100
AcDbBlockBegin
  2
*D12
 70
     1
 10
0.0
 20
0.0
 30
0.0
  3
*D12
  1

  0
LINE
  5
A426
330
8D97
100
AcDbEntity
  8
寸法引出
 48
20.0
370
    -2
100
AcDbLine
 10
3885.493333821983
 20
1496.848890208358
 30
0.0
 11
3964.658892171228
 21
1496.848890208358
 31
0.0
  0
LINE
  5
A427
330
8D97
100
AcDbEntity
  8
寸法引出
 48
20.0
370
    -2
100
AcDbLine
 10
3885.493333821983
 20
1250.848890208358
 30
0.0
 11
3964.658892171228
 21
1250.848890208358
 31
0.0
  0
LINE
  5
A428
330
8D97
100
AcDbEntity
  8
寸法引出
 48
20.0
370
    -2
100
AcDbLine
 10
3957.158892171228
 20
1474.348890208358
 30
0.0
 11
3957.158892171228
 21
1273.348890208358
 31
0.0
  0
SOLID
  5
A429
330
8D97
100
AcDbEntity
  8
寸法引出
 48
20.0
100
AcDbTrace
 10
3953.408892171228
 20
1474.348890208358
 30
0.0
 11
3960.908892171228
 21
1474.348890208358
 31
0.0
 12
3957.158892171228
 22
1496.848890208358
 32
0.0
 13
3957.158892171228
 23
1496.848890208358
 33
0.0
  0
SOLID
  5
A42A
330
8D97
100
AcDbEntity
  8
寸法引出
 48
20.0
100
AcDbTrace
 10
3953.408892171228
 20
1273.348890208358
 30
0.0
 11
3960.908892171228
 21
1273.348890208358
 31
0.0
 12
3957.158892171228
 22
1250.848890208358
 32
0.0
 13
3957.158892171228
 23
1250.848890208358
 33
0.0
  0
MTEXT
  5
A42B
330
8D97
100
AcDbEntity
  8
寸法引出
 48
20.0
100
AcDbMText
 10
3927.158892171227
 20
1373.848890208359
 30
0.0
 40
30.0
 41
0.0
 71
     5
 72
     1
  1
\A1;246
  7
SANWA
 11
0.0000000000000001
 21
1.0
 31
0.0
 73
     1
 44
1.0
  0
POINT
  5
A42C
330
8D97
100
AcDbEntity
  8
DEFPOINTS
 62
     0
 48
20.0
100
AcDbPoint
 10
3870.493333821984
 20
1496.848890208358
 30
0.0
  0
POINT
  5
A42D
330
8D97
100
AcDbEntity
  8
DEFPOINTS
 62
     0
 48
20.0
100
AcDbPoint
 10
3870.493333821984
 20
1250.848890208358
 30
0.0
  0
POINT
  5
A42E
330
8D97
100
AcDbEntity
  8
DEFPOINTS
 62
     0
 48
20.0
100
AcDbPoint
 10
3957.158892171228
 20
1250.848890208358
 30
0.0
  0
ENDBLK
  5
8DA2
330
8D97
100
AcDbEntity
  8
0
 48
20.0
100
AcDbBlockEnd
  0
BLOCK
  5
8DAE
330
8DA4
100
AcDbEntity
  8
0
 48
20.0
100
AcDbBlockBegin
  2
*D13
 70
     1
 10
0.0
 20
0.0
 30
0.0
  3
*D13
  1

  0
LINE
  5
A341
330
8DA4
100
AcDbEntity
  8
寸法引出
 48
20.0
370
    -2
100
AcDbLine
 10
1872.493333821983
 20
1925.848890208358
 30
0.0
 11
1872.493333821983
 21
2029.414878209756
 31
0.0
  0
LINE
  5
A342
330
8DA4
100
AcDbEntity
  8
寸法引出
 48
20.0
370
    -2
100
AcDbLine
 10
3870.493333821984
 20
1925.848890208358
 30
0.0
 11
3870.493333821984
 21
2029.414878209756
 31
0.0
  0
LINE
  5
A343
330
8DA4
100
AcDbEntity
  8
寸法引出
 48
20.0
370
    -2
100
AcDbLine
 10
1894.993333821983
 20
2021.914878209756
 30
0.0
 11
3847.993333821984
 21
2021.914878209756
 31
0.0
  0
SOLID
  5
A344
330
8DA4
100
AcDbEntity
  8
寸法引出
 48
20.0
100
AcDbTrace
 10
1894.993333821983
 20
2025.664878209756
 30
0.0
 11
1894.993333821983
 21
2018.164878209756
 31
0.0
 12
1872.493333821983
 22
2021.914878209756
 32
0.0
 13
1872.493333821983
 23
2021.914878209756
 33
0.0
  0
SOLID
  5
A345
330
8DA4
100
AcDbEntity
  8
寸法引出
 48
20.0
100
AcDbTrace
 10
3847.993333821984
 20
2025.664878209756
 30
0.0
 11
3847.993333821984
 21
2018.164878209756
 31
0.0
 12
3870.493333821984
 22
2021.914878209756
 32
0.0
 13
3870.493333821984
 23
2021.914878209756
 33
0.0
  0
MTEXT
  5
A346
330
8DA4
100
AcDbEntity
  8
寸法引出
 48
20.0
100
AcDbMText
 10
2871.493333821983
 20
2051.914878209756
 30
0.0
 40
30.0
 41
0.0
 71
     5
 72
     1
  1
\A1;1998
  7
SANWA
 73
     1
 44
1.0
  0
POINT
  5
A347
330
8DA4
100
AcDbEntity
  8
DEFPOINTS
 62
     0
 48
20.0
100
AcDbPoint
 10
1872.493333821983
 20
1910.848890208358
 30
0.0
  0
POINT
  5
A348
330
8DA4
100
AcDbEntity
  8
DEFPOINTS
 62
     0
 48
20.0
100
AcDbPoint
 10
3870.493333821984
 20
1910.848890208358
 30
0.0
  0
POINT
  5
A349
330
8DA4
100
AcDbEntity
  8
DEFPOINTS
 62
     0
 48
20.0
100
AcDbPoint
 10
3870.493333821984
 20
2021.914878209756
 30
0.0
  0
ENDBLK
  5
8DAF
330
8DA4
100
AcDbEntity
  8
0
 48
20.0
100
AcDbBlockEnd
  0
BLOCK
  5
8F36
330
8F2C
100
AcDbEntity
  8
0
 48
20.0
100
AcDbBlockBegin
  2
*D14
 70
     1
 10
0.0
 20
0.0
 30
0.0
  3
*D14
  1

  0
LINE
  5
9CF5
330
8F2C
100
AcDbEntity
  8
寸法引出
 48
20.0
370
    -2
100
AcDbLine
 10
2462.43085338182
 20
1449.55222456575
 30
0.0
 11
2462.43085338182
 21
1553.118212567146
 31
0.0
  0
LINE
  5
9CF6
330
8F2C
100
AcDbEntity
  8
寸法引出
 48
20.0
370
    -2
100
AcDbLine
 10
4460.43085338182
 20
1449.55222456575
 30
0.0
 11
4460.43085338182
 21
1553.118212567146
 31
0.0
  0
LINE
  5
9CF7
330
8F2C
100
AcDbEntity
  8
寸法引出
 48
20.0
370
    -2
100
AcDbLine
 10
2484.93085338182
 20
1545.618212567147
 30
0.0
 11
4437.93085338182
 21
1545.618212567147
 31
0.0
  0
SOLID
  5
9CF8
330
8F2C
100
AcDbEntity
  8
寸法引出
 48
20.0
100
AcDbTrace
 10
2484.93085338182
 20
1549.368212567147
 30
0.0
 11
2484.93085338182
 21
1541.868212567147
 31
0.0
 12
2462.43085338182
 22
1545.618212567147
 32
0.0
 13
2462.43085338182
 23
1545.618212567147
 33
0.0
  0
SOLID
  5
9CF9
330
8F2C
100
AcDbEntity
  8
寸法引出
 48
20.0
100
AcDbTrace
 10
4437.93085338182
 20
1549.368212567147
 30
0.0
 11
4437.93085338182
 21
1541.868212567147
 31
0.0
 12
4460.43085338182
 22
1545.618212567147
 32
0.0
 13
4460.43085338182
 23
1545.618212567147
 33
0.0
  0
MTEXT
  5
9CFA
330
8F2C
100
AcDbEntity
  8
寸法引出
 48
20.0
100
AcDbMText
 10
3461.43085338182
 20
1575.618212567146
 30
0.0
 40
30.0
 41
0.0
 71
     5
 72
     1
  1
\A1;1998
  7
SANWA
 73
     1
 44
1.0
  0
POINT
  5
9CFB
330
8F2C
100
AcDbEntity
  8
DEFPOINTS
 62
     0
 48
20.0
100
AcDbPoint
 10
2462.43085338182
 20
1434.55222456575
 30
0.0
  0
POINT
  5
9CFC
330
8F2C
100
AcDbEntity
  8
DEFPOINTS
 62
     0
 48
20.0
100
AcDbPoint
 10
4460.43085338182
 20
1434.55222456575
 30
0.0
  0
POINT
  5
9CFD
330
8F2C
100
AcDbEntity
  8
DEFPOINTS
 62
     0
 48
20.0
100
AcDbPoint
 10
4460.43085338182
 20
1545.618212567147
 30
0.0
  0
ENDBLK
  5
8F37
330
8F2C
100
AcDbEntity
  8
0
 48
20.0
100
AcDbBlockEnd
  0
BLOCK
  5
9081
330
9077
100
AcDbEntity
  8
0
 48
20.0
100
AcDbBlockBegin
  2
*D15
 70
     1
 10
0.0
 20
0.0
 30
0.0
  3
*D15
  1

  0
LINE
  5
9D59
330
9077
100
AcDbEntity
  8
寸法引出
 48
20.0
370
    -2
100
AcDbLine
 10
2447.43085338182
 20
1434.55222456575
 30
0.0
 11
2341.045006252981
 21
1434.55222456575
 31
0.0
  0
LINE
  5
9D5A
330
9077
100
AcDbEntity
  8
寸法引出
 48
20.0
370
    -2
100
AcDbLine
 10
2447.43085338182
 20
774.5522245657503
 30
0.0
 11
2341.045006252981
 21
774.5522245657503
 31
0.0
  0
LINE
  5
9D5B
330
9077
100
AcDbEntity
  8
寸法引出
 48
20.0
370
    -2
100
AcDbLine
 10
2348.545006252981
 20
1412.05222456575
 30
0.0
 11
2348.54500625298
 21
797.0522245657503
 31
0.0
  0
SOLID
  5
9D5C
330
9077
100
AcDbEntity
  8
寸法引出
 48
20.0
100
AcDbTrace
 10
2344.795006252981
 20
1412.05222456575
 30
0.0
 11
2352.295006252981
 21
1412.05222456575
 31
0.0
 12
2348.545006252981
 22
1434.55222456575
 32
0.0
 13
2348.545006252981
 23
1434.55222456575
 33
0.0
  0
SOLID
  5
9D5D
330
9077
100
AcDbEntity
  8
寸法引出
 48
20.0
100
AcDbTrace
 10
2344.795006252981
 20
797.0522245657503
 30
0.0
 11
2352.295006252981
 21
797.0522245657503
 31
0.0
 12
2348.54500625298
 22
774.5522245657503
 32
0.0
 13
2348.54500625298
 23
774.5522245657503
 33
0.0
  0
MTEXT
  5
9D5E
330
9077
100
AcDbEntity
  8
寸法引出
 48
20.0
100
AcDbMText
 10
2318.54500625298
 20
1104.55222456575
 30
0.0
 40
30.0
 41
0.0
 71
     5
 72
     1
  1
\A1;660
  7
SANWA
 11
0.0000000000000001
 21
1.0
 31
0.0
 73
     1
 44
1.0
  0
POINT
  5
9D5F
330
9077
100
AcDbEntity
  8
DEFPOINTS
 62
     0
 48
20.0
100
AcDbPoint
 10
2462.43085338182
 20
1434.55222456575
 30
0.0
  0
POINT
  5
9D60
330
9077
100
AcDbEntity
  8
DEFPOINTS
 62
     0
 48
20.0
100
AcDbPoint
 10
2462.43085338182
 20
774.5522245657503
 30
0.0
  0
POINT
  5
9D61
330
9077
100
AcDbEntity
  8
DEFPOINTS
 62
     0
 48
20.0
100
AcDbPoint
 10
2348.54500625298
 20
774.5522245657503
 30
0.0
  0
ENDBLK
  5
9082
330
9077
100
AcDbEntity
  8
0
 48
20.0
100
AcDbBlockEnd
  0
BLOCK
  5
908E
330
9084
100
AcDbEntity
  8
0
 48
20.0
100
AcDbBlockBegin
  2
*D16
 70
     1
 10
0.0
 20
0.0
 30
0.0
  3
*D16
  1

  0
LINE
  5
A3B0
330
9084
100
AcDbEntity
  8
寸法引出
 48
20.0
370
    -2
100
AcDbLine
 10
1857.493333821983
 20
1910.848890208358
 30
0.0
 11
1751.107486693144
 21
1910.848890208358
 31
0.0
  0
LINE
  5
A3B1
330
9084
100
AcDbEntity
  8
寸法引出
 48
20.0
370
    -2
100
AcDbLine
 10
1857.493333821983
 20
1250.848890208358
 30
0.0
 11
1751.107486693144
 21
1250.848890208358
 31
0.0
  0
LINE
  5
A3B2
330
9084
100
AcDbEntity
  8
寸法引出
 48
20.0
370
    -2
100
AcDbLine
 10
1758.607486693144
 20
1888.348890208358
 30
0.0
 11
1758.607486693144
 21
1273.348890208358
 31
0.0
  0
SOLID
  5
A3B3
330
9084
100
AcDbEntity
  8
寸法引出
 48
20.0
100
AcDbTrace
 10
1754.857486693144
 20
1888.348890208358
 30
0.0
 11
1762.357486693144
 21
1888.348890208358
 31
0.0
 12
1758.607486693144
 22
1910.848890208358
 32
0.0
 13
1758.607486693144
 23
1910.848890208358
 33
0.0
  0
SOLID
  5
A3B4
330
9084
100
AcDbEntity
  8
寸法引出
 48
20.0
100
AcDbTrace
 10
1754.857486693143
 20
1273.348890208358
 30
0.0
 11
1762.357486693144
 21
1273.348890208358
 31
0.0
 12
1758.607486693144
 22
1250.848890208358
 32
0.0
 13
1758.607486693144
 23
1250.848890208358
 33
0.0
  0
MTEXT
  5
A3B5
330
9084
100
AcDbEntity
  8
寸法引出
 48
20.0
100
AcDbMText
 10
1728.607486693143
 20
1580.848890208358
 30
0.0
 40
30.0
 41
0.0
 71
     5
 72
     1
  1
\A1;660
  7
SANWA
 11
0.0000000000000001
 21
1.0
 31
0.0
 73
     1
 44
1.0
  0
POINT
  5
A3B6
330
9084
100
AcDbEntity
  8
DEFPOINTS
 62
     0
 48
20.0
100
AcDbPoint
 10
1872.493333821983
 20
1910.848890208358
 30
0.0
  0
POINT
  5
A3B7
330
9084
100
AcDbEntity
  8
DEFPOINTS
 62
     0
 48
20.0
100
AcDbPoint
 10
1872.493333821983
 20
1250.848890208358
 30
0.0
  0
POINT
  5
A3B8
330
9084
100
AcDbEntity
  8
DEFPOINTS
 62
     0
 48
20.0
100
AcDbPoint
 10
1758.607486693144
 20
1250.848890208358
 30
0.0
  0
ENDBLK
  5
908F
330
9084
100
AcDbEntity
  8
0
 48
20.0
100
AcDbBlockEnd
  0
BLOCK
  5
920F
330
9203
100
AcDbEntity
  8
0
 48
20.0
100
AcDbBlockBegin
  2
*D17
 70
     1
 10
0.0
 20
0.0
 30
0.0
  3
*D17
  1

  0
LINE
  5
A2EF
330
9203
100
AcDbEntity
  8
寸法引出
 48
20.0
370
    -2
100
AcDbLine
 10
2233.486632061834
 20
290.68087367748
 30
0.0
 11
2233.486632061834
 21
472.6369083824228
 31
0.0
  0
LINE
  5
A2F0
330
9203
100
AcDbEntity
  8
寸法引出
 48
20.0
370
    -2
100
AcDbLine
 10
2208.486632061834
 20
415.6808736774801
 30
0.0
 11
2208.486632061834
 21
472.6369083824228
 31
0.0
  0
LINE
  5
A2F1
330
9203
100
AcDbEntity
  8
寸法引出
 48
20.0
370
    -2
100
AcDbLine
 10
2255.986632061834
 20
465.1369083824228
 30
0.0
 11
2278.486632061834
 21
465.1369083824228
 31
0.0
  0
LINE
  5
A2F2
330
9203
100
AcDbEntity
  8
寸法引出
 48
20.0
370
    -2
100
AcDbLine
 10
2185.986632061834
 20
465.1369083824228
 30
0.0
 11
2163.486632061834
 21
465.1369083824228
 31
0.0
  0
LINE
  5
A2F3
330
9203
100
AcDbEntity
  8
寸法引出
 48
20.0
370
    -2
100
AcDbLine
 10
2233.486632061834
 20
465.1369083824228
 30
0.0
 11
2208.486632061834
 21
465.1369083824228
 31
0.0
  0
SOLID
  5
A2F4
330
9203
100
AcDbEntity
  8
寸法引出
 48
20.0
100
AcDbTrace
 10
2255.986632061834
 20
468.8869083824228
 30
0.0
 11
2255.986632061834
 21
461.3869083824228
 31
0.0
 12
2233.486632061834
 22
465.1369083824228
 32
0.0
 13
2233.486632061834
 23
465.1369083824228
 33
0.0
  0
SOLID
  5
A2F5
330
9203
100
AcDbEntity
  8
寸法引出
 48
20.0
100
AcDbTrace
 10
2185.986632061834
 20
468.8869083824228
 30
0.0
 11
2185.986632061834
 21
461.3869083824228
 31
0.0
 12
2208.486632061834
 22
465.1369083824228
 32
0.0
 13
2208.486632061834
 23
465.1369083824228
 33
0.0
  0
MTEXT
  5
A2F6
330
9203
100
AcDbEntity
  8
寸法引出
 48
20.0
100
AcDbMText
 10
2220.986632061834
 20
495.1369083824229
 30
0.0
 40
30.0
 41
0.0
 71
     5
 72
     1
  1
\A1;5
  7
SANWA
 73
     1
 44
1.0
  0
POINT
  5
A2F7
330
9203
100
AcDbEntity
  8
DEFPOINTS
 62
     0
 48
20.0
100
AcDbPoint
 10
2233.486632061834
 20
275.68087367748
 30
0.0
  0
POINT
  5
A2F8
330
9203
100
AcDbEntity
  8
DEFPOINTS
 62
     0
 48
20.0
100
AcDbPoint
 10
2208.486632061834
 20
400.68087367748
 30
0.0
  0
POINT
  5
A2F9
330
9203
100
AcDbEntity
  8
DEFPOINTS
 62
     0
 48
20.0
100
AcDbPoint
 10
2208.486632061834
 20
465.1369083824228
 30
0.0
  0
ENDBLK
  5
9210
330
9203
100
AcDbEntity
  8
0
 48
20.0
100
AcDbBlockEnd
  0
BLOCK
  5
924E
330
9242
100
AcDbEntity
  8
0
 48
20.0
100
AcDbBlockBegin
  2
*D18
 70
     1
 10
0.0
 20
0.0
 30
0.0
  3
*D18
  1

  0
LINE
  5
A2E4
330
9242
100
AcDbEntity
  8
寸法引出
 48
20.0
370
    -2
100
AcDbLine
 10
2093.486632061834
 20
400.68087367748
 30
0.0
 11
2060.498898564288
 21
400.68087367748
 31
0.0
  0
LINE
  5
A2E5
330
9242
100
AcDbEntity
  8
寸法引出
 48
20.0
370
    -2
100
AcDbLine
 10
2193.486632061834
 20
370.68087367748
 30
0.0
 11
2060.498898564288
 21
370.6808736774801
 31
0.0
  0
LINE
  5
A2E6
330
9242
100
AcDbEntity
  8
寸法引出
 48
20.0
370
    -2
100
AcDbLine
 10
2067.998898564288
 20
423.18087367748
 30
0.0
 11
2067.998898564288
 21
445.68087367748
 31
0.0
  0
LINE
  5
A2E7
330
9242
100
AcDbEntity
  8
寸法引出
 48
20.0
370
    -2
100
AcDbLine
 10
2067.998898564288
 20
348.1808736774801
 30
0.0
 11
2067.998898564288
 21
325.6808736774801
 31
0.0
  0
MTEXT
  5
A2E8
330
9242
100
AcDbEntity
  8
寸法引出
 48
20.0
100
AcDbMText
 10
2034.924780979257
 20
419.4246778782289
 30
0.0
 40
30.0
 41
0.0
 71
     5
 72
     1
  1
\A1;6
  7
SANWA
 11
0.0000000000000001
 21
1.0
 31
0.0
 73
     1
 44
1.0
  0
LINE
  5
A2E9
330
9242
100
AcDbEntity
  8
寸法引出
 48
20.0
370
    -2
100
AcDbLine
 10
2067.998898564288
 20
400.68087367748
 30
0.0
 11
2067.998898564288
 21
370.6808736774801
 31
0.0
  0
SOLID
  5
A2EA
330
9242
100
AcDbEntity
  8
寸法引出
 48
20.0
100
AcDbTrace
 10
2064.248898564288
 20
423.18087367748
 30
0.0
 11
2071.748898564288
 21
423.18087367748
 31
0.0
 12
2067.998898564288
 22
400.68087367748
 32
0.0
 13
2067.998898564288
 23
400.68087367748
 33
0.0
  0
SOLID
  5
A2EB
330
9242
100
AcDbEntity
  8
寸法引出
 48
20.0
100
AcDbTrace
 10
2064.248898564288
 20
348.1808736774801
 30
0.0
 11
2071.748898564288
 21
348.1808736774801
 31
0.0
 12
2067.998898564288
 22
370.6808736774801
 32
0.0
 13
2067.998898564288
 23
370.6808736774801
 33
0.0
  0
POINT
  5
A2EC
330
9242
100
AcDbEntity
  8
DEFPOINTS
 62
     0
 48
20.0
100
AcDbPoint
 10
2108.486632061834
 20
400.68087367748
 30
0.0
  0
POINT
  5
A2ED
330
9242
100
AcDbEntity
  8
DEFPOINTS
 62
     0
 48
20.0
100
AcDbPoint
 10
2208.486632061834
 20
370.68087367748
 30
0.0
  0
POINT
  5
A2EE
330
9242
100
AcDbEntity
  8
DEFPOINTS
 62
     0
 48
20.0
100
AcDbPoint
 10
2067.998898564288
 20
370.6808736774801
 30
0.0
  0
ENDBLK
  5
924F
330
9242
100
AcDbEntity
  8
0
 48
20.0
100
AcDbBlockEnd
  0
BLOCK
  5
925D
330
9251
100
AcDbEntity
  8
0
 48
20.0
100
AcDbBlockBegin
  2
*D19
 70
     1
 10
0.0
 20
0.0
 30
0.0
  3
*D19
  1

  0
LINE
  5
A2D9
330
9251
100
AcDbEntity
  8
寸法引出
 48
20.0
370
    -2
100
AcDbLine
 10
2193.486632061834
 20
370.68087367748
 30
0.0
 11
2060.498898564288
 21
370.6808736774801
 31
0.0
  0
LINE
  5
A2DA
330
9251
100
AcDbEntity
  8
寸法引出
 48
20.0
370
    -2
100
AcDbLine
 10
2168.486632061834
 20
295.6808736774801
 30
0.0
 11
2060.498898564288
 21
295.6808736774801
 31
0.0
  0
LINE
  5
A2DB
330
9251
100
AcDbEntity
  8
寸法引出
 48
20.0
370
    -2
100
AcDbLine
 10
2067.998898564288
 20
393.1808736774801
 30
0.0
 11
2067.998898564288
 21
415.6808736774801
 31
0.0
  0
LINE
  5
A2DC
330
9251
100
AcDbEntity
  8
寸法引出
 48
20.0
370
    -2
100
AcDbLine
 10
2067.998898564288
 20
273.1808736774801
 30
0.0
 11
2067.998898564288
 21
250.6808736774801
 31
0.0
  0
LINE
  5
A2DD
330
9251
100
AcDbEntity
  8
寸法引出
 48
20.0
370
    -2
100
AcDbLine
 10
2067.998898564288
 20
370.6808736774801
 30
0.0
 11
2067.998898564288
 21
295.6808736774801
 31
0.0
  0
SOLID
  5
A2DE
330
9251
100
AcDbEntity
  8
寸法引出
 48
20.0
100
AcDbTrace
 10
2064.248898564288
 20
393.1808736774801
 30
0.0
 11
2071.748898564288
 21
393.1808736774801
 31
0.0
 12
2067.998898564288
 22
370.6808736774801
 32
0.0
 13
2067.998898564288
 23
370.6808736774801
 33
0.0
  0
SOLID
  5
A2DF
330
9251
100
AcDbEntity
  8
寸法引出
 48
20.0
100
AcDbTrace
 10
2064.248898564288
 20
273.1808736774801
 30
0.0
 11
2071.748898564288
 21
273.1808736774801
 31
0.0
 12
2067.998898564288
 22
295.6808736774801
 32
0.0
 13
2067.998898564288
 23
295.6808736774801
 33
0.0
  0
MTEXT
  5
A2E0
330
9251
100
AcDbEntity
  8
寸法引出
 48
20.0
100
AcDbMText
 10
2037.998898564288
 20
333.1808736774804
 30
0.0
 40
30.0
 41
0.0
 71
     5
 72
     1
  1
\A1;15
  7
SANWA
 11
0.0000000000000001
 21
1.0
 31
0.0
 73
     1
 44
1.0
  0
POINT
  5
A2E1
330
9251
100
AcDbEntity
  8
DEFPOINTS
 62
     0
 48
20.0
100
AcDbPoint
 10
2208.486632061834
 20
370.68087367748
 30
0.0
  0
POINT
  5
A2E2
330
9251
100
AcDbEntity
  8
DEFPOINTS
 62
     0
 48
20.0
100
AcDbPoint
 10
2183.486632061834
 20
295.6808736774801
 30
0.0
  0
POINT
  5
A2E3
330
9251
100
AcDbEntity
  8
DEFPOINTS
 62
     0
 48
20.0
100
AcDbPoint
 10
2067.998898564288
 20
295.6808736774801
 30
0.0
  0
ENDBLK
  5
925E
330
9251
100
AcDbEntity
  8
0
 48
20.0
100
AcDbBlockEnd
  0
BLOCK
  5
926C
330
9260
100
AcDbEntity
  8
0
 48
20.0
100
AcDbBlockBegin
  2
*D20
 70
     1
 10
0.0
 20
0.0
 30
0.0
  3
*D20
  1

  0
LINE
  5
A2FA
330
9260
100
AcDbEntity
  8
寸法引出
 48
20.0
370
    -2
100
AcDbLine
 10
2168.486632061834
 20
295.6808736774801
 30
0.0
 11
2060.498898564288
 21
295.6808736774801
 31
0.0
  0
LINE
  5
A2FB
330
9260
100
AcDbEntity
  8
寸法引出
 48
20.0
370
    -2
100
AcDbLine
 10
2218.486632061834
 20
275.68087367748
 30
0.0
 11
2060.498898564288
 21
275.6808736774801
 31
0.0
  0
LINE
  5
A2FC
330
9260
100
AcDbEntity
  8
寸法引出
 48
20.0
370
    -2
100
AcDbLine
 10
2067.998898564288
 20
318.1808736774801
 30
0.0
 11
2067.998898564288
 21
340.6808736774801
 31
0.0
  0
LINE
  5
A2FD
330
9260
100
AcDbEntity
  8
寸法引出
 48
20.0
370
    -2
100
AcDbLine
 10
2067.998898564288
 20
253.1808736774801
 30
0.0
 11
2067.998898564288
 21
230.6808736774801
 31
0.0
  0
MTEXT
  5
A2FE
330
9260
100
AcDbEntity
  8
寸法引出
 48
20.0
100
AcDbMText
 10
2037.526880556331
 20
259.0538310957398
 30
0.0
 40
30.0
 41
0.0
 71
     5
 72
     1
  1
\A1;4
  7
SANWA
 11
0.0000000000000001
 21
1.0
 31
0.0
 73
     1
 44
1.0
  0
LINE
  5
A2FF
330
9260
100
AcDbEntity
  8
寸法引出
 48
20.0
370
    -2
100
AcDbLine
 10
2067.998898564288
 20
295.6808736774801
 30
0.0
 11
2067.998898564288
 21
275.6808736774801
 31
0.0
  0
SOLID
  5
A300
330
9260
100
AcDbEntity
  8
寸法引出
 48
20.0
100
AcDbTrace
 10
2064.248898564288
 20
318.1808736774801
 30
0.0
 11
2071.748898564288
 21
318.1808736774801
 31
0.0
 12
2067.998898564288
 22
295.6808736774801
 32
0.0
 13
2067.998898564288
 23
295.6808736774801
 33
0.0
  0
SOLID
  5
A301
330
9260
100
AcDbEntity
  8
寸法引出
 48
20.0
100
AcDbTrace
 10
2064.248898564288
 20
253.1808736774801
 30
0.0
 11
2071.748898564288
 21
253.1808736774801
 31
0.0
 12
2067.998898564288
 22
275.6808736774801
 32
0.0
 13
2067.998898564288
 23
275.6808736774801
 33
0.0
  0
POINT
  5
A302
330
9260
100
AcDbEntity
  8
DEFPOINTS
 62
     0
 48
20.0
100
AcDbPoint
 10
2183.486632061834
 20
295.6808736774801
 30
0.0
  0
POINT
  5
A303
330
9260
100
AcDbEntity
  8
DEFPOINTS
 62
     0
 48
20.0
100
AcDbPoint
 10
2233.486632061834
 20
275.68087367748
 30
0.0
  0
POINT
  5
A304
330
9260
100
AcDbEntity
  8
DEFPOINTS
 62
     0
 48
20.0
100
AcDbPoint
 10
2067.998898564288
 20
275.6808736774801
 30
0.0
  0
ENDBLK
  5
926D
330
9260
100
AcDbEntity
  8
0
 48
20.0
100
AcDbBlockEnd
  0
BLOCK
  5
929C
330
9290
100
AcDbEntity
  8
0
 48
20.0
100
AcDbBlockBegin
  2
*D21
 70
     1
 10
0.0
 20
0.0
 30
0.0
  3
*D21
  1

  0
LINE
  5
A305
330
9290
100
AcDbEntity
  8
寸法引出
 48
20.0
370
    -2
100
AcDbLine
 10
2183.486632061834
 20
280.6808736774801
 30
0.0
 11
2183.486632061834
 21
198.5840701650904
 31
0.0
  0
LINE
  5
A306
330
9290
100
AcDbEntity
  8
寸法引出
 48
20.0
370
    -2
100
AcDbLine
 10
2233.486632061834
 20
260.68087367748
 30
0.0
 11
2233.486632061834
 21
198.5840701650904
 31
0.0
  0
LINE
  5
A307
330
9290
100
AcDbEntity
  8
寸法引出
 48
20.0
370
    -2
100
AcDbLine
 10
2160.986632061834
 20
206.0840701650903
 30
0.0
 11
2138.486632061834
 21
206.0840701650903
 31
0.0
  0
LINE
  5
A308
330
9290
100
AcDbEntity
  8
寸法引出
 48
20.0
370
    -2
100
AcDbLine
 10
2255.986632061834
 20
206.0840701650903
 30
0.0
 11
2278.486632061834
 21
206.0840701650903
 31
0.0
  0
LINE
  5
A309
330
9290
100
AcDbEntity
  8
寸法引出
 48
20.0
370
    -2
100
AcDbLine
 10
2183.486632061834
 20
206.0840701650903
 30
0.0
 11
2233.486632061834
 21
206.0840701650903
 31
0.0
  0
SOLID
  5
A30A
330
9290
100
AcDbEntity
  8
寸法引出
 48
20.0
100
AcDbTrace
 10
2160.986632061834
 20
209.8340701650903
 30
0.0
 11
2160.986632061834
 21
202.3340701650904
 31
0.0
 12
2183.486632061834
 22
206.0840701650903
 32
0.0
 13
2183.486632061834
 23
206.0840701650903
 33
0.0
  0
SOLID
  5
A30B
330
9290
100
AcDbEntity
  8
寸法引出
 48
20.0
100
AcDbTrace
 10
2255.986632061834
 20
209.8340701650903
 30
0.0
 11
2255.986632061834
 21
202.3340701650904
 31
0.0
 12
2233.486632061834
 22
206.0840701650903
 32
0.0
 13
2233.486632061834
 23
206.0840701650903
 33
0.0
  0
MTEXT
  5
A30C
330
9290
100
AcDbEntity
  8
寸法引出
 48
20.0
100
AcDbMText
 10
2208.486632061834
 20
236.0840701650904
 30
0.0
 40
30.0
 41
0.0
 71
     5
 72
     1
  1
\A1;10
  7
SANWA
 73
     1
 44
1.0
  0
POINT
  5
A30D
330
9290
100
AcDbEntity
  8
DEFPOINTS
 62
     0
 48
20.0
100
AcDbPoint
 10
2183.486632061834
 20
295.6808736774801
 30
0.0
  0
POINT
  5
A30E
330
9290
100
AcDbEntity
  8
DEFPOINTS
 62
     0
 48
20.0
100
AcDbPoint
 10
2233.486632061834
 20
275.68087367748
 30
0.0
  0
POINT
  5
A30F
330
9290
100
AcDbEntity
  8
DEFPOINTS
 62
     0
 48
20.0
100
AcDbPoint
 10
2233.486632061834
 20
206.0840701650903
 30
0.0
  0
ENDBLK
  5
929D
330
9290
100
AcDbEntity
  8
0
 48
20.0
100
AcDbBlockEnd
  0
BLOCK
  5
9C6A
330
9C60
100
AcDbEntity
  8
0
 48
20.0
100
AcDbBlockBegin
  2
*D22
 70
     1
 10
0.0
 20
0.0
 30
0.0
  3
*D22
  1

  0
LINE
  5
A39E
330
9C60
100
AcDbEntity
  8
寸法引出
 48
20.0
370
    -2
100
AcDbLine
 10
893.5782198007601
 20
1820.848890208358
 30
0.0
 11
793.4095255738172
 21
1820.848890208358
 31
0.0
  0
LINE
  5
A39F
330
9C60
100
AcDbEntity
  8
寸法引出
 48
20.0
370
    -2
100
AcDbLine
 10
918.5782198007624
 20
1320.848890208359
 30
0.0
 11
793.4095255738172
 21
1320.848890208359
 31
0.0
  0
LINE
  5
A3A0
330
9C60
100
AcDbEntity
  8
寸法引出
 48
20.0
370
    -2
100
AcDbLine
 10
800.9095255738172
 20
1798.348890208358
 30
0.0
 11
800.9095255738172
 21
1343.348890208359
 31
0.0
  0
SOLID
  5
A3A1
330
9C60
100
AcDbEntity
  8
寸法引出
 48
20.0
100
AcDbTrace
 10
797.1595255738173
 20
1798.348890208358
 30
0.0
 11
804.6595255738173
 21
1798.348890208358
 31
0.0
 12
800.9095255738172
 22
1820.848890208358
 32
0.0
 13
800.9095255738172
 23
1820.848890208358
 33
0.0
  0
SOLID
  5
A3A2
330
9C60
100
AcDbEntity
  8
寸法引出
 48
20.0
100
AcDbTrace
 10
797.1595255738171
 20
1343.348890208359
 30
0.0
 11
804.6595255738171
 21
1343.348890208359
 31
0.0
 12
800.9095255738172
 22
1320.848890208359
 32
0.0
 13
800.9095255738172
 23
1320.848890208359
 33
0.0
  0
MTEXT
  5
A3A3
330
9C60
100
AcDbEntity
  8
寸法引出
 48
20.0
100
AcDbMText
 10
770.9095255738169
 20
1570.848890208359
 30
0.0
 40
30.0
 41
0.0
 71
     5
 72
     1
  1
\A1;500
  7
SANWA
 11
0.0000000000000001
 21
1.0
 31
0.0
 73
     1
 44
1.0
  0
POINT
  5
A3A4
330
9C60
100
AcDbEntity
  8
DEFPOINTS
 62
     0
 48
20.0
100
AcDbPoint
 10
908.5782198007601
 20
1820.848890208358
 30
0.0
  0
POINT
  5
A3A5
330
9C60
100
AcDbEntity
  8
DEFPOINTS
 62
     0
 48
20.0
100
AcDbPoint
 10
933.5782198007624
 20
1320.848890208359
 30
0.0
  0
POINT
  5
A3A6
330
9C60
100
AcDbEntity
  8
DEFPOINTS
 62
     0
 48
20.0
100
AcDbPoint
 10
800.9095255738172
 20
1320.848890208359
 30
0.0
  0
ENDBLK
  5
9C6B
330
9C60
100
AcDbEntity
  8
0
 48
20.0
100
AcDbBlockEnd
  0
BLOCK
  5
9C79
330
9C6D
100
AcDbEntity
  8
0
 48
20.0
100
AcDbBlockBegin
  2
*D23
 70
     1
 10
0.0
 20
0.0
 30
0.0
  3
*D23
  1

  0
LINE
  5
A376
330
9C6D
100
AcDbEntity
  8
寸法引出
 48
20.0
370
    -2
100
AcDbLine
 10
918.5782198007624
 20
1320.848890208359
 30
0.0
 11
793.4095255738172
 21
1320.848890208359
 31
0.0
  0
LINE
  5
A377
330
9C6D
100
AcDbEntity
  8
寸法引出
 48
20.0
370
    -2
100
AcDbLine
 10
942.0782198007625
 20
1250.848890208359
 30
0.0
 11
793.4095255738172
 21
1250.848890208359
 31
0.0
  0
LINE
  5
A378
330
9C6D
100
AcDbEntity
  8
寸法引出
 48
20.0
370
    -2
100
AcDbLine
 10
800.9095255738172
 20
1343.348890208359
 30
0.0
 11
800.9095255738172
 21
1365.848890208359
 31
0.0
  0
LINE
  5
A379
330
9C6D
100
AcDbEntity
  8
寸法引出
 48
20.0
370
    -2
100
AcDbLine
 10
800.9095255738172
 20
1228.348890208359
 30
0.0
 11
800.9095255738172
 21
1205.848890208359
 31
0.0
  0
LINE
  5
A37A
330
9C6D
100
AcDbEntity
  8
寸法引出
 48
20.0
370
    -2
100
AcDbLine
 10
800.9095255738172
 20
1320.848890208359
 30
0.0
 11
800.9095255738172
 21
1250.848890208359
 31
0.0
  0
SOLID
  5
A37B
330
9C6D
100
AcDbEntity
  8
寸法引出
 48
20.0
100
AcDbTrace
 10
797.1595255738173
 20
1343.348890208359
 30
0.0
 11
804.6595255738173
 21
1343.348890208359
 31
0.0
 12
800.9095255738172
 22
1320.848890208359
 32
0.0
 13
800.9095255738172
 23
1320.848890208359
 33
0.0
  0
SOLID
  5
A37C
330
9C6D
100
AcDbEntity
  8
寸法引出
 48
20.0
100
AcDbTrace
 10
797.1595255738171
 20
1228.348890208359
 30
0.0
 11
804.6595255738171
 21
1228.348890208359
 31
0.0
 12
800.9095255738172
 22
1250.848890208359
 32
0.0
 13
800.9095255738172
 23
1250.848890208359
 33
0.0
  0
MTEXT
  5
A37D
330
9C6D
100
AcDbEntity
  8
寸法引出
 48
20.0
100
AcDbMText
 10
770.909525573817
 20
1285.848890208359
 30
0.0
 40
30.0
 41
0.0
 71
     5
 72
     1
  1
\A1;70
  7
SANWA
 11
0.0000000000000001
 21
1.0
 31
0.0
 73
     1
 44
1.0
  0
POINT
  5
A37E
330
9C6D
100
AcDbEntity
  8
DEFPOINTS
 62
     0
 48
20.0
100
AcDbPoint
 10
933.5782198007624
 20
1320.848890208359
 30
0.0
  0
POINT
  5
A37F
330
9C6D
100
AcDbEntity
  8
DEFPOINTS
 62
     0
 48
20.0
100
AcDbPoint
 10
957.0782198007623
 20
1250.848890208359
 30
0.0
  0
POINT
  5
A380
330
9C6D
100
AcDbEntity
  8
DEFPOINTS
 62
     0
 48
20.0
100
AcDbPoint
 10
800.9095255738172
 20
1250.848890208359
 30
0.0
  0
ENDBLK
  5
9C7A
330
9C6D
100
AcDbEntity
  8
0
 48
20.0
100
AcDbBlockEnd
  0
BLOCK
  5
9C86
330
9C7C
100
AcDbEntity
  8
0
 48
20.0
100
AcDbBlockBegin
  2
*D24
 70
     1
 10
0.0
 20
0.0
 30
0.0
  3
*D24
  1

  0
LINE
  5
A381
330
9C7C
100
AcDbEntity
  8
寸法引出
 48
20.0
370
    -2
100
AcDbLine
 10
898.0782198007601
 20
1910.848890208358
 30
0.0
 11
715.6487798404506
 21
1910.848890208358
 31
0.0
  0
LINE
  5
A382
330
9C7C
100
AcDbEntity
  8
寸法引出
 48
20.0
370
    -2
100
AcDbLine
 10
942.0782198007625
 20
1250.848890208359
 30
0.0
 11
715.6487798404504
 21
1250.848890208359
 31
0.0
  0
LINE
  5
A383
330
9C7C
100
AcDbEntity
  8
寸法引出
 48
20.0
370
    -2
100
AcDbLine
 10
723.1487798404506
 20
1888.348890208358
 30
0.0
 11
723.1487798404503
 21
1273.348890208359
 31
0.0
  0
SOLID
  5
A384
330
9C7C
100
AcDbEntity
  8
寸法引出
 48
20.0
100
AcDbTrace
 10
719.3987798404506
 20
1888.348890208358
 30
0.0
 11
726.8987798404506
 21
1888.348890208358
 31
0.0
 12
723.1487798404506
 22
1910.848890208358
 32
0.0
 13
723.1487798404506
 23
1910.848890208358
 33
0.0
  0
SOLID
  5
A385
330
9C7C
100
AcDbEntity
  8
寸法引出
 48
20.0
100
AcDbTrace
 10
719.3987798404504
 20
1273.348890208359
 30
0.0
 11
726.8987798404504
 21
1273.348890208359
 31
0.0
 12
723.1487798404503
 22
1250.848890208359
 32
0.0
 13
723.1487798404503
 23
1250.848890208359
 33
0.0
  0
MTEXT
  5
A386
330
9C7C
100
AcDbEntity
  8
寸法引出
 48
20.0
100
AcDbMText
 10
693.1487798404503
 20
1580.848890208359
 30
0.0
 40
30.0
 41
0.0
 71
     5
 72
     1
  1
\A1;660
  7
SANWA
 11
0.0000000000000001
 21
1.0
 31
0.0
 73
     1
 44
1.0
  0
POINT
  5
A387
330
9C7C
100
AcDbEntity
  8
DEFPOINTS
 62
     0
 48
20.0
100
AcDbPoint
 10
913.0782198007601
 20
1910.848890208358
 30
0.0
  0
POINT
  5
A388
330
9C7C
100
AcDbEntity
  8
DEFPOINTS
 62
     0
 48
20.0
100
AcDbPoint
 10
957.0782198007623
 20
1250.848890208359
 30
0.0
  0
POINT
  5
A389
330
9C7C
100
AcDbEntity
  8
DEFPOINTS
 62
     0
 48
20.0
100
AcDbPoint
 10
723.1487798404503
 20
1250.848890208359
 30
0.0
  0
ENDBLK
  5
9C87
330
9C7C
100
AcDbEntity
  8
0
 48
20.0
100
AcDbBlockEnd
  0
BLOCK
  5
9C95
330
9C89
100
AcDbEntity
  8
0
 48
20.0
100
AcDbBlockBegin
  2
*D25
 70
     1
 10
0.0
 20
0.0
 30
0.0
  3
*D25
  1

  0
LINE
  5
A38A
330
9C89
100
AcDbEntity
  8
寸法引出
 48
20.0
370
    -2
100
AcDbLine
 10
933.5782198007624
 20
1335.848890208359
 30
0.0
 11
933.5782198007624
 21
1567.631423711984
 31
0.0
  0
LINE
  5
A38B
330
9C89
100
AcDbEntity
  8
寸法引出
 48
20.0
370
    -2
100
AcDbLine
 10
998.5782198007624
 20
1335.848890208359
 30
0.0
 11
998.5782198007624
 21
1567.631423711984
 31
0.0
  0
LINE
  5
A38C
330
9C89
100
AcDbEntity
  8
寸法引出
 48
20.0
370
    -2
100
AcDbLine
 10
911.0782198007624
 20
1560.131423711984
 30
0.0
 11
888.5782198007625
 21
1560.131423711984
 31
0.0
  0
LINE
  5
A38D
330
9C89
100
AcDbEntity
  8
寸法引出
 48
20.0
370
    -2
100
AcDbLine
 10
1021.078219800762
 20
1560.131423711984
 30
0.0
 11
1043.578219800762
 21
1560.131423711984
 31
0.0
  0
MTEXT
  5
A38E
330
9C89
100
AcDbEntity
  8
寸法引出
 48
20.0
100
AcDbMText
 10
943.2436514772302
 20
1590.980691892238
 30
0.0
 40
30.0
 41
0.0
 71
     5
 72
     1
  1
\A1;65
  7
SANWA
 73
     1
 44
1.0
  0
LINE
  5
A38F
330
9C89
100
AcDbEntity
  8
寸法引出
 48
20.0
370
    -2
100
AcDbLine
 10
933.5782198007624
 20
1560.131423711984
 30
0.0
 11
998.5782198007624
 21
1560.131423711984
 31
0.0
  0
SOLID
  5
A390
330
9C89
100
AcDbEntity
  8
寸法引出
 48
20.0
100
AcDbTrace
 10
911.0782198007624
 20
1563.881423711984
 30
0.0
 11
911.0782198007624
 21
1556.381423711984
 31
0.0
 12
933.5782198007624
 22
1560.131423711984
 32
0.0
 13
933.5782198007624
 23
1560.131423711984
 33
0.0
  0
SOLID
  5
A391
330
9C89
100
AcDbEntity
  8
寸法引出
 48
20.0
100
AcDbTrace
 10
1021.078219800762
 20
1563.881423711984
 30
0.0
 11
1021.078219800762
 21
1556.381423711984
 31
0.0
 12
998.5782198007624
 22
1560.131423711984
 32
0.0
 13
998.5782198007624
 23
1560.131423711984
 33
0.0
  0
POINT
  5
A392
330
9C89
100
AcDbEntity
  8
DEFPOINTS
 62
     0
 48
20.0
100
AcDbPoint
 10
933.5782198007624
 20
1320.848890208359
 30
0.0
  0
POINT
  5
A393
330
9C89
100
AcDbEntity
  8
DEFPOINTS
 62
     0
 48
20.0
100
AcDbPoint
 10
998.5782198007624
 20
1320.848890208359
 30
0.0
  0
POINT
  5
A394
330
9C89
100
AcDbEntity
  8
DEFPOINTS
 62
     0
 48
20.0
100
AcDbPoint
 10
998.5782198007624
 20
1560.131423711984
 30
0.0
  0
ENDBLK
  5
9C96
330
9C89
100
AcDbEntity
  8
0
 48
20.0
100
AcDbBlockEnd
  0
BLOCK
  5
9CA2
330
9C98
100
AcDbEntity
  8
0
 48
20.0
100
AcDbBlockBegin
  2
*D26
 70
     1
 10
0.0
 20
0.0
 30
0.0
  3
*D26
  1

  0
LINE
  5
A3CD
330
9C98
100
AcDbEntity
  8
寸法引出
 48
20.0
370
    -2
100
AcDbLine
 10
998.5782198007624
 20
1335.848890208359
 30
0.0
 11
998.5782198007624
 21
1567.631423711984
 31
0.0
  0
LINE
  5
A3CE
330
9C98
100
AcDbEntity
  8
寸法引出
 48
20.0
370
    -2
100
AcDbLine
 10
1358.578219800761
 20
1335.848890208359
 30
0.0
 11
1358.578219800761
 21
1567.631423711984
 31
0.0
  0
LINE
  5
A3CF
330
9C98
100
AcDbEntity
  8
寸法引出
 48
20.0
370
    -2
100
AcDbLine
 10
1021.078219800762
 20
1560.131423711984
 30
0.0
 11
1336.078219800761
 21
1560.131423711984
 31
0.0
  0
SOLID
  5
A3D0
330
9C98
100
AcDbEntity
  8
寸法引出
 48
20.0
100
AcDbTrace
 10
1021.078219800762
 20
1563.881423711984
 30
0.0
 11
1021.078219800762
 21
1556.381423711984
 31
0.0
 12
998.5782198007624
 22
1560.131423711984
 32
0.0
 13
998.5782198007624
 23
1560.131423711984
 33
0.0
  0
SOLID
  5
A3D1
330
9C98
100
AcDbEntity
  8
寸法引出
 48
20.0
100
AcDbTrace
 10
1336.078219800761
 20
1563.881423711984
 30
0.0
 11
1336.078219800761
 21
1556.381423711984
 31
0.0
 12
1358.578219800761
 22
1560.131423711984
 32
0.0
 13
1358.578219800761
 23
1560.131423711984
 33
0.0
  0
MTEXT
  5
A3D2
330
9C98
100
AcDbEntity
  8
寸法引出
 48
20.0
100
AcDbMText
 10
1178.578219800761
 20
1590.131423711984
 30
0.0
 40
30.0
 41
0.0
 71
     5
 72
     1
  1
\A1;360
  7
SANWA
 73
     1
 44
1.0
  0
POINT
  5
A3D3
330
9C98
100
AcDbEntity
  8
DEFPOINTS
 62
     0
 48
20.0
100
AcDbPoint
 10
998.5782198007624
 20
1320.848890208359
 30
0.0
  0
POINT
  5
A3D4
330
9C98
100
AcDbEntity
  8
DEFPOINTS
 62
     0
 48
20.0
100
AcDbPoint
 10
1358.578219800761
 20
1320.848890208359
 30
0.0
  0
POINT
  5
A3D5
330
9C98
100
AcDbEntity
  8
DEFPOINTS
 62
     0
 48
20.0
100
AcDbPoint
 10
1358.578219800761
 20
1560.131423711984
 30
0.0
  0
ENDBLK
  5
9CA3
330
9C98
100
AcDbEntity
  8
0
 48
20.0
100
AcDbBlockEnd
  0
BLOCK
  5
9E0F
330
9E05
100
AcDbEntity
  8
0
 48
20.0
100
AcDbBlockBegin
  2
*D27
 70
     1
 10
0.0
 20
0.0
 30
0.0
  3
*D27
  1

  0
LINE
  5
9E06
330
9E05
100
AcDbEntity
  8
寸法引出
 48
20.0
370
    -2
100
AcDbLine
 10
1498.515739360597
 20
1445.052224565749
 30
0.0
 11
1498.515739360597
 21
1553.118212567146
 31
0.0
  0
LINE
  5
9E07
330
9E05
100
AcDbEntity
  8
寸法引出
 48
20.0
370
    -2
100
AcDbLine
 10
2038.515739360597
 20
1445.052224565749
 30
0.0
 11
2038.515739360597
 21
1553.118212567146
 31
0.0
  0
LINE
  5
9E08
330
9E05
100
AcDbEntity
  8
寸法引出
 48
20.0
370
    -2
100
AcDbLine
 10
1521.015739360596
 20
1545.618212567147
 30
0.0
 11
2016.015739360596
 21
1545.618212567147
 31
0.0
  0
SOLID
  5
9E09
330
9E05
100
AcDbEntity
  8
寸法引出
 48
20.0
100
AcDbTrace
 10
1521.015739360596
 20
1549.368212567147
 30
0.0
 11
1521.015739360596
 21
1541.868212567147
 31
0.0
 12
1498.515739360597
 22
1545.618212567147
 32
0.0
 13
1498.515739360597
 23
1545.618212567147
 33
0.0
  0
SOLID
  5
9E0A
330
9E05
100
AcDbEntity
  8
寸法引出
 48
20.0
100
AcDbTrace
 10
2016.015739360596
 20
1549.368212567147
 30
0.0
 11
2016.015739360596
 21
1541.868212567147
 31
0.0
 12
2038.515739360597
 22
1545.618212567147
 32
0.0
 13
2038.515739360597
 23
1545.618212567147
 33
0.0
  0
MTEXT
  5
9E0B
330
9E05
100
AcDbEntity
  8
寸法引出
 48
20.0
100
AcDbMText
 10
1768.515739360597
 20
1575.618212567146
 30
0.0
 40
30.0
 41
0.0
 71
     5
 72
     1
  1
\A1;540
  7
SANWA
 73
     1
 44
1.0
  0
POINT
  5
9E0C
330
9E05
100
AcDbEntity
  8
DEFPOINTS
 62
     0
 48
20.0
100
AcDbPoint
 10
1498.515739360597
 20
1430.052224565748
 30
0.0
  0
POINT
  5
9E0D
330
9E05
100
AcDbEntity
  8
DEFPOINTS
 62
     0
 48
20.0
100
AcDbPoint
 10
2038.515739360597
 20
1430.052224565748
 30
0.0
  0
POINT
  5
9E0E
330
9E05
100
AcDbEntity
  8
DEFPOINTS
 62
     0
 48
20.0
100
AcDbPoint
 10
2038.515739360597
 20
1545.618212567147
 30
0.0
  0
ENDBLK
  5
9E10
330
9E05
100
AcDbEntity
  8
0
 48
20.0
100
AcDbBlockEnd
  0
BLOCK
  5
9E1C
330
9E12
100
AcDbEntity
  8
0
 48
20.0
100
AcDbBlockBegin
  2
*D28
 70
     1
 10
0.0
 20
0.0
 30
0.0
  3
*D28
  1

  0
LINE
  5
9E1E
330
9E12
100
AcDbEntity
  8
寸法引出
 48
20.0
370
    -2
100
AcDbLine
 10
1488.015739360597
 20
1434.55222456575
 30
0.0
 11
1310.524352676542
 21
1434.55222456575
 31
0.0
  0
LINE
  5
9E1F
330
9E12
100
AcDbEntity
  8
寸法引出
 48
20.0
370
    -2
100
AcDbLine
 10
1532.015739360599
 20
774.5522245657504
 30
0.0
 11
1310.524352676542
 21
774.5522245657504
 31
0.0
  0
LINE
  5
9E20
330
9E12
100
AcDbEntity
  8
寸法引出
 48
20.0
370
    -2
100
AcDbLine
 10
1318.024352676542
 20
1412.05222456575
 30
0.0
 11
1318.024352676542
 21
797.0522245657504
 31
0.0
  0
SOLID
  5
9E21
330
9E12
100
AcDbEntity
  8
寸法引出
 48
20.0
100
AcDbTrace
 10
1314.274352676542
 20
1412.05222456575
 30
0.0
 11
1321.774352676542
 21
1412.05222456575
 31
0.0
 12
1318.024352676542
 22
1434.55222456575
 32
0.0
 13
1318.024352676542
 23
1434.55222456575
 33
0.0
  0
SOLID
  5
9E22
330
9E12
100
AcDbEntity
  8
寸法引出
 48
20.0
100
AcDbTrace
 10
1314.274352676542
 20
797.0522245657504
 30
0.0
 11
1321.774352676542
 21
797.0522245657504
 31
0.0
 12
1318.024352676542
 22
774.5522245657504
 32
0.0
 13
1318.024352676542
 23
774.5522245657504
 33
0.0
  0
MTEXT
  5
9E23
330
9E12
100
AcDbEntity
  8
寸法引出
 48
20.0
100
AcDbMText
 10
1288.024352676542
 20
1104.55222456575
 30
0.0
 40
30.0
 41
0.0
 71
     5
 72
     1
  1
\A1;660
  7
SANWA
 11
0.0000000000000001
 21
1.0
 31
0.0
 73
     1
 44
1.0
  0
POINT
  5
9E24
330
9E12
100
AcDbEntity
  8
DEFPOINTS
 62
     0
 48
20.0
100
AcDbPoint
 10
1503.015739360597
 20
1434.55222456575
 30
0.0
  0
POINT
  5
9E25
330
9E12
100
AcDbEntity
  8
DEFPOINTS
 62
     0
 48
20.0
100
AcDbPoint
 10
1547.015739360599
 20
774.5522245657504
 30
0.0
  0
POINT
  5
9E26
330
9E12
100
AcDbEntity
  8
DEFPOINTS
 62
     0
 48
20.0
100
AcDbPoint
 10
1318.024352676542
 20
774.5522245657504
 30
0.0
  0
ENDBLK
  5
9E1D
330
9E12
100
AcDbEntity
  8
0
 48
20.0
100
AcDbBlockEnd
  0
BLOCK
  5
9F57
330
9F4B
100
AcDbEntity
  8
0
 48
20.0
100
AcDbBlockBegin
  2
*D29
 70
     1
 10
0.0
 20
0.0
 30
0.0
  3
*D29
  1

  0
LINE
  5
A36B
330
9F4B
100
AcDbEntity
  8
寸法引出
 48
20.0
370
    -2
100
AcDbLine
 10
967.0782198007584
 20
1835.848890208358
 30
0.0
 11
967.0782198007584
 21
1868.762101599891
 31
0.0
  0
LINE
  5
A36C
330
9F4B
100
AcDbEntity
  8
寸法引出
 48
20.0
370
    -2
100
AcDbLine
 10
978.5782198007602
 20
1835.848890208358
 30
0.0
 11
978.5782198007602
 21
1868.762101599891
 31
0.0
  0
LINE
  5
A36D
330
9F4B
100
AcDbEntity
  8
寸法引出
 48
20.0
370
    -2
100
AcDbLine
 10
944.5782198007583
 20
1861.262101599891
 30
0.0
 11
922.0782198007583
 21
1861.262101599891
 31
0.0
  0
LINE
  5
A36E
330
9F4B
100
AcDbEntity
  8
寸法引出
 48
20.0
370
    -2
100
AcDbLine
 10
1001.07821980076
 20
1861.262101599891
 30
0.0
 11
1023.57821980076
 21
1861.262101599891
 31
0.0
  0
MTEXT
  5
A36F
330
9F4B
100
AcDbEntity
  8
寸法引出
 48
20.0
100
AcDbMText
 10
1002.206780814399
 20
1891.94516427622
 30
0.0
 40
30.0
 41
0.0
 71
     5
 72
     1
  1
\A1;11.5
  7
SANWA
 73
     1
 44
1.0
  0
LINE
  5
A370
330
9F4B
100
AcDbEntity
  8
寸法引出
 48
20.0
370
    -2
100
AcDbLine
 10
967.0782198007584
 20
1861.262101599891
 30
0.0
 11
978.5782198007602
 21
1861.262101599891
 31
0.0
  0
SOLID
  5
A371
330
9F4B
100
AcDbEntity
  8
寸法引出
 48
20.0
100
AcDbTrace
 10
944.5782198007583
 20
1865.012101599891
 30
0.0
 11
944.5782198007583
 21
1857.512101599891
 31
0.0
 12
967.0782198007584
 22
1861.262101599891
 32
0.0
 13
967.0782198007584
 23
1861.262101599891
 33
0.0
  0
SOLID
  5
A372
330
9F4B
100
AcDbEntity
  8
寸法引出
 48
20.0
100
AcDbTrace
 10
1001.07821980076
 20
1865.012101599891
 30
0.0
 11
1001.07821980076
 21
1857.512101599891
 31
0.0
 12
978.5782198007602
 22
1861.262101599891
 32
0.0
 13
978.5782198007602
 23
1861.262101599891
 33
0.0
  0
POINT
  5
A373
330
9F4B
100
AcDbEntity
  8
DEFPOINTS
 62
     0
 48
20.0
100
AcDbPoint
 10
967.0782198007584
 20
1820.848890208359
 30
0.0
  0
POINT
  5
A374
330
9F4B
100
AcDbEntity
  8
DEFPOINTS
 62
     0
 48
20.0
100
AcDbPoint
 10
978.5782198007602
 20
1820.848890208358
 30
0.0
  0
POINT
  5
A375
330
9F4B
100
AcDbEntity
  8
DEFPOINTS
 62
     0
 48
20.0
100
AcDbPoint
 10
978.5782198007602
 20
1861.262101599891
 30
0.0
  0
ENDBLK
  5
9F58
330
9F4B
100
AcDbEntity
  8
0
 48
20.0
100
AcDbBlockEnd
  0
BLOCK
  5
9F7C
330
9F70
100
AcDbEntity
  8
0
 48
20.0
100
AcDbBlockBegin
  2
*D30
 70
     1
 10
0.0
 20
0.0
 30
0.0
  3
*D30
  1

  0
LINE
  5
A3F3
330
9F70
100
AcDbEntity
  8
寸法引出
 48
20.0
370
    -2
100
AcDbLine
 10
982.0782198007583
 20
1820.848890208359
 30
0.0
 11
1049.749343862265
 21
1820.848890208359
 31
0.0
  0
LINE
  5
A3F4
330
9F70
100
AcDbEntity
  8
寸法引出
 48
20.0
370
    -2
100
AcDbLine
 10
993.8982198007584
 20
1812.848890208359
 30
0.0
 11
1049.749343862265
 21
1812.848890208359
 31
0.0
  0
LINE
  5
A3F5
330
9F70
100
AcDbEntity
  8
寸法引出
 48
20.0
370
    -2
100
AcDbLine
 10
1042.249343862265
 20
1843.348890208359
 30
0.0
 11
1042.249343862265
 21
1865.848890208359
 31
0.0
  0
LINE
  5
A3F6
330
9F70
100
AcDbEntity
  8
寸法引出
 48
20.0
370
    -2
100
AcDbLine
 10
1042.249343862265
 20
1790.348890208359
 30
0.0
 11
1042.249343862265
 21
1767.848890208359
 31
0.0
  0
MTEXT
  5
A3F7
330
9F70
100
AcDbEntity
  8
寸法引出
 48
20.0
100
AcDbMText
 10
1015.424718332391
 20
1794.070078458568
 30
0.0
 40
30.0
 41
0.0
 71
     5
 72
     1
  1
\A1;8
  7
SANWA
 11
0.0000000000000001
 21
1.0
 31
0.0
 73
     1
 44
1.0
  0
LINE
  5
A3F8
330
9F70
100
AcDbEntity
  8
寸法引出
 48
20.0
370
    -2
100
AcDbLine
 10
1042.249343862265
 20
1820.848890208359
 30
0.0
 11
1042.249343862265
 21
1812.848890208359
 31
0.0
  0
SOLID
  5
A3F9
330
9F70
100
AcDbEntity
  8
寸法引出
 48
20.0
100
AcDbTrace
 10
1038.499343862265
 20
1843.348890208359
 30
0.0
 11
1045.999343862265
 21
1843.348890208359
 31
0.0
 12
1042.249343862265
 22
1820.848890208359
 32
0.0
 13
1042.249343862265
 23
1820.848890208359
 33
0.0
  0
SOLID
  5
A3FA
330
9F70
100
AcDbEntity
  8
寸法引出
 48
20.0
100
AcDbTrace
 10
1038.499343862265
 20
1790.348890208359
 30
0.0
 11
1045.999343862265
 21
1790.348890208359
 31
0.0
 12
1042.249343862265
 22
1812.848890208359
 32
0.0
 13
1042.249343862265
 23
1812.848890208359
 33
0.0
  0
POINT
  5
A3FB
330
9F70
100
AcDbEntity
  8
DEFPOINTS
 62
     0
 48
20.0
100
AcDbPoint
 10
967.0782198007584
 20
1820.848890208359
 30
0.0
  0
POINT
  5
A3FC
330
9F70
100
AcDbEntity
  8
DEFPOINTS
 62
     0
 48
20.0
100
AcDbPoint
 10
978.8982198007586
 20
1812.848890208359
 30
0.0
  0
POINT
  5
A3FD
330
9F70
100
AcDbEntity
  8
DEFPOINTS
 62
     0
 48
20.0
100
AcDbPoint
 10
1042.249343862265
 20
1812.848890208359
 30
0.0
  0
ENDBLK
  5
9F7D
330
9F70
100
AcDbEntity
  8
0
 48
20.0
100
AcDbBlockEnd
  0
BLOCK
  5
A14C
330
A142
100
AcDbEntity
  8
0
 48
20.0
100
AcDbBlockBegin
  2
*D31
 70
     1
 10
0.0
 20
0.0
 30
0.0
  3
*D31
  1

  0
LINE
  5
A143
330
A142
100
AcDbEntity
  8
寸法引出
 48
20.0
370
    -2
100
AcDbLine
 10
5462.090399692354
 20
1731.950245934466
 30
0.0
 11
5462.090399692354
 21
1582.737184540542
 31
0.0
  0
LINE
  5
A144
330
A142
100
AcDbEntity
  8
寸法引出
 48
20.0
370
    -2
100
AcDbLine
 10
5945.09039969235
 20
1731.950245934466
 30
0.0
 11
5945.09039969235
 21
1582.737184540542
 31
0.0
  0
LINE
  5
A145
330
A142
100
AcDbEntity
  8
寸法引出
 48
20.0
370
    -2
100
AcDbLine
 10
5484.590399692354
 20
1590.237184540542
 30
0.0
 11
5922.590399692353
 21
1590.237184540542
 31
0.0
  0
SOLID
  5
A146
330
A142
100
AcDbEntity
  8
寸法引出
 48
20.0
100
AcDbTrace
 10
5484.590399692354
 20
1593.987184540542
 30
0.0
 11
5484.590399692354
 21
1586.487184540542
 31
0.0
 12
5462.090399692354
 22
1590.237184540542
 32
0.0
 13
5462.090399692354
 23
1590.237184540542
 33
0.0
  0
SOLID
  5
A147
330
A142
100
AcDbEntity
  8
寸法引出
 48
20.0
100
AcDbTrace
 10
5922.590399692353
 20
1593.987184540542
 30
0.0
 11
5922.590399692353
 21
1586.487184540542
 31
0.0
 12
5945.09039969235
 22
1590.237184540542
 32
0.0
 13
5945.09039969235
 23
1590.237184540542
 33
0.0
  0
MTEXT
  5
A148
330
A142
100
AcDbEntity
  8
寸法引出
 48
20.0
100
AcDbMText
 10
5703.590399692354
 20
1620.237184540542
 30
0.0
 40
30.0
 41
0.0
 71
     5
 72
     1
  1
\A1;483
  7
SANWA
 73
     1
 44
1.0
  0
POINT
  5
A149
330
A142
100
AcDbEntity
  8
DEFPOINTS
 62
     0
 48
20.0
100
AcDbPoint
 10
5462.090399692354
 20
1746.950245934466
 30
0.0
  0
POINT
  5
A14A
330
A142
100
AcDbEntity
  8
DEFPOINTS
 62
     0
 48
20.0
100
AcDbPoint
 10
5945.09039969235
 20
1746.950245934466
 30
0.0
  0
POINT
  5
A14B
330
A142
100
AcDbEntity
  8
DEFPOINTS
 62
     0
 48
20.0
100
AcDbPoint
 10
5945.09039969235
 20
1590.237184540542
 30
0.0
  0
ENDBLK
  5
A14D
330
A142
100
AcDbEntity
  8
0
 48
20.0
100
AcDbBlockEnd
  0
BLOCK
  5
A1C1
330
A1B7
100
AcDbEntity
  8
0
 48
20.0
100
AcDbBlockBegin
  2
*D32
 70
     1
 10
0.0
 20
0.0
 30
0.0
  3
*D32
  1

  0
LINE
  5
A3B9
330
A1B7
100
AcDbEntity
  8
寸法引出
 48
20.0
370
    -2
100
AcDbLine
 10
1459.078219800758
 20
1910.848890208358
 30
0.0
 11
1539.461638472264
 21
1910.848890208358
 31
0.0
  0
LINE
  5
A3BA
330
A1B7
100
AcDbEntity
  8
寸法引出
 48
20.0
370
    -2
100
AcDbLine
 10
1449.878219800762
 20
1546.848890208359
 30
0.0
 11
1539.461638472264
 21
1546.848890208359
 31
0.0
  0
LINE
  5
A3BB
330
A1B7
100
AcDbEntity
  8
寸法引出
 48
20.0
370
    -2
100
AcDbLine
 10
1531.961638472264
 20
1888.348890208358
 30
0.0
 11
1531.961638472264
 21
1569.348890208359
 31
0.0
  0
SOLID
  5
A3BC
330
A1B7
100
AcDbEntity
  8
寸法引出
 48
20.0
100
AcDbTrace
 10
1528.211638472264
 20
1888.348890208358
 30
0.0
 11
1535.711638472264
 21
1888.348890208358
 31
0.0
 12
1531.961638472264
 22
1910.848890208358
 32
0.0
 13
1531.961638472264
 23
1910.848890208358
 33
0.0
  0
SOLID
  5
A3BD
330
A1B7
100
AcDbEntity
  8
寸法引出
 48
20.0
100
AcDbTrace
 10
1528.211638472264
 20
1569.348890208359
 30
0.0
 11
1535.711638472264
 21
1569.348890208359
 31
0.0
 12
1531.961638472264
 22
1546.848890208359
 32
0.0
 13
1531.961638472264
 23
1546.848890208359
 33
0.0
  0
MTEXT
  5
A3BE
330
A1B7
100
AcDbEntity
  8
寸法引出
 48
20.0
100
AcDbMText
 10
1501.961638472264
 20
1728.848890208359
 30
0.0
 40
30.0
 41
0.0
 71
     5
 72
     1
  1
\A1;364
  7
SANWA
 11
0.0000000000000001
 21
1.0
 31
0.0
 73
     1
 44
1.0
  0
POINT
  5
A3BF
330
A1B7
100
AcDbEntity
  8
DEFPOINTS
 62
     0
 48
20.0
100
AcDbPoint
 10
1444.078219800758
 20
1910.848890208358
 30
0.0
  0
POINT
  5
A3C0
330
A1B7
100
AcDbEntity
  8
DEFPOINTS
 62
     0
 48
20.0
100
AcDbPoint
 10
1434.878219800762
 20
1546.848890208359
 30
0.0
  0
POINT
  5
A3C1
330
A1B7
100
AcDbEntity
  8
DEFPOINTS
 62
     0
 48
20.0
100
AcDbPoint
 10
1531.961638472264
 20
1546.848890208359
 30
0.0
  0
ENDBLK
  5
A1C2
330
A1B7
100
AcDbEntity
  8
0
 48
20.0
100
AcDbBlockEnd
  0
BLOCK
  5
A1D0
330
A1C4
100
AcDbEntity
  8
0
 48
20.0
100
AcDbBlockBegin
  2
*D33
 70
     1
 10
0.0
 20
0.0
 30
0.0
  3
*D33
  1

  0
LINE
  5
A3C2
330
A1C4
100
AcDbEntity
  8
寸法引出
 48
20.0
370
    -2
100
AcDbLine
 10
1449.878219800762
 20
1546.848890208359
 30
0.0
 11
1539.461638472264
 21
1546.848890208359
 31
0.0
  0
LINE
  5
A3C3
330
A1C4
100
AcDbEntity
  8
寸法引出
 48
20.0
370
    -2
100
AcDbLine
 10
1444.878219800761
 20
1536.84889020836
 30
0.0
 11
1539.461638472264
 21
1536.84889020836
 31
0.0
  0
LINE
  5
A3C4
330
A1C4
100
AcDbEntity
  8
寸法引出
 48
20.0
370
    -2
100
AcDbLine
 10
1531.961638472264
 20
1569.348890208359
 30
0.0
 11
1531.961638472264
 21
1591.848890208359
 31
0.0
  0
LINE
  5
A3C5
330
A1C4
100
AcDbEntity
  8
寸法引出
 48
20.0
370
    -2
100
AcDbLine
 10
1531.961638472264
 20
1514.34889020836
 30
0.0
 11
1531.961638472264
 21
1491.84889020836
 31
0.0
  0
MTEXT
  5
A3C6
330
A1C4
100
AcDbEntity
  8
寸法引出
 48
20.0
100
AcDbMText
 10
1563.541750938944
 20
1544.380954382946
 30
0.0
 40
30.0
 41
0.0
 71
     5
 72
     1
  1
\A1;10
  7
SANWA
 11
0.0000000000000001
 21
1.0
 31
0.0
 73
     1
 44
1.0
  0
LINE
  5
A3C7
330
A1C4
100
AcDbEntity
  8
寸法引出
 48
20.0
370
    -2
100
AcDbLine
 10
1531.961638472264
 20
1546.848890208359
 30
0.0
 11
1531.961638472264
 21
1536.84889020836
 31
0.0
  0
SOLID
  5
A3C8
330
A1C4
100
AcDbEntity
  8
寸法引出
 48
20.0
100
AcDbTrace
 10
1528.211638472264
 20
1569.348890208359
 30
0.0
 11
1535.711638472264
 21
1569.348890208359
 31
0.0
 12
1531.961638472264
 22
1546.848890208359
 32
0.0
 13
1531.961638472264
 23
1546.848890208359
 33
0.0
  0
SOLID
  5
A3C9
330
A1C4
100
AcDbEntity
  8
寸法引出
 48
20.0
100
AcDbTrace
 10
1528.211638472264
 20
1514.34889020836
 30
0.0
 11
1535.711638472264
 21
1514.34889020836
 31
0.0
 12
1531.961638472264
 22
1536.84889020836
 32
0.0
 13
1531.961638472264
 23
1536.84889020836
 33
0.0
  0
POINT
  5
A3CA
330
A1C4
100
AcDbEntity
  8
DEFPOINTS
 62
     0
 48
20.0
100
AcDbPoint
 10
1434.878219800762
 20
1546.848890208359
 30
0.0
  0
POINT
  5
A3CB
330
A1C4
100
AcDbEntity
  8
DEFPOINTS
 62
     0
 48
20.0
100
AcDbPoint
 10
1429.878219800761
 20
1536.84889020836
 30
0.0
  0
POINT
  5
A3CC
330
A1C4
100
AcDbEntity
  8
DEFPOINTS
 62
     0
 48
20.0
100
AcDbPoint
 10
1531.961638472264
 20
1536.84889020836
 30
0.0
  0
ENDBLK
  5
A1D1
330
A1C4
100
AcDbEntity
  8
0
 48
20.0
100
AcDbBlockEnd
  0
BLOCK
  5
A1DD
330
A1D3
100
AcDbEntity
  8
0
 48
20.0
100
AcDbBlockBegin
  2
*D34
 70
     1
 10
0.0
 20
0.0
 30
0.0
  3
*D34
  1

  0
LINE
  5
A3D6
330
A1D3
100
AcDbEntity
  8
寸法引出
 48
20.0
370
    -2
100
AcDbLine
 10
1444.878219800761
 20
1536.84889020836
 30
0.0
 11
1539.461638472264
 21
1536.84889020836
 31
0.0
  0
LINE
  5
A3D7
330
A1D3
100
AcDbEntity
  8
寸法引出
 48
20.0
370
    -2
100
AcDbLine
 10
1444.878219800761
 20
1446.84889020836
 30
0.0
 11
1539.461638472264
 21
1446.84889020836
 31
0.0
  0
LINE
  5
A3D8
330
A1D3
100
AcDbEntity
  8
寸法引出
 48
20.0
370
    -2
100
AcDbLine
 10
1531.961638472264
 20
1514.34889020836
 30
0.0
 11
1531.961638472264
 21
1469.34889020836
 31
0.0
  0
SOLID
  5
A3D9
330
A1D3
100
AcDbEntity
  8
寸法引出
 48
20.0
100
AcDbTrace
 10
1528.211638472264
 20
1514.34889020836
 30
0.0
 11
1535.711638472264
 21
1514.34889020836
 31
0.0
 12
1531.961638472264
 22
1536.84889020836
 32
0.0
 13
1531.961638472264
 23
1536.84889020836
 33
0.0
  0
SOLID
  5
A3DA
330
A1D3
100
AcDbEntity
  8
寸法引出
 48
20.0
100
AcDbTrace
 10
1528.211638472264
 20
1469.34889020836
 30
0.0
 11
1535.711638472264
 21
1469.34889020836
 31
0.0
 12
1531.961638472264
 22
1446.84889020836
 32
0.0
 13
1531.961638472264
 23
1446.84889020836
 33
0.0
  0
MTEXT
  5
A3DB
330
A1D3
100
AcDbEntity
  8
寸法引出
 48
20.0
100
AcDbMText
 10
1501.961638472264
 20
1491.84889020836
 30
0.0
 40
30.0
 41
0.0
 71
     5
 72
     1
  1
\A1;90
  7
SANWA
 11
0.0000000000000001
 21
1.0
 31
0.0
 73
     1
 44
1.0
  0
POINT
  5
A3DC
330
A1D3
100
AcDbEntity
  8
DEFPOINTS
 62
     0
 48
20.0
100
AcDbPoint
 10
1429.878219800761
 20
1536.84889020836
 30
0.0
  0
POINT
  5
A3DD
330
A1D3
100
AcDbEntity
  8
DEFPOINTS
 62
     0
 48
20.0
100
AcDbPoint
 10
1429.878219800761
 20
1446.84889020836
 30
0.0
  0
POINT
  5
A3DE
330
A1D3
100
AcDbEntity
  8
DEFPOINTS
 62
     0
 48
20.0
100
AcDbPoint
 10
1531.961638472264
 20
1446.84889020836
 30
0.0
  0
ENDBLK
  5
A1DE
330
A1D3
100
AcDbEntity
  8
0
 48
20.0
100
AcDbBlockEnd
  0
ENDSEC
  0
SECTION
  2
ENTITIES
  0
LINE
  5
886A
330
747D
100
AcDbEntity
  8
0
 48
15.0
100
AcDbLine
 10
1448.57821980076
 20
1906.348890208358
 30
0.0
 11
1448.57821980076
 21
1820.848890208358
 31
0.0
  0
LINE
  5
886B
330
747D
100
AcDbEntity
  8
0
 48
15.0
100
AcDbLine
 10
908.5782198007601
 20
1906.348890208359
 30
0.0
 11
908.5782198007601
 21
1820.848890208358
 31
0.0
  0
LINE
  5
886C
330
747D
100
AcDbEntity
  8
0
 48
15.0
100
AcDbLine
 10
913.0782198007601
 20
1910.848890208358
 30
0.0
 11
948.57821980076
 21
1910.848890208358
 31
0.0
  0
LINE
  5
886F
330
747D
100
AcDbEntity
  8
0
 48
15.0
100
AcDbLine
 10
948.57821980076
 20
1910.848890208358
 30
0.0
 11
951.0782198007591
 21
1820.848890208358
 31
0.0
  0
LINE
  5
8870
330
747D
100
AcDbEntity
  8
0
 48
15.0
100
AcDbLine
 10
951.0782198007591
 20
1820.848890208358
 30
0.0
 11
967.0782198007573
 21
1820.848890208359
 31
0.0
  0
LINE
  5
8872
330
747D
100
AcDbEntity
  8
0
 48
15.0
100
AcDbLine
 10
1406.078219800759
 20
1820.848890208358
 30
0.0
 11
1390.078219800764
 21
1820.848890208358
 31
0.0
  0
LINE
  5
8873
330
747D
100
AcDbEntity
  8
0
 48
15.0
100
AcDbLine
 10
1408.57821980076
 20
1910.848890208358
 30
0.0
 11
1406.078219800759
 21
1820.848890208358
 31
0.0
  0
LINE
  5
8874
330
747D
100
AcDbEntity
  8
0
 48
15.0
100
AcDbLine
 10
1444.078219800758
 20
1910.848890208358
 30
0.0
 11
1408.57821980076
 21
1910.848890208358
 31
0.0
  0
LINE
  5
887A
330
747D
100
AcDbEntity
  8
0
 48
15.0
100
AcDbLine
 10
978.8982198007584
 20
1812.848890208359
 30
0.0
 11
995.7496612436102
 21
1391.562854137156
 31
0.0
  0
LINE
  5
887B
330
747D
100
AcDbEntity
  8
0
 48
15.0
100
AcDbLine
 10
1378.258219800761
 20
1812.848890208356
 30
0.0
 11
1361.406778357912
 21
1391.562854137156
 31
0.0
  0
LINE
  5
8882
330
747D
100
AcDbEntity
  8
0
 48
15.0
100
AcDbLine
 10
1872.493333821983
 20
1910.848890208358
 30
0.0
 11
1872.493333821983
 21
1250.848890208358
 31
0.0
  0
LINE
  5
8883
330
747D
100
AcDbEntity
  8
0
 48
15.0
100
AcDbLine
 10
1872.493333821983
 20
1250.848890208358
 30
0.0
 11
3870.493333821984
 21
1250.848890208358
 31
0.0
  0
LINE
  5
8884
330
747D
100
AcDbEntity
  8
0
 48
15.0
100
AcDbLine
 10
1872.493333821983
 20
1910.848890208358
 30
0.0
 11
3870.493333821984
 21
1910.848890208358
 31
0.0
  0
LINE
  5
8885
330
747D
100
AcDbEntity
  8
0
 48
15.0
100
AcDbLine
 10
3870.493333821984
 20
1910.848890208358
 30
0.0
 11
3870.493333821984
 21
1250.848890208358
 31
0.0
  0
TEXT
  5
8888
330
747D
100
AcDbEntity
  8
0
100
AcDbText
 10
1399.474232270368
 20
2822.52899042226
 30
0.0
 40
42.00000000000001
  1
エコノミー側溝（Ｈタイプ）４００×５００×１９９８
  7
SANWA
 72
     4
 11
2167.474232270368
 21
2843.76899042226
 31
0.0
100
AcDbText
  0
LINE
  5
8889
330
747D
100
AcDbEntity
  8
0
100
AcDbLine
 10
1393.896118833689
 20
2800.0
 30
0.0
 11
3286.10388116631
 21
2800.0
 31
0.0
  0
LINE
  5
888A
330
747D
100
AcDbEntity
  8
0
100
AcDbLine
 10
1393.896118833689
 20
2788.000000000001
 30
0.0
 11
3286.10388116631
 21
2788.000000000001
 31
0.0
  0
LINE
  5
888B
330
747D
100
AcDbEntity
  8
枠
100
AcDbLine
 10
375.0
 20
3000.0
 30
0.0
 11
4305.0
 21
3000.0
 31
0.0
  0
LINE
  5
888C
330
747D
100
AcDbEntity
  8
枠
100
AcDbLine
 10
375.0
 20
150.0
 30
0.0
 11
4305.0
 21
150.0000000000034
 31
0.0
  0
LINE
  5
888D
330
747D
100
AcDbEntity
  8
枠
100
AcDbLine
 10
375.0
 20
150.0
 30
0.0
 11
375.0
 21
3000.0
 31
0.0
  0
LINE
  5
888E
330
747D
100
AcDbEntity
  8
0
100
AcDbLine
 10
375.0
 20
0.0
 30
0.0
 11
0.0
 21
0.0
 31
0.0
  0
LINE
  5
888F
330
747D
100
AcDbEntity
  8
0
100
AcDbLine
 10
0.0
 20
0.0
 30
0.0
 11
0.0
 21
150.0
 31
0.0
  0
TEXT
  5
8890
330
747D
100
AcDbEntity
  8
0
100
AcDbText
 10
902.0440266348476
 20
2166.536408927612
 30
0.0
 40
36.0
  1
構造図
  7
SANWA
 72
     4
 11
981.0383123491332
 21
2185.050694641897
 31
0.0
100
AcDbText
  0
LINE
  5
8891
330
747D
100
AcDbEntity
  8
0
100
AcDbLine
 10
904.8761766520833
 20
2154.592301300197
 30
0.0
 11
1053.064045385632
 21
2154.592301300197
 31
0.0
  0
LINE
  5
8892
330
747D
100
AcDbEntity
  8
0
100
AcDbLine
 10
0.0
 20
3000.0
 30
0.0
 11
0.0
 21
3150.0
 31
0.0
  0
LINE
  5
8893
330
747D
100
AcDbEntity
  8
0
100
AcDbLine
 10
0.0
 20
3150.0
 30
0.0
 11
375.0
 21
3150.0
 31
0.0
  0
LINE
  5
8894
330
747D
100
AcDbEntity
  8
0
100
AcDbLine
 10
3646.531914893608
 20
306.0000000000012
 30
0.0
 11
3646.531914893608
 21
594.0000000000036
 31
0.0
  0
TEXT
  5
8895
330
747D
100
AcDbEntity
  8
0
 48
2.0
100
AcDbText
 10
3609.74309726096
 20
560.3768966870497
 30
0.0
 40
16.79999999999999
  1
品
  7
SANWA
100
AcDbText
  0
TEXT
  5
8896
330
747D
100
AcDbEntity
  8
0
 48
2.0
100
AcDbText
 10
3325.407362835249
 20
557.2772861648262
 30
0.0
 40
24.0
  1
図面
  7
SANWA
100
AcDbText
  0
LINE
  5
8897
330
747D
100
AcDbEntity
  8
0
100
AcDbLine
 10
3202.531914893616
 20
594.0000000000036
 30
0.0
 11
3202.531914893616
 21
522.0000000000026
 31
0.0
  0
TEXT
  5
8898
330
747D
100
AcDbEntity
  8
0
 48
2.0
100
AcDbText
 10
3392.339284911449
 20
558.6411916425953
 30
0.0
 40
24.0
  1
番号
  7
SANWA
100
AcDbText
  0
LINE
  5
8899
330
747D
100
AcDbEntity
  8
0
100
AcDbLine
 10
3598.531914893611
 20
150.0000000000034
 30
0.0
 11
3598.531914893611
 21
594.0000000000036
 31
0.0
  0
LINE
  5
889A
330
747D
100
AcDbEntity
  8
枠
100
AcDbLine
 10
4305.0
 20
150.0
 30
0.0
 11
4305.0
 21
3000.0
 31
0.0
  0
LINE
  5
889B
330
747D
100
AcDbEntity
  8
0
100
AcDbLine
 10
4455.0
 20
0.0
 30
0.0
 11
4305.0
 21
0.0
 31
0.0
  0
HATCH
  5
889C
330
747D
100
AcDbEntity
  8
0
100
AcDbHatch
 10
0.0
 20
0.0
 30
0.0
210
0.0
220
0.0
230
1.0
  2
SOLID
 70
     1
 71
     0
 91
        2
 92
        7
 72
     1
 73
     1
 93
        2
 10
3316.517041237145
 20
210.0000000000025
 42
1.0
 10
3220.546788550063
 20
210.0000000000025
 42
1.0
 97
        0
 92
       22
 72
     1
 73
     1
 93
        2
 10
3314.117041237151
 20
210.0000000000025
 42
-1.0
 10
3222.946788550071
 20
210.0000000000025
 42
-1.0
 97
        0
 75
     0
 76
     1
 47
0.0602706122334892
 98
        2
 10
3291.52220075993
 20
251.2492511007806
 10
3291.52220075993
 20
251.2492511007806
  0
CIRCLE
  5
889D
330
747D
100
AcDbEntity
  8
0
100
AcDbCircle
 10
3268.53191489361
 20
210.0000000000025
 30
0.0
 40
45.58512634354756
  0
CIRCLE
  5
889E
330
747D
100
AcDbEntity
  8
0
100
AcDbCircle
 10
3268.53191489361
 20
210.0000000000025
 30
0.0
 40
47.98512634354756
  0
ARC
  5
889F
330
747D
100
AcDbEntity
  8
0
100
AcDbCircle
 10
3680.136214331804
 20
223.2088158088008
 30
0.0
 40
33.0637889330479
100
AcDbArc
 50
274.1625874111285
 51
40.83741258887069
  0
ARC
  5
88A0
330
747D
100
AcDbEntity
  8
0
100
AcDbCircle
 10
3680.136214331804
 20
223.2088158088008
 30
0.0
 40
35.4637889330479
100
AcDbArc
 50
277.7788203119025
 51
37.2211796880979
  0
ARC
  5
88A1
330
747D
100
AcDbEntity
  8
0
100
AcDbCircle
 10
3680.136214331804
 20
223.2088158088008
 30
0.0
 40
43.8637889330479
100
AcDbArc
 50
273.1364954470843
 51
41.86350455291268
  0
ARC
  5
88A2
330
747D
100
AcDbEntity
  8
0
100
AcDbCircle
 10
3680.136214331804
 20
223.2088158088008
 30
0.0
 40
41.46378893304792
100
AcDbArc
 50
276.6476737862029
 51
38.35232621379395
  0
TEXT
  5
88A3
330
747D
100
AcDbEntity
  8
0
100
AcDbText
 10
3666.709002834941
 20
206.71887241068
 30
0.0
 40
18.0
  1
和
  7
SANWA
100
AcDbText
  0
LINE
  5
88A4
330
747D
100
AcDbEntity
  8
0
100
AcDbLine
 10
3466.531914893607
 20
150.0000000000034
 30
0.0
 11
3466.531914893607
 21
306.0000000000012
 31
0.0
  0
LINE
  5
88A5
330
747D
100
AcDbEntity
  8
0
100
AcDbLine
 10
3334.531914893604
 20
150.0000000000034
 30
0.0
 11
3334.531914893604
 21
342.0000000000026
 31
0.0
  0
LINE
  5
88A6
330
747D
100
AcDbEntity
  8
0
 62
     0
100
AcDbLine
 10
3202.531914893616
 20
378.0000000000022
 30
0.0
 11
3202.531914893616
 21
150.0000000000034
 31
0.0
  0
ARC
  5
88A7
330
747D
100
AcDbEntity
  8
0
100
AcDbCircle
 10
3680.136214331804
 20
223.2088158088008
 30
0.0
 40
41.46378893304792
100
AcDbArc
 50
141.6476737862061
 51
263.3523262137979
  0
ARC
  5
88A8
330
747D
100
AcDbEntity
  8
0
100
AcDbCircle
 10
3680.136214331804
 20
223.2088158088008
 30
0.0
 40
43.8637889330479
100
AcDbArc
 50
138.1364954470877
 51
266.8635045529164
  0
ARC
  5
88A9
330
747D
100
AcDbEntity
  8
0
100
AcDbCircle
 10
3680.136214331804
 20
223.2088158088008
 30
0.0
 40
35.4637889330479
100
AcDbArc
 50
142.7788203119019
 51
262.2211796880995
  0
ARC
  5
88AA
330
747D
100
AcDbEntity
  8
0
100
AcDbCircle
 10
3680.136214331804
 20
223.2088158088008
 30
0.0
 40
33.0637889330479
100
AcDbArc
 50
139.1625874111294
 51
265.8374125888726
  0
HATCH
  5
88AB
330
747D
100
AcDbEntity
  8
0
100
AcDbHatch
 10
0.0
 20
0.0
 30
0.0
210
0.0
220
0.0
230
1.0
  2
SOLID
 70
     1
 71
     0
 91
        6
 92
        7
 72
     1
 73
     1
 93
        4
 10
3650.863349880539
 20
255.8757928097576
 42
0.0
 10
3658.515314664834
 20
248.2238280254664
 42
-0.3722683533228753
 10
3701.757113998766
 20
248.2238280254664
 42
0.0
 10
3709.40907878306
 20
255.8757928097594
 42
0.3824979940290045
 97
        0
 92
       22
 72
     1
 73
     1
 93
        4
 10
3705.864308023094
 20
255.7251345994778
 42
0.0
 10
3701.588030276408
 20
251.448856852795
 42
0.3367429548951066
 10
3658.684398387205
 20
251.4488568527969
 42
0.0
 10
3654.40812064052
 20
255.7251345994763
 42
-0.347770427523089
 97
        0
 92
        7
 72
     1
 73
     1
 93
        4
 10
3705.151226548458
 20
244.8297154757716
 42
-0.6168583269099046
 10
3682.536214331801
 20
190.2322462690618
 42
0.0
 10
3682.536214331801
 20
179.4107338923163
 42
0.6292889159379735
 10
3712.803191332769
 20
252.4816802600628
 42
0.0
 97
        0
 92
       22
 72
     1
 73
     1
 93
        4
 10
3712.65253312248
 20
248.9369095000864
 42
-0.5873104908889239
 10
3684.936214331797
 20
182.0237967765786
 42
0.0
 10
3684.936214331797
 20
188.071366762408
 42
0.5741105922167471
 10
3708.376255375795
 20
244.6606317534053
 42
0.0
 97
        0
 92
        7
 72
     1
 73
     1
 93
        4
 10
3647.469237330846
 20
252.4816802600628
 42
0.6292889159379591
 10
3677.736214331813
 20
179.4107338923163
 42
0.0
 10
3677.736214331813
 20
190.2322462690618
 42
-0.6168583269099637
 10
3655.121202115139
 20
244.8297154757716
 42
0.0
 97
        0
 92
       22
 72
     1
 73
     1
 93
        4
 10
3651.896173287805
 20
244.6606317534053
 42
0.5741105922167496
 10
3675.336214331805
 20
188.071366762408
 42
0.0
 10
3675.336214331805
 20
182.0237967765786
 42
-0.5873104908889168
 10
3647.619895541135
 20
248.9369095000864
 42
0.0
 97
        0
 75
     0
 76
     1
 47
0.0143554168026844
 98
        6
 10
3699.348496783986
 20
260.8853257705129
 10
3699.348496783986
 20
260.8853257705129
 10
3708.313957346875
 20
246.9318614530628
 10
3708.313957346875
 20
246.9318614530628
 10
3652.969453356035
 20
246.4150661606038
 10
3652.969453356035
 20
246.4150661606038
  0
TEXT
  5
88AC
330
747D
100
AcDbEntity
  8
0
100
AcDbText
 10
3766.408313412449
 20
206.71887241068
 30
0.0
 40
24.0
  1
三和コンクリート工業株式会社
  7
SANWA
100
AcDbText
  0
LINE
  5
88AD
330
747D
100
AcDbEntity
  8
0
100
AcDbLine
 10
3677.736214331808
 20
179.4107338923163
 30
0.0
 11
3677.736214331808
 21
190.2322462690618
 31
0.0
  0
LINE
  5
88AE
330
747D
100
AcDbEntity
  8
0
100
AcDbLine
 10
3682.536214331804
 20
179.4107338923163
 30
0.0
 11
3682.536214331804
 21
190.2322462690618
 31
0.0
  0
LINE
  5
88AF
330
747D
100
AcDbEntity
  8
0
100
AcDbLine
 10
3684.9362143318
 20
182.0237967765786
 30
0.0
 11
3684.9362143318
 21
188.071366762408
 31
0.0
  0
LINE
  5
88B0
330
747D
100
AcDbEntity
  8
0
100
AcDbLine
 10
3675.336214331809
 20
182.0237967765786
 30
0.0
 11
3675.336214331809
 21
188.071366762408
 31
0.0
  0
TEXT
  5
88B1
330
747D
100
AcDbEntity
  8
0
 48
2.0
100
AcDbText
 10
3515.973620720816
 20
218.001897530876
 30
0.0
 40
24.0
  1
中
  7
SANWA
100
AcDbText
  0
TEXT
  5
88B2
330
747D
100
AcDbEntity
  8
0
 48
2.0
100
AcDbText
 10
3515.409250158043
 20
184.0310864446442
 30
0.0
 40
24.0
  1
川
  7
SANWA
100
AcDbText
  0
TEXT
  5
88B3
330
747D
100
AcDbEntity
  8
0
 48
2.0
100
AcDbText
 10
3424.24975579649
 20
80.91869382887693
 30
0.0
 40
24.0
  1
大
  7
SANWA
100
AcDbText
  0
TEXT
  5
88B4
330
747D
100
AcDbEntity
  8
0
 48
2.0
100
AcDbText
 10
3423.68538523373
 20
46.94788274264509
 30
0.0
 40
24.0
  1
嶋
  7
SANWA
100
AcDbText
  0
HATCH
  5
88B5
330
747D
100
AcDbEntity
  8
0
100
AcDbHatch
 10
0.0
 20
0.0
 30
0.0
210
0.0
220
0.0
230
1.0
  2
SOLID
 70
     1
 71
     0
 91
        4
 92
        7
 72
     1
 73
     1
 93
        2
 10
3580.51704123715
 20
210.0000000000025
 42
1.0
 10
3484.546788550069
 20
210.0000000000025
 42
1.0
 97
        0
 92
       22
 72
     1
 73
     1
 93
        2
 10
3578.117041237158
 20
210.0000000000025
 42
-1.0
 10
3486.946788550063
 20
210.0000000000025
 42
-1.0
 97
        0
 92
      136
 93
        4
 72
     1
 10
3507.985049292256
 20
206.0361832451618
 11
3559.070763577974
 21
206.0361832451618
 72
     1
 10
3559.070763577954
 20
206.0361832451618
 11
3559.070763577954
 21
253.9676118165904
 72
     1
 10
3559.070763577954
 20
253.9676118165904
 11
3507.985049292235
 21
253.9676118165904
 72
     1
 10
3507.985049292256
 20
253.9676118165904
 11
3507.985049292256
 21
206.0361832451618
 97
        0
 92
      136
 93
        4
 72
     1
 10
3507.900678729479
 20
173.6425150160728
 11
3558.026393015191
 21
173.6425150160728
 72
     1
 10
3558.026393015199
 20
173.6425150160728
 11
3558.026393015199
 21
218.6939435875014
 72
     1
 10
3558.026393015199
 20
218.6939435875014
 11
3507.900678729486
 21
218.6939435875014
 72
     1
 10
3507.900678729479
 20
218.6939435875014
 11
3507.900678729479
 21
173.6425150160728
 97
        0
 75
     0
 76
     1
 47
0.0602706122334892
 98
        2
 10
3555.522200759922
 20
251.2492511007806
 10
3555.522200759922
 20
251.2492511007806
  0
CIRCLE
  5
88B6
330
747D
100
AcDbEntity
  8
0
100
AcDbCircle
 10
3532.531914893608
 20
210.0000000000025
 30
0.0
 40
45.58512634354756
  0
CIRCLE
  5
88B7
330
747D
100
AcDbEntity
  8
0
100
AcDbCircle
 10
3532.531914893608
 20
210.0000000000025
 30
0.0
 40
47.98512634354756
  0
TEXT
  5
88B8
330
747D
100
AcDbEntity
  8
0
 48
2.0
100
AcDbText
 10
3302.854024831002
 20
79.62983329778467
 30
0.0
 40
24.0
  1
蒔
  7
SANWA
100
AcDbText
  0
CIRCLE
  5
88B9
330
747D
100
AcDbEntity
  8
0
100
AcDbCircle
 10
3320.649581970728
 20
72.91679629800341
 30
0.0
 40
45.58512634354756
  0
TEXT
  5
88BA
330
747D
100
AcDbEntity
  8
0
 48
2.0
100
AcDbText
 10
3302.289654268228
 20
43.08129504455904
 30
0.0
 40
24.0
  1
田
  7
SANWA
100
AcDbText
  0
TEXT
  5
88BB
330
747D
100
AcDbEntity
  8
0
 48
2.0
100
AcDbText
 10
3251.973620720832
 20
213.1710422595031
 30
0.0
 40
24.0
  1
河
  7
SANWA
100
AcDbText
  0
TEXT
  5
88BC
330
747D
100
AcDbEntity
  8
0
 48
2.0
100
AcDbText
 10
3251.409250158044
 20
179.2002311732713
 30
0.0
 40
24.0
  1
口
  7
SANWA
100
AcDbText
  0
CIRCLE
  5
88BD
330
747D
100
AcDbEntity
  8
0
100
AcDbCircle
 10
3320.649581970728
 20
72.91679629800341
 30
0.0
 40
47.98512634354756
  0
HATCH
  5
88BE
330
747D
100
AcDbEntity
  8
0
100
AcDbHatch
 10
0.0
 20
0.0
 30
0.0
210
0.0
220
0.0
230
1.0
  2
SOLID
 70
     1
 71
     0
 91
        4
 92
        7
 72
     1
 73
     1
 93
        2
 10
3368.634708314286
 20
72.91679629800341
 42
1.0
 10
3272.664455627189
 20
72.91679629800341
 42
1.0
 97
        0
 92
       22
 72
     1
 73
     1
 93
        2
 10
3366.234708314292
 20
72.91679629800341
 42
-1.0
 10
3275.064455627183
 20
72.91679629800341
 42
-1.0
 97
        0
 92
      136
 93
        4
 72
     1
 10
3296.47985922651
 20
71.11297954316267
 11
3346.811287797945
 21
71.11297954316267
 72
     1
 10
3346.811287797954
 20
71.11297954316267
 11
3346.811287797954
 21
116.7815509717341
 72
     1
 10
3346.811287797954
 20
116.7815509717341
 11
3296.479859226518
 21
116.7815509717341
 72
     1
 10
3296.47985922651
 20
116.7815509717341
 11
3296.47985922651
 21
71.11297954316267
 97
        0
 92
      136
 93
        4
 72
     1
 10
3295.538345806602
 20
35.39359702835938
 11
3346.624060092321
 21
35.39359702835938
 72
     1
 10
3346.624060092315
 20
35.39359702835938
 11
3346.624060092315
 21
83.32502559978797
 72
     1
 10
3346.624060092315
 20
83.32502559978797
 11
3295.538345806597
 21
83.32502559978797
 72
     1
 10
3295.538345806602
 20
83.32502559978797
 11
3295.538345806602
 21
35.39359702835938
 97
        0
 75
     0
 76
     1
 47
0.0602706122334892
 98
        2
 10
3343.639867837042
 20
114.1660473987815
 10
3343.639867837042
 20
114.1660473987815
  0
HATCH
  5
88BF
330
747D
100
AcDbEntity
  8
0
100
AcDbHatch
 10
0.0
 20
0.0
 30
0.0
210
0.0
220
0.0
230
1.0
  2
SOLID
 70
     1
 71
     0
 91
        4
 92
        7
 72
     1
 73
     1
 93
        2
 10
3488.793176312841
 20
72.91679629800341
 42
1.0
 10
3392.822923625742
 20
72.91679629800341
 42
1.0
 97
        0
 92
       22
 72
     1
 73
     1
 93
        2
 10
3486.393176312846
 20
72.91679629800341
 42
-1.0
 10
3395.222923625736
 20
72.91679629800341
 42
-1.0
 97
        0
 92
      136
 93
        4
 72
     1
 10
3416.638327225063
 20
71.11297954316267
 11
3466.969755796499
 21
71.11297954316267
 72
     1
 10
3466.969755796508
 20
71.11297954316267
 11
3466.969755796508
 21
116.7815509717341
 72
     1
 10
3466.969755796508
 20
116.7815509717341
 11
3416.638327225074
 21
116.7815509717341
 72
     1
 10
3416.638327225063
 20
116.7815509717341
 11
3416.638327225063
 21
71.11297954316267
 97
        0
 92
      136
 93
        4
 72
     1
 10
3415.696813805157
 20
35.39359702835938
 11
3466.782528090876
 21
35.39359702835938
 72
     1
 10
3466.782528090868
 20
35.39359702835938
 11
3466.782528090868
 21
83.32502559978797
 72
     1
 10
3466.782528090868
 20
83.32502559978797
 11
3415.69681380515
 21
83.32502559978797
 72
     1
 10
3415.696813805157
 20
83.32502559978797
 11
3415.696813805157
 21
35.39359702835938
 97
        0
 75
     0
 76
     1
 47
0.0602706122334892
 98
        2
 10
3463.798335835596
 20
114.1660473987815
 10
3463.798335835596
 20
114.1660473987815
  0
CIRCLE
  5
88C0
330
747D
100
AcDbEntity
  8
0
100
AcDbCircle
 10
3440.808049969282
 20
72.91679629800341
 30
0.0
 40
47.98512634354756
  0
CIRCLE
  5
88C1
330
747D
100
AcDbEntity
  8
0
100
AcDbCircle
 10
3440.808049969282
 20
72.91679629800341
 30
0.0
 40
45.58512634354756
  0
LINE
  5
88C2
330
747D
100
AcDbEntity
  8
0
 62
     0
100
AcDbLine
 10
3598.531914893611
 20
498.0000000000041
 30
0.0
 11
4305.0
 21
498.0000000000041
 31
0.0
  0
LINE
  5
88C3
330
747D
100
AcDbEntity
  8
0
 62
     0
100
AcDbLine
 10
3598.531914893611
 20
402.0000000000027
 30
0.0
 11
4305.0
 21
402.0000000000027
 31
0.0
  0
LINE
  5
88C4
330
747D
100
AcDbEntity
  8
0
100
AcDbLine
 10
3202.531914893616
 20
306.0000000000012
 30
0.0
 11
4305.0
 21
306.0000000000012
 31
0.0
  0
LINE
  5
88C5
330
747D
100
AcDbEntity
  8
0
100
AcDbLine
 10
3705.151226548464
 20
244.8297154757714
 30
0.0
 11
3712.803191332763
 21
252.4816802600628
 31
0.0
  0
LINE
  5
88C6
330
747D
100
AcDbEntity
  8
0
100
AcDbLine
 10
3708.3762553758
 20
244.6606317534053
 30
0.0
 11
3712.652533122477
 21
248.9369095000865
 31
0.0
  0
ARC
  5
88C7
330
747D
100
AcDbEntity
  8
0
100
AcDbCircle
 10
3680.136214331804
 20
223.2088158088008
 30
0.0
 40
33.0637889330479
100
AcDbArc
 50
49.16258741113066
 51
130.83741258887
  0
ARC
  5
88C8
330
747D
100
AcDbEntity
  8
0
100
AcDbCircle
 10
3680.136214331804
 20
223.2088158088008
 30
0.0
 40
35.4637889330479
100
AcDbArc
 50
52.77882031190562
 51
127.2211796880944
  0
LINE
  5
88C9
330
747D
100
AcDbEntity
  8
0
100
AcDbLine
 10
3658.515314664827
 20
248.2238280254664
 30
0.0
 11
3650.816888003564
 21
255.9222546867419
 31
0.0
  0
LINE
  5
88CA
330
747D
100
AcDbEntity
  8
0
100
AcDbLine
 10
3655.121202115133
 20
244.8297154757714
 30
0.0
 11
3647.422775453869
 21
252.528142137047
 31
0.0
  0
LINE
  5
88CB
330
747D
100
AcDbEntity
  8
0
100
AcDbLine
 10
3651.896173287809
 20
244.6606317534053
 30
0.0
 11
3647.619895541119
 21
248.9369095000865
 31
0.0
  0
LINE
  5
88CC
330
747D
100
AcDbEntity
  8
0
100
AcDbLine
 10
3658.684398387199
 20
251.4488568527966
 30
0.0
 11
3654.408120640509
 21
255.7251345994763
 31
0.0
  0
TEXT
  5
88CD
330
747D
100
AcDbEntity
  8
0
100
AcDbText
 10
3666.709002834941
 20
230.6320916026407
 30
0.0
 40
18.0
  1
三
  7
SANWA
100
AcDbText
  0
ARC
  5
88CE
330
747D
100
AcDbEntity
  8
0
100
AcDbCircle
 10
3680.136214331804
 20
223.2088158088008
 30
0.0
 40
41.46378893304792
100
AcDbArc
 50
51.64767378620884
 51
128.3523262138006
  0
ARC
  5
88CF
330
747D
100
AcDbEntity
  8
0
100
AcDbCircle
 10
3680.136214331804
 20
223.2088158088008
 30
0.0
 40
43.8637889330479
100
AcDbArc
 50
48.13649544708379
 51
131.8635045529163
  0
LINE
  5
88D0
330
747D
100
AcDbEntity
  8
0
100
AcDbLine
 10
3701.757113998769
 20
248.2238280254664
 30
0.0
 11
3709.409078783054
 21
255.8757928097593
 31
0.0
  0
LINE
  5
88D1
330
747D
100
AcDbEntity
  8
0
100
AcDbLine
 10
3701.588030276411
 20
251.4488568527966
 30
0.0
 11
3705.864308023087
 21
255.7251345994778
 31
0.0
  0
TEXT
  5
88D2
330
747D
100
AcDbEntity
  8
0
 48
2.0
100
AcDbText
 10
3608.833038597698
 20
520.9962632445932
 30
0.0
 40
16.79999999999999
  1
名
  7
SANWA
100
AcDbText
  0
LINE
  5
88D3
330
747D
100
AcDbEntity
  8
0
 62
     0
100
AcDbLine
 10
3202.531914893616
 20
546.0000000000031
 30
0.0
 11
3598.531914893611
 21
546.0000000000031
 31
0.0
  0
LINE
  5
88D4
330
747D
100
AcDbEntity
  8
0
 62
     0
100
AcDbLine
 10
3202.531914893616
 20
546.0000000000031
 30
0.0
 11
3598.531914893611
 21
546.0000000000031
 31
0.0
  0
TEXT
  5
88D6
330
747D
100
AcDbEntity
  8
0
 48
2.0
100
AcDbText
 10
3608.525134886859
 20
443.4326160008049
 30
0.0
 40
16.79999999999999
  1
び
  7
SANWA
100
AcDbText
  0
TEXT
  5
88D7
330
747D
100
AcDbEntity
  8
0
 48
2.0
100
AcDbText
 10
3608.865365864922
 20
419.9263485547304
 30
0.0
 40
16.79999999999999
  1
名
  7
SANWA
100
AcDbText
  0
TEXT
  5
88D8
330
747D
100
AcDbEntity
  8
0
 48
2.0
100
AcDbText
 10
3609.288067929337
 20
360.6846153128758
 30
0.0
 40
16.79999999999999
  1
規
  7
SANWA
100
AcDbText
  0
TEXT
  5
88D9
330
747D
100
AcDbEntity
  8
0
 48
2.0
100
AcDbText
 10
3609.288067929337
 20
324.9410917409396
 30
0.0
 40
16.79999999999999
  1
格
  7
SANWA
100
AcDbText
  0
TEXT
  5
88DA
330
747D
100
AcDbEntity
  8
0
 48
2.0
100
AcDbText
 10
3498.749396044367
 20
277.2513790084826
 30
0.0
 40
24.0
  1
製図
  7
SANWA
100
AcDbText
  0
LINE
  5
88DB
330
747D
100
AcDbEntity
  8
0
100
AcDbLine
 10
3202.531914893616
 20
402.0000000000027
 30
0.0
 11
3202.531914893616
 21
436.0565675878984
 31
0.0
  0
LINE
  5
88DC
330
747D
100
AcDbEntity
  8
0
100
AcDbLine
 10
3202.531914893616
 20
342.0000000000026
 30
0.0
 11
3202.531914893616
 21
378.0000000000022
 31
0.0
  0
TEXT
  5
88DD
330
747D
100
AcDbEntity
  8
0
 48
2.0
100
AcDbText
 10
3231.216179933126
 20
275.7717951156461
 30
0.0
 40
24.0
  1
検図
  7
SANWA
100
AcDbText
  0
LINE
  5
88DE
330
747D
100
AcDbEntity
  8
0
100
AcDbLine
 10
3202.531914893616
 20
342.0000000000026
 30
0.0
 11
3202.531914893616
 21
306.0000000000012
 31
0.0
  0
TEXT
  5
88DF
330
747D
100
AcDbEntity
  8
0
 48
2.0
100
AcDbText
 10
3234.749396044362
 20
313.2513790084821
 30
0.0
 40
24.0
  1
製図
  7
SANWA
100
AcDbText
  0
LINE
  5
88E0
330
747D
100
AcDbEntity
  8
0
100
AcDbLine
 10
3202.531914893616
 20
378.0000000000022
 30
0.0
 11
3202.531914893616
 21
299.9351497097658
 31
0.0
  0
LINE
  5
88E1
330
747D
100
AcDbEntity
  8
0
 62
     0
100
AcDbLine
 10
3202.531914893616
 20
474.0000000000036
 30
0.0
 11
3598.531914893611
 21
474.0000000000036
 31
0.0
  0
LINE
  5
88E2
330
747D
100
AcDbEntity
  8
0
 62
     0
100
AcDbLine
 10
3202.531914893616
 20
426.0000000000031
 30
0.0
 11
3598.531914893611
 21
426.0000000000031
 31
0.0
  0
TEXT
  5
88E3
330
747D
100
AcDbEntity
  8
0
 48
2.0
100
AcDbText
 10
3326.458873159408
 20
434.3839146702152
 30
0.0
 40
24.0
  1
縮    尺
  7
SANWA
100
AcDbText
  0
TEXT
  5
88E4
330
747D
100
AcDbEntity
  8
0
 48
2.0
100
AcDbText
 10
3342.663150318294
 20
378.5853012973511
 30
0.0
 40
24.0
  1
1 : 15
  7
SANWA
100
AcDbText
  0
LINE
  5
88E5
330
747D
100
AcDbEntity
  8
0
 62
     0
100
AcDbLine
 10
3202.531914893616
 20
342.0000000000026
 30
0.0
 11
3598.531914893611
 21
342.0000000000026
 31
0.0
  0
TEXT
  5
88E6
330
747D
100
AcDbEntity
  8
0
 48
2.0
100
AcDbText
 10
3369.075985825584
 20
277.1357177512963
 30
0.0
 40
24.0
  1
設計
  7
SANWA
100
AcDbText
  0
LINE
  5
88E7
330
747D
100
AcDbEntity
  8
0
 62
     0
100
AcDbLine
 10
3202.531914893616
 20
270.0000000000018
 30
0.0
 11
3598.531914893611
 21
270.0000000000018
 31
0.0
  0
TEXT
  5
88E8
330
747D
100
AcDbEntity
  8
0
 48
2.0
100
AcDbText
 10
3388.972302949391
 20
313.2513790084821
 30
0.0
 40
24.0
  1
2005. 2.21
  7
SANWA
100
AcDbText
  0
LINE
  5
88E9
330
747D
100
AcDbEntity
  8
0
 62
     0
100
AcDbLine
 10
3202.531914893616
 20
522.0000000000026
 30
0.0
 11
3202.531914893616
 21
378.0000000000022
 31
0.0
  0
LINE
  5
88EA
330
747D
100
AcDbEntity
  8
0
100
AcDbLine
 10
3202.531914893616
 20
436.0565675878984
 30
0.0
 11
3202.531914893616
 21
529.2701469420904
 31
0.0
  0
TEXT
  5
88EB
330
747D
100
AcDbEntity
  8
0
 48
2.0
100
AcDbText
 10
3608.763425308412
 20
466.4348193000683
 30
0.0
 40
16.79999999999999
  1
呼
  7
SANWA
100
AcDbText
  0
TEXT
  5
88EC
330
747D
100
AcDbEntity
  8
0
100
AcDbText
 10
3852.88595744681
 20
534.0000000000031
 30
0.0
 40
24.0
  1
エコノミー側溝
  7
SANWA
 72
     4
 11
3975.76595744681
 21
546.0000000000031
 31
0.0
100
AcDbText
  0
TEXT
  5
88ED
330
747D
100
AcDbEntity
  8
0
100
AcDbText
 10
3905.548814589666
 20
436.9028571428605
 30
0.0
 40
24.0
  1
Ｈタイプ
  7
SANWA
 72
     4
 11
3975.76595744681
 21
450.0000000000033
 31
0.0
100
AcDbText
  0
TEXT
  5
88EE
330
747D
100
AcDbEntity
  8
0
100
AcDbText
 10
3852.88595744681
 20
342.2742857142893
 30
0.0
 40
24.0
  1
400×500×1998
  7
SANWA
 72
     4
 11
3975.76595744681
 21
354.0000000000036
 31
0.0
100
AcDbText
  0
LINE
  5
88EF
330
747D
100
AcDbEntity
  8
0
100
AcDbLine
 10
4455.0
 20
150.0
 30
0.0
 11
4455.0
 21
0.0
 31
0.0
  0
LINE
  5
88F0
330
747D
100
AcDbEntity
  8
0
 62
     0
100
AcDbLine
 10
3202.531914893616
 20
594.0000000000036
 30
0.0
 11
4305.0
 21
594.0000000000036
 31
0.0
  0
LINE
  5
88F1
330
747D
100
AcDbEntity
  8
0
100
AcDbLine
 10
3598.531914893611
 20
594.0000000000036
 30
0.0
 11
3621.277272305447
 21
594.0000000000036
 31
0.0
  0
LINE
  5
88F2
330
747D
100
AcDbEntity
  8
0
100
AcDbLine
 10
4305.0
 20
3150.0
 30
0.0
 11
4455.0
 21
3150.0
 31
0.0
  0
TEXT
  5
88F5
330
747D
100
AcDbEntity
  8
0
100
AcDbText
 10
3083.762586563029
 20
2826.694704707974
 30
0.0
 40
36.0
  1
W=544㎏
  7
SANWA
 72
     4
 11
3175.922586563029
 21
2843.76899042226
 31
0.0
100
AcDbText
  0
LINE
  5
88F6
330
747D
100
AcDbEntity
  8
0
100
AcDbLine
 10
4455.0
 20
3150.0
 30
0.0
 11
4455.0
 21
3000.0
 31
0.0
  0
LINE
  5
88FB
330
747D
100
AcDbEntity
  8
0
 48
20.0
100
AcDbLine
 10
908.5782198007601
 20
1906.348890208359
 30
0.0
 11
913.0782198007601
 21
1910.848890208358
 31
0.0
  0
LINE
  5
88FC
330
747D
100
AcDbEntity
  8
0
 48
20.0
100
AcDbLine
 10
1448.57821980076
 20
1906.348890208359
 30
0.0
 11
1444.07821980076
 21
1910.848890208358
 31
0.0
  0
DIMENSION
  5
88FD
330
747D
100
AcDbEntity
  8
寸法引出
 48
20.0
100
AcDbDimension
  2
*D1
 10
948.5782198007601
 20
1974.820170971603
 30
0.0
 11
881.7710332749994
 21
2004.994450529864
 31
0.0
 70
   160
 71
     5
 42
40.0
  3
SANWA
100
AcDbAlignedDimension
 13
908.5782198007601
 23
1906.348890208359
 33
0.0
 14
948.5782198007601
 24
1910.848890208358
 34
0.0
100
AcDbRotatedDimension
1001
ACAD
1000
DSTYLE
1002
{
1070
    40
1040
15.0
1070
    41
1040
1.5
1070
    43
1040
5.0
1070
    44
1040
0.5
1070
   140
1040
2.0
1070
   147
1040
1.0
1070
   176
1070
   256
1070
   177
1070
   256
1070
   178
1070
   256
1070
   279
1070
     2
1002
}
  0
DIMENSION
  5
8917
330
747D
100
AcDbEntity
  8
寸法引出
 48
20.0
100
AcDbDimension
  2
*D2
 10
951.0782198007593
 20
1974.820170971603
 30
0.0
 11
948.3471139909051
 21
2039.037261393421
 31
0.0
 70
   160
 71
     5
 42
2.49999999999909
  3
SANWA
100
AcDbAlignedDimension
 13
948.5782198007601
 23
1910.848890208358
 33
0.0
 14
951.0782198007593
 24
1820.848890208358
 34
0.0
100
AcDbRotatedDimension
1001
ACAD
1000
DSTYLE
1002
{
1070
    40
1040
15.0
1070
    41
1040
1.5
1070
    43
1040
5.0
1070
    44
1040
0.5
1070
   140
1040
2.0
1070
   147
1040
1.0
1070
   176
1070
   256
1070
   177
1070
   256
1070
   178
1070
   256
1070
   279
1070
     2
1002
}
  0
DIMENSION
  5
8926
330
747D
100
AcDbEntity
  8
寸法引出
 48
20.0
100
AcDbDimension
  2
*D3
 10
978.5782198007602
 20
1974.820170971603
 30
0.0
 11
963.8299082113693
 21
2003.447058627721
 31
0.0
 70
   160
 71
     5
 42
27.50000000000091
  3
SANWA
100
AcDbAlignedDimension
 13
951.0782198007593
 23
1820.848890208358
 33
0.0
 14
978.5782198007602
 24
1820.848890208358
 34
0.0
100
AcDbRotatedDimension
1001
ACAD
1000
DSTYLE
1002
{
1070
    40
1040
15.0
1070
    41
1040
1.5
1070
    43
1040
5.0
1070
    44
1040
0.5
1070
   140
1040
2.0
1070
   147
1040
1.0
1070
   176
1070
   256
1070
   177
1070
   256
1070
   178
1070
   256
1070
   279
1070
     2
1002
}
  0
DIMENSION
  5
898D
330
747D
100
AcDbEntity
  8
寸法引出
 48
20.0
100
AcDbDimension
  2
*D4
 10
1378.578219800759
 20
1974.820170971603
 30
0.0
 11
1178.578219800759
 21
2004.820170971603
 31
0.0
 70
    32
 71
     5
 42
399.9999999999989
  3
SANWA
100
AcDbAlignedDimension
 13
978.5782198007602
 23
1820.848890208358
 33
0.0
 14
1378.578219800759
 24
1820.848890208358
 34
0.0
100
AcDbRotatedDimension
1001
ACAD
1000
DSTYLE
1002
{
1070
    40
1040
15.0
1070
    41
1040
1.5
1070
    43
1040
5.0
1070
    44
1040
0.5
1070
   140
1040
2.0
1070
   147
1040
1.0
1070
   176
1070
   256
1070
   177
1070
   256
1070
   178
1070
   256
1070
   279
1070
     2
1002
}
  0
DIMENSION
  5
899A
330
747D
100
AcDbEntity
  8
寸法引出
 48
20.0
100
AcDbDimension
  2
*D5
 10
1448.57821980076
 20
1974.820170971603
 30
0.0
 11
1413.578219800759
 21
2004.820170971603
 31
0.0
 70
    32
 71
     5
 42
70.00000000000091
  3
SANWA
100
AcDbAlignedDimension
 13
1378.578219800759
 23
1820.848890208358
 33
0.0
 14
1448.57821980076
 24
1906.348890208358
 34
0.0
100
AcDbRotatedDimension
1001
ACAD
1000
DSTYLE
1002
{
1070
    40
1040
15.0
1070
    41
1040
1.5
1070
    43
1040
5.0
1070
    44
1040
0.5
1070
   140
1040
2.0
1070
   147
1040
1.0
1070
   176
1070
   256
1070
   177
1070
   256
1070
   178
1070
   256
1070
   279
1070
     2
1002
}
  0
DIMENSION
  5
89A9
330
747D
100
AcDbEntity
  8
寸法引出
 48
20.0
100
AcDbDimension
  2
*D6
 10
1448.57821980076
 20
2068.855502660337
 30
0.0
 11
1178.57821980076
 21
2098.855502660337
 31
0.0
 70
    32
 71
     5
 42
539.9999999999998
  3
SANWA
100
AcDbAlignedDimension
 13
908.5782198007601
 23
1906.348890208359
 33
0.0
 14
1448.57821980076
 24
1906.348890208358
 34
0.0
100
AcDbRotatedDimension
1001
ACAD
1000
DSTYLE
1002
{
1070
    40
1040
15.0
1070
    41
1040
1.5
1070
    43
1040
5.0
1070
    44
1040
0.5
1070
   140
1040
2.0
1070
   147
1040
1.0
1070
   176
1070
   256
1070
   177
1070
   256
1070
   178
1070
   256
1070
   279
1070
     2
1002
}
  0
DIMENSION
  5
8A12
330
747D
100
AcDbEntity
  8
寸法引出
 48
20.0
100
AcDbDimension
  2
*D7
 10
800.9095255738172
 20
1820.848890208358
 30
0.0
 11
770.9095255738168
 21
1865.848890208358
 31
0.0
 70
    32
 71
     5
 42
90.0
  3
SANWA
100
AcDbAlignedDimension
 13
913.0782198007601
 23
1910.848890208358
 33
0.0
 14
908.5782198007601
 24
1820.848890208358
 34
0.0
 50
90.0
100
AcDbRotatedDimension
1001
ACAD
1000
DSTYLE
1002
{
1070
    40
1040
15.0
1070
    41
1040
1.5
1070
    43
1040
5.0
1070
    44
1040
0.5
1070
   140
1040
2.0
1070
   147
1040
1.0
1070
   176
1070
   256
1070
   177
1070
   256
1070
   178
1070
   256
1070
   279
1070
     2
1002
}
  0
MTEXT
  5
8A79
330
747D
100
AcDbEntity
  8
寸法引出
 48
20.0
100
AcDbMText
 10
1087.685461596562
 20
1465.670069961218
 30
0.0
 40
30.0
 41
0.0
 71
     5
 72
     1
  1
50r
  7
SANWA
 73
     1
 44
1.0
  0
LEADER
  5
8A7B
330
747D
100
AcDbEntity
  8
寸法引出
 48
20.0
100
AcDbLeader
  3
SANWA
 76
     3
 10
1005.488333621807
 20
1363.858714947298
 30
0.0
 10
1047.911200407157
 20
1444.17883525832
 30
0.0
 10
1118.606961686873
 20
1444.17883525832
 30
0.0
1001
ACAD
1000
DSTYLE
1002
{
1070
    77
1070
     0
1070
    40
1040
15.0
1070
    41
1040
1.5
1070
    43
1040
5.0
1070
    44
1040
0.5
1070
   140
1040
2.0
1070
   147
1040
1.0
1070
   176
1070
   256
1070
   177
1070
   256
1070
   178
1070
   256
1070
   279
1070
     2
1002
}
  0
MTEXT
  5
8A7C
330
747D
100
AcDbEntity
  8
寸法引出
 48
20.0
100
AcDbMText
 10
1187.169450300626
 20
1416.644382108821
 30
0.0
 40
30.0
 41
0.0
 71
     5
 72
     1
  1
450r
  7
SANWA
 73
     1
 44
1.0
  0
LEADER
  5
8A7D
330
747D
100
AcDbEntity
  8
寸法引出
 48
20.0
100
AcDbLeader
  3
SANWA
 76
     3
 10
1097.095036936438
 20
1328.287605288067
 30
0.0
 10
1134.732859393995
 20
1393.040888382576
 30
0.0
 10
1230.037569907471
 20
1393.040888382576
 30
0.0
1001
ACAD
1000
DSTYLE
1002
{
1070
    77
1070
     0
1070
    40
1040
15.0
1070
    41
1040
1.5
1070
    43
1040
5.0
1070
    44
1040
0.5
1070
   140
1040
2.0
1070
   147
1040
1.0
1070
   176
1070
   256
1070
   177
1070
   256
1070
   178
1070
   256
1070
   279
1070
     2
1002
}
  0
LINE
  5
8A7E
330
747D
100
AcDbEntity
  8
0
 48
15.0
100
AcDbLine
 10
954.358227794365
 20
1800.848890208359
 30
0.0
 11
979.3782198007592
 21
1800.848890208358
 31
0.0
  0
LINE
  5
8A7F
330
747D
100
AcDbEntity
  8
0
 48
15.0
100
AcDbLine
 10
1402.798211807154
 20
1800.848890208358
 30
0.0
 11
1377.77821980076
 21
1800.848890208358
 31
0.0
  0
MTEXT
  5
8AA9
330
747D
100
AcDbEntity
  8
寸法引出
 48
20.0
100
AcDbMText
 10
1566.545984399466
 20
1995.323399416012
 30
0.0
 40
30.0
 41
0.0
 71
     5
 72
     1
  1
4.5C
  7
SANWA
 73
     1
 44
1.0
  0
LEADER
  5
8AAB
330
747D
100
AcDbEntity
  8
寸法引出
 48
20.0
100
AcDbLeader
  3
SANWA
 76
     3
 10
1446.328219800759
 20
1908.598890208358
 30
0.0
 10
1517.579708870478
 20
1974.969803280533
 30
0.0
 10
1611.703492695927
 20
1974.969803280533
 30
0.0
1001
ACAD
1000
DSTYLE
1002
{
1070
    77
1070
     0
1070
    40
1040
15.0
1070
    41
1040
1.5
1070
    43
1040
5.0
1070
    44
1040
0.5
1070
   140
1040
2.0
1070
   147
1040
1.0
1070
   176
1070
   256
1070
   177
1070
   256
1070
   178
1070
   256
1070
   279
1070
     2
1002
}
  0
LINE
  5
8C77
330
747D
100
AcDbEntity
  8
0
  6
HIDDEN2
 48
15.0
100
AcDbLine
 10
1872.493333821983
 20
1820.848890208358
 30
0.0
 11
3870.493333821984
 21
1820.848890208358
 31
0.0
  0
LINE
  5
8C78
330
747D
100
AcDbEntity
  8
0
  6
HIDDEN2
 48
15.0
100
AcDbLine
 10
1872.493333821983
 20
1320.848890208358
 30
0.0
 11
3870.493333821984
 21
1320.848890208358
 31
0.0
  0
LINE
  5
8C79
330
747D
100
AcDbEntity
  8
0
 48
15.0
100
AcDbLine
 10
1872.493333821983
 20
1906.348890208359
 30
0.0
 11
3870.493333821984
 21
1906.348890208359
 31
0.0
  0
LINE
  5
8C7A
330
747D
100
AcDbEntity
  8
0
 48
15.0
100
AcDbLine
 10
1872.493333821983
 20
1270.848890208359
 30
0.0
 11
3870.493333821984
 21
1270.848890208359
 31
0.0
  0
LINE
  5
8C7C
330
747D
100
AcDbEntity
  8
0
 48
20.0
100
AcDbLine
 10
2821.493333821984
 20
1446.848890208358
 30
0.0
 11
2821.493333821985
 21
1546.848890208359
 31
0.0
  0
LINE
  5
8C7D
330
747D
100
AcDbEntity
  8
0
 48
20.0
100
AcDbLine
 10
2921.493333821984
 20
1446.848890208358
 30
0.0
 11
2921.493333821984
 21
1546.848890208359
 31
0.0
  0
LINE
  5
8C80
330
747D
100
AcDbEntity
  8
0
 48
15.0
100
AcDbLine
 10
2821.493333821985
 20
1546.848890208359
 30
0.0
 11
2921.493333821984
 21
1546.848890208359
 31
0.0
  0
LINE
  5
8C81
330
747D
100
AcDbEntity
  8
0
 48
15.0
100
AcDbLine
 10
2831.493333821983
 20
1536.848890208359
 30
0.0
 11
2911.493333821982
 21
1536.848890208359
 31
0.0
  0
LINE
  5
8C82
330
747D
100
AcDbEntity
  8
0
 48
15.0
100
AcDbLine
 10
2821.493333821984
 20
1446.848890208358
 30
0.0
 11
2921.493333821984
 21
1446.848890208358
 31
0.0
  0
LINE
  5
8C83
330
747D
100
AcDbEntity
  8
0
 48
20.0
100
AcDbLine
 10
2821.493333821984
 20
1546.848890208358
 30
0.0
 11
2831.493333821983
 21
1536.848890208359
 31
0.0
  0
LINE
  5
8C84
330
747D
100
AcDbEntity
  8
0
 48
20.0
100
AcDbLine
 10
2831.493333821983
 20
1536.848890208359
 30
0.0
 11
2821.493333821984
 21
1446.848890208358
 31
0.0
  0
LINE
  5
8C85
330
747D
100
AcDbEntity
  8
0
 48
20.0
100
AcDbLine
 10
2921.493333821984
 20
1546.848890208358
 30
0.0
 11
2911.493333821983
 21
1536.848890208359
 31
0.0
  0
LINE
  5
8C86
330
747D
100
AcDbEntity
  8
0
 48
20.0
100
AcDbLine
 10
2911.493333821983
 20
1536.848890208359
 30
0.0
 11
2921.493333821984
 21
1446.848890208358
 31
0.0
  0
CIRCLE
  5
8C89
330
747D
100
AcDbEntity
  8
0
 48
20.0
100
AcDbCircle
 10
2871.493333821983
 20
1496.848890208358
 30
0.0
 40
10.0
  0
DIMENSION
  5
8CB4
330
747D
100
AcDbEntity
  8
寸法引出
 48
20.0
100
AcDbDimension
  2
*D8
 10
2831.493333821983
 20
1603.848712483042
 30
0.0
 11
2799.903216517166
 21
1634.07739441729
 31
0.0
 70
   160
 71
     5
 42
9.999999999998181
  3
SANWA
100
AcDbAlignedDimension
 13
2821.493333821985
 23
1546.848890208359
 33
0.0
 14
2831.493333821983
 24
1536.848890208359
 34
0.0
100
AcDbRotatedDimension
1001
ACAD
1000
DSTYLE
1002
{
1070
    40
1040
15.0
1070
    41
1040
1.5
1070
    43
1040
5.0
1070
    44
1040
0.5
1070
   140
1040
2.0
1070
   147
1040
1.0
1070
   176
1070
   256
1070
   177
1070
   256
1070
   178
1070
   256
1070
   279
1070
     2
1002
}
  0
DIMENSION
  5
8CC3
330
747D
100
AcDbEntity
  8
寸法引出
 48
20.0
100
AcDbDimension
  2
*D9
 10
2911.493333821982
 20
1603.848712483042
 30
0.0
 11
2871.493333821982
 21
1633.848712483042
 31
0.0
 70
    32
 71
     5
 42
79.99999999999864
  3
SANWA
100
AcDbAlignedDimension
 13
2831.493333821983
 23
1536.848890208359
 33
0.0
 14
2911.493333821982
 24
1536.848890208359
 34
0.0
100
AcDbRotatedDimension
1001
ACAD
1000
DSTYLE
1002
{
1070
    40
1040
15.0
1070
    41
1040
1.5
1070
    43
1040
5.0
1070
    44
1040
0.5
1070
   140
1040
2.0
1070
   147
1040
1.0
1070
   176
1070
   256
1070
   177
1070
   256
1070
   178
1070
   256
1070
   279
1070
     2
1002
}
  0
DIMENSION
  5
8CD0
330
747D
100
AcDbEntity
  8
寸法引出
 48
20.0
100
AcDbDimension
  2
*D10
 10
2921.493333821984
 20
1603.848712483042
 30
0.0
 11
2940.275740850098
 21
1634.475961413805
 31
0.0
 70
   160
 71
     5
 42
10.00000000000227
  3
SANWA
100
AcDbAlignedDimension
 13
2911.493333821982
 23
1536.848890208359
 33
0.0
 14
2921.493333821984
 24
1546.848890208358
 34
0.0
100
AcDbRotatedDimension
1001
ACAD
1000
DSTYLE
1002
{
1070
    40
1040
15.0
1070
    41
1040
1.5
1070
    43
1040
5.0
1070
    44
1040
0.5
1070
   140
1040
2.0
1070
   147
1040
1.0
1070
   176
1070
   256
1070
   177
1070
   256
1070
   178
1070
   256
1070
   279
1070
     2
1002
}
  0
DIMENSION
  5
8D89
330
747D
100
AcDbEntity
  8
寸法引出
 48
20.0
100
AcDbDimension
  2
*D11
 10
3957.158892171228
 20
1496.848890208358
 30
0.0
 11
3927.158892171227
 21
1703.848890208359
 31
0.0
 70
    32
 71
     5
 42
413.9999999999997
  3
SANWA
100
AcDbAlignedDimension
 13
3870.493333821984
 23
1910.848890208358
 33
0.0
 14
3870.493333821984
 24
1496.848890208358
 34
0.0
 50
90.0
100
AcDbRotatedDimension
1001
ACAD
1000
DSTYLE
1002
{
1070
    40
1040
15.0
1070
    41
1040
1.5
1070
    43
1040
5.0
1070
    44
1040
0.5
1070
   140
1040
2.0
1070
   147
1040
1.0
1070
   176
1070
   256
1070
   177
1070
   256
1070
   178
1070
   256
1070
   279
1070
     2
1002
}
  0
DIMENSION
  5
8D96
330
747D
100
AcDbEntity
  8
寸法引出
 48
20.0
100
AcDbDimension
  2
*D12
 10
3957.158892171228
 20
1250.848890208358
 30
0.0
 11
3927.158892171227
 21
1373.848890208359
 31
0.0
 70
    32
 71
     5
 42
246.0
  3
SANWA
100
AcDbAlignedDimension
 13
3870.493333821984
 23
1496.848890208358
 33
0.0
 14
3870.493333821984
 24
1250.848890208358
 34
0.0
 50
90.0
100
AcDbRotatedDimension
1001
ACAD
1000
DSTYLE
1002
{
1070
    40
1040
15.0
1070
    41
1040
1.5
1070
    43
1040
5.0
1070
    44
1040
0.5
1070
   140
1040
2.0
1070
   147
1040
1.0
1070
   176
1070
   256
1070
   177
1070
   256
1070
   178
1070
   256
1070
   279
1070
     2
1002
}
  0
DIMENSION
  5
8DA3
330
747D
100
AcDbEntity
  8
寸法引出
 48
20.0
100
AcDbDimension
  2
*D13
 10
3870.493333821984
 20
2021.914878209756
 30
0.0
 11
2871.493333821983
 21
2051.914878209756
 31
0.0
 70
    32
 71
     5
 42
1998.0
  3
SANWA
100
AcDbAlignedDimension
 13
1872.493333821983
 23
1910.848890208358
 33
0.0
 14
3870.493333821984
 24
1910.848890208358
 34
0.0
100
AcDbRotatedDimension
1001
ACAD
1000
DSTYLE
1002
{
1070
    40
1040
15.0
1070
    41
1040
1.5
1070
    43
1040
5.0
1070
    44
1040
0.5
1070
   140
1040
2.0
1070
   147
1040
1.0
1070
   176
1070
   256
1070
   177
1070
   256
1070
   178
1070
   256
1070
   279
1070
     2
1002
}
  0
MTEXT
  5
8DCF
330
747D
100
AcDbEntity
  8
寸法引出
 48
20.0
100
AcDbMText
 10
3285.443177213852
 20
1397.596639874181
 30
0.0
 40
30.0
 41
0.0
 71
     5
 72
     1
  1
吊り用ｲﾝﾊﾞｰﾄﾊﾝｶﾞｰ（20×65-70）
  7
SANWA
 73
     1
 44
1.0
  0
LEADER
  5
8DD0
330
747D
100
AcDbEntity
  8
寸法引出
 48
20.0
100
AcDbLeader
  3
SANWA
 76
     3
 10
2871.493333821983
 20
1486.848890208359
 30
0.0
 10
2956.850507956161
 20
1372.596623753421
 30
0.0
 10
3595.804280379656
 20
1372.596623753421
 30
0.0
1001
ACAD
1000
DSTYLE
1002
{
1070
    77
1070
     0
1070
    40
1040
15.0
1070
    41
1040
1.5
1070
    43
1040
5.0
1070
    44
1040
0.5
1070
   140
1040
2.0
1070
   147
1040
1.0
1070
   176
1070
   256
1070
   177
1070
   256
1070
   178
1070
   256
1070
   279
1070
     2
1002
}
  0
MTEXT
  5
8DD1
330
747D
100
AcDbEntity
  8
寸法引出
 48
20.0
100
AcDbMText
 10
1533.803417298386
 20
1198.528291994063
 30
0.0
 40
30.0
 41
0.0
 71
     5
 72
     1
  1
20C
  7
SANWA
 73
     1
 44
1.0
  0
LEADER
  5
8DD2
330
747D
100
AcDbEntity
  8
寸法引出
 48
20.0
100
AcDbLeader
  3
SANWA
 76
     3
 10
1410.578219800761
 20
1260.848890208359
 30
0.0
 10
1481.143434082574
 20
1177.320822558698
 30
0.0
 10
1571.321219461316
 20
1177.320822558698
 30
0.0
1001
ACAD
1000
DSTYLE
1002
{
1070
    77
1070
     0
1070
    40
1040
15.0
1070
    41
1040
1.5
1070
    43
1040
5.0
1070
    44
1040
0.5
1070
   140
1040
2.0
1070
   147
1040
1.0
1070
   176
1070
   256
1070
   177
1070
   256
1070
   178
1070
   256
1070
   279
1070
     2
1002
}
  0
DIMENSION
  5
9083
330
747D
100
AcDbEntity
  8
寸法引出
 48
20.0
100
AcDbDimension
  2
*D16
 10
1758.607486693144
 20
1250.848890208358
 30
0.0
 11
1728.607486693143
 21
1580.848890208358
 31
0.0
 70
    32
 71
     5
 42
659.9999999999997
  3
SANWA
100
AcDbAlignedDimension
 13
1872.493333821983
 23
1910.848890208358
 33
0.0
 14
1872.493333821983
 24
1250.848890208358
 34
0.0
 50
90.0
100
AcDbRotatedDimension
1001
ACAD
1000
DSTYLE
1002
{
1070
    40
1040
15.0
1070
    41
1040
1.5
1070
    43
1040
5.0
1070
    44
1040
0.5
1070
   140
1040
2.0
1070
   147
1040
1.0
1070
   176
1070
   256
1070
   177
1070
   256
1070
   178
1070
   256
1070
   279
1070
     2
1002
}
  0
LINE
  5
91F4
330
747D
100
AcDbEntity
  8
0
 48
20.0
100
AcDbLine
 10
2208.486632061834
 20
400.68087367748
 30
0.0
 11
2208.486632061834
 21
370.68087367748
 31
0.0
  0
LINE
  5
91F7
330
747D
100
AcDbEntity
  8
0
 48
20.0
100
AcDbLine
 10
2183.486632061834
 20
295.6808736774801
 30
0.0
 11
2208.486632061834
 21
370.68087367748
 31
0.0
  0
LINE
  5
91FA
330
747D
100
AcDbEntity
  8
0
 48
20.0
100
AcDbLine
 10
2233.486632061834
 20
275.68087367748
 30
0.0
 11
2183.486632061834
 21
295.6808736774801
 31
0.0
  0
LINE
  5
91FB
330
747D
100
AcDbEntity
  8
0
 48
20.0
100
AcDbLine
 10
2208.486632061834
 20
400.68087367748
 30
0.0
 11
2108.486632061834
 21
400.68087367748
 31
0.0
  0
LINE
  5
91FC
330
747D
100
AcDbEntity
  8
0
 48
20.0
100
AcDbLine
 10
2258.486632061834
 20
400.68087367748
 30
0.0
 11
2358.486632061834
 21
400.68087367748
 31
0.0
  0
LINE
  5
91FD
330
747D
100
AcDbEntity
  8
0
 48
20.0
100
AcDbLine
 10
2233.486632061834
 20
275.68087367748
 30
0.0
 11
2283.486632061834
 21
295.6808736774801
 31
0.0
  0
LINE
  5
91FE
330
747D
100
AcDbEntity
  8
0
 48
20.0
100
AcDbLine
 10
2283.486632061834
 20
295.6808736774801
 30
0.0
 11
2258.486632061834
 21
370.68087367748
 31
0.0
  0
LINE
  5
91FF
330
747D
100
AcDbEntity
  8
0
 48
20.0
100
AcDbLine
 10
2258.486632061834
 20
400.68087367748
 30
0.0
 11
2258.486632061834
 21
370.68087367748
 31
0.0
  0
LINE
  5
9200
330
747D
100
AcDbEntity
  8
0
100
AcDbLine
 10
2068.753135859519
 20
543.8205898430392
 30
0.0
 11
2391.649022268593
 21
543.8205898430392
 31
0.0
  0
TEXT
  5
9201
330
747D
100
AcDbEntity
  8
0
100
AcDbText
 10
2066.954243841499
 20
555.6618403275961
 30
0.0
 40
36.0
  1
目地部詳細図
  7
SANWA
 72
     4
 11
2224.942815270071
 21
574.278983184739
 31
0.0
100
AcDbText
  0
DIMENSION
  5
9202
330
747D
100
AcDbEntity
  8
寸法引出
 48
20.0
100
AcDbDimension
  2
*D17
 10
2208.486632061834
 20
465.1369083824228
 30
0.0
 11
2220.986632061834
 21
495.1369083824229
 31
0.0
 70
    32
  1
5
 71
     5
 42
25.0
  3
SANWA
100
AcDbAlignedDimension
 13
2233.486632061834
 23
275.68087367748
 33
0.0
 14
2208.486632061834
 24
400.68087367748
 34
0.0
100
AcDbRotatedDimension
1001
ACAD
1000
DSTYLE
1002
{
1070
    40
1040
15.0
1070
    41
1040
1.5
1070
    43
1040
5.0
1070
    44
1040
0.5
1070
   140
1040
2.0
1070
   147
1040
1.0
1070
   176
1070
   256
1070
   177
1070
   256
1070
   178
1070
   256
1070
   279
1070
     2
1002
}
  0
DIMENSION
  5
9241
330
747D
100
AcDbEntity
  8
寸法引出
 48
20.0
100
AcDbDimension
  2
*D18
 10
2067.998898564288
 20
370.6808736774801
 30
0.0
 11
2034.924780979257
 21
419.4246778782289
 31
0.0
 70
   160
  1
6
 71
     5
 42
29.99999999999994
  3
SANWA
100
AcDbAlignedDimension
 13
2108.486632061834
 23
400.68087367748
 33
0.0
 14
2208.486632061834
 24
370.68087367748
 34
0.0
 50
90.0
100
AcDbRotatedDimension
1001
ACAD
1000
DSTYLE
1002
{
1070
    40
1040
15.0
1070
    41
1040
1.5
1070
    43
1040
5.0
1070
    44
1040
0.5
1070
   140
1040
2.0
1070
   147
1040
1.0
1070
   176
1070
   256
1070
   177
1070
   256
1070
   178
1070
   256
1070
   279
1070
     2
1002
}
  0
DIMENSION
  5
9250
330
747D
100
AcDbEntity
  8
寸法引出
 48
20.0
100
AcDbDimension
  2
*D19
 10
2067.998898564288
 20
295.6808736774801
 30
0.0
 11
2037.998898564288
 21
333.1808736774804
 31
0.0
 70
    32
  1
15
 71
     5
 42
74.99999999999994
  3
SANWA
100
AcDbAlignedDimension
 13
2208.486632061834
 23
370.68087367748
 33
0.0
 14
2183.486632061834
 24
295.6808736774801
 34
0.0
 50
90.0
100
AcDbRotatedDimension
1001
ACAD
1000
DSTYLE
1002
{
1070
    40
1040
15.0
1070
    41
1040
1.5
1070
    43
1040
5.0
1070
    44
1040
0.5
1070
   140
1040
2.0
1070
   147
1040
1.0
1070
   176
1070
   256
1070
   177
1070
   256
1070
   178
1070
   256
1070
   279
1070
     2
1002
}
  0
DIMENSION
  5
925F
330
747D
100
AcDbEntity
  8
寸法引出
 48
20.0
100
AcDbDimension
  2
*D20
 10
2067.998898564288
 20
275.6808736774801
 30
0.0
 11
2037.526880556331
 21
259.0538310957398
 31
0.0
 70
   160
  1
4
 71
     5
 42
20.00000000000005
  3
SANWA
100
AcDbAlignedDimension
 13
2183.486632061834
 23
295.6808736774801
 33
0.0
 14
2233.486632061834
 24
275.68087367748
 34
0.0
 50
90.0
100
AcDbRotatedDimension
1001
ACAD
1000
DSTYLE
1002
{
1070
    40
1040
15.0
1070
    41
1040
1.5
1070
    43
1040
5.0
1070
    44
1040
0.5
1070
   140
1040
2.0
1070
   147
1040
1.0
1070
   176
1070
   256
1070
   177
1070
   256
1070
   178
1070
   256
1070
   279
1070
     2
1002
}
  0
DIMENSION
  5
928F
330
747D
100
AcDbEntity
  8
寸法引出
 48
20.0
100
AcDbDimension
  2
*D21
 10
2233.486632061834
 20
206.0840701650903
 30
0.0
 11
2208.486632061834
 21
236.0840701650904
 31
0.0
 70
    32
  1
10
 71
     5
 42
50.0
  3
SANWA
100
AcDbAlignedDimension
 13
2183.486632061834
 23
295.6808736774801
 33
0.0
 14
2233.486632061834
 24
275.68087367748
 34
0.0
100
AcDbRotatedDimension
1001
ACAD
1000
DSTYLE
1002
{
1070
    40
1040
15.0
1070
    41
1040
1.5
1070
    43
1040
5.0
1070
    44
1040
0.5
1070
   140
1040
2.0
1070
   147
1040
1.0
1070
   176
1070
   256
1070
   177
1070
   256
1070
   178
1070
   256
1070
   279
1070
     2
1002
}
  0
MTEXT
  5
92EB
330
747D
100
AcDbEntity
  8
寸法引出
 48
20.0
100
AcDbMText
 10
2356.282737768199
 20
435.9882069313262
 30
0.0
 40
30.0
 41
0.0
 71
     5
 72
     1
  1
内面
  7
SANWA
 73
     1
 44
1.0
  0
LINE
  5
9376
330
747D
100
AcDbEntity
  8
0
 48
20.0
100
AcDbLine
 10
957.0782198007623
 20
1250.848890208359
 30
0.0
 11
1400.078219800761
 21
1250.848890208359
 31
0.0
  0
LINE
  5
97F8
330
747D
100
AcDbEntity
  8
0
 48
20.0
100
AcDbLine
 10
936.0782198007623
 20
1270.84889020836
 30
0.0
 11
908.5782198007601
 21
1820.848890208358
 31
0.0
  0
LINE
  5
97F9
330
747D
100
AcDbEntity
  8
0
 48
20.0
100
AcDbLine
 10
1421.078219800761
 20
1270.848890208359
 30
0.0
 11
1448.578219800762
 21
1820.848890208358
 31
0.0
  0
LINE
  5
980A
330
747D
100
AcDbEntity
  8
0
  6
CENTER2
 48
5.0
100
AcDbLine
 10
1462.378219800762
 20
1496.84889020836
 30
0.0
 11
1334.078219800762
 21
1496.84889020836
 31
0.0
  0
LINE
  5
9BFC
330
747D
100
AcDbEntity
  8
0
 48
20.0
100
AcDbLine
 10
936.0782198007623
 20
1270.848890208359
 30
0.0
 11
957.0782198007623
 21
1250.848890208359
 31
0.0
  0
LINE
  5
9BFD
330
747D
100
AcDbEntity
  8
0
 48
20.0
100
AcDbLine
 10
1421.078219800761
 20
1270.848890208359
 30
0.0
 11
1400.078219800761
 21
1250.848890208359
 31
0.0
  0
LINE
  5
9C52
330
747D
100
AcDbEntity
  8
0
  6
HIDDEN2
 48
15.0
100
AcDbLine
 10
1429.878219800761
 20
1446.84889020836
 30
0.0
 11
1429.878219800761
 21
1536.84889020836
 31
0.0
  0
LINE
  5
9C53
330
747D
100
AcDbEntity
  8
0
  6
HIDDEN2
 48
15.0
100
AcDbLine
 10
1434.878219800762
 20
1546.848890208359
 30
0.0
 11
1429.878219800761
 21
1536.84889020836
 31
0.0
  0
DIMENSION
  5
9C5F
330
747D
100
AcDbEntity
  8
寸法引出
 48
20.0
100
AcDbDimension
  2
*D22
 10
800.9095255738172
 20
1320.848890208359
 30
0.0
 11
770.9095255738169
 21
1570.848890208359
 31
0.0
 70
    32
 71
     5
 42
499.9999999999988
  3
SANWA
100
AcDbAlignedDimension
 13
908.5782198007601
 23
1820.848890208358
 33
0.0
 14
933.5782198007624
 24
1320.848890208359
 34
0.0
 50
90.0
100
AcDbRotatedDimension
1001
ACAD
1000
DSTYLE
1002
{
1070
    40
1040
15.0
1070
    41
1040
1.5
1070
    43
1040
5.0
1070
    44
1040
0.5
1070
   140
1040
2.0
1070
   147
1040
1.0
1070
   176
1070
   256
1070
   177
1070
   256
1070
   178
1070
   256
1070
   279
1070
     2
1002
}
  0
DIMENSION
  5
9C6C
330
747D
100
AcDbEntity
  8
寸法引出
 48
20.0
100
AcDbDimension
  2
*D23
 10
800.9095255738172
 20
1250.848890208359
 30
0.0
 11
770.909525573817
 21
1285.848890208359
 31
0.0
 70
    32
 71
     5
 42
70.0
  3
SANWA
100
AcDbAlignedDimension
 13
933.5782198007624
 23
1320.848890208359
 33
0.0
 14
957.0782198007623
 24
1250.848890208359
 34
0.0
 50
90.0
100
AcDbRotatedDimension
1001
ACAD
1000
DSTYLE
1002
{
1070
    40
1040
15.0
1070
    41
1040
1.5
1070
    43
1040
5.0
1070
    44
1040
0.5
1070
   140
1040
2.0
1070
   147
1040
1.0
1070
   176
1070
   256
1070
   177
1070
   256
1070
   178
1070
   256
1070
   279
1070
     2
1002
}
  0
DIMENSION
  5
9C7B
330
747D
100
AcDbEntity
  8
寸法引出
 48
20.0
100
AcDbDimension
  2
*D24
 10
723.1487798404503
 20
1250.848890208359
 30
0.0
 11
693.1487798404503
 21
1580.848890208359
 31
0.0
 70
    32
 71
     5
 42
659.9999999999988
  3
SANWA
100
AcDbAlignedDimension
 13
913.0782198007601
 23
1910.848890208358
 33
0.0
 14
957.0782198007623
 24
1250.848890208359
 34
0.0
 50
90.0
100
AcDbRotatedDimension
1001
ACAD
1000
DSTYLE
1002
{
1070
    40
1040
15.0
1070
    41
1040
1.5
1070
    43
1040
5.0
1070
    44
1040
0.5
1070
   140
1040
2.0
1070
   147
1040
1.0
1070
   176
1070
   256
1070
   177
1070
   256
1070
   178
1070
   256
1070
   279
1070
     2
1002
}
  0
DIMENSION
  5
9C88
330
747D
100
AcDbEntity
  8
寸法引出
 48
20.0
100
AcDbDimension
  2
*D25
 10
998.5782198007624
 20
1560.131423711984
 30
0.0
 11
943.2436514772302
 21
1590.980691892238
 31
0.0
 70
   160
 71
     5
 42
65.0
  3
SANWA
100
AcDbAlignedDimension
 13
933.5782198007624
 23
1320.848890208359
 33
0.0
 14
998.5782198007624
 24
1320.848890208359
 34
0.0
100
AcDbRotatedDimension
1001
ACAD
1000
DSTYLE
1002
{
1070
    40
1040
15.0
1070
    41
1040
1.5
1070
    43
1040
5.0
1070
    44
1040
0.5
1070
   140
1040
2.0
1070
   147
1040
1.0
1070
   176
1070
   256
1070
   177
1070
   256
1070
   178
1070
   256
1070
   279
1070
     2
1002
}
  0
DIMENSION
  5
9C97
330
747D
100
AcDbEntity
  8
寸法引出
 48
20.0
100
AcDbDimension
  2
*D26
 10
1358.578219800761
 20
1560.131423711984
 30
0.0
 11
1178.578219800761
 21
1590.131423711984
 31
0.0
 70
    32
 71
     5
 42
359.9999999999989
  3
SANWA
100
AcDbAlignedDimension
 13
998.5782198007624
 23
1320.848890208359
 33
0.0
 14
1358.578219800761
 24
1320.848890208359
 34
0.0
100
AcDbRotatedDimension
1001
ACAD
1000
DSTYLE
1002
{
1070
    40
1040
15.0
1070
    41
1040
1.5
1070
    43
1040
5.0
1070
    44
1040
0.5
1070
   140
1040
2.0
1070
   147
1040
1.0
1070
   176
1070
   256
1070
   177
1070
   256
1070
   178
1070
   256
1070
   279
1070
     2
1002
}
  0
ARC
  5
9CA4
330
747D
100
AcDbEntity
  8
0
 48
20.0
100
AcDbCircle
 10
1178.578219800761
 20
1770.848890208359
 30
0.0
 40
450.0
100
AcDbArc
 50
250.5993837639379
 51
289.4006162360619
  0
ARC
  5
9CA5
330
747D
100
AcDbEntity
  8
0
 48
20.0
100
AcDbCircle
 10
1045.709709179699
 20
1393.5612560546
 30
0.0
 40
50.0
100
AcDbArc
 50
182.2906100426388
 51
250.5993837639379
  0
ARC
  5
9CA6
330
747D
100
AcDbEntity
  8
0
 48
20.0
100
AcDbCircle
 10
1311.446730421823
 20
1393.5612560546
 30
0.0
 40
50.0
100
AcDbArc
 50
289.4006162360618
 51
357.7093899573612
  0
LINE
  5
9CA7
330
747D
100
AcDbEntity
  8
0
 48
15.0
100
AcDbLine
 10
973.3734217192241
 20
1800.848890208358
 30
0.0
 11
989.7544554912792
 21
1391.323045907063
 31
0.0
  0
ARC
  5
9CA8
330
747D
100
AcDbEntity
  8
0
 48
20.0
100
AcDbCircle
 10
1178.578219800761
 20
1770.848890208359
 30
0.0
 40
456.0
100
AcDbArc
 50
250.5993837639379
 51
289.4006162360619
  0
ARC
  5
9CA9
330
747D
100
AcDbEntity
  8
0
 48
20.0
100
AcDbCircle
 10
1045.709709179699
 20
1393.5612560546
 30
0.0
 40
56.0
100
AcDbArc
 50
182.2906100426388
 51
250.5993837639379
  0
ARC
  5
9CAA
330
747D
100
AcDbEntity
  8
0
 48
20.0
100
AcDbCircle
 10
1311.446730421823
 20
1393.5612560546
 30
0.0
 40
56.0
100
AcDbArc
 50
289.4006162360618
 51
357.7093899573612
  0
LINE
  5
9CAB
330
747D
100
AcDbEntity
  8
0
 48
15.0
100
AcDbLine
 10
1383.783017882295
 20
1800.848890208358
 30
0.0
 11
1367.401984110243
 21
1391.323045907063
 31
0.0
  0
LINE
  5
9CAC
330
747D
100
AcDbEntity
  8
0
 48
15.0
100
AcDbLine
 10
958.3614265153883
 20
1800.848890208359
 30
0.0
 11
974.7664411104524
 21
1390.72352533183
 31
0.0
  0
LINE
  5
9CAD
330
747D
100
AcDbEntity
  8
0
 48
15.0
100
AcDbLine
 10
1398.795013086131
 20
1800.848890208359
 30
0.0
 11
1382.38999849107
 21
1390.72352533183
 31
0.0
  0
ARC
  5
9CAE
330
747D
100
AcDbEntity
  8
0
 48
20.0
100
AcDbCircle
 10
1311.446730421823
 20
1393.5612560546
 30
0.0
 40
71.0
100
AcDbArc
 50
289.4006162360618
 51
357.7093899573612
  0
ARC
  5
9CAF
330
747D
100
AcDbEntity
  8
0
 48
20.0
100
AcDbCircle
 10
1178.578219800761
 20
1770.848890208359
 30
0.0
 40
471.0
100
AcDbArc
 50
250.5993837639379
 51
289.4006162360619
  0
ARC
  5
9CB0
330
747D
100
AcDbEntity
  8
0
 48
20.0
100
AcDbCircle
 10
1045.709709179699
 20
1393.5612560546
 30
0.0
 40
71.0
100
AcDbArc
 50
182.2906100426388
 51
250.5993837639379
  0
LINE
  5
9CB1
330
747D
100
AcDbEntity
  8
0
 48
15.0
100
AcDbLine
 10
954.358227794365
 20
1800.848890208359
 30
0.0
 11
970.7696372755654
 21
1390.563653178434
 31
0.0
  0
ARC
  5
9CB2
330
747D
100
AcDbEntity
  8
0
 48
20.0
100
AcDbCircle
 10
1045.709709179699
 20
1393.5612560546
 30
0.0
 40
75.0
100
AcDbArc
 50
182.2906100426388
 51
250.5993837639379
  0
ARC
  5
9CB3
330
747D
100
AcDbEntity
  8
0
 48
20.0
100
AcDbCircle
 10
1178.578219800761
 20
1770.848890208359
 30
0.0
 40
475.0
100
AcDbArc
 50
250.5993837639379
 51
289.4006162360619
  0
ARC
  5
9CB4
330
747D
100
AcDbEntity
  8
0
 48
20.0
100
AcDbCircle
 10
1311.446730421823
 20
1393.5612560546
 30
0.0
 40
75.0
100
AcDbArc
 50
289.4006162360618
 51
357.7093899573612
  0
LINE
  5
9CB5
330
747D
100
AcDbEntity
  8
0
 48
15.0
100
AcDbLine
 10
1402.798211807154
 20
1800.848890208358
 30
0.0
 11
1386.386802325957
 21
1390.563653178434
 31
0.0
  0
LINE
  5
9F49
330
747D
100
AcDbEntity
  8
0
 48
20.0
100
AcDbLine
 10
978.8982198007584
 20
1812.848890208359
 30
0.0
 11
967.0782198007582
 21
1820.848890208359
 31
0.0
  0
DIMENSION
  5
9F4A
330
747D
100
AcDbEntity
  8
寸法引出
 48
20.0
100
AcDbDimension
  2
*D29
 10
978.5782198007602
 20
1861.262101599891
 30
0.0
 11
1002.206780814399
 21
1891.94516427622
 31
0.0
 70
   160
 71
     5
 42
11.50000000000181
  3
SANWA
100
AcDbAlignedDimension
 13
967.0782198007584
 23
1820.848890208359
 33
0.0
 14
978.5782198007602
 24
1820.848890208358
 34
0.0
100
AcDbRotatedDimension
1001
ACAD
1000
DSTYLE
1002
{
1070
    40
1040
15.0
1070
    41
1040
1.5
1070
    43
1040
5.0
1070
    44
1040
0.5
1070
   140
1040
2.0
1070
   147
1040
1.0
1070
   176
1070
   256
1070
   177
1070
   256
1070
   178
1070
   256
1070
   279
1070
     2
1002
}
  0
DIMENSION
  5
9F6F
330
747D
100
AcDbEntity
  8
寸法引出
 48
20.0
100
AcDbDimension
  2
*D30
 10
1042.249343862265
 20
1812.848890208359
 30
0.0
 11
1015.424718332391
 21
1794.070078458568
 31
0.0
 70
   160
 71
     5
 42
8.0
  3
SANWA
100
AcDbAlignedDimension
 13
967.0782198007584
 23
1820.848890208359
 33
0.0
 14
978.8982198007586
 24
1812.848890208359
 34
0.0
 50
90.0
100
AcDbRotatedDimension
1001
ACAD
1000
DSTYLE
1002
{
1070
    40
1040
15.0
1070
    41
1040
1.5
1070
    43
1040
5.0
1070
    44
1040
0.5
1070
   140
1040
2.0
1070
   147
1040
1.0
1070
   176
1070
   256
1070
   177
1070
   256
1070
   178
1070
   256
1070
   279
1070
     2
1002
}
  0
LINE
  5
9F94
330
747D
100
AcDbEntity
  8
0
 48
20.0
100
AcDbLine
 10
1378.258219800764
 20
1812.848890208359
 30
0.0
 11
1390.078219800765
 21
1820.848890208359
 31
0.0
  0
LINE
  5
A189
330
747D
100
AcDbEntity
  8
0
  6
HIDDEN2
 48
15.0
100
AcDbLine
 10
1429.878219800762
 20
1506.84889020836
 30
0.0
 11
1366.018219800761
 21
1506.84889020836
 31
0.0
  0
LINE
  5
A18A
330
747D
100
AcDbEntity
  8
0
  6
HIDDEN2
 48
15.0
100
AcDbLine
 10
1429.878219800761
 20
1486.84889020836
 30
0.0
 11
1365.218219800761
 21
1486.84889020836
 31
0.0
  0
LINE
  5
A18B
330
747D
100
AcDbEntity
  8
0
  6
HIDDEN2
 48
15.0
100
AcDbLine
 10
927.2782198007613
 20
1506.84889020836
 30
0.0
 11
991.1382198007622
 21
1506.84889020836
 31
0.0
  0
LINE
  5
A18C
330
747D
100
AcDbEntity
  8
0
  6
HIDDEN2
 48
15.0
100
AcDbLine
 10
927.2782198007613
 20
1486.84889020836
 30
0.0
 11
991.9382198007625
 21
1486.84889020836
 31
0.0
  0
LINE
  5
A18D
330
747D
100
AcDbEntity
  8
0
  6
CENTER2
 48
5.0
100
AcDbLine
 10
894.7782198007612
 20
1496.84889020836
 30
0.0
 11
1023.07821980076
 21
1496.84889020836
 31
0.0
  0
LINE
  5
A18E
330
747D
100
AcDbEntity
  8
0
  6
HIDDEN2
 48
15.0
100
AcDbLine
 10
927.2782198007613
 20
1446.84889020836
 30
0.0
 11
927.2782198007613
 21
1536.84889020836
 31
0.0
  0
LINE
  5
A18F
330
747D
100
AcDbEntity
  8
0
  6
HIDDEN2
 48
15.0
100
AcDbLine
 10
922.2782198007612
 20
1546.848890208359
 30
0.0
 11
927.2782198007613
 21
1536.84889020836
 31
0.0
  0
DIMENSION
  5
A1B6
330
747D
100
AcDbEntity
  8
寸法引出
 48
20.0
100
AcDbDimension
  2
*D32
 10
1531.961638472264
 20
1546.848890208359
 30
0.0
 11
1501.961638472264
 21
1728.848890208359
 31
0.0
 70
    32
 71
     5
 42
363.9999999999988
  3
SANWA
100
AcDbAlignedDimension
 13
1444.078219800758
 23
1910.848890208358
 33
0.0
 14
1434.878219800762
 24
1546.848890208359
 34
0.0
 50
90.0
100
AcDbRotatedDimension
1001
ACAD
1000
DSTYLE
1002
{
1070
    40
1040
15.0
1070
    41
1040
1.5
1070
    43
1040
5.0
1070
    44
1040
0.5
1070
   140
1040
2.0
1070
   147
1040
1.0
1070
   176
1070
   256
1070
   177
1070
   256
1070
   178
1070
   256
1070
   279
1070
     2
1002
}
  0
DIMENSION
  5
A1C3
330
747D
100
AcDbEntity
  8
寸法引出
 48
20.0
100
AcDbDimension
  2
*D33
 10
1531.961638472264
 20
1536.84889020836
 30
0.0
 11
1563.541750938944
 21
1544.380954382946
 31
0.0
 70
   160
 71
     5
 42
9.99999999999909
  3
SANWA
100
AcDbAlignedDimension
 13
1434.878219800762
 23
1546.848890208359
 33
0.0
 14
1429.878219800761
 24
1536.84889020836
 34
0.0
 50
90.0
100
AcDbRotatedDimension
1001
ACAD
1000
DSTYLE
1002
{
1070
    40
1040
15.0
1070
    41
1040
1.5
1070
    43
1040
5.0
1070
    44
1040
0.5
1070
   140
1040
2.0
1070
   147
1040
1.0
1070
   176
1070
   256
1070
   177
1070
   256
1070
   178
1070
   256
1070
   279
1070
     2
1002
}
  0
DIMENSION
  5
A1D2
330
747D
100
AcDbEntity
  8
寸法引出
 48
20.0
100
AcDbDimension
  2
*D34
 10
1531.961638472264
 20
1446.84889020836
 30
0.0
 11
1501.961638472264
 21
1491.84889020836
 31
0.0
 70
    32
 71
     5
 42
90.0
  3
SANWA
100
AcDbAlignedDimension
 13
1429.878219800761
 23
1536.84889020836
 33
0.0
 14
1429.878219800761
 24
1446.84889020836
 34
0.0
 50
90.0
100
AcDbRotatedDimension
1001
ACAD
1000
DSTYLE
1002
{
1070
    40
1040
15.0
1070
    41
1040
1.5
1070
    43
1040
5.0
1070
    44
1040
0.5
1070
   140
1040
2.0
1070
   147
1040
1.0
1070
   176
1070
   256
1070
   177
1070
   256
1070
   178
1070
   256
1070
   279
1070
     2
1002
}
  0
VIEWPORT
  5
7540
330
747A
100
AcDbEntity
 67
     1
  8
0
100
AcDbViewport
 10
2878.243789599006
 20
970.3639114717196
 30
0.0
 40
6257.342359533289
 41
4285.736489239755
 68
     1
 69
     1
 12
2878.243789599006
 22
970.3639114717196
 13
0.0
 23
0.0
 14
10.0
 24
10.0
 15
10.0
 25
10.0
 16
0.0
 26
0.0
 36
1.0
 17
0.0
 27
0.0
 37
0.0
 42
50.0
 43
0.0
 44
0.0
 45
4285.736489239755
 50
0.0
 51
0.0
 72
   100
 90
    32800
  1

281
     0
 71
     1
 74
     0
110
0.0
120
0.0
130
0.0
111
1.0
121
0.0
131
0.0
112
0.0
122
1.0
132
0.0
 79
     0
146
0.0
  0
TEXT
  5
7737
330
747A
100
AcDbEntity
 67
     1
  8
0
 48
2.0
100
AcDbText
 10
331.8711968111848
 20
20.60428158404021
 30
0.0
 40
2.0
  1

  7
SANWA
100
AcDbText
  0
ENDSEC
  0
SECTION
  2
OBJECTS
  0
DICTIONARY
  5
7471
330
0
100
AcDbDictionary
281
     1
  3
ACAD_GROUP
350
7472
  3
ACAD_LAYOUT
350
7F6B
  3
ACAD_MLINESTYLE
350
7473
  3
ACAD_PLOTSETTINGS
350
7F6C
  3
ACAD_PLOTSTYLENAME
350
7F69
  3
AcadDim
350
8AAA
  3
ACDBVARIABLEDICTIONARY
350
789B
  3
ASE_INDEX_DICTIONARY
350
A206
  0
DICTIONARY
  5
7472
102
{ACAD_REACTORS
330
7471
102
}
330
7471
100
AcDbDictionary
281
     1
  0
DICTIONARY
  5
7F6B
102
{ACAD_REACTORS
330
7471
102
}
330
7471
100
AcDbDictionary
281
     1
  3
Model
350
7F6D
  3
ﾚｲｱｳﾄ1
350
7F6E
  0
DICTIONARY
  5
7473
102
{ACAD_REACTORS
330
7471
102
}
330
7471
100
AcDbDictionary
281
     1
  3
STANDARD
350
7480
  0
DICTIONARY
  5
7F6C
102
{ACAD_REACTORS
330
7471
102
}
330
7471
100
AcDbDictionary
281
     1
  0
ACDBDICTIONARYWDFLT
  5
7F69
102
{ACAD_REACTORS
330
7471
102
}
330
7471
100
AcDbDictionary
281
     1
  3
Normal
350
7F6A
100
AcDbDictionaryWithDefault
340
7F6A
  0
XRECORD
  5
8AAA
102
{ACAD_REACTORS
330
7471
102
}
330
7471
100
AcDbXrecord
280
     1
 90
   990106
  3

 60
     4
 61
     0
 62
     1
 63
     3
 64
     0
 65
     0
 66
     0
 67
     3
 68
     1
 69
     0
 70
     0
 71
     0
 72
     0
 40
0.0
170
     0
  0
DICTIONARY
  5
789B
102
{ACAD_REACTORS
330
7471
102
}
330
7471
100
AcDbDictionary
281
     1
  3
DIMASSOC
350
7F75
  3
SORTENTS
350
789C
  0
DICTIONARY
  5
A206
102
{ACAD_REACTORS
330
7471
102
}
330
7471
100
AcDbDictionary
281
     1
  3
ASEBlockHierarchyIndexRecord
350
A208
1001
DCO15
1040
1551433729.312
  0
LAYOUT
  5
7F6D
102
{ACAD_REACTORS
330
7F6B
102
}
330
7F6B
100
AcDbPlotSettings
  1

  2
DocuCentre Color f360
  4
A4
  6

 40
4.857749938964842
 41
4.942390441894531
 42
4.942413330078125
 43
4.857757568359375
 44
209.9733276367186
 45
297.0106506347656
 46
5.089999999999998
 47
12.61
 48
964.9375195598366
 49
150.0
140
4894.937519559837
141
3000.0
142
1.0
143
15.0
 70
 11940
 72
     1
 73
     1
 74
     4
  7
sanwa3.ctb
 75
     0
147
0.0666666666666667
148
-964.9375195598366
149
-150.0
100
AcDbLayout
  1
Model
 70
     1
 71
     0
 10
0.0
 20
0.0
 11
12.0
 21
9.0
 12
0.0
 22
0.0
 32
0.0
 14
0.0
 24
0.0
 34
0.0
 15
0.0
 25
0.0
 35
0.0
146
0.0
 13
0.0
 23
0.0
 33
0.0
 16
1.0
 26
0.0
 36
0.0
 17
0.0
 27
1.0
 37
0.0
 76
     0
330
747D
  0
LAYOUT
  5
7F6E
102
{ACAD_REACTORS
330
7F6B
102
}
330
7F6B
100
AcDbPlotSettings
  1

  2
RICOH NX-510
  4
A4
  6

 40
5.873749732971191
 41
4.921256542205809
 42
7.588241577148437
 43
5.81024169921875
 44
209.9944915771484
 45
296.989501953125
 46
0.0
 47
0.0
 48
0.0
 49
0.0
140
0.0
141
0.0
142
1.0
143
20.17331812743451
 70
   688
 72
     1
 73
     1
 74
     1
  7
sanwa3.ctb
 75
     0
147
0.0495704273180553
148
0.1762079097297828
149
1029.28590836146
100
AcDbLayout
  1
ﾚｲｱｳﾄ1
 70
     1
 71
     1
 10
-117.3880621053551
 20
-1147.778930325621
 11
5873.875641303368
 21
3088.506753269061
 12
0.0
 22
0.0
 32
0.0
 14
1.000000000000000E+20
 24
1.000000000000000E+20
 34
1.000000000000000E+20
 15
-1.000000000000000E+20
 25
-1.000000000000000E+20
 35
-1.000000000000000E+20
146
0.0
 13
0.0
 23
0.0
 33
0.0
 16
1.0
 26
0.0
 36
0.0
 17
0.0
 27
1.0
 37
0.0
 76
     0
330
747A
331
7540
  0
MLINESTYLE
  5
7480
102
{ACAD_REACTORS
330
7473
102
}
330
7473
100
AcDbMlineStyle
  2
STANDARD
 70
     0
  3

 62
     0
 51
90.0
 52
90.0
 71
     2
 49
0.5
 62
   256
  6
BYLAYER
 49
-0.5
 62
   256
  6
BYLAYER
  0
ACDBPLACEHOLDER
  5
7F6A
102
{ACAD_REACTORS
330
7F69
102
}
330
7F69
  0
DICTIONARYVAR
  5
7F75
102
{ACAD_REACTORS
330
789B
102
}
330
789B
100
DictionaryVariables
280
     0
  1
1
  0
DICTIONARYVAR
  5
789C
102
{ACAD_REACTORS
330
789B
102
}
330
789B
100
DictionaryVariables
280
     0
  1
96
  0
XRECORD
  5
A208
102
{ACAD_REACTORS
330
A206
102
}
330
A206
100
AcDbXrecord
280
     1
  0
ENDSEC
  0
EOF
