  0
SECTION
  2
HEADER
  9
$ACADVER
  1
AC1015
  9
$ACADMAINTVER
 70
    13
  9
$DWGCODEPAGE
  3
ANSI_932
  9
$INSBASE
 10
0.0
 20
0.0
 30
0.0
  9
$EXTMIN
 10
-0.1481975670667452
 20
-0.1562851753242285
 30
-0.000000000000013
  9
$EXTMAX
 10
4455.029547972382
 20
3150.125031079022
 30
0.0000000000000023
  9
$LIMMIN
 10
0.0
 20
0.0
  9
$LIMMAX
 10
420.0
 20
297.0
  9
$ORTHOMODE
 70
     1
  9
$REGENMODE
 70
     1
  9
$FILLMODE
 70
     1
  9
$QTEXTMODE
 70
     0
  9
$MIRRTEXT
 70
     1
  9
$LTSCALE
 40
0.5
  9
$ATTMODE
 70
     1
  9
$TEXTSIZE
 40
2.799999999999998
  9
$TRACEWID
 40
1.0
  9
$TEXTSTYLE
  7
SANWA
  9
$CLAYER
  8
0
  9
$CELTYPE
  6
BYLAYER
  9
$CECOLOR
 62
   256
  9
$CELTSCALE
 40
20.0
  9
$DISPSILH
 70
     0
  9
$DIMSCALE
 40
15.0
  9
$DIMASZ
 40
1.5
  9
$DIMEXO
 40
1.0
  9
$DIMDLI
 40
5.0
  9
$DIMRND
 40
0.0
  9
$DIMDLE
 40
0.0
  9
$DIMEXE
 40
0.5
  9
$DIMTP
 40
0.0
  9
$DIMTM
 40
0.0
  9
$DIMTXT
 40
2.0
  9
$DIMCEN
 40
0.0
  9
$DIMTSZ
 40
0.0
  9
$DIMTOL
 70
     0
  9
$DIMLIM
 70
     0
  9
$DIMTIH
 70
     0
  9
$DIMTOH
 70
     0
  9
$DIMSE1
 70
     0
  9
$DIMSE2
 70
     0
  9
$DIMTAD
 70
     1
  9
$DIMZIN
 70
     8
  9
$DIMBLK
  1

  9
$DIMASO
 70
     1
  9
$DIMSHO
 70
     1
  9
$DIMPOST
  1

  9
$DIMAPOST
  1

  9
$DIMALT
 70
     0
  9
$DIMALTD
 70
     2
  9
$DIMALTF
 40
0.0394
  9
$DIMLFAC
 40
1.0
  9
$DIMTOFL
 70
     1
  9
$DIMTVP
 40
0.0
  9
$DIMTIX
 70
     1
  9
$DIMSOXD
 70
     0
  9
$DIMSAH
 70
     0
  9
$DIMBLK1
  1

  9
$DIMBLK2
  1

  9
$DIMSTYLE
  2
SANWA
  9
$DIMCLRD
 70
   256
  9
$DIMCLRE
 70
   256
  9
$DIMCLRT
 70
   256
  9
$DIMTFAC
 40
1.0
  9
$DIMGAP
 40
1.0
  9
$DIMJUST
 70
     0
  9
$DIMSD1
 70
     0
  9
$DIMSD2
 70
     0
  9
$DIMTOLJ
 70
     1
  9
$DIMTZIN
 70
     0
  9
$DIMALTZ
 70
     0
  9
$DIMALTTZ
 70
     0
  9
$DIMUPT
 70
     0
  9
$DIMDEC
 70
     4
  9
$DIMTDEC
 70
     4
  9
$DIMALTU
 70
     2
  9
$DIMALTTD
 70
     2
  9
$DIMTXSTY
  7
SANWA
  9
$DIMAUNIT
 70
     0
  9
$DIMADEC
 70
     0
  9
$DIMALTRND
 40
0.0
  9
$DIMAZIN
 70
     0
  9
$DIMDSEP
 70
    46
  9
$DIMATFIT
 70
     3
  9
$DIMFRAC
 70
     0
  9
$DIMLDRBLK
  1

  9
$DIMLUNIT
 70
     2
  9
$DIMLWD
 70
    -2
  9
$DIMLWE
 70
    -2
  9
$DIMTMOVE
 70
     2
  9
$LUNITS
 70
     2
  9
$LUPREC
 70
     4
  9
$SKETCHINC
 40
1.0
  9
$FILLETRAD
 40
35.0
  9
$AUNITS
 70
     0
  9
$AUPREC
 70
     0
  9
$MENU
  1
acad
  9
$ELEVATION
 40
0.0
  9
$PELEVATION
 40
0.0
  9
$THICKNESS
 40
0.0
  9
$LIMCHECK
 70
     0
  9
$CHAMFERA
 40
0.0
  9
$CHAMFERB
 40
0.0
  9
$CHAMFERC
 40
0.0
  9
$CHAMFERD
 40
0.0
  9
$SKPOLY
 70
     1
  9
$TDCREATE
 40
2451806.361679282
  9
$TDUCREATE
 40
2451805.986679282
  9
$TDUPDATE
 40
2454257.467289306
  9
$TDUUPDATE
 40
2454257.092289306
  9
$TDINDWG
 40
0.6253181829
  9
$TDUSRTIMER
 40
0.6253181829
  9
$USRTIMER
 70
     1
  9
$ANGBASE
 50
0.0
  9
$ANGDIR
 70
     0
  9
$PDMODE
 70
     0
  9
$PDSIZE
 40
0.0
  9
$PLINEWID
 40
0.0
  9
$SPLFRAME
 70
     0
  9
$SPLINETYPE
 70
     6
  9
$SPLINESEGS
 70
     8
  9
$HANDSEED
  5
A543
  9
$SURFTAB1
 70
     6
  9
$SURFTAB2
 70
     6
  9
$SURFTYPE
 70
     6
  9
$SURFU
 70
     6
  9
$SURFV
 70
     6
  9
$UCSBASE
  2

  9
$UCSNAME
  2

  9
$UCSORG
 10
0.0
 20
0.0
 30
0.0
  9
$UCSXDIR
 10
1.0
 20
0.0
 30
0.0
  9
$UCSYDIR
 10
0.0
 20
1.0
 30
0.0
  9
$UCSORTHOREF
  2

  9
$UCSORTHOVIEW
 70
     0
  9
$UCSORGTOP
 10
0.0
 20
0.0
 30
0.0
  9
$UCSORGBOTTOM
 10
0.0
 20
0.0
 30
0.0
  9
$UCSORGLEFT
 10
0.0
 20
0.0
 30
0.0
  9
$UCSORGRIGHT
 10
0.0
 20
0.0
 30
0.0
  9
$UCSORGFRONT
 10
0.0
 20
0.0
 30
0.0
  9
$UCSORGBACK
 10
0.0
 20
0.0
 30
0.0
  9
$PUCSBASE
  2

  9
$PUCSNAME
  2

  9
$PUCSORG
 10
0.0
 20
0.0
 30
0.0
  9
$PUCSXDIR
 10
1.0
 20
0.0
 30
0.0
  9
$PUCSYDIR
 10
0.0
 20
1.0
 30
0.0
  9
$PUCSORTHOREF
  2

  9
$PUCSORTHOVIEW
 70
     0
  9
$PUCSORGTOP
 10
0.0
 20
0.0
 30
0.0
  9
$PUCSORGBOTTOM
 10
0.0
 20
0.0
 30
0.0
  9
$PUCSORGLEFT
 10
0.0
 20
0.0
 30
0.0
  9
$PUCSORGRIGHT
 10
0.0
 20
0.0
 30
0.0
  9
$PUCSORGFRONT
 10
0.0
 20
0.0
 30
0.0
  9
$PUCSORGBACK
 10
0.0
 20
0.0
 30
0.0
  9
$USERI1
 70
     0
  9
$USERI2
 70
     0
  9
$USERI3
 70
     0
  9
$USERI4
 70
     0
  9
$USERI5
 70
     0
  9
$USERR1
 40
0.0
  9
$USERR2
 40
0.0
  9
$USERR3
 40
0.0
  9
$USERR4
 40
0.0
  9
$USERR5
 40
0.0
  9
$WORLDVIEW
 70
     1
  9
$SHADEDGE
 70
     3
  9
$SHADEDIF
 70
    70
  9
$TILEMODE
 70
     1
  9
$MAXACTVP
 70
    48
  9
$PINSBASE
 10
0.0
 20
0.0
 30
0.0
  9
$PLIMCHECK
 70
     0
  9
$PEXTMIN
 10
1.000000000000000E+20
 20
1.000000000000000E+20
 30
1.000000000000000E+20
  9
$PEXTMAX
 10
-1.000000000000000E+20
 20
-1.000000000000000E+20
 30
-1.000000000000000E+20
  9
$PLIMMIN
 10
-117.3880621053551
 20
-1147.778930325621
  9
$PLIMMAX
 10
5873.875641303368
 20
3088.506753269061
  9
$UNITMODE
 70
     0
  9
$VISRETAIN
 70
     1
  9
$PLINEGEN
 70
     0
  9
$PSLTSCALE
 70
     1
  9
$TREEDEPTH
 70
  3020
  9
$CMLSTYLE
  2
STANDARD
  9
$CMLJUST
 70
     0
  9
$CMLSCALE
 40
1.0
  9
$PROXYGRAPHICS
 70
     1
  9
$MEASUREMENT
 70
     1
  9
$CELWEIGHT
370
    -1
  9
$ENDCAPS
280
     0
  9
$JOINSTYLE
280
     0
  9
$LWDISPLAY
290
     0
  9
$INSUNITS
 70
     0
  9
$HYPERLINKBASE
  1

  9
$STYLESHEET
  1
SANWA3.CTB
  9
$XEDIT
290
     1
  9
$CEPSNTYPE
380
     0
  9
$PSTYLEMODE
290
     1
  9
$FINGERPRINTGUID
  2
{FF69E217-7CBD-426C-8D1A-915AA093CE5F}
  9
$VERSIONGUID
  2
{301C932F-5B57-41F4-91F0-744FDC69BCF4}
  9
$EXTNAMES
290
     1
  9
$PSVPSCALE
 40
0.0
  9
$OLESTARTUP
290
     0
  0
ENDSEC
  0
SECTION
  2
CLASSES
  0
CLASS
  1
LWPOLYLINE
  2
AcDbPolyline
  3
AutoCAD 2000
 90
    32768
280
     0
281
     1
  0
CLASS
  1
DICTIONARYVAR
  2
AcDbDictionaryVar
  3
AutoCAD 2000
 90
        0
280
     0
281
     0
  0
CLASS
  1
HATCH
  2
AcDbHatch
  3
AutoCAD 2000
 90
    32768
280
     0
281
     1
  0
CLASS
  1
ACDBDICTIONARYWDFLT
  2
AcDbDictionaryWithDefault
  3
AutoCAD 2000
 90
        0
280
     0
281
     0
  0
CLASS
  1
ACDBPLACEHOLDER
  2
AcDbPlaceHolder
  3
AutoCAD 2000
 90
        0
280
     0
281
     0
  0
CLASS
  1
LAYOUT
  2
AcDbLayout
  3
AutoCAD 2000
 90
        0
280
     0
281
     0
  0
ENDSEC
  0
SECTION
  2
TABLES
  0
TABLE
  2
VPORT
  5
746D
330
0
100
AcDbSymbolTable
 70
     2
  0
VPORT
  5
A542
330
746D
100
AcDbSymbolTableRecord
100
AcDbViewportTableRecord
  2
*Active
 70
     0
 10
0.0
 20
0.0
 11
1.0
 21
1.0
 12
2227.440675202657
 22
1574.984372951848
 13
0.0
 23
0.0
 14
10.0
 24
10.0
 15
10.0
 25
10.0
 16
0.0
 26
0.0
 36
1.0
 17
0.0
 27
0.0
 37
0.0
 40
3227.835787318738
 41
1.391812865497076
 42
50.0
 43
0.0
 44
0.0
 50
0.0
 51
0.0
 71
     0
 72
   100
 73
     1
 74
     0
 75
     0
 76
     0
 77
     0
 78
     0
281
     0
 65
     1
110
0.0
120
0.0
130
0.0
111
1.0
121
0.0
131
0.0
112
0.0
122
1.0
132
0.0
 79
     0
146
0.0
  0
ENDTAB
  0
TABLE
  2
LTYPE
  5
746A
330
0
100
AcDbSymbolTable
 70
     5
  0
LTYPE
  5
7477
330
746A
100
AcDbSymbolTableRecord
100
AcDbLinetypeTableRecord
  2
BYBLOCK
 70
     0
  3

 72
    65
 73
     0
 40
0.0
  0
LTYPE
  5
7478
330
746A
100
AcDbSymbolTableRecord
100
AcDbLinetypeTableRecord
  2
BYLAYER
 70
     0
  3

 72
    65
 73
     0
 40
0.0
  0
LTYPE
  5
7479
330
746A
100
AcDbSymbolTableRecord
100
AcDbLinetypeTableRecord
  2
CONTINUOUS
 70
     0
  3
Solid line
 72
    65
 73
     0
 40
0.0
  0
LTYPE
  5
7D54
330
746A
100
AcDbSymbolTableRecord
100
AcDbLinetypeTableRecord
  2
CENTER2
 70
     0
  3
Center (.5x) ___ _ ___ _ ___ _ ___ _ ___ _ ___
 72
    65
 73
     4
 40
28.57499999999999
 49
19.05
 74
     0
 49
-3.174999999999998
 74
     0
 49
3.174999999999998
 74
     0
 49
-3.174999999999998
 74
     0
  0
LTYPE
  5
7D55
330
746A
100
AcDbSymbolTableRecord
100
AcDbLinetypeTableRecord
  2
DOT
 70
     0
  3
Dot . . . . . . . . . . . . . . . . . . . . . .
 72
    65
 73
     2
 40
6.349999999999998
 49
0.0
 74
     0
 49
-6.349999999999998
 74
     0
  0
LTYPE
  5
7D56
330
746A
100
AcDbSymbolTableRecord
100
AcDbLinetypeTableRecord
  2
HIDDEN2
 70
     0
  3
Hidden (.5x) _ _ _ _ _ _ _ _ _ _ _ _ _ _ _ _ _
 72
    65
 73
     2
 40
4.762499999999998
 49
3.174999999999998
 74
     0
 49
-1.587499999999999
 74
     0
  0
LTYPE
  5
7D57
330
746A
100
AcDbSymbolTableRecord
100
AcDbLinetypeTableRecord
  2
PHANTOM2
 70
     0
  3
Phantom (.5x) ___ _ _ ___ _ _ ___ _ _ ___ _ _
 72
    65
 73
     6
 40
31.75
 49
15.875
 74
     0
 49
-3.174999999999998
 74
     0
 49
3.174999999999998
 74
     0
 49
-3.174999999999998
 74
     0
 49
3.174999999999998
 74
     0
 49
-3.174999999999998
 74
     0
  0
ENDTAB
  0
TABLE
  2
LAYER
  5
7467
330
0
100
AcDbSymbolTable
 70
     7
  0
LAYER
  5
7474
330
7467
100
AcDbSymbolTableRecord
100
AcDbLayerTableRecord
  2
0
 70
     0
 62
     7
  6
CONTINUOUS
370
    -3
390
7F6A
  0
LAYER
  5
7485
330
7467
100
AcDbSymbolTableRecord
100
AcDbLayerTableRecord
  2
DEFPOINTS
 70
     0
 62
     7
  6
CONTINUOUS
290
     0
370
    -3
390
7F6A
  0
LAYER
  5
7486
330
7467
100
AcDbSymbolTableRecord
100
AcDbLayerTableRecord
  2
OBJECT
 70
     0
 62
     7
  6
CONTINUOUS
370
    -3
390
7F6A
  0
LAYER
  5
7950
330
7467
100
AcDbSymbolTableRecord
100
AcDbLayerTableRecord
  2
枠
 70
     0
 62
     3
  6
CONTINUOUS
370
    -3
390
7F6A
  0
LAYER
  5
7D58
330
7467
100
AcDbSymbolTableRecord
100
AcDbLayerTableRecord
  2
寸法引出
 70
     0
 62
     2
  6
CONTINUOUS
370
    -3
390
7F6A
  0
LAYER
  5
7D59
330
7467
100
AcDbSymbolTableRecord
100
AcDbLayerTableRecord
  2
鉄筋
 70
     0
 62
     4
  6
CONTINUOUS
370
    -3
390
7F6A
  0
LAYER
  5
7D5A
330
7467
100
AcDbSymbolTableRecord
100
AcDbLayerTableRecord
  2
補助線
 70
     0
 62
     6
  6
CONTINUOUS
370
    -3
390
7F6A
  0
ENDTAB
  0
TABLE
  2
STYLE
  5
7468
330
0
100
AcDbSymbolTable
 70
     4
  0
STYLE
  5
7475
330
7468
100
AcDbSymbolTableRecord
100
AcDbTextStyleTableRecord
  2
STANDARD
 70
     0
 40
0.0
 41
1.0
 50
0.0
 71
     0
 42
3.5
  3
txt
  4

  0
STYLE
  5
7481
330
7468
100
AcDbSymbolTableRecord
100
AcDbTextStyleTableRecord
  2
ADESK1
 70
     0
 40
0.0
 41
1.0
 50
0.0
 71
     0
 42
5.0
  3
romans
  4
bigfont
  0
STYLE
  5
7731
330
7468
100
AcDbSymbolTableRecord
100
AcDbTextStyleTableRecord
  2
SANWA
 70
     0
 40
0.0
 41
1.0
 50
0.0
 71
     0
 42
2.799999999999998
  3
MS Mincho.ttf
  4

1001
ACAD
1000
MS Mincho
1071
    32785
  0
STYLE
  5
7D45
330
7468
100
AcDbSymbolTableRecord
100
AcDbTextStyleTableRecord
  2

 70
     1
 40
0.0
 41
1.0
 50
0.0
 71
     0
 42
3.5
  3
ltypeshp.shx
  4

  0
ENDTAB
  0
TABLE
  2
VIEW
  5
746B
330
0
100
AcDbSymbolTable
 70
     0
  0
ENDTAB
  0
TABLE
  2
UCS
  5
746C
330
0
100
AcDbSymbolTable
 70
     0
  0
ENDTAB
  0
TABLE
  2
APPID
  5
746E
330
0
100
AcDbSymbolTable
 70
     2
  0
APPID
  5
7476
330
746E
100
AcDbSymbolTableRecord
100
AcDbRegAppTableRecord
  2
ACAD
 70
     0
  0
APPID
  5
9EAC
330
746E
100
AcDbSymbolTableRecord
100
AcDbRegAppTableRecord
  2
DCO15
 70
     0
  0
ENDTAB
  0
TABLE
  2
DIMSTYLE
  5
746F
330
0
100
AcDbSymbolTable
 70
     4
100
AcDbDimStyleTable
 71
     1
340
796F
  0
DIMSTYLE
105
7484
330
746F
100
AcDbSymbolTableRecord
100
AcDbDimStyleTableRecord
  2
JIS
 70
     0
 41
2.5
 42
1.0
 43
7.0
 44
1.0
 73
     0
 74
     0
 77
     1
 78
     8
140
2.5
141
0.0
143
0.0394
147
0.0
172
     1
174
     1
176
     2
177
     2
178
     2
340
7731
  0
DIMSTYLE
105
796F
102
{ACAD_REACTORS
330
88FD
330
8917
330
8926
330
898D
330
899A
330
89A9
330
8A12
330
8CB4
330
8CC3
330
8CD0
330
8D89
330
8D96
330
8DA3
330
9083
330
9202
330
9241
330
9250
330
925F
330
928F
330
9811
330
9820
330
9845
330
9852
330
9861
330
9BD3
330
9BF8
330
9E3E
330
9E4B
330
9E5A
102
}
330
746F
100
AcDbSymbolTableRecord
100
AcDbDimStyleTableRecord
  2
SANWA
 70
     0
 41
2.5
 42
1.0
 43
7.0
 44
1.0
 73
     0
 74
     0
 77
     1
 78
     8
140
2.5
141
0.0
143
0.0394
147
0.0
172
     1
174
     1
176
     2
177
     2
178
     2
340
7731
  0
DIMSTYLE
105
7C9D
330
746F
100
AcDbSymbolTableRecord
100
AcDbDimStyleTableRecord
  2
SANWA$4
 70
     0
 41
2.5
 42
1.0
 43
5.0
 44
1.0
 73
     0
 74
     0
 77
     1
 78
     8
140
2.5
141
0.0
143
0.0394
147
1.0
172
     1
174
     1
176
     2
177
     2
178
     2
289
     2
340
7731
  0
DIMSTYLE
105
7CB5
330
746F
100
AcDbSymbolTableRecord
100
AcDbDimStyleTableRecord
  2
SANWA$3
 70
     0
 41
2.5
 42
1.0
 43
7.0
 44
1.0
 73
     0
 74
     0
 77
     1
 78
     8
140
2.5
141
0.0
143
0.0394
147
0.0
172
     1
174
     1
176
     2
177
     2
178
     2
289
     0
340
7731
  0
ENDTAB
  0
TABLE
  2
BLOCK_RECORD
  5
7466
330
0
100
AcDbSymbolTable
 70
    68
  0
BLOCK_RECORD
  5
747D
330
7466
100
AcDbSymbolTableRecord
100
AcDbBlockTableRecord
  2
*MODEL_SPACE
340
7F6D
  0
BLOCK_RECORD
  5
747A
330
7466
100
AcDbSymbolTableRecord
100
AcDbBlockTableRecord
  2
*PAPER_SPACE
340
7F6E
  0
BLOCK_RECORD
  5
7493
330
7466
100
AcDbSymbolTableRecord
100
AcDbBlockTableRecord
  2
TITLE_BLOCK
340
0
  0
BLOCK_RECORD
  5
88FE
330
7466
100
AcDbSymbolTableRecord
100
AcDbBlockTableRecord
  2
*D1
340
0
  0
BLOCK_RECORD
  5
8918
330
7466
100
AcDbSymbolTableRecord
100
AcDbBlockTableRecord
  2
*D2
340
0
  0
BLOCK_RECORD
  5
8927
330
7466
100
AcDbSymbolTableRecord
100
AcDbBlockTableRecord
  2
*D3
340
0
  0
BLOCK_RECORD
  5
898E
330
7466
100
AcDbSymbolTableRecord
100
AcDbBlockTableRecord
  2
*D4
340
0
  0
BLOCK_RECORD
  5
899B
330
7466
100
AcDbSymbolTableRecord
100
AcDbBlockTableRecord
  2
*D5
340
0
  0
BLOCK_RECORD
  5
89AA
330
7466
100
AcDbSymbolTableRecord
100
AcDbBlockTableRecord
  2
*D6
340
0
  0
BLOCK_RECORD
  5
8A13
330
7466
100
AcDbSymbolTableRecord
100
AcDbBlockTableRecord
  2
*D7
340
0
  0
BLOCK_RECORD
  5
8CB5
330
7466
100
AcDbSymbolTableRecord
100
AcDbBlockTableRecord
  2
*D8
340
0
  0
BLOCK_RECORD
  5
8CC4
330
7466
100
AcDbSymbolTableRecord
100
AcDbBlockTableRecord
  2
*D9
340
0
  0
BLOCK_RECORD
  5
8CD1
330
7466
100
AcDbSymbolTableRecord
100
AcDbBlockTableRecord
  2
*D10
340
0
  0
BLOCK_RECORD
  5
8D8A
330
7466
100
AcDbSymbolTableRecord
100
AcDbBlockTableRecord
  2
*D11
340
0
  0
BLOCK_RECORD
  5
8D97
330
7466
100
AcDbSymbolTableRecord
100
AcDbBlockTableRecord
  2
*D12
340
0
  0
BLOCK_RECORD
  5
8DA4
330
7466
100
AcDbSymbolTableRecord
100
AcDbBlockTableRecord
  2
*D13
340
0
  0
BLOCK_RECORD
  5
8F2C
330
7466
100
AcDbSymbolTableRecord
100
AcDbBlockTableRecord
  2
*D14
340
0
  0
BLOCK_RECORD
  5
9077
330
7466
100
AcDbSymbolTableRecord
100
AcDbBlockTableRecord
  2
*D15
340
0
  0
BLOCK_RECORD
  5
9084
330
7466
100
AcDbSymbolTableRecord
100
AcDbBlockTableRecord
  2
*D16
340
0
  0
BLOCK_RECORD
  5
9203
330
7466
100
AcDbSymbolTableRecord
100
AcDbBlockTableRecord
  2
*D17
340
0
  0
BLOCK_RECORD
  5
9242
330
7466
100
AcDbSymbolTableRecord
100
AcDbBlockTableRecord
  2
*D18
340
0
  0
BLOCK_RECORD
  5
9251
330
7466
100
AcDbSymbolTableRecord
100
AcDbBlockTableRecord
  2
*D19
340
0
  0
BLOCK_RECORD
  5
9260
330
7466
100
AcDbSymbolTableRecord
100
AcDbBlockTableRecord
  2
*D20
340
0
  0
BLOCK_RECORD
  5
9290
330
7466
100
AcDbSymbolTableRecord
100
AcDbBlockTableRecord
  2
*D21
340
0
  0
BLOCK_RECORD
  5
9812
330
7466
100
AcDbSymbolTableRecord
100
AcDbBlockTableRecord
  2
*D22
340
0
  0
BLOCK_RECORD
  5
9821
330
7466
100
AcDbSymbolTableRecord
100
AcDbBlockTableRecord
  2
*D23
340
0
  0
BLOCK_RECORD
  5
9846
330
7466
100
AcDbSymbolTableRecord
100
AcDbBlockTableRecord
  2
*D24
340
0
  0
BLOCK_RECORD
  5
9853
330
7466
100
AcDbSymbolTableRecord
100
AcDbBlockTableRecord
  2
*D25
340
0
  0
BLOCK_RECORD
  5
9862
330
7466
100
AcDbSymbolTableRecord
100
AcDbBlockTableRecord
  2
*D26
340
0
  0
BLOCK_RECORD
  5
9983
330
7466
100
AcDbSymbolTableRecord
100
AcDbBlockTableRecord
  2
*D27
340
0
  0
BLOCK_RECORD
  5
99CF
330
7466
100
AcDbSymbolTableRecord
100
AcDbBlockTableRecord
  2
*D28
340
0
  0
BLOCK_RECORD
  5
9BD4
330
7466
100
AcDbSymbolTableRecord
100
AcDbBlockTableRecord
  2
*D29
340
0
  0
BLOCK_RECORD
  5
9BF9
330
7466
100
AcDbSymbolTableRecord
100
AcDbBlockTableRecord
  2
*D30
340
0
  0
BLOCK_RECORD
  5
9DCA
330
7466
100
AcDbSymbolTableRecord
100
AcDbBlockTableRecord
  2
*D31
340
0
  0
BLOCK_RECORD
  5
9E3F
330
7466
100
AcDbSymbolTableRecord
100
AcDbBlockTableRecord
  2
*D32
340
0
  0
BLOCK_RECORD
  5
9E4C
330
7466
100
AcDbSymbolTableRecord
100
AcDbBlockTableRecord
  2
*D33
340
0
  0
BLOCK_RECORD
  5
9E5B
330
7466
100
AcDbSymbolTableRecord
100
AcDbBlockTableRecord
  2
*D34
340
0
  0
BLOCK_RECORD
  5
A003
330
7466
100
AcDbSymbolTableRecord
100
AcDbBlockTableRecord
  2
*D35
340
0
  0
BLOCK_RECORD
  5
A011
330
7466
100
AcDbSymbolTableRecord
100
AcDbBlockTableRecord
  2
*D36
340
0
  0
BLOCK_RECORD
  5
A01F
330
7466
100
AcDbSymbolTableRecord
100
AcDbBlockTableRecord
  2
*D37
340
0
  0
BLOCK_RECORD
  5
A02D
330
7466
100
AcDbSymbolTableRecord
100
AcDbBlockTableRecord
  2
*D38
340
0
  0
BLOCK_RECORD
  5
A039
330
7466
100
AcDbSymbolTableRecord
100
AcDbBlockTableRecord
  2
*D39
340
0
  0
BLOCK_RECORD
  5
A047
330
7466
100
AcDbSymbolTableRecord
100
AcDbBlockTableRecord
  2
*D40
340
0
  0
BLOCK_RECORD
  5
A053
330
7466
100
AcDbSymbolTableRecord
100
AcDbBlockTableRecord
  2
*D41
340
0
  0
BLOCK_RECORD
  5
A05F
330
7466
100
AcDbSymbolTableRecord
100
AcDbBlockTableRecord
  2
*D42
340
0
  0
BLOCK_RECORD
  5
A06D
330
7466
100
AcDbSymbolTableRecord
100
AcDbBlockTableRecord
  2
*D43
340
0
  0
BLOCK_RECORD
  5
A079
330
7466
100
AcDbSymbolTableRecord
100
AcDbBlockTableRecord
  2
*D44
340
0
  0
BLOCK_RECORD
  5
A087
330
7466
100
AcDbSymbolTableRecord
100
AcDbBlockTableRecord
  2
*D45
340
0
  0
BLOCK_RECORD
  5
A093
330
7466
100
AcDbSymbolTableRecord
100
AcDbBlockTableRecord
  2
*D46
340
0
  0
BLOCK_RECORD
  5
A09F
330
7466
100
AcDbSymbolTableRecord
100
AcDbBlockTableRecord
  2
*D47
340
0
  0
BLOCK_RECORD
  5
A0AB
330
7466
100
AcDbSymbolTableRecord
100
AcDbBlockTableRecord
  2
*D48
340
0
  0
BLOCK_RECORD
  5
A0B7
330
7466
100
AcDbSymbolTableRecord
100
AcDbBlockTableRecord
  2
*D49
340
0
  0
BLOCK_RECORD
  5
A0C3
330
7466
100
AcDbSymbolTableRecord
100
AcDbBlockTableRecord
  2
*D50
340
0
  0
BLOCK_RECORD
  5
A0CF
330
7466
100
AcDbSymbolTableRecord
100
AcDbBlockTableRecord
  2
*D51
340
0
  0
BLOCK_RECORD
  5
A0DD
330
7466
100
AcDbSymbolTableRecord
100
AcDbBlockTableRecord
  2
*D52
340
0
  0
BLOCK_RECORD
  5
A0EB
330
7466
100
AcDbSymbolTableRecord
100
AcDbBlockTableRecord
  2
*D53
340
0
  0
BLOCK_RECORD
  5
A0F9
330
7466
100
AcDbSymbolTableRecord
100
AcDbBlockTableRecord
  2
*D54
340
0
  0
BLOCK_RECORD
  5
A107
330
7466
100
AcDbSymbolTableRecord
100
AcDbBlockTableRecord
  2
*D55
340
0
  0
BLOCK_RECORD
  5
A115
330
7466
100
AcDbSymbolTableRecord
100
AcDbBlockTableRecord
  2
*D56
340
0
  0
BLOCK_RECORD
  5
A123
330
7466
100
AcDbSymbolTableRecord
100
AcDbBlockTableRecord
  2
*D57
340
0
  0
BLOCK_RECORD
  5
A12F
330
7466
100
AcDbSymbolTableRecord
100
AcDbBlockTableRecord
  2
*D58
340
0
  0
BLOCK_RECORD
  5
A13B
330
7466
100
AcDbSymbolTableRecord
100
AcDbBlockTableRecord
  2
*D59
340
0
  0
BLOCK_RECORD
  5
A149
330
7466
100
AcDbSymbolTableRecord
100
AcDbBlockTableRecord
  2
*D60
340
0
  0
BLOCK_RECORD
  5
A155
330
7466
100
AcDbSymbolTableRecord
100
AcDbBlockTableRecord
  2
*D61
340
0
  0
BLOCK_RECORD
  5
A161
330
7466
100
AcDbSymbolTableRecord
100
AcDbBlockTableRecord
  2
*D62
340
0
  0
BLOCK_RECORD
  5
A16D
330
7466
100
AcDbSymbolTableRecord
100
AcDbBlockTableRecord
  2
*D63
340
0
  0
BLOCK_RECORD
  5
A17B
330
7466
100
AcDbSymbolTableRecord
100
AcDbBlockTableRecord
  2
*D64
340
0
  0
BLOCK_RECORD
  5
A189
330
7466
100
AcDbSymbolTableRecord
100
AcDbBlockTableRecord
  2
*D65
340
0
  0
BLOCK_RECORD
  5
A195
330
7466
100
AcDbSymbolTableRecord
100
AcDbBlockTableRecord
  2
*D66
340
0
  0
BLOCK_RECORD
  5
A1A3
330
7466
100
AcDbSymbolTableRecord
100
AcDbBlockTableRecord
  2
*D67
340
0
  0
ENDTAB
  0
ENDSEC
  0
SECTION
  2
BLOCKS
  0
BLOCK
  5
7489
330
747D
100
AcDbEntity
  8
0
100
AcDbBlockBegin
  2
*MODEL_SPACE
 70
     0
 10
0.0
 20
0.0
 30
0.0
  3
*MODEL_SPACE
  1

  0
ENDBLK
  5
748A
330
747D
100
AcDbEntity
  8
0
100
AcDbBlockEnd
  0
BLOCK
  5
7487
330
747A
100
AcDbEntity
 67
     1
  8
0
100
AcDbBlockBegin
  2
*PAPER_SPACE
 70
     2
 10
0.0
 20
0.0
 30
0.0
  3
*PAPER_SPACE
  1

  0
ENDBLK
  5
7488
330
747A
100
AcDbEntity
 67
     1
  8
0
100
AcDbBlockEnd
  0
BLOCK
  5
7494
330
7493
100
AcDbEntity
  8
0
100
AcDbBlockBegin
  2
TITLE_BLOCK
 70
     2
 10
0.0
 20
0.0
 30
0.0
  3
TITLE_BLOCK
  1

  0
LINE
  5
7495
330
7493
100
AcDbEntity
  8
0
 62
     0
100
AcDbLine
 10
402.7943262411347
 20
16.00000000000008
 30
0.0
 11
410.0
 21
16.00000000000008
 31
0.0
  0
LINE
  5
7496
330
7493
100
AcDbEntity
  8
0
 62
     0
100
AcDbLine
 10
410.0
 20
10.0
 30
0.0
 11
410.0
 21
49.00000000000036
 31
0.0
  0
LINE
  5
7497
330
7493
100
AcDbEntity
  8
0
 62
     0
100
AcDbLine
 10
410.0
 20
49.00000000000036
 30
0.0
 11
410.0
 21
10.0
 31
0.0
  0
LINE
  5
7498
330
7493
100
AcDbEntity
  8
0
 62
     0
100
AcDbLine
 10
402.7943262411347
 20
22.00000000000012
 30
0.0
 11
402.7943262411347
 21
10.0
 31
0.0
  0
LINE
  5
7499
330
7493
100
AcDbEntity
  8
0
 62
     0
100
AcDbLine
 10
336.1418439716306
 20
49.00000000000036
 30
0.0
 11
336.1418439716306
 21
22.00000000000012
 31
0.0
  0
LINE
  5
749A
330
7493
100
AcDbEntity
  8
0
 62
     0
100
AcDbLine
 10
325.3333333333324
 20
37.00000000000024
 30
0.0
 11
325.3333333333324
 21
25.00000000000012
 31
0.0
  0
LINE
  5
749B
330
7493
100
AcDbEntity
  8
0
 62
     0
100
AcDbLine
 10
318.1276595744673
 20
49.00000000000036
 30
0.0
 11
318.1276595744673
 21
25.00000000000012
 31
0.0
  0
LINE
  5
749C
330
7493
100
AcDbEntity
  8
0
 62
     0
100
AcDbLine
 10
318.1276595744673
 20
25.00000000000012
 30
0.0
 11
348.7517730496447
 21
25.00000000000012
 31
0.0
  0
LINE
  5
749D
330
7493
100
AcDbEntity
  8
0
 62
     0
100
AcDbLine
 10
280.297872340424
 20
28.00000000000014
 30
0.0
 11
348.7517730496447
 21
28.00000000000014
 31
0.0
  0
LINE
  5
749E
330
7493
100
AcDbEntity
  8
0
 62
     0
100
AcDbLine
 10
280.297872340424
 20
31.0000000000002
 30
0.0
 11
348.7517730496447
 21
31.0000000000002
 31
0.0
  0
LINE
  5
749F
330
7493
100
AcDbEntity
  8
0
 62
     0
100
AcDbLine
 10
280.297872340424
 20
34.00000000000024
 30
0.0
 11
348.7517730496447
 21
34.00000000000024
 31
0.0
  0
LINE
  5
74A0
330
7493
100
AcDbEntity
  8
0
 62
     0
100
AcDbLine
 10
280.297872340424
 20
19.00000000000006
 30
0.0
 11
318.1276595744673
 21
19.00000000000012
 31
0.0
  0
LINE
  5
74A1
330
7493
100
AcDbEntity
  8
0
 62
     0
100
AcDbLine
 10
280.297872340424
 20
22.00000000000007
 30
0.0
 11
318.1276595744673
 21
22.00000000000012
 31
0.0
  0
LINE
  5
74A2
330
7493
100
AcDbEntity
  8
0
 62
     0
100
AcDbLine
 10
280.297872340424
 20
25.00000000000012
 30
0.0
 11
318.1276595744673
 21
25.00000000000012
 31
0.0
  0
TEXT
  5
74A3
330
7493
100
AcDbEntity
  8
0
 62
     0
100
AcDbText
 10
342.2447163844405
 20
10.55220101068185
 30
0.0
 40
1.791674070777746
  1
照査
  7
ADESK1
 72
     1
 11
344.1558353932701
 21
10.55220101068185
 31
0.0
100
AcDbText
  0
TEXT
  5
74A4
330
7493
100
AcDbEntity
  8
0
 62
     0
100
AcDbText
 10
332.2960689314087
 20
10.48329012996928
 30
0.0
 40
1.791674070777746
  1
設計
  7
ADESK1
 72
     1
 11
334.2071879402383
 21
10.48329012996928
 31
0.0
100
AcDbText
  0
TEXT
  5
74A5
330
7493
100
AcDbEntity
  8
0
 62
     0
100
AcDbText
 10
321.7174935280942
 20
10.48329012996928
 30
0.0
 40
1.791674070777746
  1
製図
  7
ADESK1
 72
     1
 11
323.5688900678979
 21
10.48329012996928
 31
0.0
100
AcDbText
  0
LINE
  5
74A6
330
7493
100
AcDbEntity
  8
0
 62
     0
100
AcDbLine
 10
280.297872340424
 20
10.0
 30
0.0
 11
280.297872340424
 21
13.00000000000003
 31
0.0
  0
LINE
  5
74A7
330
7493
100
AcDbEntity
  8
0
 62
     0
100
AcDbLine
 10
280.297872340424
 20
16.00000000000008
 30
0.0
 11
318.1276595744673
 21
16.00000000000008
 31
0.0
  0
LINE
  5
74A8
330
7493
100
AcDbEntity
  8
0
 62
     0
100
AcDbLine
 10
339.4042553191483
 20
22.00000000000007
 30
0.0
 11
339.4042553191483
 21
10.0
 31
0.0
  0
LINE
  5
74A9
330
7493
100
AcDbEntity
  8
0
 62
     0
100
AcDbLine
 10
328.7659574468076
 20
22.00000000000007
 30
0.0
 11
328.7659574468076
 21
10.0
 31
0.0
  0
LINE
  5
74AA
330
7493
100
AcDbEntity
  8
0
 62
     0
100
AcDbLine
 10
348.7517730496447
 20
49.00000000000036
 30
0.0
 11
348.7517730496447
 21
10.0
 31
0.0
  0
LINE
  5
74AB
330
7493
100
AcDbEntity
  8
0
 62
     0
100
AcDbLine
 10
280.297872340424
 20
49.00000000000036
 30
0.0
 11
280.297872340424
 21
10.0
 31
0.0
  0
LINE
  5
74AC
330
7493
100
AcDbEntity
  8
0
 62
     0
100
AcDbLine
 10
318.1276595744673
 20
25.00000000000012
 30
0.0
 11
318.1276595744673
 21
10.0
 31
0.0
  0
LINE
  5
74AD
330
7493
100
AcDbEntity
  8
0
 62
     0
100
AcDbLine
 10
312.7234042553183
 20
37.00000000000024
 30
0.0
 11
312.7234042553183
 21
10.0
 31
0.0
  0
LINE
  5
74AE
330
7493
100
AcDbEntity
  8
0
 62
     0
100
AcDbLine
 10
285.7021276595729
 20
37.00000000000024
 30
0.0
 11
285.7021276595729
 21
10.0
 31
0.0
  0
LINE
  5
74AF
330
7493
100
AcDbEntity
  8
0
 62
     0
100
AcDbLine
 10
303.7163120567365
 20
37.00000000000024
 30
0.0
 11
303.7163120567365
 21
10.0
 31
0.0
  0
LINE
  5
74B0
330
7493
100
AcDbEntity
  8
0
 62
     0
100
AcDbLine
 10
410.0
 20
49.00000000000036
 30
0.0
 11
280.297872340424
 21
49.00000000000036
 31
0.0
  0
LINE
  5
74B1
330
7493
100
AcDbEntity
  8
0
 62
     0
100
AcDbLine
 10
280.297872340424
 20
10.0
 30
0.0
 11
410.0
 21
10.0
 31
0.0
  0
LINE
  5
74B2
330
7493
100
AcDbEntity
  8
0
 62
     0
100
AcDbLine
 10
318.1276595744673
 20
22.00000000000012
 30
0.0
 11
410.0
 21
22.00000000000012
 31
0.0
  0
LINE
  5
74B3
330
7493
100
AcDbEntity
  8
0
 62
     0
100
AcDbLine
 10
280.297872340424
 20
37.00000000000024
 30
0.0
 11
410.0
 21
37.00000000000024
 31
0.0
  0
LINE
  5
74B4
330
7493
100
AcDbEntity
  8
0
 62
     0
100
AcDbLine
 10
280.297872340424
 20
13.00000000000003
 30
0.0
 11
410.0
 21
13.00000000000003
 31
0.0
  0
LINE
  5
74B5
330
7493
100
AcDbEntity
  8
0
 62
     0
100
AcDbLine
 10
280.297872340424
 20
49.00000000000036
 30
0.0
 11
410.0
 21
49.00000000000036
 31
0.0
  0
TEXT
  5
74B6
330
7493
100
AcDbEntity
  8
0
100
AcDbText
 10
411.3708251683467
 20
33.08333333333334
 30
0.0
 40
3.0
  1
F
  7
ADESK1
 72
     1
 11
412.8708251683468
 21
33.08333333333334
 31
0.0
100
AcDbText
  0
TEXT
  5
74B7
330
7493
100
AcDbEntity
  8
0
100
AcDbText
 10
411.3708251683467
 20
79.25
 30
0.0
 40
3.0
  1
E
  7
ADESK1
 72
     1
 11
412.8708251683468
 21
79.25
 31
0.0
100
AcDbText
  0
TEXT
  5
74B8
330
7493
100
AcDbEntity
  8
0
100
AcDbText
 10
411.2993965969182
 20
125.4166666666665
 30
0.0
 40
3.0
  1
D
  7
ADESK1
 72
     1
 11
412.8708251683468
 21
125.4166666666665
 31
0.0
100
AcDbText
  0
TEXT
  5
74B9
330
7493
100
AcDbEntity
  8
0
100
AcDbText
 10
411.3708251683467
 20
171.5833333333333
 30
0.0
 40
3.0
  1
C
  7
ADESK1
 72
     1
 11
412.8708251683468
 21
171.5833333333333
 31
0.0
100
AcDbText
  0
TEXT
  5
74BA
330
7493
100
AcDbEntity
  8
0
100
AcDbText
 10
411.2993965969182
 20
217.7499999999999
 30
0.0
 40
3.0
  1
B
  7
ADESK1
 72
     1
 11
412.8708251683468
 21
217.7499999999999
 31
0.0
100
AcDbText
  0
TEXT
  5
74BB
330
7493
100
AcDbEntity
  8
0
100
AcDbText
 10
411.5851108826324
 20
263.9166666666666
 30
0.0
 40
3.0
  1
A
  7
ADESK1
 72
     1
 11
412.8708251683468
 21
263.9166666666666
 31
0.0
100
AcDbText
  0
TEXT
  5
74BC
330
7493
100
AcDbEntity
  8
0
100
AcDbText
 10
384.5089285714285
 20
6.019997240728746
 30
0.0
 40
3.0
  1
8
  7
ADESK1
 72
     1
 11
385.9375
 21
6.019997240728746
 31
0.0
100
AcDbText
  0
TEXT
  5
74BD
330
7493
100
AcDbEntity
  8
0
100
AcDbText
 10
336.3839285714285
 20
6.019997240728746
 30
0.0
 40
3.0
  1
7
  7
ADESK1
 72
     1
 11
337.8125
 21
6.019997240728746
 31
0.0
100
AcDbText
  0
TEXT
  5
74BE
330
7493
100
AcDbEntity
  8
0
100
AcDbText
 10
288.1874999999999
 20
6.019997240728746
 30
0.0
 40
3.0
  1
6
  7
ADESK1
 72
     1
 11
289.6875
 21
6.019997240728746
 31
0.0
100
AcDbText
  0
TEXT
  5
74BF
330
7493
100
AcDbEntity
  8
0
100
AcDbText
 10
240.1339285714285
 20
6.019997240728746
 30
0.0
 40
3.0
  1
5
  7
ADESK1
 72
     1
 11
241.5624999999999
 21
6.019997240728746
 31
0.0
100
AcDbText
  0
TEXT
  5
74C0
330
7493
100
AcDbEntity
  8
0
100
AcDbText
 10
191.9375
 20
6.019997240728746
 30
0.0
 40
3.0
  1
4
  7
ADESK1
 72
     1
 11
193.4375
 21
6.019997240728746
 31
0.0
100
AcDbText
  0
TEXT
  5
74C1
330
7493
100
AcDbEntity
  8
0
100
AcDbText
 10
143.8839285714285
 20
6.019997240728746
 30
0.0
 40
3.0
  1
3
  7
ADESK1
 72
     1
 11
145.3125
 21
6.019997240728746
 31
0.0
100
AcDbText
  0
TEXT
  5
74C2
330
7493
100
AcDbEntity
  8
0
100
AcDbText
 10
95.75892857142857
 20
6.019997240728746
 30
0.0
 40
3.0
  1
2
  7
ADESK1
 72
     1
 11
97.1875
 21
6.019997240728746
 31
0.0
100
AcDbText
  0
TEXT
  5
74C3
330
7493
100
AcDbEntity
  8
0
100
AcDbText
 10
47.84821428571429
 20
6.019997240728746
 30
0.0
 40
3.0
  1
1
  7
ADESK1
 72
     1
 11
49.0625
 21
6.019997240728746
 31
0.0
100
AcDbText
  0
TEXT
  5
74C4
330
7493
100
AcDbEntity
  8
0
100
AcDbText
 10
21.10716135953389
 20
33.08333333333334
 30
0.0
 40
3.0
  1
F
  7
ADESK1
 72
     1
 11
22.60716135953388
 21
33.08333333333334
 31
0.0
100
AcDbText
  0
TEXT
  5
74C5
330
7493
100
AcDbEntity
  8
0
100
AcDbText
 10
21.10716135953389
 20
79.25
 30
0.0
 40
3.0
  1
E
  7
ADESK1
 72
     1
 11
22.60716135953388
 21
79.25
 31
0.0
100
AcDbText
  0
TEXT
  5
74C6
330
7493
100
AcDbEntity
  8
0
100
AcDbText
 10
21.03573278810532
 20
125.4166666666665
 30
0.0
 40
3.0
  1
D
  7
ADESK1
 72
     1
 11
22.60716135953388
 21
125.4166666666665
 31
0.0
100
AcDbText
  0
TEXT
  5
74C7
330
7493
100
AcDbEntity
  8
0
100
AcDbText
 10
21.10716135953389
 20
171.5833333333333
 30
0.0
 40
3.0
  1
C
  7
ADESK1
 72
     1
 11
22.60716135953388
 21
171.5833333333333
 31
0.0
100
AcDbText
  0
TEXT
  5
74C8
330
7493
100
AcDbEntity
  8
0
100
AcDbText
 10
21.03573278810532
 20
217.7499999999999
 30
0.0
 40
3.0
  1
B
  7
ADESK1
 72
     1
 11
22.60716135953388
 21
217.7499999999999
 31
0.0
100
AcDbText
  0
TEXT
  5
74C9
330
7493
100
AcDbEntity
  8
0
100
AcDbText
 10
384.5089285714285
 20
288.0
 30
0.0
 40
3.0
  1
8
  7
ADESK1
 72
     1
 11
385.9375
 21
288.0
 31
0.0
100
AcDbText
  0
TEXT
  5
74CA
330
7493
100
AcDbEntity
  8
0
100
AcDbText
 10
336.3839285714285
 20
288.0
 30
0.0
 40
3.0
  1
7
  7
ADESK1
 72
     1
 11
337.8125
 21
288.0
 31
0.0
100
AcDbText
  0
TEXT
  5
74CB
330
7493
100
AcDbEntity
  8
0
100
AcDbText
 10
288.1874999999999
 20
288.0
 30
0.0
 40
3.0
  1
6
  7
ADESK1
 72
     1
 11
289.6875
 21
288.0
 31
0.0
100
AcDbText
  0
TEXT
  5
74CC
330
7493
100
AcDbEntity
  8
0
100
AcDbText
 10
240.1339285714285
 20
288.0
 30
0.0
 40
3.0
  1
5
  7
ADESK1
 72
     1
 11
241.5624999999999
 21
288.0
 31
0.0
100
AcDbText
  0
TEXT
  5
74CD
330
7493
100
AcDbEntity
  8
0
100
AcDbText
 10
191.9375
 20
288.0
 30
0.0
 40
3.0
  1
4
  7
ADESK1
 72
     1
 11
193.4375
 21
288.0
 31
0.0
100
AcDbText
  0
TEXT
  5
74CE
330
7493
100
AcDbEntity
  8
0
100
AcDbText
 10
143.8839285714285
 20
288.0
 30
0.0
 40
3.0
  1
3
  7
ADESK1
 72
     1
 11
145.3125
 21
288.0
 31
0.0
100
AcDbText
  0
TEXT
  5
74CF
330
7493
100
AcDbEntity
  8
0
100
AcDbText
 10
95.75892857142857
 20
288.0
 30
0.0
 40
3.0
  1
2
  7
ADESK1
 72
     1
 11
97.1875
 21
288.0
 31
0.0
100
AcDbText
  0
TEXT
  5
74D0
330
7493
100
AcDbEntity
  8
0
100
AcDbText
 10
21.3214470738196
 20
263.9166666666666
 30
0.0
 40
3.0
  1
A
  7
ADESK1
 72
     1
 11
22.60716135953388
 21
263.9166666666666
 31
0.0
100
AcDbText
  0
TEXT
  5
74D1
330
7493
100
AcDbEntity
  8
0
100
AcDbText
 10
47.84821428571429
 20
288.0
 30
0.0
 40
3.0
  1
1
  7
ADESK1
 72
     1
 11
49.0625
 21
288.0
 31
0.0
100
AcDbText
  0
LINE
  5
74D2
330
7493
100
AcDbEntity
  8
0
100
AcDbLine
 10
73.125
 20
287.0
 30
0.0
 11
73.125
 21
292.0
 31
0.0
  0
LINE
  5
74D3
330
7493
100
AcDbEntity
  8
0
100
AcDbLine
 10
121.25
 20
287.0
 30
0.0
 11
121.25
 21
292.0
 31
0.0
  0
LINE
  5
74D4
330
7493
100
AcDbEntity
  8
0
100
AcDbLine
 10
169.375
 20
287.0
 30
0.0
 11
169.375
 21
292.0
 31
0.0
  0
LINE
  5
74D5
330
7493
100
AcDbEntity
  8
0
100
AcDbLine
 10
217.5
 20
287.0
 30
0.0
 11
217.5
 21
292.0
 31
0.0
  0
LINE
  5
74D6
330
7493
100
AcDbEntity
  8
0
100
AcDbLine
 10
265.625
 20
287.0
 30
0.0
 11
265.625
 21
292.0
 31
0.0
  0
LINE
  5
74D7
330
7493
100
AcDbEntity
  8
0
100
AcDbLine
 10
313.75
 20
287.0
 30
0.0
 11
313.75
 21
292.0
 31
0.0
  0
LINE
  5
74D8
330
7493
100
AcDbEntity
  8
0
100
AcDbLine
 10
361.8749999999998
 20
287.0
 30
0.0
 11
361.8749999999998
 21
292.0
 31
0.0
  0
LINE
  5
74D9
330
7493
100
AcDbEntity
  8
0
100
AcDbLine
 10
361.8749999999998
 20
10.0
 30
0.0
 11
361.8749999999998
 21
5.0
 31
0.0
  0
LINE
  5
74DA
330
7493
100
AcDbEntity
  8
0
100
AcDbLine
 10
313.75
 20
10.0
 30
0.0
 11
313.75
 21
5.0
 31
0.0
  0
LINE
  5
74DB
330
7493
100
AcDbEntity
  8
0
100
AcDbLine
 10
265.625
 20
10.0
 30
0.0
 11
265.625
 21
5.0
 31
0.0
  0
LINE
  5
74DC
330
7493
100
AcDbEntity
  8
0
100
AcDbLine
 10
217.5
 20
10.0
 30
0.0
 11
217.5
 21
5.0
 31
0.0
  0
LINE
  5
74DD
330
7493
100
AcDbEntity
  8
0
100
AcDbLine
 10
169.375
 20
10.0
 30
0.0
 11
169.375
 21
5.0
 31
0.0
  0
LINE
  5
74DE
330
7493
100
AcDbEntity
  8
0
100
AcDbLine
 10
121.25
 20
10.0
 30
0.0
 11
121.25
 21
5.0
 31
0.0
  0
LINE
  5
74DF
330
7493
100
AcDbEntity
  8
0
100
AcDbLine
 10
73.125
 20
10.0
 30
0.0
 11
73.125
 21
5.0
 31
0.0
  0
LINE
  5
74E0
330
7493
100
AcDbEntity
  8
0
100
AcDbLine
 10
410.0
 20
240.8333333333333
 30
0.0
 11
415.0
 21
240.8333333333333
 31
0.0
  0
LINE
  5
74E1
330
7493
100
AcDbEntity
  8
0
100
AcDbLine
 10
410.0
 20
194.6666666666667
 30
0.0
 11
415.0
 21
194.6666666666667
 31
0.0
  0
LINE
  5
74E2
330
7493
100
AcDbEntity
  8
0
100
AcDbLine
 10
410.0
 20
148.5
 30
0.0
 11
415.0
 21
148.5
 31
0.0
  0
LINE
  5
74E3
330
7493
100
AcDbEntity
  8
0
100
AcDbLine
 10
410.0
 20
102.3333333333332
 30
0.0
 11
415.0
 21
102.3333333333332
 31
0.0
  0
LINE
  5
74E4
330
7493
100
AcDbEntity
  8
0
100
AcDbLine
 10
410.0
 20
56.16666666666668
 30
0.0
 11
415.0
 21
56.16666666666668
 31
0.0
  0
LINE
  5
74E5
330
7493
100
AcDbEntity
  8
0
100
AcDbLine
 10
25.0
 20
56.16666666666667
 30
0.0
 11
20.0
 21
56.16666666666667
 31
0.0
  0
LINE
  5
74E6
330
7493
100
AcDbEntity
  8
0
100
AcDbLine
 10
25.0
 20
102.3333333333332
 30
0.0
 11
20.0
 21
102.3333333333332
 31
0.0
  0
LINE
  5
74E7
330
7493
100
AcDbEntity
  8
0
100
AcDbLine
 10
25.0
 20
148.5
 30
0.0
 11
20.0
 21
148.5
 31
0.0
  0
LINE
  5
74E8
330
7493
100
AcDbEntity
  8
0
100
AcDbLine
 10
25.0
 20
194.6666666666666
 30
0.0
 11
20.0
 21
194.6666666666666
 31
0.0
  0
LINE
  5
74E9
330
7493
100
AcDbEntity
  8
0
100
AcDbLine
 10
25.0
 20
240.8333333333333
 30
0.0
 11
20.0
 21
240.8333333333333
 31
0.0
  0
TEXT
  5
74EA
330
7493
100
AcDbEntity
  8
0
100
AcDbText
 10
1.0
 20
1.0
 30
0.0
 40
3.0
  1
この図枠はサンプルです。社内の規格やプロッタの出力範囲に合わせて適当に変更してご利用ください。
  7
ADESK1
100
AcDbText
  0
LINE
  5
74EB
330
7493
100
AcDbEntity
  8
0
100
AcDbLine
 10
25.0
 20
148.5
 30
0.0
 11
0.0
 21
148.5
 31
0.0
  0
LINE
  5
74EC
330
7493
100
AcDbEntity
  8
0
100
AcDbLine
 10
410.0
 20
148.5
 30
0.0
 11
420.0
 21
148.5
 31
0.0
  0
LINE
  5
74ED
330
7493
100
AcDbEntity
  8
0
100
AcDbLine
 10
217.5
 20
287.0
 30
0.0
 11
217.5
 21
297.0
 31
0.0
  0
LINE
  5
74EE
330
7493
100
AcDbEntity
  8
0
100
AcDbLine
 10
217.5
 20
10.0
 30
0.0
 11
217.5
 21
0.0
 31
0.0
  0
LINE
  5
74EF
330
7493
100
AcDbEntity
  8
OBJECT
100
AcDbLine
 10
130.0
 20
40.0
 30
0.0
 11
130.0
 21
10.0
 31
0.0
  0
LINE
  5
74F0
330
7493
100
AcDbEntity
  8
OBJECT
100
AcDbLine
 10
120.0
 20
10.0
 30
0.0
 11
120.0
 21
40.0
 31
0.0
  0
LINE
  5
74F1
330
7493
100
AcDbEntity
  8
OBJECT
100
AcDbLine
 10
44.5
 20
37.0
 30
0.0
 11
45.49999999999999
 21
37.0
 31
0.0
  0
LINE
  5
74F2
330
7493
100
AcDbEntity
  8
OBJECT
100
AcDbLine
 10
44.5
 20
31.0
 30
0.0
 11
45.49999999999999
 21
31.0
 31
0.0
  0
LINE
  5
74F3
330
7493
100
AcDbEntity
  8
OBJECT
100
AcDbLine
 10
39.5
 20
37.0
 30
0.0
 11
40.49999999999999
 21
37.0
 31
0.0
  0
LINE
  5
74F4
330
7493
100
AcDbEntity
  8
OBJECT
100
AcDbLine
 10
39.5
 20
31.0
 30
0.0
 11
40.49999999999999
 21
31.0
 31
0.0
  0
LINE
  5
74F5
330
7493
100
AcDbEntity
  8
OBJECT
100
AcDbLine
 10
44.5
 20
25.0
 30
0.0
 11
45.49999999999999
 21
25.0
 31
0.0
  0
LINE
  5
74F6
330
7493
100
AcDbEntity
  8
OBJECT
100
AcDbLine
 10
39.5
 20
25.0
 30
0.0
 11
40.49999999999999
 21
25.0
 31
0.0
  0
LINE
  5
74F7
330
7493
100
AcDbEntity
  8
OBJECT
100
AcDbLine
 10
44.5
 20
19.0
 30
0.0
 11
45.49999999999999
 21
19.0
 31
0.0
  0
LINE
  5
74F8
330
7493
100
AcDbEntity
  8
OBJECT
100
AcDbLine
 10
39.5
 20
19.0
 30
0.0
 11
40.49999999999999
 21
19.0
 31
0.0
  0
LINE
  5
74F9
330
7493
100
AcDbEntity
  8
OBJECT
100
AcDbLine
 10
28.0
 20
29.53589799999999
 30
0.0
 11
30.0
 21
33.0
 31
0.0
  0
LINE
  5
74FA
330
7493
100
AcDbEntity
  8
OBJECT
100
AcDbLine
 10
28.0
 20
29.53589799999999
 30
0.0
 11
32.0
 21
29.53589799999999
 31
0.0
  0
LINE
  5
74FB
330
7493
100
AcDbEntity
  8
OBJECT
100
AcDbLine
 10
32.0
 20
29.53589799999999
 30
0.0
 11
30.0
 21
33.0
 31
0.0
  0
LINE
  5
74FC
330
7493
100
AcDbEntity
  8
OBJECT
100
AcDbLine
 10
28.0
 20
35.53589799999999
 30
0.0
 11
32.0
 21
35.53589799999999
 31
0.0
  0
LINE
  5
74FD
330
7493
100
AcDbEntity
  8
OBJECT
100
AcDbLine
 10
32.0
 20
35.53589799999999
 30
0.0
 11
30.0
 21
39.0
 31
0.0
  0
LINE
  5
74FE
330
7493
100
AcDbEntity
  8
OBJECT
100
AcDbLine
 10
28.0
 20
35.53589799999999
 30
0.0
 11
30.0
 21
39.0
 31
0.0
  0
LINE
  5
74FF
330
7493
100
AcDbEntity
  8
OBJECT
100
AcDbLine
 10
28.0
 20
23.53589799999999
 30
0.0
 11
30.0
 21
26.99999999999999
 31
0.0
  0
LINE
  5
7500
330
7493
100
AcDbEntity
  8
OBJECT
100
AcDbLine
 10
28.0
 20
23.53589799999999
 30
0.0
 11
32.0
 21
23.53589799999999
 31
0.0
  0
LINE
  5
7501
330
7493
100
AcDbEntity
  8
OBJECT
100
AcDbLine
 10
32.0
 20
23.53589799999999
 30
0.0
 11
30.0
 21
26.99999999999999
 31
0.0
  0
LINE
  5
7502
330
7493
100
AcDbEntity
  8
OBJECT
100
AcDbLine
 10
28.0
 20
17.535898
 30
0.0
 11
30.0
 21
20.99999999999999
 31
0.0
  0
LINE
  5
7503
330
7493
100
AcDbEntity
  8
OBJECT
100
AcDbLine
 10
28.0
 20
17.535898
 30
0.0
 11
32.0
 21
17.535898
 31
0.0
  0
LINE
  5
7504
330
7493
100
AcDbEntity
  8
OBJECT
100
AcDbLine
 10
32.0
 20
17.535898
 30
0.0
 11
30.0
 21
20.99999999999999
 31
0.0
  0
LINE
  5
7505
330
7493
100
AcDbEntity
  8
OBJECT
100
AcDbLine
 10
44.5
 20
13.0
 30
0.0
 11
45.49999999999999
 21
13.0
 31
0.0
  0
LINE
  5
7506
330
7493
100
AcDbEntity
  8
OBJECT
100
AcDbLine
 10
39.5
 20
13.0
 30
0.0
 11
40.49999999999999
 21
13.0
 31
0.0
  0
LINE
  5
7507
330
7493
100
AcDbEntity
  8
OBJECT
100
AcDbLine
 10
28.0
 20
11.53589799999999
 30
0.0
 11
32.0
 21
11.53589799999999
 31
0.0
  0
LINE
  5
7508
330
7493
100
AcDbEntity
  8
OBJECT
100
AcDbLine
 10
80.0
 20
10.0
 30
0.0
 11
80.0
 21
40.0
 31
0.0
  0
LINE
  5
7509
330
7493
100
AcDbEntity
  8
OBJECT
100
AcDbLine
 10
50.0
 20
10.0
 30
0.0
 11
50.0
 21
40.0
 31
0.0
  0
LINE
  5
750A
330
7493
100
AcDbEntity
  8
OBJECT
100
AcDbLine
 10
35.0
 20
10.0
 30
0.0
 11
35.0
 21
40.0
 31
0.0
  0
LINE
  5
750B
330
7493
100
AcDbEntity
  8
OBJECT
100
AcDbLine
 10
32.0
 20
11.53589799999999
 30
0.0
 11
30.0
 21
15.0
 31
0.0
  0
LINE
  5
750C
330
7493
100
AcDbEntity
  8
OBJECT
100
AcDbLine
 10
28.0
 20
11.53589799999999
 30
0.0
 11
30.0
 21
15.0
 31
0.0
  0
LINE
  5
750D
330
7493
100
AcDbEntity
  8
OBJECT
100
AcDbLine
 10
130.0
 20
40.0
 30
0.0
 11
25.0
 21
40.0
 31
0.0
  0
LINE
  5
750E
330
7493
100
AcDbEntity
  8
OBJECT
100
AcDbLine
 10
130.0
 20
34.0
 30
0.0
 11
25.0
 21
34.0
 31
0.0
  0
LINE
  5
750F
330
7493
100
AcDbEntity
  8
OBJECT
100
AcDbLine
 10
130.0
 20
28.0
 30
0.0
 11
25.0
 21
28.0
 31
0.0
  0
LINE
  5
7510
330
7493
100
AcDbEntity
  8
OBJECT
100
AcDbLine
 10
130.0
 20
22.0
 30
0.0
 11
25.0
 21
22.0
 31
0.0
  0
LINE
  5
7511
330
7493
100
AcDbEntity
  8
OBJECT
100
AcDbLine
 10
130.0
 20
16.0
 30
0.0
 11
25.0
 21
16.0
 31
0.0
  0
ATTDEF
  5
7512
330
7493
100
AcDbEntity
  8
0
 62
     0
100
AcDbText
 10
19.0
 20
118.0
 30
0.0
 40
3.0
  1

 50
90.0
  7
ADESK1
100
AcDbAttributeDefinition
  3

  2
FNAME
 70
     8
  0
ATTDEF
  5
7513
330
7493
100
AcDbEntity
  8
0
 62
     0
100
AcDbText
 10
19.0
 20
70.0
 30
0.0
 40
3.0
  1

 50
90.0
  7
ADESK1
100
AcDbAttributeDefinition
  3

  2
REVDATE
 70
     8
  0
ATTDEF
  5
7514
330
7493
100
AcDbEntity
  8
0
 62
     0
100
AcDbText
 10
19.0
 20
10.0
 30
0.0
 40
3.0
  1

 50
90.0
  7
ADESK1
100
AcDbAttributeDefinition
  3

  2
USER
 70
     8
  0
LINE
  5
7515
330
7493
100
AcDbEntity
  8
0
100
AcDbLine
 10
410.0
 20
297.0
 30
0.0
 11
420.0
 21
297.0
 31
0.0
  0
LINE
  5
7516
330
7493
100
AcDbEntity
  8
0
100
AcDbLine
 10
420.0
 20
10.0
 30
0.0
 11
420.0
 21
0.0
 31
0.0
  0
LINE
  5
7517
330
7493
100
AcDbEntity
  8
0
100
AcDbLine
 10
25.0
 20
0.0
 30
0.0
 11
0.0
 21
0.0
 31
0.0
  0
LINE
  5
7518
330
7493
100
AcDbEntity
  8
0
100
AcDbLine
 10
0.0
 20
287.0
 30
0.0
 11
0.0
 21
297.0
 31
0.0
  0
LINE
  5
7519
330
7493
100
AcDbEntity
  8
0
100
AcDbLine
 10
25.0
 20
287.0
 30
0.0
 11
410.0
 21
287.0
 31
0.0
  0
LINE
  5
751A
330
7493
100
AcDbEntity
  8
0
100
AcDbLine
 10
410.0
 20
287.0
 30
0.0
 11
410.0
 21
10.0
 31
0.0
  0
LINE
  5
751B
330
7493
100
AcDbEntity
  8
0
100
AcDbLine
 10
410.0
 20
10.0
 30
0.0
 11
25.0
 21
10.0
 31
0.0
  0
LINE
  5
751C
330
7493
100
AcDbEntity
  8
0
100
AcDbLine
 10
25.0
 20
10.0
 30
0.0
 11
25.0
 21
287.0
 31
0.0
  0
LINE
  5
751D
330
7493
100
AcDbEntity
  8
0
100
AcDbLine
 10
420.0
 20
0.0
 30
0.0
 11
410.0
 21
0.0
 31
0.0
  0
LINE
  5
751E
330
7493
100
AcDbEntity
  8
0
100
AcDbLine
 10
420.0
 20
297.0
 30
0.0
 11
420.0
 21
287.0
 31
0.0
  0
LINE
  5
751F
330
7493
100
AcDbEntity
  8
0
100
AcDbLine
 10
0.0
 20
297.0
 30
0.0
 11
25.0
 21
297.0
 31
0.0
  0
LINE
  5
7520
330
7493
100
AcDbEntity
  8
0
100
AcDbLine
 10
0.0
 20
0.0
 30
0.0
 11
0.0
 21
10.0
 31
0.0
  0
ENDBLK
  5
7521
330
7493
100
AcDbEntity
  8
0
100
AcDbBlockEnd
  0
BLOCK
  5
890A
330
88FE
100
AcDbEntity
  8
0
 48
20.0
100
AcDbBlockBegin
  2
*D1
 70
     1
 10
0.0
 20
0.0
 30
0.0
  3
*D1
  1

  0
LINE
  5
A468
330
88FE
100
AcDbEntity
  8
寸法引出
 48
20.0
370
    -2
100
AcDbLine
 10
908.5782198007601
 20
1859.022199878661
 30
0.0
 11
908.5782198007601
 21
1919.993480641905
 31
0.0
  0
LINE
  5
A469
330
88FE
100
AcDbEntity
  8
寸法引出
 48
20.0
370
    -2
100
AcDbLine
 10
948.5782198007601
 20
1863.522199878661
 30
0.0
 11
948.5782198007601
 21
1919.993480641905
 31
0.0
  0
LINE
  5
A46A
330
88FE
100
AcDbEntity
  8
寸法引出
 48
20.0
370
    -2
100
AcDbLine
 10
886.0782198007601
 20
1912.493480641905
 30
0.0
 11
863.5782198007602
 21
1912.493480641905
 31
0.0
  0
LINE
  5
A46B
330
88FE
100
AcDbEntity
  8
寸法引出
 48
20.0
370
    -2
100
AcDbLine
 10
971.0782198007601
 20
1912.493480641905
 30
0.0
 11
993.5782198007601
 21
1912.493480641905
 31
0.0
  0
MTEXT
  5
A46C
330
88FE
100
AcDbEntity
  8
寸法引出
 48
20.0
100
AcDbMText
 10
881.7710332749994
 20
1942.667760200167
 30
0.0
 40
30.0
 41
0.0
 71
     5
 72
     1
  1
\A1;40
  7
SANWA
 73
     1
 44
1.0
  0
LINE
  5
A46D
330
88FE
100
AcDbEntity
  8
寸法引出
 48
20.0
370
    -2
100
AcDbLine
 10
908.5782198007601
 20
1912.493480641905
 30
0.0
 11
948.5782198007601
 21
1912.493480641905
 31
0.0
  0
SOLID
  5
A46E
330
88FE
100
AcDbEntity
  8
寸法引出
 48
20.0
100
AcDbTrace
 10
886.0782198007601
 20
1916.243480641904
 30
0.0
 11
886.0782198007601
 21
1908.743480641905
 31
0.0
 12
908.5782198007601
 22
1912.493480641905
 32
0.0
 13
908.5782198007601
 23
1912.493480641905
 33
0.0
  0
SOLID
  5
A46F
330
88FE
100
AcDbEntity
  8
寸法引出
 48
20.0
100
AcDbTrace
 10
971.0782198007601
 20
1916.243480641904
 30
0.0
 11
971.0782198007601
 21
1908.743480641905
 31
0.0
 12
948.5782198007601
 22
1912.493480641905
 32
0.0
 13
948.5782198007601
 23
1912.493480641905
 33
0.0
  0
POINT
  5
A470
330
88FE
100
AcDbEntity
  8
DEFPOINTS
 62
     0
 48
20.0
100
AcDbPoint
 10
908.5782198007601
 20
1844.022199878661
 30
0.0
  0
POINT
  5
A471
330
88FE
100
AcDbEntity
  8
DEFPOINTS
 62
     0
 48
20.0
100
AcDbPoint
 10
948.5782198007601
 20
1848.522199878661
 30
0.0
  0
POINT
  5
A472
330
88FE
100
AcDbEntity
  8
DEFPOINTS
 62
     0
 48
20.0
100
AcDbPoint
 10
948.5782198007601
 20
1912.493480641905
 30
0.0
  0
ENDBLK
  5
890B
330
88FE
100
AcDbEntity
  8
0
 48
20.0
100
AcDbBlockEnd
  0
BLOCK
  5
8924
330
8918
100
AcDbEntity
  8
0
 48
20.0
100
AcDbBlockBegin
  2
*D2
 70
     1
 10
0.0
 20
0.0
 30
0.0
  3
*D2
  1

  0
LINE
  5
A473
330
8918
100
AcDbEntity
  8
寸法引出
 48
20.0
370
    -2
100
AcDbLine
 10
948.5782198007601
 20
1863.522199878661
 30
0.0
 11
948.5782198007601
 21
1919.993480641905
 31
0.0
  0
LINE
  5
A474
330
8918
100
AcDbEntity
  8
寸法引出
 48
20.0
370
    -2
100
AcDbLine
 10
951.0782198007593
 20
1773.52219987866
 30
0.0
 11
951.0782198007593
 21
1919.993480641905
 31
0.0
  0
LINE
  5
A475
330
8918
100
AcDbEntity
  8
寸法引出
 48
20.0
370
    -2
100
AcDbLine
 10
926.0782198007602
 20
1912.493480641905
 30
0.0
 11
903.5782198007602
 21
1912.493480641905
 31
0.0
  0
LINE
  5
A476
330
8918
100
AcDbEntity
  8
寸法引出
 48
20.0
370
    -2
100
AcDbLine
 10
973.5782198007592
 20
1912.493480641905
 30
0.0
 11
996.0782198007592
 21
1912.493480641905
 31
0.0
  0
MTEXT
  5
A477
330
8918
100
AcDbEntity
  8
寸法引出
 48
20.0
100
AcDbMText
 10
948.3471139909051
 20
1976.710571063724
 30
0.0
 40
30.0
 41
0.0
 71
     5
 72
     1
  1
\A1;2.5
  7
SANWA
 73
     1
 44
1.0
  0
LINE
  5
A478
330
8918
100
AcDbEntity
  8
寸法引出
 48
20.0
370
    -2
100
AcDbLine
 10
948.5782198007601
 20
1912.493480641905
 30
0.0
 11
951.0782198007593
 21
1912.493480641905
 31
0.0
  0
SOLID
  5
A479
330
8918
100
AcDbEntity
  8
寸法引出
 48
20.0
100
AcDbTrace
 10
926.0782198007602
 20
1916.243480641904
 30
0.0
 11
926.0782198007602
 21
1908.743480641905
 31
0.0
 12
948.5782198007601
 22
1912.493480641905
 32
0.0
 13
948.5782198007601
 23
1912.493480641905
 33
0.0
  0
SOLID
  5
A47A
330
8918
100
AcDbEntity
  8
寸法引出
 48
20.0
100
AcDbTrace
 10
973.5782198007592
 20
1916.243480641904
 30
0.0
 11
973.5782198007592
 21
1908.743480641905
 31
0.0
 12
951.0782198007593
 22
1912.493480641905
 32
0.0
 13
951.0782198007593
 23
1912.493480641905
 33
0.0
  0
POINT
  5
A47B
330
8918
100
AcDbEntity
  8
DEFPOINTS
 62
     0
 48
20.0
100
AcDbPoint
 10
948.5782198007601
 20
1848.522199878661
 30
0.0
  0
POINT
  5
A47C
330
8918
100
AcDbEntity
  8
DEFPOINTS
 62
     0
 48
20.0
100
AcDbPoint
 10
951.0782198007593
 20
1758.522199878661
 30
0.0
  0
POINT
  5
A47D
330
8918
100
AcDbEntity
  8
DEFPOINTS
 62
     0
 48
20.0
100
AcDbPoint
 10
951.0782198007593
 20
1912.493480641905
 30
0.0
  0
ENDBLK
  5
8925
330
8918
100
AcDbEntity
  8
0
 48
20.0
100
AcDbBlockEnd
  0
BLOCK
  5
8933
330
8927
100
AcDbEntity
  8
0
 48
20.0
100
AcDbBlockBegin
  2
*D3
 70
     1
 10
0.0
 20
0.0
 30
0.0
  3
*D3
  1

  0
LINE
  5
A47E
330
8927
100
AcDbEntity
  8
寸法引出
 48
20.0
370
    -2
100
AcDbLine
 10
951.0782198007593
 20
1773.52219987866
 30
0.0
 11
951.0782198007593
 21
1919.993480641905
 31
0.0
  0
LINE
  5
A47F
330
8927
100
AcDbEntity
  8
寸法引出
 48
20.0
370
    -2
100
AcDbLine
 10
978.5782198007602
 20
1773.52219987866
 30
0.0
 11
978.5782198007602
 21
1919.993480641905
 31
0.0
  0
LINE
  5
A480
330
8927
100
AcDbEntity
  8
寸法引出
 48
20.0
370
    -2
100
AcDbLine
 10
928.5782198007593
 20
1912.493480641905
 30
0.0
 11
906.0782198007592
 21
1912.493480641905
 31
0.0
  0
LINE
  5
A481
330
8927
100
AcDbEntity
  8
寸法引出
 48
20.0
370
    -2
100
AcDbLine
 10
1001.07821980076
 20
1912.493480641905
 30
0.0
 11
1023.57821980076
 21
1912.493480641905
 31
0.0
  0
MTEXT
  5
A482
330
8927
100
AcDbEntity
  8
寸法引出
 48
20.0
100
AcDbMText
 10
963.8299082113693
 20
1941.120368298024
 30
0.0
 40
30.0
 41
0.0
 71
     5
 72
     1
  1
\A1;27.5
  7
SANWA
 73
     1
 44
1.0
  0
LINE
  5
A483
330
8927
100
AcDbEntity
  8
寸法引出
 48
20.0
370
    -2
100
AcDbLine
 10
951.0782198007593
 20
1912.493480641905
 30
0.0
 11
978.5782198007602
 21
1912.493480641905
 31
0.0
  0
SOLID
  5
A484
330
8927
100
AcDbEntity
  8
寸法引出
 48
20.0
100
AcDbTrace
 10
928.5782198007593
 20
1916.243480641904
 30
0.0
 11
928.5782198007593
 21
1908.743480641905
 31
0.0
 12
951.0782198007593
 22
1912.493480641905
 32
0.0
 13
951.0782198007593
 23
1912.493480641905
 33
0.0
  0
SOLID
  5
A485
330
8927
100
AcDbEntity
  8
寸法引出
 48
20.0
100
AcDbTrace
 10
1001.07821980076
 20
1916.243480641904
 30
0.0
 11
1001.07821980076
 21
1908.743480641905
 31
0.0
 12
978.5782198007602
 22
1912.493480641905
 32
0.0
 13
978.5782198007602
 23
1912.493480641905
 33
0.0
  0
POINT
  5
A486
330
8927
100
AcDbEntity
  8
DEFPOINTS
 62
     0
 48
20.0
100
AcDbPoint
 10
951.0782198007593
 20
1758.522199878661
 30
0.0
  0
POINT
  5
A487
330
8927
100
AcDbEntity
  8
DEFPOINTS
 62
     0
 48
20.0
100
AcDbPoint
 10
978.5782198007602
 20
1758.522199878661
 30
0.0
  0
POINT
  5
A488
330
8927
100
AcDbEntity
  8
DEFPOINTS
 62
     0
 48
20.0
100
AcDbPoint
 10
978.5782198007602
 20
1912.493480641905
 30
0.0
  0
ENDBLK
  5
8934
330
8927
100
AcDbEntity
  8
0
 48
20.0
100
AcDbBlockEnd
  0
BLOCK
  5
8998
330
898E
100
AcDbEntity
  8
0
 48
20.0
100
AcDbBlockBegin
  2
*D4
 70
     1
 10
0.0
 20
0.0
 30
0.0
  3
*D4
  1

  0
LINE
  5
A4FD
330
898E
100
AcDbEntity
  8
寸法引出
 48
20.0
370
    -2
100
AcDbLine
 10
978.5782198007602
 20
1773.52219987866
 30
0.0
 11
978.5782198007602
 21
1919.993480641905
 31
0.0
  0
LINE
  5
A4FE
330
898E
100
AcDbEntity
  8
寸法引出
 48
20.0
370
    -2
100
AcDbLine
 10
1378.578219800759
 20
1773.52219987866
 30
0.0
 11
1378.578219800759
 21
1919.993480641905
 31
0.0
  0
LINE
  5
A4FF
330
898E
100
AcDbEntity
  8
寸法引出
 48
20.0
370
    -2
100
AcDbLine
 10
1001.07821980076
 20
1912.493480641905
 30
0.0
 11
1356.078219800759
 21
1912.493480641905
 31
0.0
  0
SOLID
  5
A500
330
898E
100
AcDbEntity
  8
寸法引出
 48
20.0
100
AcDbTrace
 10
1001.07821980076
 20
1916.243480641904
 30
0.0
 11
1001.07821980076
 21
1908.743480641905
 31
0.0
 12
978.5782198007602
 22
1912.493480641905
 32
0.0
 13
978.5782198007602
 23
1912.493480641905
 33
0.0
  0
SOLID
  5
A501
330
898E
100
AcDbEntity
  8
寸法引出
 48
20.0
100
AcDbTrace
 10
1356.078219800759
 20
1916.243480641904
 30
0.0
 11
1356.078219800759
 21
1908.743480641905
 31
0.0
 12
1378.578219800759
 22
1912.493480641905
 32
0.0
 13
1378.578219800759
 23
1912.493480641905
 33
0.0
  0
MTEXT
  5
A502
330
898E
100
AcDbEntity
  8
寸法引出
 48
20.0
100
AcDbMText
 10
1178.578219800759
 20
1942.493480641905
 30
0.0
 40
30.0
 41
0.0
 71
     5
 72
     1
  1
\A1;400
  7
SANWA
 73
     1
 44
1.0
  0
POINT
  5
A503
330
898E
100
AcDbEntity
  8
DEFPOINTS
 62
     0
 48
20.0
100
AcDbPoint
 10
978.5782198007602
 20
1758.522199878661
 30
0.0
  0
POINT
  5
A504
330
898E
100
AcDbEntity
  8
DEFPOINTS
 62
     0
 48
20.0
100
AcDbPoint
 10
1378.578219800759
 20
1758.522199878661
 30
0.0
  0
POINT
  5
A505
330
898E
100
AcDbEntity
  8
DEFPOINTS
 62
     0
 48
20.0
100
AcDbPoint
 10
1378.578219800759
 20
1912.493480641905
 30
0.0
  0
ENDBLK
  5
8999
330
898E
100
AcDbEntity
  8
0
 48
20.0
100
AcDbBlockEnd
  0
BLOCK
  5
89A7
330
899B
100
AcDbEntity
  8
0
 48
20.0
100
AcDbBlockBegin
  2
*D5
 70
     1
 10
0.0
 20
0.0
 30
0.0
  3
*D5
  1

  0
LINE
  5
A4F2
330
899B
100
AcDbEntity
  8
寸法引出
 48
20.0
370
    -2
100
AcDbLine
 10
1378.578219800759
 20
1773.52219987866
 30
0.0
 11
1378.578219800759
 21
1919.993480641905
 31
0.0
  0
LINE
  5
A4F3
330
899B
100
AcDbEntity
  8
寸法引出
 48
20.0
370
    -2
100
AcDbLine
 10
1448.57821980076
 20
1859.022199878661
 30
0.0
 11
1448.57821980076
 21
1919.993480641905
 31
0.0
  0
LINE
  5
A4F4
330
899B
100
AcDbEntity
  8
寸法引出
 48
20.0
370
    -2
100
AcDbLine
 10
1356.078219800759
 20
1912.493480641905
 30
0.0
 11
1333.578219800759
 21
1912.493480641905
 31
0.0
  0
LINE
  5
A4F5
330
899B
100
AcDbEntity
  8
寸法引出
 48
20.0
370
    -2
100
AcDbLine
 10
1471.07821980076
 20
1912.493480641905
 30
0.0
 11
1493.57821980076
 21
1912.493480641905
 31
0.0
  0
LINE
  5
A4F6
330
899B
100
AcDbEntity
  8
寸法引出
 48
20.0
370
    -2
100
AcDbLine
 10
1378.578219800759
 20
1912.493480641905
 30
0.0
 11
1448.57821980076
 21
1912.493480641905
 31
0.0
  0
SOLID
  5
A4F7
330
899B
100
AcDbEntity
  8
寸法引出
 48
20.0
100
AcDbTrace
 10
1356.078219800759
 20
1916.243480641904
 30
0.0
 11
1356.078219800759
 21
1908.743480641905
 31
0.0
 12
1378.578219800759
 22
1912.493480641905
 32
0.0
 13
1378.578219800759
 23
1912.493480641905
 33
0.0
  0
SOLID
  5
A4F8
330
899B
100
AcDbEntity
  8
寸法引出
 48
20.0
100
AcDbTrace
 10
1471.07821980076
 20
1916.243480641904
 30
0.0
 11
1471.07821980076
 21
1908.743480641905
 31
0.0
 12
1448.57821980076
 22
1912.493480641905
 32
0.0
 13
1448.57821980076
 23
1912.493480641905
 33
0.0
  0
MTEXT
  5
A4F9
330
899B
100
AcDbEntity
  8
寸法引出
 48
20.0
100
AcDbMText
 10
1413.578219800759
 20
1942.493480641905
 30
0.0
 40
30.0
 41
0.0
 71
     5
 72
     1
  1
\A1;70
  7
SANWA
 73
     1
 44
1.0
  0
POINT
  5
A4FA
330
899B
100
AcDbEntity
  8
DEFPOINTS
 62
     0
 48
20.0
100
AcDbPoint
 10
1378.578219800759
 20
1758.522199878661
 30
0.0
  0
POINT
  5
A4FB
330
899B
100
AcDbEntity
  8
DEFPOINTS
 62
     0
 48
20.0
100
AcDbPoint
 10
1448.57821980076
 20
1844.022199878661
 30
0.0
  0
POINT
  5
A4FC
330
899B
100
AcDbEntity
  8
DEFPOINTS
 62
     0
 48
20.0
100
AcDbPoint
 10
1448.57821980076
 20
1912.493480641905
 30
0.0
  0
ENDBLK
  5
89A8
330
899B
100
AcDbEntity
  8
0
 48
20.0
100
AcDbBlockEnd
  0
BLOCK
  5
89B4
330
89AA
100
AcDbEntity
  8
0
 48
20.0
100
AcDbBlockBegin
  2
*D6
 70
     1
 10
0.0
 20
0.0
 30
0.0
  3
*D6
  1

  0
LINE
  5
A4A8
330
89AA
100
AcDbEntity
  8
寸法引出
 48
20.0
370
    -2
100
AcDbLine
 10
908.5782198007601
 20
1859.022199878661
 30
0.0
 11
908.5782198007601
 21
2014.02881233064
 31
0.0
  0
LINE
  5
A4A9
330
89AA
100
AcDbEntity
  8
寸法引出
 48
20.0
370
    -2
100
AcDbLine
 10
1448.57821980076
 20
1859.022199878661
 30
0.0
 11
1448.57821980076
 21
2014.02881233064
 31
0.0
  0
LINE
  5
A4AA
330
89AA
100
AcDbEntity
  8
寸法引出
 48
20.0
370
    -2
100
AcDbLine
 10
931.0782198007601
 20
2006.52881233064
 30
0.0
 11
1426.07821980076
 21
2006.52881233064
 31
0.0
  0
SOLID
  5
A4AB
330
89AA
100
AcDbEntity
  8
寸法引出
 48
20.0
100
AcDbTrace
 10
931.0782198007601
 20
2010.27881233064
 30
0.0
 11
931.0782198007601
 21
2002.77881233064
 31
0.0
 12
908.5782198007601
 22
2006.52881233064
 32
0.0
 13
908.5782198007601
 23
2006.52881233064
 33
0.0
  0
SOLID
  5
A4AC
330
89AA
100
AcDbEntity
  8
寸法引出
 48
20.0
100
AcDbTrace
 10
1426.07821980076
 20
2010.27881233064
 30
0.0
 11
1426.07821980076
 21
2002.77881233064
 31
0.0
 12
1448.57821980076
 22
2006.52881233064
 32
0.0
 13
1448.57821980076
 23
2006.52881233064
 33
0.0
  0
MTEXT
  5
A4AD
330
89AA
100
AcDbEntity
  8
寸法引出
 48
20.0
100
AcDbMText
 10
1178.57821980076
 20
2036.52881233064
 30
0.0
 40
30.0
 41
0.0
 71
     5
 72
     1
  1
\A1;540
  7
SANWA
 73
     1
 44
1.0
  0
POINT
  5
A4AE
330
89AA
100
AcDbEntity
  8
DEFPOINTS
 62
     0
 48
20.0
100
AcDbPoint
 10
908.5782198007601
 20
1844.022199878661
 30
0.0
  0
POINT
  5
A4AF
330
89AA
100
AcDbEntity
  8
DEFPOINTS
 62
     0
 48
20.0
100
AcDbPoint
 10
1448.57821980076
 20
1844.022199878661
 30
0.0
  0
POINT
  5
A4B0
330
89AA
100
AcDbEntity
  8
DEFPOINTS
 62
     0
 48
20.0
100
AcDbPoint
 10
1448.57821980076
 20
2006.52881233064
 30
0.0
  0
ENDBLK
  5
89B5
330
89AA
100
AcDbEntity
  8
0
 48
20.0
100
AcDbBlockEnd
  0
BLOCK
  5
8A1D
330
8A13
100
AcDbEntity
  8
0
 48
20.0
100
AcDbBlockBegin
  2
*D7
 70
     1
 10
0.0
 20
0.0
 30
0.0
  3
*D7
  1

  0
LINE
  5
A4BA
330
8A13
100
AcDbEntity
  8
寸法引出
 48
20.0
370
    -2
100
AcDbLine
 10
898.0782198007601
 20
1848.522199878661
 30
0.0
 11
793.4095255738172
 21
1848.522199878661
 31
0.0
  0
LINE
  5
A4BB
330
8A13
100
AcDbEntity
  8
寸法引出
 48
20.0
370
    -2
100
AcDbLine
 10
893.5782198007601
 20
1758.522199878661
 30
0.0
 11
793.4095255738172
 21
1758.522199878661
 31
0.0
  0
LINE
  5
A4BC
330
8A13
100
AcDbEntity
  8
寸法引出
 48
20.0
370
    -2
100
AcDbLine
 10
800.9095255738172
 20
1826.022199878661
 30
0.0
 11
800.9095255738172
 21
1781.022199878661
 31
0.0
  0
SOLID
  5
A4BD
330
8A13
100
AcDbEntity
  8
寸法引出
 48
20.0
100
AcDbTrace
 10
797.1595255738173
 20
1826.022199878661
 30
0.0
 11
804.6595255738173
 21
1826.022199878661
 31
0.0
 12
800.9095255738172
 22
1848.522199878661
 32
0.0
 13
800.9095255738172
 23
1848.522199878661
 33
0.0
  0
SOLID
  5
A4BE
330
8A13
100
AcDbEntity
  8
寸法引出
 48
20.0
100
AcDbTrace
 10
797.1595255738171
 20
1781.022199878661
 30
0.0
 11
804.6595255738171
 21
1781.022199878661
 31
0.0
 12
800.9095255738172
 22
1758.522199878661
 32
0.0
 13
800.9095255738172
 23
1758.522199878661
 33
0.0
  0
MTEXT
  5
A4BF
330
8A13
100
AcDbEntity
  8
寸法引出
 48
20.0
100
AcDbMText
 10
770.9095255738169
 20
1803.522199878661
 30
0.0
 40
30.0
 41
0.0
 71
     5
 72
     1
  1
\A1;90
  7
SANWA
 11
0.0000000000000001
 21
1.0
 31
0.0
 73
     1
 44
1.0
  0
POINT
  5
A4C0
330
8A13
100
AcDbEntity
  8
DEFPOINTS
 62
     0
 48
20.0
100
AcDbPoint
 10
913.0782198007601
 20
1848.522199878661
 30
0.0
  0
POINT
  5
A4C1
330
8A13
100
AcDbEntity
  8
DEFPOINTS
 62
     0
 48
20.0
100
AcDbPoint
 10
908.5782198007601
 20
1758.522199878661
 30
0.0
  0
POINT
  5
A4C2
330
8A13
100
AcDbEntity
  8
DEFPOINTS
 62
     0
 48
20.0
100
AcDbPoint
 10
800.9095255738172
 20
1758.522199878661
 30
0.0
  0
ENDBLK
  5
8A1E
330
8A13
100
AcDbEntity
  8
0
 48
20.0
100
AcDbBlockEnd
  0
BLOCK
  5
8CC1
330
8CB5
100
AcDbEntity
  8
0
 48
20.0
100
AcDbBlockBegin
  2
*D8
 70
     1
 10
0.0
 20
0.0
 30
0.0
  3
*D8
  1

  0
LINE
  5
A511
330
8CB5
100
AcDbEntity
  8
寸法引出
 48
20.0
370
    -2
100
AcDbLine
 10
2821.493333821985
 20
1559.522199878662
 30
0.0
 11
2821.493333821985
 21
1648.514437768559
 31
0.0
  0
LINE
  5
A512
330
8CB5
100
AcDbEntity
  8
寸法引出
 48
20.0
370
    -2
100
AcDbLine
 10
2831.493333821983
 20
1549.522199878661
 30
0.0
 11
2831.493333821983
 21
1648.514437768559
 31
0.0
  0
LINE
  5
A513
330
8CB5
100
AcDbEntity
  8
寸法引出
 48
20.0
370
    -2
100
AcDbLine
 10
2798.993333821985
 20
1641.014437768559
 30
0.0
 11
2776.493333821985
 21
1641.014437768559
 31
0.0
  0
LINE
  5
A514
330
8CB5
100
AcDbEntity
  8
寸法引出
 48
20.0
370
    -2
100
AcDbLine
 10
2853.993333821983
 20
1641.014437768559
 30
0.0
 11
2876.493333821983
 21
1641.014437768559
 31
0.0
  0
MTEXT
  5
A515
330
8CB5
100
AcDbEntity
  8
寸法引出
 48
20.0
100
AcDbMText
 10
2799.903216517166
 20
1671.243119702807
 30
0.0
 40
30.0
 41
0.0
 71
     5
 72
     1
  1
\A1;10
  7
SANWA
 73
     1
 44
1.0
  0
LINE
  5
A516
330
8CB5
100
AcDbEntity
  8
寸法引出
 48
20.0
370
    -2
100
AcDbLine
 10
2821.493333821985
 20
1641.014437768559
 30
0.0
 11
2831.493333821983
 21
1641.014437768559
 31
0.0
  0
SOLID
  5
A517
330
8CB5
100
AcDbEntity
  8
寸法引出
 48
20.0
100
AcDbTrace
 10
2798.993333821985
 20
1644.764437768559
 30
0.0
 11
2798.993333821985
 21
1637.264437768559
 31
0.0
 12
2821.493333821985
 22
1641.014437768559
 32
0.0
 13
2821.493333821985
 23
1641.014437768559
 33
0.0
  0
SOLID
  5
A518
330
8CB5
100
AcDbEntity
  8
寸法引出
 48
20.0
100
AcDbTrace
 10
2853.993333821983
 20
1644.764437768559
 30
0.0
 11
2853.993333821983
 21
1637.264437768559
 31
0.0
 12
2831.493333821983
 22
1641.014437768559
 32
0.0
 13
2831.493333821983
 23
1641.014437768559
 33
0.0
  0
POINT
  5
A519
330
8CB5
100
AcDbEntity
  8
DEFPOINTS
 62
     0
 48
20.0
100
AcDbPoint
 10
2821.493333821985
 20
1544.522199878662
 30
0.0
  0
POINT
  5
A51A
330
8CB5
100
AcDbEntity
  8
DEFPOINTS
 62
     0
 48
20.0
100
AcDbPoint
 10
2831.493333821983
 20
1534.522199878661
 30
0.0
  0
POINT
  5
A51B
330
8CB5
100
AcDbEntity
  8
DEFPOINTS
 62
     0
 48
20.0
100
AcDbPoint
 10
2831.493333821983
 20
1641.014437768559
 30
0.0
  0
ENDBLK
  5
8CC2
330
8CB5
100
AcDbEntity
  8
0
 48
20.0
100
AcDbBlockEnd
  0
BLOCK
  5
8CCE
330
8CC4
100
AcDbEntity
  8
0
 48
20.0
100
AcDbBlockBegin
  2
*D9
 70
     1
 10
0.0
 20
0.0
 30
0.0
  3
*D9
  1

  0
LINE
  5
A51C
330
8CC4
100
AcDbEntity
  8
寸法引出
 48
20.0
370
    -2
100
AcDbLine
 10
2831.493333821983
 20
1549.522199878661
 30
0.0
 11
2831.493333821983
 21
1648.514437768559
 31
0.0
  0
LINE
  5
A51D
330
8CC4
100
AcDbEntity
  8
寸法引出
 48
20.0
370
    -2
100
AcDbLine
 10
2911.493333821982
 20
1549.522199878661
 30
0.0
 11
2911.493333821982
 21
1648.514437768559
 31
0.0
  0
LINE
  5
A51E
330
8CC4
100
AcDbEntity
  8
寸法引出
 48
20.0
370
    -2
100
AcDbLine
 10
2853.993333821983
 20
1641.014437768559
 30
0.0
 11
2888.993333821982
 21
1641.014437768559
 31
0.0
  0
SOLID
  5
A51F
330
8CC4
100
AcDbEntity
  8
寸法引出
 48
20.0
100
AcDbTrace
 10
2853.993333821983
 20
1644.764437768559
 30
0.0
 11
2853.993333821983
 21
1637.264437768559
 31
0.0
 12
2831.493333821983
 22
1641.014437768559
 32
0.0
 13
2831.493333821983
 23
1641.014437768559
 33
0.0
  0
SOLID
  5
A520
330
8CC4
100
AcDbEntity
  8
寸法引出
 48
20.0
100
AcDbTrace
 10
2888.993333821982
 20
1644.764437768559
 30
0.0
 11
2888.993333821982
 21
1637.264437768559
 31
0.0
 12
2911.493333821982
 22
1641.014437768559
 32
0.0
 13
2911.493333821982
 23
1641.014437768559
 33
0.0
  0
MTEXT
  5
A521
330
8CC4
100
AcDbEntity
  8
寸法引出
 48
20.0
100
AcDbMText
 10
2871.493333821982
 20
1671.014437768559
 30
0.0
 40
30.0
 41
0.0
 71
     5
 72
     1
  1
\A1;80
  7
SANWA
 73
     1
 44
1.0
  0
POINT
  5
A522
330
8CC4
100
AcDbEntity
  8
DEFPOINTS
 62
     0
 48
20.0
100
AcDbPoint
 10
2831.493333821983
 20
1534.522199878661
 30
0.0
  0
POINT
  5
A523
330
8CC4
100
AcDbEntity
  8
DEFPOINTS
 62
     0
 48
20.0
100
AcDbPoint
 10
2911.493333821982
 20
1534.522199878661
 30
0.0
  0
POINT
  5
A524
330
8CC4
100
AcDbEntity
  8
DEFPOINTS
 62
     0
 48
20.0
100
AcDbPoint
 10
2911.493333821982
 20
1641.014437768559
 30
0.0
  0
ENDBLK
  5
8CCF
330
8CC4
100
AcDbEntity
  8
0
 48
20.0
100
AcDbBlockEnd
  0
BLOCK
  5
8CDD
330
8CD1
100
AcDbEntity
  8
0
 48
20.0
100
AcDbBlockBegin
  2
*D10
 70
     1
 10
0.0
 20
0.0
 30
0.0
  3
*D10
  1

  0
LINE
  5
A525
330
8CD1
100
AcDbEntity
  8
寸法引出
 48
20.0
370
    -2
100
AcDbLine
 10
2911.493333821982
 20
1549.522199878661
 30
0.0
 11
2911.493333821982
 21
1648.514437768559
 31
0.0
  0
LINE
  5
A526
330
8CD1
100
AcDbEntity
  8
寸法引出
 48
20.0
370
    -2
100
AcDbLine
 10
2921.493333821984
 20
1559.522199878661
 30
0.0
 11
2921.493333821984
 21
1648.514437768559
 31
0.0
  0
LINE
  5
A527
330
8CD1
100
AcDbEntity
  8
寸法引出
 48
20.0
370
    -2
100
AcDbLine
 10
2888.993333821982
 20
1641.014437768559
 30
0.0
 11
2866.493333821982
 21
1641.014437768559
 31
0.0
  0
LINE
  5
A528
330
8CD1
100
AcDbEntity
  8
寸法引出
 48
20.0
370
    -2
100
AcDbLine
 10
2943.993333821984
 20
1641.014437768559
 30
0.0
 11
2966.493333821984
 21
1641.014437768559
 31
0.0
  0
MTEXT
  5
A529
330
8CD1
100
AcDbEntity
  8
寸法引出
 48
20.0
100
AcDbMText
 10
2940.275740850098
 20
1671.641686699322
 30
0.0
 40
30.0
 41
0.0
 71
     5
 72
     1
  1
\A1;10
  7
SANWA
 73
     1
 44
1.0
  0
LINE
  5
A52A
330
8CD1
100
AcDbEntity
  8
寸法引出
 48
20.0
370
    -2
100
AcDbLine
 10
2911.493333821982
 20
1641.014437768559
 30
0.0
 11
2921.493333821984
 21
1641.014437768559
 31
0.0
  0
SOLID
  5
A52B
330
8CD1
100
AcDbEntity
  8
寸法引出
 48
20.0
100
AcDbTrace
 10
2888.993333821982
 20
1644.764437768559
 30
0.0
 11
2888.993333821982
 21
1637.264437768559
 31
0.0
 12
2911.493333821982
 22
1641.014437768559
 32
0.0
 13
2911.493333821982
 23
1641.014437768559
 33
0.0
  0
SOLID
  5
A52C
330
8CD1
100
AcDbEntity
  8
寸法引出
 48
20.0
100
AcDbTrace
 10
2943.993333821984
 20
1644.764437768559
 30
0.0
 11
2943.993333821984
 21
1637.264437768559
 31
0.0
 12
2921.493333821984
 22
1641.014437768559
 32
0.0
 13
2921.493333821984
 23
1641.014437768559
 33
0.0
  0
POINT
  5
A52D
330
8CD1
100
AcDbEntity
  8
DEFPOINTS
 62
     0
 48
20.0
100
AcDbPoint
 10
2911.493333821982
 20
1534.522199878661
 30
0.0
  0
POINT
  5
A52E
330
8CD1
100
AcDbEntity
  8
DEFPOINTS
 62
     0
 48
20.0
100
AcDbPoint
 10
2921.493333821984
 20
1544.522199878661
 30
0.0
  0
POINT
  5
A52F
330
8CD1
100
AcDbEntity
  8
DEFPOINTS
 62
     0
 48
20.0
100
AcDbPoint
 10
2921.493333821984
 20
1641.014437768559
 30
0.0
  0
ENDBLK
  5
8CDE
330
8CD1
100
AcDbEntity
  8
0
 48
20.0
100
AcDbBlockEnd
  0
BLOCK
  5
8D94
330
8D8A
100
AcDbEntity
  8
0
 48
20.0
100
AcDbBlockBegin
  2
*D11
 70
     1
 10
0.0
 20
0.0
 30
0.0
  3
*D11
  1

  0
LINE
  5
A530
330
8D8A
100
AcDbEntity
  8
寸法引出
 48
20.0
370
    -2
100
AcDbLine
 10
3885.493333821983
 20
1848.522199878661
 30
0.0
 11
3964.658892171228
 21
1848.522199878661
 31
0.0
  0
LINE
  5
A531
330
8D8A
100
AcDbEntity
  8
寸法引出
 48
20.0
370
    -2
100
AcDbLine
 10
3885.493333821983
 20
1494.522199878662
 30
0.0
 11
3964.658892171228
 21
1494.522199878662
 31
0.0
  0
LINE
  5
A532
330
8D8A
100
AcDbEntity
  8
寸法引出
 48
20.0
370
    -2
100
AcDbLine
 10
3957.158892171228
 20
1826.022199878661
 30
0.0
 11
3957.158892171228
 21
1517.022199878662
 31
0.0
  0
SOLID
  5
A533
330
8D8A
100
AcDbEntity
  8
寸法引出
 48
20.0
100
AcDbTrace
 10
3953.408892171228
 20
1826.022199878661
 30
0.0
 11
3960.908892171228
 21
1826.022199878661
 31
0.0
 12
3957.158892171228
 22
1848.522199878661
 32
0.0
 13
3957.158892171228
 23
1848.522199878661
 33
0.0
  0
SOLID
  5
A534
330
8D8A
100
AcDbEntity
  8
寸法引出
 48
20.0
100
AcDbTrace
 10
3953.408892171228
 20
1517.022199878662
 30
0.0
 11
3960.908892171228
 21
1517.022199878662
 31
0.0
 12
3957.158892171228
 22
1494.522199878662
 32
0.0
 13
3957.158892171228
 23
1494.522199878662
 33
0.0
  0
MTEXT
  5
A535
330
8D8A
100
AcDbEntity
  8
寸法引出
 48
20.0
100
AcDbMText
 10
3927.158892171227
 20
1671.522199878662
 30
0.0
 40
30.0
 41
0.0
 71
     5
 72
     1
  1
\A1;354
  7
SANWA
 11
0.0000000000000001
 21
1.0
 31
0.0
 73
     1
 44
1.0
  0
POINT
  5
A536
330
8D8A
100
AcDbEntity
  8
DEFPOINTS
 62
     0
 48
20.0
100
AcDbPoint
 10
3870.493333821984
 20
1848.522199878661
 30
0.0
  0
POINT
  5
A537
330
8D8A
100
AcDbEntity
  8
DEFPOINTS
 62
     0
 48
20.0
100
AcDbPoint
 10
3870.493333821984
 20
1494.522199878662
 30
0.0
  0
POINT
  5
A538
330
8D8A
100
AcDbEntity
  8
DEFPOINTS
 62
     0
 48
20.0
100
AcDbPoint
 10
3957.158892171228
 20
1494.522199878662
 30
0.0
  0
ENDBLK
  5
8D95
330
8D8A
100
AcDbEntity
  8
0
 48
20.0
100
AcDbBlockEnd
  0
BLOCK
  5
8DA1
330
8D97
100
AcDbEntity
  8
0
 48
20.0
100
AcDbBlockBegin
  2
*D12
 70
     1
 10
0.0
 20
0.0
 30
0.0
  3
*D12
  1

  0
LINE
  5
A539
330
8D97
100
AcDbEntity
  8
寸法引出
 48
20.0
370
    -2
100
AcDbLine
 10
3885.493333821983
 20
1494.522199878662
 30
0.0
 11
3964.658892171228
 21
1494.522199878662
 31
0.0
  0
LINE
  5
A53A
330
8D97
100
AcDbEntity
  8
寸法引出
 48
20.0
370
    -2
100
AcDbLine
 10
3885.493333821983
 20
1293.522199878661
 30
0.0
 11
3964.658892171228
 21
1293.522199878661
 31
0.0
  0
LINE
  5
A53B
330
8D97
100
AcDbEntity
  8
寸法引出
 48
20.0
370
    -2
100
AcDbLine
 10
3957.158892171228
 20
1472.022199878662
 30
0.0
 11
3957.158892171228
 21
1316.022199878661
 31
0.0
  0
SOLID
  5
A53C
330
8D97
100
AcDbEntity
  8
寸法引出
 48
20.0
100
AcDbTrace
 10
3953.408892171228
 20
1472.022199878662
 30
0.0
 11
3960.908892171228
 21
1472.022199878662
 31
0.0
 12
3957.158892171228
 22
1494.522199878662
 32
0.0
 13
3957.158892171228
 23
1494.522199878662
 33
0.0
  0
SOLID
  5
A53D
330
8D97
100
AcDbEntity
  8
寸法引出
 48
20.0
100
AcDbTrace
 10
3953.408892171228
 20
1316.022199878661
 30
0.0
 11
3960.908892171228
 21
1316.022199878661
 31
0.0
 12
3957.158892171228
 22
1293.522199878661
 32
0.0
 13
3957.158892171228
 23
1293.522199878661
 33
0.0
  0
MTEXT
  5
A53E
330
8D97
100
AcDbEntity
  8
寸法引出
 48
20.0
100
AcDbMText
 10
3927.158892171227
 20
1394.022199878662
 30
0.0
 40
30.0
 41
0.0
 71
     5
 72
     1
  1
\A1;201
  7
SANWA
 11
0.0000000000000001
 21
1.0
 31
0.0
 73
     1
 44
1.0
  0
POINT
  5
A53F
330
8D97
100
AcDbEntity
  8
DEFPOINTS
 62
     0
 48
20.0
100
AcDbPoint
 10
3870.493333821984
 20
1494.522199878662
 30
0.0
  0
POINT
  5
A540
330
8D97
100
AcDbEntity
  8
DEFPOINTS
 62
     0
 48
20.0
100
AcDbPoint
 10
3870.493333821984
 20
1293.522199878661
 30
0.0
  0
POINT
  5
A541
330
8D97
100
AcDbEntity
  8
DEFPOINTS
 62
     0
 48
20.0
100
AcDbPoint
 10
3957.158892171228
 20
1293.522199878661
 30
0.0
  0
ENDBLK
  5
8DA2
330
8D97
100
AcDbEntity
  8
0
 48
20.0
100
AcDbBlockEnd
  0
BLOCK
  5
8DAE
330
8DA4
100
AcDbEntity
  8
0
 48
20.0
100
AcDbBlockBegin
  2
*D13
 70
     1
 10
0.0
 20
0.0
 30
0.0
  3
*D13
  1

  0
LINE
  5
A454
330
8DA4
100
AcDbEntity
  8
寸法引出
 48
20.0
370
    -2
100
AcDbLine
 10
1872.493333821983
 20
1863.522199878661
 30
0.0
 11
1872.493333821983
 21
1967.088187880059
 31
0.0
  0
LINE
  5
A455
330
8DA4
100
AcDbEntity
  8
寸法引出
 48
20.0
370
    -2
100
AcDbLine
 10
3870.493333821984
 20
1863.522199878661
 30
0.0
 11
3870.493333821984
 21
1967.088187880059
 31
0.0
  0
LINE
  5
A456
330
8DA4
100
AcDbEntity
  8
寸法引出
 48
20.0
370
    -2
100
AcDbLine
 10
1894.993333821983
 20
1959.588187880059
 30
0.0
 11
3847.993333821984
 21
1959.588187880059
 31
0.0
  0
SOLID
  5
A457
330
8DA4
100
AcDbEntity
  8
寸法引出
 48
20.0
100
AcDbTrace
 10
1894.993333821983
 20
1963.338187880059
 30
0.0
 11
1894.993333821983
 21
1955.838187880059
 31
0.0
 12
1872.493333821983
 22
1959.588187880059
 32
0.0
 13
1872.493333821983
 23
1959.588187880059
 33
0.0
  0
SOLID
  5
A458
330
8DA4
100
AcDbEntity
  8
寸法引出
 48
20.0
100
AcDbTrace
 10
3847.993333821984
 20
1963.338187880059
 30
0.0
 11
3847.993333821984
 21
1955.838187880059
 31
0.0
 12
3870.493333821984
 22
1959.588187880059
 32
0.0
 13
3870.493333821984
 23
1959.588187880059
 33
0.0
  0
MTEXT
  5
A459
330
8DA4
100
AcDbEntity
  8
寸法引出
 48
20.0
100
AcDbMText
 10
2871.493333821983
 20
1989.588187880059
 30
0.0
 40
30.0
 41
0.0
 71
     5
 72
     1
  1
\A1;1998
  7
SANWA
 73
     1
 44
1.0
  0
POINT
  5
A45A
330
8DA4
100
AcDbEntity
  8
DEFPOINTS
 62
     0
 48
20.0
100
AcDbPoint
 10
1872.493333821983
 20
1848.522199878661
 30
0.0
  0
POINT
  5
A45B
330
8DA4
100
AcDbEntity
  8
DEFPOINTS
 62
     0
 48
20.0
100
AcDbPoint
 10
3870.493333821984
 20
1848.522199878661
 30
0.0
  0
POINT
  5
A45C
330
8DA4
100
AcDbEntity
  8
DEFPOINTS
 62
     0
 48
20.0
100
AcDbPoint
 10
3870.493333821984
 20
1959.588187880059
 30
0.0
  0
ENDBLK
  5
8DAF
330
8DA4
100
AcDbEntity
  8
0
 48
20.0
100
AcDbBlockEnd
  0
BLOCK
  5
8F36
330
8F2C
100
AcDbEntity
  8
0
 48
20.0
100
AcDbBlockBegin
  2
*D14
 70
     1
 10
0.0
 20
0.0
 30
0.0
  3
*D14
  1

  0
LINE
  5
A30B
330
8F2C
100
AcDbEntity
  8
寸法引出
 48
20.0
370
    -2
100
AcDbLine
 10
1872.493333821983
 20
1399.55222456575
 30
0.0
 11
1872.493333821983
 21
1503.118212567146
 31
0.0
  0
LINE
  5
A30C
330
8F2C
100
AcDbEntity
  8
寸法引出
 48
20.0
370
    -2
100
AcDbLine
 10
3870.493333821984
 20
1399.55222456575
 30
0.0
 11
3870.493333821984
 21
1503.118212567146
 31
0.0
  0
LINE
  5
A30D
330
8F2C
100
AcDbEntity
  8
寸法引出
 48
20.0
370
    -2
100
AcDbLine
 10
1894.993333821983
 20
1495.618212567147
 30
0.0
 11
3847.993333821984
 21
1495.618212567147
 31
0.0
  0
SOLID
  5
A30E
330
8F2C
100
AcDbEntity
  8
寸法引出
 48
20.0
100
AcDbTrace
 10
1894.993333821983
 20
1499.368212567147
 30
0.0
 11
1894.993333821983
 21
1491.868212567147
 31
0.0
 12
1872.493333821983
 22
1495.618212567147
 32
0.0
 13
1872.493333821983
 23
1495.618212567147
 33
0.0
  0
SOLID
  5
A30F
330
8F2C
100
AcDbEntity
  8
寸法引出
 48
20.0
100
AcDbTrace
 10
3847.993333821984
 20
1499.368212567147
 30
0.0
 11
3847.993333821984
 21
1491.868212567147
 31
0.0
 12
3870.493333821984
 22
1495.618212567147
 32
0.0
 13
3870.493333821984
 23
1495.618212567147
 33
0.0
  0
MTEXT
  5
A310
330
8F2C
100
AcDbEntity
  8
寸法引出
 48
20.0
100
AcDbMText
 10
2871.493333821983
 20
1525.618212567146
 30
0.0
 40
30.0
 41
0.0
 71
     5
 72
     1
  1
\A1;1998
  7
SANWA
 73
     1
 44
1.0
  0
POINT
  5
A311
330
8F2C
100
AcDbEntity
  8
DEFPOINTS
 62
     0
 48
20.0
100
AcDbPoint
 10
1872.493333821983
 20
1384.55222456575
 30
0.0
  0
POINT
  5
A312
330
8F2C
100
AcDbEntity
  8
DEFPOINTS
 62
     0
 48
20.0
100
AcDbPoint
 10
3870.493333821984
 20
1384.55222456575
 30
0.0
  0
POINT
  5
A313
330
8F2C
100
AcDbEntity
  8
DEFPOINTS
 62
     0
 48
20.0
100
AcDbPoint
 10
3870.493333821984
 20
1495.618212567147
 30
0.0
  0
ENDBLK
  5
8F37
330
8F2C
100
AcDbEntity
  8
0
 48
20.0
100
AcDbBlockEnd
  0
BLOCK
  5
9081
330
9077
100
AcDbEntity
  8
0
 48
20.0
100
AcDbBlockBegin
  2
*D15
 70
     1
 10
0.0
 20
0.0
 30
0.0
  3
*D15
  1

  0
LINE
  5
A32F
330
9077
100
AcDbEntity
  8
寸法引出
 48
20.0
370
    -2
100
AcDbLine
 10
1857.493333821983
 20
1384.55222456575
 30
0.0
 11
1751.107486693144
 21
1384.55222456575
 31
0.0
  0
LINE
  5
A330
330
9077
100
AcDbEntity
  8
寸法引出
 48
20.0
370
    -2
100
AcDbLine
 10
1857.493333821983
 20
829.5522245657503
 30
0.0
 11
1751.107486693144
 21
829.5522245657505
 31
0.0
  0
LINE
  5
A331
330
9077
100
AcDbEntity
  8
寸法引出
 48
20.0
370
    -2
100
AcDbLine
 10
1758.607486693144
 20
1362.05222456575
 30
0.0
 11
1758.607486693144
 21
852.0522245657504
 31
0.0
  0
SOLID
  5
A332
330
9077
100
AcDbEntity
  8
寸法引出
 48
20.0
100
AcDbTrace
 10
1754.857486693143
 20
1362.05222456575
 30
0.0
 11
1762.357486693144
 21
1362.05222456575
 31
0.0
 12
1758.607486693144
 22
1384.55222456575
 32
0.0
 13
1758.607486693144
 23
1384.55222456575
 33
0.0
  0
SOLID
  5
A333
330
9077
100
AcDbEntity
  8
寸法引出
 48
20.0
100
AcDbTrace
 10
1754.857486693143
 20
852.0522245657504
 30
0.0
 11
1762.357486693144
 21
852.0522245657504
 31
0.0
 12
1758.607486693144
 22
829.5522245657505
 32
0.0
 13
1758.607486693144
 23
829.5522245657505
 33
0.0
  0
MTEXT
  5
A334
330
9077
100
AcDbEntity
  8
寸法引出
 48
20.0
100
AcDbMText
 10
1728.607486693143
 20
1107.05222456575
 30
0.0
 40
30.0
 41
0.0
 71
     5
 72
     1
  1
\A1;555
  7
SANWA
 11
0.0000000000000001
 21
1.0
 31
0.0
 73
     1
 44
1.0
  0
POINT
  5
A335
330
9077
100
AcDbEntity
  8
DEFPOINTS
 62
     0
 48
20.0
100
AcDbPoint
 10
1872.493333821983
 20
1384.55222456575
 30
0.0
  0
POINT
  5
A336
330
9077
100
AcDbEntity
  8
DEFPOINTS
 62
     0
 48
20.0
100
AcDbPoint
 10
1872.493333821983
 20
829.5522245657503
 30
0.0
  0
POINT
  5
A337
330
9077
100
AcDbEntity
  8
DEFPOINTS
 62
     0
 48
20.0
100
AcDbPoint
 10
1758.607486693144
 20
829.5522245657505
 30
0.0
  0
ENDBLK
  5
9082
330
9077
100
AcDbEntity
  8
0
 48
20.0
100
AcDbBlockEnd
  0
BLOCK
  5
908E
330
9084
100
AcDbEntity
  8
0
 48
20.0
100
AcDbBlockBegin
  2
*D16
 70
     1
 10
0.0
 20
0.0
 30
0.0
  3
*D16
  1

  0
LINE
  5
A4C3
330
9084
100
AcDbEntity
  8
寸法引出
 48
20.0
370
    -2
100
AcDbLine
 10
1857.493333821983
 20
1848.522199878661
 30
0.0
 11
1751.107486693144
 21
1848.522199878661
 31
0.0
  0
LINE
  5
A4C4
330
9084
100
AcDbEntity
  8
寸法引出
 48
20.0
370
    -2
100
AcDbLine
 10
1857.493333821983
 20
1293.522199878661
 30
0.0
 11
1751.107486693144
 21
1293.522199878661
 31
0.0
  0
LINE
  5
A4C5
330
9084
100
AcDbEntity
  8
寸法引出
 48
20.0
370
    -2
100
AcDbLine
 10
1758.607486693144
 20
1826.022199878661
 30
0.0
 11
1758.607486693144
 21
1316.022199878661
 31
0.0
  0
SOLID
  5
A4C6
330
9084
100
AcDbEntity
  8
寸法引出
 48
20.0
100
AcDbTrace
 10
1754.857486693144
 20
1826.022199878661
 30
0.0
 11
1762.357486693144
 21
1826.022199878661
 31
0.0
 12
1758.607486693144
 22
1848.522199878661
 32
0.0
 13
1758.607486693144
 23
1848.522199878661
 33
0.0
  0
SOLID
  5
A4C7
330
9084
100
AcDbEntity
  8
寸法引出
 48
20.0
100
AcDbTrace
 10
1754.857486693143
 20
1316.022199878661
 30
0.0
 11
1762.357486693144
 21
1316.022199878661
 31
0.0
 12
1758.607486693144
 22
1293.522199878661
 32
0.0
 13
1758.607486693144
 23
1293.522199878661
 33
0.0
  0
MTEXT
  5
A4C8
330
9084
100
AcDbEntity
  8
寸法引出
 48
20.0
100
AcDbMText
 10
1728.607486693143
 20
1571.022199878661
 30
0.0
 40
30.0
 41
0.0
 71
     5
 72
     1
  1
\A1;555
  7
SANWA
 11
0.0000000000000001
 21
1.0
 31
0.0
 73
     1
 44
1.0
  0
POINT
  5
A4C9
330
9084
100
AcDbEntity
  8
DEFPOINTS
 62
     0
 48
20.0
100
AcDbPoint
 10
1872.493333821983
 20
1848.522199878661
 30
0.0
  0
POINT
  5
A4CA
330
9084
100
AcDbEntity
  8
DEFPOINTS
 62
     0
 48
20.0
100
AcDbPoint
 10
1872.493333821983
 20
1293.522199878661
 30
0.0
  0
POINT
  5
A4CB
330
9084
100
AcDbEntity
  8
DEFPOINTS
 62
     0
 48
20.0
100
AcDbPoint
 10
1758.607486693144
 20
1293.522199878661
 30
0.0
  0
ENDBLK
  5
908F
330
9084
100
AcDbEntity
  8
0
 48
20.0
100
AcDbBlockEnd
  0
BLOCK
  5
920F
330
9203
100
AcDbEntity
  8
0
 48
20.0
100
AcDbBlockBegin
  2
*D17
 70
     1
 10
0.0
 20
0.0
 30
0.0
  3
*D17
  1

  0
LINE
  5
A40D
330
9203
100
AcDbEntity
  8
寸法引出
 48
20.0
370
    -2
100
AcDbLine
 10
2233.486632061834
 20
341.8739091623646
 30
0.0
 11
2233.486632061834
 21
523.8299438673075
 31
0.0
  0
LINE
  5
A40E
330
9203
100
AcDbEntity
  8
寸法引出
 48
20.0
370
    -2
100
AcDbLine
 10
2208.486632061834
 20
466.8739091623646
 30
0.0
 11
2208.486632061834
 21
523.8299438673075
 31
0.0
  0
LINE
  5
A40F
330
9203
100
AcDbEntity
  8
寸法引出
 48
20.0
370
    -2
100
AcDbLine
 10
2255.986632061834
 20
516.3299438673075
 30
0.0
 11
2278.486632061834
 21
516.3299438673075
 31
0.0
  0
LINE
  5
A410
330
9203
100
AcDbEntity
  8
寸法引出
 48
20.0
370
    -2
100
AcDbLine
 10
2185.986632061834
 20
516.3299438673075
 30
0.0
 11
2163.486632061834
 21
516.3299438673075
 31
0.0
  0
LINE
  5
A411
330
9203
100
AcDbEntity
  8
寸法引出
 48
20.0
370
    -2
100
AcDbLine
 10
2233.486632061834
 20
516.3299438673075
 30
0.0
 11
2208.486632061834
 21
516.3299438673075
 31
0.0
  0
SOLID
  5
A412
330
9203
100
AcDbEntity
  8
寸法引出
 48
20.0
100
AcDbTrace
 10
2255.986632061834
 20
520.0799438673075
 30
0.0
 11
2255.986632061834
 21
512.5799438673075
 31
0.0
 12
2233.486632061834
 22
516.3299438673075
 32
0.0
 13
2233.486632061834
 23
516.3299438673075
 33
0.0
  0
SOLID
  5
A413
330
9203
100
AcDbEntity
  8
寸法引出
 48
20.0
100
AcDbTrace
 10
2185.986632061834
 20
520.0799438673075
 30
0.0
 11
2185.986632061834
 21
512.5799438673075
 31
0.0
 12
2208.486632061834
 22
516.3299438673075
 32
0.0
 13
2208.486632061834
 23
516.3299438673075
 33
0.0
  0
MTEXT
  5
A414
330
9203
100
AcDbEntity
  8
寸法引出
 48
20.0
100
AcDbMText
 10
2220.986632061834
 20
546.3299438673074
 30
0.0
 40
30.0
 41
0.0
 71
     5
 72
     1
  1
\A1;5
  7
SANWA
 73
     1
 44
1.0
  0
POINT
  5
A415
330
9203
100
AcDbEntity
  8
DEFPOINTS
 62
     0
 48
20.0
100
AcDbPoint
 10
2233.486632061834
 20
326.8739091623646
 30
0.0
  0
POINT
  5
A416
330
9203
100
AcDbEntity
  8
DEFPOINTS
 62
     0
 48
20.0
100
AcDbPoint
 10
2208.486632061834
 20
451.8739091623646
 30
0.0
  0
POINT
  5
A417
330
9203
100
AcDbEntity
  8
DEFPOINTS
 62
     0
 48
20.0
100
AcDbPoint
 10
2208.486632061834
 20
516.3299438673075
 30
0.0
  0
ENDBLK
  5
9210
330
9203
100
AcDbEntity
  8
0
 48
20.0
100
AcDbBlockEnd
  0
BLOCK
  5
924E
330
9242
100
AcDbEntity
  8
0
 48
20.0
100
AcDbBlockBegin
  2
*D18
 70
     1
 10
0.0
 20
0.0
 30
0.0
  3
*D18
  1

  0
LINE
  5
A418
330
9242
100
AcDbEntity
  8
寸法引出
 48
20.0
370
    -2
100
AcDbLine
 10
2093.486632061834
 20
451.8739091623646
 30
0.0
 11
2060.498898564288
 21
451.8739091623646
 31
0.0
  0
LINE
  5
A419
330
9242
100
AcDbEntity
  8
寸法引出
 48
20.0
370
    -2
100
AcDbLine
 10
2193.486632061834
 20
421.8739091623646
 30
0.0
 11
2060.498898564288
 21
421.8739091623647
 31
0.0
  0
LINE
  5
A41A
330
9242
100
AcDbEntity
  8
寸法引出
 48
20.0
370
    -2
100
AcDbLine
 10
2067.998898564288
 20
474.3739091623647
 30
0.0
 11
2067.998898564288
 21
496.8739091623646
 31
0.0
  0
LINE
  5
A41B
330
9242
100
AcDbEntity
  8
寸法引出
 48
20.0
370
    -2
100
AcDbLine
 10
2067.998898564288
 20
399.3739091623647
 30
0.0
 11
2067.998898564288
 21
376.8739091623647
 31
0.0
  0
MTEXT
  5
A41C
330
9242
100
AcDbEntity
  8
寸法引出
 48
20.0
100
AcDbMText
 10
2034.924780979257
 20
470.6177133631134
 30
0.0
 40
30.0
 41
0.0
 71
     5
 72
     1
  1
\A1;6
  7
SANWA
 11
0.0000000000000001
 21
1.0
 31
0.0
 73
     1
 44
1.0
  0
LINE
  5
A41D
330
9242
100
AcDbEntity
  8
寸法引出
 48
20.0
370
    -2
100
AcDbLine
 10
2067.998898564288
 20
451.8739091623646
 30
0.0
 11
2067.998898564288
 21
421.8739091623647
 31
0.0
  0
SOLID
  5
A41E
330
9242
100
AcDbEntity
  8
寸法引出
 48
20.0
100
AcDbTrace
 10
2064.248898564288
 20
474.3739091623647
 30
0.0
 11
2071.748898564288
 21
474.3739091623647
 31
0.0
 12
2067.998898564288
 22
451.8739091623646
 32
0.0
 13
2067.998898564288
 23
451.8739091623646
 33
0.0
  0
SOLID
  5
A41F
330
9242
100
AcDbEntity
  8
寸法引出
 48
20.0
100
AcDbTrace
 10
2064.248898564288
 20
399.3739091623647
 30
0.0
 11
2071.748898564288
 21
399.3739091623647
 31
0.0
 12
2067.998898564288
 22
421.8739091623647
 32
0.0
 13
2067.998898564288
 23
421.8739091623647
 33
0.0
  0
POINT
  5
A420
330
9242
100
AcDbEntity
  8
DEFPOINTS
 62
     0
 48
20.0
100
AcDbPoint
 10
2108.486632061834
 20
451.8739091623646
 30
0.0
  0
POINT
  5
A421
330
9242
100
AcDbEntity
  8
DEFPOINTS
 62
     0
 48
20.0
100
AcDbPoint
 10
2208.486632061834
 20
421.8739091623646
 30
0.0
  0
POINT
  5
A422
330
9242
100
AcDbEntity
  8
DEFPOINTS
 62
     0
 48
20.0
100
AcDbPoint
 10
2067.998898564288
 20
421.8739091623647
 30
0.0
  0
ENDBLK
  5
924F
330
9242
100
AcDbEntity
  8
0
 48
20.0
100
AcDbBlockEnd
  0
BLOCK
  5
925D
330
9251
100
AcDbEntity
  8
0
 48
20.0
100
AcDbBlockBegin
  2
*D19
 70
     1
 10
0.0
 20
0.0
 30
0.0
  3
*D19
  1

  0
LINE
  5
A402
330
9251
100
AcDbEntity
  8
寸法引出
 48
20.0
370
    -2
100
AcDbLine
 10
2193.486632061834
 20
421.8739091623646
 30
0.0
 11
2060.498898564288
 21
421.8739091623647
 31
0.0
  0
LINE
  5
A403
330
9251
100
AcDbEntity
  8
寸法引出
 48
20.0
370
    -2
100
AcDbLine
 10
2168.486632061834
 20
346.8739091623647
 30
0.0
 11
2060.498898564288
 21
346.8739091623647
 31
0.0
  0
LINE
  5
A404
330
9251
100
AcDbEntity
  8
寸法引出
 48
20.0
370
    -2
100
AcDbLine
 10
2067.998898564288
 20
444.3739091623647
 30
0.0
 11
2067.998898564288
 21
466.8739091623647
 31
0.0
  0
LINE
  5
A405
330
9251
100
AcDbEntity
  8
寸法引出
 48
20.0
370
    -2
100
AcDbLine
 10
2067.998898564288
 20
324.3739091623647
 30
0.0
 11
2067.998898564288
 21
301.8739091623647
 31
0.0
  0
LINE
  5
A406
330
9251
100
AcDbEntity
  8
寸法引出
 48
20.0
370
    -2
100
AcDbLine
 10
2067.998898564288
 20
421.8739091623647
 30
0.0
 11
2067.998898564288
 21
346.8739091623647
 31
0.0
  0
SOLID
  5
A407
330
9251
100
AcDbEntity
  8
寸法引出
 48
20.0
100
AcDbTrace
 10
2064.248898564288
 20
444.3739091623647
 30
0.0
 11
2071.748898564288
 21
444.3739091623647
 31
0.0
 12
2067.998898564288
 22
421.8739091623647
 32
0.0
 13
2067.998898564288
 23
421.8739091623647
 33
0.0
  0
SOLID
  5
A408
330
9251
100
AcDbEntity
  8
寸法引出
 48
20.0
100
AcDbTrace
 10
2064.248898564288
 20
324.3739091623647
 30
0.0
 11
2071.748898564288
 21
324.3739091623647
 31
0.0
 12
2067.998898564288
 22
346.8739091623647
 32
0.0
 13
2067.998898564288
 23
346.8739091623647
 33
0.0
  0
MTEXT
  5
A409
330
9251
100
AcDbEntity
  8
寸法引出
 48
20.0
100
AcDbMText
 10
2037.998898564288
 20
384.373909162365
 30
0.0
 40
30.0
 41
0.0
 71
     5
 72
     1
  1
\A1;15
  7
SANWA
 11
0.0000000000000001
 21
1.0
 31
0.0
 73
     1
 44
1.0
  0
POINT
  5
A40A
330
9251
100
AcDbEntity
  8
DEFPOINTS
 62
     0
 48
20.0
100
AcDbPoint
 10
2208.486632061834
 20
421.8739091623646
 30
0.0
  0
POINT
  5
A40B
330
9251
100
AcDbEntity
  8
DEFPOINTS
 62
     0
 48
20.0
100
AcDbPoint
 10
2183.486632061834
 20
346.8739091623646
 30
0.0
  0
POINT
  5
A40C
330
9251
100
AcDbEntity
  8
DEFPOINTS
 62
     0
 48
20.0
100
AcDbPoint
 10
2067.998898564288
 20
346.8739091623647
 30
0.0
  0
ENDBLK
  5
925E
330
9251
100
AcDbEntity
  8
0
 48
20.0
100
AcDbBlockEnd
  0
BLOCK
  5
926C
330
9260
100
AcDbEntity
  8
0
 48
20.0
100
AcDbBlockBegin
  2
*D20
 70
     1
 10
0.0
 20
0.0
 30
0.0
  3
*D20
  1

  0
LINE
  5
A3F7
330
9260
100
AcDbEntity
  8
寸法引出
 48
20.0
370
    -2
100
AcDbLine
 10
2168.486632061834
 20
346.8739091623647
 30
0.0
 11
2060.498898564288
 21
346.8739091623647
 31
0.0
  0
LINE
  5
A3F8
330
9260
100
AcDbEntity
  8
寸法引出
 48
20.0
370
    -2
100
AcDbLine
 10
2218.486632061834
 20
326.8739091623646
 30
0.0
 11
2060.498898564288
 21
326.8739091623647
 31
0.0
  0
LINE
  5
A3F9
330
9260
100
AcDbEntity
  8
寸法引出
 48
20.0
370
    -2
100
AcDbLine
 10
2067.998898564288
 20
369.3739091623647
 30
0.0
 11
2067.998898564288
 21
391.8739091623647
 31
0.0
  0
LINE
  5
A3FA
330
9260
100
AcDbEntity
  8
寸法引出
 48
20.0
370
    -2
100
AcDbLine
 10
2067.998898564288
 20
304.3739091623647
 30
0.0
 11
2067.998898564288
 21
281.8739091623647
 31
0.0
  0
MTEXT
  5
A3FB
330
9260
100
AcDbEntity
  8
寸法引出
 48
20.0
100
AcDbMText
 10
2037.526880556331
 20
310.2468665806245
 30
0.0
 40
30.0
 41
0.0
 71
     5
 72
     1
  1
\A1;4
  7
SANWA
 11
0.0000000000000001
 21
1.0
 31
0.0
 73
     1
 44
1.0
  0
LINE
  5
A3FC
330
9260
100
AcDbEntity
  8
寸法引出
 48
20.0
370
    -2
100
AcDbLine
 10
2067.998898564288
 20
346.8739091623647
 30
0.0
 11
2067.998898564288
 21
326.8739091623647
 31
0.0
  0
SOLID
  5
A3FD
330
9260
100
AcDbEntity
  8
寸法引出
 48
20.0
100
AcDbTrace
 10
2064.248898564288
 20
369.3739091623647
 30
0.0
 11
2071.748898564288
 21
369.3739091623647
 31
0.0
 12
2067.998898564288
 22
346.8739091623647
 32
0.0
 13
2067.998898564288
 23
346.8739091623647
 33
0.0
  0
SOLID
  5
A3FE
330
9260
100
AcDbEntity
  8
寸法引出
 48
20.0
100
AcDbTrace
 10
2064.248898564288
 20
304.3739091623647
 30
0.0
 11
2071.748898564288
 21
304.3739091623647
 31
0.0
 12
2067.998898564288
 22
326.8739091623647
 32
0.0
 13
2067.998898564288
 23
326.8739091623647
 33
0.0
  0
POINT
  5
A3FF
330
9260
100
AcDbEntity
  8
DEFPOINTS
 62
     0
 48
20.0
100
AcDbPoint
 10
2183.486632061834
 20
346.8739091623646
 30
0.0
  0
POINT
  5
A400
330
9260
100
AcDbEntity
  8
DEFPOINTS
 62
     0
 48
20.0
100
AcDbPoint
 10
2233.486632061834
 20
326.8739091623646
 30
0.0
  0
POINT
  5
A401
330
9260
100
AcDbEntity
  8
DEFPOINTS
 62
     0
 48
20.0
100
AcDbPoint
 10
2067.998898564288
 20
326.8739091623647
 30
0.0
  0
ENDBLK
  5
926D
330
9260
100
AcDbEntity
  8
0
 48
20.0
100
AcDbBlockEnd
  0
BLOCK
  5
929C
330
9290
100
AcDbEntity
  8
0
 48
20.0
100
AcDbBlockBegin
  2
*D21
 70
     1
 10
0.0
 20
0.0
 30
0.0
  3
*D21
  1

  0
LINE
  5
A3EC
330
9290
100
AcDbEntity
  8
寸法引出
 48
20.0
370
    -2
100
AcDbLine
 10
2183.486632061834
 20
331.8739091623646
 30
0.0
 11
2183.486632061834
 21
249.7771056499749
 31
0.0
  0
LINE
  5
A3ED
330
9290
100
AcDbEntity
  8
寸法引出
 48
20.0
370
    -2
100
AcDbLine
 10
2233.486632061834
 20
311.8739091623646
 30
0.0
 11
2233.486632061834
 21
249.7771056499749
 31
0.0
  0
LINE
  5
A3EE
330
9290
100
AcDbEntity
  8
寸法引出
 48
20.0
370
    -2
100
AcDbLine
 10
2160.986632061834
 20
257.277105649975
 30
0.0
 11
2138.486632061834
 21
257.277105649975
 31
0.0
  0
LINE
  5
A3EF
330
9290
100
AcDbEntity
  8
寸法引出
 48
20.0
370
    -2
100
AcDbLine
 10
2255.986632061834
 20
257.277105649975
 30
0.0
 11
2278.486632061834
 21
257.277105649975
 31
0.0
  0
LINE
  5
A3F0
330
9290
100
AcDbEntity
  8
寸法引出
 48
20.0
370
    -2
100
AcDbLine
 10
2183.486632061834
 20
257.277105649975
 30
0.0
 11
2233.486632061834
 21
257.277105649975
 31
0.0
  0
SOLID
  5
A3F1
330
9290
100
AcDbEntity
  8
寸法引出
 48
20.0
100
AcDbTrace
 10
2160.986632061834
 20
261.027105649975
 30
0.0
 11
2160.986632061834
 21
253.527105649975
 31
0.0
 12
2183.486632061834
 22
257.277105649975
 32
0.0
 13
2183.486632061834
 23
257.277105649975
 33
0.0
  0
SOLID
  5
A3F2
330
9290
100
AcDbEntity
  8
寸法引出
 48
20.0
100
AcDbTrace
 10
2255.986632061834
 20
261.027105649975
 30
0.0
 11
2255.986632061834
 21
253.527105649975
 31
0.0
 12
2233.486632061834
 22
257.277105649975
 32
0.0
 13
2233.486632061834
 23
257.277105649975
 33
0.0
  0
MTEXT
  5
A3F3
330
9290
100
AcDbEntity
  8
寸法引出
 48
20.0
100
AcDbMText
 10
2208.486632061834
 20
287.2771056499749
 30
0.0
 40
30.0
 41
0.0
 71
     5
 72
     1
  1
\A1;10
  7
SANWA
 73
     1
 44
1.0
  0
POINT
  5
A3F4
330
9290
100
AcDbEntity
  8
DEFPOINTS
 62
     0
 48
20.0
100
AcDbPoint
 10
2183.486632061834
 20
346.8739091623646
 30
0.0
  0
POINT
  5
A3F5
330
9290
100
AcDbEntity
  8
DEFPOINTS
 62
     0
 48
20.0
100
AcDbPoint
 10
2233.486632061834
 20
326.8739091623646
 30
0.0
  0
POINT
  5
A3F6
330
9290
100
AcDbEntity
  8
DEFPOINTS
 62
     0
 48
20.0
100
AcDbPoint
 10
2233.486632061834
 20
257.277105649975
 30
0.0
  0
ENDBLK
  5
929D
330
9290
100
AcDbEntity
  8
0
 48
20.0
100
AcDbBlockEnd
  0
BLOCK
  5
981E
330
9812
100
AcDbEntity
  8
0
 48
20.0
100
AcDbBlockBegin
  2
*D22
 70
     1
 10
0.0
 20
0.0
 30
0.0
  3
*D22
  1

  0
LINE
  5
A489
330
9812
100
AcDbEntity
  8
寸法引出
 48
20.0
370
    -2
100
AcDbLine
 10
934.5782198007615
 20
1373.522199878661
 30
0.0
 11
934.5782198007615
 21
1562.025854245047
 31
0.0
  0
LINE
  5
A48A
330
9812
100
AcDbEntity
  8
寸法引出
 48
20.0
370
    -2
100
AcDbLine
 10
994.5782198007615
 20
1373.522199878661
 30
0.0
 11
994.5782198007615
 21
1562.025854245047
 31
0.0
  0
LINE
  5
A48B
330
9812
100
AcDbEntity
  8
寸法引出
 48
20.0
370
    -2
100
AcDbLine
 10
912.0782198007615
 20
1554.525854245047
 30
0.0
 11
889.5782198007616
 21
1554.525854245047
 31
0.0
  0
LINE
  5
A48C
330
9812
100
AcDbEntity
  8
寸法引出
 48
20.0
370
    -2
100
AcDbLine
 10
1017.078219800761
 20
1554.525854245047
 30
0.0
 11
1039.578219800761
 21
1554.525854245047
 31
0.0
  0
MTEXT
  5
A48D
330
9812
100
AcDbEntity
  8
寸法引出
 48
20.0
100
AcDbMText
 10
896.2361877263353
 20
1583.46107908716
 30
0.0
 40
30.0
 41
0.0
 71
     5
 72
     1
  1
\A1;60
  7
SANWA
 73
     1
 44
1.0
  0
LINE
  5
A48E
330
9812
100
AcDbEntity
  8
寸法引出
 48
20.0
370
    -2
100
AcDbLine
 10
934.5782198007615
 20
1554.525854245047
 30
0.0
 11
994.5782198007615
 21
1554.525854245047
 31
0.0
  0
SOLID
  5
A48F
330
9812
100
AcDbEntity
  8
寸法引出
 48
20.0
100
AcDbTrace
 10
912.0782198007615
 20
1558.275854245047
 30
0.0
 11
912.0782198007615
 21
1550.775854245047
 31
0.0
 12
934.5782198007615
 22
1554.525854245047
 32
0.0
 13
934.5782198007615
 23
1554.525854245047
 33
0.0
  0
SOLID
  5
A490
330
9812
100
AcDbEntity
  8
寸法引出
 48
20.0
100
AcDbTrace
 10
1017.078219800761
 20
1558.275854245047
 30
0.0
 11
1017.078219800761
 21
1550.775854245047
 31
0.0
 12
994.5782198007615
 22
1554.525854245047
 32
0.0
 13
994.5782198007615
 23
1554.525854245047
 33
0.0
  0
POINT
  5
A491
330
9812
100
AcDbEntity
  8
DEFPOINTS
 62
     0
 48
20.0
100
AcDbPoint
 10
934.5782198007615
 20
1358.522199878661
 30
0.0
  0
POINT
  5
A492
330
9812
100
AcDbEntity
  8
DEFPOINTS
 62
     0
 48
20.0
100
AcDbPoint
 10
994.5782198007615
 20
1358.522199878661
 30
0.0
  0
POINT
  5
A493
330
9812
100
AcDbEntity
  8
DEFPOINTS
 62
     0
 48
20.0
100
AcDbPoint
 10
994.5782198007615
 20
1554.525854245047
 30
0.0
  0
ENDBLK
  5
981F
330
9812
100
AcDbEntity
  8
0
 48
20.0
100
AcDbBlockEnd
  0
BLOCK
  5
982B
330
9821
100
AcDbEntity
  8
0
 48
20.0
100
AcDbBlockBegin
  2
*D23
 70
     1
 10
0.0
 20
0.0
 30
0.0
  3
*D23
  1

  0
LINE
  5
A4D5
330
9821
100
AcDbEntity
  8
寸法引出
 48
20.0
370
    -2
100
AcDbLine
 10
994.5782198007615
 20
1373.522199878661
 30
0.0
 11
994.5782198007615
 21
1562.025854245047
 31
0.0
  0
LINE
  5
A4D6
330
9821
100
AcDbEntity
  8
寸法引出
 48
20.0
370
    -2
100
AcDbLine
 10
1362.57821980076
 20
1373.522199878661
 30
0.0
 11
1362.57821980076
 21
1562.025854245047
 31
0.0
  0
LINE
  5
A4D7
330
9821
100
AcDbEntity
  8
寸法引出
 48
20.0
370
    -2
100
AcDbLine
 10
1017.078219800761
 20
1554.525854245047
 30
0.0
 11
1340.07821980076
 21
1554.525854245047
 31
0.0
  0
SOLID
  5
A4D8
330
9821
100
AcDbEntity
  8
寸法引出
 48
20.0
100
AcDbTrace
 10
1017.078219800761
 20
1558.275854245047
 30
0.0
 11
1017.078219800761
 21
1550.775854245047
 31
0.0
 12
994.5782198007615
 22
1554.525854245047
 32
0.0
 13
994.5782198007615
 23
1554.525854245047
 33
0.0
  0
SOLID
  5
A4D9
330
9821
100
AcDbEntity
  8
寸法引出
 48
20.0
100
AcDbTrace
 10
1340.07821980076
 20
1558.275854245047
 30
0.0
 11
1340.07821980076
 21
1550.775854245047
 31
0.0
 12
1362.57821980076
 22
1554.525854245047
 32
0.0
 13
1362.57821980076
 23
1554.525854245047
 33
0.0
  0
MTEXT
  5
A4DA
330
9821
100
AcDbEntity
  8
寸法引出
 48
20.0
100
AcDbMText
 10
1178.57821980076
 20
1584.525854245047
 30
0.0
 40
30.0
 41
0.0
 71
     5
 72
     1
  1
\A1;368
  7
SANWA
 73
     1
 44
1.0
  0
POINT
  5
A4DB
330
9821
100
AcDbEntity
  8
DEFPOINTS
 62
     0
 48
20.0
100
AcDbPoint
 10
994.5782198007615
 20
1358.522199878661
 30
0.0
  0
POINT
  5
A4DC
330
9821
100
AcDbEntity
  8
DEFPOINTS
 62
     0
 48
20.0
100
AcDbPoint
 10
1362.57821980076
 20
1358.522199878661
 30
0.0
  0
POINT
  5
A4DD
330
9821
100
AcDbEntity
  8
DEFPOINTS
 62
     0
 48
20.0
100
AcDbPoint
 10
1362.57821980076
 20
1554.525854245047
 30
0.0
  0
ENDBLK
  5
982C
330
9821
100
AcDbEntity
  8
0
 48
20.0
100
AcDbBlockEnd
  0
BLOCK
  5
9850
330
9846
100
AcDbEntity
  8
0
 48
20.0
100
AcDbBlockBegin
  2
*D24
 70
     1
 10
0.0
 20
0.0
 30
0.0
  3
*D24
  1

  0
LINE
  5
A4B1
330
9846
100
AcDbEntity
  8
寸法引出
 48
20.0
370
    -2
100
AcDbLine
 10
893.5782198007601
 20
1758.522199878661
 30
0.0
 11
793.4095255738172
 21
1758.522199878661
 31
0.0
  0
LINE
  5
A4B2
330
9846
100
AcDbEntity
  8
寸法引出
 48
20.0
370
    -2
100
AcDbLine
 10
919.5782198007615
 20
1358.522199878661
 30
0.0
 11
793.4095255738172
 21
1358.522199878661
 31
0.0
  0
LINE
  5
A4B3
330
9846
100
AcDbEntity
  8
寸法引出
 48
20.0
370
    -2
100
AcDbLine
 10
800.9095255738172
 20
1736.022199878661
 30
0.0
 11
800.9095255738172
 21
1381.022199878661
 31
0.0
  0
SOLID
  5
A4B4
330
9846
100
AcDbEntity
  8
寸法引出
 48
20.0
100
AcDbTrace
 10
797.1595255738171
 20
1736.022199878661
 30
0.0
 11
804.6595255738171
 21
1736.022199878661
 31
0.0
 12
800.9095255738172
 22
1758.522199878661
 32
0.0
 13
800.9095255738172
 23
1758.522199878661
 33
0.0
  0
SOLID
  5
A4B5
330
9846
100
AcDbEntity
  8
寸法引出
 48
20.0
100
AcDbTrace
 10
797.1595255738171
 20
1381.022199878661
 30
0.0
 11
804.6595255738171
 21
1381.022199878661
 31
0.0
 12
800.9095255738172
 22
1358.522199878661
 32
0.0
 13
800.9095255738172
 23
1358.522199878661
 33
0.0
  0
MTEXT
  5
A4B6
330
9846
100
AcDbEntity
  8
寸法引出
 48
20.0
100
AcDbMText
 10
770.9095255738169
 20
1558.522199878661
 30
0.0
 40
30.0
 41
0.0
 71
     5
 72
     1
  1
\A1;400
  7
SANWA
 11
0.0000000000000001
 21
1.0
 31
0.0
 73
     1
 44
1.0
  0
POINT
  5
A4B7
330
9846
100
AcDbEntity
  8
DEFPOINTS
 62
     0
 48
20.0
100
AcDbPoint
 10
908.5782198007601
 20
1758.522199878661
 30
0.0
  0
POINT
  5
A4B8
330
9846
100
AcDbEntity
  8
DEFPOINTS
 62
     0
 48
20.0
100
AcDbPoint
 10
934.5782198007615
 20
1358.522199878661
 30
0.0
  0
POINT
  5
A4B9
330
9846
100
AcDbEntity
  8
DEFPOINTS
 62
     0
 48
20.0
100
AcDbPoint
 10
800.9095255738172
 20
1358.522199878661
 30
0.0
  0
ENDBLK
  5
9851
330
9846
100
AcDbEntity
  8
0
 48
20.0
100
AcDbBlockEnd
  0
BLOCK
  5
985F
330
9853
100
AcDbEntity
  8
0
 48
20.0
100
AcDbBlockBegin
  2
*D25
 70
     1
 10
0.0
 20
0.0
 30
0.0
  3
*D25
  1

  0
LINE
  5
A494
330
9853
100
AcDbEntity
  8
寸法引出
 48
20.0
370
    -2
100
AcDbLine
 10
919.5782198007615
 20
1358.522199878661
 30
0.0
 11
793.4095255738172
 21
1358.522199878661
 31
0.0
  0
LINE
  5
A495
330
9853
100
AcDbEntity
  8
寸法引出
 48
20.0
370
    -2
100
AcDbLine
 10
943.8032198007615
 20
1293.522199878662
 30
0.0
 11
793.4095255738172
 21
1293.522199878662
 31
0.0
  0
LINE
  5
A496
330
9853
100
AcDbEntity
  8
寸法引出
 48
20.0
370
    -2
100
AcDbLine
 10
800.9095255738172
 20
1381.022199878661
 30
0.0
 11
800.9095255738172
 21
1403.522199878661
 31
0.0
  0
LINE
  5
A497
330
9853
100
AcDbEntity
  8
寸法引出
 48
20.0
370
    -2
100
AcDbLine
 10
800.909525573817
 20
1271.022199878662
 30
0.0
 11
800.909525573817
 21
1248.522199878662
 31
0.0
  0
LINE
  5
A498
330
9853
100
AcDbEntity
  8
寸法引出
 48
20.0
370
    -2
100
AcDbLine
 10
800.9095255738172
 20
1358.522199878661
 30
0.0
 11
800.9095255738172
 21
1293.522199878662
 31
0.0
  0
SOLID
  5
A499
330
9853
100
AcDbEntity
  8
寸法引出
 48
20.0
100
AcDbTrace
 10
797.1595255738171
 20
1381.022199878661
 30
0.0
 11
804.6595255738171
 21
1381.022199878661
 31
0.0
 12
800.9095255738172
 22
1358.522199878661
 32
0.0
 13
800.9095255738172
 23
1358.522199878661
 33
0.0
  0
SOLID
  5
A49A
330
9853
100
AcDbEntity
  8
寸法引出
 48
20.0
100
AcDbTrace
 10
797.159525573817
 20
1271.022199878662
 30
0.0
 11
804.659525573817
 21
1271.022199878662
 31
0.0
 12
800.9095255738172
 22
1293.522199878662
 32
0.0
 13
800.9095255738172
 23
1293.522199878662
 33
0.0
  0
MTEXT
  5
A49B
330
9853
100
AcDbEntity
  8
寸法引出
 48
20.0
100
AcDbMText
 10
770.9095255738169
 20
1326.022199878662
 30
0.0
 40
30.0
 41
0.0
 71
     5
 72
     1
  1
\A1;65
  7
SANWA
 11
0.0000000000000001
 21
1.0
 31
0.0
 73
     1
 44
1.0
  0
POINT
  5
A49C
330
9853
100
AcDbEntity
  8
DEFPOINTS
 62
     0
 48
20.0
100
AcDbPoint
 10
934.5782198007615
 20
1358.522199878661
 30
0.0
  0
POINT
  5
A49D
330
9853
100
AcDbEntity
  8
DEFPOINTS
 62
     0
 48
20.0
100
AcDbPoint
 10
958.8032198007613
 20
1293.522199878662
 30
0.0
  0
POINT
  5
A49E
330
9853
100
AcDbEntity
  8
DEFPOINTS
 62
     0
 48
20.0
100
AcDbPoint
 10
800.9095255738172
 20
1293.522199878662
 30
0.0
  0
ENDBLK
  5
9860
330
9853
100
AcDbEntity
  8
0
 48
20.0
100
AcDbBlockEnd
  0
BLOCK
  5
986C
330
9862
100
AcDbEntity
  8
0
 48
20.0
100
AcDbBlockBegin
  2
*D26
 70
     1
 10
0.0
 20
0.0
 30
0.0
  3
*D26
  1

  0
LINE
  5
A49F
330
9862
100
AcDbEntity
  8
寸法引出
 48
20.0
370
    -2
100
AcDbLine
 10
898.0782198007601
 20
1848.522199878661
 30
0.0
 11
725.0230823022263
 21
1848.522199878661
 31
0.0
  0
LINE
  5
A4A0
330
9862
100
AcDbEntity
  8
寸法引出
 48
20.0
370
    -2
100
AcDbLine
 10
943.8032198007615
 20
1293.522199878662
 30
0.0
 11
725.0230823022262
 21
1293.522199878662
 31
0.0
  0
LINE
  5
A4A1
330
9862
100
AcDbEntity
  8
寸法引出
 48
20.0
370
    -2
100
AcDbLine
 10
732.5230823022264
 20
1826.022199878661
 30
0.0
 11
732.5230823022263
 21
1316.022199878662
 31
0.0
  0
SOLID
  5
A4A2
330
9862
100
AcDbEntity
  8
寸法引出
 48
20.0
100
AcDbTrace
 10
728.7730823022264
 20
1826.022199878661
 30
0.0
 11
736.2730823022263
 21
1826.022199878661
 31
0.0
 12
732.5230823022264
 22
1848.522199878661
 32
0.0
 13
732.5230823022264
 23
1848.522199878661
 33
0.0
  0
SOLID
  5
A4A3
330
9862
100
AcDbEntity
  8
寸法引出
 48
20.0
100
AcDbTrace
 10
728.7730823022262
 20
1316.022199878662
 30
0.0
 11
736.2730823022262
 21
1316.022199878662
 31
0.0
 12
732.5230823022263
 22
1293.522199878662
 32
0.0
 13
732.5230823022263
 23
1293.522199878662
 33
0.0
  0
MTEXT
  5
A4A4
330
9862
100
AcDbEntity
  8
寸法引出
 48
20.0
100
AcDbMText
 10
702.523082302226
 20
1571.022199878662
 30
0.0
 40
30.0
 41
0.0
 71
     5
 72
     1
  1
\A1;555
  7
SANWA
 11
0.0000000000000001
 21
1.0
 31
0.0
 73
     1
 44
1.0
  0
POINT
  5
A4A5
330
9862
100
AcDbEntity
  8
DEFPOINTS
 62
     0
 48
20.0
100
AcDbPoint
 10
913.0782198007601
 20
1848.522199878661
 30
0.0
  0
POINT
  5
A4A6
330
9862
100
AcDbEntity
  8
DEFPOINTS
 62
     0
 48
20.0
100
AcDbPoint
 10
958.8032198007613
 20
1293.522199878662
 30
0.0
  0
POINT
  5
A4A7
330
9862
100
AcDbEntity
  8
DEFPOINTS
 62
     0
 48
20.0
100
AcDbPoint
 10
732.5230823022263
 20
1293.522199878662
 30
0.0
  0
ENDBLK
  5
986D
330
9862
100
AcDbEntity
  8
0
 48
20.0
100
AcDbBlockEnd
  0
BLOCK
  5
998D
330
9983
100
AcDbEntity
  8
0
 48
20.0
100
AcDbBlockBegin
  2
*D27
 70
     1
 10
0.0
 20
0.0
 30
0.0
  3
*D27
  1

  0
LINE
  5
A31D
330
9983
100
AcDbEntity
  8
寸法引出
 48
20.0
370
    -2
100
AcDbLine
 10
908.5782198007601
 20
1395.05222456575
 30
0.0
 11
908.5782198007601
 21
1550.058837017727
 31
0.0
  0
LINE
  5
A31E
330
9983
100
AcDbEntity
  8
寸法引出
 48
20.0
370
    -2
100
AcDbLine
 10
1448.57821980076
 20
1395.052224565749
 30
0.0
 11
1448.57821980076
 21
1550.058837017727
 31
0.0
  0
LINE
  5
A31F
330
9983
100
AcDbEntity
  8
寸法引出
 48
20.0
370
    -2
100
AcDbLine
 10
931.0782198007601
 20
1542.558837017728
 30
0.0
 11
1426.07821980076
 21
1542.558837017728
 31
0.0
  0
SOLID
  5
A320
330
9983
100
AcDbEntity
  8
寸法引出
 48
20.0
100
AcDbTrace
 10
931.0782198007601
 20
1546.308837017727
 30
0.0
 11
931.0782198007601
 21
1538.808837017727
 31
0.0
 12
908.5782198007601
 22
1542.558837017728
 32
0.0
 13
908.5782198007601
 23
1542.558837017728
 33
0.0
  0
SOLID
  5
A321
330
9983
100
AcDbEntity
  8
寸法引出
 48
20.0
100
AcDbTrace
 10
1426.07821980076
 20
1546.308837017727
 30
0.0
 11
1426.07821980076
 21
1538.808837017727
 31
0.0
 12
1448.57821980076
 22
1542.558837017728
 32
0.0
 13
1448.57821980076
 23
1542.558837017728
 33
0.0
  0
MTEXT
  5
A322
330
9983
100
AcDbEntity
  8
寸法引出
 48
20.0
100
AcDbMText
 10
1178.57821980076
 20
1572.558837017727
 30
0.0
 40
30.0
 41
0.0
 71
     5
 72
     1
  1
\A1;540
  7
SANWA
 73
     1
 44
1.0
  0
POINT
  5
A323
330
9983
100
AcDbEntity
  8
DEFPOINTS
 62
     0
 48
20.0
100
AcDbPoint
 10
908.5782198007601
 20
1380.05222456575
 30
0.0
  0
POINT
  5
A324
330
9983
100
AcDbEntity
  8
DEFPOINTS
 62
     0
 48
20.0
100
AcDbPoint
 10
1448.57821980076
 20
1380.052224565749
 30
0.0
  0
POINT
  5
A325
330
9983
100
AcDbEntity
  8
DEFPOINTS
 62
     0
 48
20.0
100
AcDbPoint
 10
1448.57821980076
 20
1542.558837017728
 30
0.0
  0
ENDBLK
  5
998E
330
9983
100
AcDbEntity
  8
0
 48
20.0
100
AcDbBlockEnd
  0
BLOCK
  5
99D9
330
99CF
100
AcDbEntity
  8
0
 48
20.0
100
AcDbBlockBegin
  2
*D28
 70
     1
 10
0.0
 20
0.0
 30
0.0
  3
*D28
  1

  0
LINE
  5
A326
330
99CF
100
AcDbEntity
  8
寸法引出
 48
20.0
370
    -2
100
AcDbLine
 10
898.0782198007601
 20
1384.55222456575
 30
0.0
 11
725.0230823022263
 21
1384.55222456575
 31
0.0
  0
LINE
  5
A327
330
99CF
100
AcDbEntity
  8
寸法引出
 48
20.0
370
    -2
100
AcDbLine
 10
943.8032198007615
 20
829.5522245657506
 30
0.0
 11
725.0230823022262
 21
829.5522245657506
 31
0.0
  0
LINE
  5
A328
330
99CF
100
AcDbEntity
  8
寸法引出
 48
20.0
370
    -2
100
AcDbLine
 10
732.5230823022264
 20
1362.05222456575
 30
0.0
 11
732.5230823022263
 21
852.0522245657508
 31
0.0
  0
SOLID
  5
A329
330
99CF
100
AcDbEntity
  8
寸法引出
 48
20.0
100
AcDbTrace
 10
728.7730823022264
 20
1362.05222456575
 30
0.0
 11
736.2730823022263
 21
1362.05222456575
 31
0.0
 12
732.5230823022264
 22
1384.55222456575
 32
0.0
 13
732.5230823022264
 23
1384.55222456575
 33
0.0
  0
SOLID
  5
A32A
330
99CF
100
AcDbEntity
  8
寸法引出
 48
20.0
100
AcDbTrace
 10
728.7730823022262
 20
852.0522245657508
 30
0.0
 11
736.2730823022262
 21
852.0522245657508
 31
0.0
 12
732.5230823022263
 22
829.5522245657506
 32
0.0
 13
732.5230823022263
 23
829.5522245657506
 33
0.0
  0
MTEXT
  5
A32B
330
99CF
100
AcDbEntity
  8
寸法引出
 48
20.0
100
AcDbMText
 10
702.5230823022261
 20
1107.05222456575
 30
0.0
 40
30.0
 41
0.0
 71
     5
 72
     1
  1
\A1;555
  7
SANWA
 11
0.0000000000000001
 21
1.0
 31
0.0
 73
     1
 44
1.0
  0
POINT
  5
A32C
330
99CF
100
AcDbEntity
  8
DEFPOINTS
 62
     0
 48
20.0
100
AcDbPoint
 10
913.0782198007601
 20
1384.55222456575
 30
0.0
  0
POINT
  5
A32D
330
99CF
100
AcDbEntity
  8
DEFPOINTS
 62
     0
 48
20.0
100
AcDbPoint
 10
958.8032198007613
 20
829.5522245657506
 30
0.0
  0
POINT
  5
A32E
330
99CF
100
AcDbEntity
  8
DEFPOINTS
 62
     0
 48
20.0
100
AcDbPoint
 10
732.5230823022263
 20
829.5522245657506
 30
0.0
  0
ENDBLK
  5
99DA
330
99CF
100
AcDbEntity
  8
0
 48
20.0
100
AcDbBlockEnd
  0
BLOCK
  5
9BE0
330
9BD4
100
AcDbEntity
  8
0
 48
20.0
100
AcDbBlockBegin
  2
*D29
 70
     1
 10
0.0
 20
0.0
 30
0.0
  3
*D29
  1

  0
LINE
  5
A45D
330
9BD4
100
AcDbEntity
  8
寸法引出
 48
20.0
370
    -2
100
AcDbLine
 10
967.0782198007593
 20
1773.522199878662
 30
0.0
 11
967.0782198007593
 21
1805.276389828722
 31
0.0
  0
LINE
  5
A45E
330
9BD4
100
AcDbEntity
  8
寸法引出
 48
20.0
370
    -2
100
AcDbLine
 10
978.5782198007602
 20
1773.52219987866
 30
0.0
 11
978.5782198007602
 21
1805.276389828722
 31
0.0
  0
LINE
  5
A45F
330
9BD4
100
AcDbEntity
  8
寸法引出
 48
20.0
370
    -2
100
AcDbLine
 10
944.5782198007592
 20
1797.776389828722
 30
0.0
 11
922.0782198007592
 21
1797.776389828722
 31
0.0
  0
LINE
  5
A460
330
9BD4
100
AcDbEntity
  8
寸法引出
 48
20.0
370
    -2
100
AcDbLine
 10
1001.07821980076
 20
1797.776389828722
 30
0.0
 11
1023.57821980076
 21
1797.776389828722
 31
0.0
  0
MTEXT
  5
A461
330
9BD4
100
AcDbEntity
  8
寸法引出
 48
20.0
100
AcDbMText
 10
1002.280772209662
 20
1829.695548973634
 30
0.0
 40
30.0
 41
0.0
 71
     5
 72
     1
  1
\A1;11.5
  7
SANWA
 73
     1
 44
1.0
  0
LINE
  5
A462
330
9BD4
100
AcDbEntity
  8
寸法引出
 48
20.0
370
    -2
100
AcDbLine
 10
967.0782198007593
 20
1797.776389828722
 30
0.0
 11
978.5782198007602
 21
1797.776389828722
 31
0.0
  0
SOLID
  5
A463
330
9BD4
100
AcDbEntity
  8
寸法引出
 48
20.0
100
AcDbTrace
 10
944.5782198007592
 20
1801.526389828722
 30
0.0
 11
944.5782198007592
 21
1794.026389828722
 31
0.0
 12
967.0782198007593
 22
1797.776389828722
 32
0.0
 13
967.0782198007593
 23
1797.776389828722
 33
0.0
  0
SOLID
  5
A464
330
9BD4
100
AcDbEntity
  8
寸法引出
 48
20.0
100
AcDbTrace
 10
1001.07821980076
 20
1801.526389828722
 30
0.0
 11
1001.07821980076
 21
1794.026389828722
 31
0.0
 12
978.5782198007602
 22
1797.776389828722
 32
0.0
 13
978.5782198007602
 23
1797.776389828722
 33
0.0
  0
POINT
  5
A465
330
9BD4
100
AcDbEntity
  8
DEFPOINTS
 62
     0
 48
20.0
100
AcDbPoint
 10
967.0782198007593
 20
1758.522199878662
 30
0.0
  0
POINT
  5
A466
330
9BD4
100
AcDbEntity
  8
DEFPOINTS
 62
     0
 48
20.0
100
AcDbPoint
 10
978.5782198007602
 20
1758.522199878661
 30
0.0
  0
POINT
  5
A467
330
9BD4
100
AcDbEntity
  8
DEFPOINTS
 62
     0
 48
20.0
100
AcDbPoint
 10
978.5782198007602
 20
1797.776389828722
 30
0.0
  0
ENDBLK
  5
9BE1
330
9BD4
100
AcDbEntity
  8
0
 48
20.0
100
AcDbBlockEnd
  0
BLOCK
  5
9C05
330
9BF9
100
AcDbEntity
  8
0
 48
20.0
100
AcDbBlockBegin
  2
*D30
 70
     1
 10
0.0
 20
0.0
 30
0.0
  3
*D30
  1

  0
LINE
  5
A506
330
9BF9
100
AcDbEntity
  8
寸法引出
 48
20.0
370
    -2
100
AcDbLine
 10
982.0782198007592
 20
1758.522199878662
 30
0.0
 11
1049.824192903912
 21
1758.522199878662
 31
0.0
  0
LINE
  5
A507
330
9BF9
100
AcDbEntity
  8
寸法引出
 48
20.0
370
    -2
100
AcDbLine
 10
993.8982198007584
 20
1750.522199878662
 30
0.0
 11
1049.824192903912
 21
1750.522199878662
 31
0.0
  0
LINE
  5
A508
330
9BF9
100
AcDbEntity
  8
寸法引出
 48
20.0
370
    -2
100
AcDbLine
 10
1042.324192903912
 20
1781.022199878662
 30
0.0
 11
1042.324192903912
 21
1803.522199878662
 31
0.0
  0
LINE
  5
A509
330
9BF9
100
AcDbEntity
  8
寸法引出
 48
20.0
370
    -2
100
AcDbLine
 10
1042.324192903912
 20
1728.022199878662
 30
0.0
 11
1042.324192903912
 21
1705.522199878662
 31
0.0
  0
MTEXT
  5
A50A
330
9BF9
100
AcDbEntity
  8
寸法引出
 48
20.0
100
AcDbMText
 10
1016.764560512772
 20
1730.533350544811
 30
0.0
 40
30.0
 41
0.0
 71
     5
 72
     1
  1
\A1;8
  7
SANWA
 11
0.0000000000000001
 21
1.0
 31
0.0
 73
     1
 44
1.0
  0
LINE
  5
A50B
330
9BF9
100
AcDbEntity
  8
寸法引出
 48
20.0
370
    -2
100
AcDbLine
 10
1042.324192903912
 20
1758.522199878662
 30
0.0
 11
1042.324192903912
 21
1750.522199878662
 31
0.0
  0
SOLID
  5
A50C
330
9BF9
100
AcDbEntity
  8
寸法引出
 48
20.0
100
AcDbTrace
 10
1038.574192903912
 20
1781.022199878662
 30
0.0
 11
1046.074192903912
 21
1781.022199878662
 31
0.0
 12
1042.324192903912
 22
1758.522199878662
 32
0.0
 13
1042.324192903912
 23
1758.522199878662
 33
0.0
  0
SOLID
  5
A50D
330
9BF9
100
AcDbEntity
  8
寸法引出
 48
20.0
100
AcDbTrace
 10
1038.574192903912
 20
1728.022199878662
 30
0.0
 11
1046.074192903912
 21
1728.022199878662
 31
0.0
 12
1042.324192903912
 22
1750.522199878662
 32
0.0
 13
1042.324192903912
 23
1750.522199878662
 33
0.0
  0
POINT
  5
A50E
330
9BF9
100
AcDbEntity
  8
DEFPOINTS
 62
     0
 48
20.0
100
AcDbPoint
 10
967.0782198007593
 20
1758.522199878662
 30
0.0
  0
POINT
  5
A50F
330
9BF9
100
AcDbEntity
  8
DEFPOINTS
 62
     0
 48
20.0
100
AcDbPoint
 10
978.8982198007586
 20
1750.522199878662
 30
0.0
  0
POINT
  5
A510
330
9BF9
100
AcDbEntity
  8
DEFPOINTS
 62
     0
 48
20.0
100
AcDbPoint
 10
1042.324192903912
 20
1750.522199878662
 30
0.0
  0
ENDBLK
  5
9C06
330
9BF9
100
AcDbEntity
  8
0
 48
20.0
100
AcDbBlockEnd
  0
BLOCK
  5
9DD4
330
9DCA
100
AcDbEntity
  8
0
 48
20.0
100
AcDbBlockBegin
  2
*D31
 70
     1
 10
0.0
 20
0.0
 30
0.0
  3
*D31
  1

  0
LINE
  5
9EB6
330
9DCA
100
AcDbEntity
  8
寸法引出
 48
20.0
370
    -2
100
AcDbLine
 10
2638.779041962914
 20
3508.554769220529
 30
0.0
 11
2638.779041962914
 21
3409.260290372893
 31
0.0
  0
LINE
  5
9EB7
330
9DCA
100
AcDbEntity
  8
寸法引出
 48
20.0
370
    -2
100
AcDbLine
 10
3118.329041962915
 20
3508.554769220529
 30
0.0
 11
3118.329041962915
 21
3409.260290372893
 31
0.0
  0
LINE
  5
9EB8
330
9DCA
100
AcDbEntity
  8
寸法引出
 48
20.0
370
    -2
100
AcDbLine
 10
2661.279041962913
 20
3416.760290372894
 30
0.0
 11
3095.829041962915
 21
3416.760290372894
 31
0.0
  0
SOLID
  5
9EB9
330
9DCA
100
AcDbEntity
  8
寸法引出
 48
20.0
100
AcDbTrace
 10
2661.279041962913
 20
3420.510290372894
 30
0.0
 11
2661.279041962913
 21
3413.010290372894
 31
0.0
 12
2638.779041962914
 22
3416.760290372894
 32
0.0
 13
2638.779041962914
 23
3416.760290372894
 33
0.0
  0
SOLID
  5
9EBA
330
9DCA
100
AcDbEntity
  8
寸法引出
 48
20.0
100
AcDbTrace
 10
3095.829041962915
 20
3420.510290372894
 30
0.0
 11
3095.829041962915
 21
3413.010290372894
 31
0.0
 12
3118.329041962915
 22
3416.760290372894
 32
0.0
 13
3118.329041962915
 23
3416.760290372894
 33
0.0
  0
MTEXT
  5
9EBB
330
9DCA
100
AcDbEntity
  8
寸法引出
 48
20.0
100
AcDbMText
 10
2878.554041962914
 20
3446.760290372893
 30
0.0
 40
30.0
 41
0.0
 71
     5
 72
     1
  1
\A1;479.55
  7
SANWA
 73
     1
 44
1.0
  0
POINT
  5
9EBC
330
9DCA
100
AcDbEntity
  8
DEFPOINTS
 62
     0
 48
20.0
100
AcDbPoint
 10
2638.779041962914
 20
3523.554769220529
 30
0.0
  0
POINT
  5
9EBD
330
9DCA
100
AcDbEntity
  8
DEFPOINTS
 62
     0
 48
20.0
100
AcDbPoint
 10
3118.329041962915
 20
3523.554769220529
 30
0.0
  0
POINT
  5
9EBE
330
9DCA
100
AcDbEntity
  8
DEFPOINTS
 62
     0
 48
20.0
100
AcDbPoint
 10
3118.329041962915
 20
3416.760290372894
 30
0.0
  0
ENDBLK
  5
9DD5
330
9DCA
100
AcDbEntity
  8
0
 48
20.0
100
AcDbBlockEnd
  0
BLOCK
  5
9E49
330
9E3F
100
AcDbEntity
  8
0
 48
20.0
100
AcDbBlockBegin
  2
*D32
 70
     1
 10
0.0
 20
0.0
 30
0.0
  3
*D32
  1

  0
LINE
  5
A4CC
330
9E3F
100
AcDbEntity
  8
寸法引出
 48
20.0
370
    -2
100
AcDbLine
 10
1459.078219800758
 20
1848.522199878661
 30
0.0
 11
1536.13646473878
 21
1848.522199878661
 31
0.0
  0
LINE
  5
A4CD
330
9E3F
100
AcDbEntity
  8
寸法引出
 48
20.0
370
    -2
100
AcDbLine
 10
1449.668219800762
 20
1544.522199878662
 30
0.0
 11
1536.13646473878
 21
1544.522199878661
 31
0.0
  0
LINE
  5
A4CE
330
9E3F
100
AcDbEntity
  8
寸法引出
 48
20.0
370
    -2
100
AcDbLine
 10
1528.636464738781
 20
1826.022199878661
 30
0.0
 11
1528.636464738781
 21
1567.022199878662
 31
0.0
  0
SOLID
  5
A4CF
330
9E3F
100
AcDbEntity
  8
寸法引出
 48
20.0
100
AcDbTrace
 10
1524.886464738781
 20
1826.022199878661
 30
0.0
 11
1532.386464738781
 21
1826.022199878661
 31
0.0
 12
1528.636464738781
 22
1848.522199878661
 32
0.0
 13
1528.636464738781
 23
1848.522199878661
 33
0.0
  0
SOLID
  5
A4D0
330
9E3F
100
AcDbEntity
  8
寸法引出
 48
20.0
100
AcDbTrace
 10
1524.886464738781
 20
1567.022199878662
 30
0.0
 11
1532.386464738781
 21
1567.022199878662
 31
0.0
 12
1528.636464738781
 22
1544.522199878662
 32
0.0
 13
1528.636464738781
 23
1544.522199878662
 33
0.0
  0
MTEXT
  5
A4D1
330
9E3F
100
AcDbEntity
  8
寸法引出
 48
20.0
100
AcDbMText
 10
1498.63646473878
 20
1696.522199878662
 30
0.0
 40
30.0
 41
0.0
 71
     5
 72
     1
  1
\A1;304
  7
SANWA
 11
0.0000000000000001
 21
1.0
 31
0.0
 73
     1
 44
1.0
  0
POINT
  5
A4D2
330
9E3F
100
AcDbEntity
  8
DEFPOINTS
 62
     0
 48
20.0
100
AcDbPoint
 10
1444.078219800758
 20
1848.522199878661
 30
0.0
  0
POINT
  5
A4D3
330
9E3F
100
AcDbEntity
  8
DEFPOINTS
 62
     0
 48
20.0
100
AcDbPoint
 10
1434.668219800762
 20
1544.522199878662
 30
0.0
  0
POINT
  5
A4D4
330
9E3F
100
AcDbEntity
  8
DEFPOINTS
 62
     0
 48
20.0
100
AcDbPoint
 10
1528.636464738781
 20
1544.522199878662
 30
0.0
  0
ENDBLK
  5
9E4A
330
9E3F
100
AcDbEntity
  8
0
 48
20.0
100
AcDbBlockEnd
  0
BLOCK
  5
9E58
330
9E4C
100
AcDbEntity
  8
0
 48
20.0
100
AcDbBlockBegin
  2
*D33
 70
     1
 10
0.0
 20
0.0
 30
0.0
  3
*D33
  1

  0
LINE
  5
A4DE
330
9E4C
100
AcDbEntity
  8
寸法引出
 48
20.0
370
    -2
100
AcDbLine
 10
1449.668219800762
 20
1544.522199878662
 30
0.0
 11
1536.136464738781
 21
1544.522199878661
 31
0.0
  0
LINE
  5
A4DF
330
9E4C
100
AcDbEntity
  8
寸法引出
 48
20.0
370
    -2
100
AcDbLine
 10
1443.168219800762
 20
1534.522199878662
 30
0.0
 11
1536.13646473878
 21
1534.522199878662
 31
0.0
  0
LINE
  5
A4E0
330
9E4C
100
AcDbEntity
  8
寸法引出
 48
20.0
370
    -2
100
AcDbLine
 10
1528.636464738781
 20
1567.022199878662
 30
0.0
 11
1528.636464738781
 21
1589.522199878662
 31
0.0
  0
LINE
  5
A4E1
330
9E4C
100
AcDbEntity
  8
寸法引出
 48
20.0
370
    -2
100
AcDbLine
 10
1528.636464738781
 20
1512.022199878662
 30
0.0
 11
1528.636464738781
 21
1489.522199878662
 31
0.0
  0
MTEXT
  5
A4E2
330
9E4C
100
AcDbEntity
  8
寸法引出
 48
20.0
100
AcDbMText
 10
1561.323819241333
 20
1540.363500629849
 30
0.0
 40
30.0
 41
0.0
 71
     5
 72
     1
  1
\A1;10
  7
SANWA
 11
0.0000000000000001
 21
1.0
 31
0.0
 73
     1
 44
1.0
  0
LINE
  5
A4E3
330
9E4C
100
AcDbEntity
  8
寸法引出
 48
20.0
370
    -2
100
AcDbLine
 10
1528.636464738781
 20
1544.522199878662
 30
0.0
 11
1528.636464738781
 21
1534.522199878662
 31
0.0
  0
SOLID
  5
A4E4
330
9E4C
100
AcDbEntity
  8
寸法引出
 48
20.0
100
AcDbTrace
 10
1524.886464738781
 20
1567.022199878662
 30
0.0
 11
1532.386464738781
 21
1567.022199878662
 31
0.0
 12
1528.636464738781
 22
1544.522199878662
 32
0.0
 13
1528.636464738781
 23
1544.522199878662
 33
0.0
  0
SOLID
  5
A4E5
330
9E4C
100
AcDbEntity
  8
寸法引出
 48
20.0
100
AcDbTrace
 10
1524.886464738781
 20
1512.022199878662
 30
0.0
 11
1532.386464738781
 21
1512.022199878662
 31
0.0
 12
1528.636464738781
 22
1534.522199878662
 32
0.0
 13
1528.636464738781
 23
1534.522199878662
 33
0.0
  0
POINT
  5
A4E6
330
9E4C
100
AcDbEntity
  8
DEFPOINTS
 62
     0
 48
20.0
100
AcDbPoint
 10
1434.668219800762
 20
1544.522199878662
 30
0.0
  0
POINT
  5
A4E7
330
9E4C
100
AcDbEntity
  8
DEFPOINTS
 62
     0
 48
20.0
100
AcDbPoint
 10
1428.168219800762
 20
1534.522199878662
 30
0.0
  0
POINT
  5
A4E8
330
9E4C
100
AcDbEntity
  8
DEFPOINTS
 62
     0
 48
20.0
100
AcDbPoint
 10
1528.636464738781
 20
1534.522199878662
 30
0.0
  0
ENDBLK
  5
9E59
330
9E4C
100
AcDbEntity
  8
0
 48
20.0
100
AcDbBlockEnd
  0
BLOCK
  5
9E65
330
9E5B
100
AcDbEntity
  8
0
 48
20.0
100
AcDbBlockBegin
  2
*D34
 70
     1
 10
0.0
 20
0.0
 30
0.0
  3
*D34
  1

  0
LINE
  5
A4E9
330
9E5B
100
AcDbEntity
  8
寸法引出
 48
20.0
370
    -2
100
AcDbLine
 10
1443.168219800762
 20
1534.522199878662
 30
0.0
 11
1536.13646473878
 21
1534.522199878662
 31
0.0
  0
LINE
  5
A4EA
330
9E5B
100
AcDbEntity
  8
寸法引出
 48
20.0
370
    -2
100
AcDbLine
 10
1443.168219800762
 20
1444.522199878661
 30
0.0
 11
1536.13646473878
 21
1444.522199878661
 31
0.0
  0
LINE
  5
A4EB
330
9E5B
100
AcDbEntity
  8
寸法引出
 48
20.0
370
    -2
100
AcDbLine
 10
1528.636464738781
 20
1512.022199878662
 30
0.0
 11
1528.636464738781
 21
1467.022199878661
 31
0.0
  0
SOLID
  5
A4EC
330
9E5B
100
AcDbEntity
  8
寸法引出
 48
20.0
100
AcDbTrace
 10
1524.886464738781
 20
1512.022199878662
 30
0.0
 11
1532.386464738781
 21
1512.022199878662
 31
0.0
 12
1528.636464738781
 22
1534.522199878662
 32
0.0
 13
1528.636464738781
 23
1534.522199878662
 33
0.0
  0
SOLID
  5
A4ED
330
9E5B
100
AcDbEntity
  8
寸法引出
 48
20.0
100
AcDbTrace
 10
1524.886464738781
 20
1467.022199878661
 30
0.0
 11
1532.386464738781
 21
1467.022199878661
 31
0.0
 12
1528.636464738781
 22
1444.522199878661
 32
0.0
 13
1528.636464738781
 23
1444.522199878661
 33
0.0
  0
MTEXT
  5
A4EE
330
9E5B
100
AcDbEntity
  8
寸法引出
 48
20.0
100
AcDbMText
 10
1498.63646473878
 20
1489.522199878662
 30
0.0
 40
30.0
 41
0.0
 71
     5
 72
     1
  1
\A1;90
  7
SANWA
 11
0.0000000000000001
 21
1.0
 31
0.0
 73
     1
 44
1.0
  0
POINT
  5
A4EF
330
9E5B
100
AcDbEntity
  8
DEFPOINTS
 62
     0
 48
20.0
100
AcDbPoint
 10
1428.168219800762
 20
1534.522199878662
 30
0.0
  0
POINT
  5
A4F0
330
9E5B
100
AcDbEntity
  8
DEFPOINTS
 62
     0
 48
20.0
100
AcDbPoint
 10
1428.168219800762
 20
1444.522199878661
 30
0.0
  0
POINT
  5
A4F1
330
9E5B
100
AcDbEntity
  8
DEFPOINTS
 62
     0
 48
20.0
100
AcDbPoint
 10
1528.636464738781
 20
1444.522199878661
 30
0.0
  0
ENDBLK
  5
9E66
330
9E5B
100
AcDbEntity
  8
0
 48
20.0
100
AcDbBlockEnd
  0
BLOCK
  5
A00F
330
A003
100
AcDbEntity
  8
0
 48
20.0
100
AcDbBlockBegin
  2
*D35
 70
     1
 10
0.0
 20
0.0
 30
0.0
  3
*D35
  1

  0
LINE
  5
A1AF
330
A003
100
AcDbEntity
  8
寸法引出
 48
20.0
370
    -2
100
AcDbLine
 10
6093.394121129755
 20
2317.450245934466
 30
0.0
 11
6093.394121129755
 21
2378.42152669771
 31
0.0
  0
LINE
  5
A1B0
330
A003
100
AcDbEntity
  8
寸法引出
 48
20.0
370
    -2
100
AcDbLine
 10
6133.394121129754
 20
2321.950245934464
 30
0.0
 11
6133.394121129754
 21
2378.42152669771
 31
0.0
  0
LINE
  5
A1B1
330
A003
100
AcDbEntity
  8
寸法引出
 48
20.0
370
    -2
100
AcDbLine
 10
6070.894121129754
 20
2370.921526697709
 30
0.0
 11
6048.394121129756
 21
2370.921526697709
 31
0.0
  0
LINE
  5
A1B2
330
A003
100
AcDbEntity
  8
寸法引出
 48
20.0
370
    -2
100
AcDbLine
 10
6155.894121129755
 20
2370.921526697709
 30
0.0
 11
6178.394121129755
 21
2370.921526697709
 31
0.0
  0
MTEXT
  5
A1B3
330
A003
100
AcDbEntity
  8
寸法引出
 48
20.0
100
AcDbMText
 10
6066.586934603996
 20
2401.095806255971
 30
0.0
 40
30.0
 41
0.0
 71
     5
 72
     1
  1
\A1;40
  7
SANWA
 73
     1
 44
1.0
  0
LINE
  5
A1B4
330
A003
100
AcDbEntity
  8
寸法引出
 48
20.0
370
    -2
100
AcDbLine
 10
6093.394121129755
 20
2370.921526697709
 30
0.0
 11
6133.394121129754
 21
2370.921526697709
 31
0.0
  0
SOLID
  5
A1B5
330
A003
100
AcDbEntity
  8
寸法引出
 48
20.0
100
AcDbTrace
 10
6070.894121129754
 20
2374.67152669771
 30
0.0
 11
6070.894121129754
 21
2367.171526697708
 31
0.0
 12
6093.394121129755
 22
2370.921526697709
 32
0.0
 13
6093.394121129755
 23
2370.921526697709
 33
0.0
  0
SOLID
  5
A1B6
330
A003
100
AcDbEntity
  8
寸法引出
 48
20.0
100
AcDbTrace
 10
6155.894121129755
 20
2374.67152669771
 30
0.0
 11
6155.894121129755
 21
2367.171526697708
 31
0.0
 12
6133.394121129754
 22
2370.921526697709
 32
0.0
 13
6133.394121129754
 23
2370.921526697709
 33
0.0
  0
POINT
  5
A1B7
330
A003
100
AcDbEntity
  8
DEFPOINTS
 62
     0
 48
20.0
100
AcDbPoint
 10
6093.394121129755
 20
2302.450245934465
 30
0.0
  0
POINT
  5
A1B8
330
A003
100
AcDbEntity
  8
DEFPOINTS
 62
     0
 48
20.0
100
AcDbPoint
 10
6133.394121129754
 20
2306.950245934464
 30
0.0
  0
POINT
  5
A1B9
330
A003
100
AcDbEntity
  8
DEFPOINTS
 62
     0
 48
20.0
100
AcDbPoint
 10
6133.394121129754
 20
2370.921526697709
 30
0.0
  0
ENDBLK
  5
A010
330
A003
100
AcDbEntity
  8
0
 48
20.0
100
AcDbBlockEnd
  0
BLOCK
  5
A01D
330
A011
100
AcDbEntity
  8
0
 48
20.0
100
AcDbBlockBegin
  2
*D36
 70
     1
 10
0.0
 20
0.0
 30
0.0
  3
*D36
  1

  0
LINE
  5
A1BA
330
A011
100
AcDbEntity
  8
寸法引出
 48
20.0
370
    -2
100
AcDbLine
 10
6133.394121129754
 20
2321.950245934464
 30
0.0
 11
6133.394121129754
 21
2378.42152669771
 31
0.0
  0
LINE
  5
A1BB
330
A011
100
AcDbEntity
  8
寸法引出
 48
20.0
370
    -2
100
AcDbLine
 10
6135.894121129754
 20
2231.950245934466
 30
0.0
 11
6135.894121129754
 21
2378.42152669771
 31
0.0
  0
LINE
  5
A1BC
330
A011
100
AcDbEntity
  8
寸法引出
 48
20.0
370
    -2
100
AcDbLine
 10
6110.894121129756
 20
2370.921526697709
 30
0.0
 11
6088.394121129756
 21
2370.921526697709
 31
0.0
  0
LINE
  5
A1BD
330
A011
100
AcDbEntity
  8
寸法引出
 48
20.0
370
    -2
100
AcDbLine
 10
6158.394121129754
 20
2370.921526697709
 30
0.0
 11
6180.894121129754
 21
2370.921526697709
 31
0.0
  0
MTEXT
  5
A1BE
330
A011
100
AcDbEntity
  8
寸法引出
 48
20.0
100
AcDbMText
 10
6133.1630153199
 20
2435.138617119527
 30
0.0
 40
30.0
 41
0.0
 71
     5
 72
     1
  1
\A1;2.5
  7
SANWA
 73
     1
 44
1.0
  0
LINE
  5
A1BF
330
A011
100
AcDbEntity
  8
寸法引出
 48
20.0
370
    -2
100
AcDbLine
 10
6133.394121129754
 20
2370.921526697709
 30
0.0
 11
6135.894121129754
 21
2370.921526697709
 31
0.0
  0
SOLID
  5
A1C0
330
A011
100
AcDbEntity
  8
寸法引出
 48
20.0
100
AcDbTrace
 10
6110.894121129756
 20
2374.67152669771
 30
0.0
 11
6110.894121129756
 21
2367.171526697708
 31
0.0
 12
6133.394121129754
 22
2370.921526697709
 32
0.0
 13
6133.394121129754
 23
2370.921526697709
 33
0.0
  0
SOLID
  5
A1C1
330
A011
100
AcDbEntity
  8
寸法引出
 48
20.0
100
AcDbTrace
 10
6158.394121129754
 20
2374.67152669771
 30
0.0
 11
6158.394121129754
 21
2367.171526697708
 31
0.0
 12
6135.894121129754
 22
2370.921526697709
 32
0.0
 13
6135.894121129754
 23
2370.921526697709
 33
0.0
  0
POINT
  5
A1C2
330
A011
100
AcDbEntity
  8
DEFPOINTS
 62
     0
 48
20.0
100
AcDbPoint
 10
6133.394121129754
 20
2306.950245934464
 30
0.0
  0
POINT
  5
A1C3
330
A011
100
AcDbEntity
  8
DEFPOINTS
 62
     0
 48
20.0
100
AcDbPoint
 10
6135.894121129754
 20
2216.950245934464
 30
0.0
  0
POINT
  5
A1C4
330
A011
100
AcDbEntity
  8
DEFPOINTS
 62
     0
 48
20.0
100
AcDbPoint
 10
6135.894121129754
 20
2370.921526697709
 30
0.0
  0
ENDBLK
  5
A01E
330
A011
100
AcDbEntity
  8
0
 48
20.0
100
AcDbBlockEnd
  0
BLOCK
  5
A02B
330
A01F
100
AcDbEntity
  8
0
 48
20.0
100
AcDbBlockBegin
  2
*D37
 70
     1
 10
0.0
 20
0.0
 30
0.0
  3
*D37
  1

  0
LINE
  5
A1C5
330
A01F
100
AcDbEntity
  8
寸法引出
 48
20.0
370
    -2
100
AcDbLine
 10
6135.894121129754
 20
2231.950245934466
 30
0.0
 11
6135.894121129754
 21
2378.42152669771
 31
0.0
  0
LINE
  5
A1C6
330
A01F
100
AcDbEntity
  8
寸法引出
 48
20.0
370
    -2
100
AcDbLine
 10
6163.394121129755
 20
2231.950245934466
 30
0.0
 11
6163.394121129755
 21
2378.42152669771
 31
0.0
  0
LINE
  5
A1C7
330
A01F
100
AcDbEntity
  8
寸法引出
 48
20.0
370
    -2
100
AcDbLine
 10
6113.394121129754
 20
2370.921526697709
 30
0.0
 11
6090.894121129754
 21
2370.921526697709
 31
0.0
  0
LINE
  5
A1C8
330
A01F
100
AcDbEntity
  8
寸法引出
 48
20.0
370
    -2
100
AcDbLine
 10
6185.894121129756
 20
2370.921526697709
 30
0.0
 11
6208.394121129754
 21
2370.921526697709
 31
0.0
  0
MTEXT
  5
A1C9
330
A01F
100
AcDbEntity
  8
寸法引出
 48
20.0
100
AcDbMText
 10
6148.645809540365
 20
2399.548414353828
 30
0.0
 40
30.0
 41
0.0
 71
     5
 72
     1
  1
\A1;27.5
  7
SANWA
 73
     1
 44
1.0
  0
LINE
  5
A1CA
330
A01F
100
AcDbEntity
  8
寸法引出
 48
20.0
370
    -2
100
AcDbLine
 10
6135.894121129754
 20
2370.921526697709
 30
0.0
 11
6163.394121129755
 21
2370.921526697709
 31
0.0
  0
SOLID
  5
A1CB
330
A01F
100
AcDbEntity
  8
寸法引出
 48
20.0
100
AcDbTrace
 10
6113.394121129754
 20
2374.67152669771
 30
0.0
 11
6113.394121129754
 21
2367.171526697708
 31
0.0
 12
6135.894121129754
 22
2370.921526697709
 32
0.0
 13
6135.894121129754
 23
2370.921526697709
 33
0.0
  0
SOLID
  5
A1CC
330
A01F
100
AcDbEntity
  8
寸法引出
 48
20.0
100
AcDbTrace
 10
6185.894121129756
 20
2374.67152669771
 30
0.0
 11
6185.894121129756
 21
2367.171526697708
 31
0.0
 12
6163.394121129755
 22
2370.921526697709
 32
0.0
 13
6163.394121129755
 23
2370.921526697709
 33
0.0
  0
POINT
  5
A1CD
330
A01F
100
AcDbEntity
  8
DEFPOINTS
 62
     0
 48
20.0
100
AcDbPoint
 10
6135.894121129754
 20
2216.950245934464
 30
0.0
  0
POINT
  5
A1CE
330
A01F
100
AcDbEntity
  8
DEFPOINTS
 62
     0
 48
20.0
100
AcDbPoint
 10
6163.394121129755
 20
2216.950245934464
 30
0.0
  0
POINT
  5
A1CF
330
A01F
100
AcDbEntity
  8
DEFPOINTS
 62
     0
 48
20.0
100
AcDbPoint
 10
6163.394121129755
 20
2370.921526697709
 30
0.0
  0
ENDBLK
  5
A02C
330
A01F
100
AcDbEntity
  8
0
 48
20.0
100
AcDbBlockEnd
  0
BLOCK
  5
A037
330
A02D
100
AcDbEntity
  8
0
 48
20.0
100
AcDbBlockBegin
  2
*D38
 70
     1
 10
0.0
 20
0.0
 30
0.0
  3
*D38
  1

  0
LINE
  5
A1D0
330
A02D
100
AcDbEntity
  8
寸法引出
 48
20.0
370
    -2
100
AcDbLine
 10
6163.394121129755
 20
2231.950245934466
 30
0.0
 11
6163.394121129755
 21
2378.42152669771
 31
0.0
  0
LINE
  5
A1D1
330
A02D
100
AcDbEntity
  8
寸法引出
 48
20.0
370
    -2
100
AcDbLine
 10
6563.394121129753
 20
2231.950245934466
 30
0.0
 11
6563.394121129753
 21
2378.42152669771
 31
0.0
  0
LINE
  5
A1D2
330
A02D
100
AcDbEntity
  8
寸法引出
 48
20.0
370
    -2
100
AcDbLine
 10
6185.894121129756
 20
2370.921526697709
 30
0.0
 11
6540.894121129756
 21
2370.921526697709
 31
0.0
  0
SOLID
  5
A1D3
330
A02D
100
AcDbEntity
  8
寸法引出
 48
20.0
100
AcDbTrace
 10
6185.894121129756
 20
2374.67152669771
 30
0.0
 11
6185.894121129756
 21
2367.171526697708
 31
0.0
 12
6163.394121129755
 22
2370.921526697709
 32
0.0
 13
6163.394121129755
 23
2370.921526697709
 33
0.0
  0
SOLID
  5
A1D4
330
A02D
100
AcDbEntity
  8
寸法引出
 48
20.0
100
AcDbTrace
 10
6540.894121129756
 20
2374.67152669771
 30
0.0
 11
6540.894121129756
 21
2367.171526697708
 31
0.0
 12
6563.394121129753
 22
2370.921526697709
 32
0.0
 13
6563.394121129753
 23
2370.921526697709
 33
0.0
  0
MTEXT
  5
A1D5
330
A02D
100
AcDbEntity
  8
寸法引出
 48
20.0
100
AcDbMText
 10
6363.394121129754
 20
2400.921526697709
 30
0.0
 40
30.0
 41
0.0
 71
     5
 72
     1
  1
\A1;400
  7
SANWA
 73
     1
 44
1.0
  0
POINT
  5
A1D6
330
A02D
100
AcDbEntity
  8
DEFPOINTS
 62
     0
 48
20.0
100
AcDbPoint
 10
6163.394121129755
 20
2216.950245934464
 30
0.0
  0
POINT
  5
A1D7
330
A02D
100
AcDbEntity
  8
DEFPOINTS
 62
     0
 48
20.0
100
AcDbPoint
 10
6563.394121129753
 20
2216.950245934464
 30
0.0
  0
POINT
  5
A1D8
330
A02D
100
AcDbEntity
  8
DEFPOINTS
 62
     0
 48
20.0
100
AcDbPoint
 10
6563.394121129753
 20
2370.921526697709
 30
0.0
  0
ENDBLK
  5
A038
330
A02D
100
AcDbEntity
  8
0
 48
20.0
100
AcDbBlockEnd
  0
BLOCK
  5
A045
330
A039
100
AcDbEntity
  8
0
 48
20.0
100
AcDbBlockBegin
  2
*D39
 70
     1
 10
0.0
 20
0.0
 30
0.0
  3
*D39
  1

  0
LINE
  5
A1D9
330
A039
100
AcDbEntity
  8
寸法引出
 48
20.0
370
    -2
100
AcDbLine
 10
6563.394121129753
 20
2231.950245934466
 30
0.0
 11
6563.394121129753
 21
2378.42152669771
 31
0.0
  0
LINE
  5
A1DA
330
A039
100
AcDbEntity
  8
寸法引出
 48
20.0
370
    -2
100
AcDbLine
 10
6633.394121129756
 20
2317.450245934464
 30
0.0
 11
6633.394121129756
 21
2378.42152669771
 31
0.0
  0
LINE
  5
A1DB
330
A039
100
AcDbEntity
  8
寸法引出
 48
20.0
370
    -2
100
AcDbLine
 10
6540.894121129756
 20
2370.921526697709
 30
0.0
 11
6518.394121129754
 21
2370.921526697709
 31
0.0
  0
LINE
  5
A1DC
330
A039
100
AcDbEntity
  8
寸法引出
 48
20.0
370
    -2
100
AcDbLine
 10
6655.894121129754
 20
2370.921526697709
 30
0.0
 11
6678.394121129755
 21
2370.921526697709
 31
0.0
  0
LINE
  5
A1DD
330
A039
100
AcDbEntity
  8
寸法引出
 48
20.0
370
    -2
100
AcDbLine
 10
6563.394121129753
 20
2370.921526697709
 30
0.0
 11
6633.394121129756
 21
2370.921526697709
 31
0.0
  0
SOLID
  5
A1DE
330
A039
100
AcDbEntity
  8
寸法引出
 48
20.0
100
AcDbTrace
 10
6540.894121129756
 20
2374.67152669771
 30
0.0
 11
6540.894121129756
 21
2367.171526697708
 31
0.0
 12
6563.394121129753
 22
2370.921526697709
 32
0.0
 13
6563.394121129753
 23
2370.921526697709
 33
0.0
  0
SOLID
  5
A1DF
330
A039
100
AcDbEntity
  8
寸法引出
 48
20.0
100
AcDbTrace
 10
6655.894121129754
 20
2374.67152669771
 30
0.0
 11
6655.894121129754
 21
2367.171526697708
 31
0.0
 12
6633.394121129756
 22
2370.921526697709
 32
0.0
 13
6633.394121129756
 23
2370.921526697709
 33
0.0
  0
MTEXT
  5
A1E0
330
A039
100
AcDbEntity
  8
寸法引出
 48
20.0
100
AcDbMText
 10
6598.394121129754
 20
2400.921526697709
 30
0.0
 40
30.0
 41
0.0
 71
     5
 72
     1
  1
\A1;70
  7
SANWA
 73
     1
 44
1.0
  0
POINT
  5
A1E1
330
A039
100
AcDbEntity
  8
DEFPOINTS
 62
     0
 48
20.0
100
AcDbPoint
 10
6563.394121129753
 20
2216.950245934464
 30
0.0
  0
POINT
  5
A1E2
330
A039
100
AcDbEntity
  8
DEFPOINTS
 62
     0
 48
20.0
100
AcDbPoint
 10
6633.394121129756
 20
2302.450245934465
 30
0.0
  0
POINT
  5
A1E3
330
A039
100
AcDbEntity
  8
DEFPOINTS
 62
     0
 48
20.0
100
AcDbPoint
 10
6633.394121129756
 20
2370.921526697709
 30
0.0
  0
ENDBLK
  5
A046
330
A039
100
AcDbEntity
  8
0
 48
20.0
100
AcDbBlockEnd
  0
BLOCK
  5
A051
330
A047
100
AcDbEntity
  8
0
 48
20.0
100
AcDbBlockBegin
  2
*D40
 70
     1
 10
0.0
 20
0.0
 30
0.0
  3
*D40
  1

  0
LINE
  5
A1E4
330
A047
100
AcDbEntity
  8
寸法引出
 48
20.0
370
    -2
100
AcDbLine
 10
6093.394121129755
 20
2317.450245934466
 30
0.0
 11
6093.394121129755
 21
2472.456858386443
 31
0.0
  0
LINE
  5
A1E5
330
A047
100
AcDbEntity
  8
寸法引出
 48
20.0
370
    -2
100
AcDbLine
 10
6633.394121129756
 20
2317.450245934464
 30
0.0
 11
6633.394121129756
 21
2472.456858386443
 31
0.0
  0
LINE
  5
A1E6
330
A047
100
AcDbEntity
  8
寸法引出
 48
20.0
370
    -2
100
AcDbLine
 10
6115.894121129755
 20
2464.956858386444
 30
0.0
 11
6610.894121129755
 21
2464.956858386444
 31
0.0
  0
SOLID
  5
A1E7
330
A047
100
AcDbEntity
  8
寸法引出
 48
20.0
100
AcDbTrace
 10
6115.894121129755
 20
2468.706858386443
 30
0.0
 11
6115.894121129755
 21
2461.206858386443
 31
0.0
 12
6093.394121129755
 22
2464.956858386444
 32
0.0
 13
6093.394121129755
 23
2464.956858386444
 33
0.0
  0
SOLID
  5
A1E8
330
A047
100
AcDbEntity
  8
寸法引出
 48
20.0
100
AcDbTrace
 10
6610.894121129755
 20
2468.706858386443
 30
0.0
 11
6610.894121129755
 21
2461.206858386443
 31
0.0
 12
6633.394121129756
 22
2464.956858386444
 32
0.0
 13
6633.394121129756
 23
2464.956858386444
 33
0.0
  0
MTEXT
  5
A1E9
330
A047
100
AcDbEntity
  8
寸法引出
 48
20.0
100
AcDbMText
 10
6363.394121129754
 20
2494.956858386444
 30
0.0
 40
30.0
 41
0.0
 71
     5
 72
     1
  1
\A1;540
  7
SANWA
 73
     1
 44
1.0
  0
POINT
  5
A1EA
330
A047
100
AcDbEntity
  8
DEFPOINTS
 62
     0
 48
20.0
100
AcDbPoint
 10
6093.394121129755
 20
2302.450245934465
 30
0.0
  0
POINT
  5
A1EB
330
A047
100
AcDbEntity
  8
DEFPOINTS
 62
     0
 48
20.0
100
AcDbPoint
 10
6633.394121129756
 20
2302.450245934465
 30
0.0
  0
POINT
  5
A1EC
330
A047
100
AcDbEntity
  8
DEFPOINTS
 62
     0
 48
20.0
100
AcDbPoint
 10
6633.394121129756
 20
2464.956858386444
 30
0.0
  0
ENDBLK
  5
A052
330
A047
100
AcDbEntity
  8
0
 48
20.0
100
AcDbBlockEnd
  0
BLOCK
  5
A05D
330
A053
100
AcDbEntity
  8
0
 48
20.0
100
AcDbBlockBegin
  2
*D41
 70
     1
 10
0.0
 20
0.0
 30
0.0
  3
*D41
  1

  0
LINE
  5
A1ED
330
A053
100
AcDbEntity
  8
寸法引出
 48
20.0
370
    -2
100
AcDbLine
 10
6082.894121129754
 20
2306.950245934464
 30
0.0
 11
5978.225426902813
 21
2306.950245934464
 31
0.0
  0
LINE
  5
A1EE
330
A053
100
AcDbEntity
  8
寸法引出
 48
20.0
370
    -2
100
AcDbLine
 10
6078.394121129754
 20
2216.950245934464
 30
0.0
 11
5978.225426902813
 21
2216.950245934464
 31
0.0
  0
LINE
  5
A1EF
330
A053
100
AcDbEntity
  8
寸法引出
 48
20.0
370
    -2
100
AcDbLine
 10
5985.725426902813
 20
2284.450245934464
 30
0.0
 11
5985.725426902813
 21
2239.450245934464
 31
0.0
  0
SOLID
  5
A1F0
330
A053
100
AcDbEntity
  8
寸法引出
 48
20.0
100
AcDbTrace
 10
5981.975426902812
 20
2284.450245934464
 30
0.0
 11
5989.475426902813
 21
2284.450245934464
 31
0.0
 12
5985.725426902813
 22
2306.950245934464
 32
0.0
 13
5985.725426902813
 23
2306.950245934464
 33
0.0
  0
SOLID
  5
A1F1
330
A053
100
AcDbEntity
  8
寸法引出
 48
20.0
100
AcDbTrace
 10
5981.975426902812
 20
2239.450245934464
 30
0.0
 11
5989.475426902813
 21
2239.450245934464
 31
0.0
 12
5985.725426902813
 22
2216.950245934464
 32
0.0
 13
5985.725426902813
 23
2216.950245934464
 33
0.0
  0
MTEXT
  5
A1F2
330
A053
100
AcDbEntity
  8
寸法引出
 48
20.0
100
AcDbMText
 10
5955.725426902812
 20
2261.950245934465
 30
0.0
 40
30.0
 41
0.0
 71
     5
 72
     1
  1
\A1;90
  7
SANWA
 11
0.0000000000000001
 21
1.0
 31
0.0
 73
     1
 44
1.0
  0
POINT
  5
A1F3
330
A053
100
AcDbEntity
  8
DEFPOINTS
 62
     0
 48
20.0
100
AcDbPoint
 10
6097.894121129755
 20
2306.950245934464
 30
0.0
  0
POINT
  5
A1F4
330
A053
100
AcDbEntity
  8
DEFPOINTS
 62
     0
 48
20.0
100
AcDbPoint
 10
6093.394121129755
 20
2216.950245934464
 30
0.0
  0
POINT
  5
A1F5
330
A053
100
AcDbEntity
  8
DEFPOINTS
 62
     0
 48
20.0
100
AcDbPoint
 10
5985.725426902813
 20
2216.950245934464
 30
0.0
  0
ENDBLK
  5
A05E
330
A053
100
AcDbEntity
  8
0
 48
20.0
100
AcDbBlockEnd
  0
BLOCK
  5
A06B
330
A05F
100
AcDbEntity
  8
0
 48
20.0
100
AcDbBlockBegin
  2
*D42
 70
     1
 10
0.0
 20
0.0
 30
0.0
  3
*D42
  1

  0
LINE
  5
A1F6
330
A05F
100
AcDbEntity
  8
寸法引出
 48
20.0
370
    -2
100
AcDbLine
 10
8006.309235150981
 20
2017.950245934466
 30
0.0
 11
8006.309235150981
 21
2106.942483824363
 31
0.0
  0
LINE
  5
A1F7
330
A05F
100
AcDbEntity
  8
寸法引出
 48
20.0
370
    -2
100
AcDbLine
 10
8016.309235150979
 20
2007.950245934466
 30
0.0
 11
8016.309235150979
 21
2106.942483824363
 31
0.0
  0
LINE
  5
A1F8
330
A05F
100
AcDbEntity
  8
寸法引出
 48
20.0
370
    -2
100
AcDbLine
 10
7983.80923515098
 20
2099.442483824363
 30
0.0
 11
7961.309235150982
 21
2099.442483824363
 31
0.0
  0
LINE
  5
A1F9
330
A05F
100
AcDbEntity
  8
寸法引出
 48
20.0
370
    -2
100
AcDbLine
 10
8038.809235150978
 20
2099.442483824363
 30
0.0
 11
8061.309235150979
 21
2099.442483824363
 31
0.0
  0
MTEXT
  5
A1FA
330
A05F
100
AcDbEntity
  8
寸法引出
 48
20.0
100
AcDbMText
 10
7984.719117846161
 20
2129.671165758611
 30
0.0
 40
30.0
 41
0.0
 71
     5
 72
     1
  1
\A1;10
  7
SANWA
 73
     1
 44
1.0
  0
LINE
  5
A1FB
330
A05F
100
AcDbEntity
  8
寸法引出
 48
20.0
370
    -2
100
AcDbLine
 10
8006.309235150981
 20
2099.442483824363
 30
0.0
 11
8016.309235150979
 21
2099.442483824363
 31
0.0
  0
SOLID
  5
A1FC
330
A05F
100
AcDbEntity
  8
寸法引出
 48
20.0
100
AcDbTrace
 10
7983.80923515098
 20
2103.192483824363
 30
0.0
 11
7983.80923515098
 21
2095.692483824362
 31
0.0
 12
8006.309235150981
 22
2099.442483824363
 32
0.0
 13
8006.309235150981
 23
2099.442483824363
 33
0.0
  0
SOLID
  5
A1FD
330
A05F
100
AcDbEntity
  8
寸法引出
 48
20.0
100
AcDbTrace
 10
8038.809235150978
 20
2103.192483824363
 30
0.0
 11
8038.809235150978
 21
2095.692483824362
 31
0.0
 12
8016.309235150979
 22
2099.442483824363
 32
0.0
 13
8016.309235150979
 23
2099.442483824363
 33
0.0
  0
POINT
  5
A1FE
330
A05F
100
AcDbEntity
  8
DEFPOINTS
 62
     0
 48
20.0
100
AcDbPoint
 10
8006.309235150981
 20
2002.950245934465
 30
0.0
  0
POINT
  5
A1FF
330
A05F
100
AcDbEntity
  8
DEFPOINTS
 62
     0
 48
20.0
100
AcDbPoint
 10
8016.309235150979
 20
1992.950245934465
 30
0.0
  0
POINT
  5
A200
330
A05F
100
AcDbEntity
  8
DEFPOINTS
 62
     0
 48
20.0
100
AcDbPoint
 10
8016.309235150979
 20
2099.442483824363
 30
0.0
  0
ENDBLK
  5
A06C
330
A05F
100
AcDbEntity
  8
0
 48
20.0
100
AcDbBlockEnd
  0
BLOCK
  5
A077
330
A06D
100
AcDbEntity
  8
0
 48
20.0
100
AcDbBlockBegin
  2
*D43
 70
     1
 10
0.0
 20
0.0
 30
0.0
  3
*D43
  1

  0
LINE
  5
A201
330
A06D
100
AcDbEntity
  8
寸法引出
 48
20.0
370
    -2
100
AcDbLine
 10
8016.309235150979
 20
2007.950245934466
 30
0.0
 11
8016.309235150979
 21
2106.942483824363
 31
0.0
  0
LINE
  5
A202
330
A06D
100
AcDbEntity
  8
寸法引出
 48
20.0
370
    -2
100
AcDbLine
 10
8096.309235150977
 20
2007.950245934466
 30
0.0
 11
8096.309235150977
 21
2106.942483824363
 31
0.0
  0
LINE
  5
A203
330
A06D
100
AcDbEntity
  8
寸法引出
 48
20.0
370
    -2
100
AcDbLine
 10
8038.809235150978
 20
2099.442483824363
 30
0.0
 11
8073.809235150978
 21
2099.442483824363
 31
0.0
  0
SOLID
  5
A204
330
A06D
100
AcDbEntity
  8
寸法引出
 48
20.0
100
AcDbTrace
 10
8038.809235150978
 20
2103.192483824363
 30
0.0
 11
8038.809235150978
 21
2095.692483824362
 31
0.0
 12
8016.309235150979
 22
2099.442483824363
 32
0.0
 13
8016.309235150979
 23
2099.442483824363
 33
0.0
  0
SOLID
  5
A205
330
A06D
100
AcDbEntity
  8
寸法引出
 48
20.0
100
AcDbTrace
 10
8073.809235150978
 20
2103.192483824363
 30
0.0
 11
8073.809235150978
 21
2095.692483824362
 31
0.0
 12
8096.309235150977
 22
2099.442483824363
 32
0.0
 13
8096.309235150977
 23
2099.442483824363
 33
0.0
  0
MTEXT
  5
A206
330
A06D
100
AcDbEntity
  8
寸法引出
 48
20.0
100
AcDbMText
 10
8056.309235150978
 20
2129.442483824363
 30
0.0
 40
30.0
 41
0.0
 71
     5
 72
     1
  1
\A1;80
  7
SANWA
 73
     1
 44
1.0
  0
POINT
  5
A207
330
A06D
100
AcDbEntity
  8
DEFPOINTS
 62
     0
 48
20.0
100
AcDbPoint
 10
8016.309235150979
 20
1992.950245934465
 30
0.0
  0
POINT
  5
A208
330
A06D
100
AcDbEntity
  8
DEFPOINTS
 62
     0
 48
20.0
100
AcDbPoint
 10
8096.309235150977
 20
1992.950245934465
 30
0.0
  0
POINT
  5
A209
330
A06D
100
AcDbEntity
  8
DEFPOINTS
 62
     0
 48
20.0
100
AcDbPoint
 10
8096.309235150977
 20
2099.442483824363
 30
0.0
  0
ENDBLK
  5
A078
330
A06D
100
AcDbEntity
  8
0
 48
20.0
100
AcDbBlockEnd
  0
BLOCK
  5
A085
330
A079
100
AcDbEntity
  8
0
 48
20.0
100
AcDbBlockBegin
  2
*D44
 70
     1
 10
0.0
 20
0.0
 30
0.0
  3
*D44
  1

  0
LINE
  5
A20A
330
A079
100
AcDbEntity
  8
寸法引出
 48
20.0
370
    -2
100
AcDbLine
 10
8096.309235150977
 20
2007.950245934466
 30
0.0
 11
8096.309235150977
 21
2106.942483824363
 31
0.0
  0
LINE
  5
A20B
330
A079
100
AcDbEntity
  8
寸法引出
 48
20.0
370
    -2
100
AcDbLine
 10
8106.309235150979
 20
2017.950245934466
 30
0.0
 11
8106.309235150979
 21
2106.942483824363
 31
0.0
  0
LINE
  5
A20C
330
A079
100
AcDbEntity
  8
寸法引出
 48
20.0
370
    -2
100
AcDbLine
 10
8073.809235150978
 20
2099.442483824363
 30
0.0
 11
8051.309235150979
 21
2099.442483824363
 31
0.0
  0
LINE
  5
A20D
330
A079
100
AcDbEntity
  8
寸法引出
 48
20.0
370
    -2
100
AcDbLine
 10
8128.809235150979
 20
2099.442483824363
 30
0.0
 11
8151.30923515098
 21
2099.442483824363
 31
0.0
  0
MTEXT
  5
A20E
330
A079
100
AcDbEntity
  8
寸法引出
 48
20.0
100
AcDbMText
 10
8125.091642179093
 20
2130.069732755126
 30
0.0
 40
30.0
 41
0.0
 71
     5
 72
     1
  1
\A1;10
  7
SANWA
 73
     1
 44
1.0
  0
LINE
  5
A20F
330
A079
100
AcDbEntity
  8
寸法引出
 48
20.0
370
    -2
100
AcDbLine
 10
8096.309235150977
 20
2099.442483824363
 30
0.0
 11
8106.309235150979
 21
2099.442483824363
 31
0.0
  0
SOLID
  5
A210
330
A079
100
AcDbEntity
  8
寸法引出
 48
20.0
100
AcDbTrace
 10
8073.809235150978
 20
2103.192483824363
 30
0.0
 11
8073.809235150978
 21
2095.692483824362
 31
0.0
 12
8096.309235150977
 22
2099.442483824363
 32
0.0
 13
8096.309235150977
 23
2099.442483824363
 33
0.0
  0
SOLID
  5
A211
330
A079
100
AcDbEntity
  8
寸法引出
 48
20.0
100
AcDbTrace
 10
8128.809235150979
 20
2103.192483824363
 30
0.0
 11
8128.809235150979
 21
2095.692483824362
 31
0.0
 12
8106.309235150979
 22
2099.442483824363
 32
0.0
 13
8106.309235150979
 23
2099.442483824363
 33
0.0
  0
POINT
  5
A212
330
A079
100
AcDbEntity
  8
DEFPOINTS
 62
     0
 48
20.0
100
AcDbPoint
 10
8096.309235150977
 20
1992.950245934465
 30
0.0
  0
POINT
  5
A213
330
A079
100
AcDbEntity
  8
DEFPOINTS
 62
     0
 48
20.0
100
AcDbPoint
 10
8106.309235150979
 20
2002.950245934465
 30
0.0
  0
POINT
  5
A214
330
A079
100
AcDbEntity
  8
DEFPOINTS
 62
     0
 48
20.0
100
AcDbPoint
 10
8106.309235150979
 20
2099.442483824363
 30
0.0
  0
ENDBLK
  5
A086
330
A079
100
AcDbEntity
  8
0
 48
20.0
100
AcDbBlockEnd
  0
BLOCK
  5
A091
330
A087
100
AcDbEntity
  8
0
 48
20.0
100
AcDbBlockBegin
  2
*D45
 70
     1
 10
0.0
 20
0.0
 30
0.0
  3
*D45
  1

  0
LINE
  5
A215
330
A087
100
AcDbEntity
  8
寸法引出
 48
20.0
370
    -2
100
AcDbLine
 10
9070.309235150977
 20
2306.950245934464
 30
0.0
 11
9149.474793500225
 21
2306.950245934464
 31
0.0
  0
LINE
  5
A216
330
A087
100
AcDbEntity
  8
寸法引出
 48
20.0
370
    -2
100
AcDbLine
 10
9070.309235150977
 20
1952.950245934466
 30
0.0
 11
9149.474793500225
 21
1952.950245934466
 31
0.0
  0
LINE
  5
A217
330
A087
100
AcDbEntity
  8
寸法引出
 48
20.0
370
    -2
100
AcDbLine
 10
9141.974793500224
 20
2284.450245934464
 30
0.0
 11
9141.974793500224
 21
1975.450245934465
 31
0.0
  0
SOLID
  5
A218
330
A087
100
AcDbEntity
  8
寸法引出
 48
20.0
100
AcDbTrace
 10
9138.224793500226
 20
2284.450245934464
 30
0.0
 11
9145.724793500226
 21
2284.450245934464
 31
0.0
 12
9141.974793500224
 22
2306.950245934464
 32
0.0
 13
9141.974793500224
 23
2306.950245934464
 33
0.0
  0
SOLID
  5
A219
330
A087
100
AcDbEntity
  8
寸法引出
 48
20.0
100
AcDbTrace
 10
9138.224793500226
 20
1975.450245934465
 30
0.0
 11
9145.724793500226
 21
1975.450245934465
 31
0.0
 12
9141.974793500224
 22
1952.950245934466
 32
0.0
 13
9141.974793500224
 23
1952.950245934466
 33
0.0
  0
MTEXT
  5
A21A
330
A087
100
AcDbEntity
  8
寸法引出
 48
20.0
100
AcDbMText
 10
9111.974793500225
 20
2129.950245934466
 30
0.0
 40
30.0
 41
0.0
 71
     5
 72
     1
  1
\A1;354
  7
SANWA
 11
0.0000000000000001
 21
1.0
 31
0.0
 73
     1
 44
1.0
  0
POINT
  5
A21B
330
A087
100
AcDbEntity
  8
DEFPOINTS
 62
     0
 48
20.0
100
AcDbPoint
 10
9055.309235150978
 20
2306.950245934464
 30
0.0
  0
POINT
  5
A21C
330
A087
100
AcDbEntity
  8
DEFPOINTS
 62
     0
 48
20.0
100
AcDbPoint
 10
9055.309235150978
 20
1952.950245934466
 30
0.0
  0
POINT
  5
A21D
330
A087
100
AcDbEntity
  8
DEFPOINTS
 62
     0
 48
20.0
100
AcDbPoint
 10
9141.974793500224
 20
1952.950245934466
 30
0.0
  0
ENDBLK
  5
A092
330
A087
100
AcDbEntity
  8
0
 48
20.0
100
AcDbBlockEnd
  0
BLOCK
  5
A09D
330
A093
100
AcDbEntity
  8
0
 48
20.0
100
AcDbBlockBegin
  2
*D46
 70
     1
 10
0.0
 20
0.0
 30
0.0
  3
*D46
  1

  0
LINE
  5
A21E
330
A093
100
AcDbEntity
  8
寸法引出
 48
20.0
370
    -2
100
AcDbLine
 10
9070.309235150977
 20
1952.950245934466
 30
0.0
 11
9149.474793500225
 21
1952.950245934466
 31
0.0
  0
LINE
  5
A21F
330
A093
100
AcDbEntity
  8
寸法引出
 48
20.0
370
    -2
100
AcDbLine
 10
9070.309235150977
 20
1751.950245934465
 30
0.0
 11
9149.474793500225
 21
1751.950245934465
 31
0.0
  0
LINE
  5
A220
330
A093
100
AcDbEntity
  8
寸法引出
 48
20.0
370
    -2
100
AcDbLine
 10
9141.974793500224
 20
1930.450245934465
 30
0.0
 11
9141.974793500224
 21
1774.450245934465
 31
0.0
  0
SOLID
  5
A221
330
A093
100
AcDbEntity
  8
寸法引出
 48
20.0
100
AcDbTrace
 10
9138.224793500226
 20
1930.450245934465
 30
0.0
 11
9145.724793500226
 21
1930.450245934465
 31
0.0
 12
9141.974793500224
 22
1952.950245934466
 32
0.0
 13
9141.974793500224
 23
1952.950245934466
 33
0.0
  0
SOLID
  5
A222
330
A093
100
AcDbEntity
  8
寸法引出
 48
20.0
100
AcDbTrace
 10
9138.224793500226
 20
1774.450245934465
 30
0.0
 11
9145.724793500226
 21
1774.450245934465
 31
0.0
 12
9141.974793500224
 22
1751.950245934465
 32
0.0
 13
9141.974793500224
 23
1751.950245934465
 33
0.0
  0
MTEXT
  5
A223
330
A093
100
AcDbEntity
  8
寸法引出
 48
20.0
100
AcDbMText
 10
9111.974793500225
 20
1852.450245934467
 30
0.0
 40
30.0
 41
0.0
 71
     5
 72
     1
  1
\A1;201
  7
SANWA
 11
0.0000000000000001
 21
1.0
 31
0.0
 73
     1
 44
1.0
  0
POINT
  5
A224
330
A093
100
AcDbEntity
  8
DEFPOINTS
 62
     0
 48
20.0
100
AcDbPoint
 10
9055.309235150978
 20
1952.950245934466
 30
0.0
  0
POINT
  5
A225
330
A093
100
AcDbEntity
  8
DEFPOINTS
 62
     0
 48
20.0
100
AcDbPoint
 10
9055.309235150978
 20
1751.950245934465
 30
0.0
  0
POINT
  5
A226
330
A093
100
AcDbEntity
  8
DEFPOINTS
 62
     0
 48
20.0
100
AcDbPoint
 10
9141.974793500224
 20
1751.950245934465
 30
0.0
  0
ENDBLK
  5
A09E
330
A093
100
AcDbEntity
  8
0
 48
20.0
100
AcDbBlockEnd
  0
BLOCK
  5
A0A9
330
A09F
100
AcDbEntity
  8
0
 48
20.0
100
AcDbBlockBegin
  2
*D47
 70
     1
 10
0.0
 20
0.0
 30
0.0
  3
*D47
  1

  0
LINE
  5
A227
330
A09F
100
AcDbEntity
  8
寸法引出
 48
20.0
370
    -2
100
AcDbLine
 10
7057.309235150977
 20
2321.950245934464
 30
0.0
 11
7057.309235150977
 21
2425.516233935863
 31
0.0
  0
LINE
  5
A228
330
A09F
100
AcDbEntity
  8
寸法引出
 48
20.0
370
    -2
100
AcDbLine
 10
9055.309235150978
 20
2321.950245934464
 30
0.0
 11
9055.309235150978
 21
2425.516233935863
 31
0.0
  0
LINE
  5
A229
330
A09F
100
AcDbEntity
  8
寸法引出
 48
20.0
370
    -2
100
AcDbLine
 10
7079.809235150979
 20
2418.016233935863
 30
0.0
 11
9032.809235150978
 21
2418.016233935863
 31
0.0
  0
SOLID
  5
A22A
330
A09F
100
AcDbEntity
  8
寸法引出
 48
20.0
100
AcDbTrace
 10
7079.809235150979
 20
2421.766233935863
 30
0.0
 11
7079.809235150979
 21
2414.266233935863
 31
0.0
 12
7057.309235150977
 22
2418.016233935863
 32
0.0
 13
7057.309235150977
 23
2418.016233935863
 33
0.0
  0
SOLID
  5
A22B
330
A09F
100
AcDbEntity
  8
寸法引出
 48
20.0
100
AcDbTrace
 10
9032.809235150978
 20
2421.766233935863
 30
0.0
 11
9032.809235150978
 21
2414.266233935863
 31
0.0
 12
9055.309235150978
 22
2418.016233935863
 32
0.0
 13
9055.309235150978
 23
2418.016233935863
 33
0.0
  0
MTEXT
  5
A22C
330
A09F
100
AcDbEntity
  8
寸法引出
 48
20.0
100
AcDbMText
 10
8056.309235150978
 20
2448.016233935863
 30
0.0
 40
30.0
 41
0.0
 71
     5
 72
     1
  1
\A1;1998
  7
SANWA
 73
     1
 44
1.0
  0
POINT
  5
A22D
330
A09F
100
AcDbEntity
  8
DEFPOINTS
 62
     0
 48
20.0
100
AcDbPoint
 10
7057.309235150977
 20
2306.950245934464
 30
0.0
  0
POINT
  5
A22E
330
A09F
100
AcDbEntity
  8
DEFPOINTS
 62
     0
 48
20.0
100
AcDbPoint
 10
9055.309235150978
 20
2306.950245934464
 30
0.0
  0
POINT
  5
A22F
330
A09F
100
AcDbEntity
  8
DEFPOINTS
 62
     0
 48
20.0
100
AcDbPoint
 10
9055.309235150978
 20
2418.016233935863
 30
0.0
  0
ENDBLK
  5
A0AA
330
A09F
100
AcDbEntity
  8
0
 48
20.0
100
AcDbBlockEnd
  0
BLOCK
  5
A0B5
330
A0AB
100
AcDbEntity
  8
0
 48
20.0
100
AcDbBlockBegin
  2
*D48
 70
     1
 10
0.0
 20
0.0
 30
0.0
  3
*D48
  1

  0
LINE
  5
A230
330
A0AB
100
AcDbEntity
  8
寸法引出
 48
20.0
370
    -2
100
AcDbLine
 10
7057.309235150977
 20
1399.55222456575
 30
0.0
 11
7057.309235150977
 21
1503.118212567146
 31
0.0
  0
LINE
  5
A231
330
A0AB
100
AcDbEntity
  8
寸法引出
 48
20.0
370
    -2
100
AcDbLine
 10
9055.309235150978
 20
1399.55222456575
 30
0.0
 11
9055.309235150978
 21
1503.118212567146
 31
0.0
  0
LINE
  5
A232
330
A0AB
100
AcDbEntity
  8
寸法引出
 48
20.0
370
    -2
100
AcDbLine
 10
7079.809235150979
 20
1495.618212567147
 30
0.0
 11
9032.809235150978
 21
1495.618212567147
 31
0.0
  0
SOLID
  5
A233
330
A0AB
100
AcDbEntity
  8
寸法引出
 48
20.0
100
AcDbTrace
 10
7079.809235150979
 20
1499.368212567147
 30
0.0
 11
7079.809235150979
 21
1491.868212567147
 31
0.0
 12
7057.309235150977
 22
1495.618212567147
 32
0.0
 13
7057.309235150977
 23
1495.618212567147
 33
0.0
  0
SOLID
  5
A234
330
A0AB
100
AcDbEntity
  8
寸法引出
 48
20.0
100
AcDbTrace
 10
9032.809235150978
 20
1499.368212567147
 30
0.0
 11
9032.809235150978
 21
1491.868212567147
 31
0.0
 12
9055.309235150978
 22
1495.618212567147
 32
0.0
 13
9055.309235150978
 23
1495.618212567147
 33
0.0
  0
MTEXT
  5
A235
330
A0AB
100
AcDbEntity
  8
寸法引出
 48
20.0
100
AcDbMText
 10
8056.309235150978
 20
1525.618212567146
 30
0.0
 40
30.0
 41
0.0
 71
     5
 72
     1
  1
\A1;1998
  7
SANWA
 73
     1
 44
1.0
  0
POINT
  5
A236
330
A0AB
100
AcDbEntity
  8
DEFPOINTS
 62
     0
 48
20.0
100
AcDbPoint
 10
7057.309235150977
 20
1384.55222456575
 30
0.0
  0
POINT
  5
A237
330
A0AB
100
AcDbEntity
  8
DEFPOINTS
 62
     0
 48
20.0
100
AcDbPoint
 10
9055.309235150978
 20
1384.55222456575
 30
0.0
  0
POINT
  5
A238
330
A0AB
100
AcDbEntity
  8
DEFPOINTS
 62
     0
 48
20.0
100
AcDbPoint
 10
9055.309235150978
 20
1495.618212567147
 30
0.0
  0
ENDBLK
  5
A0B6
330
A0AB
100
AcDbEntity
  8
0
 48
20.0
100
AcDbBlockEnd
  0
BLOCK
  5
A0C1
330
A0B7
100
AcDbEntity
  8
0
 48
20.0
100
AcDbBlockBegin
  2
*D49
 70
     1
 10
0.0
 20
0.0
 30
0.0
  3
*D49
  1

  0
LINE
  5
A239
330
A0B7
100
AcDbEntity
  8
寸法引出
 48
20.0
370
    -2
100
AcDbLine
 10
7042.309235150979
 20
1384.55222456575
 30
0.0
 11
6935.923388022139
 21
1384.55222456575
 31
0.0
  0
LINE
  5
A23A
330
A0B7
100
AcDbEntity
  8
寸法引出
 48
20.0
370
    -2
100
AcDbLine
 10
7042.309235150979
 20
829.5522245657503
 30
0.0
 11
6935.923388022139
 21
829.5522245657503
 31
0.0
  0
LINE
  5
A23B
330
A0B7
100
AcDbEntity
  8
寸法引出
 48
20.0
370
    -2
100
AcDbLine
 10
6943.423388022139
 20
1362.05222456575
 30
0.0
 11
6943.423388022139
 21
852.0522245657502
 31
0.0
  0
SOLID
  5
A23C
330
A0B7
100
AcDbEntity
  8
寸法引出
 48
20.0
100
AcDbTrace
 10
6939.67338802214
 20
1362.05222456575
 30
0.0
 11
6947.17338802214
 21
1362.05222456575
 31
0.0
 12
6943.423388022139
 22
1384.55222456575
 32
0.0
 13
6943.423388022139
 23
1384.55222456575
 33
0.0
  0
SOLID
  5
A23D
330
A0B7
100
AcDbEntity
  8
寸法引出
 48
20.0
100
AcDbTrace
 10
6939.67338802214
 20
852.0522245657502
 30
0.0
 11
6947.17338802214
 21
852.0522245657502
 31
0.0
 12
6943.423388022139
 22
829.5522245657503
 32
0.0
 13
6943.423388022139
 23
829.5522245657503
 33
0.0
  0
MTEXT
  5
A23E
330
A0B7
100
AcDbEntity
  8
寸法引出
 48
20.0
100
AcDbMText
 10
6913.42338802214
 20
1107.052224565751
 30
0.0
 40
30.0
 41
0.0
 71
     5
 72
     1
  1
\A1;555
  7
SANWA
 11
0.0000000000000001
 21
1.0
 31
0.0
 73
     1
 44
1.0
  0
POINT
  5
A23F
330
A0B7
100
AcDbEntity
  8
DEFPOINTS
 62
     0
 48
20.0
100
AcDbPoint
 10
7057.309235150977
 20
1384.55222456575
 30
0.0
  0
POINT
  5
A240
330
A0B7
100
AcDbEntity
  8
DEFPOINTS
 62
     0
 48
20.0
100
AcDbPoint
 10
7057.309235150977
 20
829.5522245657503
 30
0.0
  0
POINT
  5
A241
330
A0B7
100
AcDbEntity
  8
DEFPOINTS
 62
     0
 48
20.0
100
AcDbPoint
 10
6943.423388022139
 20
829.5522245657503
 30
0.0
  0
ENDBLK
  5
A0C2
330
A0B7
100
AcDbEntity
  8
0
 48
20.0
100
AcDbBlockEnd
  0
BLOCK
  5
A0CD
330
A0C3
100
AcDbEntity
  8
0
 48
20.0
100
AcDbBlockBegin
  2
*D50
 70
     1
 10
0.0
 20
0.0
 30
0.0
  3
*D50
  1

  0
LINE
  5
A242
330
A0C3
100
AcDbEntity
  8
寸法引出
 48
20.0
370
    -2
100
AcDbLine
 10
7042.309235150979
 20
2306.950245934464
 30
0.0
 11
6935.923388022141
 21
2306.950245934464
 31
0.0
  0
LINE
  5
A243
330
A0C3
100
AcDbEntity
  8
寸法引出
 48
20.0
370
    -2
100
AcDbLine
 10
7042.309235150979
 20
1751.950245934465
 30
0.0
 11
6935.923388022139
 21
1751.950245934465
 31
0.0
  0
LINE
  5
A244
330
A0C3
100
AcDbEntity
  8
寸法引出
 48
20.0
370
    -2
100
AcDbLine
 10
6943.423388022141
 20
2284.450245934464
 30
0.0
 11
6943.423388022139
 21
1774.450245934465
 31
0.0
  0
SOLID
  5
A245
330
A0C3
100
AcDbEntity
  8
寸法引出
 48
20.0
100
AcDbTrace
 10
6939.67338802214
 20
2284.450245934464
 30
0.0
 11
6947.17338802214
 21
2284.450245934464
 31
0.0
 12
6943.423388022141
 22
2306.950245934464
 32
0.0
 13
6943.423388022141
 23
2306.950245934464
 33
0.0
  0
SOLID
  5
A246
330
A0C3
100
AcDbEntity
  8
寸法引出
 48
20.0
100
AcDbTrace
 10
6939.67338802214
 20
1774.450245934465
 30
0.0
 11
6947.17338802214
 21
1774.450245934465
 31
0.0
 12
6943.423388022139
 22
1751.950245934465
 32
0.0
 13
6943.423388022139
 23
1751.950245934465
 33
0.0
  0
MTEXT
  5
A247
330
A0C3
100
AcDbEntity
  8
寸法引出
 48
20.0
100
AcDbMText
 10
6913.42338802214
 20
2029.450245934465
 30
0.0
 40
30.0
 41
0.0
 71
     5
 72
     1
  1
\A1;555
  7
SANWA
 11
0.0000000000000001
 21
1.0
 31
0.0
 73
     1
 44
1.0
  0
POINT
  5
A248
330
A0C3
100
AcDbEntity
  8
DEFPOINTS
 62
     0
 48
20.0
100
AcDbPoint
 10
7057.309235150977
 20
2306.950245934464
 30
0.0
  0
POINT
  5
A249
330
A0C3
100
AcDbEntity
  8
DEFPOINTS
 62
     0
 48
20.0
100
AcDbPoint
 10
7057.309235150977
 20
1751.950245934465
 30
0.0
  0
POINT
  5
A24A
330
A0C3
100
AcDbEntity
  8
DEFPOINTS
 62
     0
 48
20.0
100
AcDbPoint
 10
6943.423388022139
 20
1751.950245934465
 30
0.0
  0
ENDBLK
  5
A0CE
330
A0C3
100
AcDbEntity
  8
0
 48
20.0
100
AcDbBlockEnd
  0
BLOCK
  5
A0DB
330
A0CF
100
AcDbEntity
  8
0
 48
20.0
100
AcDbBlockBegin
  2
*D51
 70
     1
 10
0.0
 20
0.0
 30
0.0
  3
*D51
  1

  0
LINE
  5
A24B
330
A0CF
100
AcDbEntity
  8
寸法引出
 48
20.0
370
    -2
100
AcDbLine
 10
7418.30253339083
 20
341.8739091623646
 30
0.0
 11
7418.30253339083
 21
523.8299438673075
 31
0.0
  0
LINE
  5
A24C
330
A0CF
100
AcDbEntity
  8
寸法引出
 48
20.0
370
    -2
100
AcDbLine
 10
7393.30253339083
 20
466.8739091623646
 30
0.0
 11
7393.30253339083
 21
523.8299438673075
 31
0.0
  0
LINE
  5
A24D
330
A0CF
100
AcDbEntity
  8
寸法引出
 48
20.0
370
    -2
100
AcDbLine
 10
7440.802533390829
 20
516.3299438673075
 30
0.0
 11
7463.30253339083
 21
516.3299438673075
 31
0.0
  0
LINE
  5
A24E
330
A0CF
100
AcDbEntity
  8
寸法引出
 48
20.0
370
    -2
100
AcDbLine
 10
7370.802533390829
 20
516.3299438673075
 30
0.0
 11
7348.30253339083
 21
516.3299438673075
 31
0.0
  0
LINE
  5
A24F
330
A0CF
100
AcDbEntity
  8
寸法引出
 48
20.0
370
    -2
100
AcDbLine
 10
7418.30253339083
 20
516.3299438673075
 30
0.0
 11
7393.30253339083
 21
516.3299438673075
 31
0.0
  0
SOLID
  5
A250
330
A0CF
100
AcDbEntity
  8
寸法引出
 48
20.0
100
AcDbTrace
 10
7440.802533390829
 20
520.0799438673075
 30
0.0
 11
7440.802533390829
 21
512.5799438673075
 31
0.0
 12
7418.30253339083
 22
516.3299438673075
 32
0.0
 13
7418.30253339083
 23
516.3299438673075
 33
0.0
  0
SOLID
  5
A251
330
A0CF
100
AcDbEntity
  8
寸法引出
 48
20.0
100
AcDbTrace
 10
7370.802533390829
 20
520.0799438673075
 30
0.0
 11
7370.802533390829
 21
512.5799438673075
 31
0.0
 12
7393.30253339083
 22
516.3299438673075
 32
0.0
 13
7393.30253339083
 23
516.3299438673075
 33
0.0
  0
MTEXT
  5
A252
330
A0CF
100
AcDbEntity
  8
寸法引出
 48
20.0
100
AcDbMText
 10
7405.80253339083
 20
546.3299438673073
 30
0.0
 40
30.0
 41
0.0
 71
     5
 72
     1
  1
\A1;5
  7
SANWA
 73
     1
 44
1.0
  0
POINT
  5
A253
330
A0CF
100
AcDbEntity
  8
DEFPOINTS
 62
     0
 48
20.0
100
AcDbPoint
 10
7418.30253339083
 20
326.8739091623646
 30
0.0
  0
POINT
  5
A254
330
A0CF
100
AcDbEntity
  8
DEFPOINTS
 62
     0
 48
20.0
100
AcDbPoint
 10
7393.30253339083
 20
451.8739091623646
 30
0.0
  0
POINT
  5
A255
330
A0CF
100
AcDbEntity
  8
DEFPOINTS
 62
     0
 48
20.0
100
AcDbPoint
 10
7393.30253339083
 20
516.3299438673075
 30
0.0
  0
ENDBLK
  5
A0DC
330
A0CF
100
AcDbEntity
  8
0
 48
20.0
100
AcDbBlockEnd
  0
BLOCK
  5
A0E9
330
A0DD
100
AcDbEntity
  8
0
 48
20.0
100
AcDbBlockBegin
  2
*D52
 70
     1
 10
0.0
 20
0.0
 30
0.0
  3
*D52
  1

  0
LINE
  5
A256
330
A0DD
100
AcDbEntity
  8
寸法引出
 48
20.0
370
    -2
100
AcDbLine
 10
7278.30253339083
 20
451.8739091623646
 30
0.0
 11
7245.314799893283
 21
451.8739091623646
 31
0.0
  0
LINE
  5
A257
330
A0DD
100
AcDbEntity
  8
寸法引出
 48
20.0
370
    -2
100
AcDbLine
 10
7378.302533390829
 20
421.8739091623646
 30
0.0
 11
7245.314799893283
 21
421.8739091623646
 31
0.0
  0
LINE
  5
A258
330
A0DD
100
AcDbEntity
  8
寸法引出
 48
20.0
370
    -2
100
AcDbLine
 10
7252.814799893283
 20
474.3739091623647
 30
0.0
 11
7252.814799893283
 21
496.8739091623646
 31
0.0
  0
LINE
  5
A259
330
A0DD
100
AcDbEntity
  8
寸法引出
 48
20.0
370
    -2
100
AcDbLine
 10
7252.814799893283
 20
399.3739091623646
 30
0.0
 11
7252.814799893283
 21
376.8739091623646
 31
0.0
  0
MTEXT
  5
A25A
330
A0DD
100
AcDbEntity
  8
寸法引出
 48
20.0
100
AcDbMText
 10
7219.740682308253
 20
470.6177133631134
 30
0.0
 40
30.0
 41
0.0
 71
     5
 72
     1
  1
\A1;6
  7
SANWA
 11
0.0000000000000001
 21
1.0
 31
0.0
 73
     1
 44
1.0
  0
LINE
  5
A25B
330
A0DD
100
AcDbEntity
  8
寸法引出
 48
20.0
370
    -2
100
AcDbLine
 10
7252.814799893283
 20
451.8739091623646
 30
0.0
 11
7252.814799893283
 21
421.8739091623646
 31
0.0
  0
SOLID
  5
A25C
330
A0DD
100
AcDbEntity
  8
寸法引出
 48
20.0
100
AcDbTrace
 10
7249.064799893284
 20
474.3739091623647
 30
0.0
 11
7256.564799893283
 21
474.3739091623647
 31
0.0
 12
7252.814799893283
 22
451.8739091623646
 32
0.0
 13
7252.814799893283
 23
451.8739091623646
 33
0.0
  0
SOLID
  5
A25D
330
A0DD
100
AcDbEntity
  8
寸法引出
 48
20.0
100
AcDbTrace
 10
7249.064799893284
 20
399.3739091623646
 30
0.0
 11
7256.564799893283
 21
399.3739091623646
 31
0.0
 12
7252.814799893283
 22
421.8739091623646
 32
0.0
 13
7252.814799893283
 23
421.8739091623646
 33
0.0
  0
POINT
  5
A25E
330
A0DD
100
AcDbEntity
  8
DEFPOINTS
 62
     0
 48
20.0
100
AcDbPoint
 10
7293.30253339083
 20
451.8739091623646
 30
0.0
  0
POINT
  5
A25F
330
A0DD
100
AcDbEntity
  8
DEFPOINTS
 62
     0
 48
20.0
100
AcDbPoint
 10
7393.30253339083
 20
421.8739091623646
 30
0.0
  0
POINT
  5
A260
330
A0DD
100
AcDbEntity
  8
DEFPOINTS
 62
     0
 48
20.0
100
AcDbPoint
 10
7252.814799893283
 20
421.8739091623646
 30
0.0
  0
ENDBLK
  5
A0EA
330
A0DD
100
AcDbEntity
  8
0
 48
20.0
100
AcDbBlockEnd
  0
BLOCK
  5
A0F7
330
A0EB
100
AcDbEntity
  8
0
 48
20.0
100
AcDbBlockBegin
  2
*D53
 70
     1
 10
0.0
 20
0.0
 30
0.0
  3
*D53
  1

  0
LINE
  5
A261
330
A0EB
100
AcDbEntity
  8
寸法引出
 48
20.0
370
    -2
100
AcDbLine
 10
7378.302533390829
 20
421.8739091623646
 30
0.0
 11
7245.314799893283
 21
421.8739091623646
 31
0.0
  0
LINE
  5
A262
330
A0EB
100
AcDbEntity
  8
寸法引出
 48
20.0
370
    -2
100
AcDbLine
 10
7353.30253339083
 20
346.8739091623646
 30
0.0
 11
7245.314799893283
 21
346.8739091623648
 31
0.0
  0
LINE
  5
A263
330
A0EB
100
AcDbEntity
  8
寸法引出
 48
20.0
370
    -2
100
AcDbLine
 10
7252.814799893283
 20
444.3739091623648
 30
0.0
 11
7252.814799893283
 21
466.8739091623646
 31
0.0
  0
LINE
  5
A264
330
A0EB
100
AcDbEntity
  8
寸法引出
 48
20.0
370
    -2
100
AcDbLine
 10
7252.814799893283
 20
324.3739091623646
 30
0.0
 11
7252.814799893283
 21
301.8739091623646
 31
0.0
  0
LINE
  5
A265
330
A0EB
100
AcDbEntity
  8
寸法引出
 48
20.0
370
    -2
100
AcDbLine
 10
7252.814799893283
 20
421.8739091623646
 30
0.0
 11
7252.814799893283
 21
346.8739091623648
 31
0.0
  0
SOLID
  5
A266
330
A0EB
100
AcDbEntity
  8
寸法引出
 48
20.0
100
AcDbTrace
 10
7249.064799893284
 20
444.3739091623648
 30
0.0
 11
7256.564799893283
 21
444.3739091623648
 31
0.0
 12
7252.814799893283
 22
421.8739091623646
 32
0.0
 13
7252.814799893283
 23
421.8739091623646
 33
0.0
  0
SOLID
  5
A267
330
A0EB
100
AcDbEntity
  8
寸法引出
 48
20.0
100
AcDbTrace
 10
7249.064799893284
 20
324.3739091623646
 30
0.0
 11
7256.564799893283
 21
324.3739091623646
 31
0.0
 12
7252.814799893283
 22
346.8739091623648
 32
0.0
 13
7252.814799893283
 23
346.8739091623648
 33
0.0
  0
MTEXT
  5
A268
330
A0EB
100
AcDbEntity
  8
寸法引出
 48
20.0
100
AcDbMText
 10
7222.814799893284
 20
384.3739091623658
 30
0.0
 40
30.0
 41
0.0
 71
     5
 72
     1
  1
\A1;15
  7
SANWA
 11
0.0000000000000001
 21
1.0
 31
0.0
 73
     1
 44
1.0
  0
POINT
  5
A269
330
A0EB
100
AcDbEntity
  8
DEFPOINTS
 62
     0
 48
20.0
100
AcDbPoint
 10
7393.30253339083
 20
421.8739091623646
 30
0.0
  0
POINT
  5
A26A
330
A0EB
100
AcDbEntity
  8
DEFPOINTS
 62
     0
 48
20.0
100
AcDbPoint
 10
7368.30253339083
 20
346.8739091623646
 30
0.0
  0
POINT
  5
A26B
330
A0EB
100
AcDbEntity
  8
DEFPOINTS
 62
     0
 48
20.0
100
AcDbPoint
 10
7252.814799893283
 20
346.8739091623648
 30
0.0
  0
ENDBLK
  5
A0F8
330
A0EB
100
AcDbEntity
  8
0
 48
20.0
100
AcDbBlockEnd
  0
BLOCK
  5
A105
330
A0F9
100
AcDbEntity
  8
0
 48
20.0
100
AcDbBlockBegin
  2
*D54
 70
     1
 10
0.0
 20
0.0
 30
0.0
  3
*D54
  1

  0
LINE
  5
A26C
330
A0F9
100
AcDbEntity
  8
寸法引出
 48
20.0
370
    -2
100
AcDbLine
 10
7353.30253339083
 20
346.8739091623646
 30
0.0
 11
7245.314799893283
 21
346.8739091623648
 31
0.0
  0
LINE
  5
A26D
330
A0F9
100
AcDbEntity
  8
寸法引出
 48
20.0
370
    -2
100
AcDbLine
 10
7403.30253339083
 20
326.8739091623646
 30
0.0
 11
7245.314799893283
 21
326.8739091623646
 31
0.0
  0
LINE
  5
A26E
330
A0F9
100
AcDbEntity
  8
寸法引出
 48
20.0
370
    -2
100
AcDbLine
 10
7252.814799893283
 20
369.3739091623648
 30
0.0
 11
7252.814799893283
 21
391.8739091623646
 31
0.0
  0
LINE
  5
A26F
330
A0F9
100
AcDbEntity
  8
寸法引出
 48
20.0
370
    -2
100
AcDbLine
 10
7252.814799893283
 20
304.3739091623646
 30
0.0
 11
7252.814799893283
 21
281.8739091623646
 31
0.0
  0
MTEXT
  5
A270
330
A0F9
100
AcDbEntity
  8
寸法引出
 48
20.0
100
AcDbMText
 10
7222.342781885327
 20
310.2468665806245
 30
0.0
 40
30.0
 41
0.0
 71
     5
 72
     1
  1
\A1;4
  7
SANWA
 11
0.0000000000000001
 21
1.0
 31
0.0
 73
     1
 44
1.0
  0
LINE
  5
A271
330
A0F9
100
AcDbEntity
  8
寸法引出
 48
20.0
370
    -2
100
AcDbLine
 10
7252.814799893283
 20
346.8739091623648
 30
0.0
 11
7252.814799893283
 21
326.8739091623646
 31
0.0
  0
SOLID
  5
A272
330
A0F9
100
AcDbEntity
  8
寸法引出
 48
20.0
100
AcDbTrace
 10
7249.064799893284
 20
369.3739091623648
 30
0.0
 11
7256.564799893283
 21
369.3739091623648
 31
0.0
 12
7252.814799893283
 22
346.8739091623648
 32
0.0
 13
7252.814799893283
 23
346.8739091623648
 33
0.0
  0
SOLID
  5
A273
330
A0F9
100
AcDbEntity
  8
寸法引出
 48
20.0
100
AcDbTrace
 10
7249.064799893284
 20
304.3739091623646
 30
0.0
 11
7256.564799893283
 21
304.3739091623646
 31
0.0
 12
7252.814799893283
 22
326.8739091623646
 32
0.0
 13
7252.814799893283
 23
326.8739091623646
 33
0.0
  0
POINT
  5
A274
330
A0F9
100
AcDbEntity
  8
DEFPOINTS
 62
     0
 48
20.0
100
AcDbPoint
 10
7368.30253339083
 20
346.8739091623646
 30
0.0
  0
POINT
  5
A275
330
A0F9
100
AcDbEntity
  8
DEFPOINTS
 62
     0
 48
20.0
100
AcDbPoint
 10
7418.30253339083
 20
326.8739091623646
 30
0.0
  0
POINT
  5
A276
330
A0F9
100
AcDbEntity
  8
DEFPOINTS
 62
     0
 48
20.0
100
AcDbPoint
 10
7252.814799893283
 20
326.8739091623646
 30
0.0
  0
ENDBLK
  5
A106
330
A0F9
100
AcDbEntity
  8
0
 48
20.0
100
AcDbBlockEnd
  0
BLOCK
  5
A113
330
A107
100
AcDbEntity
  8
0
 48
20.0
100
AcDbBlockBegin
  2
*D55
 70
     1
 10
0.0
 20
0.0
 30
0.0
  3
*D55
  1

  0
LINE
  5
A277
330
A107
100
AcDbEntity
  8
寸法引出
 48
20.0
370
    -2
100
AcDbLine
 10
7368.30253339083
 20
331.8739091623646
 30
0.0
 11
7368.30253339083
 21
249.777105649975
 31
0.0
  0
LINE
  5
A278
330
A107
100
AcDbEntity
  8
寸法引出
 48
20.0
370
    -2
100
AcDbLine
 10
7418.30253339083
 20
311.8739091623646
 30
0.0
 11
7418.30253339083
 21
249.777105649975
 31
0.0
  0
LINE
  5
A279
330
A107
100
AcDbEntity
  8
寸法引出
 48
20.0
370
    -2
100
AcDbLine
 10
7345.80253339083
 20
257.277105649975
 30
0.0
 11
7323.30253339083
 21
257.277105649975
 31
0.0
  0
LINE
  5
A27A
330
A107
100
AcDbEntity
  8
寸法引出
 48
20.0
370
    -2
100
AcDbLine
 10
7440.802533390829
 20
257.277105649975
 30
0.0
 11
7463.30253339083
 21
257.277105649975
 31
0.0
  0
LINE
  5
A27B
330
A107
100
AcDbEntity
  8
寸法引出
 48
20.0
370
    -2
100
AcDbLine
 10
7368.30253339083
 20
257.277105649975
 30
0.0
 11
7418.30253339083
 21
257.277105649975
 31
0.0
  0
SOLID
  5
A27C
330
A107
100
AcDbEntity
  8
寸法引出
 48
20.0
100
AcDbTrace
 10
7345.80253339083
 20
261.027105649975
 30
0.0
 11
7345.80253339083
 21
253.527105649975
 31
0.0
 12
7368.30253339083
 22
257.277105649975
 32
0.0
 13
7368.30253339083
 23
257.277105649975
 33
0.0
  0
SOLID
  5
A27D
330
A107
100
AcDbEntity
  8
寸法引出
 48
20.0
100
AcDbTrace
 10
7440.802533390829
 20
261.027105649975
 30
0.0
 11
7440.802533390829
 21
253.527105649975
 31
0.0
 12
7418.30253339083
 22
257.277105649975
 32
0.0
 13
7418.30253339083
 23
257.277105649975
 33
0.0
  0
MTEXT
  5
A27E
330
A107
100
AcDbEntity
  8
寸法引出
 48
20.0
100
AcDbMText
 10
7393.30253339083
 20
287.2771056499749
 30
0.0
 40
30.0
 41
0.0
 71
     5
 72
     1
  1
\A1;10
  7
SANWA
 73
     1
 44
1.0
  0
POINT
  5
A27F
330
A107
100
AcDbEntity
  8
DEFPOINTS
 62
     0
 48
20.0
100
AcDbPoint
 10
7368.30253339083
 20
346.8739091623646
 30
0.0
  0
POINT
  5
A280
330
A107
100
AcDbEntity
  8
DEFPOINTS
 62
     0
 48
20.0
100
AcDbPoint
 10
7418.30253339083
 20
326.8739091623646
 30
0.0
  0
POINT
  5
A281
330
A107
100
AcDbEntity
  8
DEFPOINTS
 62
     0
 48
20.0
100
AcDbPoint
 10
7418.30253339083
 20
257.277105649975
 30
0.0
  0
ENDBLK
  5
A114
330
A107
100
AcDbEntity
  8
0
 48
20.0
100
AcDbBlockEnd
  0
BLOCK
  5
A121
330
A115
100
AcDbEntity
  8
0
 48
20.0
100
AcDbBlockBegin
  2
*D56
 70
     1
 10
0.0
 20
0.0
 30
0.0
  3
*D56
  1

  0
LINE
  5
A282
330
A115
100
AcDbEntity
  8
寸法引出
 48
20.0
370
    -2
100
AcDbLine
 10
6119.394121129757
 20
1831.950245934466
 30
0.0
 11
6119.394121129757
 21
2020.453900300851
 31
0.0
  0
LINE
  5
A283
330
A115
100
AcDbEntity
  8
寸法引出
 48
20.0
370
    -2
100
AcDbLine
 10
6179.394121129757
 20
1831.950245934466
 30
0.0
 11
6179.394121129757
 21
2020.453900300851
 31
0.0
  0
LINE
  5
A284
330
A115
100
AcDbEntity
  8
寸法引出
 48
20.0
370
    -2
100
AcDbLine
 10
6096.894121129757
 20
2012.953900300851
 30
0.0
 11
6074.394121129756
 21
2012.953900300851
 31
0.0
  0
LINE
  5
A285
330
A115
100
AcDbEntity
  8
寸法引出
 48
20.0
370
    -2
100
AcDbLine
 10
6201.894121129758
 20
2012.953900300851
 30
0.0
 11
6224.394121129757
 21
2012.953900300851
 31
0.0
  0
MTEXT
  5
A286
330
A115
100
AcDbEntity
  8
寸法引出
 48
20.0
100
AcDbMText
 10
6081.052089055329
 20
2041.889125142963
 30
0.0
 40
30.0
 41
0.0
 71
     5
 72
     1
  1
\A1;60
  7
SANWA
 73
     1
 44
1.0
  0
LINE
  5
A287
330
A115
100
AcDbEntity
  8
寸法引出
 48
20.0
370
    -2
100
AcDbLine
 10
6119.394121129757
 20
2012.953900300851
 30
0.0
 11
6179.394121129757
 21
2012.953900300851
 31
0.0
  0
SOLID
  5
A288
330
A115
100
AcDbEntity
  8
寸法引出
 48
20.0
100
AcDbTrace
 10
6096.894121129757
 20
2016.703900300851
 30
0.0
 11
6096.894121129757
 21
2009.203900300851
 31
0.0
 12
6119.394121129757
 22
2012.953900300851
 32
0.0
 13
6119.394121129757
 23
2012.953900300851
 33
0.0
  0
SOLID
  5
A289
330
A115
100
AcDbEntity
  8
寸法引出
 48
20.0
100
AcDbTrace
 10
6201.894121129758
 20
2016.703900300851
 30
0.0
 11
6201.894121129758
 21
2009.203900300851
 31
0.0
 12
6179.394121129757
 22
2012.953900300851
 32
0.0
 13
6179.394121129757
 23
2012.953900300851
 33
0.0
  0
POINT
  5
A28A
330
A115
100
AcDbEntity
  8
DEFPOINTS
 62
     0
 48
20.0
100
AcDbPoint
 10
6119.394121129757
 20
1816.950245934465
 30
0.0
  0
POINT
  5
A28B
330
A115
100
AcDbEntity
  8
DEFPOINTS
 62
     0
 48
20.0
100
AcDbPoint
 10
6179.394121129757
 20
1816.950245934465
 30
0.0
  0
POINT
  5
A28C
330
A115
100
AcDbEntity
  8
DEFPOINTS
 62
     0
 48
20.0
100
AcDbPoint
 10
6179.394121129757
 20
2012.953900300851
 30
0.0
  0
ENDBLK
  5
A122
330
A115
100
AcDbEntity
  8
0
 48
20.0
100
AcDbBlockEnd
  0
BLOCK
  5
A12D
330
A123
100
AcDbEntity
  8
0
 48
20.0
100
AcDbBlockBegin
  2
*D57
 70
     1
 10
0.0
 20
0.0
 30
0.0
  3
*D57
  1

  0
LINE
  5
A28D
330
A123
100
AcDbEntity
  8
寸法引出
 48
20.0
370
    -2
100
AcDbLine
 10
6179.394121129757
 20
1831.950245934466
 30
0.0
 11
6179.394121129757
 21
2020.453900300851
 31
0.0
  0
LINE
  5
A28E
330
A123
100
AcDbEntity
  8
寸法引出
 48
20.0
370
    -2
100
AcDbLine
 10
6547.394121129754
 20
1831.950245934466
 30
0.0
 11
6547.394121129754
 21
2020.453900300851
 31
0.0
  0
LINE
  5
A28F
330
A123
100
AcDbEntity
  8
寸法引出
 48
20.0
370
    -2
100
AcDbLine
 10
6201.894121129758
 20
2012.953900300851
 30
0.0
 11
6524.894121129756
 21
2012.953900300851
 31
0.0
  0
SOLID
  5
A290
330
A123
100
AcDbEntity
  8
寸法引出
 48
20.0
100
AcDbTrace
 10
6201.894121129758
 20
2016.703900300851
 30
0.0
 11
6201.894121129758
 21
2009.203900300851
 31
0.0
 12
6179.394121129757
 22
2012.953900300851
 32
0.0
 13
6179.394121129757
 23
2012.953900300851
 33
0.0
  0
SOLID
  5
A291
330
A123
100
AcDbEntity
  8
寸法引出
 48
20.0
100
AcDbTrace
 10
6524.894121129756
 20
2016.703900300851
 30
0.0
 11
6524.894121129756
 21
2009.203900300851
 31
0.0
 12
6547.394121129754
 22
2012.953900300851
 32
0.0
 13
6547.394121129754
 23
2012.953900300851
 33
0.0
  0
MTEXT
  5
A292
330
A123
100
AcDbEntity
  8
寸法引出
 48
20.0
100
AcDbMText
 10
6363.394121129757
 20
2042.953900300851
 30
0.0
 40
30.0
 41
0.0
 71
     5
 72
     1
  1
\A1;368
  7
SANWA
 73
     1
 44
1.0
  0
POINT
  5
A293
330
A123
100
AcDbEntity
  8
DEFPOINTS
 62
     0
 48
20.0
100
AcDbPoint
 10
6179.394121129757
 20
1816.950245934465
 30
0.0
  0
POINT
  5
A294
330
A123
100
AcDbEntity
  8
DEFPOINTS
 62
     0
 48
20.0
100
AcDbPoint
 10
6547.394121129754
 20
1816.950245934465
 30
0.0
  0
POINT
  5
A295
330
A123
100
AcDbEntity
  8
DEFPOINTS
 62
     0
 48
20.0
100
AcDbPoint
 10
6547.394121129754
 20
2012.953900300851
 30
0.0
  0
ENDBLK
  5
A12E
330
A123
100
AcDbEntity
  8
0
 48
20.0
100
AcDbBlockEnd
  0
BLOCK
  5
A139
330
A12F
100
AcDbEntity
  8
0
 48
20.0
100
AcDbBlockBegin
  2
*D58
 70
     1
 10
0.0
 20
0.0
 30
0.0
  3
*D58
  1

  0
LINE
  5
A296
330
A12F
100
AcDbEntity
  8
寸法引出
 48
20.0
370
    -2
100
AcDbLine
 10
6078.394121129754
 20
2216.950245934464
 30
0.0
 11
5978.225426902813
 21
2216.950245934464
 31
0.0
  0
LINE
  5
A297
330
A12F
100
AcDbEntity
  8
寸法引出
 48
20.0
370
    -2
100
AcDbLine
 10
6104.394121129757
 20
1816.950245934465
 30
0.0
 11
5978.225426902813
 21
1816.950245934465
 31
0.0
  0
LINE
  5
A298
330
A12F
100
AcDbEntity
  8
寸法引出
 48
20.0
370
    -2
100
AcDbLine
 10
5985.725426902813
 20
2194.450245934465
 30
0.0
 11
5985.725426902813
 21
1839.450245934465
 31
0.0
  0
SOLID
  5
A299
330
A12F
100
AcDbEntity
  8
寸法引出
 48
20.0
100
AcDbTrace
 10
5981.975426902812
 20
2194.450245934465
 30
0.0
 11
5989.475426902814
 21
2194.450245934465
 31
0.0
 12
5985.725426902813
 22
2216.950245934464
 32
0.0
 13
5985.725426902813
 23
2216.950245934464
 33
0.0
  0
SOLID
  5
A29A
330
A12F
100
AcDbEntity
  8
寸法引出
 48
20.0
100
AcDbTrace
 10
5981.975426902812
 20
1839.450245934465
 30
0.0
 11
5989.475426902813
 21
1839.450245934465
 31
0.0
 12
5985.725426902813
 22
1816.950245934465
 32
0.0
 13
5985.725426902813
 23
1816.950245934465
 33
0.0
  0
MTEXT
  5
A29B
330
A12F
100
AcDbEntity
  8
寸法引出
 48
20.0
100
AcDbMText
 10
5955.725426902812
 20
2016.950245934466
 30
0.0
 40
30.0
 41
0.0
 71
     5
 72
     1
  1
\A1;400
  7
SANWA
 11
0.0000000000000001
 21
1.0
 31
0.0
 73
     1
 44
1.0
  0
POINT
  5
A29C
330
A12F
100
AcDbEntity
  8
DEFPOINTS
 62
     0
 48
20.0
100
AcDbPoint
 10
6093.394121129755
 20
2216.950245934464
 30
0.0
  0
POINT
  5
A29D
330
A12F
100
AcDbEntity
  8
DEFPOINTS
 62
     0
 48
20.0
100
AcDbPoint
 10
6119.394121129757
 20
1816.950245934465
 30
0.0
  0
POINT
  5
A29E
330
A12F
100
AcDbEntity
  8
DEFPOINTS
 62
     0
 48
20.0
100
AcDbPoint
 10
5985.725426902813
 20
1816.950245934465
 30
0.0
  0
ENDBLK
  5
A13A
330
A12F
100
AcDbEntity
  8
0
 48
20.0
100
AcDbBlockEnd
  0
BLOCK
  5
A147
330
A13B
100
AcDbEntity
  8
0
 48
20.0
100
AcDbBlockBegin
  2
*D59
 70
     1
 10
0.0
 20
0.0
 30
0.0
  3
*D59
  1

  0
LINE
  5
A29F
330
A13B
100
AcDbEntity
  8
寸法引出
 48
20.0
370
    -2
100
AcDbLine
 10
6104.394121129757
 20
1816.950245934465
 30
0.0
 11
5978.225426902813
 21
1816.950245934465
 31
0.0
  0
LINE
  5
A2A0
330
A13B
100
AcDbEntity
  8
寸法引出
 48
20.0
370
    -2
100
AcDbLine
 10
6128.619121129759
 20
1751.950245934466
 30
0.0
 11
5978.225426902813
 21
1751.950245934466
 31
0.0
  0
LINE
  5
A2A1
330
A13B
100
AcDbEntity
  8
寸法引出
 48
20.0
370
    -2
100
AcDbLine
 10
5985.725426902813
 20
1839.450245934465
 30
0.0
 11
5985.725426902813
 21
1861.950245934465
 31
0.0
  0
LINE
  5
A2A2
330
A13B
100
AcDbEntity
  8
寸法引出
 48
20.0
370
    -2
100
AcDbLine
 10
5985.725426902813
 20
1729.450245934466
 30
0.0
 11
5985.725426902813
 21
1706.950245934466
 31
0.0
  0
LINE
  5
A2A3
330
A13B
100
AcDbEntity
  8
寸法引出
 48
20.0
370
    -2
100
AcDbLine
 10
5985.725426902813
 20
1816.950245934465
 30
0.0
 11
5985.725426902813
 21
1751.950245934466
 31
0.0
  0
SOLID
  5
A2A4
330
A13B
100
AcDbEntity
  8
寸法引出
 48
20.0
100
AcDbTrace
 10
5981.975426902812
 20
1839.450245934465
 30
0.0
 11
5989.475426902813
 21
1839.450245934465
 31
0.0
 12
5985.725426902813
 22
1816.950245934465
 32
0.0
 13
5985.725426902813
 23
1816.950245934465
 33
0.0
  0
SOLID
  5
A2A5
330
A13B
100
AcDbEntity
  8
寸法引出
 48
20.0
100
AcDbTrace
 10
5981.975426902812
 20
1729.450245934466
 30
0.0
 11
5989.475426902813
 21
1729.450245934466
 31
0.0
 12
5985.725426902813
 22
1751.950245934466
 32
0.0
 13
5985.725426902813
 23
1751.950245934466
 33
0.0
  0
MTEXT
  5
A2A6
330
A13B
100
AcDbEntity
  8
寸法引出
 48
20.0
100
AcDbMText
 10
5955.725426902812
 20
1784.450245934467
 30
0.0
 40
30.0
 41
0.0
 71
     5
 72
     1
  1
\A1;65
  7
SANWA
 11
0.0000000000000001
 21
1.0
 31
0.0
 73
     1
 44
1.0
  0
POINT
  5
A2A7
330
A13B
100
AcDbEntity
  8
DEFPOINTS
 62
     0
 48
20.0
100
AcDbPoint
 10
6119.394121129757
 20
1816.950245934465
 30
0.0
  0
POINT
  5
A2A8
330
A13B
100
AcDbEntity
  8
DEFPOINTS
 62
     0
 48
20.0
100
AcDbPoint
 10
6143.619121129757
 20
1751.950245934466
 30
0.0
  0
POINT
  5
A2A9
330
A13B
100
AcDbEntity
  8
DEFPOINTS
 62
     0
 48
20.0
100
AcDbPoint
 10
5985.725426902813
 20
1751.950245934466
 30
0.0
  0
ENDBLK
  5
A148
330
A13B
100
AcDbEntity
  8
0
 48
20.0
100
AcDbBlockEnd
  0
BLOCK
  5
A153
330
A149
100
AcDbEntity
  8
0
 48
20.0
100
AcDbBlockBegin
  2
*D60
 70
     1
 10
0.0
 20
0.0
 30
0.0
  3
*D60
  1

  0
LINE
  5
A2AA
330
A149
100
AcDbEntity
  8
寸法引出
 48
20.0
370
    -2
100
AcDbLine
 10
6082.894121129754
 20
2306.950245934464
 30
0.0
 11
5909.838983631224
 21
2306.950245934464
 31
0.0
  0
LINE
  5
A2AB
330
A149
100
AcDbEntity
  8
寸法引出
 48
20.0
370
    -2
100
AcDbLine
 10
6128.619121129759
 20
1751.950245934466
 30
0.0
 11
5909.838983631221
 21
1751.950245934466
 31
0.0
  0
LINE
  5
A2AC
330
A149
100
AcDbEntity
  8
寸法引出
 48
20.0
370
    -2
100
AcDbLine
 10
5917.338983631221
 20
2284.450245934464
 30
0.0
 11
5917.338983631221
 21
1774.450245934465
 31
0.0
  0
SOLID
  5
A2AD
330
A149
100
AcDbEntity
  8
寸法引出
 48
20.0
100
AcDbTrace
 10
5913.588983631224
 20
2284.450245934464
 30
0.0
 11
5921.088983631221
 21
2284.450245934464
 31
0.0
 12
5917.338983631221
 22
2306.950245934464
 32
0.0
 13
5917.338983631221
 23
2306.950245934464
 33
0.0
  0
SOLID
  5
A2AE
330
A149
100
AcDbEntity
  8
寸法引出
 48
20.0
100
AcDbTrace
 10
5913.588983631221
 20
1774.450245934465
 30
0.0
 11
5921.088983631221
 21
1774.450245934465
 31
0.0
 12
5917.338983631221
 22
1751.950245934466
 32
0.0
 13
5917.338983631221
 23
1751.950245934466
 33
0.0
  0
MTEXT
  5
A2AF
330
A149
100
AcDbEntity
  8
寸法引出
 48
20.0
100
AcDbMText
 10
5887.338983631222
 20
2029.450245934467
 30
0.0
 40
30.0
 41
0.0
 71
     5
 72
     1
  1
\A1;555
  7
SANWA
 11
0.0000000000000001
 21
1.0
 31
0.0
 73
     1
 44
1.0
  0
POINT
  5
A2B0
330
A149
100
AcDbEntity
  8
DEFPOINTS
 62
     0
 48
20.0
100
AcDbPoint
 10
6097.894121129755
 20
2306.950245934464
 30
0.0
  0
POINT
  5
A2B1
330
A149
100
AcDbEntity
  8
DEFPOINTS
 62
     0
 48
20.0
100
AcDbPoint
 10
6143.619121129757
 20
1751.950245934466
 30
0.0
  0
POINT
  5
A2B2
330
A149
100
AcDbEntity
  8
DEFPOINTS
 62
     0
 48
20.0
100
AcDbPoint
 10
5917.338983631221
 20
1751.950245934466
 30
0.0
  0
ENDBLK
  5
A154
330
A149
100
AcDbEntity
  8
0
 48
20.0
100
AcDbBlockEnd
  0
BLOCK
  5
A15F
330
A155
100
AcDbEntity
  8
0
 48
20.0
100
AcDbBlockBegin
  2
*D61
 70
     1
 10
0.0
 20
0.0
 30
0.0
  3
*D61
  1

  0
LINE
  5
A2B3
330
A155
100
AcDbEntity
  8
寸法引出
 48
20.0
370
    -2
100
AcDbLine
 10
6093.394121129755
 20
1395.05222456575
 30
0.0
 11
6093.394121129755
 21
1550.058837017727
 31
0.0
  0
LINE
  5
A2B4
330
A155
100
AcDbEntity
  8
寸法引出
 48
20.0
370
    -2
100
AcDbLine
 10
6633.394121129756
 20
1395.052224565749
 30
0.0
 11
6633.394121129756
 21
1550.058837017727
 31
0.0
  0
LINE
  5
A2B5
330
A155
100
AcDbEntity
  8
寸法引出
 48
20.0
370
    -2
100
AcDbLine
 10
6115.894121129755
 20
1542.558837017728
 30
0.0
 11
6610.894121129755
 21
1542.558837017728
 31
0.0
  0
SOLID
  5
A2B6
330
A155
100
AcDbEntity
  8
寸法引出
 48
20.0
100
AcDbTrace
 10
6115.894121129755
 20
1546.308837017727
 30
0.0
 11
6115.894121129755
 21
1538.808837017727
 31
0.0
 12
6093.394121129755
 22
1542.558837017728
 32
0.0
 13
6093.394121129755
 23
1542.558837017728
 33
0.0
  0
SOLID
  5
A2B7
330
A155
100
AcDbEntity
  8
寸法引出
 48
20.0
100
AcDbTrace
 10
6610.894121129755
 20
1546.308837017727
 30
0.0
 11
6610.894121129755
 21
1538.808837017727
 31
0.0
 12
6633.394121129756
 22
1542.558837017728
 32
0.0
 13
6633.394121129756
 23
1542.558837017728
 33
0.0
  0
MTEXT
  5
A2B8
330
A155
100
AcDbEntity
  8
寸法引出
 48
20.0
100
AcDbMText
 10
6363.394121129754
 20
1572.558837017727
 30
0.0
 40
30.0
 41
0.0
 71
     5
 72
     1
  1
\A1;540
  7
SANWA
 73
     1
 44
1.0
  0
POINT
  5
A2B9
330
A155
100
AcDbEntity
  8
DEFPOINTS
 62
     0
 48
20.0
100
AcDbPoint
 10
6093.394121129755
 20
1380.05222456575
 30
0.0
  0
POINT
  5
A2BA
330
A155
100
AcDbEntity
  8
DEFPOINTS
 62
     0
 48
20.0
100
AcDbPoint
 10
6633.394121129756
 20
1380.052224565749
 30
0.0
  0
POINT
  5
A2BB
330
A155
100
AcDbEntity
  8
DEFPOINTS
 62
     0
 48
20.0
100
AcDbPoint
 10
6633.394121129756
 20
1542.558837017728
 30
0.0
  0
ENDBLK
  5
A160
330
A155
100
AcDbEntity
  8
0
 48
20.0
100
AcDbBlockEnd
  0
BLOCK
  5
A16B
330
A161
100
AcDbEntity
  8
0
 48
20.0
100
AcDbBlockBegin
  2
*D62
 70
     1
 10
0.0
 20
0.0
 30
0.0
  3
*D62
  1

  0
LINE
  5
A2BC
330
A161
100
AcDbEntity
  8
寸法引出
 48
20.0
370
    -2
100
AcDbLine
 10
6082.894121129754
 20
1384.55222456575
 30
0.0
 11
5909.838983631221
 21
1384.55222456575
 31
0.0
  0
LINE
  5
A2BD
330
A161
100
AcDbEntity
  8
寸法引出
 48
20.0
370
    -2
100
AcDbLine
 10
6128.619121129759
 20
829.5522245657506
 30
0.0
 11
5909.838983631221
 21
829.5522245657506
 31
0.0
  0
LINE
  5
A2BE
330
A161
100
AcDbEntity
  8
寸法引出
 48
20.0
370
    -2
100
AcDbLine
 10
5917.338983631221
 20
1362.05222456575
 30
0.0
 11
5917.338983631221
 21
852.0522245657508
 31
0.0
  0
SOLID
  5
A2BF
330
A161
100
AcDbEntity
  8
寸法引出
 48
20.0
100
AcDbTrace
 10
5913.588983631221
 20
1362.05222456575
 30
0.0
 11
5921.088983631221
 21
1362.05222456575
 31
0.0
 12
5917.338983631221
 22
1384.55222456575
 32
0.0
 13
5917.338983631221
 23
1384.55222456575
 33
0.0
  0
SOLID
  5
A2C0
330
A161
100
AcDbEntity
  8
寸法引出
 48
20.0
100
AcDbTrace
 10
5913.588983631221
 20
852.0522245657508
 30
0.0
 11
5921.088983631221
 21
852.0522245657508
 31
0.0
 12
5917.338983631221
 22
829.5522245657506
 32
0.0
 13
5917.338983631221
 23
829.5522245657506
 33
0.0
  0
MTEXT
  5
A2C1
330
A161
100
AcDbEntity
  8
寸法引出
 48
20.0
100
AcDbMText
 10
5887.338983631222
 20
1107.052224565751
 30
0.0
 40
30.0
 41
0.0
 71
     5
 72
     1
  1
\A1;555
  7
SANWA
 11
0.0000000000000001
 21
1.0
 31
0.0
 73
     1
 44
1.0
  0
POINT
  5
A2C2
330
A161
100
AcDbEntity
  8
DEFPOINTS
 62
     0
 48
20.0
100
AcDbPoint
 10
6097.894121129755
 20
1384.55222456575
 30
0.0
  0
POINT
  5
A2C3
330
A161
100
AcDbEntity
  8
DEFPOINTS
 62
     0
 48
20.0
100
AcDbPoint
 10
6143.619121129757
 20
829.5522245657506
 30
0.0
  0
POINT
  5
A2C4
330
A161
100
AcDbEntity
  8
DEFPOINTS
 62
     0
 48
20.0
100
AcDbPoint
 10
5917.338983631221
 20
829.5522245657506
 30
0.0
  0
ENDBLK
  5
A16C
330
A161
100
AcDbEntity
  8
0
 48
20.0
100
AcDbBlockEnd
  0
BLOCK
  5
A179
330
A16D
100
AcDbEntity
  8
0
 48
20.0
100
AcDbBlockBegin
  2
*D63
 70
     1
 10
0.0
 20
0.0
 30
0.0
  3
*D63
  1

  0
LINE
  5
A2C5
330
A16D
100
AcDbEntity
  8
寸法引出
 48
20.0
370
    -2
100
AcDbLine
 10
6151.894121129753
 20
2231.950245934466
 30
0.0
 11
6151.894121129753
 21
2263.704435884525
 31
0.0
  0
LINE
  5
A2C6
330
A16D
100
AcDbEntity
  8
寸法引出
 48
20.0
370
    -2
100
AcDbLine
 10
6163.394121129755
 20
2231.950245934466
 30
0.0
 11
6163.394121129755
 21
2263.704435884525
 31
0.0
  0
LINE
  5
A2C7
330
A16D
100
AcDbEntity
  8
寸法引出
 48
20.0
370
    -2
100
AcDbLine
 10
6129.394121129753
 20
2256.204435884526
 30
0.0
 11
6106.894121129753
 21
2256.204435884526
 31
0.0
  0
LINE
  5
A2C8
330
A16D
100
AcDbEntity
  8
寸法引出
 48
20.0
370
    -2
100
AcDbLine
 10
6185.894121129756
 20
2256.204435884526
 30
0.0
 11
6208.394121129754
 21
2256.204435884526
 31
0.0
  0
MTEXT
  5
A2C9
330
A16D
100
AcDbEntity
  8
寸法引出
 48
20.0
100
AcDbMText
 10
6187.096673538658
 20
2288.123595029438
 30
0.0
 40
30.0
 41
0.0
 71
     5
 72
     1
  1
\A1;11.5
  7
SANWA
 73
     1
 44
1.0
  0
LINE
  5
A2CA
330
A16D
100
AcDbEntity
  8
寸法引出
 48
20.0
370
    -2
100
AcDbLine
 10
6151.894121129753
 20
2256.204435884526
 30
0.0
 11
6163.394121129755
 21
2256.204435884526
 31
0.0
  0
SOLID
  5
A2CB
330
A16D
100
AcDbEntity
  8
寸法引出
 48
20.0
100
AcDbTrace
 10
6129.394121129753
 20
2259.954435884526
 30
0.0
 11
6129.394121129753
 21
2252.454435884526
 31
0.0
 12
6151.894121129753
 22
2256.204435884526
 32
0.0
 13
6151.894121129753
 23
2256.204435884526
 33
0.0
  0
SOLID
  5
A2CC
330
A16D
100
AcDbEntity
  8
寸法引出
 48
20.0
100
AcDbTrace
 10
6185.894121129756
 20
2259.954435884526
 30
0.0
 11
6185.894121129756
 21
2252.454435884526
 31
0.0
 12
6163.394121129755
 22
2256.204435884526
 32
0.0
 13
6163.394121129755
 23
2256.204435884526
 33
0.0
  0
POINT
  5
A2CD
330
A16D
100
AcDbEntity
  8
DEFPOINTS
 62
     0
 48
20.0
100
AcDbPoint
 10
6151.894121129753
 20
2216.950245934465
 30
0.0
  0
POINT
  5
A2CE
330
A16D
100
AcDbEntity
  8
DEFPOINTS
 62
     0
 48
20.0
100
AcDbPoint
 10
6163.394121129755
 20
2216.950245934464
 30
0.0
  0
POINT
  5
A2CF
330
A16D
100
AcDbEntity
  8
DEFPOINTS
 62
     0
 48
20.0
100
AcDbPoint
 10
6163.394121129755
 20
2256.204435884526
 30
0.0
  0
ENDBLK
  5
A17A
330
A16D
100
AcDbEntity
  8
0
 48
20.0
100
AcDbBlockEnd
  0
BLOCK
  5
A187
330
A17B
100
AcDbEntity
  8
0
 48
20.0
100
AcDbBlockBegin
  2
*D64
 70
     1
 10
0.0
 20
0.0
 30
0.0
  3
*D64
  1

  0
LINE
  5
A2D0
330
A17B
100
AcDbEntity
  8
寸法引出
 48
20.0
370
    -2
100
AcDbLine
 10
6166.894121129754
 20
2216.950245934465
 30
0.0
 11
6234.640094232908
 21
2216.950245934465
 31
0.0
  0
LINE
  5
A2D1
330
A17B
100
AcDbEntity
  8
寸法引出
 48
20.0
370
    -2
100
AcDbLine
 10
6178.714121129753
 20
2208.950245934465
 30
0.0
 11
6234.640094232908
 21
2208.950245934465
 31
0.0
  0
LINE
  5
A2D2
330
A17B
100
AcDbEntity
  8
寸法引出
 48
20.0
370
    -2
100
AcDbLine
 10
6227.140094232908
 20
2239.450245934465
 30
0.0
 11
6227.140094232908
 21
2261.950245934465
 31
0.0
  0
LINE
  5
A2D3
330
A17B
100
AcDbEntity
  8
寸法引出
 48
20.0
370
    -2
100
AcDbLine
 10
6227.140094232908
 20
2186.450245934465
 30
0.0
 11
6227.140094232908
 21
2163.950245934465
 31
0.0
  0
MTEXT
  5
A2D4
330
A17B
100
AcDbEntity
  8
寸法引出
 48
20.0
100
AcDbMText
 10
6201.580461841768
 20
2188.961396600614
 30
0.0
 40
30.0
 41
0.0
 71
     5
 72
     1
  1
\A1;8
  7
SANWA
 11
0.0000000000000001
 21
1.0
 31
0.0
 73
     1
 44
1.0
  0
LINE
  5
A2D5
330
A17B
100
AcDbEntity
  8
寸法引出
 48
20.0
370
    -2
100
AcDbLine
 10
6227.140094232908
 20
2216.950245934465
 30
0.0
 11
6227.140094232908
 21
2208.950245934465
 31
0.0
  0
SOLID
  5
A2D6
330
A17B
100
AcDbEntity
  8
寸法引出
 48
20.0
100
AcDbTrace
 10
6223.390094232907
 20
2239.450245934465
 30
0.0
 11
6230.890094232908
 21
2239.450245934465
 31
0.0
 12
6227.140094232908
 22
2216.950245934465
 32
0.0
 13
6227.140094232908
 23
2216.950245934465
 33
0.0
  0
SOLID
  5
A2D7
330
A17B
100
AcDbEntity
  8
寸法引出
 48
20.0
100
AcDbTrace
 10
6223.390094232907
 20
2186.450245934465
 30
0.0
 11
6230.890094232908
 21
2186.450245934465
 31
0.0
 12
6227.140094232908
 22
2208.950245934465
 32
0.0
 13
6227.140094232908
 23
2208.950245934465
 33
0.0
  0
POINT
  5
A2D8
330
A17B
100
AcDbEntity
  8
DEFPOINTS
 62
     0
 48
20.0
100
AcDbPoint
 10
6151.894121129753
 20
2216.950245934465
 30
0.0
  0
POINT
  5
A2D9
330
A17B
100
AcDbEntity
  8
DEFPOINTS
 62
     0
 48
20.0
100
AcDbPoint
 10
6163.714121129753
 20
2208.950245934465
 30
0.0
  0
POINT
  5
A2DA
330
A17B
100
AcDbEntity
  8
DEFPOINTS
 62
     0
 48
20.0
100
AcDbPoint
 10
6227.140094232908
 20
2208.950245934465
 30
0.0
  0
ENDBLK
  5
A188
330
A17B
100
AcDbEntity
  8
0
 48
20.0
100
AcDbBlockEnd
  0
BLOCK
  5
A193
330
A189
100
AcDbEntity
  8
0
 48
20.0
100
AcDbBlockBegin
  2
*D65
 70
     1
 10
0.0
 20
0.0
 30
0.0
  3
*D65
  1

  0
LINE
  5
A2DB
330
A189
100
AcDbEntity
  8
寸法引出
 48
20.0
370
    -2
100
AcDbLine
 10
6643.894121129753
 20
2306.950245934464
 30
0.0
 11
6720.952366067777
 21
2306.950245934464
 31
0.0
  0
LINE
  5
A2DC
330
A189
100
AcDbEntity
  8
寸法引出
 48
20.0
370
    -2
100
AcDbLine
 10
6634.484121129758
 20
2002.950245934465
 30
0.0
 11
6720.952366067777
 21
2002.950245934465
 31
0.0
  0
LINE
  5
A2DD
330
A189
100
AcDbEntity
  8
寸法引出
 48
20.0
370
    -2
100
AcDbLine
 10
6713.452366067778
 20
2284.450245934464
 30
0.0
 11
6713.452366067777
 21
2025.450245934466
 31
0.0
  0
SOLID
  5
A2DE
330
A189
100
AcDbEntity
  8
寸法引出
 48
20.0
100
AcDbTrace
 10
6709.702366067777
 20
2284.450245934464
 30
0.0
 11
6717.202366067779
 21
2284.450245934464
 31
0.0
 12
6713.452366067778
 22
2306.950245934464
 32
0.0
 13
6713.452366067778
 23
2306.950245934464
 33
0.0
  0
SOLID
  5
A2DF
330
A189
100
AcDbEntity
  8
寸法引出
 48
20.0
100
AcDbTrace
 10
6709.702366067777
 20
2025.450245934466
 30
0.0
 11
6717.202366067777
 21
2025.450245934466
 31
0.0
 12
6713.452366067777
 22
2002.950245934465
 32
0.0
 13
6713.452366067777
 23
2002.950245934465
 33
0.0
  0
MTEXT
  5
A2E0
330
A189
100
AcDbEntity
  8
寸法引出
 48
20.0
100
AcDbMText
 10
6683.452366067777
 20
2154.950245934466
 30
0.0
 40
30.0
 41
0.0
 71
     5
 72
     1
  1
\A1;304
  7
SANWA
 11
0.0000000000000001
 21
1.0
 31
0.0
 73
     1
 44
1.0
  0
POINT
  5
A2E1
330
A189
100
AcDbEntity
  8
DEFPOINTS
 62
     0
 48
20.0
100
AcDbPoint
 10
6628.894121129754
 20
2306.950245934464
 30
0.0
  0
POINT
  5
A2E2
330
A189
100
AcDbEntity
  8
DEFPOINTS
 62
     0
 48
20.0
100
AcDbPoint
 10
6619.484121129757
 20
2002.950245934465
 30
0.0
  0
POINT
  5
A2E3
330
A189
100
AcDbEntity
  8
DEFPOINTS
 62
     0
 48
20.0
100
AcDbPoint
 10
6713.452366067777
 20
2002.950245934465
 30
0.0
  0
ENDBLK
  5
A194
330
A189
100
AcDbEntity
  8
0
 48
20.0
100
AcDbBlockEnd
  0
BLOCK
  5
A1A1
330
A195
100
AcDbEntity
  8
0
 48
20.0
100
AcDbBlockBegin
  2
*D66
 70
     1
 10
0.0
 20
0.0
 30
0.0
  3
*D66
  1

  0
LINE
  5
A2E4
330
A195
100
AcDbEntity
  8
寸法引出
 48
20.0
370
    -2
100
AcDbLine
 10
6634.484121129758
 20
2002.950245934465
 30
0.0
 11
6720.952366067777
 21
2002.950245934465
 31
0.0
  0
LINE
  5
A2E5
330
A195
100
AcDbEntity
  8
寸法引出
 48
20.0
370
    -2
100
AcDbLine
 10
6627.984121129756
 20
1992.950245934466
 30
0.0
 11
6720.952366067777
 21
1992.950245934466
 31
0.0
  0
LINE
  5
A2E6
330
A195
100
AcDbEntity
  8
寸法引出
 48
20.0
370
    -2
100
AcDbLine
 10
6713.452366067777
 20
2025.450245934466
 30
0.0
 11
6713.452366067777
 21
2047.950245934466
 31
0.0
  0
LINE
  5
A2E7
330
A195
100
AcDbEntity
  8
寸法引出
 48
20.0
370
    -2
100
AcDbLine
 10
6713.452366067777
 20
1970.450245934466
 30
0.0
 11
6713.452366067777
 21
1947.950245934466
 31
0.0
  0
MTEXT
  5
A2E8
330
A195
100
AcDbEntity
  8
寸法引出
 48
20.0
100
AcDbMText
 10
6746.139720570329
 20
1998.791546685653
 30
0.0
 40
30.0
 41
0.0
 71
     5
 72
     1
  1
\A1;10
  7
SANWA
 11
0.0000000000000001
 21
1.0
 31
0.0
 73
     1
 44
1.0
  0
LINE
  5
A2E9
330
A195
100
AcDbEntity
  8
寸法引出
 48
20.0
370
    -2
100
AcDbLine
 10
6713.452366067777
 20
2002.950245934465
 30
0.0
 11
6713.452366067777
 21
1992.950245934466
 31
0.0
  0
SOLID
  5
A2EA
330
A195
100
AcDbEntity
  8
寸法引出
 48
20.0
100
AcDbTrace
 10
6709.702366067777
 20
2025.450245934466
 30
0.0
 11
6717.202366067777
 21
2025.450245934466
 31
0.0
 12
6713.452366067777
 22
2002.950245934465
 32
0.0
 13
6713.452366067777
 23
2002.950245934465
 33
0.0
  0
SOLID
  5
A2EB
330
A195
100
AcDbEntity
  8
寸法引出
 48
20.0
100
AcDbTrace
 10
6709.702366067777
 20
1970.450245934466
 30
0.0
 11
6717.202366067777
 21
1970.450245934466
 31
0.0
 12
6713.452366067777
 22
1992.950245934466
 32
0.0
 13
6713.452366067777
 23
1992.950245934466
 33
0.0
  0
POINT
  5
A2EC
330
A195
100
AcDbEntity
  8
DEFPOINTS
 62
     0
 48
20.0
100
AcDbPoint
 10
6619.484121129757
 20
2002.950245934465
 30
0.0
  0
POINT
  5
A2ED
330
A195
100
AcDbEntity
  8
DEFPOINTS
 62
     0
 48
20.0
100
AcDbPoint
 10
6612.984121129757
 20
1992.950245934466
 30
0.0
  0
POINT
  5
A2EE
330
A195
100
AcDbEntity
  8
DEFPOINTS
 62
     0
 48
20.0
100
AcDbPoint
 10
6713.452366067777
 20
1992.950245934466
 30
0.0
  0
ENDBLK
  5
A1A2
330
A195
100
AcDbEntity
  8
0
 48
20.0
100
AcDbBlockEnd
  0
BLOCK
  5
A1AD
330
A1A3
100
AcDbEntity
  8
0
 48
20.0
100
AcDbBlockBegin
  2
*D67
 70
     1
 10
0.0
 20
0.0
 30
0.0
  3
*D67
  1

  0
LINE
  5
A2EF
330
A1A3
100
AcDbEntity
  8
寸法引出
 48
20.0
370
    -2
100
AcDbLine
 10
6627.984121129756
 20
1992.950245934466
 30
0.0
 11
6720.952366067777
 21
1992.950245934466
 31
0.0
  0
LINE
  5
A2F0
330
A1A3
100
AcDbEntity
  8
寸法引出
 48
20.0
370
    -2
100
AcDbLine
 10
6627.984121129756
 20
1902.950245934465
 30
0.0
 11
6720.952366067777
 21
1902.950245934465
 31
0.0
  0
LINE
  5
A2F1
330
A1A3
100
AcDbEntity
  8
寸法引出
 48
20.0
370
    -2
100
AcDbLine
 10
6713.452366067777
 20
1970.450245934466
 30
0.0
 11
6713.452366067777
 21
1925.450245934465
 31
0.0
  0
SOLID
  5
A2F2
330
A1A3
100
AcDbEntity
  8
寸法引出
 48
20.0
100
AcDbTrace
 10
6709.702366067777
 20
1970.450245934466
 30
0.0
 11
6717.202366067777
 21
1970.450245934466
 31
0.0
 12
6713.452366067777
 22
1992.950245934466
 32
0.0
 13
6713.452366067777
 23
1992.950245934466
 33
0.0
  0
SOLID
  5
A2F3
330
A1A3
100
AcDbEntity
  8
寸法引出
 48
20.0
100
AcDbTrace
 10
6709.702366067777
 20
1925.450245934465
 30
0.0
 11
6717.202366067777
 21
1925.450245934465
 31
0.0
 12
6713.452366067777
 22
1902.950245934465
 32
0.0
 13
6713.452366067777
 23
1902.950245934465
 33
0.0
  0
MTEXT
  5
A2F4
330
A1A3
100
AcDbEntity
  8
寸法引出
 48
20.0
100
AcDbMText
 10
6683.452366067777
 20
1947.950245934467
 30
0.0
 40
30.0
 41
0.0
 71
     5
 72
     1
  1
\A1;90
  7
SANWA
 11
0.0000000000000001
 21
1.0
 31
0.0
 73
     1
 44
1.0
  0
POINT
  5
A2F5
330
A1A3
100
AcDbEntity
  8
DEFPOINTS
 62
     0
 48
20.0
100
AcDbPoint
 10
6612.984121129757
 20
1992.950245934466
 30
0.0
  0
POINT
  5
A2F6
330
A1A3
100
AcDbEntity
  8
DEFPOINTS
 62
     0
 48
20.0
100
AcDbPoint
 10
6612.984121129757
 20
1902.950245934465
 30
0.0
  0
POINT
  5
A2F7
330
A1A3
100
AcDbEntity
  8
DEFPOINTS
 62
     0
 48
20.0
100
AcDbPoint
 10
6713.452366067777
 20
1902.950245934465
 30
0.0
  0
ENDBLK
  5
A1AE
330
A1A3
100
AcDbEntity
  8
0
 48
20.0
100
AcDbBlockEnd
  0
ENDSEC
  0
SECTION
  2
ENTITIES
  0
LINE
  5
886A
330
747D
100
AcDbEntity
  8
0
 48
15.0
100
AcDbLine
 10
1448.57821980076
 20
1844.022199878661
 30
0.0
 11
1448.57821980076
 21
1758.522199878661
 31
0.0
  0
LINE
  5
886B
330
747D
100
AcDbEntity
  8
0
 48
15.0
100
AcDbLine
 10
908.5782198007601
 20
1844.022199878661
 30
0.0
 11
908.5782198007601
 21
1758.522199878661
 31
0.0
  0
LINE
  5
886C
330
747D
100
AcDbEntity
  8
0
 48
15.0
100
AcDbLine
 10
913.0782198007601
 20
1848.522199878661
 30
0.0
 11
948.57821980076
 21
1848.522199878661
 31
0.0
  0
LINE
  5
886F
330
747D
100
AcDbEntity
  8
0
 48
15.0
100
AcDbLine
 10
948.57821980076
 20
1848.522199878661
 30
0.0
 11
951.0782198007591
 21
1758.522199878661
 31
0.0
  0
LINE
  5
8870
330
747D
100
AcDbEntity
  8
0
 48
15.0
100
AcDbLine
 10
951.0782198007591
 20
1758.522199878661
 30
0.0
 11
967.0782198007591
 21
1758.522199878662
 31
0.0
  0
LINE
  5
8872
330
747D
100
AcDbEntity
  8
0
 48
15.0
100
AcDbLine
 10
1406.078219800759
 20
1758.522199878661
 30
0.0
 11
1390.078219800763
 21
1758.522199878662
 31
0.0
  0
LINE
  5
8873
330
747D
100
AcDbEntity
  8
0
 48
15.0
100
AcDbLine
 10
1408.57821980076
 20
1848.522199878661
 30
0.0
 11
1406.078219800759
 21
1758.522199878661
 31
0.0
  0
LINE
  5
8874
330
747D
100
AcDbEntity
  8
0
 48
15.0
100
AcDbLine
 10
1444.078219800758
 20
1848.522199878661
 30
0.0
 11
1408.57821980076
 21
1848.522199878661
 31
0.0
  0
LINE
  5
887A
330
747D
100
AcDbEntity
  8
0
 48
15.0
100
AcDbLine
 10
978.8982198007593
 20
1750.522199878662
 30
0.0
 11
991.6915102247576
 21
1430.689939278757
 31
0.0
  0
LINE
  5
887B
330
747D
100
AcDbEntity
  8
0
 48
15.0
100
AcDbLine
 10
1378.258219800761
 20
1750.522199878661
 30
0.0
 11
1365.464929376764
 21
1430.689939278756
 31
0.0
  0
LINE
  5
8882
330
747D
100
AcDbEntity
  8
0
 48
15.0
100
AcDbLine
 10
1872.493333821983
 20
1848.522199878661
 30
0.0
 11
1872.493333821983
 21
1293.522199878661
 31
0.0
  0
LINE
  5
8883
330
747D
100
AcDbEntity
  8
0
 48
15.0
100
AcDbLine
 10
1872.493333821983
 20
1293.522199878661
 30
0.0
 11
3870.493333821984
 21
1293.522199878661
 31
0.0
  0
LINE
  5
8884
330
747D
100
AcDbEntity
  8
0
 48
15.0
100
AcDbLine
 10
1872.493333821983
 20
1848.522199878661
 30
0.0
 11
3870.493333821984
 21
1848.522199878661
 31
0.0
  0
LINE
  5
8885
330
747D
100
AcDbEntity
  8
0
 48
15.0
100
AcDbLine
 10
3870.493333821984
 20
1848.522199878661
 30
0.0
 11
3870.493333821984
 21
1293.522199878661
 31
0.0
  0
TEXT
  5
8888
330
747D
100
AcDbEntity
  8
0
100
AcDbText
 10
1399.474232270368
 20
2722.52899042226
 30
0.0
 40
42.00000000000001
  1
エコノミー側溝（Ｈタイプ）４００×４００×１９９８
  7
SANWA
 72
     4
 11
2167.474232270368
 21
2743.76899042226
 31
0.0
100
AcDbText
  0
LINE
  5
8889
330
747D
100
AcDbEntity
  8
0
100
AcDbLine
 10
1393.896118833689
 20
2700.0
 30
0.0
 11
3286.10388116631
 21
2700.0
 31
0.0
  0
LINE
  5
888A
330
747D
100
AcDbEntity
  8
0
100
AcDbLine
 10
1393.896118833689
 20
2688.000000000001
 30
0.0
 11
3286.10388116631
 21
2688.000000000001
 31
0.0
  0
LINE
  5
888B
330
747D
100
AcDbEntity
  8
枠
100
AcDbLine
 10
375.0
 20
3000.0
 30
0.0
 11
4305.0
 21
3000.0
 31
0.0
  0
LINE
  5
888C
330
747D
100
AcDbEntity
  8
枠
100
AcDbLine
 10
375.0
 20
150.0
 30
0.0
 11
4305.0
 21
150.0000000000034
 31
0.0
  0
LINE
  5
888D
330
747D
100
AcDbEntity
  8
枠
100
AcDbLine
 10
375.0
 20
150.0
 30
0.0
 11
375.0
 21
3000.0
 31
0.0
  0
LINE
  5
888E
330
747D
100
AcDbEntity
  8
0
100
AcDbLine
 10
375.0
 20
0.0
 30
0.0
 11
0.0
 21
0.0
 31
0.0
  0
LINE
  5
888F
330
747D
100
AcDbEntity
  8
0
100
AcDbLine
 10
0.0
 20
0.0
 30
0.0
 11
0.0
 21
150.0
 31
0.0
  0
TEXT
  5
8890
330
747D
100
AcDbEntity
  8
0
100
AcDbText
 10
902.0440266348476
 20
2104.209718597914
 30
0.0
 40
36.0
  1
構造図
  7
SANWA
 72
     4
 11
981.0383123491332
 21
2122.7240043122
 31
0.0
100
AcDbText
  0
LINE
  5
8891
330
747D
100
AcDbEntity
  8
0
100
AcDbLine
 10
904.8761766520833
 20
2092.2656109705
 30
0.0
 11
1053.064045385632
 21
2092.2656109705
 31
0.0
  0
LINE
  5
8892
330
747D
100
AcDbEntity
  8
0
100
AcDbLine
 10
0.0
 20
3000.0
 30
0.0
 11
0.0
 21
3150.0
 31
0.0
  0
LINE
  5
8893
330
747D
100
AcDbEntity
  8
0
100
AcDbLine
 10
0.0
 20
3150.0
 30
0.0
 11
375.0
 21
3150.0
 31
0.0
  0
LINE
  5
8894
330
747D
100
AcDbEntity
  8
0
100
AcDbLine
 10
3646.531914893608
 20
306.0000000000012
 30
0.0
 11
3646.531914893608
 21
594.0000000000036
 31
0.0
  0
TEXT
  5
8895
330
747D
100
AcDbEntity
  8
0
 48
2.0
100
AcDbText
 10
3609.74309726096
 20
560.3768966870497
 30
0.0
 40
16.79999999999999
  1
品
  7
SANWA
100
AcDbText
  0
TEXT
  5
8896
330
747D
100
AcDbEntity
  8
0
 48
2.0
100
AcDbText
 10
3325.407362835249
 20
557.2772861648262
 30
0.0
 40
24.0
  1
図面
  7
SANWA
100
AcDbText
  0
LINE
  5
8897
330
747D
100
AcDbEntity
  8
0
100
AcDbLine
 10
3202.531914893616
 20
594.0000000000036
 30
0.0
 11
3202.531914893616
 21
522.0000000000026
 31
0.0
  0
TEXT
  5
8898
330
747D
100
AcDbEntity
  8
0
 48
2.0
100
AcDbText
 10
3392.339284911449
 20
558.6411916425953
 30
0.0
 40
24.0
  1
番号
  7
SANWA
100
AcDbText
  0
LINE
  5
8899
330
747D
100
AcDbEntity
  8
0
100
AcDbLine
 10
3598.531914893611
 20
150.0000000000034
 30
0.0
 11
3598.531914893611
 21
594.0000000000036
 31
0.0
  0
LINE
  5
889A
330
747D
100
AcDbEntity
  8
枠
100
AcDbLine
 10
4305.0
 20
150.0
 30
0.0
 11
4305.0
 21
3000.0
 31
0.0
  0
LINE
  5
889B
330
747D
100
AcDbEntity
  8
0
100
AcDbLine
 10
4455.0
 20
0.0
 30
0.0
 11
4305.0
 21
0.0
 31
0.0
  0
HATCH
  5
889C
330
747D
100
AcDbEntity
  8
0
100
AcDbHatch
 10
0.0
 20
0.0
 30
0.0
210
0.0
220
0.0
230
1.0
  2
SOLID
 70
     1
 71
     0
 91
        2
 92
        7
 72
     1
 73
     1
 93
        2
 10
3316.517041237145
 20
210.0000000000025
 42
1.0
 10
3220.546788550063
 20
210.0000000000025
 42
1.0
 97
        0
 92
       22
 72
     1
 73
     1
 93
        2
 10
3314.117041237151
 20
210.0000000000025
 42
-1.0
 10
3222.946788550071
 20
210.0000000000025
 42
-1.0
 97
        0
 75
     0
 76
     1
 47
0.0602706122334892
 98
        2
 10
3291.52220075993
 20
251.2492511007806
 10
3291.52220075993
 20
251.2492511007806
  0
CIRCLE
  5
889D
330
747D
100
AcDbEntity
  8
0
100
AcDbCircle
 10
3268.53191489361
 20
210.0000000000025
 30
0.0
 40
45.58512634354756
  0
CIRCLE
  5
889E
330
747D
100
AcDbEntity
  8
0
100
AcDbCircle
 10
3268.53191489361
 20
210.0000000000025
 30
0.0
 40
47.98512634354756
  0
ARC
  5
889F
330
747D
100
AcDbEntity
  8
0
100
AcDbCircle
 10
3680.136214331804
 20
223.2088158088008
 30
0.0
 40
33.0637889330479
100
AcDbArc
 50
274.1625874111285
 51
40.83741258887069
  0
ARC
  5
88A0
330
747D
100
AcDbEntity
  8
0
100
AcDbCircle
 10
3680.136214331804
 20
223.2088158088008
 30
0.0
 40
35.4637889330479
100
AcDbArc
 50
277.7788203119025
 51
37.2211796880979
  0
ARC
  5
88A1
330
747D
100
AcDbEntity
  8
0
100
AcDbCircle
 10
3680.136214331804
 20
223.2088158088008
 30
0.0
 40
43.8637889330479
100
AcDbArc
 50
273.1364954470843
 51
41.86350455291268
  0
ARC
  5
88A2
330
747D
100
AcDbEntity
  8
0
100
AcDbCircle
 10
3680.136214331804
 20
223.2088158088008
 30
0.0
 40
41.46378893304792
100
AcDbArc
 50
276.6476737862029
 51
38.35232621379395
  0
TEXT
  5
88A3
330
747D
100
AcDbEntity
  8
0
100
AcDbText
 10
3666.709002834941
 20
206.71887241068
 30
0.0
 40
18.0
  1
和
  7
SANWA
100
AcDbText
  0
LINE
  5
88A4
330
747D
100
AcDbEntity
  8
0
100
AcDbLine
 10
3466.531914893607
 20
150.0000000000034
 30
0.0
 11
3466.531914893607
 21
306.0000000000012
 31
0.0
  0
LINE
  5
88A5
330
747D
100
AcDbEntity
  8
0
100
AcDbLine
 10
3334.531914893604
 20
150.0000000000034
 30
0.0
 11
3334.531914893604
 21
342.0000000000026
 31
0.0
  0
LINE
  5
88A6
330
747D
100
AcDbEntity
  8
0
 62
     0
100
AcDbLine
 10
3202.531914893616
 20
378.0000000000022
 30
0.0
 11
3202.531914893616
 21
150.0000000000034
 31
0.0
  0
ARC
  5
88A7
330
747D
100
AcDbEntity
  8
0
100
AcDbCircle
 10
3680.136214331804
 20
223.2088158088008
 30
0.0
 40
41.46378893304792
100
AcDbArc
 50
141.6476737862061
 51
263.3523262137979
  0
ARC
  5
88A8
330
747D
100
AcDbEntity
  8
0
100
AcDbCircle
 10
3680.136214331804
 20
223.2088158088008
 30
0.0
 40
43.8637889330479
100
AcDbArc
 50
138.1364954470877
 51
266.8635045529164
  0
ARC
  5
88A9
330
747D
100
AcDbEntity
  8
0
100
AcDbCircle
 10
3680.136214331804
 20
223.2088158088008
 30
0.0
 40
35.4637889330479
100
AcDbArc
 50
142.7788203119019
 51
262.2211796880995
  0
ARC
  5
88AA
330
747D
100
AcDbEntity
  8
0
100
AcDbCircle
 10
3680.136214331804
 20
223.2088158088008
 30
0.0
 40
33.0637889330479
100
AcDbArc
 50
139.1625874111294
 51
265.8374125888726
  0
HATCH
  5
88AB
330
747D
100
AcDbEntity
  8
0
100
AcDbHatch
 10
0.0
 20
0.0
 30
0.0
210
0.0
220
0.0
230
1.0
  2
SOLID
 70
     1
 71
     0
 91
        6
 92
        7
 72
     1
 73
     1
 93
        4
 10
3650.863349880539
 20
255.8757928097576
 42
0.0
 10
3658.515314664834
 20
248.2238280254664
 42
-0.3722683533228753
 10
3701.757113998766
 20
248.2238280254664
 42
0.0
 10
3709.40907878306
 20
255.8757928097594
 42
0.3824979940290045
 97
        0
 92
       22
 72
     1
 73
     1
 93
        4
 10
3705.864308023094
 20
255.7251345994778
 42
0.0
 10
3701.588030276408
 20
251.448856852795
 42
0.3367429548951066
 10
3658.684398387205
 20
251.4488568527969
 42
0.0
 10
3654.40812064052
 20
255.7251345994763
 42
-0.347770427523089
 97
        0
 92
        7
 72
     1
 73
     1
 93
        4
 10
3705.151226548458
 20
244.8297154757716
 42
-0.6168583269099046
 10
3682.536214331801
 20
190.2322462690618
 42
0.0
 10
3682.536214331801
 20
179.4107338923163
 42
0.6292889159379735
 10
3712.803191332769
 20
252.4816802600628
 42
0.0
 97
        0
 92
       22
 72
     1
 73
     1
 93
        4
 10
3712.65253312248
 20
248.9369095000864
 42
-0.5873104908889239
 10
3684.936214331797
 20
182.0237967765786
 42
0.0
 10
3684.936214331797
 20
188.071366762408
 42
0.5741105922167471
 10
3708.376255375795
 20
244.6606317534053
 42
0.0
 97
        0
 92
        7
 72
     1
 73
     1
 93
        4
 10
3647.469237330846
 20
252.4816802600628
 42
0.6292889159379591
 10
3677.736214331813
 20
179.4107338923163
 42
0.0
 10
3677.736214331813
 20
190.2322462690618
 42
-0.6168583269099637
 10
3655.121202115139
 20
244.8297154757716
 42
0.0
 97
        0
 92
       22
 72
     1
 73
     1
 93
        4
 10
3651.896173287805
 20
244.6606317534053
 42
0.5741105922167496
 10
3675.336214331805
 20
188.071366762408
 42
0.0
 10
3675.336214331805
 20
182.0237967765786
 42
-0.5873104908889168
 10
3647.619895541135
 20
248.9369095000864
 42
0.0
 97
        0
 75
     0
 76
     1
 47
0.0143554168026844
 98
        6
 10
3699.348496783986
 20
260.8853257705129
 10
3699.348496783986
 20
260.8853257705129
 10
3708.313957346875
 20
246.9318614530628
 10
3708.313957346875
 20
246.9318614530628
 10
3652.969453356035
 20
246.4150661606038
 10
3652.969453356035
 20
246.4150661606038
  0
TEXT
  5
88AC
330
747D
100
AcDbEntity
  8
0
100
AcDbText
 10
3766.408313412449
 20
206.71887241068
 30
0.0
 40
24.0
  1
三和コンクリート工業株式会社
  7
SANWA
100
AcDbText
  0
LINE
  5
88AD
330
747D
100
AcDbEntity
  8
0
100
AcDbLine
 10
3677.736214331808
 20
179.4107338923163
 30
0.0
 11
3677.736214331808
 21
190.2322462690618
 31
0.0
  0
LINE
  5
88AE
330
747D
100
AcDbEntity
  8
0
100
AcDbLine
 10
3682.536214331804
 20
179.4107338923163
 30
0.0
 11
3682.536214331804
 21
190.2322462690618
 31
0.0
  0
LINE
  5
88AF
330
747D
100
AcDbEntity
  8
0
100
AcDbLine
 10
3684.9362143318
 20
182.0237967765786
 30
0.0
 11
3684.9362143318
 21
188.071366762408
 31
0.0
  0
LINE
  5
88B0
330
747D
100
AcDbEntity
  8
0
100
AcDbLine
 10
3675.336214331809
 20
182.0237967765786
 30
0.0
 11
3675.336214331809
 21
188.071366762408
 31
0.0
  0
TEXT
  5
88B1
330
747D
100
AcDbEntity
  8
0
 48
2.0
100
AcDbText
 10
3515.973620720816
 20
218.001897530876
 30
0.0
 40
24.0
  1
中
  7
SANWA
100
AcDbText
  0
TEXT
  5
88B2
330
747D
100
AcDbEntity
  8
0
 48
2.0
100
AcDbText
 10
3515.409250158043
 20
184.0310864446442
 30
0.0
 40
24.0
  1
川
  7
SANWA
100
AcDbText
  0
TEXT
  5
88B3
330
747D
100
AcDbEntity
  8
0
 48
2.0
100
AcDbText
 10
3424.24975579649
 20
80.91869382887693
 30
0.0
 40
24.0
  1
大
  7
SANWA
100
AcDbText
  0
TEXT
  5
88B4
330
747D
100
AcDbEntity
  8
0
 48
2.0
100
AcDbText
 10
3423.68538523373
 20
46.94788274264509
 30
0.0
 40
24.0
  1
嶋
  7
SANWA
100
AcDbText
  0
HATCH
  5
88B5
330
747D
100
AcDbEntity
  8
0
100
AcDbHatch
 10
0.0
 20
0.0
 30
0.0
210
0.0
220
0.0
230
1.0
  2
SOLID
 70
     1
 71
     0
 91
        4
 92
        7
 72
     1
 73
     1
 93
        2
 10
3580.51704123715
 20
210.0000000000025
 42
1.0
 10
3484.546788550069
 20
210.0000000000025
 42
1.0
 97
        0
 92
       22
 72
     1
 73
     1
 93
        2
 10
3578.117041237158
 20
210.0000000000025
 42
-1.0
 10
3486.946788550063
 20
210.0000000000025
 42
-1.0
 97
        0
 92
      136
 93
        4
 72
     1
 10
3507.985049292256
 20
206.0361832451618
 11
3559.070763577974
 21
206.0361832451618
 72
     1
 10
3559.070763577954
 20
206.0361832451618
 11
3559.070763577954
 21
253.9676118165904
 72
     1
 10
3559.070763577954
 20
253.9676118165904
 11
3507.985049292235
 21
253.9676118165904
 72
     1
 10
3507.985049292256
 20
253.9676118165904
 11
3507.985049292256
 21
206.0361832451618
 97
        0
 92
      136
 93
        4
 72
     1
 10
3507.900678729479
 20
173.6425150160728
 11
3558.026393015191
 21
173.6425150160728
 72
     1
 10
3558.026393015199
 20
173.6425150160728
 11
3558.026393015199
 21
218.6939435875014
 72
     1
 10
3558.026393015199
 20
218.6939435875014
 11
3507.900678729486
 21
218.6939435875014
 72
     1
 10
3507.900678729479
 20
218.6939435875014
 11
3507.900678729479
 21
173.6425150160728
 97
        0
 75
     0
 76
     1
 47
0.0602706122334892
 98
        2
 10
3555.522200759922
 20
251.2492511007806
 10
3555.522200759922
 20
251.2492511007806
  0
CIRCLE
  5
88B6
330
747D
100
AcDbEntity
  8
0
100
AcDbCircle
 10
3532.531914893608
 20
210.0000000000025
 30
0.0
 40
45.58512634354756
  0
CIRCLE
  5
88B7
330
747D
100
AcDbEntity
  8
0
100
AcDbCircle
 10
3532.531914893608
 20
210.0000000000025
 30
0.0
 40
47.98512634354756
  0
TEXT
  5
88B8
330
747D
100
AcDbEntity
  8
0
 48
2.0
100
AcDbText
 10
3302.854024831002
 20
79.62983329778467
 30
0.0
 40
24.0
  1
蒔
  7
SANWA
100
AcDbText
  0
CIRCLE
  5
88B9
330
747D
100
AcDbEntity
  8
0
100
AcDbCircle
 10
3320.649581970728
 20
72.91679629800341
 30
0.0
 40
45.58512634354756
  0
TEXT
  5
88BA
330
747D
100
AcDbEntity
  8
0
 48
2.0
100
AcDbText
 10
3302.289654268228
 20
43.08129504455904
 30
0.0
 40
24.0
  1
田
  7
SANWA
100
AcDbText
  0
TEXT
  5
88BB
330
747D
100
AcDbEntity
  8
0
 48
2.0
100
AcDbText
 10
3251.973620720832
 20
213.1710422595031
 30
0.0
 40
24.0
  1
河
  7
SANWA
100
AcDbText
  0
TEXT
  5
88BC
330
747D
100
AcDbEntity
  8
0
 48
2.0
100
AcDbText
 10
3251.409250158044
 20
179.2002311732713
 30
0.0
 40
24.0
  1
口
  7
SANWA
100
AcDbText
  0
CIRCLE
  5
88BD
330
747D
100
AcDbEntity
  8
0
100
AcDbCircle
 10
3320.649581970728
 20
72.91679629800341
 30
0.0
 40
47.98512634354756
  0
HATCH
  5
88BE
330
747D
100
AcDbEntity
  8
0
100
AcDbHatch
 10
0.0
 20
0.0
 30
0.0
210
0.0
220
0.0
230
1.0
  2
SOLID
 70
     1
 71
     0
 91
        4
 92
        7
 72
     1
 73
     1
 93
        2
 10
3368.634708314286
 20
72.91679629800341
 42
1.0
 10
3272.664455627189
 20
72.91679629800341
 42
1.0
 97
        0
 92
       22
 72
     1
 73
     1
 93
        2
 10
3366.234708314292
 20
72.91679629800341
 42
-1.0
 10
3275.064455627183
 20
72.91679629800341
 42
-1.0
 97
        0
 92
      136
 93
        4
 72
     1
 10
3296.47985922651
 20
71.11297954316267
 11
3346.811287797945
 21
71.11297954316267
 72
     1
 10
3346.811287797954
 20
71.11297954316267
 11
3346.811287797954
 21
116.7815509717341
 72
     1
 10
3346.811287797954
 20
116.7815509717341
 11
3296.479859226518
 21
116.7815509717341
 72
     1
 10
3296.47985922651
 20
116.7815509717341
 11
3296.47985922651
 21
71.11297954316267
 97
        0
 92
      136
 93
        4
 72
     1
 10
3295.538345806602
 20
35.39359702835938
 11
3346.624060092321
 21
35.39359702835938
 72
     1
 10
3346.624060092315
 20
35.39359702835938
 11
3346.624060092315
 21
83.32502559978797
 72
     1
 10
3346.624060092315
 20
83.32502559978797
 11
3295.538345806597
 21
83.32502559978797
 72
     1
 10
3295.538345806602
 20
83.32502559978797
 11
3295.538345806602
 21
35.39359702835938
 97
        0
 75
     0
 76
     1
 47
0.0602706122334892
 98
        2
 10
3343.639867837042
 20
114.1660473987815
 10
3343.639867837042
 20
114.1660473987815
  0
HATCH
  5
88BF
330
747D
100
AcDbEntity
  8
0
100
AcDbHatch
 10
0.0
 20
0.0
 30
0.0
210
0.0
220
0.0
230
1.0
  2
SOLID
 70
     1
 71
     0
 91
        4
 92
        7
 72
     1
 73
     1
 93
        2
 10
3488.793176312841
 20
72.91679629800341
 42
1.0
 10
3392.822923625742
 20
72.91679629800341
 42
1.0
 97
        0
 92
       22
 72
     1
 73
     1
 93
        2
 10
3486.393176312846
 20
72.91679629800341
 42
-1.0
 10
3395.222923625736
 20
72.91679629800341
 42
-1.0
 97
        0
 92
      136
 93
        4
 72
     1
 10
3416.638327225063
 20
71.11297954316267
 11
3466.969755796499
 21
71.11297954316267
 72
     1
 10
3466.969755796508
 20
71.11297954316267
 11
3466.969755796508
 21
116.7815509717341
 72
     1
 10
3466.969755796508
 20
116.7815509717341
 11
3416.638327225074
 21
116.7815509717341
 72
     1
 10
3416.638327225063
 20
116.7815509717341
 11
3416.638327225063
 21
71.11297954316267
 97
        0
 92
      136
 93
        4
 72
     1
 10
3415.696813805157
 20
35.39359702835938
 11
3466.782528090876
 21
35.39359702835938
 72
     1
 10
3466.782528090868
 20
35.39359702835938
 11
3466.782528090868
 21
83.32502559978797
 72
     1
 10
3466.782528090868
 20
83.32502559978797
 11
3415.69681380515
 21
83.32502559978797
 72
     1
 10
3415.696813805157
 20
83.32502559978797
 11
3415.696813805157
 21
35.39359702835938
 97
        0
 75
     0
 76
     1
 47
0.0602706122334892
 98
        2
 10
3463.798335835596
 20
114.1660473987815
 10
3463.798335835596
 20
114.1660473987815
  0
CIRCLE
  5
88C0
330
747D
100
AcDbEntity
  8
0
100
AcDbCircle
 10
3440.808049969282
 20
72.91679629800341
 30
0.0
 40
47.98512634354756
  0
CIRCLE
  5
88C1
330
747D
100
AcDbEntity
  8
0
100
AcDbCircle
 10
3440.808049969282
 20
72.91679629800341
 30
0.0
 40
45.58512634354756
  0
LINE
  5
88C2
330
747D
100
AcDbEntity
  8
0
 62
     0
100
AcDbLine
 10
3598.531914893611
 20
498.0000000000041
 30
0.0
 11
4305.0
 21
498.0000000000041
 31
0.0
  0
LINE
  5
88C3
330
747D
100
AcDbEntity
  8
0
 62
     0
100
AcDbLine
 10
3598.531914893611
 20
402.0000000000027
 30
0.0
 11
4305.0
 21
402.0000000000027
 31
0.0
  0
LINE
  5
88C4
330
747D
100
AcDbEntity
  8
0
100
AcDbLine
 10
3202.531914893616
 20
306.0000000000012
 30
0.0
 11
4305.0
 21
306.0000000000012
 31
0.0
  0
LINE
  5
88C5
330
747D
100
AcDbEntity
  8
0
100
AcDbLine
 10
3705.151226548464
 20
244.8297154757714
 30
0.0
 11
3712.803191332763
 21
252.4816802600628
 31
0.0
  0
LINE
  5
88C6
330
747D
100
AcDbEntity
  8
0
100
AcDbLine
 10
3708.3762553758
 20
244.6606317534053
 30
0.0
 11
3712.652533122477
 21
248.9369095000865
 31
0.0
  0
ARC
  5
88C7
330
747D
100
AcDbEntity
  8
0
100
AcDbCircle
 10
3680.136214331804
 20
223.2088158088008
 30
0.0
 40
33.0637889330479
100
AcDbArc
 50
49.16258741113066
 51
130.83741258887
  0
ARC
  5
88C8
330
747D
100
AcDbEntity
  8
0
100
AcDbCircle
 10
3680.136214331804
 20
223.2088158088008
 30
0.0
 40
35.4637889330479
100
AcDbArc
 50
52.77882031190562
 51
127.2211796880944
  0
LINE
  5
88C9
330
747D
100
AcDbEntity
  8
0
100
AcDbLine
 10
3658.515314664827
 20
248.2238280254664
 30
0.0
 11
3650.816888003564
 21
255.9222546867419
 31
0.0
  0
LINE
  5
88CA
330
747D
100
AcDbEntity
  8
0
100
AcDbLine
 10
3655.121202115133
 20
244.8297154757714
 30
0.0
 11
3647.422775453869
 21
252.528142137047
 31
0.0
  0
LINE
  5
88CB
330
747D
100
AcDbEntity
  8
0
100
AcDbLine
 10
3651.896173287809
 20
244.6606317534053
 30
0.0
 11
3647.619895541119
 21
248.9369095000865
 31
0.0
  0
LINE
  5
88CC
330
747D
100
AcDbEntity
  8
0
100
AcDbLine
 10
3658.684398387199
 20
251.4488568527966
 30
0.0
 11
3654.408120640509
 21
255.7251345994763
 31
0.0
  0
TEXT
  5
88CD
330
747D
100
AcDbEntity
  8
0
100
AcDbText
 10
3666.709002834941
 20
230.6320916026407
 30
0.0
 40
18.0
  1
三
  7
SANWA
100
AcDbText
  0
ARC
  5
88CE
330
747D
100
AcDbEntity
  8
0
100
AcDbCircle
 10
3680.136214331804
 20
223.2088158088008
 30
0.0
 40
41.46378893304792
100
AcDbArc
 50
51.64767378620884
 51
128.3523262138006
  0
ARC
  5
88CF
330
747D
100
AcDbEntity
  8
0
100
AcDbCircle
 10
3680.136214331804
 20
223.2088158088008
 30
0.0
 40
43.8637889330479
100
AcDbArc
 50
48.13649544708379
 51
131.8635045529163
  0
LINE
  5
88D0
330
747D
100
AcDbEntity
  8
0
100
AcDbLine
 10
3701.757113998769
 20
248.2238280254664
 30
0.0
 11
3709.409078783054
 21
255.8757928097593
 31
0.0
  0
LINE
  5
88D1
330
747D
100
AcDbEntity
  8
0
100
AcDbLine
 10
3701.588030276411
 20
251.4488568527966
 30
0.0
 11
3705.864308023087
 21
255.7251345994778
 31
0.0
  0
TEXT
  5
88D2
330
747D
100
AcDbEntity
  8
0
 48
2.0
100
AcDbText
 10
3608.833038597698
 20
520.9962632445932
 30
0.0
 40
16.79999999999999
  1
名
  7
SANWA
100
AcDbText
  0
LINE
  5
88D3
330
747D
100
AcDbEntity
  8
0
 62
     0
100
AcDbLine
 10
3202.531914893616
 20
546.0000000000031
 30
0.0
 11
3598.531914893611
 21
546.0000000000031
 31
0.0
  0
LINE
  5
88D4
330
747D
100
AcDbEntity
  8
0
 62
     0
100
AcDbLine
 10
3202.531914893616
 20
546.0000000000031
 30
0.0
 11
3598.531914893611
 21
546.0000000000031
 31
0.0
  0
TEXT
  5
88D6
330
747D
100
AcDbEntity
  8
0
 48
2.0
100
AcDbText
 10
3608.525134886859
 20
443.4326160008049
 30
0.0
 40
16.79999999999999
  1
び
  7
SANWA
100
AcDbText
  0
TEXT
  5
88D7
330
747D
100
AcDbEntity
  8
0
 48
2.0
100
AcDbText
 10
3608.865365864922
 20
419.9263485547304
 30
0.0
 40
16.79999999999999
  1
名
  7
SANWA
100
AcDbText
  0
TEXT
  5
88D8
330
747D
100
AcDbEntity
  8
0
 48
2.0
100
AcDbText
 10
3609.288067929337
 20
360.6846153128758
 30
0.0
 40
16.79999999999999
  1
規
  7
SANWA
100
AcDbText
  0
TEXT
  5
88D9
330
747D
100
AcDbEntity
  8
0
 48
2.0
100
AcDbText
 10
3609.288067929337
 20
324.9410917409396
 30
0.0
 40
16.79999999999999
  1
格
  7
SANWA
100
AcDbText
  0
TEXT
  5
88DA
330
747D
100
AcDbEntity
  8
0
 48
2.0
100
AcDbText
 10
3498.749396044367
 20
277.2513790084826
 30
0.0
 40
24.0
  1
製図
  7
SANWA
100
AcDbText
  0
LINE
  5
88DB
330
747D
100
AcDbEntity
  8
0
100
AcDbLine
 10
3202.531914893616
 20
402.0000000000027
 30
0.0
 11
3202.531914893616
 21
436.0565675878984
 31
0.0
  0
LINE
  5
88DC
330
747D
100
AcDbEntity
  8
0
100
AcDbLine
 10
3202.531914893616
 20
342.0000000000026
 30
0.0
 11
3202.531914893616
 21
378.0000000000022
 31
0.0
  0
TEXT
  5
88DD
330
747D
100
AcDbEntity
  8
0
 48
2.0
100
AcDbText
 10
3231.216179933126
 20
275.7717951156461
 30
0.0
 40
24.0
  1
検図
  7
SANWA
100
AcDbText
  0
LINE
  5
88DE
330
747D
100
AcDbEntity
  8
0
100
AcDbLine
 10
3202.531914893616
 20
342.0000000000026
 30
0.0
 11
3202.531914893616
 21
306.0000000000012
 31
0.0
  0
TEXT
  5
88DF
330
747D
100
AcDbEntity
  8
0
 48
2.0
100
AcDbText
 10
3234.749396044362
 20
313.2513790084821
 30
0.0
 40
24.0
  1
製図
  7
SANWA
100
AcDbText
  0
LINE
  5
88E0
330
747D
100
AcDbEntity
  8
0
100
AcDbLine
 10
3202.531914893616
 20
378.0000000000022
 30
0.0
 11
3202.531914893616
 21
299.9351497097658
 31
0.0
  0
LINE
  5
88E1
330
747D
100
AcDbEntity
  8
0
 62
     0
100
AcDbLine
 10
3202.531914893616
 20
474.0000000000036
 30
0.0
 11
3598.531914893611
 21
474.0000000000036
 31
0.0
  0
LINE
  5
88E2
330
747D
100
AcDbEntity
  8
0
 62
     0
100
AcDbLine
 10
3202.531914893616
 20
426.0000000000031
 30
0.0
 11
3598.531914893611
 21
426.0000000000031
 31
0.0
  0
TEXT
  5
88E3
330
747D
100
AcDbEntity
  8
0
 48
2.0
100
AcDbText
 10
3326.458873159408
 20
434.3839146702152
 30
0.0
 40
24.0
  1
縮    尺
  7
SANWA
100
AcDbText
  0
TEXT
  5
88E4
330
747D
100
AcDbEntity
  8
0
 48
2.0
100
AcDbText
 10
3342.663150318294
 20
378.5853012973511
 30
0.0
 40
24.0
  1
1 : 15
  7
SANWA
100
AcDbText
  0
LINE
  5
88E5
330
747D
100
AcDbEntity
  8
0
 62
     0
100
AcDbLine
 10
3202.531914893616
 20
342.0000000000026
 30
0.0
 11
3598.531914893611
 21
342.0000000000026
 31
0.0
  0
TEXT
  5
88E6
330
747D
100
AcDbEntity
  8
0
 48
2.0
100
AcDbText
 10
3369.075985825584
 20
277.1357177512963
 30
0.0
 40
24.0
  1
設計
  7
SANWA
100
AcDbText
  0
LINE
  5
88E7
330
747D
100
AcDbEntity
  8
0
 62
     0
100
AcDbLine
 10
3202.531914893616
 20
270.0000000000018
 30
0.0
 11
3598.531914893611
 21
270.0000000000018
 31
0.0
  0
TEXT
  5
88E8
330
747D
100
AcDbEntity
  8
0
 48
2.0
100
AcDbText
 10
3388.972302949391
 20
313.2513790084821
 30
0.0
 40
24.0
  1
2005. 2. 8
  7
SANWA
100
AcDbText
  0
LINE
  5
88E9
330
747D
100
AcDbEntity
  8
0
 62
     0
100
AcDbLine
 10
3202.531914893616
 20
522.0000000000026
 30
0.0
 11
3202.531914893616
 21
378.0000000000022
 31
0.0
  0
LINE
  5
88EA
330
747D
100
AcDbEntity
  8
0
100
AcDbLine
 10
3202.531914893616
 20
436.0565675878984
 30
0.0
 11
3202.531914893616
 21
529.2701469420904
 31
0.0
  0
TEXT
  5
88EB
330
747D
100
AcDbEntity
  8
0
 48
2.0
100
AcDbText
 10
3608.763425308412
 20
466.4348193000683
 30
0.0
 40
16.79999999999999
  1
呼
  7
SANWA
100
AcDbText
  0
TEXT
  5
88EC
330
747D
100
AcDbEntity
  8
0
100
AcDbText
 10
3852.88595744681
 20
534.0000000000031
 30
0.0
 40
24.0
  1
エコノミー側溝
  7
SANWA
 72
     4
 11
3975.76595744681
 21
546.0000000000031
 31
0.0
100
AcDbText
  0
TEXT
  5
88ED
330
747D
100
AcDbEntity
  8
0
100
AcDbText
 10
3905.548814589666
 20
436.9028571428605
 30
0.0
 40
24.0
  1
Ｈタイプ
  7
SANWA
 72
     4
 11
3975.76595744681
 21
450.0000000000033
 31
0.0
100
AcDbText
  0
TEXT
  5
88EE
330
747D
100
AcDbEntity
  8
0
100
AcDbText
 10
3852.88595744681
 20
342.2742857142893
 30
0.0
 40
24.0
  1
400×400×1998
  7
SANWA
 72
     4
 11
3975.76595744681
 21
354.0000000000036
 31
0.0
100
AcDbText
  0
LINE
  5
88EF
330
747D
100
AcDbEntity
  8
0
100
AcDbLine
 10
4455.0
 20
150.0
 30
0.0
 11
4455.0
 21
0.0
 31
0.0
  0
LINE
  5
88F0
330
747D
100
AcDbEntity
  8
0
 62
     0
100
AcDbLine
 10
3202.531914893616
 20
594.0000000000036
 30
0.0
 11
4305.0
 21
594.0000000000036
 31
0.0
  0
LINE
  5
88F1
330
747D
100
AcDbEntity
  8
0
100
AcDbLine
 10
3598.531914893611
 20
594.0000000000036
 30
0.0
 11
3621.277272305447
 21
594.0000000000036
 31
0.0
  0
LINE
  5
88F2
330
747D
100
AcDbEntity
  8
0
100
AcDbLine
 10
4305.0
 20
3150.0
 30
0.0
 11
4455.0
 21
3150.0
 31
0.0
  0
TEXT
  5
88F5
330
747D
100
AcDbEntity
  8
0
100
AcDbText
 10
3083.762586563029
 20
2726.694704707974
 30
0.0
 40
36.0
  1
W=458㎏
  7
SANWA
 72
     4
 11
3175.922586563029
 21
2743.76899042226
 31
0.0
100
AcDbText
  0
LINE
  5
88F6
330
747D
100
AcDbEntity
  8
0
100
AcDbLine
 10
4455.0
 20
3150.0
 30
0.0
 11
4455.0
 21
3000.0
 31
0.0
  0
LINE
  5
88FB
330
747D
100
AcDbEntity
  8
0
 48
20.0
100
AcDbLine
 10
908.5782198007601
 20
1844.022199878661
 30
0.0
 11
913.0782198007601
 21
1848.522199878661
 31
0.0
  0
LINE
  5
88FC
330
747D
100
AcDbEntity
  8
0
 48
20.0
100
AcDbLine
 10
1448.57821980076
 20
1844.022199878661
 30
0.0
 11
1444.07821980076
 21
1848.522199878661
 31
0.0
  0
DIMENSION
  5
88FD
330
747D
100
AcDbEntity
  8
寸法引出
 48
20.0
100
AcDbDimension
  2
*D1
 10
948.5782198007601
 20
1912.493480641905
 30
0.0
 11
881.7710332749994
 21
1942.667760200167
 31
0.0
 70
   160
 71
     5
 42
40.0
  3
SANWA
100
AcDbAlignedDimension
 13
908.5782198007601
 23
1844.022199878661
 33
0.0
 14
948.5782198007601
 24
1848.522199878661
 34
0.0
100
AcDbRotatedDimension
1001
ACAD
1000
DSTYLE
1002
{
1070
    40
1040
15.0
1070
    41
1040
1.5
1070
    43
1040
5.0
1070
    44
1040
0.5
1070
   140
1040
2.0
1070
   147
1040
1.0
1070
   176
1070
   256
1070
   177
1070
   256
1070
   178
1070
   256
1070
   279
1070
     2
1002
}
  0
DIMENSION
  5
8917
330
747D
100
AcDbEntity
  8
寸法引出
 48
20.0
100
AcDbDimension
  2
*D2
 10
951.0782198007593
 20
1912.493480641905
 30
0.0
 11
948.3471139909051
 21
1976.710571063724
 31
0.0
 70
   160
 71
     5
 42
2.49999999999909
  3
SANWA
100
AcDbAlignedDimension
 13
948.5782198007601
 23
1848.522199878661
 33
0.0
 14
951.0782198007593
 24
1758.522199878661
 34
0.0
100
AcDbRotatedDimension
1001
ACAD
1000
DSTYLE
1002
{
1070
    40
1040
15.0
1070
    41
1040
1.5
1070
    43
1040
5.0
1070
    44
1040
0.5
1070
   140
1040
2.0
1070
   147
1040
1.0
1070
   176
1070
   256
1070
   177
1070
   256
1070
   178
1070
   256
1070
   279
1070
     2
1002
}
  0
DIMENSION
  5
8926
330
747D
100
AcDbEntity
  8
寸法引出
 48
20.0
100
AcDbDimension
  2
*D3
 10
978.5782198007602
 20
1912.493480641905
 30
0.0
 11
963.8299082113693
 21
1941.120368298024
 31
0.0
 70
   160
 71
     5
 42
27.50000000000091
  3
SANWA
100
AcDbAlignedDimension
 13
951.0782198007593
 23
1758.522199878661
 33
0.0
 14
978.5782198007602
 24
1758.522199878661
 34
0.0
100
AcDbRotatedDimension
1001
ACAD
1000
DSTYLE
1002
{
1070
    40
1040
15.0
1070
    41
1040
1.5
1070
    43
1040
5.0
1070
    44
1040
0.5
1070
   140
1040
2.0
1070
   147
1040
1.0
1070
   176
1070
   256
1070
   177
1070
   256
1070
   178
1070
   256
1070
   279
1070
     2
1002
}
  0
DIMENSION
  5
898D
330
747D
100
AcDbEntity
  8
寸法引出
 48
20.0
100
AcDbDimension
  2
*D4
 10
1378.578219800759
 20
1912.493480641905
 30
0.0
 11
1178.578219800759
 21
1942.493480641905
 31
0.0
 70
    32
 71
     5
 42
399.9999999999989
  3
SANWA
100
AcDbAlignedDimension
 13
978.5782198007602
 23
1758.522199878661
 33
0.0
 14
1378.578219800759
 24
1758.522199878661
 34
0.0
100
AcDbRotatedDimension
1001
ACAD
1000
DSTYLE
1002
{
1070
    40
1040
15.0
1070
    41
1040
1.5
1070
    43
1040
5.0
1070
    44
1040
0.5
1070
   140
1040
2.0
1070
   147
1040
1.0
1070
   176
1070
   256
1070
   177
1070
   256
1070
   178
1070
   256
1070
   279
1070
     2
1002
}
  0
DIMENSION
  5
899A
330
747D
100
AcDbEntity
  8
寸法引出
 48
20.0
100
AcDbDimension
  2
*D5
 10
1448.57821980076
 20
1912.493480641905
 30
0.0
 11
1413.578219800759
 21
1942.493480641905
 31
0.0
 70
    32
 71
     5
 42
70.00000000000091
  3
SANWA
100
AcDbAlignedDimension
 13
1378.578219800759
 23
1758.522199878661
 33
0.0
 14
1448.57821980076
 24
1844.022199878661
 34
0.0
100
AcDbRotatedDimension
1001
ACAD
1000
DSTYLE
1002
{
1070
    40
1040
15.0
1070
    41
1040
1.5
1070
    43
1040
5.0
1070
    44
1040
0.5
1070
   140
1040
2.0
1070
   147
1040
1.0
1070
   176
1070
   256
1070
   177
1070
   256
1070
   178
1070
   256
1070
   279
1070
     2
1002
}
  0
DIMENSION
  5
89A9
330
747D
100
AcDbEntity
  8
寸法引出
 48
20.0
100
AcDbDimension
  2
*D6
 10
1448.57821980076
 20
2006.52881233064
 30
0.0
 11
1178.57821980076
 21
2036.52881233064
 31
0.0
 70
    32
 71
     5
 42
539.9999999999998
  3
SANWA
100
AcDbAlignedDimension
 13
908.5782198007601
 23
1844.022199878661
 33
0.0
 14
1448.57821980076
 24
1844.022199878661
 34
0.0
100
AcDbRotatedDimension
1001
ACAD
1000
DSTYLE
1002
{
1070
    40
1040
15.0
1070
    41
1040
1.5
1070
    43
1040
5.0
1070
    44
1040
0.5
1070
   140
1040
2.0
1070
   147
1040
1.0
1070
   176
1070
   256
1070
   177
1070
   256
1070
   178
1070
   256
1070
   279
1070
     2
1002
}
  0
DIMENSION
  5
8A12
330
747D
100
AcDbEntity
  8
寸法引出
 48
20.0
100
AcDbDimension
  2
*D7
 10
800.9095255738172
 20
1758.522199878661
 30
0.0
 11
770.9095255738169
 21
1803.522199878661
 31
0.0
 70
    32
 71
     5
 42
90.0
  3
SANWA
100
AcDbAlignedDimension
 13
913.0782198007601
 23
1848.522199878661
 33
0.0
 14
908.5782198007601
 24
1758.522199878661
 34
0.0
 50
90.0
100
AcDbRotatedDimension
1001
ACAD
1000
DSTYLE
1002
{
1070
    40
1040
15.0
1070
    41
1040
1.5
1070
    43
1040
5.0
1070
    44
1040
0.5
1070
   140
1040
2.0
1070
   147
1040
1.0
1070
   176
1070
   256
1070
   177
1070
   256
1070
   178
1070
   256
1070
   279
1070
     2
1002
}
  0
MTEXT
  5
8A79
330
747D
100
AcDbEntity
  8
寸法引出
 48
20.0
100
AcDbMText
 10
1083.467846406663
 20
1505.014313682743
 30
0.0
 40
30.0
 41
0.0
 71
     5
 72
     1
  1
50r
  7
SANWA
 73
     1
 44
1.0
  0
LEADER
  5
8A7B
330
747D
100
AcDbEntity
  8
寸法引出
 48
20.0
100
AcDbLeader
  3
SANWA
 76
     3
 10
1001.270718431908
 20
1403.202958668822
 30
0.0
 10
1043.693585217258
 20
1483.523078979844
 30
0.0
 10
1114.389346496974
 20
1483.523078979844
 30
0.0
1001
ACAD
1000
DSTYLE
1002
{
1070
    77
1070
     0
1070
    40
1040
15.0
1070
    41
1040
1.5
1070
    43
1040
5.0
1070
    44
1040
0.5
1070
   140
1040
2.0
1070
   147
1040
1.0
1070
   176
1070
   256
1070
   177
1070
   256
1070
   178
1070
   256
1070
   279
1070
     2
1002
}
  0
MTEXT
  5
8A7C
330
747D
100
AcDbEntity
  8
寸法引出
 48
20.0
100
AcDbMText
 10
1211.621140640587
 20
1450.507596724798
 30
0.0
 40
30.0
 41
0.0
 71
     5
 72
     1
  1
450r
  7
SANWA
 73
     1
 44
1.0
  0
LEADER
  5
8A7D
330
747D
100
AcDbEntity
  8
寸法引出
 48
20.0
100
AcDbLeader
  3
SANWA
 76
     3
 10
1121.546727276398
 20
1362.150819904045
 30
0.0
 10
1159.184549733956
 20
1426.904102998553
 30
0.0
 10
1254.489260247431
 20
1426.904102998553
 30
0.0
1001
ACAD
1000
DSTYLE
1002
{
1070
    77
1070
     0
1070
    40
1040
15.0
1070
    41
1040
1.5
1070
    43
1040
5.0
1070
    44
1040
0.5
1070
   140
1040
2.0
1070
   147
1040
1.0
1070
   176
1070
   256
1070
   177
1070
   256
1070
   178
1070
   256
1070
   279
1070
     2
1002
}
  0
LINE
  5
8A7E
330
747D
100
AcDbEntity
  8
0
 48
15.0
100
AcDbLine
 10
954.358227794365
 20
1738.522199878661
 30
0.0
 11
979.3782198007592
 21
1738.522199878661
 31
0.0
  0
LINE
  5
8A7F
330
747D
100
AcDbEntity
  8
0
 48
15.0
100
AcDbLine
 10
1402.798211807154
 20
1738.522199878661
 30
0.0
 11
1377.77821980076
 21
1738.522199878661
 31
0.0
  0
MTEXT
  5
8AA9
330
747D
100
AcDbEntity
  8
寸法引出
 48
20.0
100
AcDbMText
 10
1566.545984399466
 20
1932.996709086315
 30
0.0
 40
30.0
 41
0.0
 71
     5
 72
     1
  1
4.5C
  7
SANWA
 73
     1
 44
1.0
  0
LEADER
  5
8AAB
330
747D
100
AcDbEntity
  8
寸法引出
 48
20.0
100
AcDbLeader
  3
SANWA
 76
     3
 10
1446.328219800759
 20
1846.272199878661
 30
0.0
 10
1517.579708870478
 20
1912.643112950836
 30
0.0
 10
1611.703492695927
 20
1912.643112950836
 30
0.0
1001
ACAD
1000
DSTYLE
1002
{
1070
    77
1070
     0
1070
    40
1040
15.0
1070
    41
1040
1.5
1070
    43
1040
5.0
1070
    44
1040
0.5
1070
   140
1040
2.0
1070
   147
1040
1.0
1070
   176
1070
   256
1070
   177
1070
   256
1070
   178
1070
   256
1070
   279
1070
     2
1002
}
  0
LINE
  5
8C77
330
747D
100
AcDbEntity
  8
0
  6
HIDDEN2
 48
15.0
100
AcDbLine
 10
1872.493333821983
 20
1758.522199878661
 30
0.0
 11
3870.493333821984
 21
1758.522199878661
 31
0.0
  0
LINE
  5
8C78
330
747D
100
AcDbEntity
  8
0
  6
HIDDEN2
 48
15.0
100
AcDbLine
 10
1872.493333821983
 20
1358.522199878661
 30
0.0
 11
3870.493333821984
 21
1358.522199878661
 31
0.0
  0
LINE
  5
8C79
330
747D
100
AcDbEntity
  8
0
 48
15.0
100
AcDbLine
 10
1872.493333821983
 20
1844.022199878661
 30
0.0
 11
3870.493333821984
 21
1844.022199878661
 31
0.0
  0
LINE
  5
8C7A
330
747D
100
AcDbEntity
  8
0
 48
15.0
100
AcDbLine
 10
1872.493333821983
 20
1313.522199878661
 30
0.0
 11
3870.493333821984
 21
1313.522199878661
 31
0.0
  0
LINE
  5
8C7C
330
747D
100
AcDbEntity
  8
0
 48
20.0
100
AcDbLine
 10
2821.493333821984
 20
1444.522199878662
 30
0.0
 11
2821.493333821985
 21
1544.522199878662
 31
0.0
  0
LINE
  5
8C7D
330
747D
100
AcDbEntity
  8
0
 48
20.0
100
AcDbLine
 10
2921.493333821984
 20
1444.522199878662
 30
0.0
 11
2921.493333821984
 21
1544.522199878662
 31
0.0
  0
LINE
  5
8C80
330
747D
100
AcDbEntity
  8
0
 48
15.0
100
AcDbLine
 10
2821.493333821985
 20
1544.522199878662
 30
0.0
 11
2921.493333821984
 21
1544.522199878662
 31
0.0
  0
LINE
  5
8C81
330
747D
100
AcDbEntity
  8
0
 48
15.0
100
AcDbLine
 10
2831.493333821983
 20
1534.522199878661
 30
0.0
 11
2911.493333821982
 21
1534.522199878661
 31
0.0
  0
LINE
  5
8C82
330
747D
100
AcDbEntity
  8
0
 48
15.0
100
AcDbLine
 10
2821.493333821984
 20
1444.522199878662
 30
0.0
 11
2921.493333821984
 21
1444.522199878662
 31
0.0
  0
LINE
  5
8C83
330
747D
100
AcDbEntity
  8
0
 48
20.0
100
AcDbLine
 10
2821.493333821984
 20
1544.522199878661
 30
0.0
 11
2831.493333821983
 21
1534.522199878661
 31
0.0
  0
LINE
  5
8C84
330
747D
100
AcDbEntity
  8
0
 48
20.0
100
AcDbLine
 10
2831.493333821983
 20
1534.522199878661
 30
0.0
 11
2821.493333821984
 21
1444.522199878662
 31
0.0
  0
LINE
  5
8C85
330
747D
100
AcDbEntity
  8
0
 48
20.0
100
AcDbLine
 10
2921.493333821984
 20
1544.522199878661
 30
0.0
 11
2911.493333821983
 21
1534.522199878661
 31
0.0
  0
LINE
  5
8C86
330
747D
100
AcDbEntity
  8
0
 48
20.0
100
AcDbLine
 10
2911.493333821983
 20
1534.522199878661
 30
0.0
 11
2921.493333821984
 21
1444.522199878662
 31
0.0
  0
CIRCLE
  5
8C89
330
747D
100
AcDbEntity
  8
0
 48
20.0
100
AcDbCircle
 10
2871.493333821983
 20
1494.522199878662
 30
0.0
 40
10.0
  0
DIMENSION
  5
8CB4
330
747D
100
AcDbEntity
  8
寸法引出
 48
20.0
100
AcDbDimension
  2
*D8
 10
2831.493333821983
 20
1641.014437768559
 30
0.0
 11
2799.903216517166
 21
1671.243119702807
 31
0.0
 70
   160
 71
     5
 42
9.999999999998181
  3
SANWA
100
AcDbAlignedDimension
 13
2821.493333821985
 23
1544.522199878662
 33
0.0
 14
2831.493333821983
 24
1534.522199878661
 34
0.0
100
AcDbRotatedDimension
1001
ACAD
1000
DSTYLE
1002
{
1070
    40
1040
15.0
1070
    41
1040
1.5
1070
    43
1040
5.0
1070
    44
1040
0.5
1070
   140
1040
2.0
1070
   147
1040
1.0
1070
   176
1070
   256
1070
   177
1070
   256
1070
   178
1070
   256
1070
   279
1070
     2
1002
}
  0
DIMENSION
  5
8CC3
330
747D
100
AcDbEntity
  8
寸法引出
 48
20.0
100
AcDbDimension
  2
*D9
 10
2911.493333821982
 20
1641.014437768559
 30
0.0
 11
2871.493333821982
 21
1671.014437768559
 31
0.0
 70
    32
 71
     5
 42
79.99999999999864
  3
SANWA
100
AcDbAlignedDimension
 13
2831.493333821983
 23
1534.522199878661
 33
0.0
 14
2911.493333821982
 24
1534.522199878661
 34
0.0
100
AcDbRotatedDimension
1001
ACAD
1000
DSTYLE
1002
{
1070
    40
1040
15.0
1070
    41
1040
1.5
1070
    43
1040
5.0
1070
    44
1040
0.5
1070
   140
1040
2.0
1070
   147
1040
1.0
1070
   176
1070
   256
1070
   177
1070
   256
1070
   178
1070
   256
1070
   279
1070
     2
1002
}
  0
DIMENSION
  5
8CD0
330
747D
100
AcDbEntity
  8
寸法引出
 48
20.0
100
AcDbDimension
  2
*D10
 10
2921.493333821984
 20
1641.014437768559
 30
0.0
 11
2940.275740850098
 21
1671.641686699322
 31
0.0
 70
   160
 71
     5
 42
10.00000000000227
  3
SANWA
100
AcDbAlignedDimension
 13
2911.493333821982
 23
1534.522199878661
 33
0.0
 14
2921.493333821984
 24
1544.522199878661
 34
0.0
100
AcDbRotatedDimension
1001
ACAD
1000
DSTYLE
1002
{
1070
    40
1040
15.0
1070
    41
1040
1.5
1070
    43
1040
5.0
1070
    44
1040
0.5
1070
   140
1040
2.0
1070
   147
1040
1.0
1070
   176
1070
   256
1070
   177
1070
   256
1070
   178
1070
   256
1070
   279
1070
     2
1002
}
  0
DIMENSION
  5
8D89
330
747D
100
AcDbEntity
  8
寸法引出
 48
20.0
100
AcDbDimension
  2
*D11
 10
3957.158892171228
 20
1494.522199878662
 30
0.0
 11
3927.158892171227
 21
1671.522199878662
 31
0.0
 70
    32
 71
     5
 42
353.9999999999988
  3
SANWA
100
AcDbAlignedDimension
 13
3870.493333821984
 23
1848.522199878661
 33
0.0
 14
3870.493333821984
 24
1494.522199878662
 34
0.0
 50
90.0
100
AcDbRotatedDimension
1001
ACAD
1000
DSTYLE
1002
{
1070
    40
1040
15.0
1070
    41
1040
1.5
1070
    43
1040
5.0
1070
    44
1040
0.5
1070
   140
1040
2.0
1070
   147
1040
1.0
1070
   176
1070
   256
1070
   177
1070
   256
1070
   178
1070
   256
1070
   279
1070
     2
1002
}
  0
DIMENSION
  5
8D96
330
747D
100
AcDbEntity
  8
寸法引出
 48
20.0
100
AcDbDimension
  2
*D12
 10
3957.158892171228
 20
1293.522199878661
 30
0.0
 11
3927.158892171227
 21
1394.022199878662
 31
0.0
 70
    32
 71
     5
 42
201.0000000000009
  3
SANWA
100
AcDbAlignedDimension
 13
3870.493333821984
 23
1494.522199878662
 33
0.0
 14
3870.493333821984
 24
1293.522199878661
 34
0.0
 50
90.0
100
AcDbRotatedDimension
1001
ACAD
1000
DSTYLE
1002
{
1070
    40
1040
15.0
1070
    41
1040
1.5
1070
    43
1040
5.0
1070
    44
1040
0.5
1070
   140
1040
2.0
1070
   147
1040
1.0
1070
   176
1070
   256
1070
   177
1070
   256
1070
   178
1070
   256
1070
   279
1070
     2
1002
}
  0
DIMENSION
  5
8DA3
330
747D
100
AcDbEntity
  8
寸法引出
 48
20.0
100
AcDbDimension
  2
*D13
 10
3870.493333821984
 20
1959.588187880059
 30
0.0
 11
2871.493333821983
 21
1989.588187880059
 31
0.0
 70
    32
 71
     5
 42
1998.0
  3
SANWA
100
AcDbAlignedDimension
 13
1872.493333821983
 23
1848.522199878661
 33
0.0
 14
3870.493333821984
 24
1848.522199878661
 34
0.0
100
AcDbRotatedDimension
1001
ACAD
1000
DSTYLE
1002
{
1070
    40
1040
15.0
1070
    41
1040
1.5
1070
    43
1040
5.0
1070
    44
1040
0.5
1070
   140
1040
2.0
1070
   147
1040
1.0
1070
   176
1070
   256
1070
   177
1070
   256
1070
   178
1070
   256
1070
   279
1070
     2
1002
}
  0
MTEXT
  5
8DCF
330
747D
100
AcDbEntity
  8
寸法引出
 48
20.0
100
AcDbMText
 10
3357.427523720834
 20
1256.058065112596
 30
0.0
 40
30.0
 41
0.0
 71
     5
 72
     1
  1
吊り用ｲﾝﾊﾞｰﾄﾊﾝｶﾞｰ（20×60-65）
  7
SANWA
 73
     1
 44
1.0
  0
LEADER
  5
8DD0
330
747D
100
AcDbEntity
  8
寸法引出
 48
20.0
100
AcDbLeader
  3
SANWA
 76
     3
 10
2871.493333821983
 20
1484.522199878661
 30
0.0
 10
3027.100603791328
 20
1231.058048991835
 30
0.0
 10
3665.671895289428
 20
1231.058048991835
 30
0.0
1001
ACAD
1000
DSTYLE
1002
{
1070
    77
1070
     0
1070
    40
1040
15.0
1070
    41
1040
1.5
1070
    43
1040
5.0
1070
    44
1040
0.5
1070
   140
1040
2.0
1070
   147
1040
1.0
1070
   176
1070
   256
1070
   177
1070
   256
1070
   178
1070
   256
1070
   279
1070
     2
1002
}
  0
MTEXT
  5
8DD1
330
747D
100
AcDbEntity
  8
寸法引出
 48
20.0
100
AcDbMText
 10
1532.228417298386
 20
1241.201601664367
 30
0.0
 40
30.0
 41
0.0
 71
     5
 72
     1
  1
20C
  7
SANWA
 73
     1
 44
1.0
  0
LEADER
  5
8DD2
330
747D
100
AcDbEntity
  8
寸法引出
 48
20.0
100
AcDbLeader
  3
SANWA
 76
     3
 10
1409.003219800761
 20
1303.522199878662
 30
0.0
 10
1479.568434082575
 20
1219.994132229001
 30
0.0
 10
1569.746219461317
 20
1219.994132229001
 30
0.0
1001
ACAD
1000
DSTYLE
1002
{
1070
    77
1070
     0
1070
    40
1040
15.0
1070
    41
1040
1.5
1070
    43
1040
5.0
1070
    44
1040
0.5
1070
   140
1040
2.0
1070
   147
1040
1.0
1070
   176
1070
   256
1070
   177
1070
   256
1070
   178
1070
   256
1070
   279
1070
     2
1002
}
  0
DIMENSION
  5
9083
330
747D
100
AcDbEntity
  8
寸法引出
 48
20.0
100
AcDbDimension
  2
*D16
 10
1758.607486693144
 20
1293.522199878661
 30
0.0
 11
1728.607486693143
 21
1571.022199878661
 31
0.0
 70
    32
 71
     5
 42
554.9999999999998
  3
SANWA
100
AcDbAlignedDimension
 13
1872.493333821983
 23
1848.522199878661
 33
0.0
 14
1872.493333821983
 24
1293.522199878661
 34
0.0
 50
90.0
100
AcDbRotatedDimension
1001
ACAD
1000
DSTYLE
1002
{
1070
    40
1040
15.0
1070
    41
1040
1.5
1070
    43
1040
5.0
1070
    44
1040
0.5
1070
   140
1040
2.0
1070
   147
1040
1.0
1070
   176
1070
   256
1070
   177
1070
   256
1070
   178
1070
   256
1070
   279
1070
     2
1002
}
  0
LINE
  5
91F4
330
747D
100
AcDbEntity
  8
0
 48
20.0
100
AcDbLine
 10
2208.486632061834
 20
451.8739091623646
 30
0.0
 11
2208.486632061834
 21
421.8739091623646
 31
0.0
  0
LINE
  5
91F7
330
747D
100
AcDbEntity
  8
0
 48
20.0
100
AcDbLine
 10
2183.486632061834
 20
346.8739091623646
 30
0.0
 11
2208.486632061834
 21
421.8739091623646
 31
0.0
  0
LINE
  5
91FA
330
747D
100
AcDbEntity
  8
0
 48
20.0
100
AcDbLine
 10
2233.486632061834
 20
326.8739091623646
 30
0.0
 11
2183.486632061834
 21
346.8739091623646
 31
0.0
  0
LINE
  5
91FB
330
747D
100
AcDbEntity
  8
0
 48
20.0
100
AcDbLine
 10
2208.486632061834
 20
451.8739091623646
 30
0.0
 11
2108.486632061834
 21
451.8739091623646
 31
0.0
  0
LINE
  5
91FC
330
747D
100
AcDbEntity
  8
0
 48
20.0
100
AcDbLine
 10
2258.486632061834
 20
451.8739091623646
 30
0.0
 11
2358.486632061834
 21
451.8739091623646
 31
0.0
  0
LINE
  5
91FD
330
747D
100
AcDbEntity
  8
0
 48
20.0
100
AcDbLine
 10
2233.486632061834
 20
326.8739091623646
 30
0.0
 11
2283.486632061834
 21
346.8739091623646
 31
0.0
  0
LINE
  5
91FE
330
747D
100
AcDbEntity
  8
0
 48
20.0
100
AcDbLine
 10
2283.486632061834
 20
346.8739091623646
 30
0.0
 11
2258.486632061834
 21
421.8739091623646
 31
0.0
  0
LINE
  5
91FF
330
747D
100
AcDbEntity
  8
0
 48
20.0
100
AcDbLine
 10
2258.486632061834
 20
451.8739091623646
 30
0.0
 11
2258.486632061834
 21
421.8739091623646
 31
0.0
  0
LINE
  5
9200
330
747D
100
AcDbEntity
  8
0
100
AcDbLine
 10
2068.753135859519
 20
595.0136253279237
 30
0.0
 11
2391.649022268593
 21
595.0136253279237
 31
0.0
  0
TEXT
  5
9201
330
747D
100
AcDbEntity
  8
0
100
AcDbText
 10
2066.954243841499
 20
606.8548758124807
 30
0.0
 40
36.0
  1
目地部詳細図
  7
SANWA
 72
     4
 11
2224.942815270071
 21
625.4720186696236
 31
0.0
100
AcDbText
  0
DIMENSION
  5
9202
330
747D
100
AcDbEntity
  8
寸法引出
 48
20.0
100
AcDbDimension
  2
*D17
 10
2208.486632061834
 20
516.3299438673075
 30
0.0
 11
2220.986632061834
 21
546.3299438673074
 31
0.0
 70
    32
  1
5
 71
     5
 42
25.0
  3
SANWA
100
AcDbAlignedDimension
 13
2233.486632061834
 23
326.8739091623646
 33
0.0
 14
2208.486632061834
 24
451.8739091623646
 34
0.0
100
AcDbRotatedDimension
1001
ACAD
1000
DSTYLE
1002
{
1070
    40
1040
15.0
1070
    41
1040
1.5
1070
    43
1040
5.0
1070
    44
1040
0.5
1070
   140
1040
2.0
1070
   147
1040
1.0
1070
   176
1070
   256
1070
   177
1070
   256
1070
   178
1070
   256
1070
   279
1070
     2
1002
}
  0
DIMENSION
  5
9241
330
747D
100
AcDbEntity
  8
寸法引出
 48
20.0
100
AcDbDimension
  2
*D18
 10
2067.998898564288
 20
421.8739091623647
 30
0.0
 11
2034.924780979257
 21
470.6177133631134
 31
0.0
 70
   160
  1
6
 71
     5
 42
29.99999999999994
  3
SANWA
100
AcDbAlignedDimension
 13
2108.486632061834
 23
451.8739091623646
 33
0.0
 14
2208.486632061834
 24
421.8739091623646
 34
0.0
 50
90.0
100
AcDbRotatedDimension
1001
ACAD
1000
DSTYLE
1002
{
1070
    40
1040
15.0
1070
    41
1040
1.5
1070
    43
1040
5.0
1070
    44
1040
0.5
1070
   140
1040
2.0
1070
   147
1040
1.0
1070
   176
1070
   256
1070
   177
1070
   256
1070
   178
1070
   256
1070
   279
1070
     2
1002
}
  0
DIMENSION
  5
9250
330
747D
100
AcDbEntity
  8
寸法引出
 48
20.0
100
AcDbDimension
  2
*D19
 10
2067.998898564288
 20
346.8739091623647
 30
0.0
 11
2037.998898564288
 21
384.373909162365
 31
0.0
 70
    32
  1
15
 71
     5
 42
75.0
  3
SANWA
100
AcDbAlignedDimension
 13
2208.486632061834
 23
421.8739091623646
 33
0.0
 14
2183.486632061834
 24
346.8739091623646
 34
0.0
 50
90.0
100
AcDbRotatedDimension
1001
ACAD
1000
DSTYLE
1002
{
1070
    40
1040
15.0
1070
    41
1040
1.5
1070
    43
1040
5.0
1070
    44
1040
0.5
1070
   140
1040
2.0
1070
   147
1040
1.0
1070
   176
1070
   256
1070
   177
1070
   256
1070
   178
1070
   256
1070
   279
1070
     2
1002
}
  0
DIMENSION
  5
925F
330
747D
100
AcDbEntity
  8
寸法引出
 48
20.0
100
AcDbDimension
  2
*D20
 10
2067.998898564288
 20
326.8739091623647
 30
0.0
 11
2037.526880556331
 21
310.2468665806245
 31
0.0
 70
   160
  1
4
 71
     5
 42
20.0
  3
SANWA
100
AcDbAlignedDimension
 13
2183.486632061834
 23
346.8739091623646
 33
0.0
 14
2233.486632061834
 24
326.8739091623646
 34
0.0
 50
90.0
100
AcDbRotatedDimension
1001
ACAD
1000
DSTYLE
1002
{
1070
    40
1040
15.0
1070
    41
1040
1.5
1070
    43
1040
5.0
1070
    44
1040
0.5
1070
   140
1040
2.0
1070
   147
1040
1.0
1070
   176
1070
   256
1070
   177
1070
   256
1070
   178
1070
   256
1070
   279
1070
     2
1002
}
  0
DIMENSION
  5
928F
330
747D
100
AcDbEntity
  8
寸法引出
 48
20.0
100
AcDbDimension
  2
*D21
 10
2233.486632061834
 20
257.277105649975
 30
0.0
 11
2208.486632061834
 21
287.2771056499749
 31
0.0
 70
    32
  1
10
 71
     5
 42
50.0
  3
SANWA
100
AcDbAlignedDimension
 13
2183.486632061834
 23
346.8739091623646
 33
0.0
 14
2233.486632061834
 24
326.8739091623646
 34
0.0
100
AcDbRotatedDimension
1001
ACAD
1000
DSTYLE
1002
{
1070
    40
1040
15.0
1070
    41
1040
1.5
1070
    43
1040
5.0
1070
    44
1040
0.5
1070
   140
1040
2.0
1070
   147
1040
1.0
1070
   176
1070
   256
1070
   177
1070
   256
1070
   178
1070
   256
1070
   279
1070
     2
1002
}
  0
MTEXT
  5
92EB
330
747D
100
AcDbEntity
  8
寸法引出
 48
20.0
100
AcDbMText
 10
2356.282737768199
 20
487.1812424162108
 30
0.0
 40
30.0
 41
0.0
 71
     5
 72
     1
  1
内面
  7
SANWA
 73
     1
 44
1.0
  0
LINE
  5
9376
330
747D
100
AcDbEntity
  8
0
 48
20.0
100
AcDbLine
 10
958.8032198007613
 20
1293.522199878662
 30
0.0
 11
1398.353219800761
 21
1293.522199878662
 31
0.0
  0
LINE
  5
97F8
330
747D
100
AcDbEntity
  8
0
 48
20.0
100
AcDbLine
 10
937.5032198007616
 20
1313.522199878662
 30
0.0
 11
908.5782198007601
 21
1758.522199878661
 31
0.0
  0
LINE
  5
97F9
330
747D
100
AcDbEntity
  8
0
 48
20.0
100
AcDbLine
 10
1419.653219800761
 20
1313.522199878662
 30
0.0
 11
1448.578219800762
 21
1758.522199878661
 31
0.0
  0
LINE
  5
9807
330
747D
100
AcDbEntity
  8
0
  6
HIDDEN2
 48
15.0
100
AcDbLine
 10
1428.168219800762
 20
1444.522199878661
 30
0.0
 11
1428.168219800762
 21
1534.522199878662
 31
0.0
  0
LINE
  5
980A
330
747D
100
AcDbEntity
  8
0
  6
CENTER2
 48
5.0
100
AcDbLine
 10
1461.418219800762
 20
1494.522199878661
 30
0.0
 11
1334.668219800762
 21
1494.522199878661
 31
0.0
  0
LINE
  5
980B
330
747D
100
AcDbEntity
  8
0
  6
HIDDEN2
 48
15.0
100
AcDbLine
 10
1428.168219800762
 20
1534.522199878662
 30
0.0
 11
1434.668219800762
 21
1544.522199878662
 31
0.0
  0
LINE
  5
980F
330
747D
100
AcDbEntity
  8
0
 48
20.0
100
AcDbLine
 10
1419.653219800761
 20
1313.522199878662
 30
0.0
 11
1398.353219800761
 21
1293.522199878662
 31
0.0
  0
LINE
  5
9810
330
747D
100
AcDbEntity
  8
0
 48
20.0
100
AcDbLine
 10
937.5032198007616
 20
1313.522199878662
 30
0.0
 11
958.8032198007613
 21
1293.522199878662
 31
0.0
  0
DIMENSION
  5
9811
330
747D
100
AcDbEntity
  8
寸法引出
 48
20.0
100
AcDbDimension
  2
*D22
 10
994.5782198007615
 20
1554.525854245047
 30
0.0
 11
896.2361877263353
 21
1583.46107908716
 31
0.0
 70
   160
 71
     5
 42
60.0
  3
SANWA
100
AcDbAlignedDimension
 13
934.5782198007615
 23
1358.522199878661
 33
0.0
 14
994.5782198007615
 24
1358.522199878661
 34
0.0
100
AcDbRotatedDimension
1001
ACAD
1000
DSTYLE
1002
{
1070
    40
1040
15.0
1070
    41
1040
1.5
1070
    43
1040
5.0
1070
    44
1040
0.5
1070
   140
1040
2.0
1070
   147
1040
1.0
1070
   176
1070
   256
1070
   177
1070
   256
1070
   178
1070
   256
1070
   279
1070
     2
1002
}
  0
DIMENSION
  5
9820
330
747D
100
AcDbEntity
  8
寸法引出
 48
20.0
100
AcDbDimension
  2
*D23
 10
1362.57821980076
 20
1554.525854245047
 30
0.0
 11
1178.57821980076
 21
1584.525854245047
 31
0.0
 70
    32
 71
     5
 42
367.9999999999985
  3
SANWA
100
AcDbAlignedDimension
 13
994.5782198007615
 23
1358.522199878661
 33
0.0
 14
1362.57821980076
 24
1358.522199878661
 34
0.0
100
AcDbRotatedDimension
1001
ACAD
1000
DSTYLE
1002
{
1070
    40
1040
15.0
1070
    41
1040
1.5
1070
    43
1040
5.0
1070
    44
1040
0.5
1070
   140
1040
2.0
1070
   147
1040
1.0
1070
   176
1070
   256
1070
   177
1070
   256
1070
   178
1070
   256
1070
   279
1070
     2
1002
}
  0
ARC
  5
982D
330
747D
100
AcDbEntity
  8
0
 48
20.0
100
AcDbCircle
 10
1178.578219800761
 20
1808.522199878662
 30
0.0
 40
450.0
100
AcDbArc
 50
249.9819198411111
 51
290.0180801588886
  0
ARC
  5
982E
330
747D
100
AcDbEntity
  8
0
 48
20.0
100
AcDbCircle
 10
1041.651558160847
 20
1432.6883411962
 30
0.0
 40
50.0
100
AcDbArc
 50
182.2906100426384
 51
249.9819198411111
  0
ARC
  5
982F
330
747D
100
AcDbEntity
  8
0
 48
20.0
100
AcDbCircle
 10
1315.504881440675
 20
1432.6883411962
 30
0.0
 40
50.0
100
AcDbArc
 50
290.0180801588887
 51
357.7093899573612
  0
DIMENSION
  5
9845
330
747D
100
AcDbEntity
  8
寸法引出
 48
20.0
100
AcDbDimension
  2
*D24
 10
800.9095255738172
 20
1358.522199878661
 30
0.0
 11
770.9095255738169
 21
1558.522199878661
 31
0.0
 70
    32
 71
     5
 42
399.9999999999997
  3
SANWA
100
AcDbAlignedDimension
 13
908.5782198007601
 23
1758.522199878661
 33
0.0
 14
934.5782198007615
 24
1358.522199878661
 34
0.0
 50
90.0
100
AcDbRotatedDimension
1001
ACAD
1000
DSTYLE
1002
{
1070
    40
1040
15.0
1070
    41
1040
1.5
1070
    43
1040
5.0
1070
    44
1040
0.5
1070
   140
1040
2.0
1070
   147
1040
1.0
1070
   176
1070
   256
1070
   177
1070
   256
1070
   178
1070
   256
1070
   279
1070
     2
1002
}
  0
DIMENSION
  5
9852
330
747D
100
AcDbEntity
  8
寸法引出
 48
20.0
100
AcDbDimension
  2
*D25
 10
800.9095255738172
 20
1293.522199878662
 30
0.0
 11
770.9095255738169
 21
1326.022199878662
 31
0.0
 70
    32
 71
     5
 42
64.99999999999909
  3
SANWA
100
AcDbAlignedDimension
 13
934.5782198007615
 23
1358.522199878661
 33
0.0
 14
958.8032198007613
 24
1293.522199878662
 34
0.0
 50
90.0
100
AcDbRotatedDimension
1001
ACAD
1000
DSTYLE
1002
{
1070
    40
1040
15.0
1070
    41
1040
1.5
1070
    43
1040
5.0
1070
    44
1040
0.5
1070
   140
1040
2.0
1070
   147
1040
1.0
1070
   176
1070
   256
1070
   177
1070
   256
1070
   178
1070
   256
1070
   279
1070
     2
1002
}
  0
DIMENSION
  5
9861
330
747D
100
AcDbEntity
  8
寸法引出
 48
20.0
100
AcDbDimension
  2
*D26
 10
732.5230823022263
 20
1293.522199878662
 30
0.0
 11
702.523082302226
 21
1571.022199878662
 31
0.0
 70
    32
 71
     5
 42
554.9999999999989
  3
SANWA
100
AcDbAlignedDimension
 13
913.0782198007601
 23
1848.522199878661
 33
0.0
 14
958.8032198007613
 24
1293.522199878662
 34
0.0
 50
90.0
100
AcDbRotatedDimension
1001
ACAD
1000
DSTYLE
1002
{
1070
    40
1040
15.0
1070
    41
1040
1.5
1070
    43
1040
5.0
1070
    44
1040
0.5
1070
   140
1040
2.0
1070
   147
1040
1.0
1070
   176
1070
   256
1070
   177
1070
   256
1070
   178
1070
   256
1070
   279
1070
     2
1002
}
  0
LINE
  5
988B
330
747D
100
AcDbEntity
  8
0
 48
15.0
100
AcDbLine
 10
973.3734217192241
 20
1738.522199878661
 30
0.0
 11
985.6963044724261
 21
1430.450131048663
 31
0.0
  0
ARC
  5
988C
330
747D
100
AcDbEntity
  8
0
 48
20.0
100
AcDbCircle
 10
1041.651558160847
 20
1432.6883411962
 30
0.0
 40
56.0
100
AcDbArc
 50
182.2906100426384
 51
249.9819198411111
  0
ARC
  5
988D
330
747D
100
AcDbEntity
  8
0
 48
20.0
100
AcDbCircle
 10
1178.578219800761
 20
1808.522199878662
 30
0.0
 40
456.0
100
AcDbArc
 50
249.9819198411111
 51
290.0180801588886
  0
ARC
  5
988E
330
747D
100
AcDbEntity
  8
0
 48
20.0
100
AcDbCircle
 10
1315.504881440675
 20
1432.6883411962
 30
0.0
 40
56.0
100
AcDbArc
 50
290.0180801588887
 51
357.7093899573612
  0
LINE
  5
988F
330
747D
100
AcDbEntity
  8
0
 48
15.0
100
AcDbLine
 10
1383.783017882295
 20
1738.522199878661
 30
0.0
 11
1371.460135129095
 21
1430.450131048663
 31
0.0
  0
LINE
  5
9890
330
747D
100
AcDbEntity
  8
0
 48
15.0
100
AcDbLine
 10
958.3614265153883
 20
1738.522199878663
 30
0.0
 11
970.7082900915994
 21
1429.85061047343
 31
0.0
  0
ARC
  5
9891
330
747D
100
AcDbEntity
  8
0
 48
20.0
100
AcDbCircle
 10
1041.651558160847
 20
1432.6883411962
 30
0.0
 40
71.0
100
AcDbArc
 50
182.2906100426384
 51
249.9819198411111
  0
ARC
  5
9892
330
747D
100
AcDbEntity
  8
0
 48
20.0
100
AcDbCircle
 10
1178.578219800761
 20
1808.522199878662
 30
0.0
 40
471.0
100
AcDbArc
 50
249.9819198411111
 51
290.0180801588886
  0
ARC
  5
9893
330
747D
100
AcDbEntity
  8
0
 48
20.0
100
AcDbCircle
 10
1315.504881440675
 20
1432.6883411962
 30
0.0
 40
71.0
100
AcDbArc
 50
290.0180801588887
 51
357.7093899573612
  0
LINE
  5
9894
330
747D
100
AcDbEntity
  8
0
 48
15.0
100
AcDbLine
 10
1398.795013086131
 20
1738.522199878661
 30
0.0
 11
1386.448149509922
 21
1429.85061047343
 31
0.0
  0
LINE
  5
9895
330
747D
100
AcDbEntity
  8
0
 48
15.0
100
AcDbLine
 10
954.358227794365
 20
1738.522199878661
 30
0.0
 11
966.7114862567123
 21
1429.690738320035
 31
0.0
  0
ARC
  5
9896
330
747D
100
AcDbEntity
  8
0
 48
20.0
100
AcDbCircle
 10
1041.651558160847
 20
1432.6883411962
 30
0.0
 40
75.0
100
AcDbArc
 50
182.2906100426384
 51
249.9819198411111
  0
ARC
  5
9897
330
747D
100
AcDbEntity
  8
0
 48
20.0
100
AcDbCircle
 10
1178.578219800761
 20
1808.522199878662
 30
0.0
 40
475.0
100
AcDbArc
 50
249.9819198411111
 51
290.0180801588886
  0
ARC
  5
9898
330
747D
100
AcDbEntity
  8
0
 48
20.0
100
AcDbCircle
 10
1315.504881440675
 20
1432.6883411962
 30
0.0
 40
75.0
100
AcDbArc
 50
290.0180801588887
 51
357.7093899573612
  0
LINE
  5
9899
330
747D
100
AcDbEntity
  8
0
 48
15.0
100
AcDbLine
 10
1402.798211807154
 20
1738.522199878661
 30
0.0
 11
1390.444953344809
 21
1429.690738320034
 31
0.0
  0
LINE
  5
9BD2
330
747D
100
AcDbEntity
  8
0
 48
20.0
100
AcDbLine
 10
967.0782198007591
 20
1758.522199878662
 30
0.0
 11
978.8982198007584
 21
1750.522199878662
 31
0.0
  0
DIMENSION
  5
9BD3
330
747D
100
AcDbEntity
  8
寸法引出
 48
20.0
100
AcDbDimension
  2
*D29
 10
978.5782198007602
 20
1797.776389828722
 30
0.0
 11
1002.280772209662
 21
1829.695548973634
 31
0.0
 70
   160
 71
     5
 42
11.5000000000009
  3
SANWA
100
AcDbAlignedDimension
 13
967.0782198007593
 23
1758.522199878662
 33
0.0
 14
978.5782198007602
 24
1758.522199878661
 34
0.0
100
AcDbRotatedDimension
1001
ACAD
1000
DSTYLE
1002
{
1070
    40
1040
15.0
1070
    41
1040
1.5
1070
    43
1040
5.0
1070
    44
1040
0.5
1070
   140
1040
2.0
1070
   147
1040
1.0
1070
   176
1070
   256
1070
   177
1070
   256
1070
   178
1070
   256
1070
   279
1070
     2
1002
}
  0
DIMENSION
  5
9BF8
330
747D
100
AcDbEntity
  8
寸法引出
 48
20.0
100
AcDbDimension
  2
*D30
 10
1042.324192903912
 20
1750.522199878662
 30
0.0
 11
1016.764560512772
 21
1730.533350544811
 31
0.0
 70
   160
 71
     5
 42
8.0
  3
SANWA
100
AcDbAlignedDimension
 13
967.0782198007593
 23
1758.522199878662
 33
0.0
 14
978.8982198007586
 24
1750.522199878662
 34
0.0
 50
90.0
100
AcDbRotatedDimension
1001
ACAD
1000
DSTYLE
1002
{
1070
    40
1040
15.0
1070
    41
1040
1.5
1070
    43
1040
5.0
1070
    44
1040
0.5
1070
   140
1040
2.0
1070
   147
1040
1.0
1070
   176
1070
   256
1070
   177
1070
   256
1070
   178
1070
   256
1070
   279
1070
     2
1002
}
  0
LINE
  5
9C1D
330
747D
100
AcDbEntity
  8
0
 48
20.0
100
AcDbLine
 10
1390.078219800763
 20
1758.522199878662
 30
0.0
 11
1378.258219800763
 21
1750.522199878662
 31
0.0
  0
LINE
  5
9E11
330
747D
100
AcDbEntity
  8
0
  6
HIDDEN2
 48
15.0
100
AcDbLine
 10
1428.168219800762
 20
1504.522199878661
 30
0.0
 11
1368.41821980076
 21
1504.52219987866
 31
0.0
  0
LINE
  5
9E12
330
747D
100
AcDbEntity
  8
0
  6
HIDDEN2
 48
15.0
100
AcDbLine
 10
1428.168219800762
 20
1484.522199878661
 30
0.0
 11
1367.61821980076
 21
1484.522199878661
 31
0.0
  0
LINE
  5
9E13
330
747D
100
AcDbEntity
  8
0
  6
HIDDEN2
 48
15.0
100
AcDbLine
 10
928.9882198007612
 20
1484.522199878661
 30
0.0
 11
989.5382198007624
 21
1484.522199878661
 31
0.0
  0
LINE
  5
9E14
330
747D
100
AcDbEntity
  8
0
  6
HIDDEN2
 48
15.0
100
AcDbLine
 10
928.9882198007612
 20
1504.522199878661
 30
0.0
 11
988.7382198007621
 21
1504.52219987866
 31
0.0
  0
LINE
  5
9E15
330
747D
100
AcDbEntity
  8
0
  6
CENTER2
 48
5.0
100
AcDbLine
 10
895.7382198007612
 20
1494.522199878661
 30
0.0
 11
1022.48821980076
 21
1494.522199878661
 31
0.0
  0
LINE
  5
9E16
330
747D
100
AcDbEntity
  8
0
  6
HIDDEN2
 48
15.0
100
AcDbLine
 10
928.9882198007612
 20
1444.522199878661
 30
0.0
 11
928.9882198007612
 21
1534.522199878662
 31
0.0
  0
LINE
  5
9E17
330
747D
100
AcDbEntity
  8
0
  6
HIDDEN2
 48
15.0
100
AcDbLine
 10
928.9882198007612
 20
1534.522199878662
 30
0.0
 11
922.4882198007612
 21
1544.522199878662
 31
0.0
  0
DIMENSION
  5
9E3E
330
747D
100
AcDbEntity
  8
寸法引出
 48
20.0
100
AcDbDimension
  2
*D32
 10
1528.636464738781
 20
1544.522199878662
 30
0.0
 11
1498.63646473878
 21
1696.522199878662
 31
0.0
 70
    32
 71
     5
 42
303.9999999999988
  3
SANWA
100
AcDbAlignedDimension
 13
1444.078219800758
 23
1848.522199878661
 33
0.0
 14
1434.668219800762
 24
1544.522199878662
 34
0.0
 50
90.0
100
AcDbRotatedDimension
1001
ACAD
1000
DSTYLE
1002
{
1070
    40
1040
15.0
1070
    41
1040
1.5
1070
    43
1040
5.0
1070
    44
1040
0.5
1070
   140
1040
2.0
1070
   147
1040
1.0
1070
   176
1070
   256
1070
   177
1070
   256
1070
   178
1070
   256
1070
   279
1070
     2
1002
}
  0
DIMENSION
  5
9E4B
330
747D
100
AcDbEntity
  8
寸法引出
 48
20.0
100
AcDbDimension
  2
*D33
 10
1528.636464738781
 20
1534.522199878662
 30
0.0
 11
1561.323819241333
 21
1540.363500629849
 31
0.0
 70
   160
 71
     5
 42
10.0
  3
SANWA
100
AcDbAlignedDimension
 13
1434.668219800762
 23
1544.522199878662
 33
0.0
 14
1428.168219800762
 24
1534.522199878662
 34
0.0
 50
90.0
100
AcDbRotatedDimension
1001
ACAD
1000
DSTYLE
1002
{
1070
    40
1040
15.0
1070
    41
1040
1.5
1070
    43
1040
5.0
1070
    44
1040
0.5
1070
   140
1040
2.0
1070
   147
1040
1.0
1070
   176
1070
   256
1070
   177
1070
   256
1070
   178
1070
   256
1070
   279
1070
     2
1002
}
  0
DIMENSION
  5
9E5A
330
747D
100
AcDbEntity
  8
寸法引出
 48
20.0
100
AcDbDimension
  2
*D34
 10
1528.636464738781
 20
1444.522199878661
 30
0.0
 11
1498.63646473878
 21
1489.522199878662
 31
0.0
 70
    32
 71
     5
 42
90.0000000000009
  3
SANWA
100
AcDbAlignedDimension
 13
1428.168219800762
 23
1534.522199878662
 33
0.0
 14
1428.168219800762
 24
1444.522199878661
 34
0.0
 50
90.0
100
AcDbRotatedDimension
1001
ACAD
1000
DSTYLE
1002
{
1070
    40
1040
15.0
1070
    41
1040
1.5
1070
    43
1040
5.0
1070
    44
1040
0.5
1070
   140
1040
2.0
1070
   147
1040
1.0
1070
   176
1070
   256
1070
   177
1070
   256
1070
   178
1070
   256
1070
   279
1070
     2
1002
}
  0
VIEWPORT
  5
7540
330
747A
100
AcDbEntity
 67
     1
  8
0
100
AcDbViewport
 10
2878.243789599006
 20
970.3639114717196
 30
0.0
 40
6257.342359533289
 41
4285.736489239755
 68
     1
 69
     1
 12
2878.243789599006
 22
970.3639114717196
 13
0.0
 23
0.0
 14
10.0
 24
10.0
 15
10.0
 25
10.0
 16
0.0
 26
0.0
 36
1.0
 17
0.0
 27
0.0
 37
0.0
 42
50.0
 43
0.0
 44
0.0
 45
4285.736489239755
 50
0.0
 51
0.0
 72
   100
 90
    32800
  1

281
     0
 71
     1
 74
     0
110
0.0
120
0.0
130
0.0
111
1.0
121
0.0
131
0.0
112
0.0
122
1.0
132
0.0
 79
     0
146
0.0
  0
TEXT
  5
7737
330
747A
100
AcDbEntity
 67
     1
  8
0
 48
2.0
100
AcDbText
 10
331.8711968111848
 20
20.60428158404021
 30
0.0
 40
2.0
  1

  7
SANWA
100
AcDbText
  0
ENDSEC
  0
SECTION
  2
OBJECTS
  0
DICTIONARY
  5
7471
330
0
100
AcDbDictionary
281
     1
  3
ACAD_GROUP
350
7472
  3
ACAD_LAYOUT
350
7F6B
  3
ACAD_MLINESTYLE
350
7473
  3
ACAD_PLOTSETTINGS
350
7F6C
  3
ACAD_PLOTSTYLENAME
350
7F69
  3
AcadDim
350
8AAA
  3
ACDBVARIABLEDICTIONARY
350
789B
  3
ASE_INDEX_DICTIONARY
350
9EAB
  0
DICTIONARY
  5
7472
102
{ACAD_REACTORS
330
7471
102
}
330
7471
100
AcDbDictionary
281
     1
  0
DICTIONARY
  5
7F6B
102
{ACAD_REACTORS
330
7471
102
}
330
7471
100
AcDbDictionary
281
     1
  3
Model
350
7F6D
  3
ﾚｲｱｳﾄ1
350
7F6E
  0
DICTIONARY
  5
7473
102
{ACAD_REACTORS
330
7471
102
}
330
7471
100
AcDbDictionary
281
     1
  3
STANDARD
350
7480
  0
DICTIONARY
  5
7F6C
102
{ACAD_REACTORS
330
7471
102
}
330
7471
100
AcDbDictionary
281
     1
  0
ACDBDICTIONARYWDFLT
  5
7F69
102
{ACAD_REACTORS
330
7471
102
}
330
7471
100
AcDbDictionary
281
     1
  3
Normal
350
7F6A
100
AcDbDictionaryWithDefault
340
7F6A
  0
XRECORD
  5
8AAA
102
{ACAD_REACTORS
330
7471
102
}
330
7471
100
AcDbXrecord
280
     1
 90
   990106
  3

 60
     4
 61
     0
 62
     1
 63
     3
 64
     0
 65
     0
 66
     0
 67
     3
 68
     1
 69
     0
 70
     0
 71
     0
 72
     0
 40
0.0
170
     0
  0
DICTIONARY
  5
789B
102
{ACAD_REACTORS
330
7471
102
}
330
7471
100
AcDbDictionary
281
     1
  3
DIMASSOC
350
7F75
  3
SORTENTS
350
789C
  0
DICTIONARY
  5
9EAB
102
{ACAD_REACTORS
330
7471
102
}
330
7471
100
AcDbDictionary
281
     1
  3
ASEBlockHierarchyIndexRecord
350
9EAD
1001
DCO15
1040
1551433715.453
  0
LAYOUT
  5
7F6D
102
{ACAD_REACTORS
330
7F6B
102
}
330
7F6B
100
AcDbPlotSettings
  1

  2
DocuCentre Color f360
  4
A4
  6

 40
4.857749938964842
 41
4.942390441894531
 42
4.942413330078125
 43
4.857757568359375
 44
209.9733276367186
 45
297.0106506347656
 46
5.089999999999998
 47
12.61
 48
5559.815901328995
 49
150.0
140
9489.815901328997
141
3000.0
142
1.0
143
15.0
 70
 11940
 72
     1
 73
     1
 74
     4
  7
sanwa3.ctb
 75
     0
147
0.0666666666666667
148
-5559.815901328995
149
-150.0
100
AcDbLayout
  1
Model
 70
     1
 71
     0
 10
0.0
 20
0.0
 11
12.0
 21
9.0
 12
0.0
 22
0.0
 32
0.0
 14
0.0
 24
0.0
 34
0.0
 15
0.0
 25
0.0
 35
0.0
146
0.0
 13
0.0
 23
0.0
 33
0.0
 16
1.0
 26
0.0
 36
0.0
 17
0.0
 27
1.0
 37
0.0
 76
     0
330
747D
  0
LAYOUT
  5
7F6E
102
{ACAD_REACTORS
330
7F6B
102
}
330
7F6B
100
AcDbPlotSettings
  1

  2
RICOH NX-510
  4
A4
  6

 40
5.873749732971191
 41
4.921256542205809
 42
7.588241577148437
 43
5.81024169921875
 44
209.9944915771484
 45
296.989501953125
 46
0.0
 47
0.0
 48
0.0
 49
0.0
140
0.0
141
0.0
142
1.0
143
20.17331812743451
 70
   688
 72
     1
 73
     1
 74
     1
  7
sanwa3.ctb
 75
     0
147
0.0495704273180553
148
0.1762079097297828
149
1029.28590836146
100
AcDbLayout
  1
ﾚｲｱｳﾄ1
 70
     1
 71
     1
 10
-117.3880621053551
 20
-1147.778930325621
 11
5873.875641303368
 21
3088.506753269061
 12
0.0
 22
0.0
 32
0.0
 14
1.000000000000000E+20
 24
1.000000000000000E+20
 34
1.000000000000000E+20
 15
-1.000000000000000E+20
 25
-1.000000000000000E+20
 35
-1.000000000000000E+20
146
0.0
 13
0.0
 23
0.0
 33
0.0
 16
1.0
 26
0.0
 36
0.0
 17
0.0
 27
1.0
 37
0.0
 76
     0
330
747A
331
7540
  0
MLINESTYLE
  5
7480
102
{ACAD_REACTORS
330
7473
102
}
330
7473
100
AcDbMlineStyle
  2
STANDARD
 70
     0
  3

 62
     0
 51
90.0
 52
90.0
 71
     2
 49
0.5
 62
   256
  6
BYLAYER
 49
-0.5
 62
   256
  6
BYLAYER
  0
ACDBPLACEHOLDER
  5
7F6A
102
{ACAD_REACTORS
330
7F69
102
}
330
7F69
  0
DICTIONARYVAR
  5
7F75
102
{ACAD_REACTORS
330
789B
102
}
330
789B
100
DictionaryVariables
280
     0
  1
1
  0
DICTIONARYVAR
  5
789C
102
{ACAD_REACTORS
330
789B
102
}
330
789B
100
DictionaryVariables
280
     0
  1
96
  0
XRECORD
  5
9EAD
102
{ACAD_REACTORS
330
9EAB
102
}
330
9EAB
100
AcDbXrecord
280
     1
  0
ENDSEC
  0
EOF
