  0
SECTION
  2
HEADER
  9
$ACADVER
  1
AC1015
  9
$ACADMAINTVER
 70
    20
  9
$DWGCODEPAGE
  3
ANSI_932
  9
$INSBASE
 10
0.0
 20
0.0
 30
0.0
  9
$EXTMIN
 10
-0.3273161325796536
 20
-0.0256921843338205
 30
-0.0000000000000053
  9
$EXTMAX
 10
4455.247603013951
 20
3150.159803344744
 30
0.0000000000000099
  9
$LIMMIN
 10
0.0
 20
0.0
  9
$LIMMAX
 10
420.0
 20
297.0
  9
$ORTHOMODE
 70
     1
  9
$REGENMODE
 70
     1
  9
$FILLMODE
 70
     1
  9
$QTEXTMODE
 70
     0
  9
$MIRRTEXT
 70
     1
  9
$LTSCALE
 40
0.5
  9
$ATTMODE
 70
     1
  9
$TEXTSIZE
 40
2.799999999999999
  9
$TRACEWID
 40
1.0
  9
$TEXTSTYLE
  7
SANWA
  9
$CLAYER
  8
寸法引出
  9
$CELTYPE
  6
BYLAYER
  9
$CECOLOR
 62
   256
  9
$CELTSCALE
 40
20.0
  9
$DISPSILH
 70
     0
  9
$DIMSCALE
 40
15.0
  9
$DIMASZ
 40
1.5
  9
$DIMEXO
 40
1.0
  9
$DIMDLI
 40
5.0
  9
$DIMRND
 40
0.0
  9
$DIMDLE
 40
0.0
  9
$DIMEXE
 40
0.5
  9
$DIMTP
 40
0.0
  9
$DIMTM
 40
0.0
  9
$DIMTXT
 40
2.0
  9
$DIMCEN
 40
0.0
  9
$DIMTSZ
 40
0.0
  9
$DIMTOL
 70
     0
  9
$DIMLIM
 70
     0
  9
$DIMTIH
 70
     0
  9
$DIMTOH
 70
     0
  9
$DIMSE1
 70
     0
  9
$DIMSE2
 70
     0
  9
$DIMTAD
 70
     1
  9
$DIMZIN
 70
     8
  9
$DIMBLK
  1

  9
$DIMASO
 70
     1
  9
$DIMSHO
 70
     1
  9
$DIMPOST
  1

  9
$DIMAPOST
  1

  9
$DIMALT
 70
     0
  9
$DIMALTD
 70
     2
  9
$DIMALTF
 40
0.0394
  9
$DIMLFAC
 40
1.0
  9
$DIMTOFL
 70
     1
  9
$DIMTVP
 40
0.0
  9
$DIMTIX
 70
     1
  9
$DIMSOXD
 70
     0
  9
$DIMSAH
 70
     0
  9
$DIMBLK1
  1

  9
$DIMBLK2
  1

  9
$DIMSTYLE
  2
SANWA
  9
$DIMCLRD
 70
   256
  9
$DIMCLRE
 70
   256
  9
$DIMCLRT
 70
   256
  9
$DIMTFAC
 40
1.0
  9
$DIMGAP
 40
1.0
  9
$DIMJUST
 70
     0
  9
$DIMSD1
 70
     0
  9
$DIMSD2
 70
     0
  9
$DIMTOLJ
 70
     1
  9
$DIMTZIN
 70
     0
  9
$DIMALTZ
 70
     0
  9
$DIMALTTZ
 70
     0
  9
$DIMUPT
 70
     0
  9
$DIMDEC
 70
     4
  9
$DIMTDEC
 70
     4
  9
$DIMALTU
 70
     2
  9
$DIMALTTD
 70
     2
  9
$DIMTXSTY
  7
SANWA
  9
$DIMAUNIT
 70
     0
  9
$DIMADEC
 70
     0
  9
$DIMALTRND
 40
0.0
  9
$DIMAZIN
 70
     0
  9
$DIMDSEP
 70
    46
  9
$DIMATFIT
 70
     3
  9
$DIMFRAC
 70
     0
  9
$DIMLDRBLK
  1

  9
$DIMLUNIT
 70
     2
  9
$DIMLWD
 70
    -2
  9
$DIMLWE
 70
    -2
  9
$DIMTMOVE
 70
     2
  9
$LUNITS
 70
     2
  9
$LUPREC
 70
     4
  9
$SKETCHINC
 40
1.0
  9
$FILLETRAD
 40
40.0
  9
$AUNITS
 70
     0
  9
$AUPREC
 70
     0
  9
$MENU
  1
acad
  9
$ELEVATION
 40
0.0
  9
$PELEVATION
 40
0.0
  9
$THICKNESS
 40
0.0
  9
$LIMCHECK
 70
     0
  9
$CHAMFERA
 40
0.0
  9
$CHAMFERB
 40
0.0
  9
$CHAMFERC
 40
0.0
  9
$CHAMFERD
 40
0.0
  9
$SKPOLY
 70
     1
  9
$TDCREATE
 40
2451806.361679283
  9
$TDUCREATE
 40
2451805.986679282
  9
$TDUPDATE
 40
2455349.568005162
  9
$TDUUPDATE
 40
2455349.193005162
  9
$TDINDWG
 40
0.9264712269
  9
$TDUSRTIMER
 40
0.9264712269
  9
$USRTIMER
 70
     1
  9
$ANGBASE
 50
0.0
  9
$ANGDIR
 70
     0
  9
$PDMODE
 70
     0
  9
$PDSIZE
 40
0.0
  9
$PLINEWID
 40
0.0
  9
$SPLFRAME
 70
     0
  9
$SPLINETYPE
 70
     6
  9
$SPLINESEGS
 70
     8
  9
$HANDSEED
  5
B561
  9
$SURFTAB1
 70
     6
  9
$SURFTAB2
 70
     6
  9
$SURFTYPE
 70
     6
  9
$SURFU
 70
     6
  9
$SURFV
 70
     6
  9
$UCSBASE
  2

  9
$UCSNAME
  2

  9
$UCSORG
 10
0.0
 20
0.0
 30
0.0
  9
$UCSXDIR
 10
1.0
 20
0.0
 30
0.0
  9
$UCSYDIR
 10
0.0
 20
1.0
 30
0.0
  9
$UCSORTHOREF
  2

  9
$UCSORTHOVIEW
 70
     0
  9
$UCSORGTOP
 10
0.0
 20
0.0
 30
0.0
  9
$UCSORGBOTTOM
 10
0.0
 20
0.0
 30
0.0
  9
$UCSORGLEFT
 10
0.0
 20
0.0
 30
0.0
  9
$UCSORGRIGHT
 10
0.0
 20
0.0
 30
0.0
  9
$UCSORGFRONT
 10
0.0
 20
0.0
 30
0.0
  9
$UCSORGBACK
 10
0.0
 20
0.0
 30
0.0
  9
$PUCSBASE
  2

  9
$PUCSNAME
  2

  9
$PUCSORG
 10
0.0
 20
0.0
 30
0.0
  9
$PUCSXDIR
 10
1.0
 20
0.0
 30
0.0
  9
$PUCSYDIR
 10
0.0
 20
1.0
 30
0.0
  9
$PUCSORTHOREF
  2

  9
$PUCSORTHOVIEW
 70
     0
  9
$PUCSORGTOP
 10
0.0
 20
0.0
 30
0.0
  9
$PUCSORGBOTTOM
 10
0.0
 20
0.0
 30
0.0
  9
$PUCSORGLEFT
 10
0.0
 20
0.0
 30
0.0
  9
$PUCSORGRIGHT
 10
0.0
 20
0.0
 30
0.0
  9
$PUCSORGFRONT
 10
0.0
 20
0.0
 30
0.0
  9
$PUCSORGBACK
 10
0.0
 20
0.0
 30
0.0
  9
$USERI1
 70
     0
  9
$USERI2
 70
     0
  9
$USERI3
 70
     0
  9
$USERI4
 70
     0
  9
$USERI5
 70
     0
  9
$USERR1
 40
0.0
  9
$USERR2
 40
0.0
  9
$USERR3
 40
0.0
  9
$USERR4
 40
0.0
  9
$USERR5
 40
0.0
  9
$WORLDVIEW
 70
     1
  9
$SHADEDGE
 70
     3
  9
$SHADEDIF
 70
    70
  9
$TILEMODE
 70
     1
  9
$MAXACTVP
 70
    48
  9
$PINSBASE
 10
0.0
 20
0.0
 30
0.0
  9
$PLIMCHECK
 70
     0
  9
$PEXTMIN
 10
1.000000000000000E+20
 20
1.000000000000000E+20
 30
1.000000000000000E+20
  9
$PEXTMAX
 10
-1.000000000000000E+20
 20
-1.000000000000000E+20
 30
-1.000000000000000E+20
  9
$PLIMMIN
 10
-117.3880621053553
 20
-1147.778930325621
  9
$PLIMMAX
 10
5873.875641303368
 20
3088.506753269061
  9
$UNITMODE
 70
     0
  9
$VISRETAIN
 70
     1
  9
$PLINEGEN
 70
     0
  9
$PSLTSCALE
 70
     1
  9
$TREEDEPTH
 70
  3020
  9
$CMLSTYLE
  2
STANDARD
  9
$CMLJUST
 70
     0
  9
$CMLSCALE
 40
1.0
  9
$PROXYGRAPHICS
 70
     1
  9
$MEASUREMENT
 70
     1
  9
$CELWEIGHT
370
    -1
  9
$ENDCAPS
280
     0
  9
$JOINSTYLE
280
     0
  9
$LWDISPLAY
290
     0
  9
$INSUNITS
 70
     0
  9
$HYPERLINKBASE
  1

  9
$STYLESHEET
  1
sanwa3.ctb
  9
$XEDIT
290
     1
  9
$CEPSNTYPE
380
     0
  9
$PSTYLEMODE
290
     1
  9
$FINGERPRINTGUID
  2
{FF69E217-7CBD-426C-8D1A-915AA093CE5F}
  9
$VERSIONGUID
  2
{78556FCC-7466-462C-AC48-44B33C5EA949}
  9
$EXTNAMES
290
     1
  9
$PSVPSCALE
 40
0.0
  9
$OLESTARTUP
290
     0
  0
ENDSEC
  0
SECTION
  2
CLASSES
  0
CLASS
  1
DICTIONARYVAR
  2
AcDbDictionaryVar
  3
ObjectDBX Classes
 90
        0
280
     0
281
     0
  0
CLASS
  1
ACDBDICTIONARYWDFLT
  2
AcDbDictionaryWithDefault
  3
ObjectDBX Classes
 90
        0
280
     0
281
     0
  0
CLASS
  1
ACDBPLACEHOLDER
  2
AcDbPlaceHolder
  3
ObjectDBX Classes
 90
        0
280
     0
281
     0
  0
CLASS
  1
LAYOUT
  2
AcDbLayout
  3
ObjectDBX Classes
 90
        0
280
     0
281
     0
  0
CLASS
  1
MATERIAL
  2
AcDbMaterial
  3
ObjectDBX Classes
 90
     1153
280
     0
281
     0
  0
CLASS
  1
VISUALSTYLE
  2
AcDbVisualStyle
  3
ObjectDBX Classes
 90
     4095
280
     0
281
     0
  0
CLASS
  1
TABLESTYLE
  2
AcDbTableStyle
  3
ObjectDBX Classes
 90
     4095
280
     0
281
     0
  0
CLASS
  1
SCALE
  2
AcDbScale
  3
ObjectDBX Classes
 90
     1153
280
     0
281
     0
  0
CLASS
  1
MLEADERSTYLE
  2
AcDbMLeaderStyle
  3
ACDB_MLEADERSTYLE_CLASS
 90
     4095
280
     0
281
     0
  0
CLASS
  1
CELLSTYLEMAP
  2
AcDbCellStyleMap
  3
ObjectDBX Classes
 90
     1152
280
     0
281
     0
  0
ENDSEC
  0
SECTION
  2
TABLES
  0
TABLE
  2
VPORT
  5
746D
102
{ACAD_XDICTIONARY
360
B330
102
}
330
0
100
AcDbSymbolTable
 70
     1
  0
VPORT
  5
B287
330
746D
100
AcDbSymbolTableRecord
100
AcDbViewportTableRecord
  2
*Active
 70
     0
 10
0.0
 20
0.0
 11
1.0
 21
1.0
 12
2227.460131913845
 22
1575.0670467823
 13
0.0
 23
0.0
 14
10.0
 24
10.0
 15
10.0
 25
10.0
 16
0.0
 26
0.0
 36
1.0
 17
0.0
 27
0.0
 37
0.0
 40
3573.644998136319
 41
1.353070175438596
 42
50.0
 43
0.0
 44
0.0
 50
0.0
 51
0.0
 71
     0
 72
   100
 73
     1
 74
     0
 75
     0
 76
     0
 77
     0
 78
     0
281
     0
 65
     1
110
0.0
120
0.0
130
0.0
111
1.0
121
0.0
131
0.0
112
0.0
122
1.0
132
0.0
 79
     0
146
0.0
  0
ENDTAB
  0
TABLE
  2
LTYPE
  5
746A
330
0
100
AcDbSymbolTable
 70
     5
  0
LTYPE
  5
7477
330
746A
100
AcDbSymbolTableRecord
100
AcDbLinetypeTableRecord
  2
BYBLOCK
 70
     0
  3

 72
    65
 73
     0
 40
0.0
  0
LTYPE
  5
7478
330
746A
100
AcDbSymbolTableRecord
100
AcDbLinetypeTableRecord
  2
BYLAYER
 70
     0
  3

 72
    65
 73
     0
 40
0.0
  0
LTYPE
  5
7479
330
746A
100
AcDbSymbolTableRecord
100
AcDbLinetypeTableRecord
  2
CONTINUOUS
 70
     0
  3
Solid line
 72
    65
 73
     0
 40
0.0
  0
LTYPE
  5
7D54
330
746A
100
AcDbSymbolTableRecord
100
AcDbLinetypeTableRecord
  2
CENTER2
 70
     0
  3
Center (.5x) ___ _ ___ _ ___ _ ___ _ ___ _ ___
 72
    65
 73
     4
 40
28.575
 49
19.05
 74
     0
 49
-3.174999999999999
 74
     0
 49
3.174999999999999
 74
     0
 49
-3.174999999999999
 74
     0
  0
LTYPE
  5
7D55
330
746A
100
AcDbSymbolTableRecord
100
AcDbLinetypeTableRecord
  2
DOT
 70
     0
  3
Dot . . . . . . . . . . . . . . . . . . . . . .
 72
    65
 73
     2
 40
6.349999999999999
 49
0.0
 74
     0
 49
-6.349999999999999
 74
     0
  0
LTYPE
  5
7D56
330
746A
100
AcDbSymbolTableRecord
100
AcDbLinetypeTableRecord
  2
HIDDEN2
 70
     0
  3
Hidden (.5x) _ _ _ _ _ _ _ _ _ _ _ _ _ _ _ _ _
 72
    65
 73
     2
 40
4.762499999999999
 49
3.174999999999999
 74
     0
 49
-1.587499999999999
 74
     0
  0
LTYPE
  5
7D57
330
746A
100
AcDbSymbolTableRecord
100
AcDbLinetypeTableRecord
  2
PHANTOM2
 70
     0
  3
Phantom (.5x) ___ _ _ ___ _ _ ___ _ _ ___ _ _
 72
    65
 73
     6
 40
31.75
 49
15.875
 74
     0
 49
-3.174999999999999
 74
     0
 49
3.174999999999999
 74
     0
 49
-3.174999999999999
 74
     0
 49
3.174999999999999
 74
     0
 49
-3.174999999999999
 74
     0
  0
ENDTAB
  0
TABLE
  2
LAYER
  5
7467
330
0
100
AcDbSymbolTable
 70
     7
  0
LAYER
  5
7474
102
{ACAD_XDICTIONARY
360
B306
102
}
330
7467
100
AcDbSymbolTableRecord
100
AcDbLayerTableRecord
  2
0
 70
     0
 62
     7
  6
CONTINUOUS
370
    -3
390
7F6A
  0
LAYER
  5
7485
330
7467
100
AcDbSymbolTableRecord
100
AcDbLayerTableRecord
  2
DEFPOINTS
 70
     0
 62
     7
  6
CONTINUOUS
290
     0
370
    -3
390
7F6A
  0
LAYER
  5
7486
102
{ACAD_XDICTIONARY
360
B308
102
}
330
7467
100
AcDbSymbolTableRecord
100
AcDbLayerTableRecord
  2
OBJECT
 70
     0
 62
     7
  6
CONTINUOUS
370
    -3
390
7F6A
  0
LAYER
  5
7950
102
{ACAD_XDICTIONARY
360
B30A
102
}
330
7467
100
AcDbSymbolTableRecord
100
AcDbLayerTableRecord
  2
枠
 70
     0
 62
     3
  6
CONTINUOUS
370
    -3
390
7F6A
  0
LAYER
  5
7D58
102
{ACAD_XDICTIONARY
360
B30C
102
}
330
7467
100
AcDbSymbolTableRecord
100
AcDbLayerTableRecord
  2
寸法引出
 70
     0
 62
     2
  6
CONTINUOUS
370
    -3
390
7F6A
  0
LAYER
  5
7D59
102
{ACAD_XDICTIONARY
360
B30E
102
}
330
7467
100
AcDbSymbolTableRecord
100
AcDbLayerTableRecord
  2
鉄筋
 70
     0
 62
     4
  6
CONTINUOUS
370
    -3
390
7F6A
  0
LAYER
  5
7D5A
102
{ACAD_XDICTIONARY
360
B310
102
}
330
7467
100
AcDbSymbolTableRecord
100
AcDbLayerTableRecord
  2
補助線
 70
     0
 62
     6
  6
CONTINUOUS
370
    -3
390
7F6A
  0
ENDTAB
  0
TABLE
  2
STYLE
  5
7468
330
0
100
AcDbSymbolTable
 70
     4
  0
STYLE
  5
7475
330
7468
100
AcDbSymbolTableRecord
100
AcDbTextStyleTableRecord
  2
STANDARD
 70
     0
 40
0.0
 41
1.0
 50
0.0
 71
     0
 42
3.5
  3
txt
  4

  0
STYLE
  5
7481
330
7468
100
AcDbSymbolTableRecord
100
AcDbTextStyleTableRecord
  2
ADESK1
 70
     0
 40
0.0
 41
1.0
 50
0.0
 71
     0
 42
5.0
  3
romans
  4
bigfont
  0
STYLE
  5
7731
330
7468
100
AcDbSymbolTableRecord
100
AcDbTextStyleTableRecord
  2
SANWA
 70
     0
 40
0.0
 41
1.0
 50
0.0
 71
     0
 42
2.799999999999999
  3
MSMINCHO.TTF
  4

1001
ACAD
1000
MS Mincho
1071
    32785
  0
STYLE
  5
7D45
330
7468
100
AcDbSymbolTableRecord
100
AcDbTextStyleTableRecord
  2

 70
     1
 40
0.0
 41
1.0
 50
0.0
 71
     0
 42
3.5
  3
ltypeshp.shx
  4

  0
ENDTAB
  0
TABLE
  2
VIEW
  5
746B
330
0
100
AcDbSymbolTable
 70
     0
  0
ENDTAB
  0
TABLE
  2
UCS
  5
746C
330
0
100
AcDbSymbolTable
 70
     0
  0
ENDTAB
  0
TABLE
  2
APPID
  5
746E
330
0
100
AcDbSymbolTable
 70
     4
  0
APPID
  5
7476
330
746E
100
AcDbSymbolTableRecord
100
AcDbRegAppTableRecord
  2
ACAD
 70
     0
  0
APPID
  5
A77D
330
746E
100
AcDbSymbolTableRecord
100
AcDbRegAppTableRecord
  2
DCO15
 70
     0
  0
APPID
  5
B2DA
330
746E
100
AcDbSymbolTableRecord
100
AcDbRegAppTableRecord
  2
ACAD_MLEADERVER
 70
     0
  0
APPID
  5
B32D
330
746E
100
AcDbSymbolTableRecord
100
AcDbRegAppTableRecord
  2
ACAD_PSEXT
 70
     0
  0
ENDTAB
  0
TABLE
  2
DIMSTYLE
  5
746F
330
0
100
AcDbSymbolTable
 70
     4
100
AcDbDimStyleTable
 71
     1
340
796F
  0
DIMSTYLE
105
7484
330
746F
100
AcDbSymbolTableRecord
100
AcDbDimStyleTableRecord
  2
JIS
 70
     0
 41
2.5
 42
1.0
 43
7.0
 44
1.0
 73
     0
 74
     0
 77
     1
 78
     8
140
2.5
141
0.0
143
0.0394
147
0.0
172
     1
174
     1
176
     2
177
     2
178
     2
340
7731
  0
DIMSTYLE
105
796F
102
{ACAD_REACTORS
330
8CB4
330
8CC3
330
8CD0
330
8DA3
330
9083
330
9202
330
9241
330
9250
330
925F
330
928F
330
A038
330
A037
330
A036
330
A035
330
A034
330
A033
330
A062
330
A066
330
A063
330
A20D
330
A21B
330
A22A
330
A259
330
A268
330
B2E3
330
B2F0
102
}
330
746F
100
AcDbSymbolTableRecord
100
AcDbDimStyleTableRecord
  2
SANWA
 70
     0
 41
2.5
 42
1.0
 43
7.0
 44
1.0
 73
     0
 74
     0
 77
     1
 78
     8
140
2.5
141
0.0
143
0.0394
147
0.0
172
     1
174
     1
176
     2
177
     2
178
     2
340
7731
  0
DIMSTYLE
105
7C9D
330
746F
100
AcDbSymbolTableRecord
100
AcDbDimStyleTableRecord
  2
SANWA$4
 70
     0
 41
2.5
 42
1.0
 43
5.0
 44
1.0
 73
     0
 74
     0
 77
     1
 78
     8
140
2.5
141
0.0
143
0.0394
147
1.0
172
     1
174
     1
176
     2
177
     2
178
     2
289
     2
340
7731
  0
DIMSTYLE
105
7CB5
330
746F
100
AcDbSymbolTableRecord
100
AcDbDimStyleTableRecord
  2
SANWA$3
 70
     0
 41
2.5
 42
1.0
 43
7.0
 44
1.0
 73
     0
 74
     0
 77
     1
 78
     8
140
2.5
141
0.0
143
0.0394
147
0.0
172
     1
174
     1
176
     2
177
     2
178
     2
289
     0
340
7731
  0
ENDTAB
  0
TABLE
  2
BLOCK_RECORD
  5
7466
330
0
100
AcDbSymbolTable
 70
    51
  0
BLOCK_RECORD
  5
747D
330
7466
100
AcDbSymbolTableRecord
100
AcDbBlockTableRecord
  2
*MODEL_SPACE
340
7F6D
  0
BLOCK_RECORD
  5
747A
330
7466
100
AcDbSymbolTableRecord
100
AcDbBlockTableRecord
  2
*PAPER_SPACE
340
7F6E
  0
BLOCK_RECORD
  5
7493
330
7466
100
AcDbSymbolTableRecord
100
AcDbBlockTableRecord
  2
TITLE_BLOCK
340
0
  0
BLOCK_RECORD
  5
8CB5
330
7466
100
AcDbSymbolTableRecord
100
AcDbBlockTableRecord
  2
*D1
340
0
  0
BLOCK_RECORD
  5
8CC4
330
7466
100
AcDbSymbolTableRecord
100
AcDbBlockTableRecord
  2
*D2
340
0
  0
BLOCK_RECORD
  5
8CD1
330
7466
100
AcDbSymbolTableRecord
100
AcDbBlockTableRecord
  2
*D3
340
0
  0
BLOCK_RECORD
  5
8DA4
330
7466
100
AcDbSymbolTableRecord
100
AcDbBlockTableRecord
  2
*D4
340
0
  0
BLOCK_RECORD
  5
9084
330
7466
100
AcDbSymbolTableRecord
100
AcDbBlockTableRecord
  2
*D5
340
0
  0
BLOCK_RECORD
  5
9203
330
7466
100
AcDbSymbolTableRecord
100
AcDbBlockTableRecord
  2
*D6
340
0
  0
BLOCK_RECORD
  5
9242
330
7466
100
AcDbSymbolTableRecord
100
AcDbBlockTableRecord
  2
*D7
340
0
  0
BLOCK_RECORD
  5
9251
330
7466
100
AcDbSymbolTableRecord
100
AcDbBlockTableRecord
  2
*D8
340
0
  0
BLOCK_RECORD
  5
9260
330
7466
100
AcDbSymbolTableRecord
100
AcDbBlockTableRecord
  2
*D9
340
0
  0
BLOCK_RECORD
  5
9290
330
7466
100
AcDbSymbolTableRecord
100
AcDbBlockTableRecord
  2
*D10
340
0
  0
BLOCK_RECORD
  5
A07C
330
7466
100
AcDbSymbolTableRecord
100
AcDbBlockTableRecord
  2
*D11
340
0
  0
BLOCK_RECORD
  5
A08A
330
7466
100
AcDbSymbolTableRecord
100
AcDbBlockTableRecord
  2
*D12
340
0
  0
BLOCK_RECORD
  5
A098
330
7466
100
AcDbSymbolTableRecord
100
AcDbBlockTableRecord
  2
*D13
340
0
  0
BLOCK_RECORD
  5
A0A6
330
7466
100
AcDbSymbolTableRecord
100
AcDbBlockTableRecord
  2
*D14
340
0
  0
BLOCK_RECORD
  5
A0B2
330
7466
100
AcDbSymbolTableRecord
100
AcDbBlockTableRecord
  2
*D15
340
0
  0
BLOCK_RECORD
  5
A0C0
330
7466
100
AcDbSymbolTableRecord
100
AcDbBlockTableRecord
  2
*D16
340
0
  0
BLOCK_RECORD
  5
A0CC
330
7466
100
AcDbSymbolTableRecord
100
AcDbBlockTableRecord
  2
*D17
340
0
  0
BLOCK_RECORD
  5
A0D8
330
7466
100
AcDbSymbolTableRecord
100
AcDbBlockTableRecord
  2
*D18
340
0
  0
BLOCK_RECORD
  5
A0E6
330
7466
100
AcDbSymbolTableRecord
100
AcDbBlockTableRecord
  2
*D19
340
0
  0
BLOCK_RECORD
  5
A20E
330
7466
100
AcDbSymbolTableRecord
100
AcDbBlockTableRecord
  2
*D20
340
0
  0
BLOCK_RECORD
  5
A21C
330
7466
100
AcDbSymbolTableRecord
100
AcDbBlockTableRecord
  2
*D21
340
0
  0
BLOCK_RECORD
  5
A22B
330
7466
100
AcDbSymbolTableRecord
100
AcDbBlockTableRecord
  2
*D22
340
0
  0
BLOCK_RECORD
  5
A25A
330
7466
100
AcDbSymbolTableRecord
100
AcDbBlockTableRecord
  2
*D23
340
0
  0
BLOCK_RECORD
  5
A269
330
7466
100
AcDbSymbolTableRecord
100
AcDbBlockTableRecord
  2
*D24
340
0
  0
BLOCK_RECORD
  5
A7D0
330
7466
100
AcDbSymbolTableRecord
100
AcDbBlockTableRecord
  2
*D25
340
0
  0
BLOCK_RECORD
  5
A7DE
330
7466
100
AcDbSymbolTableRecord
100
AcDbBlockTableRecord
  2
*D26
340
0
  0
BLOCK_RECORD
  5
A7EA
330
7466
100
AcDbSymbolTableRecord
100
AcDbBlockTableRecord
  2
*D27
340
0
  0
BLOCK_RECORD
  5
A7F6
330
7466
100
AcDbSymbolTableRecord
100
AcDbBlockTableRecord
  2
*D28
340
0
  0
BLOCK_RECORD
  5
A804
330
7466
100
AcDbSymbolTableRecord
100
AcDbBlockTableRecord
  2
*D29
340
0
  0
BLOCK_RECORD
  5
A810
330
7466
100
AcDbSymbolTableRecord
100
AcDbBlockTableRecord
  2
*D30
340
0
  0
BLOCK_RECORD
  5
A81E
330
7466
100
AcDbSymbolTableRecord
100
AcDbBlockTableRecord
  2
*D31
340
0
  0
BLOCK_RECORD
  5
A82C
330
7466
100
AcDbSymbolTableRecord
100
AcDbBlockTableRecord
  2
*D32
340
0
  0
BLOCK_RECORD
  5
A83A
330
7466
100
AcDbSymbolTableRecord
100
AcDbBlockTableRecord
  2
*D33
340
0
  0
BLOCK_RECORD
  5
A846
330
7466
100
AcDbSymbolTableRecord
100
AcDbBlockTableRecord
  2
*D34
340
0
  0
BLOCK_RECORD
  5
A854
330
7466
100
AcDbSymbolTableRecord
100
AcDbBlockTableRecord
  2
*D35
340
0
  0
BLOCK_RECORD
  5
A862
330
7466
100
AcDbSymbolTableRecord
100
AcDbBlockTableRecord
  2
*D36
340
0
  0
BLOCK_RECORD
  5
A86E
330
7466
100
AcDbSymbolTableRecord
100
AcDbBlockTableRecord
  2
*D37
340
0
  0
BLOCK_RECORD
  5
A87C
330
7466
100
AcDbSymbolTableRecord
100
AcDbBlockTableRecord
  2
*D38
340
0
  0
BLOCK_RECORD
  5
A91E
330
7466
100
AcDbSymbolTableRecord
100
AcDbBlockTableRecord
  2
*D39
340
0
  0
BLOCK_RECORD
  5
A92B
330
7466
100
AcDbSymbolTableRecord
100
AcDbBlockTableRecord
  2
*D40
340
0
  0
BLOCK_RECORD
  5
A938
330
7466
100
AcDbSymbolTableRecord
100
AcDbBlockTableRecord
  2
*D41
340
0
  0
BLOCK_RECORD
  5
A945
330
7466
100
AcDbSymbolTableRecord
100
AcDbBlockTableRecord
  2
*D42
340
0
  0
BLOCK_RECORD
  5
A952
330
7466
100
AcDbSymbolTableRecord
100
AcDbBlockTableRecord
  2
*D43
340
0
  0
BLOCK_RECORD
  5
A95F
330
7466
100
AcDbSymbolTableRecord
100
AcDbBlockTableRecord
  2
*D44
340
0
  0
BLOCK_RECORD
  5
B027
330
7466
100
AcDbSymbolTableRecord
100
AcDbBlockTableRecord
  2
*D45
340
0
  0
BLOCK_RECORD
  5
B033
330
7466
100
AcDbSymbolTableRecord
100
AcDbBlockTableRecord
  2
*D46
340
0
  0
BLOCK_RECORD
  5
B03F
330
7466
100
AcDbSymbolTableRecord
100
AcDbBlockTableRecord
  2
*D47
340
0
  0
BLOCK_RECORD
  5
B0EB
330
7466
100
AcDbSymbolTableRecord
100
AcDbBlockTableRecord
  2
*D48
340
0
  0
BLOCK_RECORD
  5
B2E4
330
7466
100
AcDbSymbolTableRecord
100
AcDbBlockTableRecord
  2
*D49
340
0
  0
BLOCK_RECORD
  5
B2F1
330
7466
100
AcDbSymbolTableRecord
100
AcDbBlockTableRecord
  2
*D50
340
0
  0
ENDTAB
  0
ENDSEC
  0
SECTION
  2
BLOCKS
  0
BLOCK
  5
7489
330
747D
100
AcDbEntity
  8
0
100
AcDbBlockBegin
  2
*MODEL_SPACE
 70
     0
 10
0.0
 20
0.0
 30
0.0
  3
*MODEL_SPACE
  1

  0
ENDBLK
  5
748A
330
747D
100
AcDbEntity
  8
0
100
AcDbBlockEnd
  0
BLOCK
  5
7487
330
747A
100
AcDbEntity
 67
     1
  8
0
100
AcDbBlockBegin
  2
*PAPER_SPACE
 70
     2
 10
0.0
 20
0.0
 30
0.0
  3
*PAPER_SPACE
  1

  0
ENDBLK
  5
7488
330
747A
100
AcDbEntity
 67
     1
  8
0
100
AcDbBlockEnd
  0
BLOCK
  5
7494
330
7493
100
AcDbEntity
  8
0
100
AcDbBlockBegin
  2
TITLE_BLOCK
 70
     2
 10
0.0
 20
0.0
 30
0.0
  3
TITLE_BLOCK
  1

  0
LINE
  5
7495
330
7493
100
AcDbEntity
  8
0
 62
     0
100
AcDbLine
 10
402.7943262411347
 20
16.00000000000008
 30
0.0
 11
410.0
 21
16.00000000000008
 31
0.0
  0
LINE
  5
7496
330
7493
100
AcDbEntity
  8
0
 62
     0
100
AcDbLine
 10
410.0
 20
10.0
 30
0.0
 11
410.0
 21
49.00000000000036
 31
0.0
  0
LINE
  5
7497
330
7493
100
AcDbEntity
  8
0
 62
     0
100
AcDbLine
 10
410.0
 20
49.00000000000036
 30
0.0
 11
410.0
 21
10.0
 31
0.0
  0
LINE
  5
7498
330
7493
100
AcDbEntity
  8
0
 62
     0
100
AcDbLine
 10
402.7943262411347
 20
22.00000000000012
 30
0.0
 11
402.7943262411347
 21
10.0
 31
0.0
  0
LINE
  5
7499
330
7493
100
AcDbEntity
  8
0
 62
     0
100
AcDbLine
 10
336.1418439716306
 20
49.00000000000036
 30
0.0
 11
336.1418439716306
 21
22.00000000000012
 31
0.0
  0
LINE
  5
749A
330
7493
100
AcDbEntity
  8
0
 62
     0
100
AcDbLine
 10
325.3333333333326
 20
37.00000000000024
 30
0.0
 11
325.3333333333326
 21
25.00000000000012
 31
0.0
  0
LINE
  5
749B
330
7493
100
AcDbEntity
  8
0
 62
     0
100
AcDbLine
 10
318.1276595744673
 20
49.00000000000036
 30
0.0
 11
318.1276595744673
 21
25.00000000000012
 31
0.0
  0
LINE
  5
749C
330
7493
100
AcDbEntity
  8
0
 62
     0
100
AcDbLine
 10
318.1276595744673
 20
25.00000000000012
 30
0.0
 11
348.7517730496447
 21
25.00000000000012
 31
0.0
  0
LINE
  5
749D
330
7493
100
AcDbEntity
  8
0
 62
     0
100
AcDbLine
 10
280.2978723404242
 20
28.00000000000016
 30
0.0
 11
348.7517730496447
 21
28.00000000000016
 31
0.0
  0
LINE
  5
749E
330
7493
100
AcDbEntity
  8
0
 62
     0
100
AcDbLine
 10
280.2978723404242
 20
31.0000000000002
 30
0.0
 11
348.7517730496447
 21
31.0000000000002
 31
0.0
  0
LINE
  5
749F
330
7493
100
AcDbEntity
  8
0
 62
     0
100
AcDbLine
 10
280.2978723404242
 20
34.00000000000024
 30
0.0
 11
348.7517730496447
 21
34.00000000000024
 31
0.0
  0
LINE
  5
74A0
330
7493
100
AcDbEntity
  8
0
 62
     0
100
AcDbLine
 10
280.2978723404242
 20
19.00000000000008
 30
0.0
 11
318.1276595744673
 21
19.00000000000012
 31
0.0
  0
LINE
  5
74A1
330
7493
100
AcDbEntity
  8
0
 62
     0
100
AcDbLine
 10
280.2978723404242
 20
22.00000000000008
 30
0.0
 11
318.1276595744673
 21
22.00000000000012
 31
0.0
  0
LINE
  5
74A2
330
7493
100
AcDbEntity
  8
0
 62
     0
100
AcDbLine
 10
280.2978723404242
 20
25.00000000000012
 30
0.0
 11
318.1276595744673
 21
25.00000000000012
 31
0.0
  0
TEXT
  5
74A3
330
7493
100
AcDbEntity
  8
0
 62
     0
100
AcDbText
 10
342.2447163844405
 20
10.55220101068186
 30
0.0
 40
1.791674070777747
  1
照査
  7
ADESK1
 72
     1
 11
344.1558353932701
 21
10.55220101068186
 31
0.0
100
AcDbText
  0
TEXT
  5
74A4
330
7493
100
AcDbEntity
  8
0
 62
     0
100
AcDbText
 10
332.2960689314087
 20
10.48329012996929
 30
0.0
 40
1.791674070777747
  1
設計
  7
ADESK1
 72
     1
 11
334.2071879402383
 21
10.48329012996929
 31
0.0
100
AcDbText
  0
TEXT
  5
74A5
330
7493
100
AcDbEntity
  8
0
 62
     0
100
AcDbText
 10
321.7174935280942
 20
10.48329012996929
 30
0.0
 40
1.791674070777747
  1
製図
  7
ADESK1
 72
     1
 11
323.5688900678979
 21
10.48329012996929
 31
0.0
100
AcDbText
  0
LINE
  5
74A6
330
7493
100
AcDbEntity
  8
0
 62
     0
100
AcDbLine
 10
280.2978723404242
 20
10.0
 30
0.0
 11
280.2978723404242
 21
13.00000000000004
 31
0.0
  0
LINE
  5
74A7
330
7493
100
AcDbEntity
  8
0
 62
     0
100
AcDbLine
 10
280.2978723404242
 20
16.00000000000008
 30
0.0
 11
318.1276595744673
 21
16.00000000000008
 31
0.0
  0
LINE
  5
74A8
330
7493
100
AcDbEntity
  8
0
 62
     0
100
AcDbLine
 10
339.4042553191484
 20
22.00000000000008
 30
0.0
 11
339.4042553191484
 21
10.0
 31
0.0
  0
LINE
  5
74A9
330
7493
100
AcDbEntity
  8
0
 62
     0
100
AcDbLine
 10
328.7659574468078
 20
22.00000000000008
 30
0.0
 11
328.7659574468078
 21
10.0
 31
0.0
  0
LINE
  5
74AA
330
7493
100
AcDbEntity
  8
0
 62
     0
100
AcDbLine
 10
348.7517730496447
 20
49.00000000000036
 30
0.0
 11
348.7517730496447
 21
10.0
 31
0.0
  0
LINE
  5
74AB
330
7493
100
AcDbEntity
  8
0
 62
     0
100
AcDbLine
 10
280.2978723404242
 20
49.00000000000036
 30
0.0
 11
280.2978723404242
 21
10.0
 31
0.0
  0
LINE
  5
74AC
330
7493
100
AcDbEntity
  8
0
 62
     0
100
AcDbLine
 10
318.1276595744673
 20
25.00000000000012
 30
0.0
 11
318.1276595744673
 21
10.0
 31
0.0
  0
LINE
  5
74AD
330
7493
100
AcDbEntity
  8
0
 62
     0
100
AcDbLine
 10
312.7234042553184
 20
37.00000000000024
 30
0.0
 11
312.7234042553184
 21
10.0
 31
0.0
  0
LINE
  5
74AE
330
7493
100
AcDbEntity
  8
0
 62
     0
100
AcDbLine
 10
285.7021276595731
 20
37.00000000000024
 30
0.0
 11
285.7021276595731
 21
10.0
 31
0.0
  0
LINE
  5
74AF
330
7493
100
AcDbEntity
  8
0
 62
     0
100
AcDbLine
 10
303.7163120567366
 20
37.00000000000024
 30
0.0
 11
303.7163120567366
 21
10.0
 31
0.0
  0
LINE
  5
74B0
330
7493
100
AcDbEntity
  8
0
 62
     0
100
AcDbLine
 10
410.0
 20
49.00000000000036
 30
0.0
 11
280.2978723404242
 21
49.00000000000036
 31
0.0
  0
LINE
  5
74B1
330
7493
100
AcDbEntity
  8
0
 62
     0
100
AcDbLine
 10
280.2978723404242
 20
10.0
 30
0.0
 11
410.0
 21
10.0
 31
0.0
  0
LINE
  5
74B2
330
7493
100
AcDbEntity
  8
0
 62
     0
100
AcDbLine
 10
318.1276595744673
 20
22.00000000000012
 30
0.0
 11
410.0
 21
22.00000000000012
 31
0.0
  0
LINE
  5
74B3
330
7493
100
AcDbEntity
  8
0
 62
     0
100
AcDbLine
 10
280.2978723404242
 20
37.00000000000024
 30
0.0
 11
410.0
 21
37.00000000000024
 31
0.0
  0
LINE
  5
74B4
330
7493
100
AcDbEntity
  8
0
 62
     0
100
AcDbLine
 10
280.2978723404242
 20
13.00000000000004
 30
0.0
 11
410.0
 21
13.00000000000004
 31
0.0
  0
LINE
  5
74B5
330
7493
100
AcDbEntity
  8
0
 62
     0
100
AcDbLine
 10
280.2978723404242
 20
49.00000000000036
 30
0.0
 11
410.0
 21
49.00000000000036
 31
0.0
  0
TEXT
  5
74B6
330
7493
100
AcDbEntity
  8
0
100
AcDbText
 10
411.3708251683467
 20
33.08333333333334
 30
0.0
 40
3.0
  1
F
  7
ADESK1
 72
     1
 11
412.8708251683468
 21
33.08333333333334
 31
0.0
100
AcDbText
  0
TEXT
  5
74B7
330
7493
100
AcDbEntity
  8
0
100
AcDbText
 10
411.3708251683467
 20
79.25
 30
0.0
 40
3.0
  1
E
  7
ADESK1
 72
     1
 11
412.8708251683468
 21
79.25
 31
0.0
100
AcDbText
  0
TEXT
  5
74B8
330
7493
100
AcDbEntity
  8
0
100
AcDbText
 10
411.2993965969182
 20
125.4166666666666
 30
0.0
 40
3.0
  1
D
  7
ADESK1
 72
     1
 11
412.8708251683468
 21
125.4166666666666
 31
0.0
100
AcDbText
  0
TEXT
  5
74B9
330
7493
100
AcDbEntity
  8
0
100
AcDbText
 10
411.3708251683467
 20
171.5833333333333
 30
0.0
 40
3.0
  1
C
  7
ADESK1
 72
     1
 11
412.8708251683468
 21
171.5833333333333
 31
0.0
100
AcDbText
  0
TEXT
  5
74BA
330
7493
100
AcDbEntity
  8
0
100
AcDbText
 10
411.2993965969182
 20
217.75
 30
0.0
 40
3.0
  1
B
  7
ADESK1
 72
     1
 11
412.8708251683468
 21
217.75
 31
0.0
100
AcDbText
  0
TEXT
  5
74BB
330
7493
100
AcDbEntity
  8
0
100
AcDbText
 10
411.5851108826324
 20
263.9166666666666
 30
0.0
 40
3.0
  1
A
  7
ADESK1
 72
     1
 11
412.8708251683468
 21
263.9166666666666
 31
0.0
100
AcDbText
  0
TEXT
  5
74BC
330
7493
100
AcDbEntity
  8
0
100
AcDbText
 10
384.5089285714286
 20
6.019997240728748
 30
0.0
 40
3.0
  1
8
  7
ADESK1
 72
     1
 11
385.9375
 21
6.019997240728748
 31
0.0
100
AcDbText
  0
TEXT
  5
74BD
330
7493
100
AcDbEntity
  8
0
100
AcDbText
 10
336.3839285714286
 20
6.019997240728748
 30
0.0
 40
3.0
  1
7
  7
ADESK1
 72
     1
 11
337.8125
 21
6.019997240728748
 31
0.0
100
AcDbText
  0
TEXT
  5
74BE
330
7493
100
AcDbEntity
  8
0
100
AcDbText
 10
288.1875
 20
6.019997240728748
 30
0.0
 40
3.0
  1
6
  7
ADESK1
 72
     1
 11
289.6875
 21
6.019997240728748
 31
0.0
100
AcDbText
  0
TEXT
  5
74BF
330
7493
100
AcDbEntity
  8
0
100
AcDbText
 10
240.1339285714286
 20
6.019997240728748
 30
0.0
 40
3.0
  1
5
  7
ADESK1
 72
     1
 11
241.5625
 21
6.019997240728748
 31
0.0
100
AcDbText
  0
TEXT
  5
74C0
330
7493
100
AcDbEntity
  8
0
100
AcDbText
 10
191.9375
 20
6.019997240728748
 30
0.0
 40
3.0
  1
4
  7
ADESK1
 72
     1
 11
193.4375
 21
6.019997240728748
 31
0.0
100
AcDbText
  0
TEXT
  5
74C1
330
7493
100
AcDbEntity
  8
0
100
AcDbText
 10
143.8839285714285
 20
6.019997240728748
 30
0.0
 40
3.0
  1
3
  7
ADESK1
 72
     1
 11
145.3125
 21
6.019997240728748
 31
0.0
100
AcDbText
  0
TEXT
  5
74C2
330
7493
100
AcDbEntity
  8
0
100
AcDbText
 10
95.75892857142857
 20
6.019997240728748
 30
0.0
 40
3.0
  1
2
  7
ADESK1
 72
     1
 11
97.1875
 21
6.019997240728748
 31
0.0
100
AcDbText
  0
TEXT
  5
74C3
330
7493
100
AcDbEntity
  8
0
100
AcDbText
 10
47.84821428571429
 20
6.019997240728748
 30
0.0
 40
3.0
  1
1
  7
ADESK1
 72
     1
 11
49.0625
 21
6.019997240728748
 31
0.0
100
AcDbText
  0
TEXT
  5
74C4
330
7493
100
AcDbEntity
  8
0
100
AcDbText
 10
21.1071613595339
 20
33.08333333333334
 30
0.0
 40
3.0
  1
F
  7
ADESK1
 72
     1
 11
22.6071613595339
 21
33.08333333333334
 31
0.0
100
AcDbText
  0
TEXT
  5
74C5
330
7493
100
AcDbEntity
  8
0
100
AcDbText
 10
21.1071613595339
 20
79.25
 30
0.0
 40
3.0
  1
E
  7
ADESK1
 72
     1
 11
22.6071613595339
 21
79.25
 31
0.0
100
AcDbText
  0
TEXT
  5
74C6
330
7493
100
AcDbEntity
  8
0
100
AcDbText
 10
21.03573278810533
 20
125.4166666666666
 30
0.0
 40
3.0
  1
D
  7
ADESK1
 72
     1
 11
22.6071613595339
 21
125.4166666666666
 31
0.0
100
AcDbText
  0
TEXT
  5
74C7
330
7493
100
AcDbEntity
  8
0
100
AcDbText
 10
21.1071613595339
 20
171.5833333333333
 30
0.0
 40
3.0
  1
C
  7
ADESK1
 72
     1
 11
22.6071613595339
 21
171.5833333333333
 31
0.0
100
AcDbText
  0
TEXT
  5
74C8
330
7493
100
AcDbEntity
  8
0
100
AcDbText
 10
21.03573278810533
 20
217.75
 30
0.0
 40
3.0
  1
B
  7
ADESK1
 72
     1
 11
22.6071613595339
 21
217.75
 31
0.0
100
AcDbText
  0
TEXT
  5
74C9
330
7493
100
AcDbEntity
  8
0
100
AcDbText
 10
384.5089285714286
 20
288.0
 30
0.0
 40
3.0
  1
8
  7
ADESK1
 72
     1
 11
385.9375
 21
288.0
 31
0.0
100
AcDbText
  0
TEXT
  5
74CA
330
7493
100
AcDbEntity
  8
0
100
AcDbText
 10
336.3839285714286
 20
288.0
 30
0.0
 40
3.0
  1
7
  7
ADESK1
 72
     1
 11
337.8125
 21
288.0
 31
0.0
100
AcDbText
  0
TEXT
  5
74CB
330
7493
100
AcDbEntity
  8
0
100
AcDbText
 10
288.1875
 20
288.0
 30
0.0
 40
3.0
  1
6
  7
ADESK1
 72
     1
 11
289.6875
 21
288.0
 31
0.0
100
AcDbText
  0
TEXT
  5
74CC
330
7493
100
AcDbEntity
  8
0
100
AcDbText
 10
240.1339285714286
 20
288.0
 30
0.0
 40
3.0
  1
5
  7
ADESK1
 72
     1
 11
241.5625
 21
288.0
 31
0.0
100
AcDbText
  0
TEXT
  5
74CD
330
7493
100
AcDbEntity
  8
0
100
AcDbText
 10
191.9375
 20
288.0
 30
0.0
 40
3.0
  1
4
  7
ADESK1
 72
     1
 11
193.4375
 21
288.0
 31
0.0
100
AcDbText
  0
TEXT
  5
74CE
330
7493
100
AcDbEntity
  8
0
100
AcDbText
 10
143.8839285714285
 20
288.0
 30
0.0
 40
3.0
  1
3
  7
ADESK1
 72
     1
 11
145.3125
 21
288.0
 31
0.0
100
AcDbText
  0
TEXT
  5
74CF
330
7493
100
AcDbEntity
  8
0
100
AcDbText
 10
95.75892857142857
 20
288.0
 30
0.0
 40
3.0
  1
2
  7
ADESK1
 72
     1
 11
97.1875
 21
288.0
 31
0.0
100
AcDbText
  0
TEXT
  5
74D0
330
7493
100
AcDbEntity
  8
0
100
AcDbText
 10
21.32144707381961
 20
263.9166666666666
 30
0.0
 40
3.0
  1
A
  7
ADESK1
 72
     1
 11
22.6071613595339
 21
263.9166666666666
 31
0.0
100
AcDbText
  0
TEXT
  5
74D1
330
7493
100
AcDbEntity
  8
0
100
AcDbText
 10
47.84821428571429
 20
288.0
 30
0.0
 40
3.0
  1
1
  7
ADESK1
 72
     1
 11
49.0625
 21
288.0
 31
0.0
100
AcDbText
  0
LINE
  5
74D2
330
7493
100
AcDbEntity
  8
0
100
AcDbLine
 10
73.125
 20
287.0
 30
0.0
 11
73.125
 21
292.0
 31
0.0
  0
LINE
  5
74D3
330
7493
100
AcDbEntity
  8
0
100
AcDbLine
 10
121.25
 20
287.0
 30
0.0
 11
121.25
 21
292.0
 31
0.0
  0
LINE
  5
74D4
330
7493
100
AcDbEntity
  8
0
100
AcDbLine
 10
169.375
 20
287.0
 30
0.0
 11
169.375
 21
292.0
 31
0.0
  0
LINE
  5
74D5
330
7493
100
AcDbEntity
  8
0
100
AcDbLine
 10
217.5
 20
287.0
 30
0.0
 11
217.5
 21
292.0
 31
0.0
  0
LINE
  5
74D6
330
7493
100
AcDbEntity
  8
0
100
AcDbLine
 10
265.625
 20
287.0
 30
0.0
 11
265.625
 21
292.0
 31
0.0
  0
LINE
  5
74D7
330
7493
100
AcDbEntity
  8
0
100
AcDbLine
 10
313.75
 20
287.0
 30
0.0
 11
313.75
 21
292.0
 31
0.0
  0
LINE
  5
74D8
330
7493
100
AcDbEntity
  8
0
100
AcDbLine
 10
361.875
 20
287.0
 30
0.0
 11
361.875
 21
292.0
 31
0.0
  0
LINE
  5
74D9
330
7493
100
AcDbEntity
  8
0
100
AcDbLine
 10
361.875
 20
10.0
 30
0.0
 11
361.875
 21
5.0
 31
0.0
  0
LINE
  5
74DA
330
7493
100
AcDbEntity
  8
0
100
AcDbLine
 10
313.75
 20
10.0
 30
0.0
 11
313.75
 21
5.0
 31
0.0
  0
LINE
  5
74DB
330
7493
100
AcDbEntity
  8
0
100
AcDbLine
 10
265.625
 20
10.0
 30
0.0
 11
265.625
 21
5.0
 31
0.0
  0
LINE
  5
74DC
330
7493
100
AcDbEntity
  8
0
100
AcDbLine
 10
217.5
 20
10.0
 30
0.0
 11
217.5
 21
5.0
 31
0.0
  0
LINE
  5
74DD
330
7493
100
AcDbEntity
  8
0
100
AcDbLine
 10
169.375
 20
10.0
 30
0.0
 11
169.375
 21
5.0
 31
0.0
  0
LINE
  5
74DE
330
7493
100
AcDbEntity
  8
0
100
AcDbLine
 10
121.25
 20
10.0
 30
0.0
 11
121.25
 21
5.0
 31
0.0
  0
LINE
  5
74DF
330
7493
100
AcDbEntity
  8
0
100
AcDbLine
 10
73.125
 20
10.0
 30
0.0
 11
73.125
 21
5.0
 31
0.0
  0
LINE
  5
74E0
330
7493
100
AcDbEntity
  8
0
100
AcDbLine
 10
410.0
 20
240.8333333333334
 30
0.0
 11
415.0
 21
240.8333333333334
 31
0.0
  0
LINE
  5
74E1
330
7493
100
AcDbEntity
  8
0
100
AcDbLine
 10
410.0
 20
194.6666666666667
 30
0.0
 11
415.0
 21
194.6666666666667
 31
0.0
  0
LINE
  5
74E2
330
7493
100
AcDbEntity
  8
0
100
AcDbLine
 10
410.0
 20
148.5
 30
0.0
 11
415.0
 21
148.5
 31
0.0
  0
LINE
  5
74E3
330
7493
100
AcDbEntity
  8
0
100
AcDbLine
 10
410.0
 20
102.3333333333333
 30
0.0
 11
415.0
 21
102.3333333333333
 31
0.0
  0
LINE
  5
74E4
330
7493
100
AcDbEntity
  8
0
100
AcDbLine
 10
410.0
 20
56.16666666666668
 30
0.0
 11
415.0
 21
56.16666666666668
 31
0.0
  0
LINE
  5
74E5
330
7493
100
AcDbEntity
  8
0
100
AcDbLine
 10
25.0
 20
56.16666666666667
 30
0.0
 11
20.0
 21
56.16666666666667
 31
0.0
  0
LINE
  5
74E6
330
7493
100
AcDbEntity
  8
0
100
AcDbLine
 10
25.0
 20
102.3333333333333
 30
0.0
 11
20.0
 21
102.3333333333333
 31
0.0
  0
LINE
  5
74E7
330
7493
100
AcDbEntity
  8
0
100
AcDbLine
 10
25.0
 20
148.5
 30
0.0
 11
20.0
 21
148.5
 31
0.0
  0
LINE
  5
74E8
330
7493
100
AcDbEntity
  8
0
100
AcDbLine
 10
25.0
 20
194.6666666666666
 30
0.0
 11
20.0
 21
194.6666666666666
 31
0.0
  0
LINE
  5
74E9
330
7493
100
AcDbEntity
  8
0
100
AcDbLine
 10
25.0
 20
240.8333333333333
 30
0.0
 11
20.0
 21
240.8333333333333
 31
0.0
  0
TEXT
  5
74EA
330
7493
100
AcDbEntity
  8
0
100
AcDbText
 10
1.0
 20
1.0
 30
0.0
 40
3.0
  1
この図枠はサンプルです。社内の規格やプロッタの出力範囲に合わせて適当に変更してご利用ください。
  7
ADESK1
100
AcDbText
  0
LINE
  5
74EB
330
7493
100
AcDbEntity
  8
0
100
AcDbLine
 10
25.0
 20
148.5
 30
0.0
 11
0.0
 21
148.5
 31
0.0
  0
LINE
  5
74EC
330
7493
100
AcDbEntity
  8
0
100
AcDbLine
 10
410.0
 20
148.5
 30
0.0
 11
420.0
 21
148.5
 31
0.0
  0
LINE
  5
74ED
330
7493
100
AcDbEntity
  8
0
100
AcDbLine
 10
217.5
 20
287.0
 30
0.0
 11
217.5
 21
297.0
 31
0.0
  0
LINE
  5
74EE
330
7493
100
AcDbEntity
  8
0
100
AcDbLine
 10
217.5
 20
10.0
 30
0.0
 11
217.5
 21
0.0
 31
0.0
  0
LINE
  5
74EF
330
7493
100
AcDbEntity
  8
OBJECT
100
AcDbLine
 10
130.0
 20
40.0
 30
0.0
 11
130.0
 21
10.0
 31
0.0
  0
LINE
  5
74F0
330
7493
100
AcDbEntity
  8
OBJECT
100
AcDbLine
 10
120.0
 20
10.0
 30
0.0
 11
120.0
 21
40.0
 31
0.0
  0
LINE
  5
74F1
330
7493
100
AcDbEntity
  8
OBJECT
100
AcDbLine
 10
44.5
 20
37.0
 30
0.0
 11
45.49999999999999
 21
37.0
 31
0.0
  0
LINE
  5
74F2
330
7493
100
AcDbEntity
  8
OBJECT
100
AcDbLine
 10
44.5
 20
31.0
 30
0.0
 11
45.49999999999999
 21
31.0
 31
0.0
  0
LINE
  5
74F3
330
7493
100
AcDbEntity
  8
OBJECT
100
AcDbLine
 10
39.5
 20
37.0
 30
0.0
 11
40.49999999999999
 21
37.0
 31
0.0
  0
LINE
  5
74F4
330
7493
100
AcDbEntity
  8
OBJECT
100
AcDbLine
 10
39.5
 20
31.0
 30
0.0
 11
40.49999999999999
 21
31.0
 31
0.0
  0
LINE
  5
74F5
330
7493
100
AcDbEntity
  8
OBJECT
100
AcDbLine
 10
44.5
 20
25.0
 30
0.0
 11
45.49999999999999
 21
25.0
 31
0.0
  0
LINE
  5
74F6
330
7493
100
AcDbEntity
  8
OBJECT
100
AcDbLine
 10
39.5
 20
25.0
 30
0.0
 11
40.49999999999999
 21
25.0
 31
0.0
  0
LINE
  5
74F7
330
7493
100
AcDbEntity
  8
OBJECT
100
AcDbLine
 10
44.5
 20
19.0
 30
0.0
 11
45.49999999999999
 21
19.0
 31
0.0
  0
LINE
  5
74F8
330
7493
100
AcDbEntity
  8
OBJECT
100
AcDbLine
 10
39.5
 20
19.0
 30
0.0
 11
40.49999999999999
 21
19.0
 31
0.0
  0
LINE
  5
74F9
330
7493
100
AcDbEntity
  8
OBJECT
100
AcDbLine
 10
28.0
 20
29.53589800000001
 30
0.0
 11
30.0
 21
33.0
 31
0.0
  0
LINE
  5
74FA
330
7493
100
AcDbEntity
  8
OBJECT
100
AcDbLine
 10
28.0
 20
29.53589800000001
 30
0.0
 11
32.0
 21
29.53589800000001
 31
0.0
  0
LINE
  5
74FB
330
7493
100
AcDbEntity
  8
OBJECT
100
AcDbLine
 10
32.0
 20
29.53589800000001
 30
0.0
 11
30.0
 21
33.0
 31
0.0
  0
LINE
  5
74FC
330
7493
100
AcDbEntity
  8
OBJECT
100
AcDbLine
 10
28.0
 20
35.535898
 30
0.0
 11
32.0
 21
35.535898
 31
0.0
  0
LINE
  5
74FD
330
7493
100
AcDbEntity
  8
OBJECT
100
AcDbLine
 10
32.0
 20
35.535898
 30
0.0
 11
30.0
 21
39.0
 31
0.0
  0
LINE
  5
74FE
330
7493
100
AcDbEntity
  8
OBJECT
100
AcDbLine
 10
28.0
 20
35.535898
 30
0.0
 11
30.0
 21
39.0
 31
0.0
  0
LINE
  5
74FF
330
7493
100
AcDbEntity
  8
OBJECT
100
AcDbLine
 10
28.0
 20
23.535898
 30
0.0
 11
30.0
 21
27.0
 31
0.0
  0
LINE
  5
7500
330
7493
100
AcDbEntity
  8
OBJECT
100
AcDbLine
 10
28.0
 20
23.535898
 30
0.0
 11
32.0
 21
23.535898
 31
0.0
  0
LINE
  5
7501
330
7493
100
AcDbEntity
  8
OBJECT
100
AcDbLine
 10
32.0
 20
23.535898
 30
0.0
 11
30.0
 21
27.0
 31
0.0
  0
LINE
  5
7502
330
7493
100
AcDbEntity
  8
OBJECT
100
AcDbLine
 10
28.0
 20
17.535898
 30
0.0
 11
30.0
 21
21.0
 31
0.0
  0
LINE
  5
7503
330
7493
100
AcDbEntity
  8
OBJECT
100
AcDbLine
 10
28.0
 20
17.535898
 30
0.0
 11
32.0
 21
17.535898
 31
0.0
  0
LINE
  5
7504
330
7493
100
AcDbEntity
  8
OBJECT
100
AcDbLine
 10
32.0
 20
17.535898
 30
0.0
 11
30.0
 21
21.0
 31
0.0
  0
LINE
  5
7505
330
7493
100
AcDbEntity
  8
OBJECT
100
AcDbLine
 10
44.5
 20
13.0
 30
0.0
 11
45.49999999999999
 21
13.0
 31
0.0
  0
LINE
  5
7506
330
7493
100
AcDbEntity
  8
OBJECT
100
AcDbLine
 10
39.5
 20
13.0
 30
0.0
 11
40.49999999999999
 21
13.0
 31
0.0
  0
LINE
  5
7507
330
7493
100
AcDbEntity
  8
OBJECT
100
AcDbLine
 10
28.0
 20
11.535898
 30
0.0
 11
32.0
 21
11.535898
 31
0.0
  0
LINE
  5
7508
330
7493
100
AcDbEntity
  8
OBJECT
100
AcDbLine
 10
80.0
 20
10.0
 30
0.0
 11
80.0
 21
40.0
 31
0.0
  0
LINE
  5
7509
330
7493
100
AcDbEntity
  8
OBJECT
100
AcDbLine
 10
50.0
 20
10.0
 30
0.0
 11
50.0
 21
40.0
 31
0.0
  0
LINE
  5
750A
330
7493
100
AcDbEntity
  8
OBJECT
100
AcDbLine
 10
35.0
 20
10.0
 30
0.0
 11
35.0
 21
40.0
 31
0.0
  0
LINE
  5
750B
330
7493
100
AcDbEntity
  8
OBJECT
100
AcDbLine
 10
32.0
 20
11.535898
 30
0.0
 11
30.0
 21
15.0
 31
0.0
  0
LINE
  5
750C
330
7493
100
AcDbEntity
  8
OBJECT
100
AcDbLine
 10
28.0
 20
11.535898
 30
0.0
 11
30.0
 21
15.0
 31
0.0
  0
LINE
  5
750D
330
7493
100
AcDbEntity
  8
OBJECT
100
AcDbLine
 10
130.0
 20
40.0
 30
0.0
 11
25.0
 21
40.0
 31
0.0
  0
LINE
  5
750E
330
7493
100
AcDbEntity
  8
OBJECT
100
AcDbLine
 10
130.0
 20
34.0
 30
0.0
 11
25.0
 21
34.0
 31
0.0
  0
LINE
  5
750F
330
7493
100
AcDbEntity
  8
OBJECT
100
AcDbLine
 10
130.0
 20
28.0
 30
0.0
 11
25.0
 21
28.0
 31
0.0
  0
LINE
  5
7510
330
7493
100
AcDbEntity
  8
OBJECT
100
AcDbLine
 10
130.0
 20
22.0
 30
0.0
 11
25.0
 21
22.0
 31
0.0
  0
LINE
  5
7511
330
7493
100
AcDbEntity
  8
OBJECT
100
AcDbLine
 10
130.0
 20
16.0
 30
0.0
 11
25.0
 21
16.0
 31
0.0
  0
ATTDEF
  5
7512
330
7493
100
AcDbEntity
  8
0
 62
     0
100
AcDbText
 10
19.0
 20
118.0
 30
0.0
 40
3.0
  1

 50
90.0
  7
ADESK1
100
AcDbAttributeDefinition
  3

  2
FNAME
 70
     8
  0
ATTDEF
  5
7513
330
7493
100
AcDbEntity
  8
0
 62
     0
100
AcDbText
 10
19.0
 20
70.0
 30
0.0
 40
3.0
  1

 50
90.0
  7
ADESK1
100
AcDbAttributeDefinition
  3

  2
REVDATE
 70
     8
  0
ATTDEF
  5
7514
330
7493
100
AcDbEntity
  8
0
 62
     0
100
AcDbText
 10
19.0
 20
10.0
 30
0.0
 40
3.0
  1

 50
90.0
  7
ADESK1
100
AcDbAttributeDefinition
  3

  2
USER
 70
     8
  0
LINE
  5
7515
330
7493
100
AcDbEntity
  8
0
100
AcDbLine
 10
410.0
 20
297.0
 30
0.0
 11
420.0
 21
297.0
 31
0.0
  0
LINE
  5
7516
330
7493
100
AcDbEntity
  8
0
100
AcDbLine
 10
420.0
 20
10.0
 30
0.0
 11
420.0
 21
0.0
 31
0.0
  0
LINE
  5
7517
330
7493
100
AcDbEntity
  8
0
100
AcDbLine
 10
25.0
 20
0.0
 30
0.0
 11
0.0
 21
0.0
 31
0.0
  0
LINE
  5
7518
330
7493
100
AcDbEntity
  8
0
100
AcDbLine
 10
0.0
 20
287.0
 30
0.0
 11
0.0
 21
297.0
 31
0.0
  0
LINE
  5
7519
330
7493
100
AcDbEntity
  8
0
100
AcDbLine
 10
25.0
 20
287.0
 30
0.0
 11
410.0
 21
287.0
 31
0.0
  0
LINE
  5
751A
330
7493
100
AcDbEntity
  8
0
100
AcDbLine
 10
410.0
 20
287.0
 30
0.0
 11
410.0
 21
10.0
 31
0.0
  0
LINE
  5
751B
330
7493
100
AcDbEntity
  8
0
100
AcDbLine
 10
410.0
 20
10.0
 30
0.0
 11
25.0
 21
10.0
 31
0.0
  0
LINE
  5
751C
330
7493
100
AcDbEntity
  8
0
100
AcDbLine
 10
25.0
 20
10.0
 30
0.0
 11
25.0
 21
287.0
 31
0.0
  0
LINE
  5
751D
330
7493
100
AcDbEntity
  8
0
100
AcDbLine
 10
420.0
 20
0.0
 30
0.0
 11
410.0
 21
0.0
 31
0.0
  0
LINE
  5
751E
330
7493
100
AcDbEntity
  8
0
100
AcDbLine
 10
420.0
 20
297.0
 30
0.0
 11
420.0
 21
287.0
 31
0.0
  0
LINE
  5
751F
330
7493
100
AcDbEntity
  8
0
100
AcDbLine
 10
0.0
 20
297.0
 30
0.0
 11
25.0
 21
297.0
 31
0.0
  0
LINE
  5
7520
330
7493
100
AcDbEntity
  8
0
100
AcDbLine
 10
0.0
 20
0.0
 30
0.0
 11
0.0
 21
10.0
 31
0.0
  0
ENDBLK
  5
7521
330
7493
100
AcDbEntity
  8
0
100
AcDbBlockEnd
  0
BLOCK
  5
8CC1
330
8CB5
100
AcDbEntity
  8
0
 48
20.0
100
AcDbBlockBegin
  2
*D1
 70
     1
 10
0.0
 20
0.0
 30
0.0
  3
*D1
  1

  0
LINE
  5
B44D
330
8CB5
100
AcDbEntity
  8
寸法引出
 48
20.0
370
    -2
100
AcDbLine
 10
2964.211387591884
 20
1807.286261462754
 30
0.0
 11
2964.211387591884
 21
1864.734328850125
 31
0.0
  0
LINE
  5
B44E
330
8CB5
100
AcDbEntity
  8
寸法引出
 48
20.0
370
    -2
100
AcDbLine
 10
2974.211387591882
 20
1797.286261462754
 30
0.0
 11
2974.211387591882
 21
1864.734328850125
 31
0.0
  0
LINE
  5
B44F
330
8CB5
100
AcDbEntity
  8
寸法引出
 48
20.0
370
    -2
100
AcDbLine
 10
2941.711387591884
 20
1857.234328850125
 30
0.0
 11
2919.211387591884
 21
1857.234328850125
 31
0.0
  0
LINE
  5
B450
330
8CB5
100
AcDbEntity
  8
寸法引出
 48
20.0
370
    -2
100
AcDbLine
 10
2996.711387591883
 20
1857.234328850125
 30
0.0
 11
3019.211387591882
 21
1857.234328850125
 31
0.0
  0
MTEXT
  5
B451
330
8CB5
100
AcDbEntity
  8
寸法引出
 48
20.0
100
AcDbMText
 10
2942.621270287066
 20
1887.463010784373
 30
0.0
 40
30.0
 41
0.0
 71
     5
 72
     1
  1
\A1;10
  7
SANWA
 73
     1
 44
1.0
1001
ACAD
1000
MTEXTBEGIN
1070
    73
1070
     1
1070
    44
1040
1.0
1070
    74
1070
     0
1000
MTEXTEND
  0
LINE
  5
B452
330
8CB5
100
AcDbEntity
  8
寸法引出
 48
20.0
370
    -2
100
AcDbLine
 10
2964.211387591884
 20
1857.234328850125
 30
0.0
 11
2974.211387591882
 21
1857.234328850125
 31
0.0
  0
SOLID
  5
B453
330
8CB5
100
AcDbEntity
  8
寸法引出
 48
20.0
100
AcDbTrace
 10
2941.711387591884
 20
1860.984328850125
 30
0.0
 11
2941.711387591884
 21
1853.484328850125
 31
0.0
 12
2964.211387591884
 22
1857.234328850125
 32
0.0
 13
2964.211387591884
 23
1857.234328850125
 33
0.0
  0
SOLID
  5
B454
330
8CB5
100
AcDbEntity
  8
寸法引出
 48
20.0
100
AcDbTrace
 10
2996.711387591883
 20
1860.984328850125
 30
0.0
 11
2996.711387591883
 21
1853.484328850125
 31
0.0
 12
2974.211387591882
 22
1857.234328850125
 32
0.0
 13
2974.211387591882
 23
1857.234328850125
 33
0.0
  0
POINT
  5
B455
330
8CB5
100
AcDbEntity
  8
DEFPOINTS
 62
     0
 48
20.0
100
AcDbPoint
 10
2964.211387591884
 20
1792.286261462754
 30
0.0
  0
POINT
  5
B456
330
8CB5
100
AcDbEntity
  8
DEFPOINTS
 62
     0
 48
20.0
100
AcDbPoint
 10
2974.211387591882
 20
1782.286261462754
 30
0.0
  0
POINT
  5
B457
330
8CB5
100
AcDbEntity
  8
DEFPOINTS
 62
     0
 48
20.0
100
AcDbPoint
 10
2974.211387591882
 20
1857.234328850125
 30
0.0
  0
ENDBLK
  5
8CC2
330
8CB5
100
AcDbEntity
  8
0
 48
20.0
100
AcDbBlockEnd
  0
BLOCK
  5
8CCE
330
8CC4
100
AcDbEntity
  8
0
 48
20.0
100
AcDbBlockBegin
  2
*D2
 70
     1
 10
0.0
 20
0.0
 30
0.0
  3
*D2
  1

  0
LINE
  5
B458
330
8CC4
100
AcDbEntity
  8
寸法引出
 48
20.0
370
    -2
100
AcDbLine
 10
2974.211387591882
 20
1797.286261462754
 30
0.0
 11
2974.211387591882
 21
1864.734328850125
 31
0.0
  0
LINE
  5
B459
330
8CC4
100
AcDbEntity
  8
寸法引出
 48
20.0
370
    -2
100
AcDbLine
 10
3054.211387591881
 20
1797.286261462754
 30
0.0
 11
3054.211387591881
 21
1864.734328850125
 31
0.0
  0
LINE
  5
B45A
330
8CC4
100
AcDbEntity
  8
寸法引出
 48
20.0
370
    -2
100
AcDbLine
 10
2996.711387591883
 20
1857.234328850125
 30
0.0
 11
3031.711387591882
 21
1857.234328850125
 31
0.0
  0
SOLID
  5
B45B
330
8CC4
100
AcDbEntity
  8
寸法引出
 48
20.0
100
AcDbTrace
 10
2996.711387591883
 20
1860.984328850125
 30
0.0
 11
2996.711387591883
 21
1853.484328850125
 31
0.0
 12
2974.211387591882
 22
1857.234328850125
 32
0.0
 13
2974.211387591882
 23
1857.234328850125
 33
0.0
  0
SOLID
  5
B45C
330
8CC4
100
AcDbEntity
  8
寸法引出
 48
20.0
100
AcDbTrace
 10
3031.711387591882
 20
1860.984328850125
 30
0.0
 11
3031.711387591882
 21
1853.484328850125
 31
0.0
 12
3054.211387591881
 22
1857.234328850125
 32
0.0
 13
3054.211387591881
 23
1857.234328850125
 33
0.0
  0
MTEXT
  5
B45D
330
8CC4
100
AcDbEntity
  8
寸法引出
 48
20.0
100
AcDbMText
 10
3014.211387591882
 20
1887.234328850125
 30
0.0
 40
30.0
 41
0.0
 71
     5
 72
     1
  1
\A1;80
  7
SANWA
 73
     1
 44
1.0
1001
ACAD
1000
MTEXTBEGIN
1070
    73
1070
     1
1070
    44
1040
1.0
1070
    74
1070
     0
1000
MTEXTEND
  0
POINT
  5
B45E
330
8CC4
100
AcDbEntity
  8
DEFPOINTS
 62
     0
 48
20.0
100
AcDbPoint
 10
2974.211387591882
 20
1782.286261462754
 30
0.0
  0
POINT
  5
B45F
330
8CC4
100
AcDbEntity
  8
DEFPOINTS
 62
     0
 48
20.0
100
AcDbPoint
 10
3054.211387591881
 20
1782.286261462754
 30
0.0
  0
POINT
  5
B460
330
8CC4
100
AcDbEntity
  8
DEFPOINTS
 62
     0
 48
20.0
100
AcDbPoint
 10
3054.211387591881
 20
1857.234328850125
 30
0.0
  0
ENDBLK
  5
8CCF
330
8CC4
100
AcDbEntity
  8
0
 48
20.0
100
AcDbBlockEnd
  0
BLOCK
  5
8CDD
330
8CD1
100
AcDbEntity
  8
0
 48
20.0
100
AcDbBlockBegin
  2
*D3
 70
     1
 10
0.0
 20
0.0
 30
0.0
  3
*D3
  1

  0
LINE
  5
B461
330
8CD1
100
AcDbEntity
  8
寸法引出
 48
20.0
370
    -2
100
AcDbLine
 10
3054.211387591881
 20
1797.286261462754
 30
0.0
 11
3054.211387591881
 21
1864.734328850125
 31
0.0
  0
LINE
  5
B462
330
8CD1
100
AcDbEntity
  8
寸法引出
 48
20.0
370
    -2
100
AcDbLine
 10
3064.211387591883
 20
1807.286261462754
 30
0.0
 11
3064.211387591883
 21
1864.734328850125
 31
0.0
  0
LINE
  5
B463
330
8CD1
100
AcDbEntity
  8
寸法引出
 48
20.0
370
    -2
100
AcDbLine
 10
3031.711387591882
 20
1857.234328850125
 30
0.0
 11
3009.211387591881
 21
1857.234328850125
 31
0.0
  0
LINE
  5
B464
330
8CD1
100
AcDbEntity
  8
寸法引出
 48
20.0
370
    -2
100
AcDbLine
 10
3086.711387591883
 20
1857.234328850125
 30
0.0
 11
3109.211387591883
 21
1857.234328850125
 31
0.0
  0
MTEXT
  5
B465
330
8CD1
100
AcDbEntity
  8
寸法引出
 48
20.0
100
AcDbMText
 10
3082.993794619997
 20
1887.861577780888
 30
0.0
 40
30.0
 41
0.0
 71
     5
 72
     1
  1
\A1;10
  7
SANWA
 73
     1
 44
1.0
1001
ACAD
1000
MTEXTBEGIN
1070
    73
1070
     1
1070
    44
1040
1.0
1070
    74
1070
     0
1000
MTEXTEND
  0
LINE
  5
B466
330
8CD1
100
AcDbEntity
  8
寸法引出
 48
20.0
370
    -2
100
AcDbLine
 10
3054.211387591881
 20
1857.234328850125
 30
0.0
 11
3064.211387591883
 21
1857.234328850125
 31
0.0
  0
SOLID
  5
B467
330
8CD1
100
AcDbEntity
  8
寸法引出
 48
20.0
100
AcDbTrace
 10
3031.711387591882
 20
1860.984328850125
 30
0.0
 11
3031.711387591882
 21
1853.484328850125
 31
0.0
 12
3054.211387591881
 22
1857.234328850125
 32
0.0
 13
3054.211387591881
 23
1857.234328850125
 33
0.0
  0
SOLID
  5
B468
330
8CD1
100
AcDbEntity
  8
寸法引出
 48
20.0
100
AcDbTrace
 10
3086.711387591883
 20
1860.984328850125
 30
0.0
 11
3086.711387591883
 21
1853.484328850125
 31
0.0
 12
3064.211387591883
 22
1857.234328850125
 32
0.0
 13
3064.211387591883
 23
1857.234328850125
 33
0.0
  0
POINT
  5
B469
330
8CD1
100
AcDbEntity
  8
DEFPOINTS
 62
     0
 48
20.0
100
AcDbPoint
 10
3054.211387591881
 20
1782.286261462754
 30
0.0
  0
POINT
  5
B46A
330
8CD1
100
AcDbEntity
  8
DEFPOINTS
 62
     0
 48
20.0
100
AcDbPoint
 10
3064.211387591883
 20
1792.286261462754
 30
0.0
  0
POINT
  5
B46B
330
8CD1
100
AcDbEntity
  8
DEFPOINTS
 62
     0
 48
20.0
100
AcDbPoint
 10
3064.211387591883
 20
1857.234328850125
 30
0.0
  0
ENDBLK
  5
8CDE
330
8CD1
100
AcDbEntity
  8
0
 48
20.0
100
AcDbBlockEnd
  0
BLOCK
  5
8DAE
330
8DA4
100
AcDbEntity
  8
0
 48
20.0
100
AcDbBlockBegin
  2
*D4
 70
     1
 10
0.0
 20
0.0
 30
0.0
  3
*D4
  1

  0
LINE
  5
B46C
330
8DA4
100
AcDbEntity
  8
寸法引出
 48
20.0
370
    -2
100
AcDbLine
 10
2015.211387591882
 20
2207.286261462754
 30
0.0
 11
2015.211387591882
 21
2310.852249464151
 31
0.0
  0
LINE
  5
B46D
330
8DA4
100
AcDbEntity
  8
寸法引出
 48
20.0
370
    -2
100
AcDbLine
 10
4013.211387591883
 20
2207.286261462754
 30
0.0
 11
4013.211387591883
 21
2310.852249464151
 31
0.0
  0
LINE
  5
B46E
330
8DA4
100
AcDbEntity
  8
寸法引出
 48
20.0
370
    -2
100
AcDbLine
 10
2037.711387591882
 20
2303.352249464151
 30
0.0
 11
3990.711387591883
 21
2303.352249464151
 31
0.0
  0
SOLID
  5
B46F
330
8DA4
100
AcDbEntity
  8
寸法引出
 48
20.0
100
AcDbTrace
 10
2037.711387591882
 20
2307.102249464151
 30
0.0
 11
2037.711387591882
 21
2299.602249464151
 31
0.0
 12
2015.211387591882
 22
2303.352249464151
 32
0.0
 13
2015.211387591882
 23
2303.352249464151
 33
0.0
  0
SOLID
  5
B470
330
8DA4
100
AcDbEntity
  8
寸法引出
 48
20.0
100
AcDbTrace
 10
3990.711387591883
 20
2307.102249464151
 30
0.0
 11
3990.711387591883
 21
2299.602249464151
 31
0.0
 12
4013.211387591883
 22
2303.352249464151
 32
0.0
 13
4013.211387591883
 23
2303.352249464151
 33
0.0
  0
MTEXT
  5
B471
330
8DA4
100
AcDbEntity
  8
寸法引出
 48
20.0
100
AcDbMText
 10
3014.211387591883
 20
2333.352249464151
 30
0.0
 40
30.0
 41
0.0
 71
     5
 72
     1
  1
\A1;1998
  7
SANWA
 73
     1
 44
1.0
1001
ACAD
1000
MTEXTBEGIN
1070
    73
1070
     1
1070
    44
1040
1.0
1070
    74
1070
     0
1000
MTEXTEND
  0
POINT
  5
B472
330
8DA4
100
AcDbEntity
  8
DEFPOINTS
 62
     0
 48
20.0
100
AcDbPoint
 10
2015.211387591882
 20
2192.286261462754
 30
0.0
  0
POINT
  5
B473
330
8DA4
100
AcDbEntity
  8
DEFPOINTS
 62
     0
 48
20.0
100
AcDbPoint
 10
4013.211387591883
 20
2192.286261462754
 30
0.0
  0
POINT
  5
B474
330
8DA4
100
AcDbEntity
  8
DEFPOINTS
 62
     0
 48
20.0
100
AcDbPoint
 10
4013.211387591883
 20
2303.352249464151
 30
0.0
  0
ENDBLK
  5
8DAF
330
8DA4
100
AcDbEntity
  8
0
 48
20.0
100
AcDbBlockEnd
  0
BLOCK
  5
908E
330
9084
100
AcDbEntity
  8
0
 48
20.0
100
AcDbBlockBegin
  2
*D5
 70
     1
 10
0.0
 20
0.0
 30
0.0
  3
*D5
  1

  0
LINE
  5
B475
330
9084
100
AcDbEntity
  8
寸法引出
 48
20.0
370
    -2
100
AcDbLine
 10
2000.211387591882
 20
2192.286261462754
 30
0.0
 11
1884.732731783028
 21
2192.286261462754
 31
0.0
  0
LINE
  5
B476
330
9084
100
AcDbEntity
  8
寸法引出
 48
20.0
370
    -2
100
AcDbLine
 10
2000.211387591882
 20
1442.286261462754
 30
0.0
 11
1884.732731783028
 21
1442.286261462754
 31
0.0
  0
LINE
  5
B477
330
9084
100
AcDbEntity
  8
寸法引出
 48
20.0
370
    -2
100
AcDbLine
 10
1892.232731783028
 20
2169.786261462754
 30
0.0
 11
1892.232731783028
 21
1464.786261462753
 31
0.0
  0
SOLID
  5
B478
330
9084
100
AcDbEntity
  8
寸法引出
 48
20.0
100
AcDbTrace
 10
1888.482731783028
 20
2169.786261462754
 30
0.0
 11
1895.982731783028
 21
2169.786261462754
 31
0.0
 12
1892.232731783028
 22
2192.286261462754
 32
0.0
 13
1892.232731783028
 23
2192.286261462754
 33
0.0
  0
SOLID
  5
B479
330
9084
100
AcDbEntity
  8
寸法引出
 48
20.0
100
AcDbTrace
 10
1888.482731783028
 20
1464.786261462753
 30
0.0
 11
1895.982731783028
 21
1464.786261462753
 31
0.0
 12
1892.232731783028
 22
1442.286261462754
 32
0.0
 13
1892.232731783028
 23
1442.286261462754
 33
0.0
  0
MTEXT
  5
B47A
330
9084
100
AcDbEntity
  8
寸法引出
 48
20.0
100
AcDbMText
 10
1862.232731783027
 20
1817.286261462754
 30
0.0
 40
30.0
 41
0.0
 71
     5
 72
     1
  1
\A1;750
  7
SANWA
 11
0.0000000000000001
 21
1.0
 31
0.0
 73
     1
 44
1.0
1001
ACAD
1000
MTEXTBEGIN
1070
    73
1070
     1
1070
    44
1040
1.0
1070
    74
1070
     0
1000
MTEXTEND
  0
POINT
  5
B47B
330
9084
100
AcDbEntity
  8
DEFPOINTS
 62
     0
 48
20.0
100
AcDbPoint
 10
2015.211387591882
 20
2192.286261462754
 30
0.0
  0
POINT
  5
B47C
330
9084
100
AcDbEntity
  8
DEFPOINTS
 62
     0
 48
20.0
100
AcDbPoint
 10
2015.211387591882
 20
1442.286261462754
 30
0.0
  0
POINT
  5
B47D
330
9084
100
AcDbEntity
  8
DEFPOINTS
 62
     0
 48
20.0
100
AcDbPoint
 10
1892.232731783028
 20
1442.286261462754
 30
0.0
  0
ENDBLK
  5
908F
330
9084
100
AcDbEntity
  8
0
 48
20.0
100
AcDbBlockEnd
  0
BLOCK
  5
920F
330
9203
100
AcDbEntity
  8
0
 48
20.0
100
AcDbBlockBegin
  2
*D6
 70
     1
 10
0.0
 20
0.0
 30
0.0
  3
*D6
  1

  0
LINE
  5
B47E
330
9203
100
AcDbEntity
  8
寸法引出
 48
20.0
370
    -2
100
AcDbLine
 10
2233.486632061835
 20
444.995793361426
 30
0.0
 11
2233.486632061835
 21
626.9518280663687
 31
0.0
  0
LINE
  5
B47F
330
9203
100
AcDbEntity
  8
寸法引出
 48
20.0
370
    -2
100
AcDbLine
 10
2208.486632061835
 20
569.995793361426
 30
0.0
 11
2208.486632061835
 21
626.9518280663687
 31
0.0
  0
LINE
  5
B480
330
9203
100
AcDbEntity
  8
寸法引出
 48
20.0
370
    -2
100
AcDbLine
 10
2255.986632061835
 20
619.4518280663687
 30
0.0
 11
2278.486632061835
 21
619.4518280663687
 31
0.0
  0
LINE
  5
B481
330
9203
100
AcDbEntity
  8
寸法引出
 48
20.0
370
    -2
100
AcDbLine
 10
2185.986632061835
 20
619.4518280663687
 30
0.0
 11
2163.486632061835
 21
619.4518280663687
 31
0.0
  0
LINE
  5
B482
330
9203
100
AcDbEntity
  8
寸法引出
 48
20.0
370
    -2
100
AcDbLine
 10
2233.486632061835
 20
619.4518280663687
 30
0.0
 11
2208.486632061835
 21
619.4518280663687
 31
0.0
  0
SOLID
  5
B483
330
9203
100
AcDbEntity
  8
寸法引出
 48
20.0
100
AcDbTrace
 10
2255.986632061835
 20
623.2018280663687
 30
0.0
 11
2255.986632061835
 21
615.7018280663687
 31
0.0
 12
2233.486632061835
 22
619.4518280663687
 32
0.0
 13
2233.486632061835
 23
619.4518280663687
 33
0.0
  0
SOLID
  5
B484
330
9203
100
AcDbEntity
  8
寸法引出
 48
20.0
100
AcDbTrace
 10
2185.986632061835
 20
623.2018280663687
 30
0.0
 11
2185.986632061835
 21
615.7018280663687
 31
0.0
 12
2208.486632061835
 22
619.4518280663687
 32
0.0
 13
2208.486632061835
 23
619.4518280663687
 33
0.0
  0
MTEXT
  5
B485
330
9203
100
AcDbEntity
  8
寸法引出
 48
20.0
100
AcDbMText
 10
2220.986632061835
 20
649.4518280663688
 30
0.0
 40
30.0
 41
0.0
 71
     5
 72
     1
  1
\A1;5
  7
SANWA
 73
     1
 44
1.0
1001
ACAD
1000
MTEXTBEGIN
1070
    73
1070
     1
1070
    44
1040
1.0
1070
    74
1070
     0
1000
MTEXTEND
  0
POINT
  5
B486
330
9203
100
AcDbEntity
  8
DEFPOINTS
 62
     0
 48
20.0
100
AcDbPoint
 10
2233.486632061835
 20
429.9957933614259
 30
0.0
  0
POINT
  5
B487
330
9203
100
AcDbEntity
  8
DEFPOINTS
 62
     0
 48
20.0
100
AcDbPoint
 10
2208.486632061835
 20
554.9957933614259
 30
0.0
  0
POINT
  5
B488
330
9203
100
AcDbEntity
  8
DEFPOINTS
 62
     0
 48
20.0
100
AcDbPoint
 10
2208.486632061835
 20
619.4518280663687
 30
0.0
  0
ENDBLK
  5
9210
330
9203
100
AcDbEntity
  8
0
 48
20.0
100
AcDbBlockEnd
  0
BLOCK
  5
924E
330
9242
100
AcDbEntity
  8
0
 48
20.0
100
AcDbBlockBegin
  2
*D7
 70
     1
 10
0.0
 20
0.0
 30
0.0
  3
*D7
  1

  0
LINE
  5
B489
330
9242
100
AcDbEntity
  8
寸法引出
 48
20.0
370
    -2
100
AcDbLine
 10
2093.486632061835
 20
554.9957933614259
 30
0.0
 11
2060.498898564289
 21
554.9957933614259
 31
0.0
  0
LINE
  5
B48A
330
9242
100
AcDbEntity
  8
寸法引出
 48
20.0
370
    -2
100
AcDbLine
 10
2193.486632061835
 20
524.9957933614259
 30
0.0
 11
2060.498898564289
 21
524.9957933614259
 31
0.0
  0
LINE
  5
B48B
330
9242
100
AcDbEntity
  8
寸法引出
 48
20.0
370
    -2
100
AcDbLine
 10
2067.998898564288
 20
577.4957933614259
 30
0.0
 11
2067.998898564288
 21
599.9957933614259
 31
0.0
  0
LINE
  5
B48C
330
9242
100
AcDbEntity
  8
寸法引出
 48
20.0
370
    -2
100
AcDbLine
 10
2067.998898564288
 20
502.4957933614259
 30
0.0
 11
2067.998898564288
 21
479.9957933614259
 31
0.0
  0
MTEXT
  5
B48D
330
9242
100
AcDbEntity
  8
寸法引出
 48
20.0
100
AcDbMText
 10
2034.924780979258
 20
573.7395975621748
 30
0.0
 40
30.0
 41
0.0
 71
     5
 72
     1
  1
\A1;6
  7
SANWA
 11
0.0000000000000001
 21
1.0
 31
0.0
 73
     1
 44
1.0
1001
ACAD
1000
MTEXTBEGIN
1070
    73
1070
     1
1070
    44
1040
1.0
1070
    74
1070
     0
1000
MTEXTEND
  0
LINE
  5
B48E
330
9242
100
AcDbEntity
  8
寸法引出
 48
20.0
370
    -2
100
AcDbLine
 10
2067.998898564288
 20
554.9957933614259
 30
0.0
 11
2067.998898564288
 21
524.9957933614259
 31
0.0
  0
SOLID
  5
B48F
330
9242
100
AcDbEntity
  8
寸法引出
 48
20.0
100
AcDbTrace
 10
2064.248898564288
 20
577.4957933614259
 30
0.0
 11
2071.748898564289
 21
577.4957933614259
 31
0.0
 12
2067.998898564288
 22
554.9957933614259
 32
0.0
 13
2067.998898564288
 23
554.9957933614259
 33
0.0
  0
SOLID
  5
B490
330
9242
100
AcDbEntity
  8
寸法引出
 48
20.0
100
AcDbTrace
 10
2064.248898564288
 20
502.4957933614259
 30
0.0
 11
2071.748898564289
 21
502.4957933614259
 31
0.0
 12
2067.998898564288
 22
524.9957933614259
 32
0.0
 13
2067.998898564288
 23
524.9957933614259
 33
0.0
  0
POINT
  5
B491
330
9242
100
AcDbEntity
  8
DEFPOINTS
 62
     0
 48
20.0
100
AcDbPoint
 10
2108.486632061835
 20
554.9957933614259
 30
0.0
  0
POINT
  5
B492
330
9242
100
AcDbEntity
  8
DEFPOINTS
 62
     0
 48
20.0
100
AcDbPoint
 10
2208.486632061835
 20
524.9957933614259
 30
0.0
  0
POINT
  5
B493
330
9242
100
AcDbEntity
  8
DEFPOINTS
 62
     0
 48
20.0
100
AcDbPoint
 10
2067.998898564288
 20
524.9957933614259
 30
0.0
  0
ENDBLK
  5
924F
330
9242
100
AcDbEntity
  8
0
 48
20.0
100
AcDbBlockEnd
  0
BLOCK
  5
925D
330
9251
100
AcDbEntity
  8
0
 48
20.0
100
AcDbBlockBegin
  2
*D8
 70
     1
 10
0.0
 20
0.0
 30
0.0
  3
*D8
  1

  0
LINE
  5
B494
330
9251
100
AcDbEntity
  8
寸法引出
 48
20.0
370
    -2
100
AcDbLine
 10
2193.486632061835
 20
524.9957933614259
 30
0.0
 11
2060.498898564289
 21
524.9957933614259
 31
0.0
  0
LINE
  5
B495
330
9251
100
AcDbEntity
  8
寸法引出
 48
20.0
370
    -2
100
AcDbLine
 10
2168.486632061835
 20
449.995793361426
 30
0.0
 11
2060.498898564289
 21
449.995793361426
 31
0.0
  0
LINE
  5
B496
330
9251
100
AcDbEntity
  8
寸法引出
 48
20.0
370
    -2
100
AcDbLine
 10
2067.998898564288
 20
547.4957933614259
 30
0.0
 11
2067.998898564288
 21
569.995793361426
 31
0.0
  0
LINE
  5
B497
330
9251
100
AcDbEntity
  8
寸法引出
 48
20.0
370
    -2
100
AcDbLine
 10
2067.998898564288
 20
427.495793361426
 30
0.0
 11
2067.998898564288
 21
404.995793361426
 31
0.0
  0
LINE
  5
B498
330
9251
100
AcDbEntity
  8
寸法引出
 48
20.0
370
    -2
100
AcDbLine
 10
2067.998898564288
 20
524.9957933614259
 30
0.0
 11
2067.998898564288
 21
449.995793361426
 31
0.0
  0
SOLID
  5
B499
330
9251
100
AcDbEntity
  8
寸法引出
 48
20.0
100
AcDbTrace
 10
2064.248898564288
 20
547.4957933614259
 30
0.0
 11
2071.748898564289
 21
547.4957933614259
 31
0.0
 12
2067.998898564288
 22
524.9957933614259
 32
0.0
 13
2067.998898564288
 23
524.9957933614259
 33
0.0
  0
SOLID
  5
B49A
330
9251
100
AcDbEntity
  8
寸法引出
 48
20.0
100
AcDbTrace
 10
2064.248898564288
 20
427.495793361426
 30
0.0
 11
2071.748898564289
 21
427.495793361426
 31
0.0
 12
2067.998898564288
 22
449.995793361426
 32
0.0
 13
2067.998898564288
 23
449.995793361426
 33
0.0
  0
MTEXT
  5
B49B
330
9251
100
AcDbEntity
  8
寸法引出
 48
20.0
100
AcDbMText
 10
2037.998898564289
 20
487.4957933614263
 30
0.0
 40
30.0
 41
0.0
 71
     5
 72
     1
  1
\A1;15
  7
SANWA
 11
0.0000000000000001
 21
1.0
 31
0.0
 73
     1
 44
1.0
1001
ACAD
1000
MTEXTBEGIN
1070
    73
1070
     1
1070
    44
1040
1.0
1070
    74
1070
     0
1000
MTEXTEND
  0
POINT
  5
B49C
330
9251
100
AcDbEntity
  8
DEFPOINTS
 62
     0
 48
20.0
100
AcDbPoint
 10
2208.486632061835
 20
524.9957933614259
 30
0.0
  0
POINT
  5
B49D
330
9251
100
AcDbEntity
  8
DEFPOINTS
 62
     0
 48
20.0
100
AcDbPoint
 10
2183.486632061835
 20
449.9957933614259
 30
0.0
  0
POINT
  5
B49E
330
9251
100
AcDbEntity
  8
DEFPOINTS
 62
     0
 48
20.0
100
AcDbPoint
 10
2067.998898564288
 20
449.995793361426
 30
0.0
  0
ENDBLK
  5
925E
330
9251
100
AcDbEntity
  8
0
 48
20.0
100
AcDbBlockEnd
  0
BLOCK
  5
926C
330
9260
100
AcDbEntity
  8
0
 48
20.0
100
AcDbBlockBegin
  2
*D9
 70
     1
 10
0.0
 20
0.0
 30
0.0
  3
*D9
  1

  0
LINE
  5
B49F
330
9260
100
AcDbEntity
  8
寸法引出
 48
20.0
370
    -2
100
AcDbLine
 10
2168.486632061835
 20
449.995793361426
 30
0.0
 11
2060.498898564289
 21
449.995793361426
 31
0.0
  0
LINE
  5
B4A0
330
9260
100
AcDbEntity
  8
寸法引出
 48
20.0
370
    -2
100
AcDbLine
 10
2218.486632061835
 20
429.9957933614259
 30
0.0
 11
2060.498898564289
 21
429.995793361426
 31
0.0
  0
LINE
  5
B4A1
330
9260
100
AcDbEntity
  8
寸法引出
 48
20.0
370
    -2
100
AcDbLine
 10
2067.998898564288
 20
472.495793361426
 30
0.0
 11
2067.998898564288
 21
494.995793361426
 31
0.0
  0
LINE
  5
B4A2
330
9260
100
AcDbEntity
  8
寸法引出
 48
20.0
370
    -2
100
AcDbLine
 10
2067.998898564288
 20
407.495793361426
 30
0.0
 11
2067.998898564288
 21
384.995793361426
 31
0.0
  0
MTEXT
  5
B4A3
330
9260
100
AcDbEntity
  8
寸法引出
 48
20.0
100
AcDbMText
 10
2037.526880556332
 20
413.3687507796858
 30
0.0
 40
30.0
 41
0.0
 71
     5
 72
     1
  1
\A1;4
  7
SANWA
 11
0.0000000000000001
 21
1.0
 31
0.0
 73
     1
 44
1.0
1001
ACAD
1000
MTEXTBEGIN
1070
    73
1070
     1
1070
    44
1040
1.0
1070
    74
1070
     0
1000
MTEXTEND
  0
LINE
  5
B4A4
330
9260
100
AcDbEntity
  8
寸法引出
 48
20.0
370
    -2
100
AcDbLine
 10
2067.998898564288
 20
449.995793361426
 30
0.0
 11
2067.998898564288
 21
429.995793361426
 31
0.0
  0
SOLID
  5
B4A5
330
9260
100
AcDbEntity
  8
寸法引出
 48
20.0
100
AcDbTrace
 10
2064.248898564288
 20
472.495793361426
 30
0.0
 11
2071.748898564289
 21
472.495793361426
 31
0.0
 12
2067.998898564288
 22
449.995793361426
 32
0.0
 13
2067.998898564288
 23
449.995793361426
 33
0.0
  0
SOLID
  5
B4A6
330
9260
100
AcDbEntity
  8
寸法引出
 48
20.0
100
AcDbTrace
 10
2064.248898564288
 20
407.495793361426
 30
0.0
 11
2071.748898564289
 21
407.495793361426
 31
0.0
 12
2067.998898564288
 22
429.995793361426
 32
0.0
 13
2067.998898564288
 23
429.995793361426
 33
0.0
  0
POINT
  5
B4A7
330
9260
100
AcDbEntity
  8
DEFPOINTS
 62
     0
 48
20.0
100
AcDbPoint
 10
2183.486632061835
 20
449.9957933614259
 30
0.0
  0
POINT
  5
B4A8
330
9260
100
AcDbEntity
  8
DEFPOINTS
 62
     0
 48
20.0
100
AcDbPoint
 10
2233.486632061835
 20
429.9957933614259
 30
0.0
  0
POINT
  5
B4A9
330
9260
100
AcDbEntity
  8
DEFPOINTS
 62
     0
 48
20.0
100
AcDbPoint
 10
2067.998898564288
 20
429.995793361426
 30
0.0
  0
ENDBLK
  5
926D
330
9260
100
AcDbEntity
  8
0
 48
20.0
100
AcDbBlockEnd
  0
BLOCK
  5
929C
330
9290
100
AcDbEntity
  8
0
 48
20.0
100
AcDbBlockBegin
  2
*D10
 70
     1
 10
0.0
 20
0.0
 30
0.0
  3
*D10
  1

  0
LINE
  5
B4AA
330
9290
100
AcDbEntity
  8
寸法引出
 48
20.0
370
    -2
100
AcDbLine
 10
2183.486632061835
 20
434.9957933614259
 30
0.0
 11
2183.486632061835
 21
352.8989898490363
 31
0.0
  0
LINE
  5
B4AB
330
9290
100
AcDbEntity
  8
寸法引出
 48
20.0
370
    -2
100
AcDbLine
 10
2233.486632061835
 20
414.9957933614259
 30
0.0
 11
2233.486632061835
 21
352.8989898490363
 31
0.0
  0
LINE
  5
B4AC
330
9290
100
AcDbEntity
  8
寸法引出
 48
20.0
370
    -2
100
AcDbLine
 10
2160.986632061835
 20
360.3989898490363
 30
0.0
 11
2138.486632061835
 21
360.3989898490363
 31
0.0
  0
LINE
  5
B4AD
330
9290
100
AcDbEntity
  8
寸法引出
 48
20.0
370
    -2
100
AcDbLine
 10
2255.986632061835
 20
360.3989898490363
 30
0.0
 11
2278.486632061835
 21
360.3989898490363
 31
0.0
  0
LINE
  5
B4AE
330
9290
100
AcDbEntity
  8
寸法引出
 48
20.0
370
    -2
100
AcDbLine
 10
2183.486632061835
 20
360.3989898490363
 30
0.0
 11
2233.486632061835
 21
360.3989898490363
 31
0.0
  0
SOLID
  5
B4AF
330
9290
100
AcDbEntity
  8
寸法引出
 48
20.0
100
AcDbTrace
 10
2160.986632061835
 20
364.1489898490363
 30
0.0
 11
2160.986632061835
 21
356.6489898490363
 31
0.0
 12
2183.486632061835
 22
360.3989898490363
 32
0.0
 13
2183.486632061835
 23
360.3989898490363
 33
0.0
  0
SOLID
  5
B4B0
330
9290
100
AcDbEntity
  8
寸法引出
 48
20.0
100
AcDbTrace
 10
2255.986632061835
 20
364.1489898490363
 30
0.0
 11
2255.986632061835
 21
356.6489898490363
 31
0.0
 12
2233.486632061835
 22
360.3989898490363
 32
0.0
 13
2233.486632061835
 23
360.3989898490363
 33
0.0
  0
MTEXT
  5
B4B1
330
9290
100
AcDbEntity
  8
寸法引出
 48
20.0
100
AcDbMText
 10
2208.486632061835
 20
390.3989898490363
 30
0.0
 40
30.0
 41
0.0
 71
     5
 72
     1
  1
\A1;10
  7
SANWA
 73
     1
 44
1.0
1001
ACAD
1000
MTEXTBEGIN
1070
    73
1070
     1
1070
    44
1040
1.0
1070
    74
1070
     0
1000
MTEXTEND
  0
POINT
  5
B4B2
330
9290
100
AcDbEntity
  8
DEFPOINTS
 62
     0
 48
20.0
100
AcDbPoint
 10
2183.486632061835
 20
449.9957933614259
 30
0.0
  0
POINT
  5
B4B3
330
9290
100
AcDbEntity
  8
DEFPOINTS
 62
     0
 48
20.0
100
AcDbPoint
 10
2233.486632061835
 20
429.9957933614259
 30
0.0
  0
POINT
  5
B4B4
330
9290
100
AcDbEntity
  8
DEFPOINTS
 62
     0
 48
20.0
100
AcDbPoint
 10
2233.486632061835
 20
360.3989898490363
 30
0.0
  0
ENDBLK
  5
929D
330
9290
100
AcDbEntity
  8
0
 48
20.0
100
AcDbBlockEnd
  0
BLOCK
  5
A088
330
A07C
100
AcDbEntity
  8
0
 48
20.0
100
AcDbBlockBegin
  2
*D11
 70
     1
 10
0.0
 20
0.0
 30
0.0
  3
*D11
  1

  0
LINE
  5
B4E8
330
A07C
100
AcDbEntity
  8
寸法引出
 48
20.0
370
    -2
100
AcDbLine
 10
1008.57821980076
 20
2202.786261462754
 30
0.0
 11
1008.57821980076
 21
2263.757542225998
 31
0.0
  0
LINE
  5
B4E9
330
A07C
100
AcDbEntity
  8
寸法引出
 48
20.0
370
    -2
100
AcDbLine
 10
1048.57821980076
 20
2207.286261462754
 30
0.0
 11
1048.57821980076
 21
2263.757542225998
 31
0.0
  0
LINE
  5
B4EA
330
A07C
100
AcDbEntity
  8
寸法引出
 48
20.0
370
    -2
100
AcDbLine
 10
986.07821980076
 20
2256.257542225998
 30
0.0
 11
963.57821980076
 21
2256.257542225998
 31
0.0
  0
LINE
  5
B4EB
330
A07C
100
AcDbEntity
  8
寸法引出
 48
20.0
370
    -2
100
AcDbLine
 10
1071.07821980076
 20
2256.257542225998
 30
0.0
 11
1093.57821980076
 21
2256.257542225998
 31
0.0
  0
MTEXT
  5
B4EC
330
A07C
100
AcDbEntity
  8
寸法引出
 48
20.0
100
AcDbMText
 10
981.7710332749994
 20
2286.431821784259
 30
0.0
 40
30.0
 41
0.0
 71
     5
 72
     1
  1
\A1;40
  7
SANWA
 73
     1
 44
1.0
1001
ACAD
1000
MTEXTBEGIN
1070
    73
1070
     1
1070
    44
1040
1.0
1070
    74
1070
     0
1000
MTEXTEND
  0
LINE
  5
B4ED
330
A07C
100
AcDbEntity
  8
寸法引出
 48
20.0
370
    -2
100
AcDbLine
 10
1008.57821980076
 20
2256.257542225998
 30
0.0
 11
1048.57821980076
 21
2256.257542225998
 31
0.0
  0
SOLID
  5
B4EE
330
A07C
100
AcDbEntity
  8
寸法引出
 48
20.0
100
AcDbTrace
 10
986.07821980076
 20
2260.007542225998
 30
0.0
 11
986.07821980076
 21
2252.507542225998
 31
0.0
 12
1008.57821980076
 22
2256.257542225998
 32
0.0
 13
1008.57821980076
 23
2256.257542225998
 33
0.0
  0
SOLID
  5
B4EF
330
A07C
100
AcDbEntity
  8
寸法引出
 48
20.0
100
AcDbTrace
 10
1071.07821980076
 20
2260.007542225998
 30
0.0
 11
1071.07821980076
 21
2252.507542225998
 31
0.0
 12
1048.57821980076
 22
2256.257542225998
 32
0.0
 13
1048.57821980076
 23
2256.257542225998
 33
0.0
  0
POINT
  5
B4F0
330
A07C
100
AcDbEntity
  8
DEFPOINTS
 62
     0
 48
20.0
100
AcDbPoint
 10
1008.57821980076
 20
2187.786261462754
 30
0.0
  0
POINT
  5
B4F1
330
A07C
100
AcDbEntity
  8
DEFPOINTS
 62
     0
 48
20.0
100
AcDbPoint
 10
1048.57821980076
 20
2192.286261462754
 30
0.0
  0
POINT
  5
B4F2
330
A07C
100
AcDbEntity
  8
DEFPOINTS
 62
     0
 48
20.0
100
AcDbPoint
 10
1048.57821980076
 20
2256.257542225998
 30
0.0
  0
ENDBLK
  5
A089
330
A07C
100
AcDbEntity
  8
0
 48
20.0
100
AcDbBlockEnd
  0
BLOCK
  5
A096
330
A08A
100
AcDbEntity
  8
0
 48
20.0
100
AcDbBlockBegin
  2
*D12
 70
     1
 10
0.0
 20
0.0
 30
0.0
  3
*D12
  1

  0
LINE
  5
B4DD
330
A08A
100
AcDbEntity
  8
寸法引出
 48
20.0
370
    -2
100
AcDbLine
 10
1048.57821980076
 20
2207.286261462754
 30
0.0
 11
1048.57821980076
 21
2263.757542225998
 31
0.0
  0
LINE
  5
B4DE
330
A08A
100
AcDbEntity
  8
寸法引出
 48
20.0
370
    -2
100
AcDbLine
 10
1051.07821980076
 20
2127.286261462754
 30
0.0
 11
1051.07821980076
 21
2263.757542225998
 31
0.0
  0
LINE
  5
B4DF
330
A08A
100
AcDbEntity
  8
寸法引出
 48
20.0
370
    -2
100
AcDbLine
 10
1026.07821980076
 20
2256.257542225998
 30
0.0
 11
1003.57821980076
 21
2256.257542225998
 31
0.0
  0
LINE
  5
B4E0
330
A08A
100
AcDbEntity
  8
寸法引出
 48
20.0
370
    -2
100
AcDbLine
 10
1073.57821980076
 20
2256.257542225998
 30
0.0
 11
1096.07821980076
 21
2256.257542225998
 31
0.0
  0
MTEXT
  5
B4E1
330
A08A
100
AcDbEntity
  8
寸法引出
 48
20.0
100
AcDbMText
 10
1048.347113990905
 20
2320.474632647816
 30
0.0
 40
30.0
 41
0.0
 71
     5
 72
     1
  1
\A1;2.5
  7
SANWA
 73
     1
 44
1.0
1001
ACAD
1000
MTEXTBEGIN
1070
    73
1070
     1
1070
    44
1040
1.0
1070
    74
1070
     0
1000
MTEXTEND
  0
LINE
  5
B4E2
330
A08A
100
AcDbEntity
  8
寸法引出
 48
20.0
370
    -2
100
AcDbLine
 10
1048.57821980076
 20
2256.257542225998
 30
0.0
 11
1051.07821980076
 21
2256.257542225998
 31
0.0
  0
SOLID
  5
B4E3
330
A08A
100
AcDbEntity
  8
寸法引出
 48
20.0
100
AcDbTrace
 10
1026.07821980076
 20
2260.007542225998
 30
0.0
 11
1026.07821980076
 21
2252.507542225998
 31
0.0
 12
1048.57821980076
 22
2256.257542225998
 32
0.0
 13
1048.57821980076
 23
2256.257542225998
 33
0.0
  0
SOLID
  5
B4E4
330
A08A
100
AcDbEntity
  8
寸法引出
 48
20.0
100
AcDbTrace
 10
1073.57821980076
 20
2260.007542225998
 30
0.0
 11
1073.57821980076
 21
2252.507542225998
 31
0.0
 12
1051.07821980076
 22
2256.257542225998
 32
0.0
 13
1051.07821980076
 23
2256.257542225998
 33
0.0
  0
POINT
  5
B4E5
330
A08A
100
AcDbEntity
  8
DEFPOINTS
 62
     0
 48
20.0
100
AcDbPoint
 10
1048.57821980076
 20
2192.286261462754
 30
0.0
  0
POINT
  5
B4E6
330
A08A
100
AcDbEntity
  8
DEFPOINTS
 62
     0
 48
20.0
100
AcDbPoint
 10
1051.07821980076
 20
2112.286261462754
 30
0.0
  0
POINT
  5
B4E7
330
A08A
100
AcDbEntity
  8
DEFPOINTS
 62
     0
 48
20.0
100
AcDbPoint
 10
1051.07821980076
 20
2256.257542225998
 30
0.0
  0
ENDBLK
  5
A097
330
A08A
100
AcDbEntity
  8
0
 48
20.0
100
AcDbBlockEnd
  0
BLOCK
  5
A0A4
330
A098
100
AcDbEntity
  8
0
 48
20.0
100
AcDbBlockBegin
  2
*D13
 70
     1
 10
0.0
 20
0.0
 30
0.0
  3
*D13
  1

  0
LINE
  5
B4D2
330
A098
100
AcDbEntity
  8
寸法引出
 48
20.0
370
    -2
100
AcDbLine
 10
1051.07821980076
 20
2127.286261462754
 30
0.0
 11
1051.07821980076
 21
2263.757542225998
 31
0.0
  0
LINE
  5
B4D3
330
A098
100
AcDbEntity
  8
寸法引出
 48
20.0
370
    -2
100
AcDbLine
 10
1078.57821980076
 20
2127.286261462754
 30
0.0
 11
1078.57821980076
 21
2263.757542225998
 31
0.0
  0
LINE
  5
B4D4
330
A098
100
AcDbEntity
  8
寸法引出
 48
20.0
370
    -2
100
AcDbLine
 10
1028.57821980076
 20
2256.257542225998
 30
0.0
 11
1006.07821980076
 21
2256.257542225998
 31
0.0
  0
LINE
  5
B4D5
330
A098
100
AcDbEntity
  8
寸法引出
 48
20.0
370
    -2
100
AcDbLine
 10
1101.07821980076
 20
2256.257542225998
 30
0.0
 11
1123.57821980076
 21
2256.257542225998
 31
0.0
  0
MTEXT
  5
B4D6
330
A098
100
AcDbEntity
  8
寸法引出
 48
20.0
100
AcDbMText
 10
1063.82990821137
 20
2284.884429882117
 30
0.0
 40
30.0
 41
0.0
 71
     5
 72
     1
  1
\A1;27.5
  7
SANWA
 73
     1
 44
1.0
1001
ACAD
1000
MTEXTBEGIN
1070
    73
1070
     1
1070
    44
1040
1.0
1070
    74
1070
     0
1000
MTEXTEND
  0
LINE
  5
B4D7
330
A098
100
AcDbEntity
  8
寸法引出
 48
20.0
370
    -2
100
AcDbLine
 10
1051.07821980076
 20
2256.257542225998
 30
0.0
 11
1078.57821980076
 21
2256.257542225998
 31
0.0
  0
SOLID
  5
B4D8
330
A098
100
AcDbEntity
  8
寸法引出
 48
20.0
100
AcDbTrace
 10
1028.57821980076
 20
2260.007542225998
 30
0.0
 11
1028.57821980076
 21
2252.507542225998
 31
0.0
 12
1051.07821980076
 22
2256.257542225998
 32
0.0
 13
1051.07821980076
 23
2256.257542225998
 33
0.0
  0
SOLID
  5
B4D9
330
A098
100
AcDbEntity
  8
寸法引出
 48
20.0
100
AcDbTrace
 10
1101.07821980076
 20
2260.007542225998
 30
0.0
 11
1101.07821980076
 21
2252.507542225998
 31
0.0
 12
1078.57821980076
 22
2256.257542225998
 32
0.0
 13
1078.57821980076
 23
2256.257542225998
 33
0.0
  0
POINT
  5
B4DA
330
A098
100
AcDbEntity
  8
DEFPOINTS
 62
     0
 48
20.0
100
AcDbPoint
 10
1051.07821980076
 20
2112.286261462754
 30
0.0
  0
POINT
  5
B4DB
330
A098
100
AcDbEntity
  8
DEFPOINTS
 62
     0
 48
20.0
100
AcDbPoint
 10
1078.57821980076
 20
2112.286261462754
 30
0.0
  0
POINT
  5
B4DC
330
A098
100
AcDbEntity
  8
DEFPOINTS
 62
     0
 48
20.0
100
AcDbPoint
 10
1078.57821980076
 20
2256.257542225998
 30
0.0
  0
ENDBLK
  5
A0A5
330
A098
100
AcDbEntity
  8
0
 48
20.0
100
AcDbBlockEnd
  0
BLOCK
  5
A0B0
330
A0A6
100
AcDbEntity
  8
0
 48
20.0
100
AcDbBlockBegin
  2
*D14
 70
     1
 10
0.0
 20
0.0
 30
0.0
  3
*D14
  1

  0
LINE
  5
B4C9
330
A0A6
100
AcDbEntity
  8
寸法引出
 48
20.0
370
    -2
100
AcDbLine
 10
1078.57821980076
 20
2127.286261462754
 30
0.0
 11
1078.57821980076
 21
2263.757542225998
 31
0.0
  0
LINE
  5
B4CA
330
A0A6
100
AcDbEntity
  8
寸法引出
 48
20.0
370
    -2
100
AcDbLine
 10
1378.57821980076
 20
2127.286261462754
 30
0.0
 11
1378.57821980076
 21
2263.757542225998
 31
0.0
  0
LINE
  5
B4CB
330
A0A6
100
AcDbEntity
  8
寸法引出
 48
20.0
370
    -2
100
AcDbLine
 10
1101.07821980076
 20
2256.257542225998
 30
0.0
 11
1356.07821980076
 21
2256.257542225998
 31
0.0
  0
SOLID
  5
B4CC
330
A0A6
100
AcDbEntity
  8
寸法引出
 48
20.0
100
AcDbTrace
 10
1101.07821980076
 20
2260.007542225998
 30
0.0
 11
1101.07821980076
 21
2252.507542225998
 31
0.0
 12
1078.57821980076
 22
2256.257542225998
 32
0.0
 13
1078.57821980076
 23
2256.257542225998
 33
0.0
  0
SOLID
  5
B4CD
330
A0A6
100
AcDbEntity
  8
寸法引出
 48
20.0
100
AcDbTrace
 10
1356.07821980076
 20
2260.007542225998
 30
0.0
 11
1356.07821980076
 21
2252.507542225998
 31
0.0
 12
1378.57821980076
 22
2256.257542225998
 32
0.0
 13
1378.57821980076
 23
2256.257542225998
 33
0.0
  0
MTEXT
  5
B4CE
330
A0A6
100
AcDbEntity
  8
寸法引出
 48
20.0
100
AcDbMText
 10
1228.57821980076
 20
2286.257542225998
 30
0.0
 40
30.0
 41
0.0
 71
     5
 72
     1
  1
\A1;300
  7
SANWA
 73
     1
 44
1.0
1001
ACAD
1000
MTEXTBEGIN
1070
    73
1070
     1
1070
    44
1040
1.0
1070
    74
1070
     0
1000
MTEXTEND
  0
POINT
  5
B4CF
330
A0A6
100
AcDbEntity
  8
DEFPOINTS
 62
     0
 48
20.0
100
AcDbPoint
 10
1078.57821980076
 20
2112.286261462754
 30
0.0
  0
POINT
  5
B4D0
330
A0A6
100
AcDbEntity
  8
DEFPOINTS
 62
     0
 48
20.0
100
AcDbPoint
 10
1378.57821980076
 20
2112.286261462754
 30
0.0
  0
POINT
  5
B4D1
330
A0A6
100
AcDbEntity
  8
DEFPOINTS
 62
     0
 48
20.0
100
AcDbPoint
 10
1378.57821980076
 20
2256.257542225998
 30
0.0
  0
ENDBLK
  5
A0B1
330
A0A6
100
AcDbEntity
  8
0
 48
20.0
100
AcDbBlockEnd
  0
BLOCK
  5
A0BE
330
A0B2
100
AcDbEntity
  8
0
 48
20.0
100
AcDbBlockBegin
  2
*D15
 70
     1
 10
0.0
 20
0.0
 30
0.0
  3
*D15
  1

  0
LINE
  5
B4BE
330
A0B2
100
AcDbEntity
  8
寸法引出
 48
20.0
370
    -2
100
AcDbLine
 10
1378.57821980076
 20
2127.286261462754
 30
0.0
 11
1378.57821980076
 21
2263.757542225998
 31
0.0
  0
LINE
  5
B4BF
330
A0B2
100
AcDbEntity
  8
寸法引出
 48
20.0
370
    -2
100
AcDbLine
 10
1448.57821980076
 20
2202.786261462753
 30
0.0
 11
1448.57821980076
 21
2263.757542225998
 31
0.0
  0
LINE
  5
B4C0
330
A0B2
100
AcDbEntity
  8
寸法引出
 48
20.0
370
    -2
100
AcDbLine
 10
1356.07821980076
 20
2256.257542225998
 30
0.0
 11
1333.57821980076
 21
2256.257542225998
 31
0.0
  0
LINE
  5
B4C1
330
A0B2
100
AcDbEntity
  8
寸法引出
 48
20.0
370
    -2
100
AcDbLine
 10
1471.07821980076
 20
2256.257542225998
 30
0.0
 11
1493.57821980076
 21
2256.257542225998
 31
0.0
  0
LINE
  5
B4C2
330
A0B2
100
AcDbEntity
  8
寸法引出
 48
20.0
370
    -2
100
AcDbLine
 10
1378.57821980076
 20
2256.257542225998
 30
0.0
 11
1448.57821980076
 21
2256.257542225998
 31
0.0
  0
SOLID
  5
B4C3
330
A0B2
100
AcDbEntity
  8
寸法引出
 48
20.0
100
AcDbTrace
 10
1356.07821980076
 20
2260.007542225998
 30
0.0
 11
1356.07821980076
 21
2252.507542225998
 31
0.0
 12
1378.57821980076
 22
2256.257542225998
 32
0.0
 13
1378.57821980076
 23
2256.257542225998
 33
0.0
  0
SOLID
  5
B4C4
330
A0B2
100
AcDbEntity
  8
寸法引出
 48
20.0
100
AcDbTrace
 10
1471.07821980076
 20
2260.007542225998
 30
0.0
 11
1471.07821980076
 21
2252.507542225998
 31
0.0
 12
1448.57821980076
 22
2256.257542225998
 32
0.0
 13
1448.57821980076
 23
2256.257542225998
 33
0.0
  0
MTEXT
  5
B4C5
330
A0B2
100
AcDbEntity
  8
寸法引出
 48
20.0
100
AcDbMText
 10
1413.57821980076
 20
2286.257542225998
 30
0.0
 40
30.0
 41
0.0
 71
     5
 72
     1
  1
\A1;70
  7
SANWA
 73
     1
 44
1.0
1001
ACAD
1000
MTEXTBEGIN
1070
    73
1070
     1
1070
    44
1040
1.0
1070
    74
1070
     0
1000
MTEXTEND
  0
POINT
  5
B4C6
330
A0B2
100
AcDbEntity
  8
DEFPOINTS
 62
     0
 48
20.0
100
AcDbPoint
 10
1378.57821980076
 20
2112.286261462754
 30
0.0
  0
POINT
  5
B4C7
330
A0B2
100
AcDbEntity
  8
DEFPOINTS
 62
     0
 48
20.0
100
AcDbPoint
 10
1448.57821980076
 20
2187.786261462753
 30
0.0
  0
POINT
  5
B4C8
330
A0B2
100
AcDbEntity
  8
DEFPOINTS
 62
     0
 48
20.0
100
AcDbPoint
 10
1448.57821980076
 20
2256.257542225998
 30
0.0
  0
ENDBLK
  5
A0BF
330
A0B2
100
AcDbEntity
  8
0
 48
20.0
100
AcDbBlockEnd
  0
BLOCK
  5
A0CA
330
A0C0
100
AcDbEntity
  8
0
 48
20.0
100
AcDbBlockBegin
  2
*D16
 70
     1
 10
0.0
 20
0.0
 30
0.0
  3
*D16
  1

  0
LINE
  5
B4B5
330
A0C0
100
AcDbEntity
  8
寸法引出
 48
20.0
370
    -2
100
AcDbLine
 10
1008.57821980076
 20
2202.786261462754
 30
0.0
 11
1008.57821980076
 21
2357.792873914732
 31
0.0
  0
LINE
  5
B4B6
330
A0C0
100
AcDbEntity
  8
寸法引出
 48
20.0
370
    -2
100
AcDbLine
 10
1448.57821980076
 20
2202.786261462753
 30
0.0
 11
1448.57821980076
 21
2357.792873914732
 31
0.0
  0
LINE
  5
B4B7
330
A0C0
100
AcDbEntity
  8
寸法引出
 48
20.0
370
    -2
100
AcDbLine
 10
1031.07821980076
 20
2350.292873914732
 30
0.0
 11
1426.07821980076
 21
2350.292873914732
 31
0.0
  0
SOLID
  5
B4B8
330
A0C0
100
AcDbEntity
  8
寸法引出
 48
20.0
100
AcDbTrace
 10
1031.07821980076
 20
2354.042873914732
 30
0.0
 11
1031.07821980076
 21
2346.542873914732
 31
0.0
 12
1008.57821980076
 22
2350.292873914732
 32
0.0
 13
1008.57821980076
 23
2350.292873914732
 33
0.0
  0
SOLID
  5
B4B9
330
A0C0
100
AcDbEntity
  8
寸法引出
 48
20.0
100
AcDbTrace
 10
1426.07821980076
 20
2354.042873914732
 30
0.0
 11
1426.07821980076
 21
2346.542873914732
 31
0.0
 12
1448.57821980076
 22
2350.292873914732
 32
0.0
 13
1448.57821980076
 23
2350.292873914732
 33
0.0
  0
MTEXT
  5
B4BA
330
A0C0
100
AcDbEntity
  8
寸法引出
 48
20.0
100
AcDbMText
 10
1228.57821980076
 20
2380.292873914732
 30
0.0
 40
30.0
 41
0.0
 71
     5
 72
     1
  1
\A1;440
  7
SANWA
 73
     1
 44
1.0
1001
ACAD
1000
MTEXTBEGIN
1070
    73
1070
     1
1070
    44
1040
1.0
1070
    74
1070
     0
1000
MTEXTEND
  0
POINT
  5
B4BB
330
A0C0
100
AcDbEntity
  8
DEFPOINTS
 62
     0
 48
20.0
100
AcDbPoint
 10
1008.57821980076
 20
2187.786261462754
 30
0.0
  0
POINT
  5
B4BC
330
A0C0
100
AcDbEntity
  8
DEFPOINTS
 62
     0
 48
20.0
100
AcDbPoint
 10
1448.57821980076
 20
2187.786261462753
 30
0.0
  0
POINT
  5
B4BD
330
A0C0
100
AcDbEntity
  8
DEFPOINTS
 62
     0
 48
20.0
100
AcDbPoint
 10
1448.57821980076
 20
2350.292873914732
 30
0.0
  0
ENDBLK
  5
A0CB
330
A0C0
100
AcDbEntity
  8
0
 48
20.0
100
AcDbBlockEnd
  0
BLOCK
  5
A0D6
330
A0CC
100
AcDbEntity
  8
0
 48
20.0
100
AcDbBlockBegin
  2
*D17
 70
     1
 10
0.0
 20
0.0
 30
0.0
  3
*D17
  1

  0
LINE
  5
B4F3
330
A0CC
100
AcDbEntity
  8
寸法引出
 48
20.0
370
    -2
100
AcDbLine
 10
998.0782198007601
 20
2192.286261462754
 30
0.0
 11
893.4095255738174
 21
2192.286261462754
 31
0.0
  0
LINE
  5
B4F4
330
A0CC
100
AcDbEntity
  8
寸法引出
 48
20.0
370
    -2
100
AcDbLine
 10
993.5782198007601
 20
2112.286261462754
 30
0.0
 11
893.4095255738174
 21
2112.286261462754
 31
0.0
  0
LINE
  5
B4F5
330
A0CC
100
AcDbEntity
  8
寸法引出
 48
20.0
370
    -2
100
AcDbLine
 10
900.9095255738175
 20
2169.786261462754
 30
0.0
 11
900.9095255738175
 21
2134.786261462754
 31
0.0
  0
SOLID
  5
B4F6
330
A0CC
100
AcDbEntity
  8
寸法引出
 48
20.0
100
AcDbTrace
 10
897.1595255738176
 20
2169.786261462754
 30
0.0
 11
904.6595255738175
 21
2169.786261462754
 31
0.0
 12
900.9095255738175
 22
2192.286261462754
 32
0.0
 13
900.9095255738175
 23
2192.286261462754
 33
0.0
  0
SOLID
  5
B4F7
330
A0CC
100
AcDbEntity
  8
寸法引出
 48
20.0
100
AcDbTrace
 10
897.1595255738176
 20
2134.786261462754
 30
0.0
 11
904.6595255738175
 21
2134.786261462754
 31
0.0
 12
900.9095255738175
 22
2112.286261462754
 32
0.0
 13
900.9095255738175
 23
2112.286261462754
 33
0.0
  0
MTEXT
  5
B4F8
330
A0CC
100
AcDbEntity
  8
寸法引出
 48
20.0
100
AcDbMText
 10
870.9095255738171
 20
2152.286261462754
 30
0.0
 40
30.0
 41
0.0
 71
     5
 72
     1
  1
\A1;80
  7
SANWA
 11
0.0000000000000001
 21
1.0
 31
0.0
 73
     1
 44
1.0
1001
ACAD
1000
MTEXTBEGIN
1070
    73
1070
     1
1070
    44
1040
1.0
1070
    74
1070
     0
1000
MTEXTEND
  0
POINT
  5
B4F9
330
A0CC
100
AcDbEntity
  8
DEFPOINTS
 62
     0
 48
20.0
100
AcDbPoint
 10
1013.07821980076
 20
2192.286261462754
 30
0.0
  0
POINT
  5
B4FA
330
A0CC
100
AcDbEntity
  8
DEFPOINTS
 62
     0
 48
20.0
100
AcDbPoint
 10
1008.57821980076
 20
2112.286261462754
 30
0.0
  0
POINT
  5
B4FB
330
A0CC
100
AcDbEntity
  8
DEFPOINTS
 62
     0
 48
20.0
100
AcDbPoint
 10
900.9095255738175
 20
2112.286261462754
 30
0.0
  0
ENDBLK
  5
A0D7
330
A0CC
100
AcDbEntity
  8
0
 48
20.0
100
AcDbBlockEnd
  0
BLOCK
  5
A0E4
330
A0D8
100
AcDbEntity
  8
0
 48
20.0
100
AcDbBlockBegin
  2
*D18
 70
     1
 10
0.0
 20
0.0
 30
0.0
  3
*D18
  1

  0
LINE
  5
B507
330
A0D8
100
AcDbEntity
  8
寸法引出
 48
20.0
370
    -2
100
AcDbLine
 10
1067.078219800759
 20
2127.286261462753
 30
0.0
 11
1067.078219800759
 21
2149.081086379179
 31
0.0
  0
LINE
  5
B508
330
A0D8
100
AcDbEntity
  8
寸法引出
 48
20.0
370
    -2
100
AcDbLine
 10
1078.57821980076
 20
2127.286261462754
 30
0.0
 11
1078.57821980076
 21
2149.081086379179
 31
0.0
  0
LINE
  5
B509
330
A0D8
100
AcDbEntity
  8
寸法引出
 48
20.0
370
    -2
100
AcDbLine
 10
1044.578219800759
 20
2141.581086379179
 30
0.0
 11
1022.078219800759
 21
2141.581086379179
 31
0.0
  0
LINE
  5
B50A
330
A0D8
100
AcDbEntity
  8
寸法引出
 48
20.0
370
    -2
100
AcDbLine
 10
1101.07821980076
 20
2141.581086379179
 30
0.0
 11
1123.57821980076
 21
2141.581086379179
 31
0.0
  0
MTEXT
  5
B50B
330
A0D8
100
AcDbEntity
  8
寸法引出
 48
20.0
100
AcDbMText
 10
1101.201646026633
 20
2172.358700798222
 30
0.0
 40
30.0
 41
0.0
 71
     5
 72
     1
  1
\A1;11.5
  7
SANWA
 73
     1
 44
1.0
1001
ACAD
1000
MTEXTBEGIN
1070
    73
1070
     1
1070
    44
1040
1.0
1070
    74
1070
     0
1000
MTEXTEND
  0
LINE
  5
B50C
330
A0D8
100
AcDbEntity
  8
寸法引出
 48
20.0
370
    -2
100
AcDbLine
 10
1067.078219800759
 20
2141.581086379179
 30
0.0
 11
1078.57821980076
 21
2141.581086379179
 31
0.0
  0
SOLID
  5
B50D
330
A0D8
100
AcDbEntity
  8
寸法引出
 48
20.0
100
AcDbTrace
 10
1044.578219800759
 20
2145.331086379179
 30
0.0
 11
1044.578219800759
 21
2137.831086379179
 31
0.0
 12
1067.078219800759
 22
2141.581086379179
 32
0.0
 13
1067.078219800759
 23
2141.581086379179
 33
0.0
  0
SOLID
  5
B50E
330
A0D8
100
AcDbEntity
  8
寸法引出
 48
20.0
100
AcDbTrace
 10
1101.07821980076
 20
2145.331086379179
 30
0.0
 11
1101.07821980076
 21
2137.831086379179
 31
0.0
 12
1078.57821980076
 22
2141.581086379179
 32
0.0
 13
1078.57821980076
 23
2141.581086379179
 33
0.0
  0
POINT
  5
B50F
330
A0D8
100
AcDbEntity
  8
DEFPOINTS
 62
     0
 48
20.0
100
AcDbPoint
 10
1067.078219800759
 20
2112.286261462753
 30
0.0
  0
POINT
  5
B510
330
A0D8
100
AcDbEntity
  8
DEFPOINTS
 62
     0
 48
20.0
100
AcDbPoint
 10
1078.57821980076
 20
2112.286261462754
 30
0.0
  0
POINT
  5
B511
330
A0D8
100
AcDbEntity
  8
DEFPOINTS
 62
     0
 48
20.0
100
AcDbPoint
 10
1078.57821980076
 20
2141.581086379179
 30
0.0
  0
ENDBLK
  5
A0E5
330
A0D8
100
AcDbEntity
  8
0
 48
20.0
100
AcDbBlockEnd
  0
BLOCK
  5
A0F2
330
A0E6
100
AcDbEntity
  8
0
 48
20.0
100
AcDbBlockBegin
  2
*D19
 70
     1
 10
0.0
 20
0.0
 30
0.0
  3
*D19
  1

  0
LINE
  5
B4FC
330
A0E6
100
AcDbEntity
  8
寸法引出
 48
20.0
370
    -2
100
AcDbLine
 10
1082.078219800759
 20
2112.286261462753
 30
0.0
 11
1149.690475932279
 21
2112.286261462753
 31
0.0
  0
LINE
  5
B4FD
330
A0E6
100
AcDbEntity
  8
寸法引出
 48
20.0
370
    -2
100
AcDbLine
 10
1093.898219800759
 20
2104.286261462753
 30
0.0
 11
1149.690475932279
 21
2104.286261462753
 31
0.0
  0
LINE
  5
B4FE
330
A0E6
100
AcDbEntity
  8
寸法引出
 48
20.0
370
    -2
100
AcDbLine
 10
1142.190475932278
 20
2134.786261462753
 30
0.0
 11
1142.190475932278
 21
2157.286261462754
 31
0.0
  0
LINE
  5
B4FF
330
A0E6
100
AcDbEntity
  8
寸法引出
 48
20.0
370
    -2
100
AcDbLine
 10
1142.190475932278
 20
2081.786261462753
 30
0.0
 11
1142.190475932278
 21
2059.286261462753
 31
0.0
  0
MTEXT
  5
B500
330
A0E6
100
AcDbEntity
  8
寸法引出
 48
20.0
100
AcDbMText
 10
1116.344013815354
 20
2083.870510571955
 30
0.0
 40
30.0
 41
0.0
 71
     5
 72
     1
  1
\A1;8
  7
SANWA
 11
0.0000000000000001
 21
1.0
 31
0.0
 73
     1
 44
1.0
1001
ACAD
1000
MTEXTBEGIN
1070
    73
1070
     1
1070
    44
1040
1.0
1070
    74
1070
     0
1000
MTEXTEND
  0
LINE
  5
B501
330
A0E6
100
AcDbEntity
  8
寸法引出
 48
20.0
370
    -2
100
AcDbLine
 10
1142.190475932278
 20
2112.286261462753
 30
0.0
 11
1142.190475932278
 21
2104.286261462753
 31
0.0
  0
SOLID
  5
B502
330
A0E6
100
AcDbEntity
  8
寸法引出
 48
20.0
100
AcDbTrace
 10
1138.440475932279
 20
2134.786261462753
 30
0.0
 11
1145.940475932279
 21
2134.786261462753
 31
0.0
 12
1142.190475932278
 22
2112.286261462753
 32
0.0
 13
1142.190475932278
 23
2112.286261462753
 33
0.0
  0
SOLID
  5
B503
330
A0E6
100
AcDbEntity
  8
寸法引出
 48
20.0
100
AcDbTrace
 10
1138.440475932279
 20
2081.786261462753
 30
0.0
 11
1145.940475932279
 21
2081.786261462753
 31
0.0
 12
1142.190475932278
 22
2104.286261462753
 32
0.0
 13
1142.190475932278
 23
2104.286261462753
 33
0.0
  0
POINT
  5
B504
330
A0E6
100
AcDbEntity
  8
DEFPOINTS
 62
     0
 48
20.0
100
AcDbPoint
 10
1067.078219800759
 20
2112.286261462753
 30
0.0
  0
POINT
  5
B505
330
A0E6
100
AcDbEntity
  8
DEFPOINTS
 62
     0
 48
20.0
100
AcDbPoint
 10
1078.898219800759
 20
2104.286261462753
 30
0.0
  0
POINT
  5
B506
330
A0E6
100
AcDbEntity
  8
DEFPOINTS
 62
     0
 48
20.0
100
AcDbPoint
 10
1142.190475932278
 20
2104.286261462753
 30
0.0
  0
ENDBLK
  5
A0F3
330
A0E6
100
AcDbEntity
  8
0
 48
20.0
100
AcDbBlockEnd
  0
BLOCK
  5
A218
330
A20E
100
AcDbEntity
  8
0
 48
20.0
100
AcDbBlockBegin
  2
*D20
 70
     1
 10
0.0
 20
0.0
 30
0.0
  3
*D20
  1

  0
LINE
  5
B512
330
A20E
100
AcDbEntity
  8
寸法引出
 48
20.0
370
    -2
100
AcDbLine
 10
1102.57821980076
 20
1527.286261462754
 30
0.0
 11
1102.57821980076
 21
1676.633723397137
 31
0.0
  0
LINE
  5
B513
330
A20E
100
AcDbEntity
  8
寸法引出
 48
20.0
370
    -2
100
AcDbLine
 10
1354.57821980076
 20
1527.286261462754
 30
0.0
 11
1354.57821980076
 21
1676.633723397137
 31
0.0
  0
LINE
  5
B514
330
A20E
100
AcDbEntity
  8
寸法引出
 48
20.0
370
    -2
100
AcDbLine
 10
1125.07821980076
 20
1669.133723397137
 30
0.0
 11
1332.07821980076
 21
1669.133723397137
 31
0.0
  0
SOLID
  5
B515
330
A20E
100
AcDbEntity
  8
寸法引出
 48
20.0
100
AcDbTrace
 10
1125.07821980076
 20
1672.883723397137
 30
0.0
 11
1125.07821980076
 21
1665.383723397137
 31
0.0
 12
1102.57821980076
 22
1669.133723397137
 32
0.0
 13
1102.57821980076
 23
1669.133723397137
 33
0.0
  0
SOLID
  5
B516
330
A20E
100
AcDbEntity
  8
寸法引出
 48
20.0
100
AcDbTrace
 10
1332.07821980076
 20
1672.883723397137
 30
0.0
 11
1332.07821980076
 21
1665.383723397137
 31
0.0
 12
1354.57821980076
 22
1669.133723397137
 32
0.0
 13
1354.57821980076
 23
1669.133723397137
 33
0.0
  0
MTEXT
  5
B517
330
A20E
100
AcDbEntity
  8
寸法引出
 48
20.0
100
AcDbMText
 10
1228.57821980076
 20
1699.133723397137
 30
0.0
 40
30.0
 41
0.0
 71
     5
 72
     1
  1
\A1;252
  7
SANWA
 73
     1
 44
1.0
1001
ACAD
1000
MTEXTBEGIN
1070
    73
1070
     1
1070
    44
1040
1.0
1070
    74
1070
     0
1000
MTEXTEND
  0
POINT
  5
B518
330
A20E
100
AcDbEntity
  8
DEFPOINTS
 62
     0
 48
20.0
100
AcDbPoint
 10
1102.57821980076
 20
1512.286261462754
 30
0.0
  0
POINT
  5
B519
330
A20E
100
AcDbEntity
  8
DEFPOINTS
 62
     0
 48
20.0
100
AcDbPoint
 10
1354.57821980076
 20
1512.286261462754
 30
0.0
  0
POINT
  5
B51A
330
A20E
100
AcDbEntity
  8
DEFPOINTS
 62
     0
 48
20.0
100
AcDbPoint
 10
1354.57821980076
 20
1669.133723397137
 30
0.0
  0
ENDBLK
  5
A219
330
A20E
100
AcDbEntity
  8
0
 48
20.0
100
AcDbBlockEnd
  0
BLOCK
  5
A228
330
A21C
100
AcDbEntity
  8
0
 48
20.0
100
AcDbBlockBegin
  2
*D21
 70
     1
 10
0.0
 20
0.0
 30
0.0
  3
*D21
  1

  0
LINE
  5
B51B
330
A21C
100
AcDbEntity
  8
寸法引出
 48
20.0
370
    -2
100
AcDbLine
 10
1102.57821980076
 20
1527.286261462754
 30
0.0
 11
1102.57821980076
 21
1676.633723397137
 31
0.0
  0
LINE
  5
B51C
330
A21C
100
AcDbEntity
  8
寸法引出
 48
20.0
370
    -2
100
AcDbLine
 10
1037.57821980076
 20
1527.286261462754
 30
0.0
 11
1037.57821980076
 21
1676.633723397137
 31
0.0
  0
LINE
  5
B51D
330
A21C
100
AcDbEntity
  8
寸法引出
 48
20.0
370
    -2
100
AcDbLine
 10
1125.07821980076
 20
1669.133723397137
 30
0.0
 11
1147.57821980076
 21
1669.133723397137
 31
0.0
  0
LINE
  5
B51E
330
A21C
100
AcDbEntity
  8
寸法引出
 48
20.0
370
    -2
100
AcDbLine
 10
1015.07821980076
 20
1669.133723397137
 30
0.0
 11
992.5782198007601
 21
1669.133723397137
 31
0.0
  0
MTEXT
  5
B51F
330
A21C
100
AcDbEntity
  8
寸法引出
 48
20.0
100
AcDbMText
 10
1048.173099889658
 20
1699.345870001103
 30
0.0
 40
30.0
 41
0.0
 71
     5
 72
     1
  1
\A1;65
  7
SANWA
 73
     1
 44
1.0
1001
ACAD
1000
MTEXTBEGIN
1070
    73
1070
     1
1070
    44
1040
1.0
1070
    74
1070
     0
1000
MTEXTEND
  0
LINE
  5
B520
330
A21C
100
AcDbEntity
  8
寸法引出
 48
20.0
370
    -2
100
AcDbLine
 10
1102.57821980076
 20
1669.133723397137
 30
0.0
 11
1037.57821980076
 21
1669.133723397137
 31
0.0
  0
SOLID
  5
B521
330
A21C
100
AcDbEntity
  8
寸法引出
 48
20.0
100
AcDbTrace
 10
1125.07821980076
 20
1672.883723397137
 30
0.0
 11
1125.07821980076
 21
1665.383723397137
 31
0.0
 12
1102.57821980076
 22
1669.133723397137
 32
0.0
 13
1102.57821980076
 23
1669.133723397137
 33
0.0
  0
SOLID
  5
B522
330
A21C
100
AcDbEntity
  8
寸法引出
 48
20.0
100
AcDbTrace
 10
1015.07821980076
 20
1672.883723397137
 30
0.0
 11
1015.07821980076
 21
1665.383723397137
 31
0.0
 12
1037.57821980076
 22
1669.133723397137
 32
0.0
 13
1037.57821980076
 23
1669.133723397137
 33
0.0
  0
POINT
  5
B523
330
A21C
100
AcDbEntity
  8
DEFPOINTS
 62
     0
 48
20.0
100
AcDbPoint
 10
1102.57821980076
 20
1512.286261462754
 30
0.0
  0
POINT
  5
B524
330
A21C
100
AcDbEntity
  8
DEFPOINTS
 62
     0
 48
20.0
100
AcDbPoint
 10
1037.57821980076
 20
1512.286261462754
 30
0.0
  0
POINT
  5
B525
330
A21C
100
AcDbEntity
  8
DEFPOINTS
 62
     0
 48
20.0
100
AcDbPoint
 10
1037.57821980076
 20
1669.133723397137
 30
0.0
  0
ENDBLK
  5
A229
330
A21C
100
AcDbEntity
  8
0
 48
20.0
100
AcDbBlockEnd
  0
BLOCK
  5
A235
330
A22B
100
AcDbEntity
  8
0
 48
20.0
100
AcDbBlockBegin
  2
*D22
 70
     1
 10
0.0
 20
0.0
 30
0.0
  3
*D22
  1

  0
LINE
  5
B526
330
A22B
100
AcDbEntity
  8
寸法引出
 48
20.0
370
    -2
100
AcDbLine
 10
993.5782198007601
 20
2112.286261462754
 30
0.0
 11
893.4095255738167
 21
2112.286261462754
 31
0.0
  0
LINE
  5
B527
330
A22B
100
AcDbEntity
  8
寸法引出
 48
20.0
370
    -2
100
AcDbLine
 10
1022.57821980076
 20
1512.286261462754
 30
0.0
 11
893.4095255738165
 21
1512.286261462754
 31
0.0
  0
LINE
  5
B528
330
A22B
100
AcDbEntity
  8
寸法引出
 48
20.0
370
    -2
100
AcDbLine
 10
900.9095255738166
 20
2089.786261462754
 30
0.0
 11
900.9095255738166
 21
1534.786261462754
 31
0.0
  0
SOLID
  5
B529
330
A22B
100
AcDbEntity
  8
寸法引出
 48
20.0
100
AcDbTrace
 10
897.1595255738167
 20
2089.786261462754
 30
0.0
 11
904.6595255738166
 21
2089.786261462754
 31
0.0
 12
900.9095255738166
 22
2112.286261462754
 32
0.0
 13
900.9095255738166
 23
2112.286261462754
 33
0.0
  0
SOLID
  5
B52A
330
A22B
100
AcDbEntity
  8
寸法引出
 48
20.0
100
AcDbTrace
 10
897.1595255738165
 20
1534.786261462754
 30
0.0
 11
904.6595255738166
 21
1534.786261462754
 31
0.0
 12
900.9095255738166
 22
1512.286261462754
 32
0.0
 13
900.9095255738166
 23
1512.286261462754
 33
0.0
  0
MTEXT
  5
B52B
330
A22B
100
AcDbEntity
  8
寸法引出
 48
20.0
100
AcDbMText
 10
870.9095255738164
 20
1812.286261462754
 30
0.0
 40
30.0
 41
0.0
 71
     5
 72
     1
  1
\A1;600
  7
SANWA
 11
0.0000000000000001
 21
1.0
 31
0.0
 73
     1
 44
1.0
1001
ACAD
1000
MTEXTBEGIN
1070
    73
1070
     1
1070
    44
1040
1.0
1070
    74
1070
     0
1000
MTEXTEND
  0
POINT
  5
B52C
330
A22B
100
AcDbEntity
  8
DEFPOINTS
 62
     0
 48
20.0
100
AcDbPoint
 10
1008.57821980076
 20
2112.286261462754
 30
0.0
  0
POINT
  5
B52D
330
A22B
100
AcDbEntity
  8
DEFPOINTS
 62
     0
 48
20.0
100
AcDbPoint
 10
1037.57821980076
 20
1512.286261462754
 30
0.0
  0
POINT
  5
B52E
330
A22B
100
AcDbEntity
  8
DEFPOINTS
 62
     0
 48
20.0
100
AcDbPoint
 10
900.9095255738166
 20
1512.286261462754
 30
0.0
  0
ENDBLK
  5
A236
330
A22B
100
AcDbEntity
  8
0
 48
20.0
100
AcDbBlockEnd
  0
BLOCK
  5
A266
330
A25A
100
AcDbEntity
  8
0
 48
20.0
100
AcDbBlockBegin
  2
*D23
 70
     1
 10
0.0
 20
0.0
 30
0.0
  3
*D23
  1

  0
LINE
  5
B52F
330
A25A
100
AcDbEntity
  8
寸法引出
 48
20.0
370
    -2
100
AcDbLine
 10
1022.57821980076
 20
1512.286261462754
 30
0.0
 11
893.4095255738165
 21
1512.286261462754
 31
0.0
  0
LINE
  5
B530
330
A25A
100
AcDbEntity
  8
寸法引出
 48
20.0
370
    -2
100
AcDbLine
 10
1045.961553134093
 20
1442.286261462754
 30
0.0
 11
893.4095255738165
 21
1442.286261462754
 31
0.0
  0
LINE
  5
B531
330
A25A
100
AcDbEntity
  8
寸法引出
 48
20.0
370
    -2
100
AcDbLine
 10
900.9095255738166
 20
1534.786261462754
 30
0.0
 11
900.9095255738166
 21
1557.286261462754
 31
0.0
  0
LINE
  5
B532
330
A25A
100
AcDbEntity
  8
寸法引出
 48
20.0
370
    -2
100
AcDbLine
 10
900.9095255738166
 20
1419.786261462754
 30
0.0
 11
900.9095255738166
 21
1397.286261462754
 31
0.0
  0
LINE
  5
B533
330
A25A
100
AcDbEntity
  8
寸法引出
 48
20.0
370
    -2
100
AcDbLine
 10
900.9095255738166
 20
1512.286261462754
 30
0.0
 11
900.9095255738166
 21
1442.286261462754
 31
0.0
  0
SOLID
  5
B534
330
A25A
100
AcDbEntity
  8
寸法引出
 48
20.0
100
AcDbTrace
 10
897.1595255738165
 20
1534.786261462754
 30
0.0
 11
904.6595255738166
 21
1534.786261462754
 31
0.0
 12
900.9095255738166
 22
1512.286261462754
 32
0.0
 13
900.9095255738166
 23
1512.286261462754
 33
0.0
  0
SOLID
  5
B535
330
A25A
100
AcDbEntity
  8
寸法引出
 48
20.0
100
AcDbTrace
 10
897.1595255738165
 20
1419.786261462754
 30
0.0
 11
904.6595255738166
 21
1419.786261462754
 31
0.0
 12
900.9095255738166
 22
1442.286261462754
 32
0.0
 13
900.9095255738166
 23
1442.286261462754
 33
0.0
  0
MTEXT
  5
B536
330
A25A
100
AcDbEntity
  8
寸法引出
 48
20.0
100
AcDbMText
 10
870.9095255738164
 20
1477.286261462754
 30
0.0
 40
30.0
 41
0.0
 71
     5
 72
     1
  1
\A1;70
  7
SANWA
 11
0.0000000000000001
 21
1.0
 31
0.0
 73
     1
 44
1.0
1001
ACAD
1000
MTEXTBEGIN
1070
    73
1070
     1
1070
    44
1040
1.0
1070
    74
1070
     0
1000
MTEXTEND
  0
POINT
  5
B537
330
A25A
100
AcDbEntity
  8
DEFPOINTS
 62
     0
 48
20.0
100
AcDbPoint
 10
1037.57821980076
 20
1512.286261462754
 30
0.0
  0
POINT
  5
B538
330
A25A
100
AcDbEntity
  8
DEFPOINTS
 62
     0
 48
20.0
100
AcDbPoint
 10
1060.961553134093
 20
1442.286261462754
 30
0.0
  0
POINT
  5
B539
330
A25A
100
AcDbEntity
  8
DEFPOINTS
 62
     0
 48
20.0
100
AcDbPoint
 10
900.9095255738166
 20
1442.286261462754
 30
0.0
  0
ENDBLK
  5
A267
330
A25A
100
AcDbEntity
  8
0
 48
20.0
100
AcDbBlockEnd
  0
BLOCK
  5
A273
330
A269
100
AcDbEntity
  8
0
 48
20.0
100
AcDbBlockBegin
  2
*D24
 70
     1
 10
0.0
 20
0.0
 30
0.0
  3
*D24
  1

  0
LINE
  5
B53A
330
A269
100
AcDbEntity
  8
寸法引出
 48
20.0
370
    -2
100
AcDbLine
 10
998.0782198007601
 20
2192.286261462754
 30
0.0
 11
812.8332800497393
 21
2192.286261462754
 31
0.0
  0
LINE
  5
B53B
330
A269
100
AcDbEntity
  8
寸法引出
 48
20.0
370
    -2
100
AcDbLine
 10
1045.961553134093
 20
1442.286261462754
 30
0.0
 11
812.8332800497391
 21
1442.286261462754
 31
0.0
  0
LINE
  5
B53C
330
A269
100
AcDbEntity
  8
寸法引出
 48
20.0
370
    -2
100
AcDbLine
 10
820.3332800497392
 20
2169.786261462754
 30
0.0
 11
820.3332800497392
 21
1464.786261462754
 31
0.0
  0
SOLID
  5
B53D
330
A269
100
AcDbEntity
  8
寸法引出
 48
20.0
100
AcDbTrace
 10
816.5832800497392
 20
2169.786261462754
 30
0.0
 11
824.0832800497393
 21
2169.786261462754
 31
0.0
 12
820.3332800497392
 22
2192.286261462754
 32
0.0
 13
820.3332800497392
 23
2192.286261462754
 33
0.0
  0
SOLID
  5
B53E
330
A269
100
AcDbEntity
  8
寸法引出
 48
20.0
100
AcDbTrace
 10
816.5832800497392
 20
1464.786261462754
 30
0.0
 11
824.0832800497392
 21
1464.786261462754
 31
0.0
 12
820.3332800497392
 22
1442.286261462754
 32
0.0
 13
820.3332800497392
 23
1442.286261462754
 33
0.0
  0
MTEXT
  5
B53F
330
A269
100
AcDbEntity
  8
寸法引出
 48
20.0
100
AcDbMText
 10
790.3332800497389
 20
1817.286261462754
 30
0.0
 40
30.0
 41
0.0
 71
     5
 72
     1
  1
\A1;750
  7
SANWA
 11
0.0000000000000001
 21
1.0
 31
0.0
 73
     1
 44
1.0
1001
ACAD
1000
MTEXTBEGIN
1070
    73
1070
     1
1070
    44
1040
1.0
1070
    74
1070
     0
1000
MTEXTEND
  0
POINT
  5
B540
330
A269
100
AcDbEntity
  8
DEFPOINTS
 62
     0
 48
20.0
100
AcDbPoint
 10
1013.07821980076
 20
2192.286261462754
 30
0.0
  0
POINT
  5
B541
330
A269
100
AcDbEntity
  8
DEFPOINTS
 62
     0
 48
20.0
100
AcDbPoint
 10
1060.961553134093
 20
1442.286261462754
 30
0.0
  0
POINT
  5
B542
330
A269
100
AcDbEntity
  8
DEFPOINTS
 62
     0
 48
20.0
100
AcDbPoint
 10
820.3332800497392
 20
1442.286261462754
 30
0.0
  0
ENDBLK
  5
A274
330
A269
100
AcDbEntity
  8
0
 48
20.0
100
AcDbBlockEnd
  0
BLOCK
  5
A7DC
330
A7D0
100
AcDbEntity
  8
0
 48
20.0
100
AcDbBlockBegin
  2
*D25
 70
     1
 10
0.0
 20
0.0
 30
0.0
  3
*D25
  1

  0
LINE
  5
A888
330
A7D0
100
AcDbEntity
  8
寸法引出
 48
20.0
370
    -2
100
AcDbLine
 10
1612.515739360597
 20
4030.798772703026
 30
0.0
 11
1483.347045133653
 21
4030.798772703026
 31
0.0
  0
LINE
  5
A889
330
A7D0
100
AcDbEntity
  8
寸法引出
 48
20.0
370
    -2
100
AcDbLine
 10
1635.89907269393
 20
3960.798772703027
 30
0.0
 11
1483.347045133653
 21
3960.798772703027
 31
0.0
  0
LINE
  5
A88A
330
A7D0
100
AcDbEntity
  8
寸法引出
 48
20.0
370
    -2
100
AcDbLine
 10
1490.847045133653
 20
4053.298772703026
 30
0.0
 11
1490.847045133653
 21
4075.798772703026
 31
0.0
  0
LINE
  5
A88B
330
A7D0
100
AcDbEntity
  8
寸法引出
 48
20.0
370
    -2
100
AcDbLine
 10
1490.847045133653
 20
3938.298772703027
 30
0.0
 11
1490.847045133653
 21
3915.798772703027
 31
0.0
  0
LINE
  5
A88C
330
A7D0
100
AcDbEntity
  8
寸法引出
 48
20.0
370
    -2
100
AcDbLine
 10
1490.847045133653
 20
4030.798772703026
 30
0.0
 11
1490.847045133653
 21
3960.798772703027
 31
0.0
  0
SOLID
  5
A88D
330
A7D0
100
AcDbEntity
  8
寸法引出
 48
20.0
100
AcDbTrace
 10
1487.097045133653
 20
4053.298772703026
 30
0.0
 11
1494.597045133653
 21
4053.298772703026
 31
0.0
 12
1490.847045133653
 22
4030.798772703026
 32
0.0
 13
1490.847045133653
 23
4030.798772703026
 33
0.0
  0
SOLID
  5
A88E
330
A7D0
100
AcDbEntity
  8
寸法引出
 48
20.0
100
AcDbTrace
 10
1487.097045133653
 20
3938.298772703027
 30
0.0
 11
1494.597045133653
 21
3938.298772703027
 31
0.0
 12
1490.847045133653
 22
3960.798772703027
 32
0.0
 13
1490.847045133653
 23
3960.798772703027
 33
0.0
  0
MTEXT
  5
A88F
330
A7D0
100
AcDbEntity
  8
寸法引出
 48
20.0
100
AcDbMText
 10
1460.847045133653
 20
3995.798772703027
 30
0.0
 40
30.0
 41
0.0
 71
     5
 72
     1
  1
\A1;70
  7
SANWA
 11
0.0000000000000001
 21
1.0
 31
0.0
 73
     1
 44
1.0
1001
ACAD
1000
MTEXTBEGIN
1070
    73
1070
     1
1070
    44
1040
1.0
1070
    74
1070
     0
1000
MTEXTEND
  0
POINT
  5
A890
330
A7D0
100
AcDbEntity
  8
DEFPOINTS
 62
     0
 48
20.0
100
AcDbPoint
 10
1627.515739360597
 20
4030.798772703026
 30
0.0
  0
POINT
  5
A891
330
A7D0
100
AcDbEntity
  8
DEFPOINTS
 62
     0
 48
20.0
100
AcDbPoint
 10
1650.89907269393
 20
3960.798772703027
 30
0.0
  0
POINT
  5
A892
330
A7D0
100
AcDbEntity
  8
DEFPOINTS
 62
     0
 48
20.0
100
AcDbPoint
 10
1490.847045133653
 20
3960.798772703027
 30
0.0
  0
ENDBLK
  5
A7DD
330
A7D0
100
AcDbEntity
  8
0
 48
20.0
100
AcDbBlockEnd
  0
BLOCK
  5
A7E8
330
A7DE
100
AcDbEntity
  8
0
 48
20.0
100
AcDbBlockBegin
  2
*D26
 70
     1
 10
0.0
 20
0.0
 30
0.0
  3
*D26
  1

  0
LINE
  5
A893
330
A7DE
100
AcDbEntity
  8
寸法引出
 48
20.0
370
    -2
100
AcDbLine
 10
1588.015739360597
 20
4710.798772703027
 30
0.0
 11
1402.770799609576
 21
4710.798772703027
 31
0.0
  0
LINE
  5
A894
330
A7DE
100
AcDbEntity
  8
寸法引出
 48
20.0
370
    -2
100
AcDbLine
 10
1635.89907269393
 20
3960.798772703027
 30
0.0
 11
1402.770799609576
 21
3960.798772703027
 31
0.0
  0
LINE
  5
A895
330
A7DE
100
AcDbEntity
  8
寸法引出
 48
20.0
370
    -2
100
AcDbLine
 10
1410.270799609576
 20
4688.298772703027
 30
0.0
 11
1410.270799609576
 21
3983.298772703027
 31
0.0
  0
SOLID
  5
A896
330
A7DE
100
AcDbEntity
  8
寸法引出
 48
20.0
100
AcDbTrace
 10
1406.520799609576
 20
4688.298772703027
 30
0.0
 11
1414.020799609576
 21
4688.298772703027
 31
0.0
 12
1410.270799609576
 22
4710.798772703027
 32
0.0
 13
1410.270799609576
 23
4710.798772703027
 33
0.0
  0
SOLID
  5
A897
330
A7DE
100
AcDbEntity
  8
寸法引出
 48
20.0
100
AcDbTrace
 10
1406.520799609576
 20
3983.298772703027
 30
0.0
 11
1414.020799609576
 21
3983.298772703027
 31
0.0
 12
1410.270799609576
 22
3960.798772703027
 32
0.0
 13
1410.270799609576
 23
3960.798772703027
 33
0.0
  0
MTEXT
  5
A898
330
A7DE
100
AcDbEntity
  8
寸法引出
 48
20.0
100
AcDbMText
 10
1380.270799609575
 20
4335.798772703027
 30
0.0
 40
30.0
 41
0.0
 71
     5
 72
     1
  1
\A1;750
  7
SANWA
 11
0.0000000000000001
 21
1.0
 31
0.0
 73
     1
 44
1.0
1001
ACAD
1000
MTEXTBEGIN
1070
    73
1070
     1
1070
    44
1040
1.0
1070
    74
1070
     0
1000
MTEXTEND
  0
POINT
  5
A899
330
A7DE
100
AcDbEntity
  8
DEFPOINTS
 62
     0
 48
20.0
100
AcDbPoint
 10
1603.015739360597
 20
4710.798772703027
 30
0.0
  0
POINT
  5
A89A
330
A7DE
100
AcDbEntity
  8
DEFPOINTS
 62
     0
 48
20.0
100
AcDbPoint
 10
1650.89907269393
 20
3960.798772703027
 30
0.0
  0
POINT
  5
A89B
330
A7DE
100
AcDbEntity
  8
DEFPOINTS
 62
     0
 48
20.0
100
AcDbPoint
 10
1410.270799609576
 20
3960.798772703027
 30
0.0
  0
ENDBLK
  5
A7E9
330
A7DE
100
AcDbEntity
  8
0
 48
20.0
100
AcDbBlockEnd
  0
BLOCK
  5
A7F4
330
A7EA
100
AcDbEntity
  8
0
 48
20.0
100
AcDbBlockBegin
  2
*D27
 70
     1
 10
0.0
 20
0.0
 30
0.0
  3
*D27
  1

  0
LINE
  5
A89C
330
A7EA
100
AcDbEntity
  8
寸法引出
 48
20.0
370
    -2
100
AcDbLine
 10
1598.515739360597
 20
4721.298772703026
 30
0.0
 11
1598.515739360597
 21
4876.305385155005
 31
0.0
  0
LINE
  5
A89D
330
A7EA
100
AcDbEntity
  8
寸法引出
 48
20.0
370
    -2
100
AcDbLine
 10
2038.515739360597
 20
4721.298772703026
 30
0.0
 11
2038.515739360597
 21
4876.305385155005
 31
0.0
  0
LINE
  5
A89E
330
A7EA
100
AcDbEntity
  8
寸法引出
 48
20.0
370
    -2
100
AcDbLine
 10
1621.015739360597
 20
4868.805385155005
 30
0.0
 11
2016.015739360597
 21
4868.805385155005
 31
0.0
  0
SOLID
  5
A89F
330
A7EA
100
AcDbEntity
  8
寸法引出
 48
20.0
100
AcDbTrace
 10
1621.015739360597
 20
4872.555385155004
 30
0.0
 11
1621.015739360597
 21
4865.055385155005
 31
0.0
 12
1598.515739360597
 22
4868.805385155005
 32
0.0
 13
1598.515739360597
 23
4868.805385155005
 33
0.0
  0
SOLID
  5
A8A0
330
A7EA
100
AcDbEntity
  8
寸法引出
 48
20.0
100
AcDbTrace
 10
2016.015739360597
 20
4872.555385155004
 30
0.0
 11
2016.015739360597
 21
4865.055385155005
 31
0.0
 12
2038.515739360597
 22
4868.805385155005
 32
0.0
 13
2038.515739360597
 23
4868.805385155005
 33
0.0
  0
MTEXT
  5
A8A1
330
A7EA
100
AcDbEntity
  8
寸法引出
 48
20.0
100
AcDbMText
 10
1818.515739360597
 20
4898.805385155005
 30
0.0
 40
30.0
 41
0.0
 71
     5
 72
     1
  1
\A1;440
  7
SANWA
 73
     1
 44
1.0
1001
ACAD
1000
MTEXTBEGIN
1070
    73
1070
     1
1070
    44
1040
1.0
1070
    74
1070
     0
1000
MTEXTEND
  0
POINT
  5
A8A2
330
A7EA
100
AcDbEntity
  8
DEFPOINTS
 62
     0
 48
20.0
100
AcDbPoint
 10
1598.515739360597
 20
4706.298772703027
 30
0.0
  0
POINT
  5
A8A3
330
A7EA
100
AcDbEntity
  8
DEFPOINTS
 62
     0
 48
20.0
100
AcDbPoint
 10
2038.515739360597
 20
4706.298772703026
 30
0.0
  0
POINT
  5
A8A4
330
A7EA
100
AcDbEntity
  8
DEFPOINTS
 62
     0
 48
20.0
100
AcDbPoint
 10
2038.515739360597
 20
4868.805385155005
 30
0.0
  0
ENDBLK
  5
A7F5
330
A7EA
100
AcDbEntity
  8
0
 48
20.0
100
AcDbBlockEnd
  0
BLOCK
  5
A802
330
A7F6
100
AcDbEntity
  8
0
 48
20.0
100
AcDbBlockBegin
  2
*D28
 70
     1
 10
0.0
 20
0.0
 30
0.0
  3
*D28
  1

  0
LINE
  5
A8A5
330
A7F6
100
AcDbEntity
  8
寸法引出
 48
20.0
370
    -2
100
AcDbLine
 10
1968.515739360597
 20
4645.798772703026
 30
0.0
 11
1968.515739360597
 21
4782.27005346627
 31
0.0
  0
LINE
  5
A8A6
330
A7F6
100
AcDbEntity
  8
寸法引出
 48
20.0
370
    -2
100
AcDbLine
 10
2038.515739360597
 20
4721.298772703026
 30
0.0
 11
2038.515739360597
 21
4782.27005346627
 31
0.0
  0
LINE
  5
A8A7
330
A7F6
100
AcDbEntity
  8
寸法引出
 48
20.0
370
    -2
100
AcDbLine
 10
1946.015739360596
 20
4774.770053466271
 30
0.0
 11
1923.515739360597
 21
4774.770053466271
 31
0.0
  0
LINE
  5
A8A8
330
A7F6
100
AcDbEntity
  8
寸法引出
 48
20.0
370
    -2
100
AcDbLine
 10
2061.015739360597
 20
4774.770053466271
 30
0.0
 11
2083.515739360597
 21
4774.770053466271
 31
0.0
  0
LINE
  5
A8A9
330
A7F6
100
AcDbEntity
  8
寸法引出
 48
20.0
370
    -2
100
AcDbLine
 10
1968.515739360597
 20
4774.770053466271
 30
0.0
 11
2038.515739360597
 21
4774.770053466271
 31
0.0
  0
SOLID
  5
A8AA
330
A7F6
100
AcDbEntity
  8
寸法引出
 48
20.0
100
AcDbTrace
 10
1946.015739360596
 20
4778.52005346627
 30
0.0
 11
1946.015739360596
 21
4771.020053466271
 31
0.0
 12
1968.515739360597
 22
4774.770053466271
 32
0.0
 13
1968.515739360597
 23
4774.770053466271
 33
0.0
  0
SOLID
  5
A8AB
330
A7F6
100
AcDbEntity
  8
寸法引出
 48
20.0
100
AcDbTrace
 10
2061.015739360597
 20
4778.52005346627
 30
0.0
 11
2061.015739360597
 21
4771.020053466271
 31
0.0
 12
2038.515739360597
 22
4774.770053466271
 32
0.0
 13
2038.515739360597
 23
4774.770053466271
 33
0.0
  0
MTEXT
  5
A8AC
330
A7F6
100
AcDbEntity
  8
寸法引出
 48
20.0
100
AcDbMText
 10
2003.515739360597
 20
4804.77005346627
 30
0.0
 40
30.0
 41
0.0
 71
     5
 72
     1
  1
\A1;70
  7
SANWA
 73
     1
 44
1.0
1001
ACAD
1000
MTEXTBEGIN
1070
    73
1070
     1
1070
    44
1040
1.0
1070
    74
1070
     0
1000
MTEXTEND
  0
POINT
  5
A8AD
330
A7F6
100
AcDbEntity
  8
DEFPOINTS
 62
     0
 48
20.0
100
AcDbPoint
 10
1968.515739360597
 20
4630.798772703026
 30
0.0
  0
POINT
  5
A8AE
330
A7F6
100
AcDbEntity
  8
DEFPOINTS
 62
     0
 48
20.0
100
AcDbPoint
 10
2038.515739360597
 20
4706.298772703026
 30
0.0
  0
POINT
  5
A8AF
330
A7F6
100
AcDbEntity
  8
DEFPOINTS
 62
     0
 48
20.0
100
AcDbPoint
 10
2038.515739360597
 20
4774.770053466271
 30
0.0
  0
ENDBLK
  5
A803
330
A7F6
100
AcDbEntity
  8
0
 48
20.0
100
AcDbBlockEnd
  0
BLOCK
  5
A80E
330
A804
100
AcDbEntity
  8
0
 48
20.0
100
AcDbBlockBegin
  2
*D29
 70
     1
 10
0.0
 20
0.0
 30
0.0
  3
*D29
  1

  0
LINE
  5
A8B0
330
A804
100
AcDbEntity
  8
寸法引出
 48
20.0
370
    -2
100
AcDbLine
 10
1668.515739360597
 20
4645.798772703026
 30
0.0
 11
1668.515739360597
 21
4782.27005346627
 31
0.0
  0
LINE
  5
A8B1
330
A804
100
AcDbEntity
  8
寸法引出
 48
20.0
370
    -2
100
AcDbLine
 10
1968.515739360597
 20
4645.798772703026
 30
0.0
 11
1968.515739360597
 21
4782.27005346627
 31
0.0
  0
LINE
  5
A8B2
330
A804
100
AcDbEntity
  8
寸法引出
 48
20.0
370
    -2
100
AcDbLine
 10
1691.015739360597
 20
4774.770053466271
 30
0.0
 11
1946.015739360596
 21
4774.770053466271
 31
0.0
  0
SOLID
  5
A8B3
330
A804
100
AcDbEntity
  8
寸法引出
 48
20.0
100
AcDbTrace
 10
1691.015739360597
 20
4778.52005346627
 30
0.0
 11
1691.015739360597
 21
4771.020053466271
 31
0.0
 12
1668.515739360597
 22
4774.770053466271
 32
0.0
 13
1668.515739360597
 23
4774.770053466271
 33
0.0
  0
SOLID
  5
A8B4
330
A804
100
AcDbEntity
  8
寸法引出
 48
20.0
100
AcDbTrace
 10
1946.015739360596
 20
4778.52005346627
 30
0.0
 11
1946.015739360596
 21
4771.020053466271
 31
0.0
 12
1968.515739360597
 22
4774.770053466271
 32
0.0
 13
1968.515739360597
 23
4774.770053466271
 33
0.0
  0
MTEXT
  5
A8B5
330
A804
100
AcDbEntity
  8
寸法引出
 48
20.0
100
AcDbMText
 10
1818.515739360597
 20
4804.77005346627
 30
0.0
 40
30.0
 41
0.0
 71
     5
 72
     1
  1
\A1;300
  7
SANWA
 73
     1
 44
1.0
1001
ACAD
1000
MTEXTBEGIN
1070
    73
1070
     1
1070
    44
1040
1.0
1070
    74
1070
     0
1000
MTEXTEND
  0
POINT
  5
A8B6
330
A804
100
AcDbEntity
  8
DEFPOINTS
 62
     0
 48
20.0
100
AcDbPoint
 10
1668.515739360597
 20
4630.798772703026
 30
0.0
  0
POINT
  5
A8B7
330
A804
100
AcDbEntity
  8
DEFPOINTS
 62
     0
 48
20.0
100
AcDbPoint
 10
1968.515739360597
 20
4630.798772703026
 30
0.0
  0
POINT
  5
A8B8
330
A804
100
AcDbEntity
  8
DEFPOINTS
 62
     0
 48
20.0
100
AcDbPoint
 10
1968.515739360597
 20
4774.770053466271
 30
0.0
  0
ENDBLK
  5
A80F
330
A804
100
AcDbEntity
  8
0
 48
20.0
100
AcDbBlockEnd
  0
BLOCK
  5
A81C
330
A810
100
AcDbEntity
  8
0
 48
20.0
100
AcDbBlockBegin
  2
*D30
 70
     1
 10
0.0
 20
0.0
 30
0.0
  3
*D30
  1

  0
LINE
  5
A8B9
330
A810
100
AcDbEntity
  8
寸法引出
 48
20.0
370
    -2
100
AcDbLine
 10
1641.015739360597
 20
4645.798772703026
 30
0.0
 11
1641.015739360597
 21
4782.27005346627
 31
0.0
  0
LINE
  5
A8BA
330
A810
100
AcDbEntity
  8
寸法引出
 48
20.0
370
    -2
100
AcDbLine
 10
1668.515739360597
 20
4645.798772703026
 30
0.0
 11
1668.515739360597
 21
4782.27005346627
 31
0.0
  0
LINE
  5
A8BB
330
A810
100
AcDbEntity
  8
寸法引出
 48
20.0
370
    -2
100
AcDbLine
 10
1618.515739360597
 20
4774.770053466271
 30
0.0
 11
1596.015739360597
 21
4774.770053466271
 31
0.0
  0
LINE
  5
A8BC
330
A810
100
AcDbEntity
  8
寸法引出
 48
20.0
370
    -2
100
AcDbLine
 10
1691.015739360597
 20
4774.770053466271
 30
0.0
 11
1713.515739360597
 21
4774.770053466271
 31
0.0
  0
MTEXT
  5
A8BD
330
A810
100
AcDbEntity
  8
寸法引出
 48
20.0
100
AcDbMText
 10
1653.767427771207
 20
4803.39694112239
 30
0.0
 40
30.0
 41
0.0
 71
     5
 72
     1
  1
\A1;27.5
  7
SANWA
 73
     1
 44
1.0
1001
ACAD
1000
MTEXTBEGIN
1070
    73
1070
     1
1070
    44
1040
1.0
1070
    74
1070
     0
1000
MTEXTEND
  0
LINE
  5
A8BE
330
A810
100
AcDbEntity
  8
寸法引出
 48
20.0
370
    -2
100
AcDbLine
 10
1641.015739360597
 20
4774.770053466271
 30
0.0
 11
1668.515739360597
 21
4774.770053466271
 31
0.0
  0
SOLID
  5
A8BF
330
A810
100
AcDbEntity
  8
寸法引出
 48
20.0
100
AcDbTrace
 10
1618.515739360597
 20
4778.52005346627
 30
0.0
 11
1618.515739360597
 21
4771.020053466271
 31
0.0
 12
1641.015739360597
 22
4774.770053466271
 32
0.0
 13
1641.015739360597
 23
4774.770053466271
 33
0.0
  0
SOLID
  5
A8C0
330
A810
100
AcDbEntity
  8
寸法引出
 48
20.0
100
AcDbTrace
 10
1691.015739360597
 20
4778.52005346627
 30
0.0
 11
1691.015739360597
 21
4771.020053466271
 31
0.0
 12
1668.515739360597
 22
4774.770053466271
 32
0.0
 13
1668.515739360597
 23
4774.770053466271
 33
0.0
  0
POINT
  5
A8C1
330
A810
100
AcDbEntity
  8
DEFPOINTS
 62
     0
 48
20.0
100
AcDbPoint
 10
1641.015739360597
 20
4630.798772703026
 30
0.0
  0
POINT
  5
A8C2
330
A810
100
AcDbEntity
  8
DEFPOINTS
 62
     0
 48
20.0
100
AcDbPoint
 10
1668.515739360597
 20
4630.798772703026
 30
0.0
  0
POINT
  5
A8C3
330
A810
100
AcDbEntity
  8
DEFPOINTS
 62
     0
 48
20.0
100
AcDbPoint
 10
1668.515739360597
 20
4774.770053466271
 30
0.0
  0
ENDBLK
  5
A81D
330
A810
100
AcDbEntity
  8
0
 48
20.0
100
AcDbBlockEnd
  0
BLOCK
  5
A82A
330
A81E
100
AcDbEntity
  8
0
 48
20.0
100
AcDbBlockBegin
  2
*D31
 70
     1
 10
0.0
 20
0.0
 30
0.0
  3
*D31
  1

  0
LINE
  5
A8C4
330
A81E
100
AcDbEntity
  8
寸法引出
 48
20.0
370
    -2
100
AcDbLine
 10
1638.515739360597
 20
4725.798772703027
 30
0.0
 11
1638.515739360597
 21
4782.27005346627
 31
0.0
  0
LINE
  5
A8C5
330
A81E
100
AcDbEntity
  8
寸法引出
 48
20.0
370
    -2
100
AcDbLine
 10
1641.015739360597
 20
4645.798772703026
 30
0.0
 11
1641.015739360597
 21
4782.27005346627
 31
0.0
  0
LINE
  5
A8C6
330
A81E
100
AcDbEntity
  8
寸法引出
 48
20.0
370
    -2
100
AcDbLine
 10
1616.015739360596
 20
4774.770053466271
 30
0.0
 11
1593.515739360597
 21
4774.770053466271
 31
0.0
  0
LINE
  5
A8C7
330
A81E
100
AcDbEntity
  8
寸法引出
 48
20.0
370
    -2
100
AcDbLine
 10
1663.515739360597
 20
4774.770053466271
 30
0.0
 11
1686.015739360597
 21
4774.770053466271
 31
0.0
  0
MTEXT
  5
A8C8
330
A81E
100
AcDbEntity
  8
寸法引出
 48
20.0
100
AcDbMText
 10
1638.284633550742
 20
4838.98714388809
 30
0.0
 40
30.0
 41
0.0
 71
     5
 72
     1
  1
\A1;2.5
  7
SANWA
 73
     1
 44
1.0
1001
ACAD
1000
MTEXTBEGIN
1070
    73
1070
     1
1070
    44
1040
1.0
1070
    74
1070
     0
1000
MTEXTEND
  0
LINE
  5
A8C9
330
A81E
100
AcDbEntity
  8
寸法引出
 48
20.0
370
    -2
100
AcDbLine
 10
1638.515739360597
 20
4774.770053466271
 30
0.0
 11
1641.015739360597
 21
4774.770053466271
 31
0.0
  0
SOLID
  5
A8CA
330
A81E
100
AcDbEntity
  8
寸法引出
 48
20.0
100
AcDbTrace
 10
1616.015739360596
 20
4778.52005346627
 30
0.0
 11
1616.015739360596
 21
4771.020053466271
 31
0.0
 12
1638.515739360597
 22
4774.770053466271
 32
0.0
 13
1638.515739360597
 23
4774.770053466271
 33
0.0
  0
SOLID
  5
A8CB
330
A81E
100
AcDbEntity
  8
寸法引出
 48
20.0
100
AcDbTrace
 10
1663.515739360597
 20
4778.52005346627
 30
0.0
 11
1663.515739360597
 21
4771.020053466271
 31
0.0
 12
1641.015739360597
 22
4774.770053466271
 32
0.0
 13
1641.015739360597
 23
4774.770053466271
 33
0.0
  0
POINT
  5
A8CC
330
A81E
100
AcDbEntity
  8
DEFPOINTS
 62
     0
 48
20.0
100
AcDbPoint
 10
1638.515739360597
 20
4710.798772703027
 30
0.0
  0
POINT
  5
A8CD
330
A81E
100
AcDbEntity
  8
DEFPOINTS
 62
     0
 48
20.0
100
AcDbPoint
 10
1641.015739360597
 20
4630.798772703026
 30
0.0
  0
POINT
  5
A8CE
330
A81E
100
AcDbEntity
  8
DEFPOINTS
 62
     0
 48
20.0
100
AcDbPoint
 10
1641.015739360597
 20
4774.770053466271
 30
0.0
  0
ENDBLK
  5
A82B
330
A81E
100
AcDbEntity
  8
0
 48
20.0
100
AcDbBlockEnd
  0
BLOCK
  5
A838
330
A82C
100
AcDbEntity
  8
0
 48
20.0
100
AcDbBlockBegin
  2
*D32
 70
     1
 10
0.0
 20
0.0
 30
0.0
  3
*D32
  1

  0
LINE
  5
A8CF
330
A82C
100
AcDbEntity
  8
寸法引出
 48
20.0
370
    -2
100
AcDbLine
 10
1598.515739360597
 20
4721.298772703026
 30
0.0
 11
1598.515739360597
 21
4782.27005346627
 31
0.0
  0
LINE
  5
A8D0
330
A82C
100
AcDbEntity
  8
寸法引出
 48
20.0
370
    -2
100
AcDbLine
 10
1638.515739360597
 20
4725.798772703027
 30
0.0
 11
1638.515739360597
 21
4782.27005346627
 31
0.0
  0
LINE
  5
A8D1
330
A82C
100
AcDbEntity
  8
寸法引出
 48
20.0
370
    -2
100
AcDbLine
 10
1576.015739360597
 20
4774.770053466271
 30
0.0
 11
1553.515739360597
 21
4774.770053466271
 31
0.0
  0
LINE
  5
A8D2
330
A82C
100
AcDbEntity
  8
寸法引出
 48
20.0
370
    -2
100
AcDbLine
 10
1661.015739360597
 20
4774.770053466271
 30
0.0
 11
1683.515739360597
 21
4774.770053466271
 31
0.0
  0
MTEXT
  5
A8D3
330
A82C
100
AcDbEntity
  8
寸法引出
 48
20.0
100
AcDbMText
 10
1571.708552834836
 20
4804.944333024533
 30
0.0
 40
30.0
 41
0.0
 71
     5
 72
     1
  1
\A1;40
  7
SANWA
 73
     1
 44
1.0
1001
ACAD
1000
MTEXTBEGIN
1070
    73
1070
     1
1070
    44
1040
1.0
1070
    74
1070
     0
1000
MTEXTEND
  0
LINE
  5
A8D4
330
A82C
100
AcDbEntity
  8
寸法引出
 48
20.0
370
    -2
100
AcDbLine
 10
1598.515739360597
 20
4774.770053466271
 30
0.0
 11
1638.515739360597
 21
4774.770053466271
 31
0.0
  0
SOLID
  5
A8D5
330
A82C
100
AcDbEntity
  8
寸法引出
 48
20.0
100
AcDbTrace
 10
1576.015739360597
 20
4778.52005346627
 30
0.0
 11
1576.015739360597
 21
4771.020053466271
 31
0.0
 12
1598.515739360597
 22
4774.770053466271
 32
0.0
 13
1598.515739360597
 23
4774.770053466271
 33
0.0
  0
SOLID
  5
A8D6
330
A82C
100
AcDbEntity
  8
寸法引出
 48
20.0
100
AcDbTrace
 10
1661.015739360597
 20
4778.52005346627
 30
0.0
 11
1661.015739360597
 21
4771.020053466271
 31
0.0
 12
1638.515739360597
 22
4774.770053466271
 32
0.0
 13
1638.515739360597
 23
4774.770053466271
 33
0.0
  0
POINT
  5
A8D7
330
A82C
100
AcDbEntity
  8
DEFPOINTS
 62
     0
 48
20.0
100
AcDbPoint
 10
1598.515739360597
 20
4706.298772703027
 30
0.0
  0
POINT
  5
A8D8
330
A82C
100
AcDbEntity
  8
DEFPOINTS
 62
     0
 48
20.0
100
AcDbPoint
 10
1638.515739360597
 20
4710.798772703027
 30
0.0
  0
POINT
  5
A8D9
330
A82C
100
AcDbEntity
  8
DEFPOINTS
 62
     0
 48
20.0
100
AcDbPoint
 10
1638.515739360597
 20
4774.770053466271
 30
0.0
  0
ENDBLK
  5
A839
330
A82C
100
AcDbEntity
  8
0
 48
20.0
100
AcDbBlockEnd
  0
BLOCK
  5
A844
330
A83A
100
AcDbEntity
  8
0
 48
20.0
100
AcDbBlockBegin
  2
*D33
 70
     1
 10
0.0
 20
0.0
 30
0.0
  3
*D33
  1

  0
LINE
  5
A8DA
330
A83A
100
AcDbEntity
  8
寸法引出
 48
20.0
370
    -2
100
AcDbLine
 10
1588.015739360597
 20
4710.798772703027
 30
0.0
 11
1483.347045133654
 21
4710.798772703027
 31
0.0
  0
LINE
  5
A8DB
330
A83A
100
AcDbEntity
  8
寸法引出
 48
20.0
370
    -2
100
AcDbLine
 10
1583.515739360597
 20
4630.798772703026
 30
0.0
 11
1483.347045133654
 21
4630.798772703026
 31
0.0
  0
LINE
  5
A8DC
330
A83A
100
AcDbEntity
  8
寸法引出
 48
20.0
370
    -2
100
AcDbLine
 10
1490.847045133654
 20
4688.298772703027
 30
0.0
 11
1490.847045133654
 21
4653.298772703027
 31
0.0
  0
SOLID
  5
A8DD
330
A83A
100
AcDbEntity
  8
寸法引出
 48
20.0
100
AcDbTrace
 10
1487.097045133654
 20
4688.298772703027
 30
0.0
 11
1494.597045133654
 21
4688.298772703027
 31
0.0
 12
1490.847045133654
 22
4710.798772703027
 32
0.0
 13
1490.847045133654
 23
4710.798772703027
 33
0.0
  0
SOLID
  5
A8DE
330
A83A
100
AcDbEntity
  8
寸法引出
 48
20.0
100
AcDbTrace
 10
1487.097045133654
 20
4653.298772703027
 30
0.0
 11
1494.597045133654
 21
4653.298772703027
 31
0.0
 12
1490.847045133654
 22
4630.798772703026
 32
0.0
 13
1490.847045133654
 23
4630.798772703026
 33
0.0
  0
MTEXT
  5
A8DF
330
A83A
100
AcDbEntity
  8
寸法引出
 48
20.0
100
AcDbMText
 10
1460.847045133653
 20
4670.798772703027
 30
0.0
 40
30.0
 41
0.0
 71
     5
 72
     1
  1
\A1;80
  7
SANWA
 11
0.0000000000000001
 21
1.0
 31
0.0
 73
     1
 44
1.0
1001
ACAD
1000
MTEXTBEGIN
1070
    73
1070
     1
1070
    44
1040
1.0
1070
    74
1070
     0
1000
MTEXTEND
  0
POINT
  5
A8E0
330
A83A
100
AcDbEntity
  8
DEFPOINTS
 62
     0
 48
20.0
100
AcDbPoint
 10
1603.015739360597
 20
4710.798772703027
 30
0.0
  0
POINT
  5
A8E1
330
A83A
100
AcDbEntity
  8
DEFPOINTS
 62
     0
 48
20.0
100
AcDbPoint
 10
1598.515739360597
 20
4630.798772703026
 30
0.0
  0
POINT
  5
A8E2
330
A83A
100
AcDbEntity
  8
DEFPOINTS
 62
     0
 48
20.0
100
AcDbPoint
 10
1490.847045133654
 20
4630.798772703026
 30
0.0
  0
ENDBLK
  5
A845
330
A83A
100
AcDbEntity
  8
0
 48
20.0
100
AcDbBlockEnd
  0
BLOCK
  5
A852
330
A846
100
AcDbEntity
  8
0
 48
20.0
100
AcDbBlockBegin
  2
*D34
 70
     1
 10
0.0
 20
0.0
 30
0.0
  3
*D34
  1

  0
LINE
  5
A8E3
330
A846
100
AcDbEntity
  8
寸法引出
 48
20.0
370
    -2
100
AcDbLine
 10
1672.015739360596
 20
4630.798772703026
 30
0.0
 11
1739.627995492115
 21
4630.798772703026
 31
0.0
  0
LINE
  5
A8E4
330
A846
100
AcDbEntity
  8
寸法引出
 48
20.0
370
    -2
100
AcDbLine
 10
1683.835739360596
 20
4622.798772703027
 30
0.0
 11
1739.627995492115
 21
4622.798772703027
 31
0.0
  0
LINE
  5
A8E5
330
A846
100
AcDbEntity
  8
寸法引出
 48
20.0
370
    -2
100
AcDbLine
 10
1732.127995492115
 20
4653.298772703027
 30
0.0
 11
1732.127995492115
 21
4675.798772703027
 31
0.0
  0
LINE
  5
A8E6
330
A846
100
AcDbEntity
  8
寸法引出
 48
20.0
370
    -2
100
AcDbLine
 10
1732.127995492115
 20
4600.298772703026
 30
0.0
 11
1732.127995492115
 21
4577.798772703027
 31
0.0
  0
MTEXT
  5
A8E7
330
A846
100
AcDbEntity
  8
寸法引出
 48
20.0
100
AcDbMText
 10
1706.281533375191
 20
4602.383021812229
 30
0.0
 40
30.0
 41
0.0
 71
     5
 72
     1
  1
\A1;8
  7
SANWA
 11
0.0000000000000001
 21
1.0
 31
0.0
 73
     1
 44
1.0
1001
ACAD
1000
MTEXTBEGIN
1070
    73
1070
     1
1070
    44
1040
1.0
1070
    74
1070
     0
1000
MTEXTEND
  0
LINE
  5
A8E8
330
A846
100
AcDbEntity
  8
寸法引出
 48
20.0
370
    -2
100
AcDbLine
 10
1732.127995492115
 20
4630.798772703026
 30
0.0
 11
1732.127995492115
 21
4622.798772703027
 31
0.0
  0
SOLID
  5
A8E9
330
A846
100
AcDbEntity
  8
寸法引出
 48
20.0
100
AcDbTrace
 10
1728.377995492115
 20
4653.298772703027
 30
0.0
 11
1735.877995492115
 21
4653.298772703027
 31
0.0
 12
1732.127995492115
 22
4630.798772703026
 32
0.0
 13
1732.127995492115
 23
4630.798772703026
 33
0.0
  0
SOLID
  5
A8EA
330
A846
100
AcDbEntity
  8
寸法引出
 48
20.0
100
AcDbTrace
 10
1728.377995492115
 20
4600.298772703026
 30
0.0
 11
1735.877995492115
 21
4600.298772703026
 31
0.0
 12
1732.127995492115
 22
4622.798772703027
 32
0.0
 13
1732.127995492115
 23
4622.798772703027
 33
0.0
  0
POINT
  5
A8EB
330
A846
100
AcDbEntity
  8
DEFPOINTS
 62
     0
 48
20.0
100
AcDbPoint
 10
1657.015739360596
 20
4630.798772703026
 30
0.0
  0
POINT
  5
A8EC
330
A846
100
AcDbEntity
  8
DEFPOINTS
 62
     0
 48
20.0
100
AcDbPoint
 10
1668.835739360596
 20
4622.798772703027
 30
0.0
  0
POINT
  5
A8ED
330
A846
100
AcDbEntity
  8
DEFPOINTS
 62
     0
 48
20.0
100
AcDbPoint
 10
1732.127995492115
 20
4622.798772703027
 30
0.0
  0
ENDBLK
  5
A853
330
A846
100
AcDbEntity
  8
0
 48
20.0
100
AcDbBlockEnd
  0
BLOCK
  5
A860
330
A854
100
AcDbEntity
  8
0
 48
20.0
100
AcDbBlockBegin
  2
*D35
 70
     1
 10
0.0
 20
0.0
 30
0.0
  3
*D35
  1

  0
LINE
  5
A8EE
330
A854
100
AcDbEntity
  8
寸法引出
 48
20.0
370
    -2
100
AcDbLine
 10
1657.015739360596
 20
4645.798772703026
 30
0.0
 11
1657.015739360596
 21
4667.593597619451
 31
0.0
  0
LINE
  5
A8EF
330
A854
100
AcDbEntity
  8
寸法引出
 48
20.0
370
    -2
100
AcDbLine
 10
1668.515739360597
 20
4645.798772703026
 30
0.0
 11
1668.515739360597
 21
4667.593597619451
 31
0.0
  0
LINE
  5
A8F0
330
A854
100
AcDbEntity
  8
寸法引出
 48
20.0
370
    -2
100
AcDbLine
 10
1634.515739360596
 20
4660.093597619451
 30
0.0
 11
1612.015739360596
 21
4660.093597619451
 31
0.0
  0
LINE
  5
A8F1
330
A854
100
AcDbEntity
  8
寸法引出
 48
20.0
370
    -2
100
AcDbLine
 10
1691.015739360597
 20
4660.093597619451
 30
0.0
 11
1713.515739360597
 21
4660.093597619451
 31
0.0
  0
MTEXT
  5
A8F2
330
A854
100
AcDbEntity
  8
寸法引出
 48
20.0
100
AcDbMText
 10
1691.13916558647
 20
4690.871212038494
 30
0.0
 40
30.0
 41
0.0
 71
     5
 72
     1
  1
\A1;11.5
  7
SANWA
 73
     1
 44
1.0
1001
ACAD
1000
MTEXTBEGIN
1070
    73
1070
     1
1070
    44
1040
1.0
1070
    74
1070
     0
1000
MTEXTEND
  0
LINE
  5
A8F3
330
A854
100
AcDbEntity
  8
寸法引出
 48
20.0
370
    -2
100
AcDbLine
 10
1657.015739360596
 20
4660.093597619451
 30
0.0
 11
1668.515739360597
 21
4660.093597619451
 31
0.0
  0
SOLID
  5
A8F4
330
A854
100
AcDbEntity
  8
寸法引出
 48
20.0
100
AcDbTrace
 10
1634.515739360596
 20
4663.843597619451
 30
0.0
 11
1634.515739360596
 21
4656.343597619451
 31
0.0
 12
1657.015739360596
 22
4660.093597619451
 32
0.0
 13
1657.015739360596
 23
4660.093597619451
 33
0.0
  0
SOLID
  5
A8F5
330
A854
100
AcDbEntity
  8
寸法引出
 48
20.0
100
AcDbTrace
 10
1691.015739360597
 20
4663.843597619451
 30
0.0
 11
1691.015739360597
 21
4656.343597619451
 31
0.0
 12
1668.515739360597
 22
4660.093597619451
 32
0.0
 13
1668.515739360597
 23
4660.093597619451
 33
0.0
  0
POINT
  5
A8F6
330
A854
100
AcDbEntity
  8
DEFPOINTS
 62
     0
 48
20.0
100
AcDbPoint
 10
1657.015739360596
 20
4630.798772703026
 30
0.0
  0
POINT
  5
A8F7
330
A854
100
AcDbEntity
  8
DEFPOINTS
 62
     0
 48
20.0
100
AcDbPoint
 10
1668.515739360597
 20
4630.798772703026
 30
0.0
  0
POINT
  5
A8F8
330
A854
100
AcDbEntity
  8
DEFPOINTS
 62
     0
 48
20.0
100
AcDbPoint
 10
1668.515739360597
 20
4660.093597619451
 30
0.0
  0
ENDBLK
  5
A861
330
A854
100
AcDbEntity
  8
0
 48
20.0
100
AcDbBlockEnd
  0
BLOCK
  5
A86C
330
A862
100
AcDbEntity
  8
0
 48
20.0
100
AcDbBlockBegin
  2
*D36
 70
     1
 10
0.0
 20
0.0
 30
0.0
  3
*D36
  1

  0
LINE
  5
A8F9
330
A862
100
AcDbEntity
  8
寸法引出
 48
20.0
370
    -2
100
AcDbLine
 10
1692.515739360597
 20
4045.798772703027
 30
0.0
 11
1692.515739360597
 21
4195.14623463741
 31
0.0
  0
LINE
  5
A8FA
330
A862
100
AcDbEntity
  8
寸法引出
 48
20.0
370
    -2
100
AcDbLine
 10
1944.515739360596
 20
4045.798772703027
 30
0.0
 11
1944.515739360596
 21
4195.14623463741
 31
0.0
  0
LINE
  5
A8FB
330
A862
100
AcDbEntity
  8
寸法引出
 48
20.0
370
    -2
100
AcDbLine
 10
1715.015739360597
 20
4187.64623463741
 30
0.0
 11
1922.015739360597
 21
4187.64623463741
 31
0.0
  0
SOLID
  5
A8FC
330
A862
100
AcDbEntity
  8
寸法引出
 48
20.0
100
AcDbTrace
 10
1715.015739360597
 20
4191.39623463741
 30
0.0
 11
1715.015739360597
 21
4183.89623463741
 31
0.0
 12
1692.515739360597
 22
4187.64623463741
 32
0.0
 13
1692.515739360597
 23
4187.64623463741
 33
0.0
  0
SOLID
  5
A8FD
330
A862
100
AcDbEntity
  8
寸法引出
 48
20.0
100
AcDbTrace
 10
1922.015739360597
 20
4191.39623463741
 30
0.0
 11
1922.015739360597
 21
4183.89623463741
 31
0.0
 12
1944.515739360596
 22
4187.64623463741
 32
0.0
 13
1944.515739360596
 23
4187.64623463741
 33
0.0
  0
MTEXT
  5
A8FE
330
A862
100
AcDbEntity
  8
寸法引出
 48
20.0
100
AcDbMText
 10
1818.515739360597
 20
4217.64623463741
 30
0.0
 40
30.0
 41
0.0
 71
     5
 72
     1
  1
\A1;252
  7
SANWA
 73
     1
 44
1.0
1001
ACAD
1000
MTEXTBEGIN
1070
    73
1070
     1
1070
    44
1040
1.0
1070
    74
1070
     0
1000
MTEXTEND
  0
POINT
  5
A8FF
330
A862
100
AcDbEntity
  8
DEFPOINTS
 62
     0
 48
20.0
100
AcDbPoint
 10
1692.515739360597
 20
4030.798772703026
 30
0.0
  0
POINT
  5
A900
330
A862
100
AcDbEntity
  8
DEFPOINTS
 62
     0
 48
20.0
100
AcDbPoint
 10
1944.515739360596
 20
4030.798772703026
 30
0.0
  0
POINT
  5
A901
330
A862
100
AcDbEntity
  8
DEFPOINTS
 62
     0
 48
20.0
100
AcDbPoint
 10
1944.515739360596
 20
4187.64623463741
 30
0.0
  0
ENDBLK
  5
A86D
330
A862
100
AcDbEntity
  8
0
 48
20.0
100
AcDbBlockEnd
  0
BLOCK
  5
A87A
330
A86E
100
AcDbEntity
  8
0
 48
20.0
100
AcDbBlockBegin
  2
*D37
 70
     1
 10
0.0
 20
0.0
 30
0.0
  3
*D37
  1

  0
LINE
  5
A902
330
A86E
100
AcDbEntity
  8
寸法引出
 48
20.0
370
    -2
100
AcDbLine
 10
1692.515739360597
 20
4045.798772703027
 30
0.0
 11
1692.515739360597
 21
4195.14623463741
 31
0.0
  0
LINE
  5
A903
330
A86E
100
AcDbEntity
  8
寸法引出
 48
20.0
370
    -2
100
AcDbLine
 10
1627.515739360597
 20
4045.798772703027
 30
0.0
 11
1627.515739360597
 21
4195.14623463741
 31
0.0
  0
LINE
  5
A904
330
A86E
100
AcDbEntity
  8
寸法引出
 48
20.0
370
    -2
100
AcDbLine
 10
1715.015739360597
 20
4187.64623463741
 30
0.0
 11
1737.515739360597
 21
4187.64623463741
 31
0.0
  0
LINE
  5
A905
330
A86E
100
AcDbEntity
  8
寸法引出
 48
20.0
370
    -2
100
AcDbLine
 10
1605.015739360597
 20
4187.64623463741
 30
0.0
 11
1582.515739360597
 21
4187.64623463741
 31
0.0
  0
MTEXT
  5
A906
330
A86E
100
AcDbEntity
  8
寸法引出
 48
20.0
100
AcDbMText
 10
1638.110619449495
 20
4217.858381241376
 30
0.0
 40
30.0
 41
0.0
 71
     5
 72
     1
  1
\A1;65
  7
SANWA
 73
     1
 44
1.0
1001
ACAD
1000
MTEXTBEGIN
1070
    73
1070
     1
1070
    44
1040
1.0
1070
    74
1070
     0
1000
MTEXTEND
  0
LINE
  5
A907
330
A86E
100
AcDbEntity
  8
寸法引出
 48
20.0
370
    -2
100
AcDbLine
 10
1692.515739360597
 20
4187.64623463741
 30
0.0
 11
1627.515739360597
 21
4187.64623463741
 31
0.0
  0
SOLID
  5
A908
330
A86E
100
AcDbEntity
  8
寸法引出
 48
20.0
100
AcDbTrace
 10
1715.015739360597
 20
4191.39623463741
 30
0.0
 11
1715.015739360597
 21
4183.89623463741
 31
0.0
 12
1692.515739360597
 22
4187.64623463741
 32
0.0
 13
1692.515739360597
 23
4187.64623463741
 33
0.0
  0
SOLID
  5
A909
330
A86E
100
AcDbEntity
  8
寸法引出
 48
20.0
100
AcDbTrace
 10
1605.015739360597
 20
4191.39623463741
 30
0.0
 11
1605.015739360597
 21
4183.89623463741
 31
0.0
 12
1627.515739360597
 22
4187.64623463741
 32
0.0
 13
1627.515739360597
 23
4187.64623463741
 33
0.0
  0
POINT
  5
A90A
330
A86E
100
AcDbEntity
  8
DEFPOINTS
 62
     0
 48
20.0
100
AcDbPoint
 10
1692.515739360597
 20
4030.798772703026
 30
0.0
  0
POINT
  5
A90B
330
A86E
100
AcDbEntity
  8
DEFPOINTS
 62
     0
 48
20.0
100
AcDbPoint
 10
1627.515739360597
 20
4030.798772703026
 30
0.0
  0
POINT
  5
A90C
330
A86E
100
AcDbEntity
  8
DEFPOINTS
 62
     0
 48
20.0
100
AcDbPoint
 10
1627.515739360597
 20
4187.64623463741
 30
0.0
  0
ENDBLK
  5
A87B
330
A86E
100
AcDbEntity
  8
0
 48
20.0
100
AcDbBlockEnd
  0
BLOCK
  5
A886
330
A87C
100
AcDbEntity
  8
0
 48
20.0
100
AcDbBlockBegin
  2
*D38
 70
     1
 10
0.0
 20
0.0
 30
0.0
  3
*D38
  1

  0
LINE
  5
A90D
330
A87C
100
AcDbEntity
  8
寸法引出
 48
20.0
370
    -2
100
AcDbLine
 10
1583.515739360597
 20
4630.798772703026
 30
0.0
 11
1483.347045133653
 21
4630.798772703026
 31
0.0
  0
LINE
  5
A90E
330
A87C
100
AcDbEntity
  8
寸法引出
 48
20.0
370
    -2
100
AcDbLine
 10
1612.515739360597
 20
4030.798772703026
 30
0.0
 11
1483.347045133653
 21
4030.798772703026
 31
0.0
  0
LINE
  5
A90F
330
A87C
100
AcDbEntity
  8
寸法引出
 48
20.0
370
    -2
100
AcDbLine
 10
1490.847045133653
 20
4608.298772703027
 30
0.0
 11
1490.847045133653
 21
4053.298772703026
 31
0.0
  0
SOLID
  5
A910
330
A87C
100
AcDbEntity
  8
寸法引出
 48
20.0
100
AcDbTrace
 10
1487.097045133653
 20
4608.298772703027
 30
0.0
 11
1494.597045133654
 21
4608.298772703027
 31
0.0
 12
1490.847045133653
 22
4630.798772703026
 32
0.0
 13
1490.847045133653
 23
4630.798772703026
 33
0.0
  0
SOLID
  5
A911
330
A87C
100
AcDbEntity
  8
寸法引出
 48
20.0
100
AcDbTrace
 10
1487.097045133653
 20
4053.298772703026
 30
0.0
 11
1494.597045133653
 21
4053.298772703026
 31
0.0
 12
1490.847045133653
 22
4030.798772703026
 32
0.0
 13
1490.847045133653
 23
4030.798772703026
 33
0.0
  0
MTEXT
  5
A912
330
A87C
100
AcDbEntity
  8
寸法引出
 48
20.0
100
AcDbMText
 10
1460.847045133653
 20
4330.798772703026
 30
0.0
 40
30.0
 41
0.0
 71
     5
 72
     1
  1
\A1;600
  7
SANWA
 11
0.0000000000000001
 21
1.0
 31
0.0
 73
     1
 44
1.0
1001
ACAD
1000
MTEXTBEGIN
1070
    73
1070
     1
1070
    44
1040
1.0
1070
    74
1070
     0
1000
MTEXTEND
  0
POINT
  5
A913
330
A87C
100
AcDbEntity
  8
DEFPOINTS
 62
     0
 48
20.0
100
AcDbPoint
 10
1598.515739360597
 20
4630.798772703026
 30
0.0
  0
POINT
  5
A914
330
A87C
100
AcDbEntity
  8
DEFPOINTS
 62
     0
 48
20.0
100
AcDbPoint
 10
1627.515739360597
 20
4030.798772703026
 30
0.0
  0
POINT
  5
A915
330
A87C
100
AcDbEntity
  8
DEFPOINTS
 62
     0
 48
20.0
100
AcDbPoint
 10
1490.847045133653
 20
4030.798772703026
 30
0.0
  0
ENDBLK
  5
A887
330
A87C
100
AcDbEntity
  8
0
 48
20.0
100
AcDbBlockEnd
  0
BLOCK
  5
A928
330
A91E
100
AcDbEntity
  8
0
 48
20.0
100
AcDbBlockBegin
  2
*D39
 70
     1
 10
0.0
 20
0.0
 30
0.0
  3
*D39
  1

  0
LINE
  5
A91F
330
A91E
100
AcDbEntity
  8
0
 48
20.0
370
    -2
100
AcDbLine
 10
1696.515739360597
 20
3945.798772703027
 30
0.0
 11
1696.515739360597
 21
4106.904867498743
 31
0.0
  0
LINE
  5
A920
330
A91E
100
AcDbEntity
  8
0
 48
20.0
370
    -2
100
AcDbLine
 10
1940.515739360597
 20
3945.798772703027
 30
0.0
 11
1940.515739360597
 21
4106.904867498743
 31
0.0
  0
LINE
  5
A921
330
A91E
100
AcDbEntity
  8
0
 48
20.0
370
    -2
100
AcDbLine
 10
1719.015739360597
 20
4099.404867498742
 30
0.0
 11
1918.015739360597
 21
4099.404867498742
 31
0.0
  0
SOLID
  5
A922
330
A91E
100
AcDbEntity
  8
0
 48
20.0
100
AcDbTrace
 10
1719.015739360597
 20
4103.154867498743
 30
0.0
 11
1719.015739360597
 21
4095.654867498742
 31
0.0
 12
1696.515739360597
 22
4099.404867498742
 32
0.0
 13
1696.515739360597
 23
4099.404867498742
 33
0.0
  0
SOLID
  5
A923
330
A91E
100
AcDbEntity
  8
0
 48
20.0
100
AcDbTrace
 10
1918.015739360597
 20
4103.154867498743
 30
0.0
 11
1918.015739360597
 21
4095.654867498742
 31
0.0
 12
1940.515739360597
 22
4099.404867498742
 32
0.0
 13
1940.515739360597
 23
4099.404867498742
 33
0.0
  0
MTEXT
  5
A924
330
A91E
100
AcDbEntity
  8
0
 48
20.0
100
AcDbMText
 10
1818.515739360597
 20
4129.404867498743
 30
0.0
 40
30.0
 41
0.0
 71
     5
 72
     1
  1
\A1;244
  7
SANWA
 73
     1
 44
1.0
1001
ACAD
1000
MTEXTBEGIN
1070
    73
1070
     1
1070
    44
1040
1.0
1070
    74
1070
     0
1000
MTEXTEND
  0
POINT
  5
A925
330
A91E
100
AcDbEntity
  8
DEFPOINTS
 62
     0
 48
20.0
100
AcDbPoint
 10
1696.515739360597
 20
3930.798772703027
 30
0.0
  0
POINT
  5
A926
330
A91E
100
AcDbEntity
  8
DEFPOINTS
 62
     0
 48
20.0
100
AcDbPoint
 10
1940.515739360597
 20
3930.798772703027
 30
0.0
  0
POINT
  5
A927
330
A91E
100
AcDbEntity
  8
DEFPOINTS
 62
     0
 48
20.0
100
AcDbPoint
 10
1940.515739360597
 20
4099.404867498742
 30
0.0
  0
ENDBLK
  5
A929
330
A91E
100
AcDbEntity
  8
0
 48
20.0
100
AcDbBlockEnd
  0
BLOCK
  5
A935
330
A92B
100
AcDbEntity
  8
0
 48
20.0
100
AcDbBlockBegin
  2
*D40
 70
     1
 10
0.0
 20
0.0
 30
0.0
  3
*D40
  1

  0
LINE
  5
A92C
330
A92B
100
AcDbEntity
  8
0
 48
20.0
370
    -2
100
AcDbLine
 10
1700.515739360598
 20
3845.798772703027
 30
0.0
 11
1700.515739360598
 21
3980.442932082757
 31
0.0
  0
LINE
  5
A92D
330
A92B
100
AcDbEntity
  8
0
 48
20.0
370
    -2
100
AcDbLine
 10
1936.515739360597
 20
3845.798772703027
 30
0.0
 11
1936.515739360597
 21
3980.442932082757
 31
0.0
  0
LINE
  5
A92E
330
A92B
100
AcDbEntity
  8
0
 48
20.0
370
    -2
100
AcDbLine
 10
1723.015739360597
 20
3972.942932082757
 30
0.0
 11
1914.015739360596
 21
3972.942932082757
 31
0.0
  0
SOLID
  5
A92F
330
A92B
100
AcDbEntity
  8
0
 48
20.0
100
AcDbTrace
 10
1723.015739360597
 20
3976.692932082757
 30
0.0
 11
1723.015739360597
 21
3969.192932082757
 31
0.0
 12
1700.515739360598
 22
3972.942932082757
 32
0.0
 13
1700.515739360598
 23
3972.942932082757
 33
0.0
  0
SOLID
  5
A930
330
A92B
100
AcDbEntity
  8
0
 48
20.0
100
AcDbTrace
 10
1914.015739360596
 20
3976.692932082757
 30
0.0
 11
1914.015739360596
 21
3969.192932082757
 31
0.0
 12
1936.515739360597
 22
3972.942932082757
 32
0.0
 13
1936.515739360597
 23
3972.942932082757
 33
0.0
  0
MTEXT
  5
A931
330
A92B
100
AcDbEntity
  8
0
 48
20.0
100
AcDbMText
 10
1818.515739360597
 20
4002.942932082756
 30
0.0
 40
30.0
 41
0.0
 71
     5
 72
     1
  1
\A1;236
  7
SANWA
 73
     1
 44
1.0
1001
ACAD
1000
MTEXTBEGIN
1070
    73
1070
     1
1070
    44
1040
1.0
1070
    74
1070
     0
1000
MTEXTEND
  0
POINT
  5
A932
330
A92B
100
AcDbEntity
  8
DEFPOINTS
 62
     0
 48
20.0
100
AcDbPoint
 10
1700.515739360598
 20
3830.798772703028
 30
0.0
  0
POINT
  5
A933
330
A92B
100
AcDbEntity
  8
DEFPOINTS
 62
     0
 48
20.0
100
AcDbPoint
 10
1936.515739360597
 20
3830.798772703026
 30
0.0
  0
POINT
  5
A934
330
A92B
100
AcDbEntity
  8
DEFPOINTS
 62
     0
 48
20.0
100
AcDbPoint
 10
1936.515739360597
 20
3972.942932082757
 30
0.0
  0
ENDBLK
  5
A936
330
A92B
100
AcDbEntity
  8
0
 48
20.0
100
AcDbBlockEnd
  0
BLOCK
  5
A942
330
A938
100
AcDbEntity
  8
0
 48
20.0
100
AcDbBlockBegin
  2
*D41
 70
     1
 10
0.0
 20
0.0
 30
0.0
  3
*D41
  1

  0
LINE
  5
A939
330
A938
100
AcDbEntity
  8
0
 48
20.0
370
    -2
100
AcDbLine
 10
1704.515739360598
 20
3745.798772703027
 30
0.0
 11
1704.515739360598
 21
3883.620506693129
 31
0.0
  0
LINE
  5
A93A
330
A938
100
AcDbEntity
  8
0
 48
20.0
370
    -2
100
AcDbLine
 10
1932.515739360597
 20
3745.798772703027
 30
0.0
 11
1932.515739360597
 21
3883.620506693129
 31
0.0
  0
LINE
  5
A93B
330
A938
100
AcDbEntity
  8
0
 48
20.0
370
    -2
100
AcDbLine
 10
1727.015739360598
 20
3876.120506693129
 30
0.0
 11
1910.015739360597
 21
3876.120506693129
 31
0.0
  0
SOLID
  5
A93C
330
A938
100
AcDbEntity
  8
0
 48
20.0
100
AcDbTrace
 10
1727.015739360598
 20
3879.870506693129
 30
0.0
 11
1727.015739360598
 21
3872.370506693129
 31
0.0
 12
1704.515739360598
 22
3876.120506693129
 32
0.0
 13
1704.515739360598
 23
3876.120506693129
 33
0.0
  0
SOLID
  5
A93D
330
A938
100
AcDbEntity
  8
0
 48
20.0
100
AcDbTrace
 10
1910.015739360597
 20
3879.870506693129
 30
0.0
 11
1910.015739360597
 21
3872.370506693129
 31
0.0
 12
1932.515739360597
 22
3876.120506693129
 32
0.0
 13
1932.515739360597
 23
3876.120506693129
 33
0.0
  0
MTEXT
  5
A93E
330
A938
100
AcDbEntity
  8
0
 48
20.0
100
AcDbMText
 10
1818.515739360597
 20
3906.120506693129
 30
0.0
 40
30.0
 41
0.0
 71
     5
 72
     1
  1
\A1;228
  7
SANWA
 73
     1
 44
1.0
1001
ACAD
1000
MTEXTBEGIN
1070
    73
1070
     1
1070
    44
1040
1.0
1070
    74
1070
     0
1000
MTEXTEND
  0
POINT
  5
A93F
330
A938
100
AcDbEntity
  8
DEFPOINTS
 62
     0
 48
20.0
100
AcDbPoint
 10
1704.515739360598
 20
3730.798772703027
 30
0.0
  0
POINT
  5
A940
330
A938
100
AcDbEntity
  8
DEFPOINTS
 62
     0
 48
20.0
100
AcDbPoint
 10
1932.515739360597
 20
3730.798772703027
 30
0.0
  0
POINT
  5
A941
330
A938
100
AcDbEntity
  8
DEFPOINTS
 62
     0
 48
20.0
100
AcDbPoint
 10
1932.515739360597
 20
3876.120506693129
 30
0.0
  0
ENDBLK
  5
A943
330
A938
100
AcDbEntity
  8
0
 48
20.0
100
AcDbBlockEnd
  0
BLOCK
  5
A94F
330
A945
100
AcDbEntity
  8
0
 48
20.0
100
AcDbBlockBegin
  2
*D42
 70
     1
 10
0.0
 20
0.0
 30
0.0
  3
*D42
  1

  0
LINE
  5
A946
330
A945
100
AcDbEntity
  8
0
 48
20.0
370
    -2
100
AcDbLine
 10
1708.515739360597
 20
3645.798772703027
 30
0.0
 11
1708.515739360597
 21
3780.870186381009
 31
0.0
  0
LINE
  5
A947
330
A945
100
AcDbEntity
  8
0
 48
20.0
370
    -2
100
AcDbLine
 10
1928.515739360596
 20
3645.798772703027
 30
0.0
 11
1928.515739360596
 21
3780.870186381009
 31
0.0
  0
LINE
  5
A948
330
A945
100
AcDbEntity
  8
0
 48
20.0
370
    -2
100
AcDbLine
 10
1731.015739360598
 20
3773.370186381009
 30
0.0
 11
1906.015739360596
 21
3773.370186381009
 31
0.0
  0
SOLID
  5
A949
330
A945
100
AcDbEntity
  8
0
 48
20.0
100
AcDbTrace
 10
1731.015739360598
 20
3777.120186381009
 30
0.0
 11
1731.015739360598
 21
3769.62018638101
 31
0.0
 12
1708.515739360597
 22
3773.370186381009
 32
0.0
 13
1708.515739360597
 23
3773.370186381009
 33
0.0
  0
SOLID
  5
A94A
330
A945
100
AcDbEntity
  8
0
 48
20.0
100
AcDbTrace
 10
1906.015739360596
 20
3777.120186381009
 30
0.0
 11
1906.015739360596
 21
3769.62018638101
 31
0.0
 12
1928.515739360596
 22
3773.370186381009
 32
0.0
 13
1928.515739360596
 23
3773.370186381009
 33
0.0
  0
MTEXT
  5
A94B
330
A945
100
AcDbEntity
  8
0
 48
20.0
100
AcDbMText
 10
1818.515739360597
 20
3803.370186381009
 30
0.0
 40
30.0
 41
0.0
 71
     5
 72
     1
  1
\A1;220
  7
SANWA
 73
     1
 44
1.0
1001
ACAD
1000
MTEXTBEGIN
1070
    73
1070
     1
1070
    44
1040
1.0
1070
    74
1070
     0
1000
MTEXTEND
  0
POINT
  5
A94C
330
A945
100
AcDbEntity
  8
DEFPOINTS
 62
     0
 48
20.0
100
AcDbPoint
 10
1708.515739360597
 20
3630.798772703027
 30
0.0
  0
POINT
  5
A94D
330
A945
100
AcDbEntity
  8
DEFPOINTS
 62
     0
 48
20.0
100
AcDbPoint
 10
1928.515739360596
 20
3630.798772703027
 30
0.0
  0
POINT
  5
A94E
330
A945
100
AcDbEntity
  8
DEFPOINTS
 62
     0
 48
20.0
100
AcDbPoint
 10
1928.515739360596
 20
3773.370186381009
 30
0.0
  0
ENDBLK
  5
A950
330
A945
100
AcDbEntity
  8
0
 48
20.0
100
AcDbBlockEnd
  0
BLOCK
  5
A95C
330
A952
100
AcDbEntity
  8
0
 48
20.0
100
AcDbBlockBegin
  2
*D43
 70
     1
 10
0.0
 20
0.0
 30
0.0
  3
*D43
  1

  0
LINE
  5
A953
330
A952
100
AcDbEntity
  8
0
 48
20.0
370
    -2
100
AcDbLine
 10
1712.515739360598
 20
3545.798772703027
 30
0.0
 11
1712.515739360598
 21
3680.095831043053
 31
0.0
  0
LINE
  5
A954
330
A952
100
AcDbEntity
  8
0
 48
20.0
370
    -2
100
AcDbLine
 10
1924.515739360596
 20
3545.798772703026
 30
0.0
 11
1924.515739360596
 21
3680.095831043053
 31
0.0
  0
LINE
  5
A955
330
A952
100
AcDbEntity
  8
0
 48
20.0
370
    -2
100
AcDbLine
 10
1735.015739360598
 20
3672.595831043053
 30
0.0
 11
1902.015739360596
 21
3672.595831043053
 31
0.0
  0
SOLID
  5
A956
330
A952
100
AcDbEntity
  8
0
 48
20.0
100
AcDbTrace
 10
1735.015739360598
 20
3676.345831043053
 30
0.0
 11
1735.015739360598
 21
3668.845831043053
 31
0.0
 12
1712.515739360598
 22
3672.595831043053
 32
0.0
 13
1712.515739360598
 23
3672.595831043053
 33
0.0
  0
SOLID
  5
A957
330
A952
100
AcDbEntity
  8
0
 48
20.0
100
AcDbTrace
 10
1902.015739360596
 20
3676.345831043053
 30
0.0
 11
1902.015739360596
 21
3668.845831043053
 31
0.0
 12
1924.515739360596
 22
3672.595831043053
 32
0.0
 13
1924.515739360596
 23
3672.595831043053
 33
0.0
  0
MTEXT
  5
A958
330
A952
100
AcDbEntity
  8
0
 48
20.0
100
AcDbMText
 10
1818.515739360597
 20
3702.595831043053
 30
0.0
 40
30.0
 41
0.0
 71
     5
 72
     1
  1
\A1;212
  7
SANWA
 73
     1
 44
1.0
1001
ACAD
1000
MTEXTBEGIN
1070
    73
1070
     1
1070
    44
1040
1.0
1070
    74
1070
     0
1000
MTEXTEND
  0
POINT
  5
A959
330
A952
100
AcDbEntity
  8
DEFPOINTS
 62
     0
 48
20.0
100
AcDbPoint
 10
1712.515739360598
 20
3530.798772703028
 30
0.0
  0
POINT
  5
A95A
330
A952
100
AcDbEntity
  8
DEFPOINTS
 62
     0
 48
20.0
100
AcDbPoint
 10
1924.515739360596
 20
3530.798772703027
 30
0.0
  0
POINT
  5
A95B
330
A952
100
AcDbEntity
  8
DEFPOINTS
 62
     0
 48
20.0
100
AcDbPoint
 10
1924.515739360596
 20
3672.595831043053
 30
0.0
  0
ENDBLK
  5
A95D
330
A952
100
AcDbEntity
  8
0
 48
20.0
100
AcDbBlockEnd
  0
BLOCK
  5
A969
330
A95F
100
AcDbEntity
  8
0
 48
20.0
100
AcDbBlockBegin
  2
*D44
 70
     1
 10
0.0
 20
0.0
 30
0.0
  3
*D44
  1

  0
LINE
  5
A960
330
A95F
100
AcDbEntity
  8
0
 48
20.0
370
    -2
100
AcDbLine
 10
1716.515739360598
 20
3445.798772703027
 30
0.0
 11
1716.515739360598
 21
3579.321475705098
 31
0.0
  0
LINE
  5
A961
330
A95F
100
AcDbEntity
  8
0
 48
20.0
370
    -2
100
AcDbLine
 10
1920.515739360596
 20
3445.798772703027
 30
0.0
 11
1920.515739360596
 21
3579.321475705098
 31
0.0
  0
LINE
  5
A962
330
A95F
100
AcDbEntity
  8
0
 48
20.0
370
    -2
100
AcDbLine
 10
1739.015739360598
 20
3571.821475705097
 30
0.0
 11
1898.015739360596
 21
3571.821475705097
 31
0.0
  0
SOLID
  5
A963
330
A95F
100
AcDbEntity
  8
0
 48
20.0
100
AcDbTrace
 10
1739.015739360598
 20
3575.571475705098
 30
0.0
 11
1739.015739360598
 21
3568.071475705097
 31
0.0
 12
1716.515739360598
 22
3571.821475705097
 32
0.0
 13
1716.515739360598
 23
3571.821475705097
 33
0.0
  0
SOLID
  5
A964
330
A95F
100
AcDbEntity
  8
0
 48
20.0
100
AcDbTrace
 10
1898.015739360596
 20
3575.571475705098
 30
0.0
 11
1898.015739360596
 21
3568.071475705097
 31
0.0
 12
1920.515739360596
 22
3571.821475705097
 32
0.0
 13
1920.515739360596
 23
3571.821475705097
 33
0.0
  0
MTEXT
  5
A965
330
A95F
100
AcDbEntity
  8
0
 48
20.0
100
AcDbMText
 10
1818.515739360597
 20
3601.821475705098
 30
0.0
 40
30.0
 41
0.0
 71
     5
 72
     1
  1
\A1;204
  7
SANWA
 73
     1
 44
1.0
1001
ACAD
1000
MTEXTBEGIN
1070
    73
1070
     1
1070
    44
1040
1.0
1070
    74
1070
     0
1000
MTEXTEND
  0
POINT
  5
A966
330
A95F
100
AcDbEntity
  8
DEFPOINTS
 62
     0
 48
20.0
100
AcDbPoint
 10
1716.515739360598
 20
3430.798772703027
 30
0.0
  0
POINT
  5
A967
330
A95F
100
AcDbEntity
  8
DEFPOINTS
 62
     0
 48
20.0
100
AcDbPoint
 10
1920.515739360596
 20
3430.798772703027
 30
0.0
  0
POINT
  5
A968
330
A95F
100
AcDbEntity
  8
DEFPOINTS
 62
     0
 48
20.0
100
AcDbPoint
 10
1920.515739360596
 20
3571.821475705097
 30
0.0
  0
ENDBLK
  5
A96A
330
A95F
100
AcDbEntity
  8
0
 48
20.0
100
AcDbBlockEnd
  0
BLOCK
  5
B031
330
B027
100
AcDbEntity
  8
0
 48
20.0
100
AcDbBlockBegin
  2
*D45
 70
     1
 10
0.0
 20
0.0
 30
0.0
  3
*D45
  1

  0
LINE
  5
B116
330
B027
100
AcDbEntity
  8
寸法引出
 48
20.0
370
    -2
100
AcDbLine
 10
2605.148907151719
 20
1462.298818626434
 30
0.0
 11
2605.148907151719
 21
1565.864806627831
 31
0.0
  0
LINE
  5
B117
330
B027
100
AcDbEntity
  8
寸法引出
 48
20.0
370
    -2
100
AcDbLine
 10
4603.148907151719
 20
1462.298818626434
 30
0.0
 11
4603.148907151719
 21
1565.864806627831
 31
0.0
  0
LINE
  5
B118
330
B027
100
AcDbEntity
  8
寸法引出
 48
20.0
370
    -2
100
AcDbLine
 10
2627.648907151719
 20
1558.364806627831
 30
0.0
 11
4580.648907151719
 21
1558.364806627831
 31
0.0
  0
SOLID
  5
B119
330
B027
100
AcDbEntity
  8
寸法引出
 48
20.0
100
AcDbTrace
 10
2627.648907151719
 20
1562.114806627831
 30
0.0
 11
2627.648907151719
 21
1554.614806627831
 31
0.0
 12
2605.148907151719
 22
1558.364806627831
 32
0.0
 13
2605.148907151719
 23
1558.364806627831
 33
0.0
  0
SOLID
  5
B11A
330
B027
100
AcDbEntity
  8
寸法引出
 48
20.0
100
AcDbTrace
 10
4580.648907151719
 20
1562.114806627831
 30
0.0
 11
4580.648907151719
 21
1554.614806627831
 31
0.0
 12
4603.148907151719
 22
1558.364806627831
 32
0.0
 13
4603.148907151719
 23
1558.364806627831
 33
0.0
  0
MTEXT
  5
B11B
330
B027
100
AcDbEntity
  8
寸法引出
 48
20.0
100
AcDbMText
 10
3604.148907151719
 20
1588.364806627831
 30
0.0
 40
30.0
 41
0.0
 71
     5
 72
     1
  1
\A1;1998
  7
SANWA
 73
     1
 44
1.0
1001
ACAD
1000
MTEXTBEGIN
1070
    73
1070
     1
1070
    44
1040
1.0
1070
    74
1070
     0
1000
MTEXTEND
  0
POINT
  5
B11C
330
B027
100
AcDbEntity
  8
DEFPOINTS
 62
     0
 48
20.0
100
AcDbPoint
 10
2605.148907151719
 20
1447.298818626434
 30
0.0
  0
POINT
  5
B11D
330
B027
100
AcDbEntity
  8
DEFPOINTS
 62
     0
 48
20.0
100
AcDbPoint
 10
4603.148907151719
 20
1447.298818626434
 30
0.0
  0
POINT
  5
B11E
330
B027
100
AcDbEntity
  8
DEFPOINTS
 62
     0
 48
20.0
100
AcDbPoint
 10
4603.148907151719
 20
1558.364806627831
 30
0.0
  0
ENDBLK
  5
B032
330
B027
100
AcDbEntity
  8
0
 48
20.0
100
AcDbBlockEnd
  0
BLOCK
  5
B03D
330
B033
100
AcDbEntity
  8
0
 48
20.0
100
AcDbBlockBegin
  2
*D46
 70
     1
 10
0.0
 20
0.0
 30
0.0
  3
*D46
  1

  0
LINE
  5
B11F
330
B033
100
AcDbEntity
  8
寸法引出
 48
20.0
370
    -2
100
AcDbLine
 10
2590.148907151719
 20
1447.298818626434
 30
0.0
 11
2483.763060022881
 21
1447.298818626434
 31
0.0
  0
LINE
  5
B120
330
B033
100
AcDbEntity
  8
寸法引出
 48
20.0
370
    -2
100
AcDbLine
 10
2590.148907151719
 20
697.2988186264338
 30
0.0
 11
2483.763060022881
 21
697.2988186264338
 31
0.0
  0
LINE
  5
B121
330
B033
100
AcDbEntity
  8
寸法引出
 48
20.0
370
    -2
100
AcDbLine
 10
2491.263060022881
 20
1424.798818626434
 30
0.0
 11
2491.263060022881
 21
719.7988186264337
 31
0.0
  0
SOLID
  5
B122
330
B033
100
AcDbEntity
  8
寸法引出
 48
20.0
100
AcDbTrace
 10
2487.513060022881
 20
1424.798818626434
 30
0.0
 11
2495.013060022881
 21
1424.798818626434
 31
0.0
 12
2491.263060022881
 22
1447.298818626434
 32
0.0
 13
2491.263060022881
 23
1447.298818626434
 33
0.0
  0
SOLID
  5
B123
330
B033
100
AcDbEntity
  8
寸法引出
 48
20.0
100
AcDbTrace
 10
2487.513060022881
 20
719.7988186264337
 30
0.0
 11
2495.013060022881
 21
719.7988186264337
 31
0.0
 12
2491.263060022881
 22
697.2988186264338
 32
0.0
 13
2491.263060022881
 23
697.2988186264338
 33
0.0
  0
MTEXT
  5
B124
330
B033
100
AcDbEntity
  8
寸法引出
 48
20.0
100
AcDbMText
 10
2461.263060022881
 20
1072.298818626434
 30
0.0
 40
30.0
 41
0.0
 71
     5
 72
     1
  1
\A1;750
  7
SANWA
 11
0.0000000000000001
 21
1.0
 31
0.0
 73
     1
 44
1.0
1001
ACAD
1000
MTEXTBEGIN
1070
    73
1070
     1
1070
    44
1040
1.0
1070
    74
1070
     0
1000
MTEXTEND
  0
POINT
  5
B125
330
B033
100
AcDbEntity
  8
DEFPOINTS
 62
     0
 48
20.0
100
AcDbPoint
 10
2605.148907151719
 20
1447.298818626434
 30
0.0
  0
POINT
  5
B126
330
B033
100
AcDbEntity
  8
DEFPOINTS
 62
     0
 48
20.0
100
AcDbPoint
 10
2605.148907151719
 20
697.2988186264338
 30
0.0
  0
POINT
  5
B127
330
B033
100
AcDbEntity
  8
DEFPOINTS
 62
     0
 48
20.0
100
AcDbPoint
 10
2491.263060022881
 20
697.2988186264338
 30
0.0
  0
ENDBLK
  5
B03E
330
B033
100
AcDbEntity
  8
0
 48
20.0
100
AcDbBlockEnd
  0
BLOCK
  5
B049
330
B03F
100
AcDbEntity
  8
0
 48
20.0
100
AcDbBlockBegin
  2
*D47
 70
     1
 10
0.0
 20
0.0
 30
0.0
  3
*D47
  1

  0
LINE
  5
B1C0
330
B03F
100
AcDbEntity
  8
寸法引出
 48
20.0
370
    -2
100
AcDbLine
 10
1598.515739360597
 20
1457.798818626434
 30
0.0
 11
1598.515739360597
 21
1565.864806627831
 31
0.0
  0
LINE
  5
B1C1
330
B03F
100
AcDbEntity
  8
寸法引出
 48
20.0
370
    -2
100
AcDbLine
 10
2038.515739360597
 20
1457.798818626433
 30
0.0
 11
2038.515739360597
 21
1565.864806627831
 31
0.0
  0
LINE
  5
B1C2
330
B03F
100
AcDbEntity
  8
寸法引出
 48
20.0
370
    -2
100
AcDbLine
 10
1621.015739360597
 20
1558.364806627831
 30
0.0
 11
2016.015739360597
 21
1558.364806627831
 31
0.0
  0
SOLID
  5
B1C3
330
B03F
100
AcDbEntity
  8
寸法引出
 48
20.0
100
AcDbTrace
 10
1621.015739360597
 20
1562.114806627831
 30
0.0
 11
1621.015739360597
 21
1554.614806627831
 31
0.0
 12
1598.515739360597
 22
1558.364806627831
 32
0.0
 13
1598.515739360597
 23
1558.364806627831
 33
0.0
  0
SOLID
  5
B1C4
330
B03F
100
AcDbEntity
  8
寸法引出
 48
20.0
100
AcDbTrace
 10
2016.015739360597
 20
1562.114806627831
 30
0.0
 11
2016.015739360597
 21
1554.614806627831
 31
0.0
 12
2038.515739360597
 22
1558.364806627831
 32
0.0
 13
2038.515739360597
 23
1558.364806627831
 33
0.0
  0
MTEXT
  5
B1C5
330
B03F
100
AcDbEntity
  8
寸法引出
 48
20.0
100
AcDbMText
 10
1818.515739360597
 20
1588.364806627831
 30
0.0
 40
30.0
 41
0.0
 71
     5
 72
     1
  1
\A1;440
  7
SANWA
 73
     1
 44
1.0
1001
ACAD
1000
MTEXTBEGIN
1070
    73
1070
     1
1070
    44
1040
1.0
1070
    74
1070
     0
1000
MTEXTEND
  0
POINT
  5
B1C6
330
B03F
100
AcDbEntity
  8
DEFPOINTS
 62
     0
 48
20.0
100
AcDbPoint
 10
1598.515739360597
 20
1442.798818626434
 30
0.0
  0
POINT
  5
B1C7
330
B03F
100
AcDbEntity
  8
DEFPOINTS
 62
     0
 48
20.0
100
AcDbPoint
 10
2038.515739360597
 20
1442.798818626433
 30
0.0
  0
POINT
  5
B1C8
330
B03F
100
AcDbEntity
  8
DEFPOINTS
 62
     0
 48
20.0
100
AcDbPoint
 10
2038.515739360597
 20
1558.364806627831
 30
0.0
  0
ENDBLK
  5
B04A
330
B03F
100
AcDbEntity
  8
0
 48
20.0
100
AcDbBlockEnd
  0
BLOCK
  5
B0F5
330
B0EB
100
AcDbEntity
  8
0
 48
20.0
100
AcDbBlockBegin
  2
*D48
 70
     1
 10
0.0
 20
0.0
 30
0.0
  3
*D48
  1

  0
LINE
  5
B1C9
330
B0EB
100
AcDbEntity
  8
寸法引出
 48
20.0
370
    -2
100
AcDbLine
 10
1588.015739360597
 20
1447.298818626434
 30
0.0
 11
1469.837514860237
 21
1447.298818626434
 31
0.0
  0
LINE
  5
B1CA
330
B0EB
100
AcDbEntity
  8
寸法引出
 48
20.0
370
    -2
100
AcDbLine
 10
1635.89907269393
 20
697.2988186264339
 30
0.0
 11
1469.837514860237
 21
697.2988186264339
 31
0.0
  0
LINE
  5
B1CB
330
B0EB
100
AcDbEntity
  8
寸法引出
 48
20.0
370
    -2
100
AcDbLine
 10
1477.337514860237
 20
1424.798818626434
 30
0.0
 11
1477.337514860237
 21
719.798818626434
 31
0.0
  0
SOLID
  5
B1CC
330
B0EB
100
AcDbEntity
  8
寸法引出
 48
20.0
100
AcDbTrace
 10
1473.587514860237
 20
1424.798818626434
 30
0.0
 11
1481.087514860237
 21
1424.798818626434
 31
0.0
 12
1477.337514860237
 22
1447.298818626434
 32
0.0
 13
1477.337514860237
 23
1447.298818626434
 33
0.0
  0
SOLID
  5
B1CD
330
B0EB
100
AcDbEntity
  8
寸法引出
 48
20.0
100
AcDbTrace
 10
1473.587514860237
 20
719.798818626434
 30
0.0
 11
1481.087514860237
 21
719.798818626434
 31
0.0
 12
1477.337514860237
 22
697.2988186264339
 32
0.0
 13
1477.337514860237
 23
697.2988186264339
 33
0.0
  0
MTEXT
  5
B1CE
330
B0EB
100
AcDbEntity
  8
寸法引出
 48
20.0
100
AcDbMText
 10
1447.337514860237
 20
1072.298818626434
 30
0.0
 40
30.0
 41
0.0
 71
     5
 72
     1
  1
\A1;750
  7
SANWA
 11
0.0000000000000001
 21
1.0
 31
0.0
 73
     1
 44
1.0
1001
ACAD
1000
MTEXTBEGIN
1070
    73
1070
     1
1070
    44
1040
1.0
1070
    74
1070
     0
1000
MTEXTEND
  0
POINT
  5
B1CF
330
B0EB
100
AcDbEntity
  8
DEFPOINTS
 62
     0
 48
20.0
100
AcDbPoint
 10
1603.015739360597
 20
1447.298818626434
 30
0.0
  0
POINT
  5
B1D0
330
B0EB
100
AcDbEntity
  8
DEFPOINTS
 62
     0
 48
20.0
100
AcDbPoint
 10
1650.89907269393
 20
697.2988186264339
 30
0.0
  0
POINT
  5
B1D1
330
B0EB
100
AcDbEntity
  8
DEFPOINTS
 62
     0
 48
20.0
100
AcDbPoint
 10
1477.337514860237
 20
697.2988186264339
 30
0.0
  0
ENDBLK
  5
B0F6
330
B0EB
100
AcDbEntity
  8
0
 48
20.0
100
AcDbBlockEnd
  0
BLOCK
  5
B2E5
330
B2E4
100
AcDbEntity
  8
0
 48
20.0
100
AcDbBlockBegin
  2
*D49
 70
     1
 10
0.0
 20
0.0
 30
0.0
  3
*D49
  1

  0
LINE
  5
B543
330
B2E4
100
AcDbEntity
  8
寸法引出
 48
20.0
370
    -2
100
AcDbLine
 10
4028.211387591882
 20
2192.286261462754
 30
0.0
 11
4137.410863600247
 21
2192.286261462754
 31
0.0
  0
LINE
  5
B544
330
B2E4
100
AcDbEntity
  8
寸法引出
 48
20.0
370
    -2
100
AcDbLine
 10
4028.211387591882
 20
1742.286261462754
 30
0.0
 11
4137.410863600245
 21
1742.286261462754
 31
0.0
  0
LINE
  5
B545
330
B2E4
100
AcDbEntity
  8
寸法引出
 48
20.0
370
    -2
100
AcDbLine
 10
4129.910863600247
 20
2169.786261462754
 30
0.0
 11
4129.910863600246
 21
1764.786261462754
 31
0.0
  0
SOLID
  5
B546
330
B2E4
100
AcDbEntity
  8
寸法引出
 48
20.0
100
AcDbTrace
 10
4126.160863600246
 20
2169.786261462754
 30
0.0
 11
4133.660863600247
 21
2169.786261462754
 31
0.0
 12
4129.910863600247
 22
2192.286261462754
 32
0.0
 13
4129.910863600247
 23
2192.286261462754
 33
0.0
  0
SOLID
  5
B547
330
B2E4
100
AcDbEntity
  8
寸法引出
 48
20.0
100
AcDbTrace
 10
4126.160863600246
 20
1764.786261462754
 30
0.0
 11
4133.660863600246
 21
1764.786261462754
 31
0.0
 12
4129.910863600246
 22
1742.286261462754
 32
0.0
 13
4129.910863600246
 23
1742.286261462754
 33
0.0
  0
MTEXT
  5
B548
330
B2E4
100
AcDbEntity
  8
寸法引出
 48
20.0
100
AcDbMText
 10
4099.910863600245
 20
1967.286261462754
 30
0.0
 40
30.0
 41
0.0
 71
     5
 72
     1
  1
\A1;450
  7
SANWA
 11
0.0000000000000001
 21
1.0
 31
0.0
 73
     1
 44
1.0
1001
ACAD
1000
MTEXTBEGIN
1070
    73
1070
     1
1070
    44
1040
1.0
1070
    74
1070
     0
1000
MTEXTEND
  0
POINT
  5
B549
330
B2E4
100
AcDbEntity
  8
DEFPOINTS
 62
     0
 48
20.0
100
AcDbPoint
 10
4013.211387591883
 20
2192.286261462754
 30
0.0
  0
POINT
  5
B54A
330
B2E4
100
AcDbEntity
  8
DEFPOINTS
 62
     0
 48
20.0
100
AcDbPoint
 10
4013.211387591883
 20
1742.286261462754
 30
0.0
  0
POINT
  5
B54B
330
B2E4
100
AcDbEntity
  8
DEFPOINTS
 62
     0
 48
20.0
100
AcDbPoint
 10
4129.910863600246
 20
1742.286261462754
 30
0.0
  0
ENDBLK
  5
B2E6
330
B2E4
100
AcDbEntity
  8
0
 48
20.0
100
AcDbBlockEnd
  0
BLOCK
  5
B2F2
330
B2F1
100
AcDbEntity
  8
0
 48
20.0
100
AcDbBlockBegin
  2
*D50
 70
     1
 10
0.0
 20
0.0
 30
0.0
  3
*D50
  1

  0
LINE
  5
B54C
330
B2F1
100
AcDbEntity
  8
寸法引出
 48
20.0
370
    -2
100
AcDbLine
 10
4028.211387591882
 20
1742.286261462754
 30
0.0
 11
4137.410863600244
 21
1742.286261462754
 31
0.0
  0
LINE
  5
B54D
330
B2F1
100
AcDbEntity
  8
寸法引出
 48
20.0
370
    -2
100
AcDbLine
 10
4028.211387591882
 20
1442.286261462754
 30
0.0
 11
4137.410863600244
 21
1442.286261462754
 31
0.0
  0
LINE
  5
B54E
330
B2F1
100
AcDbEntity
  8
寸法引出
 48
20.0
370
    -2
100
AcDbLine
 10
4129.910863600245
 20
1719.786261462754
 30
0.0
 11
4129.910863600245
 21
1464.786261462753
 31
0.0
  0
SOLID
  5
B54F
330
B2F1
100
AcDbEntity
  8
寸法引出
 48
20.0
100
AcDbTrace
 10
4126.160863600245
 20
1719.786261462754
 30
0.0
 11
4133.660863600244
 21
1719.786261462754
 31
0.0
 12
4129.910863600245
 22
1742.286261462754
 32
0.0
 13
4129.910863600245
 23
1742.286261462754
 33
0.0
  0
SOLID
  5
B550
330
B2F1
100
AcDbEntity
  8
寸法引出
 48
20.0
100
AcDbTrace
 10
4126.160863600245
 20
1464.786261462753
 30
0.0
 11
4133.660863600244
 21
1464.786261462753
 31
0.0
 12
4129.910863600245
 22
1442.286261462754
 32
0.0
 13
4129.910863600245
 23
1442.286261462754
 33
0.0
  0
MTEXT
  5
B551
330
B2F1
100
AcDbEntity
  8
寸法引出
 48
20.0
100
AcDbMText
 10
4099.910863600245
 20
1592.286261462754
 30
0.0
 40
30.0
 41
0.0
 71
     5
 72
     1
  1
\A1;300
  7
SANWA
 11
0.0000000000000001
 21
1.0
 31
0.0
 73
     1
 44
1.0
1001
ACAD
1000
MTEXTBEGIN
1070
    73
1070
     1
1070
    44
1040
1.0
1070
    74
1070
     0
1000
MTEXTEND
  0
POINT
  5
B552
330
B2F1
100
AcDbEntity
  8
DEFPOINTS
 62
     0
 48
20.0
100
AcDbPoint
 10
4013.211387591883
 20
1742.286261462754
 30
0.0
  0
POINT
  5
B553
330
B2F1
100
AcDbEntity
  8
DEFPOINTS
 62
     0
 48
20.0
100
AcDbPoint
 10
4013.211387591883
 20
1442.286261462754
 30
0.0
  0
POINT
  5
B554
330
B2F1
100
AcDbEntity
  8
DEFPOINTS
 62
     0
 48
20.0
100
AcDbPoint
 10
4129.910863600245
 20
1442.286261462754
 30
0.0
  0
ENDBLK
  5
B2F3
330
B2F1
100
AcDbEntity
  8
0
 48
20.0
100
AcDbBlockEnd
  0
ENDSEC
  0
SECTION
  2
ENTITIES
  0
LINE
  5
8882
330
747D
100
AcDbEntity
  8
0
 48
15.0
100
AcDbLine
 10
2015.211387591882
 20
2192.286261462754
 30
0.0
 11
2015.211387591882
 21
1442.286261462754
 31
0.0
  0
LINE
  5
8883
330
747D
100
AcDbEntity
  8
0
 48
15.0
100
AcDbLine
 10
2015.211387591882
 20
1442.286261462754
 30
0.0
 11
4013.211387591883
 21
1442.286261462754
 31
0.0
  0
LINE
  5
8884
330
747D
100
AcDbEntity
  8
0
 48
15.0
100
AcDbLine
 10
2015.211387591882
 20
2192.286261462754
 30
0.0
 11
4013.211387591883
 21
2192.286261462754
 31
0.0
  0
LINE
  5
8885
330
747D
100
AcDbEntity
  8
0
 48
15.0
100
AcDbLine
 10
4013.211387591883
 20
2192.286261462754
 30
0.0
 11
4013.211387591883
 21
1442.286261462754
 31
0.0
  0
TEXT
  5
8888
330
747D
100
AcDbEntity
  8
0
100
AcDbText
 10
1399.474232270369
 20
2838.972532813681
 30
0.0
 40
42.00000000000001
  1
エコノミー側溝（Ｈタイプ）３００×６００×１９９８
  7
SANWA
 72
     4
 11
2167.474232270369
 21
2860.212532813681
 31
0.0
100
AcDbText
  0
LINE
  5
8889
330
747D
100
AcDbEntity
  8
0
100
AcDbLine
 10
1393.89611883369
 20
2816.44354239142
 30
0.0
 11
3286.10388116631
 21
2816.44354239142
 31
0.0
  0
LINE
  5
888A
330
747D
100
AcDbEntity
  8
0
100
AcDbLine
 10
1393.89611883369
 20
2804.443542391421
 30
0.0
 11
3286.10388116631
 21
2804.443542391421
 31
0.0
  0
LINE
  5
888B
330
747D
100
AcDbEntity
  8
枠
100
AcDbLine
 10
375.0
 20
3000.0
 30
0.0
 11
4305.0
 21
3000.0
 31
0.0
  0
LINE
  5
888C
330
747D
100
AcDbEntity
  8
枠
100
AcDbLine
 10
375.0
 20
150.0
 30
0.0
 11
4305.0
 21
150.0000000000034
 31
0.0
  0
LINE
  5
888D
330
747D
100
AcDbEntity
  8
枠
100
AcDbLine
 10
375.0
 20
150.0
 30
0.0
 11
375.0
 21
3000.0
 31
0.0
  0
LINE
  5
888E
330
747D
100
AcDbEntity
  8
0
100
AcDbLine
 10
375.0
 20
0.0
 30
0.0
 11
0.0
 21
0.0
 31
0.0
  0
LINE
  5
888F
330
747D
100
AcDbEntity
  8
0
100
AcDbLine
 10
0.0
 20
0.0
 30
0.0
 11
0.0
 21
150.0
 31
0.0
  0
TEXT
  5
8890
330
747D
100
AcDbEntity
  8
0
100
AcDbText
 10
1007.96845474523
 20
2417.269693856324
 30
0.0
 40
36.0
  1
構造図
  7
SANWA
 72
     4
 11
1086.962740459516
 21
2435.78397957061
 31
0.0
100
AcDbText
  0
LINE
  5
8891
330
747D
100
AcDbEntity
  8
0
100
AcDbLine
 10
1010.800604762466
 20
2405.32558622891
 30
0.0
 11
1158.988473496014
 21
2405.32558622891
 31
0.0
  0
LINE
  5
8892
330
747D
100
AcDbEntity
  8
0
100
AcDbLine
 10
0.0
 20
3000.0
 30
0.0
 11
0.0
 21
3150.0
 31
0.0
  0
LINE
  5
8893
330
747D
100
AcDbEntity
  8
0
100
AcDbLine
 10
0.0
 20
3150.0
 30
0.0
 11
375.0
 21
3150.0
 31
0.0
  0
LINE
  5
8894
330
747D
100
AcDbEntity
  8
0
100
AcDbLine
 10
3646.531914893608
 20
306.0000000000014
 30
0.0
 11
3646.531914893608
 21
594.0000000000036
 31
0.0
  0
TEXT
  5
8895
330
747D
100
AcDbEntity
  8
0
 48
2.0
100
AcDbText
 10
3609.743097260962
 20
560.3768966870496
 30
0.0
 40
16.79999999999999
  1
品
  7
SANWA
100
AcDbText
  0
TEXT
  5
8896
330
747D
100
AcDbEntity
  8
0
 48
2.0
100
AcDbText
 10
3325.407362835249
 20
557.2772861648263
 30
0.0
 40
24.0
  1
図面
  7
SANWA
100
AcDbText
  0
LINE
  5
8897
330
747D
100
AcDbEntity
  8
0
100
AcDbLine
 10
3202.531914893616
 20
594.0000000000036
 30
0.0
 11
3202.531914893616
 21
522.0000000000027
 31
0.0
  0
TEXT
  5
8898
330
747D
100
AcDbEntity
  8
0
 48
2.0
100
AcDbText
 10
3392.33928491145
 20
558.6411916425954
 30
0.0
 40
24.0
  1
番号
  7
SANWA
100
AcDbText
  0
LINE
  5
8899
330
747D
100
AcDbEntity
  8
0
100
AcDbLine
 10
3598.531914893611
 20
150.0000000000034
 30
0.0
 11
3598.531914893611
 21
594.0000000000036
 31
0.0
  0
LINE
  5
889A
330
747D
100
AcDbEntity
  8
枠
100
AcDbLine
 10
4305.0
 20
150.0
 30
0.0
 11
4305.0
 21
3000.0
 31
0.0
  0
LINE
  5
889B
330
747D
100
AcDbEntity
  8
0
100
AcDbLine
 10
4455.0
 20
0.0
 30
0.0
 11
4305.0
 21
0.0
 31
0.0
  0
HATCH
  5
889C
330
747D
100
AcDbEntity
  8
0
100
AcDbHatch
 10
0.0
 20
0.0
 30
0.0
210
0.0
220
0.0
230
1.0
  2
SOLID
 70
     1
 71
     0
 91
        2
 92
        7
 72
     1
 73
     1
 93
        2
 10
3316.517041237145
 20
210.0000000000026
 42
1.0
 10
3220.546788550063
 20
210.0000000000026
 42
1.0
 97
        0
 92
       22
 72
     1
 73
     1
 93
        2
 10
3314.117041237152
 20
210.0000000000026
 42
-1.0
 10
3222.946788550072
 20
210.0000000000026
 42
-1.0
 97
        0
 75
     0
 76
     1
 47
0.0602706122334892
 98
        2
 10
3291.52220075993
 20
251.2492511007807
 10
3291.52220075993
 20
251.2492511007807
  0
CIRCLE
  5
889D
330
747D
100
AcDbEntity
  8
0
100
AcDbCircle
 10
3268.53191489361
 20
210.0000000000026
 30
0.0
 40
45.58512634354756
  0
CIRCLE
  5
889E
330
747D
100
AcDbEntity
  8
0
100
AcDbCircle
 10
3268.53191489361
 20
210.0000000000026
 30
0.0
 40
47.98512634354757
  0
ARC
  5
889F
330
747D
100
AcDbEntity
  8
0
100
AcDbCircle
 10
3680.136214331806
 20
223.2088158088008
 30
0.0
 40
33.06378893304791
100
AcDbArc
 50
274.1625874111262
 51
40.83741258886886
  0
ARC
  5
88A0
330
747D
100
AcDbEntity
  8
0
100
AcDbCircle
 10
3680.136214331806
 20
223.2088158088008
 30
0.0
 40
35.46378893304791
100
AcDbArc
 50
277.7788203119047
 51
37.22117968809828
  0
ARC
  5
88A1
330
747D
100
AcDbEntity
  8
0
100
AcDbCircle
 10
3680.136214331806
 20
223.2088158088008
 30
0.0
 40
43.86378893304791
100
AcDbArc
 50
273.1364954470817
 51
41.86350455291424
  0
ARC
  5
88A2
330
747D
100
AcDbEntity
  8
0
100
AcDbCircle
 10
3680.136214331806
 20
223.2088158088008
 30
0.0
 40
41.46378893304792
100
AcDbArc
 50
276.6476737861998
 51
38.35232621379456
  0
TEXT
  5
88A3
330
747D
100
AcDbEntity
  8
0
100
AcDbText
 10
3666.709002834942
 20
206.7188724106802
 30
0.0
 40
18.0
  1
和
  7
SANWA
100
AcDbText
  0
LINE
  5
88A4
330
747D
100
AcDbEntity
  8
0
100
AcDbLine
 10
3466.531914893608
 20
150.0000000000034
 30
0.0
 11
3466.531914893608
 21
306.0000000000014
 31
0.0
  0
LINE
  5
88A5
330
747D
100
AcDbEntity
  8
0
100
AcDbLine
 10
3334.531914893605
 20
150.0000000000034
 30
0.0
 11
3334.531914893605
 21
342.0000000000027
 31
0.0
  0
LINE
  5
88A6
330
747D
100
AcDbEntity
  8
0
 62
     0
100
AcDbLine
 10
3202.531914893616
 20
378.0000000000023
 30
0.0
 11
3202.531914893616
 21
150.0000000000034
 31
0.0
  0
ARC
  5
88A7
330
747D
100
AcDbEntity
  8
0
100
AcDbCircle
 10
3680.136214331806
 20
223.2088158088008
 30
0.0
 40
41.46378893304792
100
AcDbArc
 50
141.6476737862055
 51
263.3523262138002
  0
ARC
  5
88A8
330
747D
100
AcDbEntity
  8
0
100
AcDbCircle
 10
3680.136214331806
 20
223.2088158088008
 30
0.0
 40
43.86378893304791
100
AcDbArc
 50
138.136495447086
 51
266.8635045529183
  0
ARC
  5
88A9
330
747D
100
AcDbEntity
  8
0
100
AcDbCircle
 10
3680.136214331806
 20
223.2088158088008
 30
0.0
 40
35.46378893304791
100
AcDbArc
 50
142.7788203119016
 51
262.2211796881018
  0
ARC
  5
88AA
330
747D
100
AcDbEntity
  8
0
100
AcDbCircle
 10
3680.136214331806
 20
223.2088158088008
 30
0.0
 40
33.06378893304791
100
AcDbArc
 50
139.1625874111312
 51
265.8374125888738
  0
HATCH
  5
88AB
330
747D
100
AcDbEntity
  8
0
100
AcDbHatch
 10
0.0
 20
0.0
 30
0.0
210
0.0
220
0.0
230
1.0
  2
SOLID
 70
     1
 71
     0
 91
        6
 92
        7
 72
     1
 73
     1
 93
        4
 10
3650.86334988054
 20
255.8757928097577
 42
0.0
 10
3658.515314664834
 20
248.2238280254666
 42
-0.3722683533228753
 10
3701.757113998767
 20
248.2238280254666
 42
0.0
 10
3709.409078783061
 20
255.8757928097595
 42
0.3824979940290045
 97
        0
 92
       22
 72
     1
 73
     1
 93
        4
 10
3705.864308023095
 20
255.725134599478
 42
0.0
 10
3701.588030276409
 20
251.4488568527952
 42
0.3367429548951066
 10
3658.684398387206
 20
251.4488568527969
 42
0.0
 10
3654.408120640521
 20
255.7251345994763
 42
-0.347770427523089
 97
        0
 92
        7
 72
     1
 73
     1
 93
        4
 10
3705.15122654846
 20
244.8297154757717
 42
-0.6168583269099046
 10
3682.536214331802
 20
190.232246269062
 42
0.0
 10
3682.536214331802
 20
179.4107338923163
 42
0.6292889159379735
 10
3712.803191332769
 20
252.4816802600629
 42
0.0
 97
        0
 92
       22
 72
     1
 73
     1
 93
        4
 10
3712.652533122481
 20
248.9369095000865
 42
-0.5873104908889238
 10
3684.936214331796
 20
182.0237967765786
 42
0.0
 10
3684.936214331796
 20
188.0713667624081
 42
0.5741105922167471
 10
3708.376255375795
 20
244.6606317534054
 42
0.0
 97
        0
 92
        7
 72
     1
 73
     1
 93
        4
 10
3647.469237330847
 20
252.4816802600629
 42
0.6292889159379591
 10
3677.736214331814
 20
179.4107338923163
 42
0.0
 10
3677.736214331814
 20
190.232246269062
 42
-0.6168583269099637
 10
3655.121202115141
 20
244.8297154757717
 42
0.0
 97
        0
 92
       22
 72
     1
 73
     1
 93
        4
 10
3651.896173287806
 20
244.6606317534054
 42
0.5741105922167495
 10
3675.336214331804
 20
188.0713667624081
 42
0.0
 10
3675.336214331804
 20
182.0237967765786
 42
-0.5873104908889167
 10
3647.619895541135
 20
248.9369095000865
 42
0.0
 97
        0
 75
     0
 76
     1
 47
0.0143554168026844
 98
        6
 10
3699.348496783987
 20
260.8853257705129
 10
3699.348496783987
 20
260.8853257705129
 10
3708.313957346876
 20
246.931861453063
 10
3708.313957346876
 20
246.931861453063
 10
3652.969453356036
 20
246.4150661606038
 10
3652.969453356036
 20
246.4150661606038
  0
TEXT
  5
88AC
330
747D
100
AcDbEntity
  8
0
100
AcDbText
 10
3766.408313412449
 20
206.7188724106802
 30
0.0
 40
24.0
  1
三和コンクリート工業株式会社
  7
SANWA
100
AcDbText
  0
LINE
  5
88AD
330
747D
100
AcDbEntity
  8
0
100
AcDbLine
 10
3677.736214331808
 20
179.4107338923163
 30
0.0
 11
3677.736214331808
 21
190.232246269062
 31
0.0
  0
LINE
  5
88AE
330
747D
100
AcDbEntity
  8
0
100
AcDbLine
 10
3682.536214331804
 20
179.4107338923163
 30
0.0
 11
3682.536214331804
 21
190.232246269062
 31
0.0
  0
LINE
  5
88AF
330
747D
100
AcDbEntity
  8
0
100
AcDbLine
 10
3684.936214331801
 20
182.0237967765786
 30
0.0
 11
3684.936214331801
 21
188.0713667624081
 31
0.0
  0
LINE
  5
88B0
330
747D
100
AcDbEntity
  8
0
100
AcDbLine
 10
3675.33621433181
 20
182.0237967765786
 30
0.0
 11
3675.33621433181
 21
188.0713667624081
 31
0.0
  0
TEXT
  5
88B1
330
747D
100
AcDbEntity
  8
0
 48
2.0
100
AcDbText
 10
3515.973620720817
 20
218.0018975308761
 30
0.0
 40
24.0
  1
中
  7
SANWA
100
AcDbText
  0
TEXT
  5
88B2
330
747D
100
AcDbEntity
  8
0
 48
2.0
100
AcDbText
 10
3515.409250158043
 20
184.0310864446443
 30
0.0
 40
24.0
  1
川
  7
SANWA
100
AcDbText
  0
TEXT
  5
88B3
330
747D
100
AcDbEntity
  8
0
 48
2.0
100
AcDbText
 10
3424.249755796491
 20
80.91869382887693
 30
0.0
 40
24.0
  1
大
  7
SANWA
100
AcDbText
  0
TEXT
  5
88B4
330
747D
100
AcDbEntity
  8
0
 48
2.0
100
AcDbText
 10
3423.68538523373
 20
46.9478827426451
 30
0.0
 40
24.0
  1
嶋
  7
SANWA
100
AcDbText
  0
HATCH
  5
88B5
330
747D
100
AcDbEntity
  8
0
100
AcDbHatch
 10
0.0
 20
0.0
 30
0.0
210
0.0
220
0.0
230
1.0
  2
SOLID
 70
     1
 71
     0
 91
        4
 92
        7
 72
     1
 73
     1
 93
        2
 10
3580.517041237152
 20
210.0000000000026
 42
1.0
 10
3484.54678855007
 20
210.0000000000026
 42
1.0
 97
        0
 92
       22
 72
     1
 73
     1
 93
        2
 10
3578.117041237157
 20
210.0000000000026
 42
-1.0
 10
3486.946788550064
 20
210.0000000000026
 42
-1.0
 97
        0
 92
      136
 93
        4
 72
     1
 10
3507.985049292256
 20
206.0361832451619
 11
3559.070763577974
 21
206.0361832451619
 72
     1
 10
3559.070763577955
 20
206.0361832451619
 11
3559.070763577955
 21
253.9676118165905
 72
     1
 10
3559.070763577955
 20
253.9676118165904
 11
3507.985049292236
 21
253.9676118165904
 72
     1
 10
3507.985049292256
 20
253.9676118165904
 11
3507.985049292256
 21
206.0361832451619
 97
        0
 92
      136
 93
        4
 72
     1
 10
3507.900678729479
 20
173.6425150160729
 11
3558.026393015192
 21
173.6425150160729
 72
     1
 10
3558.026393015199
 20
173.6425150160729
 11
3558.026393015199
 21
218.6939435875014
 72
     1
 10
3558.026393015199
 20
218.6939435875014
 11
3507.900678729486
 21
218.6939435875014
 72
     1
 10
3507.900678729479
 20
218.6939435875014
 11
3507.900678729479
 21
173.6425150160729
 97
        0
 75
     0
 76
     1
 47
0.0602706122334892
 98
        2
 10
3555.522200759923
 20
251.2492511007807
 10
3555.522200759923
 20
251.2492511007807
  0
CIRCLE
  5
88B6
330
747D
100
AcDbEntity
  8
0
100
AcDbCircle
 10
3532.531914893609
 20
210.0000000000026
 30
0.0
 40
45.58512634354756
  0
CIRCLE
  5
88B7
330
747D
100
AcDbEntity
  8
0
100
AcDbCircle
 10
3532.531914893609
 20
210.0000000000026
 30
0.0
 40
47.98512634354757
  0
TEXT
  5
88B8
330
747D
100
AcDbEntity
  8
0
 48
2.0
100
AcDbText
 10
3302.854024831004
 20
79.62983329778467
 30
0.0
 40
24.0
  1
蒔
  7
SANWA
100
AcDbText
  0
CIRCLE
  5
88B9
330
747D
100
AcDbEntity
  8
0
100
AcDbCircle
 10
3320.649581970729
 20
72.91679629800341
 30
0.0
 40
45.58512634354756
  0
TEXT
  5
88BA
330
747D
100
AcDbEntity
  8
0
 48
2.0
100
AcDbText
 10
3302.289654268229
 20
43.08129504455905
 30
0.0
 40
24.0
  1
田
  7
SANWA
100
AcDbText
  0
TEXT
  5
88BB
330
747D
100
AcDbEntity
  8
0
 48
2.0
100
AcDbText
 10
3251.973620720832
 20
213.1710422595032
 30
0.0
 40
24.0
  1
河
  7
SANWA
100
AcDbText
  0
TEXT
  5
88BC
330
747D
100
AcDbEntity
  8
0
 48
2.0
100
AcDbText
 10
3251.409250158044
 20
179.2002311732714
 30
0.0
 40
24.0
  1
口
  7
SANWA
100
AcDbText
  0
CIRCLE
  5
88BD
330
747D
100
AcDbEntity
  8
0
100
AcDbCircle
 10
3320.649581970729
 20
72.91679629800341
 30
0.0
 40
47.98512634354757
  0
HATCH
  5
88BE
330
747D
100
AcDbEntity
  8
0
100
AcDbHatch
 10
0.0
 20
0.0
 30
0.0
210
0.0
220
0.0
230
1.0
  2
SOLID
 70
     1
 71
     0
 91
        4
 92
        7
 72
     1
 73
     1
 93
        2
 10
3368.634708314286
 20
72.91679629800341
 42
1.0
 10
3272.664455627189
 20
72.91679629800341
 42
1.0
 97
        0
 92
       22
 72
     1
 73
     1
 93
        2
 10
3366.234708314293
 20
72.91679629800341
 42
-1.0
 10
3275.064455627184
 20
72.91679629800341
 42
-1.0
 97
        0
 92
      136
 93
        4
 72
     1
 10
3296.47985922651
 20
71.11297954316267
 11
3346.811287797946
 21
71.11297954316267
 72
     1
 10
3346.811287797955
 20
71.11297954316267
 11
3346.811287797955
 21
116.7815509717341
 72
     1
 10
3346.811287797955
 20
116.7815509717341
 11
3296.47985922652
 21
116.7815509717341
 72
     1
 10
3296.47985922651
 20
116.7815509717341
 11
3296.47985922651
 21
71.11297954316267
 97
        0
 92
      136
 93
        4
 72
     1
 10
3295.538345806602
 20
35.39359702835939
 11
3346.624060092322
 21
35.39359702835939
 72
     1
 10
3346.624060092316
 20
35.39359702835939
 11
3346.624060092316
 21
83.32502559978797
 72
     1
 10
3346.624060092316
 20
83.32502559978797
 11
3295.538345806598
 21
83.32502559978797
 72
     1
 10
3295.538345806602
 20
83.32502559978797
 11
3295.538345806602
 21
35.39359702835938
 97
        0
 75
     0
 76
     1
 47
0.0602706122334892
 98
        2
 10
3343.639867837043
 20
114.1660473987815
 10
3343.639867837043
 20
114.1660473987815
  0
HATCH
  5
88BF
330
747D
100
AcDbEntity
  8
0
100
AcDbHatch
 10
0.0
 20
0.0
 30
0.0
210
0.0
220
0.0
230
1.0
  2
SOLID
 70
     1
 71
     0
 91
        4
 92
        7
 72
     1
 73
     1
 93
        2
 10
3488.79317631284
 20
72.91679629800341
 42
1.0
 10
3392.822923625743
 20
72.91679629800341
 42
1.0
 97
        0
 92
       22
 72
     1
 73
     1
 93
        2
 10
3486.393176312846
 20
72.91679629800341
 42
-1.0
 10
3395.222923625738
 20
72.91679629800341
 42
-1.0
 97
        0
 92
      136
 93
        4
 72
     1
 10
3416.638327225064
 20
71.11297954316267
 11
3466.9697557965
 21
71.11297954316267
 72
     1
 10
3466.969755796509
 20
71.11297954316267
 11
3466.969755796509
 21
116.7815509717341
 72
     1
 10
3466.969755796509
 20
116.7815509717341
 11
3416.638327225073
 21
116.7815509717341
 72
     1
 10
3416.638327225064
 20
116.7815509717341
 11
3416.638327225064
 21
71.11297954316267
 97
        0
 92
      136
 93
        4
 72
     1
 10
3415.696813805156
 20
35.39359702835939
 11
3466.782528090874
 21
35.39359702835939
 72
     1
 10
3466.782528090869
 20
35.39359702835939
 11
3466.782528090869
 21
83.32502559978797
 72
     1
 10
3466.782528090869
 20
83.32502559978797
 11
3415.696813805151
 21
83.32502559978797
 72
     1
 10
3415.696813805156
 20
83.32502559978797
 11
3415.696813805156
 21
35.39359702835938
 97
        0
 75
     0
 76
     1
 47
0.0602706122334892
 98
        2
 10
3463.798335835596
 20
114.1660473987815
 10
3463.798335835596
 20
114.1660473987815
  0
CIRCLE
  5
88C0
330
747D
100
AcDbEntity
  8
0
100
AcDbCircle
 10
3440.808049969283
 20
72.91679629800341
 30
0.0
 40
47.98512634354757
  0
CIRCLE
  5
88C1
330
747D
100
AcDbEntity
  8
0
100
AcDbCircle
 10
3440.808049969283
 20
72.91679629800341
 30
0.0
 40
45.58512634354756
  0
LINE
  5
88C2
330
747D
100
AcDbEntity
  8
0
 62
     0
100
AcDbLine
 10
3598.531914893611
 20
498.0000000000041
 30
0.0
 11
4305.0
 21
498.0000000000041
 31
0.0
  0
LINE
  5
88C3
330
747D
100
AcDbEntity
  8
0
 62
     0
100
AcDbLine
 10
3598.531914893611
 20
402.0000000000027
 30
0.0
 11
4305.0
 21
402.0000000000027
 31
0.0
  0
LINE
  5
88C4
330
747D
100
AcDbEntity
  8
0
100
AcDbLine
 10
3202.531914893616
 20
306.0000000000014
 30
0.0
 11
4305.0
 21
306.0000000000014
 31
0.0
  0
LINE
  5
88C5
330
747D
100
AcDbEntity
  8
0
100
AcDbLine
 10
3705.151226548465
 20
244.8297154757715
 30
0.0
 11
3712.803191332764
 21
252.4816802600629
 31
0.0
  0
LINE
  5
88C6
330
747D
100
AcDbEntity
  8
0
100
AcDbLine
 10
3708.376255375802
 20
244.6606317534054
 30
0.0
 11
3712.652533122478
 21
248.9369095000866
 31
0.0
  0
ARC
  5
88C7
330
747D
100
AcDbEntity
  8
0
100
AcDbCircle
 10
3680.136214331806
 20
223.2088158088008
 30
0.0
 40
33.06378893304791
100
AcDbArc
 50
49.1625874111309
 51
130.8374125888694
  0
ARC
  5
88C8
330
747D
100
AcDbEntity
  8
0
100
AcDbCircle
 10
3680.136214331806
 20
223.2088158088008
 30
0.0
 40
35.46378893304791
100
AcDbArc
 50
52.77882031190348
 51
127.2211796880965
  0
LINE
  5
88C9
330
747D
100
AcDbEntity
  8
0
100
AcDbLine
 10
3658.515314664828
 20
248.2238280254664
 30
0.0
 11
3650.816888003565
 21
255.922254686742
 31
0.0
  0
LINE
  5
88CA
330
747D
100
AcDbEntity
  8
0
100
AcDbLine
 10
3655.121202115134
 20
244.8297154757715
 30
0.0
 11
3647.42277545387
 21
252.5281421370471
 31
0.0
  0
LINE
  5
88CB
330
747D
100
AcDbEntity
  8
0
100
AcDbLine
 10
3651.89617328781
 20
244.6606317534054
 30
0.0
 11
3647.61989554112
 21
248.9369095000866
 31
0.0
  0
LINE
  5
88CC
330
747D
100
AcDbEntity
  8
0
100
AcDbLine
 10
3658.6843983872
 20
251.4488568527968
 30
0.0
 11
3654.408120640511
 21
255.7251345994764
 31
0.0
  0
TEXT
  5
88CD
330
747D
100
AcDbEntity
  8
0
100
AcDbText
 10
3666.709002834942
 20
230.6320916026407
 30
0.0
 40
18.0
  1
三
  7
SANWA
100
AcDbText
  0
ARC
  5
88CE
330
747D
100
AcDbEntity
  8
0
100
AcDbCircle
 10
3680.136214331806
 20
223.2088158088008
 30
0.0
 40
41.46378893304792
100
AcDbArc
 50
51.64767378620888
 51
128.3523262137999
  0
ARC
  5
88CF
330
747D
100
AcDbEntity
  8
0
100
AcDbCircle
 10
3680.136214331806
 20
223.2088158088008
 30
0.0
 40
43.86378893304791
100
AcDbArc
 50
48.13649544708286
 51
131.8635045529172
  0
LINE
  5
88D0
330
747D
100
AcDbEntity
  8
0
100
AcDbLine
 10
3701.75711399877
 20
248.2238280254664
 30
0.0
 11
3709.409078783056
 21
255.8757928097593
 31
0.0
  0
LINE
  5
88D1
330
747D
100
AcDbEntity
  8
0
100
AcDbLine
 10
3701.588030276412
 20
251.4488568527968
 30
0.0
 11
3705.864308023088
 21
255.725134599478
 31
0.0
  0
TEXT
  5
88D2
330
747D
100
AcDbEntity
  8
0
 48
2.0
100
AcDbText
 10
3608.8330385977
 20
520.9962632445933
 30
0.0
 40
16.79999999999999
  1
名
  7
SANWA
100
AcDbText
  0
LINE
  5
88D3
330
747D
100
AcDbEntity
  8
0
 62
     0
100
AcDbLine
 10
3202.531914893616
 20
546.0000000000031
 30
0.0
 11
3598.531914893611
 21
546.0000000000031
 31
0.0
  0
LINE
  5
88D4
330
747D
100
AcDbEntity
  8
0
 62
     0
100
AcDbLine
 10
3202.531914893616
 20
546.0000000000031
 30
0.0
 11
3598.531914893611
 21
546.0000000000031
 31
0.0
  0
TEXT
  5
88D6
330
747D
100
AcDbEntity
  8
0
 48
2.0
100
AcDbText
 10
3608.525134886859
 20
443.4326160008049
 30
0.0
 40
16.79999999999999
  1
び
  7
SANWA
100
AcDbText
  0
TEXT
  5
88D7
330
747D
100
AcDbEntity
  8
0
 48
2.0
100
AcDbText
 10
3608.865365864922
 20
419.9263485547305
 30
0.0
 40
16.79999999999999
  1
名
  7
SANWA
100
AcDbText
  0
TEXT
  5
88D8
330
747D
100
AcDbEntity
  8
0
 48
2.0
100
AcDbText
 10
3609.288067929338
 20
360.6846153128759
 30
0.0
 40
16.79999999999999
  1
規
  7
SANWA
100
AcDbText
  0
TEXT
  5
88D9
330
747D
100
AcDbEntity
  8
0
 48
2.0
100
AcDbText
 10
3609.288067929338
 20
324.9410917409398
 30
0.0
 40
16.79999999999999
  1
格
  7
SANWA
100
AcDbText
  0
TEXT
  5
88DA
330
747D
100
AcDbEntity
  8
0
 48
2.0
100
AcDbText
 10
3498.749396044368
 20
277.2513790084827
 30
0.0
 40
24.0
  1
製図
  7
SANWA
100
AcDbText
  0
LINE
  5
88DB
330
747D
100
AcDbEntity
  8
0
100
AcDbLine
 10
3202.531914893616
 20
402.0000000000027
 30
0.0
 11
3202.531914893616
 21
436.0565675878984
 31
0.0
  0
LINE
  5
88DC
330
747D
100
AcDbEntity
  8
0
100
AcDbLine
 10
3202.531914893616
 20
342.0000000000027
 30
0.0
 11
3202.531914893616
 21
378.0000000000023
 31
0.0
  0
TEXT
  5
88DD
330
747D
100
AcDbEntity
  8
0
 48
2.0
100
AcDbText
 10
3231.216179933126
 20
275.7717951156462
 30
0.0
 40
24.0
  1
検図
  7
SANWA
100
AcDbText
  0
LINE
  5
88DE
330
747D
100
AcDbEntity
  8
0
100
AcDbLine
 10
3202.531914893616
 20
342.0000000000027
 30
0.0
 11
3202.531914893616
 21
306.0000000000014
 31
0.0
  0
TEXT
  5
88DF
330
747D
100
AcDbEntity
  8
0
 48
2.0
100
AcDbText
 10
3234.749396044363
 20
313.2513790084822
 30
0.0
 40
24.0
  1
製図
  7
SANWA
100
AcDbText
  0
LINE
  5
88E0
330
747D
100
AcDbEntity
  8
0
100
AcDbLine
 10
3202.531914893616
 20
378.0000000000023
 30
0.0
 11
3202.531914893616
 21
299.9351497097659
 31
0.0
  0
LINE
  5
88E1
330
747D
100
AcDbEntity
  8
0
 62
     0
100
AcDbLine
 10
3202.531914893616
 20
474.0000000000036
 30
0.0
 11
3598.531914893611
 21
474.0000000000036
 31
0.0
  0
LINE
  5
88E2
330
747D
100
AcDbEntity
  8
0
 62
     0
100
AcDbLine
 10
3202.531914893616
 20
426.0000000000031
 30
0.0
 11
3598.531914893611
 21
426.0000000000031
 31
0.0
  0
TEXT
  5
88E3
330
747D
100
AcDbEntity
  8
0
 48
2.0
100
AcDbText
 10
3326.458873159409
 20
434.3839146702152
 30
0.0
 40
24.0
  1
縮    尺
  7
SANWA
100
AcDbText
  0
TEXT
  5
88E4
330
747D
100
AcDbEntity
  8
0
 48
2.0
100
AcDbText
 10
3342.663150318295
 20
378.5853012973512
 30
0.0
 40
24.0
  1
1 : 15
  7
SANWA
100
AcDbText
  0
LINE
  5
88E5
330
747D
100
AcDbEntity
  8
0
 62
     0
100
AcDbLine
 10
3202.531914893616
 20
342.0000000000027
 30
0.0
 11
3598.531914893611
 21
342.0000000000027
 31
0.0
  0
TEXT
  5
88E6
330
747D
100
AcDbEntity
  8
0
 48
2.0
100
AcDbText
 10
3369.075985825585
 20
277.1357177512964
 30
0.0
 40
24.0
  1
設計
  7
SANWA
100
AcDbText
  0
LINE
  5
88E7
330
747D
100
AcDbEntity
  8
0
 62
     0
100
AcDbLine
 10
3202.531914893616
 20
270.0000000000018
 30
0.0
 11
3598.531914893611
 21
270.0000000000018
 31
0.0
  0
TEXT
  5
88E8
330
747D
100
AcDbEntity
  8
0
 48
2.0
100
AcDbText
 10
3388.972302949392
 20
313.2513790084822
 30
0.0
 40
24.0
  1
2005.11.24
  7
SANWA
100
AcDbText
  0
LINE
  5
88E9
330
747D
100
AcDbEntity
  8
0
 62
     0
100
AcDbLine
 10
3202.531914893616
 20
522.0000000000027
 30
0.0
 11
3202.531914893616
 21
378.0000000000023
 31
0.0
  0
LINE
  5
88EA
330
747D
100
AcDbEntity
  8
0
100
AcDbLine
 10
3202.531914893616
 20
436.0565675878984
 30
0.0
 11
3202.531914893616
 21
529.2701469420904
 31
0.0
  0
TEXT
  5
88EB
330
747D
100
AcDbEntity
  8
0
 48
2.0
100
AcDbText
 10
3608.763425308412
 20
466.4348193000683
 30
0.0
 40
16.79999999999999
  1
呼
  7
SANWA
100
AcDbText
  0
TEXT
  5
88EC
330
747D
100
AcDbEntity
  8
0
100
AcDbText
 10
3852.885957446811
 20
534.0000000000031
 30
0.0
 40
24.0
  1
エコノミー側溝
  7
SANWA
 72
     4
 11
3975.765957446811
 21
546.0000000000031
 31
0.0
100
AcDbText
  0
TEXT
  5
88ED
330
747D
100
AcDbEntity
  8
0
100
AcDbText
 10
3905.548814589668
 20
436.9028571428605
 30
0.0
 40
24.0
  1
Ｈタイプ
  7
SANWA
 72
     4
 11
3975.765957446811
 21
450.0000000000034
 31
0.0
100
AcDbText
  0
TEXT
  5
88EE
330
747D
100
AcDbEntity
  8
0
100
AcDbText
 10
3852.885957446811
 20
342.2742857142893
 30
0.0
 40
24.0
  1
300×600×1998
  7
SANWA
 72
     4
 11
3975.765957446811
 21
354.0000000000036
 31
0.0
100
AcDbText
  0
LINE
  5
88EF
330
747D
100
AcDbEntity
  8
0
100
AcDbLine
 10
4455.0
 20
150.0
 30
0.0
 11
4455.0
 21
0.0
 31
0.0
  0
LINE
  5
88F0
330
747D
100
AcDbEntity
  8
0
 62
     0
100
AcDbLine
 10
3202.531914893616
 20
594.0000000000036
 30
0.0
 11
4305.0
 21
594.0000000000036
 31
0.0
  0
LINE
  5
88F1
330
747D
100
AcDbEntity
  8
0
100
AcDbLine
 10
3598.531914893611
 20
594.0000000000036
 30
0.0
 11
3621.277272305447
 21
594.0000000000036
 31
0.0
  0
LINE
  5
88F2
330
747D
100
AcDbEntity
  8
0
100
AcDbLine
 10
4305.0
 20
3150.0
 30
0.0
 11
4455.0
 21
3150.0
 31
0.0
  0
TEXT
  5
88F5
330
747D
100
AcDbEntity
  8
0
100
AcDbText
 10
3083.762586563029
 20
2843.138247099395
 30
0.0
 40
36.0
  1
W=555㎏
  7
SANWA
 72
     4
 11
3175.922586563029
 21
2860.212532813681
 31
0.0
100
AcDbText
  0
LINE
  5
88F6
330
747D
100
AcDbEntity
  8
0
100
AcDbLine
 10
4455.0
 20
3150.0
 30
0.0
 11
4455.0
 21
3000.0
 31
0.0
  0
LINE
  5
8C77
330
747D
100
AcDbEntity
  8
0
  6
HIDDEN2
 48
15.0
100
AcDbLine
 10
2015.211387591882
 20
2112.286261462754
 30
0.0
 11
4013.211387591883
 21
2112.286261462754
 31
0.0
  0
LINE
  5
8C78
330
747D
100
AcDbEntity
  8
0
  6
HIDDEN2
 48
15.0
100
AcDbLine
 10
2015.211387591882
 20
1512.286261462754
 30
0.0
 11
4013.211387591883
 21
1512.286261462754
 31
0.0
  0
LINE
  5
8C79
330
747D
100
AcDbEntity
  8
0
 48
15.0
100
AcDbLine
 10
2015.211387591882
 20
2187.786261462754
 30
0.0
 11
4013.211387591883
 21
2187.786261462754
 31
0.0
  0
LINE
  5
8C7A
330
747D
100
AcDbEntity
  8
0
 48
15.0
100
AcDbLine
 10
2015.211387591882
 20
1462.286261462754
 30
0.0
 11
4013.211387591883
 21
1462.286261462754
 31
0.0
  0
LINE
  5
8C7C
330
747D
100
AcDbEntity
  8
0
 48
20.0
100
AcDbLine
 10
2964.211387591883
 20
1692.286261462754
 30
0.0
 11
2964.211387591884
 21
1792.286261462754
 31
0.0
  0
LINE
  5
8C7D
330
747D
100
AcDbEntity
  8
0
 48
20.0
100
AcDbLine
 10
3064.211387591883
 20
1692.286261462754
 30
0.0
 11
3064.211387591883
 21
1792.286261462754
 31
0.0
  0
LINE
  5
8C80
330
747D
100
AcDbEntity
  8
0
 48
15.0
100
AcDbLine
 10
2964.211387591884
 20
1792.286261462754
 30
0.0
 11
3064.211387591883
 21
1792.286261462754
 31
0.0
  0
LINE
  5
8C81
330
747D
100
AcDbEntity
  8
0
 48
15.0
100
AcDbLine
 10
2974.211387591882
 20
1782.286261462754
 30
0.0
 11
3054.211387591881
 21
1782.286261462754
 31
0.0
  0
LINE
  5
8C82
330
747D
100
AcDbEntity
  8
0
 48
15.0
100
AcDbLine
 10
2964.211387591883
 20
1692.286261462754
 30
0.0
 11
3064.211387591883
 21
1692.286261462754
 31
0.0
  0
LINE
  5
8C83
330
747D
100
AcDbEntity
  8
0
 48
20.0
100
AcDbLine
 10
2964.211387591883
 20
1792.286261462754
 30
0.0
 11
2974.211387591882
 21
1782.286261462754
 31
0.0
  0
LINE
  5
8C84
330
747D
100
AcDbEntity
  8
0
 48
20.0
100
AcDbLine
 10
2974.211387591882
 20
1782.286261462754
 30
0.0
 11
2964.211387591883
 21
1692.286261462754
 31
0.0
  0
LINE
  5
8C85
330
747D
100
AcDbEntity
  8
0
 48
20.0
100
AcDbLine
 10
3064.211387591883
 20
1792.286261462754
 30
0.0
 11
3054.211387591883
 21
1782.286261462754
 31
0.0
  0
LINE
  5
8C86
330
747D
100
AcDbEntity
  8
0
 48
20.0
100
AcDbLine
 10
3054.211387591883
 20
1782.286261462754
 30
0.0
 11
3064.211387591883
 21
1692.286261462754
 31
0.0
  0
CIRCLE
  5
8C89
330
747D
100
AcDbEntity
  8
0
 48
20.0
100
AcDbCircle
 10
3014.211387591883
 20
1742.286261462754
 30
0.0
 40
10.0
  0
DIMENSION
  5
8CB4
330
747D
100
AcDbEntity
  8
寸法引出
 48
20.0
100
AcDbDimension
  2
*D1
 10
2974.211387591882
 20
1857.234328850125
 30
0.0
 11
2942.621270287066
 21
1887.463010784373
 31
0.0
 70
   160
 71
     5
 42
9.999999999998181
  3
SANWA
100
AcDbAlignedDimension
 13
2964.211387591884
 23
1792.286261462754
 33
0.0
 14
2974.211387591882
 24
1782.286261462754
 34
0.0
100
AcDbRotatedDimension
1001
ACAD
1000
DSTYLE
1002
{
1070
    40
1040
15.0
1070
    41
1040
1.5
1070
    43
1040
5.0
1070
    44
1040
0.5
1070
   140
1040
2.0
1070
   147
1040
1.0
1070
   176
1070
   256
1070
   177
1070
   256
1070
   178
1070
   256
1070
   279
1070
     2
1002
}
  0
DIMENSION
  5
8CC3
330
747D
100
AcDbEntity
  8
寸法引出
 48
20.0
100
AcDbDimension
  2
*D2
 10
3054.211387591881
 20
1857.234328850125
 30
0.0
 11
3014.211387591882
 21
1887.234328850125
 31
0.0
 70
    32
 71
     5
 42
79.99999999999909
  3
SANWA
100
AcDbAlignedDimension
 13
2974.211387591882
 23
1782.286261462754
 33
0.0
 14
3054.211387591881
 24
1782.286261462754
 34
0.0
100
AcDbRotatedDimension
1001
ACAD
1000
DSTYLE
1002
{
1070
    40
1040
15.0
1070
    41
1040
1.5
1070
    43
1040
5.0
1070
    44
1040
0.5
1070
   140
1040
2.0
1070
   147
1040
1.0
1070
   176
1070
   256
1070
   177
1070
   256
1070
   178
1070
   256
1070
   279
1070
     2
1002
}
  0
DIMENSION
  5
8CD0
330
747D
100
AcDbEntity
  8
寸法引出
 48
20.0
100
AcDbDimension
  2
*D3
 10
3064.211387591883
 20
1857.234328850125
 30
0.0
 11
3082.993794619997
 21
1887.861577780888
 31
0.0
 70
   160
 71
     5
 42
10.00000000000182
  3
SANWA
100
AcDbAlignedDimension
 13
3054.211387591881
 23
1782.286261462754
 33
0.0
 14
3064.211387591883
 24
1792.286261462754
 34
0.0
100
AcDbRotatedDimension
1001
ACAD
1000
DSTYLE
1002
{
1070
    40
1040
15.0
1070
    41
1040
1.5
1070
    43
1040
5.0
1070
    44
1040
0.5
1070
   140
1040
2.0
1070
   147
1040
1.0
1070
   176
1070
   256
1070
   177
1070
   256
1070
   178
1070
   256
1070
   279
1070
     2
1002
}
  0
DIMENSION
  5
8DA3
330
747D
100
AcDbEntity
  8
寸法引出
 48
20.0
100
AcDbDimension
  2
*D4
 10
4013.211387591883
 20
2303.352249464151
 30
0.0
 11
3014.211387591883
 21
2333.352249464151
 31
0.0
 70
    32
 71
     5
 42
1998.0
  3
SANWA
100
AcDbAlignedDimension
 13
2015.211387591882
 23
2192.286261462754
 33
0.0
 14
4013.211387591883
 24
2192.286261462754
 34
0.0
100
AcDbRotatedDimension
1001
ACAD
1000
DSTYLE
1002
{
1070
    40
1040
15.0
1070
    41
1040
1.5
1070
    43
1040
5.0
1070
    44
1040
0.5
1070
   140
1040
2.0
1070
   147
1040
1.0
1070
   176
1070
   256
1070
   177
1070
   256
1070
   178
1070
   256
1070
   279
1070
     2
1002
}
  0
MTEXT
  5
8DCF
330
747D
100
AcDbEntity
  8
寸法引出
 48
20.0
100
AcDbMText
 10
3425.728731984076
 20
1643.034011128577
 30
0.0
 40
30.0
 41
0.0
 71
     5
 72
     1
  1
吊り用ｲﾝﾊﾞｰﾄﾊﾝｶﾞｰ（20×60-65）
  7
SANWA
 73
     1
 44
1.0
1001
ACAD
1000
MTEXTBEGIN
1070
    73
1070
     1
1070
    44
1040
1.0
1070
    74
1070
     0
1000
MTEXTEND
  0
LEADER
  5
8DD0
330
747D
100
AcDbEntity
  8
寸法引出
 48
20.0
100
AcDbLeader
  3
SANWA
 76
     3
 10
3014.211387591883
 20
1732.286261462754
 30
0.0
 10
3099.568561726061
 20
1618.033995007816
 30
0.0
 10
3733.677900312247
 20
1618.033995007816
 30
0.0
1001
ACAD
1000
DSTYLE
1002
{
1070
    77
1070
     0
1070
    40
1040
15.0
1070
    41
1040
1.5
1070
    43
1040
5.0
1070
    44
1040
0.5
1070
   140
1040
2.0
1070
   147
1040
1.0
1070
   176
1070
   256
1070
   177
1070
   256
1070
   178
1070
   256
1070
   279
1070
     2
1002
}
  0
DIMENSION
  5
9083
330
747D
100
AcDbEntity
  8
寸法引出
 48
20.0
100
AcDbDimension
  2
*D5
 10
1892.232731783028
 20
1442.286261462754
 30
0.0
 11
1862.232731783027
 21
1817.286261462754
 31
0.0
 70
    32
 71
     5
 42
750.0
  3
SANWA
100
AcDbAlignedDimension
 13
2015.211387591882
 23
2192.286261462754
 33
0.0
 14
2015.211387591882
 24
1442.286261462754
 34
0.0
 50
90.0
100
AcDbRotatedDimension
1001
ACAD
1000
DSTYLE
1002
{
1070
    40
1040
15.0
1070
    41
1040
1.5
1070
    43
1040
5.0
1070
    44
1040
0.5
1070
   140
1040
2.0
1070
   147
1040
1.0
1070
   176
1070
   256
1070
   177
1070
   256
1070
   178
1070
   256
1070
   279
1070
     2
1002
}
  0
LINE
  5
91F4
330
747D
100
AcDbEntity
  8
0
 48
20.0
100
AcDbLine
 10
2208.486632061835
 20
554.9957933614259
 30
0.0
 11
2208.486632061835
 21
524.9957933614259
 31
0.0
  0
LINE
  5
91F7
330
747D
100
AcDbEntity
  8
0
 48
20.0
100
AcDbLine
 10
2183.486632061835
 20
449.9957933614259
 30
0.0
 11
2208.486632061835
 21
524.9957933614259
 31
0.0
  0
LINE
  5
91FA
330
747D
100
AcDbEntity
  8
0
 48
20.0
100
AcDbLine
 10
2233.486632061835
 20
429.9957933614259
 30
0.0
 11
2183.486632061835
 21
449.9957933614259
 31
0.0
  0
LINE
  5
91FB
330
747D
100
AcDbEntity
  8
0
 48
20.0
100
AcDbLine
 10
2208.486632061835
 20
554.9957933614259
 30
0.0
 11
2108.486632061835
 21
554.9957933614259
 31
0.0
  0
LINE
  5
91FC
330
747D
100
AcDbEntity
  8
0
 48
20.0
100
AcDbLine
 10
2258.486632061835
 20
554.9957933614259
 30
0.0
 11
2358.486632061835
 21
554.9957933614259
 31
0.0
  0
LINE
  5
91FD
330
747D
100
AcDbEntity
  8
0
 48
20.0
100
AcDbLine
 10
2233.486632061835
 20
429.9957933614259
 30
0.0
 11
2283.486632061835
 21
449.9957933614259
 31
0.0
  0
LINE
  5
91FE
330
747D
100
AcDbEntity
  8
0
 48
20.0
100
AcDbLine
 10
2283.486632061835
 20
449.9957933614259
 30
0.0
 11
2258.486632061835
 21
524.9957933614259
 31
0.0
  0
LINE
  5
91FF
330
747D
100
AcDbEntity
  8
0
 48
20.0
100
AcDbLine
 10
2258.486632061835
 20
554.9957933614259
 30
0.0
 11
2258.486632061835
 21
524.9957933614259
 31
0.0
  0
LINE
  5
9200
330
747D
100
AcDbEntity
  8
0
100
AcDbLine
 10
2068.753135859519
 20
698.135509526985
 30
0.0
 11
2391.649022268593
 21
698.135509526985
 31
0.0
  0
TEXT
  5
9201
330
747D
100
AcDbEntity
  8
0
100
AcDbText
 10
2066.9542438415
 20
709.9767600115419
 30
0.0
 40
36.0
  1
目地部詳細図
  7
SANWA
 72
     4
 11
2224.942815270071
 21
728.5939028686848
 31
0.0
100
AcDbText
  0
DIMENSION
  5
9202
330
747D
100
AcDbEntity
  8
寸法引出
 48
20.0
100
AcDbDimension
  2
*D6
 10
2208.486632061835
 20
619.4518280663687
 30
0.0
 11
2220.986632061835
 21
649.4518280663688
 31
0.0
 70
    32
  1
5
 71
     5
 42
25.0
  3
SANWA
100
AcDbAlignedDimension
 13
2233.486632061835
 23
429.9957933614259
 33
0.0
 14
2208.486632061835
 24
554.9957933614259
 34
0.0
100
AcDbRotatedDimension
1001
ACAD
1000
DSTYLE
1002
{
1070
    40
1040
15.0
1070
    41
1040
1.5
1070
    43
1040
5.0
1070
    44
1040
0.5
1070
   140
1040
2.0
1070
   147
1040
1.0
1070
   176
1070
   256
1070
   177
1070
   256
1070
   178
1070
   256
1070
   279
1070
     2
1002
}
  0
DIMENSION
  5
9241
330
747D
100
AcDbEntity
  8
寸法引出
 48
20.0
100
AcDbDimension
  2
*D7
 10
2067.998898564288
 20
524.9957933614259
 30
0.0
 11
2034.924780979258
 21
573.7395975621748
 31
0.0
 70
   160
  1
6
 71
     5
 42
30.0
  3
SANWA
100
AcDbAlignedDimension
 13
2108.486632061835
 23
554.9957933614259
 33
0.0
 14
2208.486632061835
 24
524.9957933614259
 34
0.0
 50
90.0
100
AcDbRotatedDimension
1001
ACAD
1000
DSTYLE
1002
{
1070
    40
1040
15.0
1070
    41
1040
1.5
1070
    43
1040
5.0
1070
    44
1040
0.5
1070
   140
1040
2.0
1070
   147
1040
1.0
1070
   176
1070
   256
1070
   177
1070
   256
1070
   178
1070
   256
1070
   279
1070
     2
1002
}
  0
DIMENSION
  5
9250
330
747D
100
AcDbEntity
  8
寸法引出
 48
20.0
100
AcDbDimension
  2
*D8
 10
2067.998898564288
 20
449.995793361426
 30
0.0
 11
2037.998898564289
 21
487.4957933614263
 31
0.0
 70
    32
  1
15
 71
     5
 42
74.99999999999994
  3
SANWA
100
AcDbAlignedDimension
 13
2208.486632061835
 23
524.9957933614259
 33
0.0
 14
2183.486632061835
 24
449.9957933614259
 34
0.0
 50
90.0
100
AcDbRotatedDimension
1001
ACAD
1000
DSTYLE
1002
{
1070
    40
1040
15.0
1070
    41
1040
1.5
1070
    43
1040
5.0
1070
    44
1040
0.5
1070
   140
1040
2.0
1070
   147
1040
1.0
1070
   176
1070
   256
1070
   177
1070
   256
1070
   178
1070
   256
1070
   279
1070
     2
1002
}
  0
DIMENSION
  5
925F
330
747D
100
AcDbEntity
  8
寸法引出
 48
20.0
100
AcDbDimension
  2
*D9
 10
2067.998898564288
 20
429.995793361426
 30
0.0
 11
2037.526880556332
 21
413.3687507796858
 31
0.0
 70
   160
  1
4
 71
     5
 42
20.0
  3
SANWA
100
AcDbAlignedDimension
 13
2183.486632061835
 23
449.9957933614259
 33
0.0
 14
2233.486632061835
 24
429.9957933614259
 34
0.0
 50
90.0
100
AcDbRotatedDimension
1001
ACAD
1000
DSTYLE
1002
{
1070
    40
1040
15.0
1070
    41
1040
1.5
1070
    43
1040
5.0
1070
    44
1040
0.5
1070
   140
1040
2.0
1070
   147
1040
1.0
1070
   176
1070
   256
1070
   177
1070
   256
1070
   178
1070
   256
1070
   279
1070
     2
1002
}
  0
DIMENSION
  5
928F
330
747D
100
AcDbEntity
  8
寸法引出
 48
20.0
100
AcDbDimension
  2
*D10
 10
2233.486632061835
 20
360.3989898490363
 30
0.0
 11
2208.486632061835
 21
390.3989898490363
 31
0.0
 70
    32
  1
10
 71
     5
 42
50.0
  3
SANWA
100
AcDbAlignedDimension
 13
2183.486632061835
 23
449.9957933614259
 33
0.0
 14
2233.486632061835
 24
429.9957933614259
 34
0.0
100
AcDbRotatedDimension
1001
ACAD
1000
DSTYLE
1002
{
1070
    40
1040
15.0
1070
    41
1040
1.5
1070
    43
1040
5.0
1070
    44
1040
0.5
1070
   140
1040
2.0
1070
   147
1040
1.0
1070
   176
1070
   256
1070
   177
1070
   256
1070
   178
1070
   256
1070
   279
1070
     2
1002
}
  0
MTEXT
  5
92EB
330
747D
100
AcDbEntity
  8
寸法引出
 48
20.0
100
AcDbMText
 10
2356.282737768199
 20
590.303126615272
 30
0.0
 40
30.0
 41
0.0
 71
     5
 72
     1
  1
内面
  7
SANWA
 73
     1
 44
1.0
1001
ACAD
1000
MTEXTBEGIN
1070
    73
1070
     1
1070
    44
1040
1.0
1070
    74
1070
     0
1000
MTEXTEND
  0
LEADER
  5
A032
330
747D
100
AcDbEntity
  8
寸法引出
 48
20.0
100
AcDbLeader
  3
SANWA
 76
     3
 10
1446.32821980076
 20
2190.036261462754
 30
0.0
 10
1517.579708870478
 20
2256.407174534929
 30
0.0
 10
1611.703492695928
 20
2256.407174534929
 30
0.0
1001
ACAD
1000
DSTYLE
1002
{
1070
    77
1070
     0
1070
    40
1040
15.0
1070
    41
1040
1.5
1070
    43
1040
5.0
1070
    44
1040
0.5
1070
   140
1040
2.0
1070
   147
1040
1.0
1070
   176
1070
   256
1070
   177
1070
   256
1070
   178
1070
   256
1070
   279
1070
     2
1002
}
  0
DIMENSION
  5
A033
330
747D
100
AcDbEntity
  8
寸法引出
 48
20.0
100
AcDbDimension
  2
*D16
 10
1448.57821980076
 20
2350.292873914732
 30
0.0
 11
1228.57821980076
 21
2380.292873914732
 31
0.0
 70
    32
 71
     5
 42
440.0
  3
SANWA
100
AcDbAlignedDimension
 13
1008.57821980076
 23
2187.786261462754
 33
0.0
 14
1448.57821980076
 24
2187.786261462753
 34
0.0
100
AcDbRotatedDimension
1001
ACAD
1000
DSTYLE
1002
{
1070
    40
1040
15.0
1070
    41
1040
1.5
1070
    43
1040
5.0
1070
    44
1040
0.5
1070
   140
1040
2.0
1070
   147
1040
1.0
1070
   176
1070
   256
1070
   177
1070
   256
1070
   178
1070
   256
1070
   279
1070
     2
1002
}
  0
DIMENSION
  5
A034
330
747D
100
AcDbEntity
  8
寸法引出
 48
20.0
100
AcDbDimension
  2
*D15
 10
1448.57821980076
 20
2256.257542225998
 30
0.0
 11
1413.57821980076
 21
2286.257542225998
 31
0.0
 70
    32
 71
     5
 42
70.0
  3
SANWA
100
AcDbAlignedDimension
 13
1378.57821980076
 23
2112.286261462754
 33
0.0
 14
1448.57821980076
 24
2187.786261462753
 34
0.0
100
AcDbRotatedDimension
1001
ACAD
1000
DSTYLE
1002
{
1070
    40
1040
15.0
1070
    41
1040
1.5
1070
    43
1040
5.0
1070
    44
1040
0.5
1070
   140
1040
2.0
1070
   147
1040
1.0
1070
   176
1070
   256
1070
   177
1070
   256
1070
   178
1070
   256
1070
   279
1070
     2
1002
}
  0
DIMENSION
  5
A035
330
747D
100
AcDbEntity
  8
寸法引出
 48
20.0
100
AcDbDimension
  2
*D14
 10
1378.57821980076
 20
2256.257542225998
 30
0.0
 11
1228.57821980076
 21
2286.257542225998
 31
0.0
 70
    32
 71
     5
 42
300.0
  3
SANWA
100
AcDbAlignedDimension
 13
1078.57821980076
 23
2112.286261462754
 33
0.0
 14
1378.57821980076
 24
2112.286261462754
 34
0.0
100
AcDbRotatedDimension
1001
ACAD
1000
DSTYLE
1002
{
1070
    40
1040
15.0
1070
    41
1040
1.5
1070
    43
1040
5.0
1070
    44
1040
0.5
1070
   140
1040
2.0
1070
   147
1040
1.0
1070
   176
1070
   256
1070
   177
1070
   256
1070
   178
1070
   256
1070
   279
1070
     2
1002
}
  0
DIMENSION
  5
A036
330
747D
100
AcDbEntity
  8
寸法引出
 48
20.0
100
AcDbDimension
  2
*D13
 10
1078.57821980076
 20
2256.257542225998
 30
0.0
 11
1063.82990821137
 21
2284.884429882117
 31
0.0
 70
   160
 71
     5
 42
27.5
  3
SANWA
100
AcDbAlignedDimension
 13
1051.07821980076
 23
2112.286261462754
 33
0.0
 14
1078.57821980076
 24
2112.286261462754
 34
0.0
100
AcDbRotatedDimension
1001
ACAD
1000
DSTYLE
1002
{
1070
    40
1040
15.0
1070
    41
1040
1.5
1070
    43
1040
5.0
1070
    44
1040
0.5
1070
   140
1040
2.0
1070
   147
1040
1.0
1070
   176
1070
   256
1070
   177
1070
   256
1070
   178
1070
   256
1070
   279
1070
     2
1002
}
  0
DIMENSION
  5
A037
330
747D
100
AcDbEntity
  8
寸法引出
 48
20.0
100
AcDbDimension
  2
*D12
 10
1051.07821980076
 20
2256.257542225998
 30
0.0
 11
1048.347113990905
 21
2320.474632647816
 31
0.0
 70
   160
 71
     5
 42
2.5
  3
SANWA
100
AcDbAlignedDimension
 13
1048.57821980076
 23
2192.286261462754
 33
0.0
 14
1051.07821980076
 24
2112.286261462754
 34
0.0
100
AcDbRotatedDimension
1001
ACAD
1000
DSTYLE
1002
{
1070
    40
1040
15.0
1070
    41
1040
1.5
1070
    43
1040
5.0
1070
    44
1040
0.5
1070
   140
1040
2.0
1070
   147
1040
1.0
1070
   176
1070
   256
1070
   177
1070
   256
1070
   178
1070
   256
1070
   279
1070
     2
1002
}
  0
DIMENSION
  5
A038
330
747D
100
AcDbEntity
  8
寸法引出
 48
20.0
100
AcDbDimension
  2
*D11
 10
1048.57821980076
 20
2256.257542225998
 30
0.0
 11
981.7710332749994
 21
2286.431821784259
 31
0.0
 70
   160
 71
     5
 42
40.0
  3
SANWA
100
AcDbAlignedDimension
 13
1008.57821980076
 23
2187.786261462754
 33
0.0
 14
1048.57821980076
 24
2192.286261462754
 34
0.0
100
AcDbRotatedDimension
1001
ACAD
1000
DSTYLE
1002
{
1070
    40
1040
15.0
1070
    41
1040
1.5
1070
    43
1040
5.0
1070
    44
1040
0.5
1070
   140
1040
2.0
1070
   147
1040
1.0
1070
   176
1070
   256
1070
   177
1070
   256
1070
   178
1070
   256
1070
   279
1070
     2
1002
}
  0
MTEXT
  5
A043
330
747D
100
AcDbEntity
  8
寸法引出
 48
20.0
100
AcDbMText
 10
1194.487596821057
 20
1639.355382353805
 30
0.0
 40
30.0
 41
0.0
 71
     5
 72
     1
  1
50r
  7
SANWA
 73
     1
 44
1.0
1001
ACAD
1000
MTEXTBEGIN
1070
    73
1070
     1
1070
    44
1040
1.0
1070
    74
1070
     0
1000
MTEXTEND
  0
LINE
  5
A046
330
747D
100
AcDbEntity
  8
0
 48
15.0
100
AcDbLine
 10
1378.258219800761
 20
2104.286261462752
 30
0.0
 11
1356.807577421978
 21
1568.020201993208
 31
0.0
  0
LINE
  5
A047
330
747D
100
AcDbEntity
  8
0
 48
15.0
100
AcDbLine
 10
1078.89821980076
 20
2104.286261462753
 30
0.0
 11
1100.348862179542
 21
1568.020201993208
 31
0.0
  0
LINE
  5
A04C
330
747D
100
AcDbEntity
  8
0
 48
20.0
100
AcDbLine
 10
1396.194886467428
 20
1442.286261462754
 30
0.0
 11
1060.961553134093
 21
1442.286261462754
 31
0.0
  0
LEADER
  5
A04D
330
747D
100
AcDbEntity
  8
寸法引出
 48
20.0
100
AcDbLeader
  3
SANWA
 76
     3
 10
1112.290468846302
 20
1537.544027339885
 30
0.0
 10
1154.713335631653
 20
1617.864147650907
 30
0.0
 10
1225.409096911368
 20
1617.864147650907
 30
0.0
1001
ACAD
1000
DSTYLE
1002
{
1070
    77
1070
     0
1070
    40
1040
15.0
1070
    41
1040
1.5
1070
    43
1040
5.0
1070
    44
1040
0.5
1070
   140
1040
2.0
1070
   147
1040
1.0
1070
   176
1070
   256
1070
   177
1070
   256
1070
   178
1070
   256
1070
   279
1070
     2
1002
}
  0
LEADER
  5
A054
330
747D
100
AcDbEntity
  8
寸法引出
 48
20.0
100
AcDbLeader
  3
SANWA
 76
     3
 10
1406.67821980076
 20
1452.286261462754
 30
0.0
 10
1477.243434082573
 20
1368.758193813094
 30
0.0
 10
1567.421219461316
 20
1368.758193813094
 30
0.0
1001
ACAD
1000
DSTYLE
1002
{
1070
    77
1070
     0
1070
    40
1040
15.0
1070
    41
1040
1.5
1070
    43
1040
5.0
1070
    44
1040
0.5
1070
   140
1040
2.0
1070
   147
1040
1.0
1070
   176
1070
   256
1070
   177
1070
   256
1070
   178
1070
   256
1070
   279
1070
     2
1002
}
  0
MTEXT
  5
A055
330
747D
100
AcDbEntity
  8
寸法引出
 48
20.0
100
AcDbMText
 10
1529.903417298385
 20
1389.965663248459
 30
0.0
 40
30.0
 41
0.0
 71
     5
 72
     1
  1
20C
  7
SANWA
 73
     1
 44
1.0
1001
ACAD
1000
MTEXTBEGIN
1070
    73
1070
     1
1070
    44
1040
1.0
1070
    74
1070
     0
1000
MTEXTEND
  0
LEADER
  5
A05A
330
747D
100
AcDbEntity
  8
寸法引出
 48
20.0
100
AcDbLeader
  3
SANWA
 76
     3
 10
1189.091552141624
 20
1514.022050224363
 30
0.0
 10
1226.729374599182
 20
1578.775333318871
 30
0.0
 10
1322.034085112657
 20
1578.775333318871
 30
0.0
1001
ACAD
1000
DSTYLE
1002
{
1070
    77
1070
     0
1070
    40
1040
15.0
1070
    41
1040
1.5
1070
    43
1040
5.0
1070
    44
1040
0.5
1070
   140
1040
2.0
1070
   147
1040
1.0
1070
   176
1070
   256
1070
   177
1070
   256
1070
   178
1070
   256
1070
   279
1070
     2
1002
}
  0
MTEXT
  5
A05C
330
747D
100
AcDbEntity
  8
寸法引出
 48
20.0
100
AcDbMText
 10
1279.165965505813
 20
1602.378827045116
 30
0.0
 40
30.0
 41
0.0
 71
     5
 72
     1
  1
450r
  7
SANWA
 73
     1
 44
1.0
1001
ACAD
1000
MTEXTBEGIN
1070
    73
1070
     1
1070
    44
1040
1.0
1070
    74
1070
     0
1000
MTEXTEND
  0
DIMENSION
  5
A062
330
747D
100
AcDbEntity
  8
寸法引出
 48
20.0
100
AcDbDimension
  2
*D17
 10
900.9095255738175
 20
2112.286261462754
 30
0.0
 11
870.9095255738171
 21
2152.286261462754
 31
0.0
 70
    32
 71
     5
 42
80.0
  3
SANWA
100
AcDbAlignedDimension
 13
1013.07821980076
 23
2192.286261462754
 33
0.0
 14
1008.57821980076
 24
2112.286261462754
 34
0.0
 50
90.0
100
AcDbRotatedDimension
1001
ACAD
1000
DSTYLE
1002
{
1070
    40
1040
15.0
1070
    41
1040
1.5
1070
    43
1040
5.0
1070
    44
1040
0.5
1070
   140
1040
2.0
1070
   147
1040
1.0
1070
   176
1070
   256
1070
   177
1070
   256
1070
   178
1070
   256
1070
   279
1070
     2
1002
}
  0
DIMENSION
  5
A063
330
747D
100
AcDbEntity
  8
寸法引出
 48
20.0
100
AcDbDimension
  2
*D19
 10
1142.190475932278
 20
2104.286261462753
 30
0.0
 11
1116.344013815354
 21
2083.870510571955
 31
0.0
 70
   160
 71
     5
 42
8.0
  3
SANWA
100
AcDbAlignedDimension
 13
1067.078219800759
 23
2112.286261462753
 33
0.0
 14
1078.898219800759
 24
2104.286261462753
 34
0.0
 50
90.0
100
AcDbRotatedDimension
1001
ACAD
1000
DSTYLE
1002
{
1070
    40
1040
15.0
1070
    41
1040
1.5
1070
    43
1040
5.0
1070
    44
1040
0.5
1070
   140
1040
2.0
1070
   147
1040
1.0
1070
   176
1070
   256
1070
   177
1070
   256
1070
   178
1070
   256
1070
   279
1070
     2
1002
}
  0
LINE
  5
A064
330
747D
100
AcDbEntity
  8
0
 48
20.0
100
AcDbLine
 10
1067.078219800759
 20
2112.286261462753
 30
0.0
 11
1078.898219800759
 21
2104.286261462753
 31
0.0
  0
LINE
  5
A065
330
747D
100
AcDbEntity
  8
0
 48
15.0
100
AcDbLine
 10
1054.358227794367
 20
2092.286261462755
 30
0.0
 11
1079.378219800759
 21
2092.286261462754
 31
0.0
  0
DIMENSION
  5
A066
330
747D
100
AcDbEntity
  8
寸法引出
 48
20.0
100
AcDbDimension
  2
*D18
 10
1078.57821980076
 20
2141.581086379179
 30
0.0
 11
1101.201646026633
 21
2172.358700798222
 31
0.0
 70
   160
 71
     5
 42
11.50000000000091
  3
SANWA
100
AcDbAlignedDimension
 13
1067.078219800759
 23
2112.286261462753
 33
0.0
 14
1078.57821980076
 24
2112.286261462754
 34
0.0
100
AcDbRotatedDimension
1001
ACAD
1000
DSTYLE
1002
{
1070
    40
1040
15.0
1070
    41
1040
1.5
1070
    43
1040
5.0
1070
    44
1040
0.5
1070
   140
1040
2.0
1070
   147
1040
1.0
1070
   176
1070
   256
1070
   177
1070
   256
1070
   178
1070
   256
1070
   279
1070
     2
1002
}
  0
LINE
  5
A067
330
747D
100
AcDbEntity
  8
0
 48
15.0
100
AcDbLine
 10
1013.07821980076
 20
2192.286261462754
 30
0.0
 11
1048.57821980076
 21
2192.286261462754
 31
0.0
  0
LINE
  5
A068
330
747D
100
AcDbEntity
  8
0
 48
15.0
100
AcDbLine
 10
1008.57821980076
 20
2187.786261462754
 30
0.0
 11
1008.57821980076
 21
2112.286261462754
 31
0.0
  0
LINE
  5
A069
330
747D
100
AcDbEntity
  8
0
 48
20.0
100
AcDbLine
 10
1008.57821980076
 20
2187.786261462754
 30
0.0
 11
1013.07821980076
 21
2192.286261462754
 31
0.0
  0
LINE
  5
A06A
330
747D
100
AcDbEntity
  8
0
 48
15.0
100
AcDbLine
 10
1048.57821980076
 20
2192.286261462754
 30
0.0
 11
1051.07821980076
 21
2112.286261462754
 31
0.0
  0
LINE
  5
A06B
330
747D
100
AcDbEntity
  8
0
 48
15.0
100
AcDbLine
 10
1051.07821980076
 20
2112.286261462754
 30
0.0
 11
1067.078219800759
 21
2112.286261462753
 31
0.0
  0
LINE
  5
A06F
330
747D
100
AcDbEntity
  8
0
  6
CENTER2
 48
5.0
100
AcDbLine
 10
1457.73821980076
 20
1742.286261462754
 30
0.0
 11
1331.13821980076
 21
1742.286261462754
 31
0.0
  0
LINE
  5
A072
330
747D
100
AcDbEntity
  8
0
  6
HIDDEN2
 48
15.0
100
AcDbLine
 10
1428.27821980076
 20
1732.286261462754
 30
0.0
 11
1363.37821980076
 21
1732.286261462754
 31
0.0
  0
LINE
  5
A073
330
747D
100
AcDbEntity
  8
0
  6
HIDDEN2
 48
15.0
100
AcDbLine
 10
1428.27821980076
 20
1752.286261462754
 30
0.0
 11
1364.17821980076
 21
1752.286261462754
 31
0.0
  0
LINE
  5
A074
330
747D
100
AcDbEntity
  8
0
 48
15.0
100
AcDbLine
 10
1444.078219800759
 20
2192.286261462754
 30
0.0
 11
1408.57821980076
 21
2192.286261462754
 31
0.0
  0
LINE
  5
A075
330
747D
100
AcDbEntity
  8
0
 48
20.0
100
AcDbLine
 10
1390.078219800763
 20
2112.286261462753
 30
0.0
 11
1378.258219800764
 21
2104.286261462753
 31
0.0
  0
LINE
  5
A076
330
747D
100
AcDbEntity
  8
0
 48
15.0
100
AcDbLine
 10
1402.798211807154
 20
2092.286261462753
 30
0.0
 11
1377.778219800761
 21
2092.286261462754
 31
0.0
  0
LINE
  5
A077
330
747D
100
AcDbEntity
  8
0
 48
15.0
100
AcDbLine
 10
1408.57821980076
 20
2192.286261462754
 30
0.0
 11
1406.07821980076
 21
2112.286261462754
 31
0.0
  0
LINE
  5
A078
330
747D
100
AcDbEntity
  8
0
 48
15.0
100
AcDbLine
 10
1406.07821980076
 20
2112.286261462754
 30
0.0
 11
1390.078219800765
 21
2112.286261462754
 31
0.0
  0
LINE
  5
A079
330
747D
100
AcDbEntity
  8
0
 48
15.0
100
AcDbLine
 10
1448.57821980076
 20
2187.786261462753
 30
0.0
 11
1448.57821980076
 21
2112.286261462754
 31
0.0
  0
LINE
  5
A07A
330
747D
100
AcDbEntity
  8
0
 48
20.0
100
AcDbLine
 10
1448.57821980076
 20
2187.786261462754
 30
0.0
 11
1444.07821980076
 21
2192.286261462754
 31
0.0
  0
MTEXT
  5
A07B
330
747D
100
AcDbEntity
  8
寸法引出
 48
20.0
100
AcDbMText
 10
1566.545984399467
 20
2276.760770670408
 30
0.0
 40
30.0
 41
0.0
 71
     5
 72
     1
  1
4.5C
  7
SANWA
 73
     1
 44
1.0
1001
ACAD
1000
MTEXTBEGIN
1070
    73
1070
     1
1070
    44
1040
1.0
1070
    74
1070
     0
1000
MTEXTEND
  0
LINE
  5
A209
330
747D
100
AcDbEntity
  8
0
 48
20.0
100
AcDbLine
 10
1008.57821980076
 20
2112.286261462754
 30
0.0
 11
1039.994886467425
 21
1462.286261462753
 31
0.0
  0
LINE
  5
A20A
330
747D
100
AcDbEntity
  8
0
 48
20.0
100
AcDbLine
 10
1448.57821980076
 20
2112.286261462754
 30
0.0
 11
1417.161553134094
 21
1462.286261462754
 31
0.0
  0
ARC
  5
A20B
330
747D
100
AcDbEntity
  8
0
 48
20.0
100
AcDbCircle
 10
1228.57821980076
 20
1962.286261462754
 30
0.0
 40
450.0
100
AcDbArc
 50
258.7159429256867
 51
281.2840570743134
  0
DIMENSION
  5
A20D
330
747D
100
AcDbEntity
  8
寸法引出
 48
20.0
100
AcDbDimension
  2
*D20
 10
1354.57821980076
 20
1669.133723397137
 30
0.0
 11
1228.57821980076
 21
1699.133723397137
 31
0.0
 70
    32
 71
     5
 42
252.0
  3
SANWA
100
AcDbAlignedDimension
 13
1102.57821980076
 23
1512.286261462754
 33
0.0
 14
1354.57821980076
 24
1512.286261462754
 34
0.0
100
AcDbRotatedDimension
1001
ACAD
1000
DSTYLE
1002
{
1070
    40
1040
15.0
1070
    41
1040
1.5
1070
    43
1040
5.0
1070
    44
1040
0.5
1070
   140
1040
2.0
1070
   147
1040
1.0
1070
   176
1070
   256
1070
   177
1070
   256
1070
   178
1070
   256
1070
   279
1070
     2
1002
}
  0
DIMENSION
  5
A21B
330
747D
100
AcDbEntity
  8
寸法引出
 48
20.0
100
AcDbDimension
  2
*D21
 10
1037.57821980076
 20
1669.133723397137
 30
0.0
 11
1048.173099889658
 21
1699.345870001103
 31
0.0
 70
   160
 71
     5
 42
65.0
  3
SANWA
100
AcDbAlignedDimension
 13
1102.57821980076
 23
1512.286261462754
 33
0.0
 14
1037.57821980076
 24
1512.286261462754
 34
0.0
100
AcDbRotatedDimension
1001
ACAD
1000
DSTYLE
1002
{
1070
    40
1040
15.0
1070
    41
1040
1.5
1070
    43
1040
5.0
1070
    44
1040
0.5
1070
   140
1040
2.0
1070
   147
1040
1.0
1070
   176
1070
   256
1070
   177
1070
   256
1070
   178
1070
   256
1070
   279
1070
     2
1002
}
  0
DIMENSION
  5
A22A
330
747D
100
AcDbEntity
  8
寸法引出
 48
20.0
100
AcDbDimension
  2
*D22
 10
900.9095255738166
 20
1512.286261462754
 30
0.0
 11
870.9095255738164
 21
1812.286261462754
 31
0.0
 70
    32
 71
     5
 42
599.9999999999995
  3
SANWA
100
AcDbAlignedDimension
 13
1008.57821980076
 23
2112.286261462754
 33
0.0
 14
1037.57821980076
 24
1512.286261462754
 34
0.0
 50
90.0
100
AcDbRotatedDimension
1001
ACAD
1000
DSTYLE
1002
{
1070
    40
1040
15.0
1070
    41
1040
1.5
1070
    43
1040
5.0
1070
    44
1040
0.5
1070
   140
1040
2.0
1070
   147
1040
1.0
1070
   176
1070
   256
1070
   177
1070
   256
1070
   178
1070
   256
1070
   279
1070
     2
1002
}
  0
LINE
  5
A257
330
747D
100
AcDbEntity
  8
0
 48
20.0
100
AcDbLine
 10
1039.994886467426
 20
1462.286261462753
 30
0.0
 11
1060.961553134093
 21
1442.286261462754
 31
0.0
  0
LINE
  5
A258
330
747D
100
AcDbEntity
  8
0
 48
20.0
100
AcDbLine
 10
1417.161553134094
 20
1462.286261462754
 30
0.0
 11
1396.194886467428
 21
1442.286261462754
 31
0.0
  0
DIMENSION
  5
A259
330
747D
100
AcDbEntity
  8
寸法引出
 48
20.0
100
AcDbDimension
  2
*D23
 10
900.9095255738166
 20
1442.286261462754
 30
0.0
 11
870.9095255738164
 21
1477.286261462754
 31
0.0
 70
    32
 71
     5
 42
70.0
  3
SANWA
100
AcDbAlignedDimension
 13
1037.57821980076
 23
1512.286261462754
 33
0.0
 14
1060.961553134093
 24
1442.286261462754
 34
0.0
 50
90.0
100
AcDbRotatedDimension
1001
ACAD
1000
DSTYLE
1002
{
1070
    40
1040
15.0
1070
    41
1040
1.5
1070
    43
1040
5.0
1070
    44
1040
0.5
1070
   140
1040
2.0
1070
   147
1040
1.0
1070
   176
1070
   256
1070
   177
1070
   256
1070
   178
1070
   256
1070
   279
1070
     2
1002
}
  0
DIMENSION
  5
A268
330
747D
100
AcDbEntity
  8
寸法引出
 48
20.0
100
AcDbDimension
  2
*D24
 10
820.3332800497392
 20
1442.286261462754
 30
0.0
 11
790.3332800497389
 21
1817.286261462754
 31
0.0
 70
    32
 71
     5
 42
749.9999999999995
  3
SANWA
100
AcDbAlignedDimension
 13
1013.07821980076
 23
2192.286261462754
 33
0.0
 14
1060.961553134093
 24
1442.286261462754
 34
0.0
 50
90.0
100
AcDbRotatedDimension
1001
ACAD
1000
DSTYLE
1002
{
1070
    40
1040
15.0
1070
    41
1040
1.5
1070
    43
1040
5.0
1070
    44
1040
0.5
1070
   140
1040
2.0
1070
   147
1040
1.0
1070
   176
1070
   256
1070
   177
1070
   256
1070
   178
1070
   256
1070
   279
1070
     2
1002
}
  0
ARC
  5
A275
330
747D
100
AcDbEntity
  8
0
 48
20.0
100
AcDbCircle
 10
1150.308910115631
 20
1570.018603910651
 30
0.0
 40
50.0
100
AcDbArc
 50
182.2906100426395
 51
258.7159429256867
  0
ARC
  5
A276
330
747D
100
AcDbEntity
  8
0
 48
20.0
100
AcDbCircle
 10
1306.847529485888
 20
1570.018603910651
 30
0.0
 40
50.0
100
AcDbArc
 50
281.2840570743134
 51
357.7093899573604
  0
LINE
  5
A277
330
747D
100
AcDbEntity
  8
0
 48
15.0
100
AcDbLine
 10
1073.373421719225
 20
2092.286261462753
 30
0.0
 11
1094.353656427212
 21
1567.780393763114
 31
0.0
  0
ARC
  5
A278
330
747D
100
AcDbEntity
  8
0
 48
20.0
100
AcDbCircle
 10
1150.308910115631
 20
1570.018603910651
 30
0.0
 40
56.0
100
AcDbArc
 50
182.2906100426395
 51
258.7159429256867
  0
ARC
  5
A279
330
747D
100
AcDbEntity
  8
0
 48
20.0
100
AcDbCircle
 10
1228.57821980076
 20
1962.286261462754
 30
0.0
 40
456.0
100
AcDbArc
 50
258.7159429256867
 51
281.2840570743134
  0
ARC
  5
A27A
330
747D
100
AcDbEntity
  8
0
 48
20.0
100
AcDbCircle
 10
1306.847529485888
 20
1570.018603910651
 30
0.0
 40
56.0
100
AcDbArc
 50
281.2840570743134
 51
357.7093899573604
  0
LINE
  5
A27B
330
747D
100
AcDbEntity
  8
0
 48
15.0
100
AcDbLine
 10
1383.783017882296
 20
2092.286261462754
 30
0.0
 11
1362.802783174309
 21
1567.780393763114
 31
0.0
  0
LINE
  5
A27C
330
747D
100
AcDbEntity
  8
0
 48
15.0
100
AcDbLine
 10
1058.361426515389
 20
2092.286261462754
 30
0.0
 11
1079.365642046385
 21
1567.180873187881
 31
0.0
  0
ARC
  5
A27D
330
747D
100
AcDbEntity
  8
0
 48
20.0
100
AcDbCircle
 10
1150.308910115631
 20
1570.018603910651
 30
0.0
 40
71.0
100
AcDbArc
 50
182.2906100426395
 51
258.7159429256867
  0
ARC
  5
A27E
330
747D
100
AcDbEntity
  8
0
 48
20.0
100
AcDbCircle
 10
1228.57821980076
 20
1962.286261462754
 30
0.0
 40
471.0
100
AcDbArc
 50
258.7159429256867
 51
281.2840570743134
  0
ARC
  5
A27F
330
747D
100
AcDbEntity
  8
0
 48
20.0
100
AcDbCircle
 10
1306.847529485888
 20
1570.018603910651
 30
0.0
 40
71.0
100
AcDbArc
 50
281.2840570743134
 51
357.7093899573604
  0
LINE
  5
A280
330
747D
100
AcDbEntity
  8
0
 48
15.0
100
AcDbLine
 10
1398.795013086132
 20
2092.286261462753
 30
0.0
 11
1377.790797555136
 21
1567.180873187881
 31
0.0
  0
LINE
  5
A281
330
747D
100
AcDbEntity
  8
0
 48
15.0
100
AcDbLine
 10
1054.358227794367
 20
2092.286261462755
 30
0.0
 11
1075.368838211498
 21
1567.021001034486
 31
0.0
  0
ARC
  5
A282
330
747D
100
AcDbEntity
  8
0
 48
20.0
100
AcDbCircle
 10
1150.308910115631
 20
1570.018603910651
 30
0.0
 40
75.0
100
AcDbArc
 50
182.2906100426395
 51
258.7159429256867
  0
ARC
  5
A283
330
747D
100
AcDbEntity
  8
0
 48
20.0
100
AcDbCircle
 10
1228.57821980076
 20
1962.286261462754
 30
0.0
 40
475.0
100
AcDbArc
 50
258.7159429256867
 51
281.2840570743134
  0
ARC
  5
A284
330
747D
100
AcDbEntity
  8
0
 48
20.0
100
AcDbCircle
 10
1306.847529485888
 20
1570.018603910651
 30
0.0
 40
75.0
100
AcDbArc
 50
281.2840570743134
 51
357.7093899573604
  0
LINE
  5
A285
330
747D
100
AcDbEntity
  8
0
 48
15.0
100
AcDbLine
 10
1402.798211807154
 20
2092.286261462753
 30
0.0
 11
1381.787601390023
 21
1567.021001034486
 31
0.0
  0
LINE
  5
A54C
330
747D
100
AcDbEntity
  8
0
  6
HIDDEN2
 48
15.0
100
AcDbLine
 10
1428.27821980076
 20
1692.286261462754
 30
0.0
 11
1428.27821980076
 21
1782.286261462754
 31
0.0
  0
LINE
  5
A54D
330
747D
100
AcDbEntity
  8
0
 48
20.0
100
AcDbLine
 10
1428.27821980076
 20
1782.286261462754
 30
0.0
 11
1433.111553134094
 21
1792.286261462754
 31
0.0
  0
LINE
  5
A54E
330
747D
100
AcDbEntity
  8
0
 48
20.0
100
AcDbLine
 10
1028.878219800761
 20
1782.286261462754
 30
0.0
 11
1024.044886467427
 21
1792.286261462754
 31
0.0
  0
LINE
  5
A54F
330
747D
100
AcDbEntity
  8
0
  6
HIDDEN2
 48
15.0
100
AcDbLine
 10
1028.878219800761
 20
1692.286261462754
 30
0.0
 11
1028.878219800761
 21
1782.286261462754
 31
0.0
  0
LINE
  5
A550
330
747D
100
AcDbEntity
  8
0
  6
CENTER2
 48
5.0
100
AcDbLine
 10
999.418219800761
 20
1742.286261462754
 30
0.0
 11
1126.01821980076
 21
1742.286261462754
 31
0.0
  0
LINE
  5
A551
330
747D
100
AcDbEntity
  8
0
  6
HIDDEN2
 48
15.0
100
AcDbLine
 10
1028.878219800761
 20
1732.286261462754
 30
0.0
 11
1093.778219800761
 21
1732.286261462754
 31
0.0
  0
LINE
  5
A552
330
747D
100
AcDbEntity
  8
0
  6
HIDDEN2
 48
15.0
100
AcDbLine
 10
1028.878219800761
 20
1752.286261462754
 30
0.0
 11
1092.97821980076
 21
1752.286261462754
 31
0.0
  0
DIMENSION
  5
B2E3
330
747D
100
AcDbEntity
  8
寸法引出
 48
20.0
100
AcDbDimension
  2
*D49
 10
4129.910863600246
 20
1742.286261462754
 30
0.0
 11
4099.910863600245
 21
1967.286261462754
 31
0.0
 70
    32
 71
     5
 42
450.0
  3
SANWA
100
AcDbAlignedDimension
 13
4013.211387591883
 23
2192.286261462754
 33
0.0
 14
4013.211387591883
 24
1742.286261462754
 34
0.0
 50
90.0
100
AcDbRotatedDimension
1001
ACAD
1000
DSTYLE
1002
{
1070
    40
1040
15.0
1070
    41
1040
1.5
1070
    43
1040
5.0
1070
    44
1040
0.5
1070
   140
1040
2.0
1070
   147
1040
1.0
1070
   176
1070
   256
1070
   177
1070
   256
1070
   178
1070
   256
1070
   279
1070
     2
1002
}
  0
DIMENSION
  5
B2F0
330
747D
100
AcDbEntity
  8
寸法引出
 48
20.0
100
AcDbDimension
  2
*D50
 10
4129.910863600245
 20
1442.286261462754
 30
0.0
 11
4099.910863600245
 21
1592.286261462754
 31
0.0
 70
    32
 71
     5
 42
300.0
  3
SANWA
100
AcDbAlignedDimension
 13
4013.211387591883
 23
1742.286261462754
 33
0.0
 14
4013.211387591883
 24
1442.286261462754
 34
0.0
 50
90.0
100
AcDbRotatedDimension
1001
ACAD
1000
DSTYLE
1002
{
1070
    40
1040
15.0
1070
    41
1040
1.5
1070
    43
1040
5.0
1070
    44
1040
0.5
1070
   140
1040
2.0
1070
   147
1040
1.0
1070
   176
1070
   256
1070
   177
1070
   256
1070
   178
1070
   256
1070
   279
1070
     2
1002
}
  0
VIEWPORT
  5
7540
102
{ACAD_XDICTIONARY
360
B557
102
}
330
747A
100
AcDbEntity
 67
     1
  8
0
100
AcDbViewport
 10
2878.243789599006
 20
970.3639114717196
 30
0.0
 40
6257.342359533289
 41
4285.736489239756
 68
     1
 69
     1
 12
2878.243789599006
 22
970.3639114717196
 13
0.0
 23
0.0
 14
10.0
 24
10.0
 15
10.0
 25
10.0
 16
0.0
 26
0.0
 36
1.0
 17
0.0
 27
0.0
 37
0.0
 42
50.0
 43
0.0
 44
0.0
 45
4285.736489239756
 50
0.0
 51
0.0
 72
   100
 90
    32800
  1

281
     0
 71
     1
 74
     0
110
0.0
120
0.0
130
0.0
111
1.0
121
0.0
131
0.0
112
0.0
122
1.0
132
0.0
 79
     0
146
0.0
  0
TEXT
  5
7737
330
747A
100
AcDbEntity
 67
     1
  8
0
 48
2.0
100
AcDbText
 10
331.871196811185
 20
20.60428158404022
 30
0.0
 40
2.0
  1

  7
SANWA
100
AcDbText
  0
ENDSEC
  0
SECTION
  2
OBJECTS
  0
DICTIONARY
  5
7471
330
0
100
AcDbDictionary
281
     1
  3
ACAD_COLOR
350
B2B3
  3
ACAD_GROUP
350
7472
  3
ACAD_LAYOUT
350
7F6B
  3
ACAD_MATERIAL
350
B289
  3
ACAD_MLEADERSTYLE
350
B2D8
  3
ACAD_MLINESTYLE
350
7473
  3
ACAD_PLOTSETTINGS
350
7F6C
  3
ACAD_PLOTSTYLENAME
350
7F69
  3
ACAD_SCALELIST
350
B2B6
  3
ACAD_TABLESTYLE
350
B2B4
  3
ACAD_VISUALSTYLE
350
B2A2
  3
AcadDim
350
B233
  3
ACDB_RECOMPOSE_DATA
350
B314
  3
ACDBVARIABLEDICTIONARY
350
789B
  3
ASE_INDEX_DICTIONARY
350
B285
  3
DWGPROPS
350
B556
  0
DICTIONARY
  5
B330
330
746D
100
AcDbDictionary
280
     1
281
     1
  0
DICTIONARY
  5
B306
330
7474
100
AcDbDictionary
280
     1
281
     1
  3
ADSK_XREC_LAYER_RECONCILED
360
B307
  0
DICTIONARY
  5
B308
330
7486
100
AcDbDictionary
280
     1
281
     1
  3
ADSK_XREC_LAYER_RECONCILED
360
B309
  0
DICTIONARY
  5
B30A
330
7950
100
AcDbDictionary
280
     1
281
     1
  3
ADSK_XREC_LAYER_RECONCILED
360
B30B
  0
DICTIONARY
  5
B30C
330
7D58
100
AcDbDictionary
280
     1
281
     1
  3
ADSK_XREC_LAYER_RECONCILED
360
B30D
  0
DICTIONARY
  5
B30E
330
7D59
100
AcDbDictionary
280
     1
281
     1
  3
ADSK_XREC_LAYER_RECONCILED
360
B30F
  0
DICTIONARY
  5
B310
330
7D5A
100
AcDbDictionary
280
     1
281
     1
  3
ADSK_XREC_LAYER_RECONCILED
360
B311
  0
DICTIONARY
  5
B557
330
7540
100
AcDbDictionary
280
     1
281
     1
  3
ACAD_XREC_ROUNDTRIP
360
B558
  0
DICTIONARY
  5
B2B3
102
{ACAD_REACTORS
330
7471
102
}
330
7471
100
AcDbDictionary
281
     1
  0
DICTIONARY
  5
7472
102
{ACAD_REACTORS
330
7471
102
}
330
0
100
AcDbDictionary
281
     1
  0
DICTIONARY
  5
7F6B
102
{ACAD_REACTORS
330
7471
102
}
330
7471
100
AcDbDictionary
281
     1
  3
Model
350
7F6D
  3
ﾚｲｱｳﾄ1
350
7F6E
  0
DICTIONARY
  5
B289
102
{ACAD_REACTORS
330
7471
102
}
330
7471
100
AcDbDictionary
281
     1
  3
ByBlock
350
B292
  3
ByLayer
350
B28A
  3
Global
350
B29A
  0
DICTIONARY
  5
B2D8
102
{ACAD_REACTORS
330
7471
102
}
330
7471
100
AcDbDictionary
281
     1
  3
Standard
350
B2D9
  0
DICTIONARY
  5
7473
102
{ACAD_REACTORS
330
7471
102
}
330
0
100
AcDbDictionary
281
     1
  3
STANDARD
350
7480
  0
DICTIONARY
  5
7F6C
102
{ACAD_REACTORS
330
7471
102
}
330
7471
100
AcDbDictionary
281
     1
  0
ACDBDICTIONARYWDFLT
  5
7F69
102
{ACAD_REACTORS
330
7471
102
}
330
7471
100
AcDbDictionary
281
     1
  3
Normal
350
7F6A
100
AcDbDictionaryWithDefault
340
7F6A
  0
DICTIONARY
  5
B2B6
102
{ACAD_REACTORS
330
7471
102
}
330
7471
100
AcDbDictionary
281
     1
  3
A0
350
B2B7
  3
A1
350
B2B8
  3
A2
350
B2B9
  3
A3
350
B2BA
  3
A4
350
B2BB
  3
A5
350
B2BC
  3
A6
350
B2BD
  3
A7
350
B2BE
  3
A8
350
B2BF
  3
A9
350
B2C0
  3
B0
350
B2C1
  3
B1
350
B2C2
  3
B2
350
B2C3
  3
B3
350
B2C4
  3
B4
350
B2C5
  3
B5
350
B2C6
  3
B6
350
B2C7
  3
B7
350
B2C8
  3
B8
350
B2C9
  3
B9
350
B2CA
  3
C0
350
B2CB
  3
C1
350
B2CC
  3
C2
350
B2CD
  3
C3
350
B2CE
  3
C4
350
B2CF
  3
C5
350
B2D0
  3
C6
350
B2D1
  3
C7
350
B2D2
  3
C8
350
B2D3
  3
C9
350
B2D4
  3
D0
350
B2D5
  3
D1
350
B2D6
  3
D2
350
B2D7
  0
DICTIONARY
  5
B2B4
102
{ACAD_REACTORS
330
7471
102
}
330
7471
100
AcDbDictionary
281
     1
  3
Standard
350
B2B5
  0
DICTIONARY
  5
B2A2
102
{ACAD_REACTORS
330
7471
102
}
330
7471
100
AcDbDictionary
281
     1
  3
2dWireframe
350
B2A8
  3
3D Hidden
350
B2AA
  3
3dWireframe
350
B2A9
  3
Basic
350
B2A7
  3
Brighten
350
B2AE
  3
ColorChange
350
B2B2
  3
Conceptual
350
B2AB
  3
Dim
350
B2AD
  3
Facepattern
350
B2B1
  3
Flat
350
B2A3
  3
FlatWithEdges
350
B2A4
  3
Gouraud
350
B2A5
  3
GouraudWithEdges
350
B2A6
  3
Linepattern
350
B2B0
  3
Realistic
350
B2AC
  3
Thicken
350
B2AF
  0
XRECORD
  5
B233
102
{ACAD_REACTORS
330
7471
102
}
330
7471
100
AcDbXrecord
280
     1
 90
   990106
  3

 60
     4
 61
     0
 62
     1
 63
     3
 64
     0
 65
     0
 66
     0
 67
     3
 68
     1
 69
     0
 70
     0
 71
     0
 72
     0
 40
0.0
170
     0
  0
XRECORD
  5
B314
102
{ACAD_REACTORS
330
7471
102
}
330
7471
100
AcDbXrecord
280
     1
 90
        1
330
B2B5
  0
DICTIONARY
  5
789B
102
{ACAD_REACTORS
330
7471
102
}
330
7471
100
AcDbDictionary
281
     1
  3
CANNOSCALE
350
B318
  3
CMLEADERSTYLE
350
B316
  3
CTABLESTYLE
350
B315
  3
DIMASSOC
350
7F75
  3
INDEXCTL
350
B33C
  3
LIGHTINGUNITS
350
B319
  3
MSLTSCALE
350
B317
  3
SORTENTS
350
789C
  0
DICTIONARY
  5
B285
102
{ACAD_REACTORS
330
7471
102
}
330
7471
100
AcDbDictionary
281
     1
  3
ASEBlockHierarchyIndexRecord
350
B286
1001
DCO15
1040
1581506388.593
  0
XRECORD
  5
B556
102
{ACAD_REACTORS
330
7471
102
}
330
7471
100
AcDbXrecord
280
     1
  1
DWGPROPS COOKIE
  2

  3

  4

  6

  7

  8
ooshima
  9

300
=
301
=
302
=
303
=
304
=
305
=
306
=
307
=
308
=
309
=
 40
0.9264710416666666
 41
2451806.361679283
 42
2455349.568005162
  1

 90
        0
  0
XRECORD
  5
B307
102
{ACAD_REACTORS
330
B306
102
}
330
B306
100
AcDbXrecord
280
     1
290
     1
  0
XRECORD
  5
B309
102
{ACAD_REACTORS
330
B308
102
}
330
B308
100
AcDbXrecord
280
     1
290
     1
  0
XRECORD
  5
B30B
102
{ACAD_REACTORS
330
B30A
102
}
330
B30A
100
AcDbXrecord
280
     1
290
     1
  0
XRECORD
  5
B30D
102
{ACAD_REACTORS
330
B30C
102
}
330
B30C
100
AcDbXrecord
280
     1
290
     1
  0
XRECORD
  5
B30F
102
{ACAD_REACTORS
330
B30E
102
}
330
B30E
100
AcDbXrecord
280
     1
290
     1
  0
XRECORD
  5
B311
102
{ACAD_REACTORS
330
B310
102
}
330
B310
100
AcDbXrecord
280
     1
290
     1
  0
XRECORD
  5
B558
102
{ACAD_REACTORS
330
B557
102
}
330
B557
100
AcDbXrecord
280
     1
102
SHADEPLOT
 70
     0
  0
LAYOUT
  5
7F6D
102
{ACAD_XDICTIONARY
360
B559
102
}
102
{ACAD_REACTORS
330
7F6B
102
}
330
7F6B
100
AcDbPlotSettings
  1

  2
DocuCentre Color f360
  4
A4
  6

 40
4.857749938964843
 41
4.942390441894531
 42
4.942413330078125
 43
4.857757568359375
 44
209.9733276367187
 45
297.0106506347656
 46
5.08658218383789
 47
12.60525131225586
 48
964.9375195598368
 49
150.0
140
4894.937519559837
141
3000.0
142
1.0
143
15.0
 70
 11940
 72
     1
 73
     1
 74
     4
  7
sanwa3.ctb
 75
     0
147
0.0666666666666667
148
-964.9375195598368
149
-150.0
100
AcDbLayout
  1
Model
 70
     1
 71
     0
 10
0.0
 20
0.0
 11
12.0
 21
9.0
 12
0.0
 22
0.0
 32
0.0
 14
0.0
 24
0.0
 34
0.0
 15
0.0
 25
0.0
 35
0.0
146
0.0
 13
0.0
 23
0.0
 33
0.0
 16
1.0
 26
0.0
 36
0.0
 17
0.0
 27
1.0
 37
0.0
 76
     0
330
747D
331
B287
1001
ACAD_PSEXT
1000
DocuCentre Color f360
1000
FX DocuCentre Color f360
1000
172.16.8.100
1000

1070
     0
  0
LAYOUT
  5
7F6E
102
{ACAD_XDICTIONARY
360
B55B
102
}
102
{ACAD_REACTORS
330
7F6B
102
}
330
7F6B
100
AcDbPlotSettings
  1

  2
RICOH NX-510
  4
A4
  6

 40
5.873749732971191
 41
4.92125654220581
 42
7.588241577148437
 43
5.81024169921875
 44
209.9944915771484
 45
296.989501953125
 46
0.0
 47
0.0
 48
0.0
 49
0.0
140
0.0
141
0.0
142
1.0
143
20.17331812743451
 70
   688
 72
     1
 73
     1
 74
     1
  7
sanwa3.ctb
 75
     0
147
0.0495704273180553
148
0.1762079097297828
149
1029.28590836146
100
AcDbLayout
  1
ﾚｲｱｳﾄ1
 70
     1
 71
     1
 10
-117.3880621053553
 20
-1147.778930325621
 11
5873.875641303368
 21
3088.506753269061
 12
0.0
 22
0.0
 32
0.0
 14
1.000000000000000E+20
 24
1.000000000000000E+20
 34
1.000000000000000E+20
 15
-1.000000000000000E+20
 25
-1.000000000000000E+20
 35
-1.000000000000000E+20
146
0.0
 13
0.0
 23
0.0
 33
0.0
 16
1.0
 26
0.0
 36
0.0
 17
0.0
 27
1.0
 37
0.0
 76
     0
330
747A
331
7540
  0
MATERIAL
  5
B292
102
{ACAD_XDICTIONARY
360
B293
102
}
102
{ACAD_REACTORS
330
B289
102
}
330
B289
100
AcDbMaterial
  1
ByBlock
 72
     0
 43
0.0208333333333333
 43
0.0
 43
0.0
 43
0.0
 43
0.0
 43
0.0208333333333333
 43
0.0
 43
0.0
 43
0.0
 43
0.0
 43
1.0
 43
0.0
 43
0.0
 43
0.0
 43
0.0
 43
1.0
 77
     0
 47
0.0208333333333333
 47
0.0
 47
0.0
 47
0.0
 47
0.0
 47
0.0208333333333333
 47
0.0
 47
0.0
 47
0.0
 47
0.0
 47
1.0
 47
0.0
 47
0.0
 47
0.0
 47
0.0
 47
1.0
171
     0
 49
0.0208333333333333
 49
0.0
 49
0.0
 49
0.0
 49
0.0
 49
0.0208333333333333
 49
0.0
 49
0.0
 49
0.0
 49
0.0
 49
1.0
 49
0.0
 49
0.0
 49
0.0
 49
0.0
 49
1.0
175
     0
142
0.0208333333333333
142
0.0
142
0.0
142
0.0
142
0.0
142
0.0208333333333333
142
0.0
142
0.0
142
0.0
142
0.0
142
1.0
142
0.0
142
0.0
142
0.0
142
0.0
142
1.0
179
     0
144
0.0208333333333333
144
0.0
144
0.0
144
0.0
144
0.0
144
0.0208333333333333
144
0.0
144
0.0
144
0.0
144
0.0
144
1.0
144
0.0
144
0.0
144
0.0
144
0.0
144
1.0
147
0.0208333333333333
147
0.0
147
0.0
147
0.0
147
0.0
147
0.0208333333333333
147
0.0
147
0.0
147
0.0
147
0.0
147
1.0
147
0.0
147
0.0
147
0.0
147
0.0
147
1.0
  0
MATERIAL
  5
B28A
102
{ACAD_XDICTIONARY
360
B28B
102
}
102
{ACAD_REACTORS
330
B289
102
}
330
B289
100
AcDbMaterial
  1
ByLayer
 72
     0
 43
0.0208333333333333
 43
0.0
 43
0.0
 43
0.0
 43
0.0
 43
0.0208333333333333
 43
0.0
 43
0.0
 43
0.0
 43
0.0
 43
1.0
 43
0.0
 43
0.0
 43
0.0
 43
0.0
 43
1.0
 77
     0
 47
0.0208333333333333
 47
0.0
 47
0.0
 47
0.0
 47
0.0
 47
0.0208333333333333
 47
0.0
 47
0.0
 47
0.0
 47
0.0
 47
1.0
 47
0.0
 47
0.0
 47
0.0
 47
0.0
 47
1.0
171
     0
 49
0.0208333333333333
 49
0.0
 49
0.0
 49
0.0
 49
0.0
 49
0.0208333333333333
 49
0.0
 49
0.0
 49
0.0
 49
0.0
 49
1.0
 49
0.0
 49
0.0
 49
0.0
 49
0.0
 49
1.0
175
     0
142
0.0208333333333333
142
0.0
142
0.0
142
0.0
142
0.0
142
0.0208333333333333
142
0.0
142
0.0
142
0.0
142
0.0
142
1.0
142
0.0
142
0.0
142
0.0
142
0.0
142
1.0
179
     0
144
0.0208333333333333
144
0.0
144
0.0
144
0.0
144
0.0
144
0.0208333333333333
144
0.0
144
0.0
144
0.0
144
0.0
144
1.0
144
0.0
144
0.0
144
0.0
144
0.0
144
1.0
147
0.0208333333333333
147
0.0
147
0.0
147
0.0
147
0.0
147
0.0208333333333333
147
0.0
147
0.0
147
0.0
147
0.0
147
1.0
147
0.0
147
0.0
147
0.0
147
0.0
147
1.0
  0
MATERIAL
  5
B29A
102
{ACAD_XDICTIONARY
360
B29B
102
}
102
{ACAD_REACTORS
330
B289
102
}
330
B289
100
AcDbMaterial
  1
Global
 72
     0
 43
0.0208333333333333
 43
0.0
 43
0.0
 43
0.0
 43
0.0
 43
0.0208333333333333
 43
0.0
 43
0.0
 43
0.0
 43
0.0
 43
1.0
 43
0.0
 43
0.0
 43
0.0
 43
0.0
 43
1.0
 77
     0
 47
0.0208333333333333
 47
0.0
 47
0.0
 47
0.0
 47
0.0
 47
0.0208333333333333
 47
0.0
 47
0.0
 47
0.0
 47
0.0
 47
1.0
 47
0.0
 47
0.0
 47
0.0
 47
0.0
 47
1.0
171
     0
 49
0.0208333333333333
 49
0.0
 49
0.0
 49
0.0
 49
0.0
 49
0.0208333333333333
 49
0.0
 49
0.0
 49
0.0
 49
0.0
 49
1.0
 49
0.0
 49
0.0
 49
0.0
 49
0.0
 49
1.0
175
     0
142
0.0208333333333333
142
0.0
142
0.0
142
0.0
142
0.0
142
0.0208333333333333
142
0.0
142
0.0
142
0.0
142
0.0
142
1.0
142
0.0
142
0.0
142
0.0
142
0.0
142
1.0
179
     0
144
0.0208333333333333
144
0.0
144
0.0
144
0.0
144
0.0
144
0.0208333333333333
144
0.0
144
0.0
144
0.0
144
0.0
144
1.0
144
0.0
144
0.0
144
0.0
144
0.0
144
1.0
147
0.0208333333333333
147
0.0
147
0.0
147
0.0
147
0.0
147
0.0208333333333333
147
0.0
147
0.0
147
0.0
147
0.0
147
1.0
147
0.0
147
0.0
147
0.0
147
0.0
147
1.0
  0
MLEADERSTYLE
  5
B2D9
102
{ACAD_REACTORS
330
B2D8
102
}
330
B2D8
100
AcDbMLeaderStyle
170
     2
171
     1
172
     0
 90
        2
 40
0.0
 41
0.0
173
     1
 91
-1056964608
340
7477
 92
       -2
290
     1
 42
2.0
291
     1
 43
0.36
  3
Standard
 44
4.0
300

342
7475
174
     1
178
     6
175
     1
176
     0
 93
-1056964608
 45
4.0
292
     0
297
     0
 46
4.0
 94
-1056964608
 47
1.0
 49
1.0
140
1.0
293
     1
141
0.0
294
     1
177
     0
142
1.0
295
     0
296
     0
143
0.125
1001
ACAD_MLEADERVER
1070
     2
  0
MLINESTYLE
  5
7480
102
{ACAD_REACTORS
330
7473
102
}
330
0
100
AcDbMlineStyle
  2
STANDARD
 70
     0
  3

 62
     0
 51
90.0
 52
90.0
 71
     2
 49
0.5
 62
   256
  6
BYLAYER
 49
-0.5
 62
   256
  6
BYLAYER
  0
ACDBPLACEHOLDER
  5
7F6A
102
{ACAD_REACTORS
330
7F69
102
}
330
7F69
  0
SCALE
  5
B2B7
102
{ACAD_REACTORS
330
B2B6
102
}
330
B2B6
100
AcDbScale
 70
     0
300
1:1
140
1.0
141
1.0
290
     1
  0
SCALE
  5
B2B8
102
{ACAD_REACTORS
330
B2B6
102
}
330
B2B6
100
AcDbScale
 70
     0
300
1:2
140
1.0
141
2.0
290
     0
  0
SCALE
  5
B2B9
102
{ACAD_REACTORS
330
B2B6
102
}
330
B2B6
100
AcDbScale
 70
     0
300
1:4
140
1.0
141
4.0
290
     0
  0
SCALE
  5
B2BA
102
{ACAD_REACTORS
330
B2B6
102
}
330
B2B6
100
AcDbScale
 70
     0
300
1:5
140
1.0
141
5.0
290
     0
  0
SCALE
  5
B2BB
102
{ACAD_REACTORS
330
B2B6
102
}
330
B2B6
100
AcDbScale
 70
     0
300
1:8
140
1.0
141
8.0
290
     0
  0
SCALE
  5
B2BC
102
{ACAD_REACTORS
330
B2B6
102
}
330
B2B6
100
AcDbScale
 70
     0
300
1:10
140
1.0
141
10.0
290
     0
  0
SCALE
  5
B2BD
102
{ACAD_REACTORS
330
B2B6
102
}
330
B2B6
100
AcDbScale
 70
     0
300
1:16
140
1.0
141
16.0
290
     0
  0
SCALE
  5
B2BE
102
{ACAD_REACTORS
330
B2B6
102
}
330
B2B6
100
AcDbScale
 70
     0
300
1:20
140
1.0
141
20.0
290
     0
  0
SCALE
  5
B2BF
102
{ACAD_REACTORS
330
B2B6
102
}
330
B2B6
100
AcDbScale
 70
     0
300
1:30
140
1.0
141
30.0
290
     0
  0
SCALE
  5
B2C0
102
{ACAD_REACTORS
330
B2B6
102
}
330
B2B6
100
AcDbScale
 70
     0
300
1:40
140
1.0
141
40.0
290
     0
  0
SCALE
  5
B2C1
102
{ACAD_REACTORS
330
B2B6
102
}
330
B2B6
100
AcDbScale
 70
     0
300
1:50
140
1.0
141
50.0
290
     0
  0
SCALE
  5
B2C2
102
{ACAD_REACTORS
330
B2B6
102
}
330
B2B6
100
AcDbScale
 70
     0
300
1:100
140
1.0
141
100.0
290
     0
  0
SCALE
  5
B2C3
102
{ACAD_REACTORS
330
B2B6
102
}
330
B2B6
100
AcDbScale
 70
     0
300
2:1
140
2.0
141
1.0
290
     0
  0
SCALE
  5
B2C4
102
{ACAD_REACTORS
330
B2B6
102
}
330
B2B6
100
AcDbScale
 70
     0
300
4:1
140
4.0
141
1.0
290
     0
  0
SCALE
  5
B2C5
102
{ACAD_REACTORS
330
B2B6
102
}
330
B2B6
100
AcDbScale
 70
     0
300
8:1
140
8.0
141
1.0
290
     0
  0
SCALE
  5
B2C6
102
{ACAD_REACTORS
330
B2B6
102
}
330
B2B6
100
AcDbScale
 70
     0
300
10:1
140
10.0
141
1.0
290
     0
  0
SCALE
  5
B2C7
102
{ACAD_REACTORS
330
B2B6
102
}
330
B2B6
100
AcDbScale
 70
     0
300
100:1
140
100.0
141
1.0
290
     0
  0
SCALE
  5
B2C8
102
{ACAD_REACTORS
330
B2B6
102
}
330
B2B6
100
AcDbScale
 70
     0
300
1/128" = 1'-0"
140
0.0078125
141
12.0
290
     0
  0
SCALE
  5
B2C9
102
{ACAD_REACTORS
330
B2B6
102
}
330
B2B6
100
AcDbScale
 70
     0
300
1/64" = 1'-0"
140
0.015625
141
12.0
290
     0
  0
SCALE
  5
B2CA
102
{ACAD_REACTORS
330
B2B6
102
}
330
B2B6
100
AcDbScale
 70
     0
300
1/32" = 1'-0"
140
0.03125
141
12.0
290
     0
  0
SCALE
  5
B2CB
102
{ACAD_REACTORS
330
B2B6
102
}
330
B2B6
100
AcDbScale
 70
     0
300
1/16" = 1'-0"
140
0.0625
141
12.0
290
     0
  0
SCALE
  5
B2CC
102
{ACAD_REACTORS
330
B2B6
102
}
330
B2B6
100
AcDbScale
 70
     0
300
3/32" = 1'-0"
140
0.09375
141
12.0
290
     0
  0
SCALE
  5
B2CD
102
{ACAD_REACTORS
330
B2B6
102
}
330
B2B6
100
AcDbScale
 70
     0
300
1/8" = 1'-0"
140
0.125
141
12.0
290
     0
  0
SCALE
  5
B2CE
102
{ACAD_REACTORS
330
B2B6
102
}
330
B2B6
100
AcDbScale
 70
     0
300
3/16" = 1'-0"
140
0.1875
141
12.0
290
     0
  0
SCALE
  5
B2CF
102
{ACAD_REACTORS
330
B2B6
102
}
330
B2B6
100
AcDbScale
 70
     0
300
1/4" = 1'-0"
140
0.25
141
12.0
290
     0
  0
SCALE
  5
B2D0
102
{ACAD_REACTORS
330
B2B6
102
}
330
B2B6
100
AcDbScale
 70
     0
300
3/8" = 1'-0"
140
0.375
141
12.0
290
     0
  0
SCALE
  5
B2D1
102
{ACAD_REACTORS
330
B2B6
102
}
330
B2B6
100
AcDbScale
 70
     0
300
1/2" = 1'-0"
140
0.5
141
12.0
290
     0
  0
SCALE
  5
B2D2
102
{ACAD_REACTORS
330
B2B6
102
}
330
B2B6
100
AcDbScale
 70
     0
300
3/4" = 1'-0"
140
0.75
141
12.0
290
     0
  0
SCALE
  5
B2D3
102
{ACAD_REACTORS
330
B2B6
102
}
330
B2B6
100
AcDbScale
 70
     0
300
1" = 1'-0"
140
1.0
141
12.0
290
     0
  0
SCALE
  5
B2D4
102
{ACAD_REACTORS
330
B2B6
102
}
330
B2B6
100
AcDbScale
 70
     0
300
1-1/2" = 1'-0"
140
1.5
141
12.0
290
     0
  0
SCALE
  5
B2D5
102
{ACAD_REACTORS
330
B2B6
102
}
330
B2B6
100
AcDbScale
 70
     0
300
3" = 1'-0"
140
3.0
141
12.0
290
     0
  0
SCALE
  5
B2D6
102
{ACAD_REACTORS
330
B2B6
102
}
330
B2B6
100
AcDbScale
 70
     0
300
6" = 1'-0"
140
6.0
141
12.0
290
     0
  0
SCALE
  5
B2D7
102
{ACAD_REACTORS
330
B2B6
102
}
330
B2B6
100
AcDbScale
 70
     0
300
1'-0" = 1'-0"
140
12.0
141
12.0
290
     0
  0
TABLESTYLE
  5
B2B5
102
{ACAD_XDICTIONARY
360
B312
102
}
102
{ACAD_REACTORS
330
B2B4
102
}
330
B2B4
100
AcDbTableStyle
  3
Standard
 70
     0
 71
     0
 40
1.5
 41
1.5
280
     0
281
     0
  7
STANDARD
140
4.5
170
     2
 62
     0
 63
     7
283
     0
274
    -2
284
     1
 64
     0
275
    -2
285
     1
 65
     0
276
    -2
286
     1
 66
     0
277
    -2
287
     1
 67
     0
278
    -2
288
     1
 68
     0
279
    -2
289
     1
 69
     0
  7
STANDARD
140
6.0
170
     5
 62
     0
 63
     7
283
     0
274
    -2
284
     1
 64
     0
275
    -2
285
     1
 65
     0
276
    -2
286
     1
 66
     0
277
    -2
287
     1
 67
     0
278
    -2
288
     1
 68
     0
279
    -2
289
     1
 69
     0
  7
STANDARD
140
4.5
170
     5
 62
     0
 63
     7
283
     0
274
    -2
284
     1
 64
     0
275
    -2
285
     1
 65
     0
276
    -2
286
     1
 66
     0
277
    -2
287
     1
 67
     0
278
    -2
288
     1
 68
     0
279
    -2
289
     1
 69
     0
  0
VISUALSTYLE
  5
B2A8
102
{ACAD_REACTORS
330
B2A2
102
}
330
B2A2
100
AcDbVisualStyle
  2
2dWireframe
 70
     4
 71
     0
 72
     2
 73
     0
 90
        0
 40
-0.6
 41
-30.0
 62
     5
 63
     7
 74
     1
 91
        4
 64
     7
 65
   257
 75
     1
175
     1
 42
1.0
 92
        0
 66
   257
 43
1.0
 76
     1
 77
     6
 78
     2
 67
     7
 79
     5
170
     0
171
     0
290
     0
174
     0
 93
        1
 44
0.0
173
     0
291
     0
 45
0.0
1001
ACAD
1000
AcDbSavedByObjectVersion
1070
     0
  0
VISUALSTYLE
  5
B2AA
102
{ACAD_REACTORS
330
B2A2
102
}
330
B2A2
100
AcDbVisualStyle
  2
3D Hidden
 70
     6
 71
     1
 72
     2
 73
     2
 90
        0
 40
-0.6
 41
-30.0
 62
     5
 63
     7
 74
     2
 91
        2
 64
     7
 65
   257
 75
     2
175
     1
 42
40.0
 92
        0
 66
   257
 43
1.0
 76
     1
 77
     6
 78
     2
 67
     7
 79
     3
170
     0
171
     0
290
     0
174
     0
 93
        1
 44
0.0
173
     0
291
     0
 45
0.0
1001
ACAD
1000
AcDbSavedByObjectVersion
1070
     0
  0
VISUALSTYLE
  5
B2A9
102
{ACAD_REACTORS
330
B2A2
102
}
330
B2A2
100
AcDbVisualStyle
  2
3dWireframe
 70
     5
 71
     0
 72
     2
 73
     0
 90
        0
 40
-0.6
 41
-30.0
 62
     5
 63
     7
 74
     1
 91
        4
 64
     7
 65
   257
 75
     1
175
     1
 42
1.0
 92
        0
 66
   257
 43
1.0
 76
     1
 77
     6
 78
     2
 67
     7
 79
     5
170
     0
171
     0
290
     0
174
     0
 93
        1
 44
0.0
173
     0
291
     0
 45
0.0
1001
ACAD
1000
AcDbSavedByObjectVersion
1070
     0
  0
VISUALSTYLE
  5
B2A7
102
{ACAD_REACTORS
330
B2A2
102
}
330
B2A2
100
AcDbVisualStyle
  2
Basic
 70
     7
 71
     1
 72
     0
 73
     1
 90
        0
 40
-0.6
 41
-30.0
 62
     5
 63
     7
 74
     0
 91
        4
 64
     7
 65
   257
 75
     1
175
     1
 42
1.0
 92
        8
 66
     7
 43
1.0
 76
     1
 77
     6
 78
     2
 67
     7
 79
     5
170
     0
171
     0
290
     0
174
     0
 93
        1
 44
0.0
173
     0
291
     1
 45
0.0
1001
ACAD
1000
AcDbSavedByObjectVersion
1070
     0
  0
VISUALSTYLE
  5
B2AE
102
{ACAD_REACTORS
330
B2A2
102
}
330
B2A2
100
AcDbVisualStyle
  2
Brighten
 70
    12
 71
     2
 72
     2
 73
     0
 90
        0
 40
-0.6
 41
-30.0
 62
     5
 63
     7
 74
     1
 91
        4
 64
     7
 65
   257
 75
     1
175
     1
 42
1.0
 92
        8
 66
     7
 43
1.0
 76
     1
 77
     6
 78
     2
 67
     7
 79
     5
170
     0
171
     0
290
     0
174
     0
 93
        1
 44
50.0
173
     0
291
     1
 45
0.0
1001
ACAD
1000
AcDbSavedByObjectVersion
1070
     0
  0
VISUALSTYLE
  5
B2B2
102
{ACAD_REACTORS
330
B2A2
102
}
330
B2A2
100
AcDbVisualStyle
  2
ColorChange
 70
    16
 71
     2
 72
     2
 73
     3
 90
        0
 40
-0.6
 41
-30.0
 62
     5
 63
     8
 74
     1
 91
        4
 64
     7
 65
   257
 75
     1
175
     1
 42
1.0
 92
        8
 66
     8
 43
1.0
 76
     1
 77
     6
 78
     2
 67
     7
 79
     5
170
     0
171
     0
290
     0
174
     0
 93
        1
 44
0.0
173
     0
291
     1
 45
0.0
1001
ACAD
1000
AcDbSavedByObjectVersion
1070
     0
  0
VISUALSTYLE
  5
B2AB
102
{ACAD_REACTORS
330
B2A2
102
}
330
B2A2
100
AcDbVisualStyle
  2
Conceptual
 70
     9
 71
     3
 72
     2
 73
     0
 90
        0
 40
-0.6
 41
-30.0
 62
     5
 63
     7
 74
     2
 91
        2
 64
     7
 65
   257
 75
     1
175
     1
 42
40.0
 92
        8
 66
     7
 43
1.0
 76
     1
 77
     6
 78
     2
 67
     7
 79
     3
170
     0
171
     0
290
     0
174
     0
 93
        1
 44
0.0
173
     0
291
     0
 45
0.0
1001
ACAD
1000
AcDbSavedByObjectVersion
1070
     0
  0
VISUALSTYLE
  5
B2AD
102
{ACAD_REACTORS
330
B2A2
102
}
330
B2A2
100
AcDbVisualStyle
  2
Dim
 70
    11
 71
     2
 72
     2
 73
     0
 90
        0
 40
-0.6
 41
-30.0
 62
     5
 63
     7
 74
     1
 91
        4
 64
     7
 65
   257
 75
     1
175
     1
 42
1.0
 92
        8
 66
     7
 43
1.0
 76
     1
 77
     6
 78
     2
 67
     7
 79
     5
170
     0
171
     0
290
     0
174
     0
 93
        1
 44
-50.0
173
     0
291
     1
 45
0.0
1001
ACAD
1000
AcDbSavedByObjectVersion
1070
     0
  0
VISUALSTYLE
  5
B2B1
102
{ACAD_REACTORS
330
B2A2
102
}
330
B2A2
100
AcDbVisualStyle
  2
Facepattern
 70
    15
 71
     2
 72
     2
 73
     0
 90
        0
 40
-0.6
 41
-30.0
 62
     5
 63
     7
 74
     1
 91
        4
 64
     7
 65
   257
 75
     1
175
     1
 42
1.0
 92
        8
 66
     7
 43
1.0
 76
     1
 77
     6
 78
     2
 67
     7
 79
     5
170
     0
171
     0
290
     0
174
     0
 93
        1
 44
0.0
173
     0
291
     1
 45
0.0
1001
ACAD
1000
AcDbSavedByObjectVersion
1070
     0
  0
VISUALSTYLE
  5
B2A3
102
{ACAD_REACTORS
330
B2A2
102
}
330
B2A2
100
AcDbVisualStyle
  2
Flat
 70
     0
 71
     2
 72
     1
 73
     1
 90
        2
 40
-0.6
 41
30.0
 62
     5
 63
     7
 74
     0
 91
        4
 64
     7
 65
   257
 75
     1
175
     1
 42
1.0
 92
        8
 66
     7
 43
1.0
 76
     1
 77
     6
 78
     2
 67
     7
 79
     5
170
     0
171
     0
290
     0
174
     0
 93
       13
 44
0.0
173
     0
291
     1
 45
0.0
1001
ACAD
1000
AcDbSavedByObjectVersion
1070
     0
  0
VISUALSTYLE
  5
B2A4
102
{ACAD_REACTORS
330
B2A2
102
}
330
B2A2
100
AcDbVisualStyle
  2
FlatWithEdges
 70
     1
 71
     2
 72
     1
 73
     1
 90
        2
 40
-0.6
 41
30.0
 62
     5
 63
     7
 74
     1
 91
        4
 64
     7
 65
   257
 75
     1
175
     1
 42
1.0
 92
        0
 66
   257
 43
1.0
 76
     1
 77
     6
 78
     2
 67
     7
 79
     5
170
     0
171
     0
290
     0
174
     0
 93
       13
 44
0.0
173
     0
291
     1
 45
0.0
1001
ACAD
1000
AcDbSavedByObjectVersion
1070
     0
  0
VISUALSTYLE
  5
B2A5
102
{ACAD_REACTORS
330
B2A2
102
}
330
B2A2
100
AcDbVisualStyle
  2
Gouraud
 70
     2
 71
     2
 72
     2
 73
     1
 90
        2
 40
-0.6
 41
30.0
 62
     5
 63
     7
 74
     0
 91
        4
 64
     7
 65
   257
 75
     1
175
     1
 42
1.0
 92
        0
 66
     7
 43
1.0
 76
     1
 77
     6
 78
     2
 67
     7
 79
     5
170
     0
171
     0
290
     0
174
     0
 93
       13
 44
0.0
173
     0
291
     1
 45
0.0
1001
ACAD
1000
AcDbSavedByObjectVersion
1070
     0
  0
VISUALSTYLE
  5
B2A6
102
{ACAD_REACTORS
330
B2A2
102
}
330
B2A2
100
AcDbVisualStyle
  2
GouraudWithEdges
 70
     3
 71
     2
 72
     2
 73
     1
 90
        2
 40
-0.6
 41
30.0
 62
     5
 63
     7
 74
     1
 91
        4
 64
     7
 65
   257
 75
     1
175
     1
 42
1.0
 92
        0
 66
   257
 43
1.0
 76
     1
 77
     6
 78
     2
 67
     7
 79
     5
170
     0
171
     0
290
     0
174
     0
 93
       13
 44
0.0
173
     0
291
     1
 45
0.0
1001
ACAD
1000
AcDbSavedByObjectVersion
1070
     0
  0
VISUALSTYLE
  5
B2B0
102
{ACAD_REACTORS
330
B2A2
102
}
330
B2A2
100
AcDbVisualStyle
  2
Linepattern
 70
    14
 71
     2
 72
     2
 73
     0
 90
        0
 40
-0.6
 41
-30.0
 62
     5
 63
     7
 74
     1
 91
        4
 64
     7
 65
   257
 75
     7
175
     7
 42
1.0
 92
        8
 66
     7
 43
1.0
 76
     1
 77
     6
 78
     2
 67
     7
 79
     5
170
     0
171
     0
290
     0
174
     0
 93
        1
 44
0.0
173
     0
291
     1
 45
0.0
1001
ACAD
1000
AcDbSavedByObjectVersion
1070
     0
  0
VISUALSTYLE
  5
B2AC
102
{ACAD_REACTORS
330
B2A2
102
}
330
B2A2
100
AcDbVisualStyle
  2
Realistic
 70
     8
 71
     2
 72
     2
 73
     0
 90
        0
 40
-0.6
 41
-30.0
 62
     5
 63
     7
 74
     1
 91
        0
 64
     7
 65
   257
 75
     1
175
     1
 42
1.0
 92
        8
 66
     8
 43
1.0
 76
     1
 77
     6
 78
     2
 67
     7
 79
     5
170
     0
171
     0
290
     0
174
     0
 93
       13
 44
0.0
173
     0
291
     0
 45
0.0
1001
ACAD
1000
AcDbSavedByObjectVersion
1070
     0
  0
VISUALSTYLE
  5
B2AF
102
{ACAD_REACTORS
330
B2A2
102
}
330
B2A2
100
AcDbVisualStyle
  2
Thicken
 70
    13
 71
     2
 72
     2
 73
     0
 90
        0
 40
-0.6
 41
-30.0
 62
     5
 63
     7
 74
     1
 91
        4
 64
     7
 65
   257
 75
     1
175
     1
 42
1.0
 92
       12
 66
     7
 43
1.0
 76
     1
 77
     6
 78
     2
 67
     7
 79
     5
170
     0
171
     0
290
     0
174
     0
 93
        1
 44
0.0
173
     0
291
     1
 45
0.0
1001
ACAD
1000
AcDbSavedByObjectVersion
1070
     0
  0
DICTIONARYVAR
  5
B318
102
{ACAD_REACTORS
330
789B
102
}
330
789B
100
DictionaryVariables
280
     0
  1
1:1
  0
DICTIONARYVAR
  5
B316
102
{ACAD_REACTORS
330
789B
102
}
330
789B
100
DictionaryVariables
280
     0
  1
STANDARD
  0
DICTIONARYVAR
  5
B315
102
{ACAD_REACTORS
330
789B
102
}
330
789B
100
DictionaryVariables
280
     0
  1
STANDARD
  0
DICTIONARYVAR
  5
7F75
102
{ACAD_REACTORS
330
789B
102
}
330
789B
100
DictionaryVariables
280
     0
  1
1
  0
DICTIONARYVAR
  5
B33C
102
{ACAD_REACTORS
330
789B
102
}
330
789B
100
DictionaryVariables
280
     0
  1
0
  0
DICTIONARYVAR
  5
B319
102
{ACAD_REACTORS
330
789B
102
}
330
789B
100
DictionaryVariables
280
     0
  1
0
  0
DICTIONARYVAR
  5
B317
102
{ACAD_REACTORS
330
789B
102
}
330
789B
100
DictionaryVariables
280
     0
  1
0
  0
DICTIONARYVAR
  5
789C
102
{ACAD_REACTORS
330
789B
102
}
330
789B
100
DictionaryVariables
280
     0
  1
96
  0
XRECORD
  5
B286
102
{ACAD_REACTORS
330
B285
102
}
330
B285
100
AcDbXrecord
280
     1
  0
DICTIONARY
  5
B559
330
7F6D
100
AcDbDictionary
280
     1
281
     1
  3
ACAD_XREC_ROUNDTRIP
360
B55A
  0
DICTIONARY
  5
B55B
330
7F6E
100
AcDbDictionary
280
     1
281
     1
  3
ACAD_XREC_ROUNDTRIP
360
B55C
  0
DICTIONARY
  5
B293
330
B292
100
AcDbDictionary
280
     1
281
     1
  3
ACAD_XREC_ROUNDTRIP
360
B55E
  3
BUMPTILE
360
B295
  3
DIFFUSETILE
360
B294
  3
OPACITYTILE
360
B298
  3
REFLECTIONTILE
360
B297
  3
REFRACTIONTILE
360
B299
  3
SPECULARTILE
360
B296
  0
DICTIONARY
  5
B28B
330
B28A
100
AcDbDictionary
280
     1
281
     1
  3
ACAD_XREC_ROUNDTRIP
360
B55D
  3
BUMPTILE
360
B28D
  3
DIFFUSETILE
360
B28C
  3
OPACITYTILE
360
B290
  3
REFLECTIONTILE
360
B28F
  3
REFRACTIONTILE
360
B291
  3
SPECULARTILE
360
B28E
  0
DICTIONARY
  5
B29B
330
B29A
100
AcDbDictionary
280
     1
281
     1
  3
ACAD_XREC_ROUNDTRIP
360
B55F
  3
BUMPTILE
360
B29D
  3
DIFFUSETILE
360
B29C
  3
OPACITYTILE
360
B2A0
  3
REFLECTIONTILE
360
B29F
  3
REFRACTIONTILE
360
B2A1
  3
SPECULARTILE
360
B29E
  0
DICTIONARY
  5
B312
330
B2B5
100
AcDbDictionary
280
     1
281
     1
  3
ACAD_ROUNDTRIP_2008_TABLESTYLE_CELLSTYLEMAP
360
B555
  3
ACAD_XREC_ROUNDTRIP
360
B560
  0
XRECORD
  5
B55A
102
{ACAD_REACTORS
330
B559
102
}
330
B559
100
AcDbXrecord
280
     1
102
SHADEPLOT
 70
     0
102
SHADEPLOTRESLEVEL
 70
     2
102
SHADEPLOTCUSTOMDPI
 70
   300
  0
XRECORD
  5
B55C
102
{ACAD_REACTORS
330
B55B
102
}
330
B55B
100
AcDbXrecord
280
     1
102
SHADEPLOT
 70
     0
102
SHADEPLOTRESLEVEL
 70
     2
102
SHADEPLOTCUSTOMDPI
 70
   300
  0
XRECORD
  5
B55E
102
{ACAD_REACTORS
330
B293
102
}
330
B293
100
AcDbXrecord
280
     1
102
MATERIAL
148
0.0
149
0.0
149
0.0
 93
        0
 94
      127
282
     0
 72
     0
 77
     0
171
     0
175
     0
179
     0
273
     0
  0
XRECORD
  5
B295
102
{ACAD_REACTORS
330
B293
102
}
330
B293
100
AcDbXrecord
280
     1
270
     1
271
     1
  0
XRECORD
  5
B294
102
{ACAD_REACTORS
330
B293
102
}
330
B293
100
AcDbXrecord
280
     1
270
     1
271
     1
  0
XRECORD
  5
B298
102
{ACAD_REACTORS
330
B293
102
}
330
B293
100
AcDbXrecord
280
     1
270
     1
271
     1
  0
XRECORD
  5
B297
102
{ACAD_REACTORS
330
B293
102
}
330
B293
100
AcDbXrecord
280
     1
270
     1
271
     1
  0
XRECORD
  5
B299
102
{ACAD_REACTORS
330
B293
102
}
330
B293
100
AcDbXrecord
280
     1
270
     1
271
     1
  0
XRECORD
  5
B296
102
{ACAD_REACTORS
330
B293
102
}
330
B293
100
AcDbXrecord
280
     1
270
     1
271
     1
  0
XRECORD
  5
B55D
102
{ACAD_REACTORS
330
B28B
102
}
330
B28B
100
AcDbXrecord
280
     1
102
MATERIAL
148
0.0
149
0.0
149
0.0
 93
        0
 94
      127
282
     0
 72
     0
 77
     0
171
     0
175
     0
179
     0
273
     0
  0
XRECORD
  5
B28D
102
{ACAD_REACTORS
330
B28B
102
}
330
B28B
100
AcDbXrecord
280
     1
270
     1
271
     1
  0
XRECORD
  5
B28C
102
{ACAD_REACTORS
330
B28B
102
}
330
B28B
100
AcDbXrecord
280
     1
270
     1
271
     1
  0
XRECORD
  5
B290
102
{ACAD_REACTORS
330
B28B
102
}
330
B28B
100
AcDbXrecord
280
     1
270
     1
271
     1
  0
XRECORD
  5
B28F
102
{ACAD_REACTORS
330
B28B
102
}
330
B28B
100
AcDbXrecord
280
     1
270
     1
271
     1
  0
XRECORD
  5
B291
102
{ACAD_REACTORS
330
B28B
102
}
330
B28B
100
AcDbXrecord
280
     1
270
     1
271
     1
  0
XRECORD
  5
B28E
102
{ACAD_REACTORS
330
B28B
102
}
330
B28B
100
AcDbXrecord
280
     1
270
     1
271
     1
  0
XRECORD
  5
B55F
102
{ACAD_REACTORS
330
B29B
102
}
330
B29B
100
AcDbXrecord
280
     1
102
MATERIAL
148
0.0
149
0.0
149
0.0
 93
        0
 94
      127
282
     0
 72
     0
 77
     0
171
     0
175
     0
179
     0
273
     0
  0
XRECORD
  5
B29D
102
{ACAD_REACTORS
330
B29B
102
}
330
B29B
100
AcDbXrecord
280
     1
270
     1
271
     1
  0
XRECORD
  5
B29C
102
{ACAD_REACTORS
330
B29B
102
}
330
B29B
100
AcDbXrecord
280
     1
270
     1
271
     1
  0
XRECORD
  5
B2A0
102
{ACAD_REACTORS
330
B29B
102
}
330
B29B
100
AcDbXrecord
280
     1
270
     1
271
     1
  0
XRECORD
  5
B29F
102
{ACAD_REACTORS
330
B29B
102
}
330
B29B
100
AcDbXrecord
280
     1
270
     1
271
     1
  0
XRECORD
  5
B2A1
102
{ACAD_REACTORS
330
B29B
102
}
330
B29B
100
AcDbXrecord
280
     1
270
     1
271
     1
  0
XRECORD
  5
B29E
102
{ACAD_REACTORS
330
B29B
102
}
330
B29B
100
AcDbXrecord
280
     1
270
     1
271
     1
  0
CELLSTYLEMAP
  5
B555
102
{ACAD_REACTORS
330
B312
102
}
330
B312
100
AcDbCellStyleMap
 90
        3
300
CELLSTYLE
  1
TABLEFORMAT_BEGIN
 90
        5
170
     1
 91
        0
 92
    32768
 62
   257
 93
        1
300
CONTENTFORMAT
  1
CONTENTFORMAT_BEGIN
 90
        0
 91
        0
 92
      512
 93
        0
300

 40
0.0
140
1.0
 94
        5
 62
     0
340
7475
144
6.0
309
CONTENTFORMAT_END
171
     1
301
MARGIN
  1
CELLMARGIN_BEGIN
 40
1.5
 40
1.5
 40
1.5
 40
1.5
 40
4.5
 40
4.5
309
CELLMARGIN_END
 94
        6
 95
        1
302
GRIDFORMAT
  1
GRIDFORMAT_BEGIN
 90
        0
 91
        1
 62
     0
 92
       -2
340
0
 93
        0
 40
1.125
309
GRIDFORMAT_END
 95
        2
302
GRIDFORMAT
  1
GRIDFORMAT_BEGIN
 90
        0
 91
        1
 62
     0
 92
       -2
340
0
 93
        0
 40
1.125
309
GRIDFORMAT_END
 95
        4
302
GRIDFORMAT
  1
GRIDFORMAT_BEGIN
 90
        0
 91
        1
 62
     0
 92
       -2
340
0
 93
        0
 40
1.125
309
GRIDFORMAT_END
 95
        8
302
GRIDFORMAT
  1
GRIDFORMAT_BEGIN
 90
        0
 91
        1
 62
     0
 92
       -2
340
0
 93
        0
 40
1.125
309
GRIDFORMAT_END
 95
       16
302
GRIDFORMAT
  1
GRIDFORMAT_BEGIN
 90
        0
 91
        1
 62
     0
 92
       -2
340
0
 93
        0
 40
1.125
309
GRIDFORMAT_END
 95
       32
302
GRIDFORMAT
  1
GRIDFORMAT_BEGIN
 90
        0
 91
        1
 62
     0
 92
       -2
340
0
 93
        0
 40
1.125
309
GRIDFORMAT_END
309
TABLEFORMAT_END
  1
CELLSTYLE_BEGIN
 90
        1
 91
        1
300
_TITLE
309
CELLSTYLE_END
300
CELLSTYLE
  1
TABLEFORMAT_BEGIN
 90
        5
170
     1
 91
        0
 92
        0
 62
   257
 93
        1
300
CONTENTFORMAT
  1
CONTENTFORMAT_BEGIN
 90
        0
 91
        0
 92
      512
 93
        0
300

 40
0.0
140
1.0
 94
        5
 62
     0
340
7475
144
4.5
309
CONTENTFORMAT_END
171
     1
301
MARGIN
  1
CELLMARGIN_BEGIN
 40
1.5
 40
1.5
 40
1.5
 40
1.5
 40
4.5
 40
4.5
309
CELLMARGIN_END
 94
        6
 95
        1
302
GRIDFORMAT
  1
GRIDFORMAT_BEGIN
 90
        0
 91
        1
 62
     0
 92
       -2
340
0
 93
        0
 40
1.125
309
GRIDFORMAT_END
 95
        2
302
GRIDFORMAT
  1
GRIDFORMAT_BEGIN
 90
        0
 91
        1
 62
     0
 92
       -2
340
0
 93
        0
 40
1.125
309
GRIDFORMAT_END
 95
        4
302
GRIDFORMAT
  1
GRIDFORMAT_BEGIN
 90
        0
 91
        1
 62
     0
 92
       -2
340
0
 93
        0
 40
1.125
309
GRIDFORMAT_END
 95
        8
302
GRIDFORMAT
  1
GRIDFORMAT_BEGIN
 90
        0
 91
        1
 62
     0
 92
       -2
340
0
 93
        0
 40
1.125
309
GRIDFORMAT_END
 95
       16
302
GRIDFORMAT
  1
GRIDFORMAT_BEGIN
 90
        0
 91
        1
 62
     0
 92
       -2
340
0
 93
        0
 40
1.125
309
GRIDFORMAT_END
 95
       32
302
GRIDFORMAT
  1
GRIDFORMAT_BEGIN
 90
        0
 91
        1
 62
     0
 92
       -2
340
0
 93
        0
 40
1.125
309
GRIDFORMAT_END
309
TABLEFORMAT_END
  1
CELLSTYLE_BEGIN
 90
        2
 91
        1
300
_HEADER
309
CELLSTYLE_END
300
CELLSTYLE
  1
TABLEFORMAT_BEGIN
 90
        5
170
     1
 91
        0
 92
        0
 62
   257
 93
        1
300
CONTENTFORMAT
  1
CONTENTFORMAT_BEGIN
 90
        0
 91
        0
 92
      512
 93
        0
300

 40
0.0
140
1.0
 94
        2
 62
     0
340
7475
144
4.5
309
CONTENTFORMAT_END
171
     1
301
MARGIN
  1
CELLMARGIN_BEGIN
 40
1.5
 40
1.5
 40
1.5
 40
1.5
 40
4.5
 40
4.5
309
CELLMARGIN_END
 94
        6
 95
        1
302
GRIDFORMAT
  1
GRIDFORMAT_BEGIN
 90
        0
 91
        1
 62
     0
 92
       -2
340
0
 93
        0
 40
1.125
309
GRIDFORMAT_END
 95
        2
302
GRIDFORMAT
  1
GRIDFORMAT_BEGIN
 90
        0
 91
        1
 62
     0
 92
       -2
340
0
 93
        0
 40
1.125
309
GRIDFORMAT_END
 95
        4
302
GRIDFORMAT
  1
GRIDFORMAT_BEGIN
 90
        0
 91
        1
 62
     0
 92
       -2
340
0
 93
        0
 40
1.125
309
GRIDFORMAT_END
 95
        8
302
GRIDFORMAT
  1
GRIDFORMAT_BEGIN
 90
        0
 91
        1
 62
     0
 92
       -2
340
0
 93
        0
 40
1.125
309
GRIDFORMAT_END
 95
       16
302
GRIDFORMAT
  1
GRIDFORMAT_BEGIN
 90
        0
 91
        1
 62
     0
 92
       -2
340
0
 93
        0
 40
1.125
309
GRIDFORMAT_END
 95
       32
302
GRIDFORMAT
  1
GRIDFORMAT_BEGIN
 90
        0
 91
        1
 62
     0
 92
       -2
340
0
 93
        0
 40
1.125
309
GRIDFORMAT_END
309
TABLEFORMAT_END
  1
CELLSTYLE_BEGIN
 90
        3
 91
        2
300
_DATA
309
CELLSTYLE_END
  0
XRECORD
  5
B560
102
{ACAD_REACTORS
330
B312
102
}
330
B312
100
AcDbXrecord
280
     1
102
ACAD_ROUNDTRIP_PRE2007_TABLESTYLE
 90
      512
 91
        0
  1

 92
      512
 93
        0
  2

 94
      512
 95
        0
  3

  0
ENDSEC
  0
EOF
