  0
SECTION
  2
HEADER
  9
$ACADVER
  1
AC1015
  9
$ACADMAINTVER
 70
    13
  9
$DWGCODEPAGE
  3
ANSI_932
  9
$INSBASE
 10
0.0
 20
0.0
 30
0.0
  9
$EXTMIN
 10
-0.1879092607487109
 20
-0.1680628781177802
 30
-0.0000000000000053
  9
$EXTMAX
 10
4455.023940706433
 20
3150.066794312986
 30
0.0000000000000099
  9
$LIMMIN
 10
0.0
 20
0.0
  9
$LIMMAX
 10
420.0
 20
297.0
  9
$ORTHOMODE
 70
     1
  9
$REGENMODE
 70
     1
  9
$FILLMODE
 70
     1
  9
$QTEXTMODE
 70
     0
  9
$MIRRTEXT
 70
     1
  9
$LTSCALE
 40
0.5
  9
$ATTMODE
 70
     1
  9
$TEXTSIZE
 40
2.799999999999998
  9
$TRACEWID
 40
1.0
  9
$TEXTSTYLE
  7
SANWA
  9
$CLAYER
  8
寸法引出
  9
$CELTYPE
  6
BYLAYER
  9
$CECOLOR
 62
   256
  9
$CELTSCALE
 40
15.0
  9
$DISPSILH
 70
     0
  9
$DIMSCALE
 40
15.0
  9
$DIMASZ
 40
1.5
  9
$DIMEXO
 40
1.0
  9
$DIMDLI
 40
5.0
  9
$DIMRND
 40
0.0
  9
$DIMDLE
 40
0.0
  9
$DIMEXE
 40
0.5
  9
$DIMTP
 40
0.0
  9
$DIMTM
 40
0.0
  9
$DIMTXT
 40
2.0
  9
$DIMCEN
 40
0.0
  9
$DIMTSZ
 40
0.0
  9
$DIMTOL
 70
     0
  9
$DIMLIM
 70
     0
  9
$DIMTIH
 70
     0
  9
$DIMTOH
 70
     0
  9
$DIMSE1
 70
     0
  9
$DIMSE2
 70
     0
  9
$DIMTAD
 70
     1
  9
$DIMZIN
 70
     8
  9
$DIMBLK
  1

  9
$DIMASO
 70
     1
  9
$DIMSHO
 70
     1
  9
$DIMPOST
  1

  9
$DIMAPOST
  1

  9
$DIMALT
 70
     0
  9
$DIMALTD
 70
     2
  9
$DIMALTF
 40
0.0394
  9
$DIMLFAC
 40
1.0
  9
$DIMTOFL
 70
     1
  9
$DIMTVP
 40
0.0
  9
$DIMTIX
 70
     1
  9
$DIMSOXD
 70
     0
  9
$DIMSAH
 70
     0
  9
$DIMBLK1
  1

  9
$DIMBLK2
  1

  9
$DIMSTYLE
  2
SANWA
  9
$DIMCLRD
 70
   256
  9
$DIMCLRE
 70
   256
  9
$DIMCLRT
 70
   256
  9
$DIMTFAC
 40
1.0
  9
$DIMGAP
 40
1.0
  9
$DIMJUST
 70
     0
  9
$DIMSD1
 70
     0
  9
$DIMSD2
 70
     0
  9
$DIMTOLJ
 70
     1
  9
$DIMTZIN
 70
     0
  9
$DIMALTZ
 70
     0
  9
$DIMALTTZ
 70
     0
  9
$DIMUPT
 70
     0
  9
$DIMDEC
 70
     4
  9
$DIMTDEC
 70
     4
  9
$DIMALTU
 70
     2
  9
$DIMALTTD
 70
     2
  9
$DIMTXSTY
  7
SANWA
  9
$DIMAUNIT
 70
     0
  9
$DIMADEC
 70
     0
  9
$DIMALTRND
 40
0.0
  9
$DIMAZIN
 70
     0
  9
$DIMDSEP
 70
    46
  9
$DIMATFIT
 70
     3
  9
$DIMFRAC
 70
     0
  9
$DIMLDRBLK
  1

  9
$DIMLUNIT
 70
     2
  9
$DIMLWD
 70
    -2
  9
$DIMLWE
 70
    -2
  9
$DIMTMOVE
 70
     2
  9
$LUNITS
 70
     2
  9
$LUPREC
 70
     4
  9
$SKETCHINC
 40
1.0
  9
$FILLETRAD
 40
25.0
  9
$AUNITS
 70
     0
  9
$AUPREC
 70
     0
  9
$MENU
  1
acad
  9
$ELEVATION
 40
0.0
  9
$PELEVATION
 40
0.0
  9
$THICKNESS
 40
0.0
  9
$LIMCHECK
 70
     0
  9
$CHAMFERA
 40
0.0
  9
$CHAMFERB
 40
0.0
  9
$CHAMFERC
 40
0.0
  9
$CHAMFERD
 40
0.0
  9
$SKPOLY
 70
     1
  9
$TDCREATE
 40
2451806.361679282
  9
$TDUCREATE
 40
2451805.986679282
  9
$TDUPDATE
 40
2454257.470550845
  9
$TDUUPDATE
 40
2454257.095550845
  9
$TDINDWG
 40
0.9337173495
  9
$TDUSRTIMER
 40
0.9337171644
  9
$USRTIMER
 70
     1
  9
$ANGBASE
 50
0.0
  9
$ANGDIR
 70
     0
  9
$PDMODE
 70
     0
  9
$PDSIZE
 40
0.0
  9
$PLINEWID
 40
0.0
  9
$SPLFRAME
 70
     0
  9
$SPLINETYPE
 70
     6
  9
$SPLINESEGS
 70
     8
  9
$HANDSEED
  5
AF41
  9
$SURFTAB1
 70
     6
  9
$SURFTAB2
 70
     6
  9
$SURFTYPE
 70
     6
  9
$SURFU
 70
     6
  9
$SURFV
 70
     6
  9
$UCSBASE
  2

  9
$UCSNAME
  2

  9
$UCSORG
 10
0.0
 20
0.0
 30
0.0
  9
$UCSXDIR
 10
1.0
 20
0.0
 30
0.0
  9
$UCSYDIR
 10
0.0
 20
1.0
 30
0.0
  9
$UCSORTHOREF
  2

  9
$UCSORTHOVIEW
 70
     0
  9
$UCSORGTOP
 10
0.0
 20
0.0
 30
0.0
  9
$UCSORGBOTTOM
 10
0.0
 20
0.0
 30
0.0
  9
$UCSORGLEFT
 10
0.0
 20
0.0
 30
0.0
  9
$UCSORGRIGHT
 10
0.0
 20
0.0
 30
0.0
  9
$UCSORGFRONT
 10
0.0
 20
0.0
 30
0.0
  9
$UCSORGBACK
 10
0.0
 20
0.0
 30
0.0
  9
$PUCSBASE
  2

  9
$PUCSNAME
  2

  9
$PUCSORG
 10
0.0
 20
0.0
 30
0.0
  9
$PUCSXDIR
 10
1.0
 20
0.0
 30
0.0
  9
$PUCSYDIR
 10
0.0
 20
1.0
 30
0.0
  9
$PUCSORTHOREF
  2

  9
$PUCSORTHOVIEW
 70
     0
  9
$PUCSORGTOP
 10
0.0
 20
0.0
 30
0.0
  9
$PUCSORGBOTTOM
 10
0.0
 20
0.0
 30
0.0
  9
$PUCSORGLEFT
 10
0.0
 20
0.0
 30
0.0
  9
$PUCSORGRIGHT
 10
0.0
 20
0.0
 30
0.0
  9
$PUCSORGFRONT
 10
0.0
 20
0.0
 30
0.0
  9
$PUCSORGBACK
 10
0.0
 20
0.0
 30
0.0
  9
$USERI1
 70
     0
  9
$USERI2
 70
     0
  9
$USERI3
 70
     0
  9
$USERI4
 70
     0
  9
$USERI5
 70
     0
  9
$USERR1
 40
0.0
  9
$USERR2
 40
0.0
  9
$USERR3
 40
0.0
  9
$USERR4
 40
0.0
  9
$USERR5
 40
0.0
  9
$WORLDVIEW
 70
     1
  9
$SHADEDGE
 70
     3
  9
$SHADEDIF
 70
    70
  9
$TILEMODE
 70
     1
  9
$MAXACTVP
 70
    48
  9
$PINSBASE
 10
0.0
 20
0.0
 30
0.0
  9
$PLIMCHECK
 70
     0
  9
$PEXTMIN
 10
1.000000000000000E+20
 20
1.000000000000000E+20
 30
1.000000000000000E+20
  9
$PEXTMAX
 10
-1.000000000000000E+20
 20
-1.000000000000000E+20
 30
-1.000000000000000E+20
  9
$PLIMMIN
 10
-117.3880621053551
 20
-1147.778930325621
  9
$PLIMMAX
 10
5873.875641303368
 20
3088.506753269061
  9
$UNITMODE
 70
     0
  9
$VISRETAIN
 70
     1
  9
$PLINEGEN
 70
     0
  9
$PSLTSCALE
 70
     1
  9
$TREEDEPTH
 70
  3020
  9
$CMLSTYLE
  2
STANDARD
  9
$CMLJUST
 70
     0
  9
$CMLSCALE
 40
1.0
  9
$PROXYGRAPHICS
 70
     1
  9
$MEASUREMENT
 70
     1
  9
$CELWEIGHT
370
    -1
  9
$ENDCAPS
280
     0
  9
$JOINSTYLE
280
     0
  9
$LWDISPLAY
290
     0
  9
$INSUNITS
 70
     0
  9
$HYPERLINKBASE
  1

  9
$STYLESHEET
  1
SANWA3.CTB
  9
$XEDIT
290
     1
  9
$CEPSNTYPE
380
     0
  9
$PSTYLEMODE
290
     1
  9
$FINGERPRINTGUID
  2
{FF69E217-7CBD-426C-8D1A-915AA093CE5F}
  9
$VERSIONGUID
  2
{E2A24EB5-0128-4C15-A874-B2177C35F298}
  9
$EXTNAMES
290
     1
  9
$PSVPSCALE
 40
0.0
  9
$OLESTARTUP
290
     0
  0
ENDSEC
  0
SECTION
  2
CLASSES
  0
CLASS
  1
LWPOLYLINE
  2
AcDbPolyline
  3
AutoCAD 2000
 90
    32768
280
     0
281
     1
  0
CLASS
  1
DICTIONARYVAR
  2
AcDbDictionaryVar
  3
AutoCAD 2000
 90
        0
280
     0
281
     0
  0
CLASS
  1
HATCH
  2
AcDbHatch
  3
AutoCAD 2000
 90
    32768
280
     0
281
     1
  0
CLASS
  1
ACDBDICTIONARYWDFLT
  2
AcDbDictionaryWithDefault
  3
AutoCAD 2000
 90
        0
280
     0
281
     0
  0
CLASS
  1
ACDBPLACEHOLDER
  2
AcDbPlaceHolder
  3
AutoCAD 2000
 90
        0
280
     0
281
     0
  0
CLASS
  1
LAYOUT
  2
AcDbLayout
  3
AutoCAD 2000
 90
        0
280
     0
281
     0
  0
ENDSEC
  0
SECTION
  2
TABLES
  0
TABLE
  2
VPORT
  5
746D
330
0
100
AcDbSymbolTable
 70
     2
  0
VPORT
  5
AF40
330
746D
100
AcDbSymbolTableRecord
100
AcDbViewportTableRecord
  2
*Active
 70
     0
 10
0.0
 20
0.0
 11
1.0
 21
1.0
 12
2227.418015722842
 22
1574.949365717434
 13
0.0
 23
0.0
 14
10.0
 24
10.0
 15
10.0
 25
10.0
 16
0.0
 26
0.0
 36
1.0
 17
0.0
 27
0.0
 37
0.0
 40
3227.860496432185
 41
1.391812865497076
 42
50.0
 43
0.0
 44
0.0
 50
0.0
 51
0.0
 71
     0
 72
   100
 73
     1
 74
     0
 75
     0
 76
     0
 77
     0
 78
     0
281
     0
 65
     1
110
0.0
120
0.0
130
0.0
111
1.0
121
0.0
131
0.0
112
0.0
122
1.0
132
0.0
 79
     0
146
0.0
  0
ENDTAB
  0
TABLE
  2
LTYPE
  5
746A
330
0
100
AcDbSymbolTable
 70
     5
  0
LTYPE
  5
7477
330
746A
100
AcDbSymbolTableRecord
100
AcDbLinetypeTableRecord
  2
BYBLOCK
 70
     0
  3

 72
    65
 73
     0
 40
0.0
  0
LTYPE
  5
7478
330
746A
100
AcDbSymbolTableRecord
100
AcDbLinetypeTableRecord
  2
BYLAYER
 70
     0
  3

 72
    65
 73
     0
 40
0.0
  0
LTYPE
  5
7479
330
746A
100
AcDbSymbolTableRecord
100
AcDbLinetypeTableRecord
  2
CONTINUOUS
 70
     0
  3
Solid line
 72
    65
 73
     0
 40
0.0
  0
LTYPE
  5
7D54
330
746A
100
AcDbSymbolTableRecord
100
AcDbLinetypeTableRecord
  2
CENTER2
 70
     0
  3
Center (.5x) ___ _ ___ _ ___ _ ___ _ ___ _ ___
 72
    65
 73
     4
 40
28.57499999999999
 49
19.05
 74
     0
 49
-3.174999999999998
 74
     0
 49
3.174999999999998
 74
     0
 49
-3.174999999999998
 74
     0
  0
LTYPE
  5
7D55
330
746A
100
AcDbSymbolTableRecord
100
AcDbLinetypeTableRecord
  2
DOT
 70
     0
  3
Dot . . . . . . . . . . . . . . . . . . . . . .
 72
    65
 73
     2
 40
6.349999999999998
 49
0.0
 74
     0
 49
-6.349999999999998
 74
     0
  0
LTYPE
  5
7D56
330
746A
100
AcDbSymbolTableRecord
100
AcDbLinetypeTableRecord
  2
HIDDEN2
 70
     0
  3
Hidden (.5x) _ _ _ _ _ _ _ _ _ _ _ _ _ _ _ _ _
 72
    65
 73
     2
 40
4.762499999999998
 49
3.174999999999998
 74
     0
 49
-1.587499999999999
 74
     0
  0
LTYPE
  5
7D57
330
746A
100
AcDbSymbolTableRecord
100
AcDbLinetypeTableRecord
  2
PHANTOM2
 70
     0
  3
Phantom (.5x) ___ _ _ ___ _ _ ___ _ _ ___ _ _
 72
    65
 73
     6
 40
31.75
 49
15.875
 74
     0
 49
-3.174999999999998
 74
     0
 49
3.174999999999998
 74
     0
 49
-3.174999999999998
 74
     0
 49
3.174999999999998
 74
     0
 49
-3.174999999999998
 74
     0
  0
ENDTAB
  0
TABLE
  2
LAYER
  5
7467
330
0
100
AcDbSymbolTable
 70
     7
  0
LAYER
  5
7474
330
7467
100
AcDbSymbolTableRecord
100
AcDbLayerTableRecord
  2
0
 70
     0
 62
     7
  6
CONTINUOUS
370
    -3
390
7F6A
  0
LAYER
  5
7485
330
7467
100
AcDbSymbolTableRecord
100
AcDbLayerTableRecord
  2
DEFPOINTS
 70
     0
 62
     7
  6
CONTINUOUS
290
     0
370
    -3
390
7F6A
  0
LAYER
  5
7486
330
7467
100
AcDbSymbolTableRecord
100
AcDbLayerTableRecord
  2
OBJECT
 70
     0
 62
     7
  6
CONTINUOUS
370
    -3
390
7F6A
  0
LAYER
  5
7950
330
7467
100
AcDbSymbolTableRecord
100
AcDbLayerTableRecord
  2
枠
 70
     0
 62
     3
  6
CONTINUOUS
370
    -3
390
7F6A
  0
LAYER
  5
7D58
330
7467
100
AcDbSymbolTableRecord
100
AcDbLayerTableRecord
  2
寸法引出
 70
     0
 62
     2
  6
CONTINUOUS
370
    -3
390
7F6A
  0
LAYER
  5
7D59
330
7467
100
AcDbSymbolTableRecord
100
AcDbLayerTableRecord
  2
鉄筋
 70
     0
 62
     4
  6
CONTINUOUS
370
    -3
390
7F6A
  0
LAYER
  5
7D5A
330
7467
100
AcDbSymbolTableRecord
100
AcDbLayerTableRecord
  2
補助線
 70
     0
 62
     6
  6
CONTINUOUS
370
    -3
390
7F6A
  0
ENDTAB
  0
TABLE
  2
STYLE
  5
7468
330
0
100
AcDbSymbolTable
 70
     4
  0
STYLE
  5
7475
330
7468
100
AcDbSymbolTableRecord
100
AcDbTextStyleTableRecord
  2
STANDARD
 70
     0
 40
0.0
 41
1.0
 50
0.0
 71
     0
 42
3.5
  3
txt
  4

  0
STYLE
  5
7481
330
7468
100
AcDbSymbolTableRecord
100
AcDbTextStyleTableRecord
  2
ADESK1
 70
     0
 40
0.0
 41
1.0
 50
0.0
 71
     0
 42
5.0
  3
romans
  4
bigfont
  0
STYLE
  5
7731
330
7468
100
AcDbSymbolTableRecord
100
AcDbTextStyleTableRecord
  2
SANWA
 70
     0
 40
0.0
 41
1.0
 50
0.0
 71
     0
 42
2.799999999999998
  3
MS Mincho.ttf
  4

1001
ACAD
1000
MS Mincho
1071
    32785
  0
STYLE
  5
7D45
330
7468
100
AcDbSymbolTableRecord
100
AcDbTextStyleTableRecord
  2

 70
     1
 40
0.0
 41
1.0
 50
0.0
 71
     0
 42
3.5
  3
ltypeshp.shx
  4

  0
ENDTAB
  0
TABLE
  2
VIEW
  5
746B
330
0
100
AcDbSymbolTable
 70
     0
  0
ENDTAB
  0
TABLE
  2
UCS
  5
746C
330
0
100
AcDbSymbolTable
 70
     0
  0
ENDTAB
  0
TABLE
  2
APPID
  5
746E
330
0
100
AcDbSymbolTable
 70
     2
  0
APPID
  5
7476
330
746E
100
AcDbSymbolTableRecord
100
AcDbRegAppTableRecord
  2
ACAD
 70
     0
  0
APPID
  5
ACD3
330
746E
100
AcDbSymbolTableRecord
100
AcDbRegAppTableRecord
  2
DCO15
 70
     0
  0
ENDTAB
  0
TABLE
  2
DIMSTYLE
  5
746F
330
0
100
AcDbSymbolTable
 70
     4
100
AcDbDimStyleTable
 71
     1
340
796F
  0
DIMSTYLE
105
7484
330
746F
100
AcDbSymbolTableRecord
100
AcDbDimStyleTableRecord
  2
JIS
 70
     0
 41
2.5
 42
1.0
 43
7.0
 44
1.0
 73
     0
 74
     0
 77
     1
 78
     8
140
2.5
141
0.0
143
0.0394
147
0.0
172
     1
174
     1
176
     2
177
     2
178
     2
340
7731
  0
DIMSTYLE
105
796F
102
{ACAD_REACTORS
330
88FD
330
8917
330
8926
330
898D
330
899A
330
89A9
330
8CB4
330
8CC3
330
8CD0
330
8DA3
330
9083
330
9202
330
9241
330
9250
330
925F
330
928F
330
9437
330
9446
330
A0FF
330
A10C
330
A119
330
A128
330
A95F
330
A9E6
330
ACDE
330
ACEB
102
}
330
746F
100
AcDbSymbolTableRecord
100
AcDbDimStyleTableRecord
  2
SANWA
 70
     0
 41
2.5
 42
1.0
 43
7.0
 44
1.0
 73
     0
 74
     0
 77
     1
 78
     8
140
2.5
141
0.0
143
0.0394
147
0.0
172
     1
174
     1
176
     2
177
     2
178
     2
340
7731
  0
DIMSTYLE
105
7C9D
330
746F
100
AcDbSymbolTableRecord
100
AcDbDimStyleTableRecord
  2
SANWA$4
 70
     0
 41
2.5
 42
1.0
 43
5.0
 44
1.0
 73
     0
 74
     0
 77
     1
 78
     8
140
2.5
141
0.0
143
0.0394
147
1.0
172
     1
174
     1
176
     2
177
     2
178
     2
289
     2
340
7731
  0
DIMSTYLE
105
7CB5
330
746F
100
AcDbSymbolTableRecord
100
AcDbDimStyleTableRecord
  2
SANWA$3
 70
     0
 41
2.5
 42
1.0
 43
7.0
 44
1.0
 73
     0
 74
     0
 77
     1
 78
     8
140
2.5
141
0.0
143
0.0394
147
0.0
172
     1
174
     1
176
     2
177
     2
178
     2
289
     0
340
7731
  0
ENDTAB
  0
TABLE
  2
BLOCK_RECORD
  5
7466
330
0
100
AcDbSymbolTable
 70
    45
  0
BLOCK_RECORD
  5
747D
330
7466
100
AcDbSymbolTableRecord
100
AcDbBlockTableRecord
  2
*MODEL_SPACE
340
7F6D
  0
BLOCK_RECORD
  5
747A
330
7466
100
AcDbSymbolTableRecord
100
AcDbBlockTableRecord
  2
*PAPER_SPACE
340
7F6E
  0
BLOCK_RECORD
  5
7493
330
7466
100
AcDbSymbolTableRecord
100
AcDbBlockTableRecord
  2
TITLE_BLOCK
340
0
  0
BLOCK_RECORD
  5
88FE
330
7466
100
AcDbSymbolTableRecord
100
AcDbBlockTableRecord
  2
*D1
340
0
  0
BLOCK_RECORD
  5
8918
330
7466
100
AcDbSymbolTableRecord
100
AcDbBlockTableRecord
  2
*D2
340
0
  0
BLOCK_RECORD
  5
8927
330
7466
100
AcDbSymbolTableRecord
100
AcDbBlockTableRecord
  2
*D3
340
0
  0
BLOCK_RECORD
  5
898E
330
7466
100
AcDbSymbolTableRecord
100
AcDbBlockTableRecord
  2
*D4
340
0
  0
BLOCK_RECORD
  5
899B
330
7466
100
AcDbSymbolTableRecord
100
AcDbBlockTableRecord
  2
*D5
340
0
  0
BLOCK_RECORD
  5
89AA
330
7466
100
AcDbSymbolTableRecord
100
AcDbBlockTableRecord
  2
*D6
340
0
  0
BLOCK_RECORD
  5
8CB5
330
7466
100
AcDbSymbolTableRecord
100
AcDbBlockTableRecord
  2
*D7
340
0
  0
BLOCK_RECORD
  5
8CC4
330
7466
100
AcDbSymbolTableRecord
100
AcDbBlockTableRecord
  2
*D8
340
0
  0
BLOCK_RECORD
  5
8CD1
330
7466
100
AcDbSymbolTableRecord
100
AcDbBlockTableRecord
  2
*D9
340
0
  0
BLOCK_RECORD
  5
8DA4
330
7466
100
AcDbSymbolTableRecord
100
AcDbBlockTableRecord
  2
*D10
340
0
  0
BLOCK_RECORD
  5
9084
330
7466
100
AcDbSymbolTableRecord
100
AcDbBlockTableRecord
  2
*D11
340
0
  0
BLOCK_RECORD
  5
9203
330
7466
100
AcDbSymbolTableRecord
100
AcDbBlockTableRecord
  2
*D12
340
0
  0
BLOCK_RECORD
  5
9242
330
7466
100
AcDbSymbolTableRecord
100
AcDbBlockTableRecord
  2
*D13
340
0
  0
BLOCK_RECORD
  5
9251
330
7466
100
AcDbSymbolTableRecord
100
AcDbBlockTableRecord
  2
*D14
340
0
  0
BLOCK_RECORD
  5
9260
330
7466
100
AcDbSymbolTableRecord
100
AcDbBlockTableRecord
  2
*D15
340
0
  0
BLOCK_RECORD
  5
9290
330
7466
100
AcDbSymbolTableRecord
100
AcDbBlockTableRecord
  2
*D16
340
0
  0
BLOCK_RECORD
  5
9438
330
7466
100
AcDbSymbolTableRecord
100
AcDbBlockTableRecord
  2
*D17
340
0
  0
BLOCK_RECORD
  5
9447
330
7466
100
AcDbSymbolTableRecord
100
AcDbBlockTableRecord
  2
*D18
340
0
  0
BLOCK_RECORD
  5
A100
330
7466
100
AcDbSymbolTableRecord
100
AcDbBlockTableRecord
  2
*D19
340
0
  0
BLOCK_RECORD
  5
A10D
330
7466
100
AcDbSymbolTableRecord
100
AcDbBlockTableRecord
  2
*D20
340
0
  0
BLOCK_RECORD
  5
A11A
330
7466
100
AcDbSymbolTableRecord
100
AcDbBlockTableRecord
  2
*D21
340
0
  0
BLOCK_RECORD
  5
A129
330
7466
100
AcDbSymbolTableRecord
100
AcDbBlockTableRecord
  2
*D22
340
0
  0
BLOCK_RECORD
  5
A579
330
7466
100
AcDbSymbolTableRecord
100
AcDbBlockTableRecord
  2
*D23
340
0
  0
BLOCK_RECORD
  5
A5B9
330
7466
100
AcDbSymbolTableRecord
100
AcDbBlockTableRecord
  2
*D24
340
0
  0
BLOCK_RECORD
  5
A5C5
330
7466
100
AcDbSymbolTableRecord
100
AcDbBlockTableRecord
  2
*D25
340
0
  0
BLOCK_RECORD
  5
A7DB
330
7466
100
AcDbSymbolTableRecord
100
AcDbBlockTableRecord
  2
*D26
340
0
  0
BLOCK_RECORD
  5
A7E7
330
7466
100
AcDbSymbolTableRecord
100
AcDbBlockTableRecord
  2
*D27
340
0
  0
BLOCK_RECORD
  5
A7F3
330
7466
100
AcDbSymbolTableRecord
100
AcDbBlockTableRecord
  2
*D28
340
0
  0
BLOCK_RECORD
  5
A801
330
7466
100
AcDbSymbolTableRecord
100
AcDbBlockTableRecord
  2
*D29
340
0
  0
BLOCK_RECORD
  5
A80D
330
7466
100
AcDbSymbolTableRecord
100
AcDbBlockTableRecord
  2
*D30
340
0
  0
BLOCK_RECORD
  5
A81B
330
7466
100
AcDbSymbolTableRecord
100
AcDbBlockTableRecord
  2
*D31
340
0
  0
BLOCK_RECORD
  5
A829
330
7466
100
AcDbSymbolTableRecord
100
AcDbBlockTableRecord
  2
*D32
340
0
  0
BLOCK_RECORD
  5
A837
330
7466
100
AcDbSymbolTableRecord
100
AcDbBlockTableRecord
  2
*D33
340
0
  0
BLOCK_RECORD
  5
A843
330
7466
100
AcDbSymbolTableRecord
100
AcDbBlockTableRecord
  2
*D34
340
0
  0
BLOCK_RECORD
  5
A851
330
7466
100
AcDbSymbolTableRecord
100
AcDbBlockTableRecord
  2
*D35
340
0
  0
BLOCK_RECORD
  5
A90C
330
7466
100
AcDbSymbolTableRecord
100
AcDbBlockTableRecord
  2
*D36
340
0
  0
BLOCK_RECORD
  5
A919
330
7466
100
AcDbSymbolTableRecord
100
AcDbBlockTableRecord
  2
*D37
340
0
  0
BLOCK_RECORD
  5
A926
330
7466
100
AcDbSymbolTableRecord
100
AcDbBlockTableRecord
  2
*D38
340
0
  0
BLOCK_RECORD
  5
A933
330
7466
100
AcDbSymbolTableRecord
100
AcDbBlockTableRecord
  2
*D39
340
0
  0
BLOCK_RECORD
  5
A960
330
7466
100
AcDbSymbolTableRecord
100
AcDbBlockTableRecord
  2
*D40
340
0
  0
BLOCK_RECORD
  5
A9E7
330
7466
100
AcDbSymbolTableRecord
100
AcDbBlockTableRecord
  2
*D41
340
0
  0
BLOCK_RECORD
  5
AC14
330
7466
100
AcDbSymbolTableRecord
100
AcDbBlockTableRecord
  2
*D42
340
0
  0
BLOCK_RECORD
  5
ACDF
330
7466
100
AcDbSymbolTableRecord
100
AcDbBlockTableRecord
  2
*D43
340
0
  0
BLOCK_RECORD
  5
ACEC
330
7466
100
AcDbSymbolTableRecord
100
AcDbBlockTableRecord
  2
*D44
340
0
  0
ENDTAB
  0
ENDSEC
  0
SECTION
  2
BLOCKS
  0
BLOCK
  5
7489
330
747D
100
AcDbEntity
  8
0
100
AcDbBlockBegin
  2
*MODEL_SPACE
 70
     0
 10
0.0
 20
0.0
 30
0.0
  3
*MODEL_SPACE
  1

  0
ENDBLK
  5
748A
330
747D
100
AcDbEntity
  8
0
100
AcDbBlockEnd
  0
BLOCK
  5
7487
330
747A
100
AcDbEntity
 67
     1
  8
0
100
AcDbBlockBegin
  2
*PAPER_SPACE
 70
     2
 10
0.0
 20
0.0
 30
0.0
  3
*PAPER_SPACE
  1

  0
ENDBLK
  5
7488
330
747A
100
AcDbEntity
 67
     1
  8
0
100
AcDbBlockEnd
  0
BLOCK
  5
7494
330
7493
100
AcDbEntity
  8
0
100
AcDbBlockBegin
  2
TITLE_BLOCK
 70
     2
 10
0.0
 20
0.0
 30
0.0
  3
TITLE_BLOCK
  1

  0
LINE
  5
7495
330
7493
100
AcDbEntity
  8
0
 62
     0
100
AcDbLine
 10
402.7943262411347
 20
16.00000000000008
 30
0.0
 11
410.0
 21
16.00000000000008
 31
0.0
  0
LINE
  5
7496
330
7493
100
AcDbEntity
  8
0
 62
     0
100
AcDbLine
 10
410.0
 20
10.0
 30
0.0
 11
410.0
 21
49.00000000000036
 31
0.0
  0
LINE
  5
7497
330
7493
100
AcDbEntity
  8
0
 62
     0
100
AcDbLine
 10
410.0
 20
49.00000000000036
 30
0.0
 11
410.0
 21
10.0
 31
0.0
  0
LINE
  5
7498
330
7493
100
AcDbEntity
  8
0
 62
     0
100
AcDbLine
 10
402.7943262411347
 20
22.00000000000012
 30
0.0
 11
402.7943262411347
 21
10.0
 31
0.0
  0
LINE
  5
7499
330
7493
100
AcDbEntity
  8
0
 62
     0
100
AcDbLine
 10
336.1418439716306
 20
49.00000000000036
 30
0.0
 11
336.1418439716306
 21
22.00000000000012
 31
0.0
  0
LINE
  5
749A
330
7493
100
AcDbEntity
  8
0
 62
     0
100
AcDbLine
 10
325.3333333333324
 20
37.00000000000024
 30
0.0
 11
325.3333333333324
 21
25.00000000000012
 31
0.0
  0
LINE
  5
749B
330
7493
100
AcDbEntity
  8
0
 62
     0
100
AcDbLine
 10
318.1276595744673
 20
49.00000000000036
 30
0.0
 11
318.1276595744673
 21
25.00000000000012
 31
0.0
  0
LINE
  5
749C
330
7493
100
AcDbEntity
  8
0
 62
     0
100
AcDbLine
 10
318.1276595744673
 20
25.00000000000012
 30
0.0
 11
348.7517730496447
 21
25.00000000000012
 31
0.0
  0
LINE
  5
749D
330
7493
100
AcDbEntity
  8
0
 62
     0
100
AcDbLine
 10
280.297872340424
 20
28.00000000000014
 30
0.0
 11
348.7517730496447
 21
28.00000000000014
 31
0.0
  0
LINE
  5
749E
330
7493
100
AcDbEntity
  8
0
 62
     0
100
AcDbLine
 10
280.297872340424
 20
31.0000000000002
 30
0.0
 11
348.7517730496447
 21
31.0000000000002
 31
0.0
  0
LINE
  5
749F
330
7493
100
AcDbEntity
  8
0
 62
     0
100
AcDbLine
 10
280.297872340424
 20
34.00000000000024
 30
0.0
 11
348.7517730496447
 21
34.00000000000024
 31
0.0
  0
LINE
  5
74A0
330
7493
100
AcDbEntity
  8
0
 62
     0
100
AcDbLine
 10
280.297872340424
 20
19.00000000000006
 30
0.0
 11
318.1276595744673
 21
19.00000000000012
 31
0.0
  0
LINE
  5
74A1
330
7493
100
AcDbEntity
  8
0
 62
     0
100
AcDbLine
 10
280.297872340424
 20
22.00000000000007
 30
0.0
 11
318.1276595744673
 21
22.00000000000012
 31
0.0
  0
LINE
  5
74A2
330
7493
100
AcDbEntity
  8
0
 62
     0
100
AcDbLine
 10
280.297872340424
 20
25.00000000000012
 30
0.0
 11
318.1276595744673
 21
25.00000000000012
 31
0.0
  0
TEXT
  5
74A3
330
7493
100
AcDbEntity
  8
0
 62
     0
100
AcDbText
 10
342.2447163844405
 20
10.55220101068185
 30
0.0
 40
1.791674070777746
  1
照査
  7
ADESK1
 72
     1
 11
344.1558353932701
 21
10.55220101068185
 31
0.0
100
AcDbText
  0
TEXT
  5
74A4
330
7493
100
AcDbEntity
  8
0
 62
     0
100
AcDbText
 10
332.2960689314087
 20
10.48329012996928
 30
0.0
 40
1.791674070777746
  1
設計
  7
ADESK1
 72
     1
 11
334.2071879402383
 21
10.48329012996928
 31
0.0
100
AcDbText
  0
TEXT
  5
74A5
330
7493
100
AcDbEntity
  8
0
 62
     0
100
AcDbText
 10
321.7174935280942
 20
10.48329012996928
 30
0.0
 40
1.791674070777746
  1
製図
  7
ADESK1
 72
     1
 11
323.5688900678979
 21
10.48329012996928
 31
0.0
100
AcDbText
  0
LINE
  5
74A6
330
7493
100
AcDbEntity
  8
0
 62
     0
100
AcDbLine
 10
280.297872340424
 20
10.0
 30
0.0
 11
280.297872340424
 21
13.00000000000003
 31
0.0
  0
LINE
  5
74A7
330
7493
100
AcDbEntity
  8
0
 62
     0
100
AcDbLine
 10
280.297872340424
 20
16.00000000000008
 30
0.0
 11
318.1276595744673
 21
16.00000000000008
 31
0.0
  0
LINE
  5
74A8
330
7493
100
AcDbEntity
  8
0
 62
     0
100
AcDbLine
 10
339.4042553191483
 20
22.00000000000007
 30
0.0
 11
339.4042553191483
 21
10.0
 31
0.0
  0
LINE
  5
74A9
330
7493
100
AcDbEntity
  8
0
 62
     0
100
AcDbLine
 10
328.7659574468076
 20
22.00000000000007
 30
0.0
 11
328.7659574468076
 21
10.0
 31
0.0
  0
LINE
  5
74AA
330
7493
100
AcDbEntity
  8
0
 62
     0
100
AcDbLine
 10
348.7517730496447
 20
49.00000000000036
 30
0.0
 11
348.7517730496447
 21
10.0
 31
0.0
  0
LINE
  5
74AB
330
7493
100
AcDbEntity
  8
0
 62
     0
100
AcDbLine
 10
280.297872340424
 20
49.00000000000036
 30
0.0
 11
280.297872340424
 21
10.0
 31
0.0
  0
LINE
  5
74AC
330
7493
100
AcDbEntity
  8
0
 62
     0
100
AcDbLine
 10
318.1276595744673
 20
25.00000000000012
 30
0.0
 11
318.1276595744673
 21
10.0
 31
0.0
  0
LINE
  5
74AD
330
7493
100
AcDbEntity
  8
0
 62
     0
100
AcDbLine
 10
312.7234042553183
 20
37.00000000000024
 30
0.0
 11
312.7234042553183
 21
10.0
 31
0.0
  0
LINE
  5
74AE
330
7493
100
AcDbEntity
  8
0
 62
     0
100
AcDbLine
 10
285.7021276595729
 20
37.00000000000024
 30
0.0
 11
285.7021276595729
 21
10.0
 31
0.0
  0
LINE
  5
74AF
330
7493
100
AcDbEntity
  8
0
 62
     0
100
AcDbLine
 10
303.7163120567365
 20
37.00000000000024
 30
0.0
 11
303.7163120567365
 21
10.0
 31
0.0
  0
LINE
  5
74B0
330
7493
100
AcDbEntity
  8
0
 62
     0
100
AcDbLine
 10
410.0
 20
49.00000000000036
 30
0.0
 11
280.297872340424
 21
49.00000000000036
 31
0.0
  0
LINE
  5
74B1
330
7493
100
AcDbEntity
  8
0
 62
     0
100
AcDbLine
 10
280.297872340424
 20
10.0
 30
0.0
 11
410.0
 21
10.0
 31
0.0
  0
LINE
  5
74B2
330
7493
100
AcDbEntity
  8
0
 62
     0
100
AcDbLine
 10
318.1276595744673
 20
22.00000000000012
 30
0.0
 11
410.0
 21
22.00000000000012
 31
0.0
  0
LINE
  5
74B3
330
7493
100
AcDbEntity
  8
0
 62
     0
100
AcDbLine
 10
280.297872340424
 20
37.00000000000024
 30
0.0
 11
410.0
 21
37.00000000000024
 31
0.0
  0
LINE
  5
74B4
330
7493
100
AcDbEntity
  8
0
 62
     0
100
AcDbLine
 10
280.297872340424
 20
13.00000000000003
 30
0.0
 11
410.0
 21
13.00000000000003
 31
0.0
  0
LINE
  5
74B5
330
7493
100
AcDbEntity
  8
0
 62
     0
100
AcDbLine
 10
280.297872340424
 20
49.00000000000036
 30
0.0
 11
410.0
 21
49.00000000000036
 31
0.0
  0
TEXT
  5
74B6
330
7493
100
AcDbEntity
  8
0
100
AcDbText
 10
411.3708251683467
 20
33.08333333333334
 30
0.0
 40
3.0
  1
F
  7
ADESK1
 72
     1
 11
412.8708251683468
 21
33.08333333333334
 31
0.0
100
AcDbText
  0
TEXT
  5
74B7
330
7493
100
AcDbEntity
  8
0
100
AcDbText
 10
411.3708251683467
 20
79.25
 30
0.0
 40
3.0
  1
E
  7
ADESK1
 72
     1
 11
412.8708251683468
 21
79.25
 31
0.0
100
AcDbText
  0
TEXT
  5
74B8
330
7493
100
AcDbEntity
  8
0
100
AcDbText
 10
411.2993965969182
 20
125.4166666666665
 30
0.0
 40
3.0
  1
D
  7
ADESK1
 72
     1
 11
412.8708251683468
 21
125.4166666666665
 31
0.0
100
AcDbText
  0
TEXT
  5
74B9
330
7493
100
AcDbEntity
  8
0
100
AcDbText
 10
411.3708251683467
 20
171.5833333333333
 30
0.0
 40
3.0
  1
C
  7
ADESK1
 72
     1
 11
412.8708251683468
 21
171.5833333333333
 31
0.0
100
AcDbText
  0
TEXT
  5
74BA
330
7493
100
AcDbEntity
  8
0
100
AcDbText
 10
411.2993965969182
 20
217.7499999999999
 30
0.0
 40
3.0
  1
B
  7
ADESK1
 72
     1
 11
412.8708251683468
 21
217.7499999999999
 31
0.0
100
AcDbText
  0
TEXT
  5
74BB
330
7493
100
AcDbEntity
  8
0
100
AcDbText
 10
411.5851108826324
 20
263.9166666666666
 30
0.0
 40
3.0
  1
A
  7
ADESK1
 72
     1
 11
412.8708251683468
 21
263.9166666666666
 31
0.0
100
AcDbText
  0
TEXT
  5
74BC
330
7493
100
AcDbEntity
  8
0
100
AcDbText
 10
384.5089285714285
 20
6.019997240728746
 30
0.0
 40
3.0
  1
8
  7
ADESK1
 72
     1
 11
385.9375
 21
6.019997240728746
 31
0.0
100
AcDbText
  0
TEXT
  5
74BD
330
7493
100
AcDbEntity
  8
0
100
AcDbText
 10
336.3839285714285
 20
6.019997240728746
 30
0.0
 40
3.0
  1
7
  7
ADESK1
 72
     1
 11
337.8125
 21
6.019997240728746
 31
0.0
100
AcDbText
  0
TEXT
  5
74BE
330
7493
100
AcDbEntity
  8
0
100
AcDbText
 10
288.1874999999999
 20
6.019997240728746
 30
0.0
 40
3.0
  1
6
  7
ADESK1
 72
     1
 11
289.6875
 21
6.019997240728746
 31
0.0
100
AcDbText
  0
TEXT
  5
74BF
330
7493
100
AcDbEntity
  8
0
100
AcDbText
 10
240.1339285714285
 20
6.019997240728746
 30
0.0
 40
3.0
  1
5
  7
ADESK1
 72
     1
 11
241.5624999999999
 21
6.019997240728746
 31
0.0
100
AcDbText
  0
TEXT
  5
74C0
330
7493
100
AcDbEntity
  8
0
100
AcDbText
 10
191.9375
 20
6.019997240728746
 30
0.0
 40
3.0
  1
4
  7
ADESK1
 72
     1
 11
193.4375
 21
6.019997240728746
 31
0.0
100
AcDbText
  0
TEXT
  5
74C1
330
7493
100
AcDbEntity
  8
0
100
AcDbText
 10
143.8839285714285
 20
6.019997240728746
 30
0.0
 40
3.0
  1
3
  7
ADESK1
 72
     1
 11
145.3125
 21
6.019997240728746
 31
0.0
100
AcDbText
  0
TEXT
  5
74C2
330
7493
100
AcDbEntity
  8
0
100
AcDbText
 10
95.75892857142857
 20
6.019997240728746
 30
0.0
 40
3.0
  1
2
  7
ADESK1
 72
     1
 11
97.1875
 21
6.019997240728746
 31
0.0
100
AcDbText
  0
TEXT
  5
74C3
330
7493
100
AcDbEntity
  8
0
100
AcDbText
 10
47.84821428571429
 20
6.019997240728746
 30
0.0
 40
3.0
  1
1
  7
ADESK1
 72
     1
 11
49.0625
 21
6.019997240728746
 31
0.0
100
AcDbText
  0
TEXT
  5
74C4
330
7493
100
AcDbEntity
  8
0
100
AcDbText
 10
21.10716135953389
 20
33.08333333333334
 30
0.0
 40
3.0
  1
F
  7
ADESK1
 72
     1
 11
22.60716135953388
 21
33.08333333333334
 31
0.0
100
AcDbText
  0
TEXT
  5
74C5
330
7493
100
AcDbEntity
  8
0
100
AcDbText
 10
21.10716135953389
 20
79.25
 30
0.0
 40
3.0
  1
E
  7
ADESK1
 72
     1
 11
22.60716135953388
 21
79.25
 31
0.0
100
AcDbText
  0
TEXT
  5
74C6
330
7493
100
AcDbEntity
  8
0
100
AcDbText
 10
21.03573278810532
 20
125.4166666666665
 30
0.0
 40
3.0
  1
D
  7
ADESK1
 72
     1
 11
22.60716135953388
 21
125.4166666666665
 31
0.0
100
AcDbText
  0
TEXT
  5
74C7
330
7493
100
AcDbEntity
  8
0
100
AcDbText
 10
21.10716135953389
 20
171.5833333333333
 30
0.0
 40
3.0
  1
C
  7
ADESK1
 72
     1
 11
22.60716135953388
 21
171.5833333333333
 31
0.0
100
AcDbText
  0
TEXT
  5
74C8
330
7493
100
AcDbEntity
  8
0
100
AcDbText
 10
21.03573278810532
 20
217.7499999999999
 30
0.0
 40
3.0
  1
B
  7
ADESK1
 72
     1
 11
22.60716135953388
 21
217.7499999999999
 31
0.0
100
AcDbText
  0
TEXT
  5
74C9
330
7493
100
AcDbEntity
  8
0
100
AcDbText
 10
384.5089285714285
 20
288.0
 30
0.0
 40
3.0
  1
8
  7
ADESK1
 72
     1
 11
385.9375
 21
288.0
 31
0.0
100
AcDbText
  0
TEXT
  5
74CA
330
7493
100
AcDbEntity
  8
0
100
AcDbText
 10
336.3839285714285
 20
288.0
 30
0.0
 40
3.0
  1
7
  7
ADESK1
 72
     1
 11
337.8125
 21
288.0
 31
0.0
100
AcDbText
  0
TEXT
  5
74CB
330
7493
100
AcDbEntity
  8
0
100
AcDbText
 10
288.1874999999999
 20
288.0
 30
0.0
 40
3.0
  1
6
  7
ADESK1
 72
     1
 11
289.6875
 21
288.0
 31
0.0
100
AcDbText
  0
TEXT
  5
74CC
330
7493
100
AcDbEntity
  8
0
100
AcDbText
 10
240.1339285714285
 20
288.0
 30
0.0
 40
3.0
  1
5
  7
ADESK1
 72
     1
 11
241.5624999999999
 21
288.0
 31
0.0
100
AcDbText
  0
TEXT
  5
74CD
330
7493
100
AcDbEntity
  8
0
100
AcDbText
 10
191.9375
 20
288.0
 30
0.0
 40
3.0
  1
4
  7
ADESK1
 72
     1
 11
193.4375
 21
288.0
 31
0.0
100
AcDbText
  0
TEXT
  5
74CE
330
7493
100
AcDbEntity
  8
0
100
AcDbText
 10
143.8839285714285
 20
288.0
 30
0.0
 40
3.0
  1
3
  7
ADESK1
 72
     1
 11
145.3125
 21
288.0
 31
0.0
100
AcDbText
  0
TEXT
  5
74CF
330
7493
100
AcDbEntity
  8
0
100
AcDbText
 10
95.75892857142857
 20
288.0
 30
0.0
 40
3.0
  1
2
  7
ADESK1
 72
     1
 11
97.1875
 21
288.0
 31
0.0
100
AcDbText
  0
TEXT
  5
74D0
330
7493
100
AcDbEntity
  8
0
100
AcDbText
 10
21.3214470738196
 20
263.9166666666666
 30
0.0
 40
3.0
  1
A
  7
ADESK1
 72
     1
 11
22.60716135953388
 21
263.9166666666666
 31
0.0
100
AcDbText
  0
TEXT
  5
74D1
330
7493
100
AcDbEntity
  8
0
100
AcDbText
 10
47.84821428571429
 20
288.0
 30
0.0
 40
3.0
  1
1
  7
ADESK1
 72
     1
 11
49.0625
 21
288.0
 31
0.0
100
AcDbText
  0
LINE
  5
74D2
330
7493
100
AcDbEntity
  8
0
100
AcDbLine
 10
73.125
 20
287.0
 30
0.0
 11
73.125
 21
292.0
 31
0.0
  0
LINE
  5
74D3
330
7493
100
AcDbEntity
  8
0
100
AcDbLine
 10
121.25
 20
287.0
 30
0.0
 11
121.25
 21
292.0
 31
0.0
  0
LINE
  5
74D4
330
7493
100
AcDbEntity
  8
0
100
AcDbLine
 10
169.375
 20
287.0
 30
0.0
 11
169.375
 21
292.0
 31
0.0
  0
LINE
  5
74D5
330
7493
100
AcDbEntity
  8
0
100
AcDbLine
 10
217.5
 20
287.0
 30
0.0
 11
217.5
 21
292.0
 31
0.0
  0
LINE
  5
74D6
330
7493
100
AcDbEntity
  8
0
100
AcDbLine
 10
265.625
 20
287.0
 30
0.0
 11
265.625
 21
292.0
 31
0.0
  0
LINE
  5
74D7
330
7493
100
AcDbEntity
  8
0
100
AcDbLine
 10
313.75
 20
287.0
 30
0.0
 11
313.75
 21
292.0
 31
0.0
  0
LINE
  5
74D8
330
7493
100
AcDbEntity
  8
0
100
AcDbLine
 10
361.8749999999998
 20
287.0
 30
0.0
 11
361.8749999999998
 21
292.0
 31
0.0
  0
LINE
  5
74D9
330
7493
100
AcDbEntity
  8
0
100
AcDbLine
 10
361.8749999999998
 20
10.0
 30
0.0
 11
361.8749999999998
 21
5.0
 31
0.0
  0
LINE
  5
74DA
330
7493
100
AcDbEntity
  8
0
100
AcDbLine
 10
313.75
 20
10.0
 30
0.0
 11
313.75
 21
5.0
 31
0.0
  0
LINE
  5
74DB
330
7493
100
AcDbEntity
  8
0
100
AcDbLine
 10
265.625
 20
10.0
 30
0.0
 11
265.625
 21
5.0
 31
0.0
  0
LINE
  5
74DC
330
7493
100
AcDbEntity
  8
0
100
AcDbLine
 10
217.5
 20
10.0
 30
0.0
 11
217.5
 21
5.0
 31
0.0
  0
LINE
  5
74DD
330
7493
100
AcDbEntity
  8
0
100
AcDbLine
 10
169.375
 20
10.0
 30
0.0
 11
169.375
 21
5.0
 31
0.0
  0
LINE
  5
74DE
330
7493
100
AcDbEntity
  8
0
100
AcDbLine
 10
121.25
 20
10.0
 30
0.0
 11
121.25
 21
5.0
 31
0.0
  0
LINE
  5
74DF
330
7493
100
AcDbEntity
  8
0
100
AcDbLine
 10
73.125
 20
10.0
 30
0.0
 11
73.125
 21
5.0
 31
0.0
  0
LINE
  5
74E0
330
7493
100
AcDbEntity
  8
0
100
AcDbLine
 10
410.0
 20
240.8333333333333
 30
0.0
 11
415.0
 21
240.8333333333333
 31
0.0
  0
LINE
  5
74E1
330
7493
100
AcDbEntity
  8
0
100
AcDbLine
 10
410.0
 20
194.6666666666667
 30
0.0
 11
415.0
 21
194.6666666666667
 31
0.0
  0
LINE
  5
74E2
330
7493
100
AcDbEntity
  8
0
100
AcDbLine
 10
410.0
 20
148.5
 30
0.0
 11
415.0
 21
148.5
 31
0.0
  0
LINE
  5
74E3
330
7493
100
AcDbEntity
  8
0
100
AcDbLine
 10
410.0
 20
102.3333333333332
 30
0.0
 11
415.0
 21
102.3333333333332
 31
0.0
  0
LINE
  5
74E4
330
7493
100
AcDbEntity
  8
0
100
AcDbLine
 10
410.0
 20
56.16666666666668
 30
0.0
 11
415.0
 21
56.16666666666668
 31
0.0
  0
LINE
  5
74E5
330
7493
100
AcDbEntity
  8
0
100
AcDbLine
 10
25.0
 20
56.16666666666667
 30
0.0
 11
20.0
 21
56.16666666666667
 31
0.0
  0
LINE
  5
74E6
330
7493
100
AcDbEntity
  8
0
100
AcDbLine
 10
25.0
 20
102.3333333333332
 30
0.0
 11
20.0
 21
102.3333333333332
 31
0.0
  0
LINE
  5
74E7
330
7493
100
AcDbEntity
  8
0
100
AcDbLine
 10
25.0
 20
148.5
 30
0.0
 11
20.0
 21
148.5
 31
0.0
  0
LINE
  5
74E8
330
7493
100
AcDbEntity
  8
0
100
AcDbLine
 10
25.0
 20
194.6666666666666
 30
0.0
 11
20.0
 21
194.6666666666666
 31
0.0
  0
LINE
  5
74E9
330
7493
100
AcDbEntity
  8
0
100
AcDbLine
 10
25.0
 20
240.8333333333333
 30
0.0
 11
20.0
 21
240.8333333333333
 31
0.0
  0
TEXT
  5
74EA
330
7493
100
AcDbEntity
  8
0
100
AcDbText
 10
1.0
 20
1.0
 30
0.0
 40
3.0
  1
この図枠はサンプルです。社内の規格やプロッタの出力範囲に合わせて適当に変更してご利用ください。
  7
ADESK1
100
AcDbText
  0
LINE
  5
74EB
330
7493
100
AcDbEntity
  8
0
100
AcDbLine
 10
25.0
 20
148.5
 30
0.0
 11
0.0
 21
148.5
 31
0.0
  0
LINE
  5
74EC
330
7493
100
AcDbEntity
  8
0
100
AcDbLine
 10
410.0
 20
148.5
 30
0.0
 11
420.0
 21
148.5
 31
0.0
  0
LINE
  5
74ED
330
7493
100
AcDbEntity
  8
0
100
AcDbLine
 10
217.5
 20
287.0
 30
0.0
 11
217.5
 21
297.0
 31
0.0
  0
LINE
  5
74EE
330
7493
100
AcDbEntity
  8
0
100
AcDbLine
 10
217.5
 20
10.0
 30
0.0
 11
217.5
 21
0.0
 31
0.0
  0
LINE
  5
74EF
330
7493
100
AcDbEntity
  8
OBJECT
100
AcDbLine
 10
130.0
 20
40.0
 30
0.0
 11
130.0
 21
10.0
 31
0.0
  0
LINE
  5
74F0
330
7493
100
AcDbEntity
  8
OBJECT
100
AcDbLine
 10
120.0
 20
10.0
 30
0.0
 11
120.0
 21
40.0
 31
0.0
  0
LINE
  5
74F1
330
7493
100
AcDbEntity
  8
OBJECT
100
AcDbLine
 10
44.5
 20
37.0
 30
0.0
 11
45.49999999999999
 21
37.0
 31
0.0
  0
LINE
  5
74F2
330
7493
100
AcDbEntity
  8
OBJECT
100
AcDbLine
 10
44.5
 20
31.0
 30
0.0
 11
45.49999999999999
 21
31.0
 31
0.0
  0
LINE
  5
74F3
330
7493
100
AcDbEntity
  8
OBJECT
100
AcDbLine
 10
39.5
 20
37.0
 30
0.0
 11
40.49999999999999
 21
37.0
 31
0.0
  0
LINE
  5
74F4
330
7493
100
AcDbEntity
  8
OBJECT
100
AcDbLine
 10
39.5
 20
31.0
 30
0.0
 11
40.49999999999999
 21
31.0
 31
0.0
  0
LINE
  5
74F5
330
7493
100
AcDbEntity
  8
OBJECT
100
AcDbLine
 10
44.5
 20
25.0
 30
0.0
 11
45.49999999999999
 21
25.0
 31
0.0
  0
LINE
  5
74F6
330
7493
100
AcDbEntity
  8
OBJECT
100
AcDbLine
 10
39.5
 20
25.0
 30
0.0
 11
40.49999999999999
 21
25.0
 31
0.0
  0
LINE
  5
74F7
330
7493
100
AcDbEntity
  8
OBJECT
100
AcDbLine
 10
44.5
 20
19.0
 30
0.0
 11
45.49999999999999
 21
19.0
 31
0.0
  0
LINE
  5
74F8
330
7493
100
AcDbEntity
  8
OBJECT
100
AcDbLine
 10
39.5
 20
19.0
 30
0.0
 11
40.49999999999999
 21
19.0
 31
0.0
  0
LINE
  5
74F9
330
7493
100
AcDbEntity
  8
OBJECT
100
AcDbLine
 10
28.0
 20
29.53589799999999
 30
0.0
 11
30.0
 21
33.0
 31
0.0
  0
LINE
  5
74FA
330
7493
100
AcDbEntity
  8
OBJECT
100
AcDbLine
 10
28.0
 20
29.53589799999999
 30
0.0
 11
32.0
 21
29.53589799999999
 31
0.0
  0
LINE
  5
74FB
330
7493
100
AcDbEntity
  8
OBJECT
100
AcDbLine
 10
32.0
 20
29.53589799999999
 30
0.0
 11
30.0
 21
33.0
 31
0.0
  0
LINE
  5
74FC
330
7493
100
AcDbEntity
  8
OBJECT
100
AcDbLine
 10
28.0
 20
35.53589799999999
 30
0.0
 11
32.0
 21
35.53589799999999
 31
0.0
  0
LINE
  5
74FD
330
7493
100
AcDbEntity
  8
OBJECT
100
AcDbLine
 10
32.0
 20
35.53589799999999
 30
0.0
 11
30.0
 21
39.0
 31
0.0
  0
LINE
  5
74FE
330
7493
100
AcDbEntity
  8
OBJECT
100
AcDbLine
 10
28.0
 20
35.53589799999999
 30
0.0
 11
30.0
 21
39.0
 31
0.0
  0
LINE
  5
74FF
330
7493
100
AcDbEntity
  8
OBJECT
100
AcDbLine
 10
28.0
 20
23.53589799999999
 30
0.0
 11
30.0
 21
26.99999999999999
 31
0.0
  0
LINE
  5
7500
330
7493
100
AcDbEntity
  8
OBJECT
100
AcDbLine
 10
28.0
 20
23.53589799999999
 30
0.0
 11
32.0
 21
23.53589799999999
 31
0.0
  0
LINE
  5
7501
330
7493
100
AcDbEntity
  8
OBJECT
100
AcDbLine
 10
32.0
 20
23.53589799999999
 30
0.0
 11
30.0
 21
26.99999999999999
 31
0.0
  0
LINE
  5
7502
330
7493
100
AcDbEntity
  8
OBJECT
100
AcDbLine
 10
28.0
 20
17.535898
 30
0.0
 11
30.0
 21
20.99999999999999
 31
0.0
  0
LINE
  5
7503
330
7493
100
AcDbEntity
  8
OBJECT
100
AcDbLine
 10
28.0
 20
17.535898
 30
0.0
 11
32.0
 21
17.535898
 31
0.0
  0
LINE
  5
7504
330
7493
100
AcDbEntity
  8
OBJECT
100
AcDbLine
 10
32.0
 20
17.535898
 30
0.0
 11
30.0
 21
20.99999999999999
 31
0.0
  0
LINE
  5
7505
330
7493
100
AcDbEntity
  8
OBJECT
100
AcDbLine
 10
44.5
 20
13.0
 30
0.0
 11
45.49999999999999
 21
13.0
 31
0.0
  0
LINE
  5
7506
330
7493
100
AcDbEntity
  8
OBJECT
100
AcDbLine
 10
39.5
 20
13.0
 30
0.0
 11
40.49999999999999
 21
13.0
 31
0.0
  0
LINE
  5
7507
330
7493
100
AcDbEntity
  8
OBJECT
100
AcDbLine
 10
28.0
 20
11.53589799999999
 30
0.0
 11
32.0
 21
11.53589799999999
 31
0.0
  0
LINE
  5
7508
330
7493
100
AcDbEntity
  8
OBJECT
100
AcDbLine
 10
80.0
 20
10.0
 30
0.0
 11
80.0
 21
40.0
 31
0.0
  0
LINE
  5
7509
330
7493
100
AcDbEntity
  8
OBJECT
100
AcDbLine
 10
50.0
 20
10.0
 30
0.0
 11
50.0
 21
40.0
 31
0.0
  0
LINE
  5
750A
330
7493
100
AcDbEntity
  8
OBJECT
100
AcDbLine
 10
35.0
 20
10.0
 30
0.0
 11
35.0
 21
40.0
 31
0.0
  0
LINE
  5
750B
330
7493
100
AcDbEntity
  8
OBJECT
100
AcDbLine
 10
32.0
 20
11.53589799999999
 30
0.0
 11
30.0
 21
15.0
 31
0.0
  0
LINE
  5
750C
330
7493
100
AcDbEntity
  8
OBJECT
100
AcDbLine
 10
28.0
 20
11.53589799999999
 30
0.0
 11
30.0
 21
15.0
 31
0.0
  0
LINE
  5
750D
330
7493
100
AcDbEntity
  8
OBJECT
100
AcDbLine
 10
130.0
 20
40.0
 30
0.0
 11
25.0
 21
40.0
 31
0.0
  0
LINE
  5
750E
330
7493
100
AcDbEntity
  8
OBJECT
100
AcDbLine
 10
130.0
 20
34.0
 30
0.0
 11
25.0
 21
34.0
 31
0.0
  0
LINE
  5
750F
330
7493
100
AcDbEntity
  8
OBJECT
100
AcDbLine
 10
130.0
 20
28.0
 30
0.0
 11
25.0
 21
28.0
 31
0.0
  0
LINE
  5
7510
330
7493
100
AcDbEntity
  8
OBJECT
100
AcDbLine
 10
130.0
 20
22.0
 30
0.0
 11
25.0
 21
22.0
 31
0.0
  0
LINE
  5
7511
330
7493
100
AcDbEntity
  8
OBJECT
100
AcDbLine
 10
130.0
 20
16.0
 30
0.0
 11
25.0
 21
16.0
 31
0.0
  0
ATTDEF
  5
7512
330
7493
100
AcDbEntity
  8
0
 62
     0
100
AcDbText
 10
19.0
 20
118.0
 30
0.0
 40
3.0
  1

 50
90.0
  7
ADESK1
100
AcDbAttributeDefinition
  3

  2
FNAME
 70
     8
  0
ATTDEF
  5
7513
330
7493
100
AcDbEntity
  8
0
 62
     0
100
AcDbText
 10
19.0
 20
70.0
 30
0.0
 40
3.0
  1

 50
90.0
  7
ADESK1
100
AcDbAttributeDefinition
  3

  2
REVDATE
 70
     8
  0
ATTDEF
  5
7514
330
7493
100
AcDbEntity
  8
0
 62
     0
100
AcDbText
 10
19.0
 20
10.0
 30
0.0
 40
3.0
  1

 50
90.0
  7
ADESK1
100
AcDbAttributeDefinition
  3

  2
USER
 70
     8
  0
LINE
  5
7515
330
7493
100
AcDbEntity
  8
0
100
AcDbLine
 10
410.0
 20
297.0
 30
0.0
 11
420.0
 21
297.0
 31
0.0
  0
LINE
  5
7516
330
7493
100
AcDbEntity
  8
0
100
AcDbLine
 10
420.0
 20
10.0
 30
0.0
 11
420.0
 21
0.0
 31
0.0
  0
LINE
  5
7517
330
7493
100
AcDbEntity
  8
0
100
AcDbLine
 10
25.0
 20
0.0
 30
0.0
 11
0.0
 21
0.0
 31
0.0
  0
LINE
  5
7518
330
7493
100
AcDbEntity
  8
0
100
AcDbLine
 10
0.0
 20
287.0
 30
0.0
 11
0.0
 21
297.0
 31
0.0
  0
LINE
  5
7519
330
7493
100
AcDbEntity
  8
0
100
AcDbLine
 10
25.0
 20
287.0
 30
0.0
 11
410.0
 21
287.0
 31
0.0
  0
LINE
  5
751A
330
7493
100
AcDbEntity
  8
0
100
AcDbLine
 10
410.0
 20
287.0
 30
0.0
 11
410.0
 21
10.0
 31
0.0
  0
LINE
  5
751B
330
7493
100
AcDbEntity
  8
0
100
AcDbLine
 10
410.0
 20
10.0
 30
0.0
 11
25.0
 21
10.0
 31
0.0
  0
LINE
  5
751C
330
7493
100
AcDbEntity
  8
0
100
AcDbLine
 10
25.0
 20
10.0
 30
0.0
 11
25.0
 21
287.0
 31
0.0
  0
LINE
  5
751D
330
7493
100
AcDbEntity
  8
0
100
AcDbLine
 10
420.0
 20
0.0
 30
0.0
 11
410.0
 21
0.0
 31
0.0
  0
LINE
  5
751E
330
7493
100
AcDbEntity
  8
0
100
AcDbLine
 10
420.0
 20
297.0
 30
0.0
 11
420.0
 21
287.0
 31
0.0
  0
LINE
  5
751F
330
7493
100
AcDbEntity
  8
0
100
AcDbLine
 10
0.0
 20
297.0
 30
0.0
 11
25.0
 21
297.0
 31
0.0
  0
LINE
  5
7520
330
7493
100
AcDbEntity
  8
0
100
AcDbLine
 10
0.0
 20
0.0
 30
0.0
 11
0.0
 21
10.0
 31
0.0
  0
ENDBLK
  5
7521
330
7493
100
AcDbEntity
  8
0
100
AcDbBlockEnd
  0
BLOCK
  5
890A
330
88FE
100
AcDbEntity
  8
0
 48
20.0
100
AcDbBlockBegin
  2
*D1
 70
     1
 10
0.0
 20
0.0
 30
0.0
  3
*D1
  1

  0
LINE
  5
AECF
330
88FE
100
AcDbEntity
  8
寸法引出
 48
15.0
370
    -2
100
AcDbLine
 10
1008.578219800759
 20
1745.942454180445
 30
0.0
 11
1008.578219800759
 21
1806.913734943689
 31
0.0
  0
LINE
  5
AED0
330
88FE
100
AcDbEntity
  8
寸法引出
 48
15.0
370
    -2
100
AcDbLine
 10
1048.578219800759
 20
1750.442454180445
 30
0.0
 11
1048.578219800759
 21
1806.913734943689
 31
0.0
  0
LINE
  5
AED1
330
88FE
100
AcDbEntity
  8
寸法引出
 48
15.0
370
    -2
100
AcDbLine
 10
986.0782198007592
 20
1799.413734943689
 30
0.0
 11
963.5782198007593
 21
1799.413734943689
 31
0.0
  0
LINE
  5
AED2
330
88FE
100
AcDbEntity
  8
寸法引出
 48
15.0
370
    -2
100
AcDbLine
 10
1071.078219800759
 20
1799.413734943689
 30
0.0
 11
1093.578219800759
 21
1799.413734943689
 31
0.0
  0
MTEXT
  5
AED3
330
88FE
100
AcDbEntity
  8
寸法引出
 48
15.0
100
AcDbMText
 10
981.7710332749994
 20
1829.58801450195
 30
0.0
 40
30.0
 41
0.0
 71
     5
 72
     1
  1
\A1;40
  7
SANWA
 73
     1
 44
1.0
  0
LINE
  5
AED4
330
88FE
100
AcDbEntity
  8
寸法引出
 48
15.0
370
    -2
100
AcDbLine
 10
1008.578219800759
 20
1799.413734943689
 30
0.0
 11
1048.578219800759
 21
1799.413734943689
 31
0.0
  0
SOLID
  5
AED5
330
88FE
100
AcDbEntity
  8
寸法引出
 48
15.0
100
AcDbTrace
 10
986.0782198007592
 20
1803.163734943689
 30
0.0
 11
986.0782198007592
 21
1795.663734943689
 31
0.0
 12
1008.578219800759
 22
1799.413734943689
 32
0.0
 13
1008.578219800759
 23
1799.413734943689
 33
0.0
  0
SOLID
  5
AED6
330
88FE
100
AcDbEntity
  8
寸法引出
 48
15.0
100
AcDbTrace
 10
1071.078219800759
 20
1803.163734943689
 30
0.0
 11
1071.078219800759
 21
1795.663734943689
 31
0.0
 12
1048.578219800759
 22
1799.413734943689
 32
0.0
 13
1048.578219800759
 23
1799.413734943689
 33
0.0
  0
POINT
  5
AED7
330
88FE
100
AcDbEntity
  8
DEFPOINTS
 62
     0
 48
15.0
100
AcDbPoint
 10
1008.578219800759
 20
1730.942454180445
 30
0.0
  0
POINT
  5
AED8
330
88FE
100
AcDbEntity
  8
DEFPOINTS
 62
     0
 48
15.0
100
AcDbPoint
 10
1048.578219800759
 20
1735.442454180445
 30
0.0
  0
POINT
  5
AED9
330
88FE
100
AcDbEntity
  8
DEFPOINTS
 62
     0
 48
15.0
100
AcDbPoint
 10
1048.578219800759
 20
1799.413734943689
 30
0.0
  0
ENDBLK
  5
890B
330
88FE
100
AcDbEntity
  8
0
 48
20.0
100
AcDbBlockEnd
  0
BLOCK
  5
8924
330
8918
100
AcDbEntity
  8
0
 48
20.0
100
AcDbBlockBegin
  2
*D2
 70
     1
 10
0.0
 20
0.0
 30
0.0
  3
*D2
  1

  0
LINE
  5
AEDA
330
8918
100
AcDbEntity
  8
寸法引出
 48
15.0
370
    -2
100
AcDbLine
 10
1048.578219800759
 20
1750.442454180445
 30
0.0
 11
1048.578219800759
 21
1806.913734943689
 31
0.0
  0
LINE
  5
AEDB
330
8918
100
AcDbEntity
  8
寸法引出
 48
15.0
370
    -2
100
AcDbLine
 10
1051.078219800759
 20
1670.442454180445
 30
0.0
 11
1051.078219800759
 21
1806.913734943689
 31
0.0
  0
LINE
  5
AEDC
330
8918
100
AcDbEntity
  8
寸法引出
 48
15.0
370
    -2
100
AcDbLine
 10
1026.078219800759
 20
1799.413734943689
 30
0.0
 11
1003.578219800759
 21
1799.413734943689
 31
0.0
  0
LINE
  5
AEDD
330
8918
100
AcDbEntity
  8
寸法引出
 48
15.0
370
    -2
100
AcDbLine
 10
1073.578219800759
 20
1799.413734943689
 30
0.0
 11
1096.078219800759
 21
1799.413734943689
 31
0.0
  0
MTEXT
  5
AEDE
330
8918
100
AcDbEntity
  8
寸法引出
 48
15.0
100
AcDbMText
 10
1048.347113990905
 20
1863.630825365507
 30
0.0
 40
30.0
 41
0.0
 71
     5
 72
     1
  1
\A1;2.5
  7
SANWA
 73
     1
 44
1.0
  0
LINE
  5
AEDF
330
8918
100
AcDbEntity
  8
寸法引出
 48
15.0
370
    -2
100
AcDbLine
 10
1048.578219800759
 20
1799.413734943689
 30
0.0
 11
1051.078219800759
 21
1799.413734943689
 31
0.0
  0
SOLID
  5
AEE0
330
8918
100
AcDbEntity
  8
寸法引出
 48
15.0
100
AcDbTrace
 10
1026.078219800759
 20
1803.163734943689
 30
0.0
 11
1026.078219800759
 21
1795.663734943689
 31
0.0
 12
1048.578219800759
 22
1799.413734943689
 32
0.0
 13
1048.578219800759
 23
1799.413734943689
 33
0.0
  0
SOLID
  5
AEE1
330
8918
100
AcDbEntity
  8
寸法引出
 48
15.0
100
AcDbTrace
 10
1073.578219800759
 20
1803.163734943689
 30
0.0
 11
1073.578219800759
 21
1795.663734943689
 31
0.0
 12
1051.078219800759
 22
1799.413734943689
 32
0.0
 13
1051.078219800759
 23
1799.413734943689
 33
0.0
  0
POINT
  5
AEE2
330
8918
100
AcDbEntity
  8
DEFPOINTS
 62
     0
 48
15.0
100
AcDbPoint
 10
1048.578219800759
 20
1735.442454180445
 30
0.0
  0
POINT
  5
AEE3
330
8918
100
AcDbEntity
  8
DEFPOINTS
 62
     0
 48
15.0
100
AcDbPoint
 10
1051.078219800759
 20
1655.442454180445
 30
0.0
  0
POINT
  5
AEE4
330
8918
100
AcDbEntity
  8
DEFPOINTS
 62
     0
 48
15.0
100
AcDbPoint
 10
1051.078219800759
 20
1799.413734943689
 30
0.0
  0
ENDBLK
  5
8925
330
8918
100
AcDbEntity
  8
0
 48
20.0
100
AcDbBlockEnd
  0
BLOCK
  5
8933
330
8927
100
AcDbEntity
  8
0
 48
20.0
100
AcDbBlockBegin
  2
*D3
 70
     1
 10
0.0
 20
0.0
 30
0.0
  3
*D3
  1

  0
LINE
  5
AEE5
330
8927
100
AcDbEntity
  8
寸法引出
 48
15.0
370
    -2
100
AcDbLine
 10
1051.078219800759
 20
1670.442454180445
 30
0.0
 11
1051.078219800759
 21
1806.913734943689
 31
0.0
  0
LINE
  5
AEE6
330
8927
100
AcDbEntity
  8
寸法引出
 48
15.0
370
    -2
100
AcDbLine
 10
1078.578219800759
 20
1670.442454180445
 30
0.0
 11
1078.578219800759
 21
1806.913734943689
 31
0.0
  0
LINE
  5
AEE7
330
8927
100
AcDbEntity
  8
寸法引出
 48
15.0
370
    -2
100
AcDbLine
 10
1028.578219800759
 20
1799.413734943689
 30
0.0
 11
1006.078219800759
 21
1799.413734943689
 31
0.0
  0
LINE
  5
AEE8
330
8927
100
AcDbEntity
  8
寸法引出
 48
15.0
370
    -2
100
AcDbLine
 10
1101.078219800759
 20
1799.413734943689
 30
0.0
 11
1123.578219800759
 21
1799.413734943689
 31
0.0
  0
MTEXT
  5
AEE9
330
8927
100
AcDbEntity
  8
寸法引出
 48
15.0
100
AcDbMText
 10
1063.829908211369
 20
1828.040622599808
 30
0.0
 40
30.0
 41
0.0
 71
     5
 72
     1
  1
\A1;27.5
  7
SANWA
 73
     1
 44
1.0
  0
LINE
  5
AEEA
330
8927
100
AcDbEntity
  8
寸法引出
 48
15.0
370
    -2
100
AcDbLine
 10
1051.078219800759
 20
1799.413734943689
 30
0.0
 11
1078.578219800759
 21
1799.413734943689
 31
0.0
  0
SOLID
  5
AEEB
330
8927
100
AcDbEntity
  8
寸法引出
 48
15.0
100
AcDbTrace
 10
1028.578219800759
 20
1803.163734943689
 30
0.0
 11
1028.578219800759
 21
1795.663734943689
 31
0.0
 12
1051.078219800759
 22
1799.413734943689
 32
0.0
 13
1051.078219800759
 23
1799.413734943689
 33
0.0
  0
SOLID
  5
AEEC
330
8927
100
AcDbEntity
  8
寸法引出
 48
15.0
100
AcDbTrace
 10
1101.078219800759
 20
1803.163734943689
 30
0.0
 11
1101.078219800759
 21
1795.663734943689
 31
0.0
 12
1078.578219800759
 22
1799.413734943689
 32
0.0
 13
1078.578219800759
 23
1799.413734943689
 33
0.0
  0
POINT
  5
AEED
330
8927
100
AcDbEntity
  8
DEFPOINTS
 62
     0
 48
15.0
100
AcDbPoint
 10
1051.078219800759
 20
1655.442454180445
 30
0.0
  0
POINT
  5
AEEE
330
8927
100
AcDbEntity
  8
DEFPOINTS
 62
     0
 48
15.0
100
AcDbPoint
 10
1078.578219800759
 20
1655.442454180445
 30
0.0
  0
POINT
  5
AEEF
330
8927
100
AcDbEntity
  8
DEFPOINTS
 62
     0
 48
15.0
100
AcDbPoint
 10
1078.578219800759
 20
1799.413734943689
 30
0.0
  0
ENDBLK
  5
8934
330
8927
100
AcDbEntity
  8
0
 48
20.0
100
AcDbBlockEnd
  0
BLOCK
  5
8998
330
898E
100
AcDbEntity
  8
0
 48
20.0
100
AcDbBlockBegin
  2
*D4
 70
     1
 10
0.0
 20
0.0
 30
0.0
  3
*D4
  1

  0
LINE
  5
AEF0
330
898E
100
AcDbEntity
  8
寸法引出
 48
15.0
370
    -2
100
AcDbLine
 10
1078.578219800759
 20
1670.442454180445
 30
0.0
 11
1078.578219800759
 21
1806.913734943689
 31
0.0
  0
LINE
  5
AEF1
330
898E
100
AcDbEntity
  8
寸法引出
 48
15.0
370
    -2
100
AcDbLine
 10
1328.578219800759
 20
1670.442454180445
 30
0.0
 11
1328.578219800759
 21
1806.913734943689
 31
0.0
  0
LINE
  5
AEF2
330
898E
100
AcDbEntity
  8
寸法引出
 48
15.0
370
    -2
100
AcDbLine
 10
1101.078219800759
 20
1799.413734943689
 30
0.0
 11
1306.078219800759
 21
1799.413734943689
 31
0.0
  0
SOLID
  5
AEF3
330
898E
100
AcDbEntity
  8
寸法引出
 48
15.0
100
AcDbTrace
 10
1101.078219800759
 20
1803.163734943689
 30
0.0
 11
1101.078219800759
 21
1795.663734943689
 31
0.0
 12
1078.578219800759
 22
1799.413734943689
 32
0.0
 13
1078.578219800759
 23
1799.413734943689
 33
0.0
  0
SOLID
  5
AEF4
330
898E
100
AcDbEntity
  8
寸法引出
 48
15.0
100
AcDbTrace
 10
1306.078219800759
 20
1803.163734943689
 30
0.0
 11
1306.078219800759
 21
1795.663734943689
 31
0.0
 12
1328.578219800759
 22
1799.413734943689
 32
0.0
 13
1328.578219800759
 23
1799.413734943689
 33
0.0
  0
MTEXT
  5
AEF5
330
898E
100
AcDbEntity
  8
寸法引出
 48
15.0
100
AcDbMText
 10
1203.578219800759
 20
1829.413734943689
 30
0.0
 40
30.0
 41
0.0
 71
     5
 72
     1
  1
\A1;250
  7
SANWA
 73
     1
 44
1.0
  0
POINT
  5
AEF6
330
898E
100
AcDbEntity
  8
DEFPOINTS
 62
     0
 48
15.0
100
AcDbPoint
 10
1078.578219800759
 20
1655.442454180445
 30
0.0
  0
POINT
  5
AEF7
330
898E
100
AcDbEntity
  8
DEFPOINTS
 62
     0
 48
15.0
100
AcDbPoint
 10
1328.578219800759
 20
1655.442454180445
 30
0.0
  0
POINT
  5
AEF8
330
898E
100
AcDbEntity
  8
DEFPOINTS
 62
     0
 48
15.0
100
AcDbPoint
 10
1328.578219800759
 20
1799.413734943689
 30
0.0
  0
ENDBLK
  5
8999
330
898E
100
AcDbEntity
  8
0
 48
20.0
100
AcDbBlockEnd
  0
BLOCK
  5
89A7
330
899B
100
AcDbEntity
  8
0
 48
20.0
100
AcDbBlockBegin
  2
*D5
 70
     1
 10
0.0
 20
0.0
 30
0.0
  3
*D5
  1

  0
LINE
  5
AEBB
330
899B
100
AcDbEntity
  8
寸法引出
 48
15.0
370
    -2
100
AcDbLine
 10
1328.578219800759
 20
1670.442454180445
 30
0.0
 11
1328.578219800759
 21
1806.913734943689
 31
0.0
  0
LINE
  5
AEBC
330
899B
100
AcDbEntity
  8
寸法引出
 48
15.0
370
    -2
100
AcDbLine
 10
1398.57821980076
 20
1745.942454180444
 30
0.0
 11
1398.57821980076
 21
1806.913734943689
 31
0.0
  0
LINE
  5
AEBD
330
899B
100
AcDbEntity
  8
寸法引出
 48
15.0
370
    -2
100
AcDbLine
 10
1306.078219800759
 20
1799.413734943689
 30
0.0
 11
1283.578219800759
 21
1799.413734943689
 31
0.0
  0
LINE
  5
AEBE
330
899B
100
AcDbEntity
  8
寸法引出
 48
15.0
370
    -2
100
AcDbLine
 10
1421.07821980076
 20
1799.413734943689
 30
0.0
 11
1443.57821980076
 21
1799.413734943689
 31
0.0
  0
LINE
  5
AEBF
330
899B
100
AcDbEntity
  8
寸法引出
 48
15.0
370
    -2
100
AcDbLine
 10
1328.578219800759
 20
1799.413734943689
 30
0.0
 11
1398.57821980076
 21
1799.413734943689
 31
0.0
  0
SOLID
  5
AEC0
330
899B
100
AcDbEntity
  8
寸法引出
 48
15.0
100
AcDbTrace
 10
1306.078219800759
 20
1803.163734943689
 30
0.0
 11
1306.078219800759
 21
1795.663734943689
 31
0.0
 12
1328.578219800759
 22
1799.413734943689
 32
0.0
 13
1328.578219800759
 23
1799.413734943689
 33
0.0
  0
SOLID
  5
AEC1
330
899B
100
AcDbEntity
  8
寸法引出
 48
15.0
100
AcDbTrace
 10
1421.07821980076
 20
1803.163734943689
 30
0.0
 11
1421.07821980076
 21
1795.663734943689
 31
0.0
 12
1398.57821980076
 22
1799.413734943689
 32
0.0
 13
1398.57821980076
 23
1799.413734943689
 33
0.0
  0
MTEXT
  5
AEC2
330
899B
100
AcDbEntity
  8
寸法引出
 48
15.0
100
AcDbMText
 10
1363.578219800759
 20
1829.413734943689
 30
0.0
 40
30.0
 41
0.0
 71
     5
 72
     1
  1
\A1;70
  7
SANWA
 73
     1
 44
1.0
  0
POINT
  5
AEC3
330
899B
100
AcDbEntity
  8
DEFPOINTS
 62
     0
 48
15.0
100
AcDbPoint
 10
1328.578219800759
 20
1655.442454180445
 30
0.0
  0
POINT
  5
AEC4
330
899B
100
AcDbEntity
  8
DEFPOINTS
 62
     0
 48
15.0
100
AcDbPoint
 10
1398.57821980076
 20
1730.942454180444
 30
0.0
  0
POINT
  5
AEC5
330
899B
100
AcDbEntity
  8
DEFPOINTS
 62
     0
 48
15.0
100
AcDbPoint
 10
1398.57821980076
 20
1799.413734943689
 30
0.0
  0
ENDBLK
  5
89A8
330
899B
100
AcDbEntity
  8
0
 48
20.0
100
AcDbBlockEnd
  0
BLOCK
  5
89B4
330
89AA
100
AcDbEntity
  8
0
 48
20.0
100
AcDbBlockBegin
  2
*D6
 70
     1
 10
0.0
 20
0.0
 30
0.0
  3
*D6
  1

  0
LINE
  5
AEC6
330
89AA
100
AcDbEntity
  8
寸法引出
 48
15.0
370
    -2
100
AcDbLine
 10
1008.578219800759
 20
1745.942454180445
 30
0.0
 11
1008.578219800759
 21
1900.949066632423
 31
0.0
  0
LINE
  5
AEC7
330
89AA
100
AcDbEntity
  8
寸法引出
 48
15.0
370
    -2
100
AcDbLine
 10
1398.57821980076
 20
1745.942454180444
 30
0.0
 11
1398.57821980076
 21
1900.949066632423
 31
0.0
  0
LINE
  5
AEC8
330
89AA
100
AcDbEntity
  8
寸法引出
 48
15.0
370
    -2
100
AcDbLine
 10
1031.078219800759
 20
1893.449066632423
 30
0.0
 11
1376.07821980076
 21
1893.449066632423
 31
0.0
  0
SOLID
  5
AEC9
330
89AA
100
AcDbEntity
  8
寸法引出
 48
15.0
100
AcDbTrace
 10
1031.078219800759
 20
1897.199066632423
 30
0.0
 11
1031.078219800759
 21
1889.699066632423
 31
0.0
 12
1008.578219800759
 22
1893.449066632423
 32
0.0
 13
1008.578219800759
 23
1893.449066632423
 33
0.0
  0
SOLID
  5
AECA
330
89AA
100
AcDbEntity
  8
寸法引出
 48
15.0
100
AcDbTrace
 10
1376.07821980076
 20
1897.199066632423
 30
0.0
 11
1376.07821980076
 21
1889.699066632423
 31
0.0
 12
1398.57821980076
 22
1893.449066632423
 32
0.0
 13
1398.57821980076
 23
1893.449066632423
 33
0.0
  0
MTEXT
  5
AECB
330
89AA
100
AcDbEntity
  8
寸法引出
 48
15.0
100
AcDbMText
 10
1203.578219800759
 20
1923.449066632423
 30
0.0
 40
30.0
 41
0.0
 71
     5
 72
     1
  1
\A1;390
  7
SANWA
 73
     1
 44
1.0
  0
POINT
  5
AECC
330
89AA
100
AcDbEntity
  8
DEFPOINTS
 62
     0
 48
15.0
100
AcDbPoint
 10
1008.578219800759
 20
1730.942454180445
 30
0.0
  0
POINT
  5
AECD
330
89AA
100
AcDbEntity
  8
DEFPOINTS
 62
     0
 48
15.0
100
AcDbPoint
 10
1398.57821980076
 20
1730.942454180444
 30
0.0
  0
POINT
  5
AECE
330
89AA
100
AcDbEntity
  8
DEFPOINTS
 62
     0
 48
15.0
100
AcDbPoint
 10
1398.57821980076
 20
1893.449066632423
 30
0.0
  0
ENDBLK
  5
89B5
330
89AA
100
AcDbEntity
  8
0
 48
20.0
100
AcDbBlockEnd
  0
BLOCK
  5
8CC1
330
8CB5
100
AcDbEntity
  8
0
 48
20.0
100
AcDbBlockBegin
  2
*D7
 70
     1
 10
0.0
 20
0.0
 30
0.0
  3
*D7
  1

  0
LINE
  5
AF0F
330
8CB5
100
AcDbEntity
  8
寸法引出
 48
15.0
370
    -2
100
AcDbLine
 10
2821.493333821985
 20
1542.442454180445
 30
0.0
 11
2821.493333821985
 21
1559.955367075147
 31
0.0
  0
LINE
  5
AF10
330
8CB5
100
AcDbEntity
  8
寸法引出
 48
15.0
370
    -2
100
AcDbLine
 10
2831.493333821983
 20
1532.442454180445
 30
0.0
 11
2831.493333821983
 21
1559.955367075147
 31
0.0
  0
LINE
  5
AF11
330
8CB5
100
AcDbEntity
  8
寸法引出
 48
15.0
370
    -2
100
AcDbLine
 10
2798.993333821985
 20
1552.455367075147
 30
0.0
 11
2776.493333821985
 21
1552.455367075147
 31
0.0
  0
LINE
  5
AF12
330
8CB5
100
AcDbEntity
  8
寸法引出
 48
15.0
370
    -2
100
AcDbLine
 10
2853.993333821983
 20
1552.455367075147
 30
0.0
 11
2876.493333821983
 21
1552.455367075147
 31
0.0
  0
MTEXT
  5
AF13
330
8CB5
100
AcDbEntity
  8
寸法引出
 48
15.0
100
AcDbMText
 10
2799.903216517166
 20
1582.684049009396
 30
0.0
 40
30.0
 41
0.0
 71
     5
 72
     1
  1
\A1;10
  7
SANWA
 73
     1
 44
1.0
  0
LINE
  5
AF14
330
8CB5
100
AcDbEntity
  8
寸法引出
 48
15.0
370
    -2
100
AcDbLine
 10
2821.493333821985
 20
1552.455367075147
 30
0.0
 11
2831.493333821983
 21
1552.455367075147
 31
0.0
  0
SOLID
  5
AF15
330
8CB5
100
AcDbEntity
  8
寸法引出
 48
15.0
100
AcDbTrace
 10
2798.993333821985
 20
1556.205367075147
 30
0.0
 11
2798.993333821985
 21
1548.705367075147
 31
0.0
 12
2821.493333821985
 22
1552.455367075147
 32
0.0
 13
2821.493333821985
 23
1552.455367075147
 33
0.0
  0
SOLID
  5
AF16
330
8CB5
100
AcDbEntity
  8
寸法引出
 48
15.0
100
AcDbTrace
 10
2853.993333821983
 20
1556.205367075147
 30
0.0
 11
2853.993333821983
 21
1548.705367075147
 31
0.0
 12
2831.493333821983
 22
1552.455367075147
 32
0.0
 13
2831.493333821983
 23
1552.455367075147
 33
0.0
  0
POINT
  5
AF17
330
8CB5
100
AcDbEntity
  8
DEFPOINTS
 62
     0
 48
15.0
100
AcDbPoint
 10
2821.493333821985
 20
1527.442454180445
 30
0.0
  0
POINT
  5
AF18
330
8CB5
100
AcDbEntity
  8
DEFPOINTS
 62
     0
 48
15.0
100
AcDbPoint
 10
2831.493333821983
 20
1517.442454180445
 30
0.0
  0
POINT
  5
AF19
330
8CB5
100
AcDbEntity
  8
DEFPOINTS
 62
     0
 48
15.0
100
AcDbPoint
 10
2831.493333821983
 20
1552.455367075147
 30
0.0
  0
ENDBLK
  5
8CC2
330
8CB5
100
AcDbEntity
  8
0
 48
20.0
100
AcDbBlockEnd
  0
BLOCK
  5
8CCE
330
8CC4
100
AcDbEntity
  8
0
 48
20.0
100
AcDbBlockBegin
  2
*D8
 70
     1
 10
0.0
 20
0.0
 30
0.0
  3
*D8
  1

  0
LINE
  5
AF1A
330
8CC4
100
AcDbEntity
  8
寸法引出
 48
15.0
370
    -2
100
AcDbLine
 10
2831.493333821983
 20
1532.442454180445
 30
0.0
 11
2831.493333821983
 21
1559.955367075147
 31
0.0
  0
LINE
  5
AF1B
330
8CC4
100
AcDbEntity
  8
寸法引出
 48
15.0
370
    -2
100
AcDbLine
 10
2911.493333821982
 20
1532.442454180445
 30
0.0
 11
2911.493333821982
 21
1559.955367075147
 31
0.0
  0
LINE
  5
AF1C
330
8CC4
100
AcDbEntity
  8
寸法引出
 48
15.0
370
    -2
100
AcDbLine
 10
2853.993333821983
 20
1552.455367075147
 30
0.0
 11
2888.993333821982
 21
1552.455367075147
 31
0.0
  0
SOLID
  5
AF1D
330
8CC4
100
AcDbEntity
  8
寸法引出
 48
15.0
100
AcDbTrace
 10
2853.993333821983
 20
1556.205367075147
 30
0.0
 11
2853.993333821983
 21
1548.705367075147
 31
0.0
 12
2831.493333821983
 22
1552.455367075147
 32
0.0
 13
2831.493333821983
 23
1552.455367075147
 33
0.0
  0
SOLID
  5
AF1E
330
8CC4
100
AcDbEntity
  8
寸法引出
 48
15.0
100
AcDbTrace
 10
2888.993333821982
 20
1556.205367075147
 30
0.0
 11
2888.993333821982
 21
1548.705367075147
 31
0.0
 12
2911.493333821982
 22
1552.455367075147
 32
0.0
 13
2911.493333821982
 23
1552.455367075147
 33
0.0
  0
MTEXT
  5
AF1F
330
8CC4
100
AcDbEntity
  8
寸法引出
 48
15.0
100
AcDbMText
 10
2871.493333821982
 20
1582.455367075147
 30
0.0
 40
30.0
 41
0.0
 71
     5
 72
     1
  1
\A1;80
  7
SANWA
 73
     1
 44
1.0
  0
POINT
  5
AF20
330
8CC4
100
AcDbEntity
  8
DEFPOINTS
 62
     0
 48
15.0
100
AcDbPoint
 10
2831.493333821983
 20
1517.442454180445
 30
0.0
  0
POINT
  5
AF21
330
8CC4
100
AcDbEntity
  8
DEFPOINTS
 62
     0
 48
15.0
100
AcDbPoint
 10
2911.493333821982
 20
1517.442454180445
 30
0.0
  0
POINT
  5
AF22
330
8CC4
100
AcDbEntity
  8
DEFPOINTS
 62
     0
 48
15.0
100
AcDbPoint
 10
2911.493333821982
 20
1552.455367075147
 30
0.0
  0
ENDBLK
  5
8CCF
330
8CC4
100
AcDbEntity
  8
0
 48
20.0
100
AcDbBlockEnd
  0
BLOCK
  5
8CDD
330
8CD1
100
AcDbEntity
  8
0
 48
20.0
100
AcDbBlockBegin
  2
*D9
 70
     1
 10
0.0
 20
0.0
 30
0.0
  3
*D9
  1

  0
LINE
  5
AF23
330
8CD1
100
AcDbEntity
  8
寸法引出
 48
15.0
370
    -2
100
AcDbLine
 10
2911.493333821982
 20
1532.442454180445
 30
0.0
 11
2911.493333821982
 21
1559.955367075147
 31
0.0
  0
LINE
  5
AF24
330
8CD1
100
AcDbEntity
  8
寸法引出
 48
15.0
370
    -2
100
AcDbLine
 10
2921.493333821984
 20
1542.442454180445
 30
0.0
 11
2921.493333821984
 21
1559.955367075147
 31
0.0
  0
LINE
  5
AF25
330
8CD1
100
AcDbEntity
  8
寸法引出
 48
15.0
370
    -2
100
AcDbLine
 10
2888.993333821982
 20
1552.455367075147
 30
0.0
 11
2866.493333821982
 21
1552.455367075147
 31
0.0
  0
LINE
  5
AF26
330
8CD1
100
AcDbEntity
  8
寸法引出
 48
15.0
370
    -2
100
AcDbLine
 10
2943.993333821984
 20
1552.455367075147
 30
0.0
 11
2966.493333821984
 21
1552.455367075147
 31
0.0
  0
MTEXT
  5
AF27
330
8CD1
100
AcDbEntity
  8
寸法引出
 48
15.0
100
AcDbMText
 10
2940.275740850098
 20
1583.08261600591
 30
0.0
 40
30.0
 41
0.0
 71
     5
 72
     1
  1
\A1;10
  7
SANWA
 73
     1
 44
1.0
  0
LINE
  5
AF28
330
8CD1
100
AcDbEntity
  8
寸法引出
 48
15.0
370
    -2
100
AcDbLine
 10
2911.493333821982
 20
1552.455367075147
 30
0.0
 11
2921.493333821984
 21
1552.455367075147
 31
0.0
  0
SOLID
  5
AF29
330
8CD1
100
AcDbEntity
  8
寸法引出
 48
15.0
100
AcDbTrace
 10
2888.993333821982
 20
1556.205367075147
 30
0.0
 11
2888.993333821982
 21
1548.705367075147
 31
0.0
 12
2911.493333821982
 22
1552.455367075147
 32
0.0
 13
2911.493333821982
 23
1552.455367075147
 33
0.0
  0
SOLID
  5
AF2A
330
8CD1
100
AcDbEntity
  8
寸法引出
 48
15.0
100
AcDbTrace
 10
2943.993333821984
 20
1556.205367075147
 30
0.0
 11
2943.993333821984
 21
1548.705367075147
 31
0.0
 12
2921.493333821984
 22
1552.455367075147
 32
0.0
 13
2921.493333821984
 23
1552.455367075147
 33
0.0
  0
POINT
  5
AF2B
330
8CD1
100
AcDbEntity
  8
DEFPOINTS
 62
     0
 48
15.0
100
AcDbPoint
 10
2911.493333821982
 20
1517.442454180445
 30
0.0
  0
POINT
  5
AF2C
330
8CD1
100
AcDbEntity
  8
DEFPOINTS
 62
     0
 48
15.0
100
AcDbPoint
 10
2921.493333821984
 20
1527.442454180445
 30
0.0
  0
POINT
  5
AF2D
330
8CD1
100
AcDbEntity
  8
DEFPOINTS
 62
     0
 48
15.0
100
AcDbPoint
 10
2921.493333821984
 20
1552.455367075147
 30
0.0
  0
ENDBLK
  5
8CDE
330
8CD1
100
AcDbEntity
  8
0
 48
20.0
100
AcDbBlockEnd
  0
BLOCK
  5
8DAE
330
8DA4
100
AcDbEntity
  8
0
 48
20.0
100
AcDbBlockBegin
  2
*D10
 70
     1
 10
0.0
 20
0.0
 30
0.0
  3
*D10
  1

  0
LINE
  5
AE6F
330
8DA4
100
AcDbEntity
  8
寸法引出
 48
15.0
370
    -2
100
AcDbLine
 10
1872.493333821983
 20
1750.442454180445
 30
0.0
 11
1872.493333821983
 21
1854.008442181842
 31
0.0
  0
LINE
  5
AE70
330
8DA4
100
AcDbEntity
  8
寸法引出
 48
15.0
370
    -2
100
AcDbLine
 10
3870.493333821984
 20
1750.442454180445
 30
0.0
 11
3870.493333821984
 21
1854.008442181842
 31
0.0
  0
LINE
  5
AE71
330
8DA4
100
AcDbEntity
  8
寸法引出
 48
15.0
370
    -2
100
AcDbLine
 10
1894.993333821983
 20
1846.508442181842
 30
0.0
 11
3847.993333821984
 21
1846.508442181842
 31
0.0
  0
SOLID
  5
AE72
330
8DA4
100
AcDbEntity
  8
寸法引出
 48
15.0
100
AcDbTrace
 10
1894.993333821983
 20
1850.258442181842
 30
0.0
 11
1894.993333821983
 21
1842.758442181842
 31
0.0
 12
1872.493333821983
 22
1846.508442181842
 32
0.0
 13
1872.493333821983
 23
1846.508442181842
 33
0.0
  0
SOLID
  5
AE73
330
8DA4
100
AcDbEntity
  8
寸法引出
 48
15.0
100
AcDbTrace
 10
3847.993333821984
 20
1850.258442181842
 30
0.0
 11
3847.993333821984
 21
1842.758442181842
 31
0.0
 12
3870.493333821984
 22
1846.508442181842
 32
0.0
 13
3870.493333821984
 23
1846.508442181842
 33
0.0
  0
MTEXT
  5
AE74
330
8DA4
100
AcDbEntity
  8
寸法引出
 48
15.0
100
AcDbMText
 10
2871.493333821983
 20
1876.508442181842
 30
0.0
 40
30.0
 41
0.0
 71
     5
 72
     1
  1
\A1;1998
  7
SANWA
 73
     1
 44
1.0
  0
POINT
  5
AE75
330
8DA4
100
AcDbEntity
  8
DEFPOINTS
 62
     0
 48
15.0
100
AcDbPoint
 10
1872.493333821983
 20
1735.442454180445
 30
0.0
  0
POINT
  5
AE76
330
8DA4
100
AcDbEntity
  8
DEFPOINTS
 62
     0
 48
15.0
100
AcDbPoint
 10
3870.493333821984
 20
1735.442454180445
 30
0.0
  0
POINT
  5
AE77
330
8DA4
100
AcDbEntity
  8
DEFPOINTS
 62
     0
 48
15.0
100
AcDbPoint
 10
3870.493333821984
 20
1846.508442181842
 30
0.0
  0
ENDBLK
  5
8DAF
330
8DA4
100
AcDbEntity
  8
0
 48
20.0
100
AcDbBlockEnd
  0
BLOCK
  5
908E
330
9084
100
AcDbEntity
  8
0
 48
20.0
100
AcDbBlockBegin
  2
*D11
 70
     1
 10
0.0
 20
0.0
 30
0.0
  3
*D11
  1

  0
LINE
  5
AE9E
330
9084
100
AcDbEntity
  8
寸法引出
 48
15.0
370
    -2
100
AcDbLine
 10
1857.493333821983
 20
1735.442454180445
 30
0.0
 11
1751.107486693144
 21
1735.442454180445
 31
0.0
  0
LINE
  5
AE9F
330
9084
100
AcDbEntity
  8
寸法引出
 48
15.0
370
    -2
100
AcDbLine
 10
1857.493333821983
 20
1300.442454180445
 30
0.0
 11
1751.107486693144
 21
1300.442454180445
 31
0.0
  0
LINE
  5
AEA0
330
9084
100
AcDbEntity
  8
寸法引出
 48
15.0
370
    -2
100
AcDbLine
 10
1758.607486693144
 20
1712.942454180445
 30
0.0
 11
1758.607486693144
 21
1322.942454180445
 31
0.0
  0
SOLID
  5
AEA1
330
9084
100
AcDbEntity
  8
寸法引出
 48
15.0
100
AcDbTrace
 10
1754.857486693144
 20
1712.942454180445
 30
0.0
 11
1762.357486693144
 21
1712.942454180445
 31
0.0
 12
1758.607486693144
 22
1735.442454180445
 32
0.0
 13
1758.607486693144
 23
1735.442454180445
 33
0.0
  0
SOLID
  5
AEA2
330
9084
100
AcDbEntity
  8
寸法引出
 48
15.0
100
AcDbTrace
 10
1754.857486693143
 20
1322.942454180445
 30
0.0
 11
1762.357486693144
 21
1322.942454180445
 31
0.0
 12
1758.607486693144
 22
1300.442454180445
 32
0.0
 13
1758.607486693144
 23
1300.442454180445
 33
0.0
  0
MTEXT
  5
AEA3
330
9084
100
AcDbEntity
  8
寸法引出
 48
15.0
100
AcDbMText
 10
1728.607486693143
 20
1517.942454180445
 30
0.0
 40
30.0
 41
0.0
 71
     5
 72
     1
  1
\A1;435
  7
SANWA
 11
0.0000000000000001
 21
1.0
 31
0.0
 73
     1
 44
1.0
  0
POINT
  5
AEA4
330
9084
100
AcDbEntity
  8
DEFPOINTS
 62
     0
 48
15.0
100
AcDbPoint
 10
1872.493333821983
 20
1735.442454180445
 30
0.0
  0
POINT
  5
AEA5
330
9084
100
AcDbEntity
  8
DEFPOINTS
 62
     0
 48
15.0
100
AcDbPoint
 10
1872.493333821983
 20
1300.442454180445
 30
0.0
  0
POINT
  5
AEA6
330
9084
100
AcDbEntity
  8
DEFPOINTS
 62
     0
 48
15.0
100
AcDbPoint
 10
1758.607486693144
 20
1300.442454180445
 30
0.0
  0
ENDBLK
  5
908F
330
9084
100
AcDbEntity
  8
0
 48
20.0
100
AcDbBlockEnd
  0
BLOCK
  5
920F
330
9203
100
AcDbEntity
  8
0
 48
20.0
100
AcDbBlockBegin
  2
*D12
 70
     1
 10
0.0
 20
0.0
 30
0.0
  3
*D12
  1

  0
LINE
  5
AE28
330
9203
100
AcDbEntity
  8
寸法引出
 48
15.0
370
    -2
100
AcDbLine
 10
2233.486632061834
 20
341.8739091623646
 30
0.0
 11
2233.486632061834
 21
523.8299438673075
 31
0.0
  0
LINE
  5
AE29
330
9203
100
AcDbEntity
  8
寸法引出
 48
15.0
370
    -2
100
AcDbLine
 10
2208.486632061834
 20
466.8739091623646
 30
0.0
 11
2208.486632061834
 21
523.8299438673075
 31
0.0
  0
LINE
  5
AE2A
330
9203
100
AcDbEntity
  8
寸法引出
 48
15.0
370
    -2
100
AcDbLine
 10
2255.986632061834
 20
516.3299438673075
 30
0.0
 11
2278.486632061834
 21
516.3299438673075
 31
0.0
  0
LINE
  5
AE2B
330
9203
100
AcDbEntity
  8
寸法引出
 48
15.0
370
    -2
100
AcDbLine
 10
2185.986632061834
 20
516.3299438673075
 30
0.0
 11
2163.486632061834
 21
516.3299438673075
 31
0.0
  0
LINE
  5
AE2C
330
9203
100
AcDbEntity
  8
寸法引出
 48
15.0
370
    -2
100
AcDbLine
 10
2233.486632061834
 20
516.3299438673075
 30
0.0
 11
2208.486632061834
 21
516.3299438673075
 31
0.0
  0
SOLID
  5
AE2D
330
9203
100
AcDbEntity
  8
寸法引出
 48
15.0
100
AcDbTrace
 10
2255.986632061834
 20
520.0799438673075
 30
0.0
 11
2255.986632061834
 21
512.5799438673075
 31
0.0
 12
2233.486632061834
 22
516.3299438673075
 32
0.0
 13
2233.486632061834
 23
516.3299438673075
 33
0.0
  0
SOLID
  5
AE2E
330
9203
100
AcDbEntity
  8
寸法引出
 48
15.0
100
AcDbTrace
 10
2185.986632061834
 20
520.0799438673075
 30
0.0
 11
2185.986632061834
 21
512.5799438673075
 31
0.0
 12
2208.486632061834
 22
516.3299438673075
 32
0.0
 13
2208.486632061834
 23
516.3299438673075
 33
0.0
  0
MTEXT
  5
AE2F
330
9203
100
AcDbEntity
  8
寸法引出
 48
15.0
100
AcDbMText
 10
2220.986632061834
 20
546.3299438673074
 30
0.0
 40
30.0
 41
0.0
 71
     5
 72
     1
  1
\A1;5
  7
SANWA
 73
     1
 44
1.0
  0
POINT
  5
AE30
330
9203
100
AcDbEntity
  8
DEFPOINTS
 62
     0
 48
15.0
100
AcDbPoint
 10
2233.486632061834
 20
326.8739091623646
 30
0.0
  0
POINT
  5
AE31
330
9203
100
AcDbEntity
  8
DEFPOINTS
 62
     0
 48
15.0
100
AcDbPoint
 10
2208.486632061834
 20
451.8739091623646
 30
0.0
  0
POINT
  5
AE32
330
9203
100
AcDbEntity
  8
DEFPOINTS
 62
     0
 48
15.0
100
AcDbPoint
 10
2208.486632061834
 20
516.3299438673075
 30
0.0
  0
ENDBLK
  5
9210
330
9203
100
AcDbEntity
  8
0
 48
20.0
100
AcDbBlockEnd
  0
BLOCK
  5
924E
330
9242
100
AcDbEntity
  8
0
 48
20.0
100
AcDbBlockBegin
  2
*D13
 70
     1
 10
0.0
 20
0.0
 30
0.0
  3
*D13
  1

  0
LINE
  5
AE33
330
9242
100
AcDbEntity
  8
寸法引出
 48
15.0
370
    -2
100
AcDbLine
 10
2093.486632061834
 20
451.8739091623646
 30
0.0
 11
2060.498898564288
 21
451.8739091623646
 31
0.0
  0
LINE
  5
AE34
330
9242
100
AcDbEntity
  8
寸法引出
 48
15.0
370
    -2
100
AcDbLine
 10
2193.486632061834
 20
421.8739091623646
 30
0.0
 11
2060.498898564288
 21
421.8739091623647
 31
0.0
  0
LINE
  5
AE35
330
9242
100
AcDbEntity
  8
寸法引出
 48
15.0
370
    -2
100
AcDbLine
 10
2067.998898564288
 20
474.3739091623647
 30
0.0
 11
2067.998898564288
 21
496.8739091623646
 31
0.0
  0
LINE
  5
AE36
330
9242
100
AcDbEntity
  8
寸法引出
 48
15.0
370
    -2
100
AcDbLine
 10
2067.998898564288
 20
399.3739091623647
 30
0.0
 11
2067.998898564288
 21
376.8739091623647
 31
0.0
  0
MTEXT
  5
AE37
330
9242
100
AcDbEntity
  8
寸法引出
 48
15.0
100
AcDbMText
 10
2034.924780979257
 20
470.6177133631134
 30
0.0
 40
30.0
 41
0.0
 71
     5
 72
     1
  1
\A1;6
  7
SANWA
 11
0.0000000000000001
 21
1.0
 31
0.0
 73
     1
 44
1.0
  0
LINE
  5
AE38
330
9242
100
AcDbEntity
  8
寸法引出
 48
15.0
370
    -2
100
AcDbLine
 10
2067.998898564288
 20
451.8739091623646
 30
0.0
 11
2067.998898564288
 21
421.8739091623647
 31
0.0
  0
SOLID
  5
AE39
330
9242
100
AcDbEntity
  8
寸法引出
 48
15.0
100
AcDbTrace
 10
2064.248898564288
 20
474.3739091623647
 30
0.0
 11
2071.748898564288
 21
474.3739091623647
 31
0.0
 12
2067.998898564288
 22
451.8739091623646
 32
0.0
 13
2067.998898564288
 23
451.8739091623646
 33
0.0
  0
SOLID
  5
AE3A
330
9242
100
AcDbEntity
  8
寸法引出
 48
15.0
100
AcDbTrace
 10
2064.248898564288
 20
399.3739091623647
 30
0.0
 11
2071.748898564288
 21
399.3739091623647
 31
0.0
 12
2067.998898564288
 22
421.8739091623647
 32
0.0
 13
2067.998898564288
 23
421.8739091623647
 33
0.0
  0
POINT
  5
AE3B
330
9242
100
AcDbEntity
  8
DEFPOINTS
 62
     0
 48
15.0
100
AcDbPoint
 10
2108.486632061834
 20
451.8739091623646
 30
0.0
  0
POINT
  5
AE3C
330
9242
100
AcDbEntity
  8
DEFPOINTS
 62
     0
 48
15.0
100
AcDbPoint
 10
2208.486632061834
 20
421.8739091623646
 30
0.0
  0
POINT
  5
AE3D
330
9242
100
AcDbEntity
  8
DEFPOINTS
 62
     0
 48
15.0
100
AcDbPoint
 10
2067.998898564288
 20
421.8739091623647
 30
0.0
  0
ENDBLK
  5
924F
330
9242
100
AcDbEntity
  8
0
 48
20.0
100
AcDbBlockEnd
  0
BLOCK
  5
925D
330
9251
100
AcDbEntity
  8
0
 48
20.0
100
AcDbBlockBegin
  2
*D14
 70
     1
 10
0.0
 20
0.0
 30
0.0
  3
*D14
  1

  0
LINE
  5
AE1D
330
9251
100
AcDbEntity
  8
寸法引出
 48
15.0
370
    -2
100
AcDbLine
 10
2193.486632061834
 20
421.8739091623646
 30
0.0
 11
2060.498898564288
 21
421.8739091623647
 31
0.0
  0
LINE
  5
AE1E
330
9251
100
AcDbEntity
  8
寸法引出
 48
15.0
370
    -2
100
AcDbLine
 10
2168.486632061834
 20
346.8739091623647
 30
0.0
 11
2060.498898564288
 21
346.8739091623647
 31
0.0
  0
LINE
  5
AE1F
330
9251
100
AcDbEntity
  8
寸法引出
 48
15.0
370
    -2
100
AcDbLine
 10
2067.998898564288
 20
444.3739091623647
 30
0.0
 11
2067.998898564288
 21
466.8739091623647
 31
0.0
  0
LINE
  5
AE20
330
9251
100
AcDbEntity
  8
寸法引出
 48
15.0
370
    -2
100
AcDbLine
 10
2067.998898564288
 20
324.3739091623647
 30
0.0
 11
2067.998898564288
 21
301.8739091623647
 31
0.0
  0
LINE
  5
AE21
330
9251
100
AcDbEntity
  8
寸法引出
 48
15.0
370
    -2
100
AcDbLine
 10
2067.998898564288
 20
421.8739091623647
 30
0.0
 11
2067.998898564288
 21
346.8739091623647
 31
0.0
  0
SOLID
  5
AE22
330
9251
100
AcDbEntity
  8
寸法引出
 48
15.0
100
AcDbTrace
 10
2064.248898564288
 20
444.3739091623647
 30
0.0
 11
2071.748898564288
 21
444.3739091623647
 31
0.0
 12
2067.998898564288
 22
421.8739091623647
 32
0.0
 13
2067.998898564288
 23
421.8739091623647
 33
0.0
  0
SOLID
  5
AE23
330
9251
100
AcDbEntity
  8
寸法引出
 48
15.0
100
AcDbTrace
 10
2064.248898564288
 20
324.3739091623647
 30
0.0
 11
2071.748898564288
 21
324.3739091623647
 31
0.0
 12
2067.998898564288
 22
346.8739091623647
 32
0.0
 13
2067.998898564288
 23
346.8739091623647
 33
0.0
  0
MTEXT
  5
AE24
330
9251
100
AcDbEntity
  8
寸法引出
 48
15.0
100
AcDbMText
 10
2037.998898564288
 20
384.373909162365
 30
0.0
 40
30.0
 41
0.0
 71
     5
 72
     1
  1
\A1;15
  7
SANWA
 11
0.0000000000000001
 21
1.0
 31
0.0
 73
     1
 44
1.0
  0
POINT
  5
AE25
330
9251
100
AcDbEntity
  8
DEFPOINTS
 62
     0
 48
15.0
100
AcDbPoint
 10
2208.486632061834
 20
421.8739091623646
 30
0.0
  0
POINT
  5
AE26
330
9251
100
AcDbEntity
  8
DEFPOINTS
 62
     0
 48
15.0
100
AcDbPoint
 10
2183.486632061834
 20
346.8739091623646
 30
0.0
  0
POINT
  5
AE27
330
9251
100
AcDbEntity
  8
DEFPOINTS
 62
     0
 48
15.0
100
AcDbPoint
 10
2067.998898564288
 20
346.8739091623647
 30
0.0
  0
ENDBLK
  5
925E
330
9251
100
AcDbEntity
  8
0
 48
20.0
100
AcDbBlockEnd
  0
BLOCK
  5
926C
330
9260
100
AcDbEntity
  8
0
 48
20.0
100
AcDbBlockBegin
  2
*D15
 70
     1
 10
0.0
 20
0.0
 30
0.0
  3
*D15
  1

  0
LINE
  5
AE12
330
9260
100
AcDbEntity
  8
寸法引出
 48
15.0
370
    -2
100
AcDbLine
 10
2168.486632061834
 20
346.8739091623647
 30
0.0
 11
2060.498898564288
 21
346.8739091623647
 31
0.0
  0
LINE
  5
AE13
330
9260
100
AcDbEntity
  8
寸法引出
 48
15.0
370
    -2
100
AcDbLine
 10
2218.486632061834
 20
326.8739091623646
 30
0.0
 11
2060.498898564288
 21
326.8739091623647
 31
0.0
  0
LINE
  5
AE14
330
9260
100
AcDbEntity
  8
寸法引出
 48
15.0
370
    -2
100
AcDbLine
 10
2067.998898564288
 20
369.3739091623647
 30
0.0
 11
2067.998898564288
 21
391.8739091623647
 31
0.0
  0
LINE
  5
AE15
330
9260
100
AcDbEntity
  8
寸法引出
 48
15.0
370
    -2
100
AcDbLine
 10
2067.998898564288
 20
304.3739091623647
 30
0.0
 11
2067.998898564288
 21
281.8739091623647
 31
0.0
  0
MTEXT
  5
AE16
330
9260
100
AcDbEntity
  8
寸法引出
 48
15.0
100
AcDbMText
 10
2037.526880556331
 20
310.2468665806245
 30
0.0
 40
30.0
 41
0.0
 71
     5
 72
     1
  1
\A1;4
  7
SANWA
 11
0.0000000000000001
 21
1.0
 31
0.0
 73
     1
 44
1.0
  0
LINE
  5
AE17
330
9260
100
AcDbEntity
  8
寸法引出
 48
15.0
370
    -2
100
AcDbLine
 10
2067.998898564288
 20
346.8739091623647
 30
0.0
 11
2067.998898564288
 21
326.8739091623647
 31
0.0
  0
SOLID
  5
AE18
330
9260
100
AcDbEntity
  8
寸法引出
 48
15.0
100
AcDbTrace
 10
2064.248898564288
 20
369.3739091623647
 30
0.0
 11
2071.748898564288
 21
369.3739091623647
 31
0.0
 12
2067.998898564288
 22
346.8739091623647
 32
0.0
 13
2067.998898564288
 23
346.8739091623647
 33
0.0
  0
SOLID
  5
AE19
330
9260
100
AcDbEntity
  8
寸法引出
 48
15.0
100
AcDbTrace
 10
2064.248898564288
 20
304.3739091623647
 30
0.0
 11
2071.748898564288
 21
304.3739091623647
 31
0.0
 12
2067.998898564288
 22
326.8739091623647
 32
0.0
 13
2067.998898564288
 23
326.8739091623647
 33
0.0
  0
POINT
  5
AE1A
330
9260
100
AcDbEntity
  8
DEFPOINTS
 62
     0
 48
15.0
100
AcDbPoint
 10
2183.486632061834
 20
346.8739091623646
 30
0.0
  0
POINT
  5
AE1B
330
9260
100
AcDbEntity
  8
DEFPOINTS
 62
     0
 48
15.0
100
AcDbPoint
 10
2233.486632061834
 20
326.8739091623646
 30
0.0
  0
POINT
  5
AE1C
330
9260
100
AcDbEntity
  8
DEFPOINTS
 62
     0
 48
15.0
100
AcDbPoint
 10
2067.998898564288
 20
326.8739091623647
 30
0.0
  0
ENDBLK
  5
926D
330
9260
100
AcDbEntity
  8
0
 48
20.0
100
AcDbBlockEnd
  0
BLOCK
  5
929C
330
9290
100
AcDbEntity
  8
0
 48
20.0
100
AcDbBlockBegin
  2
*D16
 70
     1
 10
0.0
 20
0.0
 30
0.0
  3
*D16
  1

  0
LINE
  5
AE07
330
9290
100
AcDbEntity
  8
寸法引出
 48
15.0
370
    -2
100
AcDbLine
 10
2183.486632061834
 20
331.8739091623646
 30
0.0
 11
2183.486632061834
 21
249.7771056499749
 31
0.0
  0
LINE
  5
AE08
330
9290
100
AcDbEntity
  8
寸法引出
 48
15.0
370
    -2
100
AcDbLine
 10
2233.486632061834
 20
311.8739091623646
 30
0.0
 11
2233.486632061834
 21
249.7771056499749
 31
0.0
  0
LINE
  5
AE09
330
9290
100
AcDbEntity
  8
寸法引出
 48
15.0
370
    -2
100
AcDbLine
 10
2160.986632061834
 20
257.277105649975
 30
0.0
 11
2138.486632061834
 21
257.277105649975
 31
0.0
  0
LINE
  5
AE0A
330
9290
100
AcDbEntity
  8
寸法引出
 48
15.0
370
    -2
100
AcDbLine
 10
2255.986632061834
 20
257.277105649975
 30
0.0
 11
2278.486632061834
 21
257.277105649975
 31
0.0
  0
LINE
  5
AE0B
330
9290
100
AcDbEntity
  8
寸法引出
 48
15.0
370
    -2
100
AcDbLine
 10
2183.486632061834
 20
257.277105649975
 30
0.0
 11
2233.486632061834
 21
257.277105649975
 31
0.0
  0
SOLID
  5
AE0C
330
9290
100
AcDbEntity
  8
寸法引出
 48
15.0
100
AcDbTrace
 10
2160.986632061834
 20
261.027105649975
 30
0.0
 11
2160.986632061834
 21
253.527105649975
 31
0.0
 12
2183.486632061834
 22
257.277105649975
 32
0.0
 13
2183.486632061834
 23
257.277105649975
 33
0.0
  0
SOLID
  5
AE0D
330
9290
100
AcDbEntity
  8
寸法引出
 48
15.0
100
AcDbTrace
 10
2255.986632061834
 20
261.027105649975
 30
0.0
 11
2255.986632061834
 21
253.527105649975
 31
0.0
 12
2233.486632061834
 22
257.277105649975
 32
0.0
 13
2233.486632061834
 23
257.277105649975
 33
0.0
  0
MTEXT
  5
AE0E
330
9290
100
AcDbEntity
  8
寸法引出
 48
15.0
100
AcDbMText
 10
2208.486632061834
 20
287.2771056499749
 30
0.0
 40
30.0
 41
0.0
 71
     5
 72
     1
  1
\A1;10
  7
SANWA
 73
     1
 44
1.0
  0
POINT
  5
AE0F
330
9290
100
AcDbEntity
  8
DEFPOINTS
 62
     0
 48
15.0
100
AcDbPoint
 10
2183.486632061834
 20
346.8739091623646
 30
0.0
  0
POINT
  5
AE10
330
9290
100
AcDbEntity
  8
DEFPOINTS
 62
     0
 48
15.0
100
AcDbPoint
 10
2233.486632061834
 20
326.8739091623646
 30
0.0
  0
POINT
  5
AE11
330
9290
100
AcDbEntity
  8
DEFPOINTS
 62
     0
 48
15.0
100
AcDbPoint
 10
2233.486632061834
 20
257.277105649975
 30
0.0
  0
ENDBLK
  5
929D
330
9290
100
AcDbEntity
  8
0
 48
20.0
100
AcDbBlockEnd
  0
BLOCK
  5
9444
330
9438
100
AcDbEntity
  8
0
 48
20.0
100
AcDbBlockBegin
  2
*D17
 70
     1
 10
0.0
 20
0.0
 30
0.0
  3
*D17
  1

  0
LINE
  5
AF04
330
9438
100
AcDbEntity
  8
寸法引出
 48
15.0
370
    -2
100
AcDbLine
 10
1067.078219800758
 20
1670.442454180446
 30
0.0
 11
1067.078219800758
 21
1692.507932404496
 31
0.0
  0
LINE
  5
AF05
330
9438
100
AcDbEntity
  8
寸法引出
 48
15.0
370
    -2
100
AcDbLine
 10
1078.578219800759
 20
1670.442454180445
 30
0.0
 11
1078.578219800759
 21
1692.507932404496
 31
0.0
  0
LINE
  5
AF06
330
9438
100
AcDbEntity
  8
寸法引出
 48
15.0
370
    -2
100
AcDbLine
 10
1044.578219800758
 20
1685.007932404496
 30
0.0
 11
1022.078219800758
 21
1685.007932404496
 31
0.0
  0
LINE
  5
AF07
330
9438
100
AcDbEntity
  8
寸法引出
 48
15.0
370
    -2
100
AcDbLine
 10
1101.078219800759
 20
1685.007932404496
 30
0.0
 11
1123.578219800759
 21
1685.007932404496
 31
0.0
  0
MTEXT
  5
AF08
330
9438
100
AcDbEntity
  8
寸法引出
 48
15.0
100
AcDbMText
 10
1096.119028623847
 20
1712.096397734348
 30
0.0
 40
30.0
 41
0.0
 71
     5
 72
     1
  1
\A1;11.5
  7
SANWA
 73
     1
 44
1.0
  0
LINE
  5
AF09
330
9438
100
AcDbEntity
  8
寸法引出
 48
15.0
370
    -2
100
AcDbLine
 10
1067.078219800758
 20
1685.007932404496
 30
0.0
 11
1078.578219800759
 21
1685.007932404496
 31
0.0
  0
SOLID
  5
AF0A
330
9438
100
AcDbEntity
  8
寸法引出
 48
15.0
100
AcDbTrace
 10
1044.578219800758
 20
1688.757932404496
 30
0.0
 11
1044.578219800758
 21
1681.257932404496
 31
0.0
 12
1067.078219800758
 22
1685.007932404496
 32
0.0
 13
1067.078219800758
 23
1685.007932404496
 33
0.0
  0
SOLID
  5
AF0B
330
9438
100
AcDbEntity
  8
寸法引出
 48
15.0
100
AcDbTrace
 10
1101.078219800759
 20
1688.757932404496
 30
0.0
 11
1101.078219800759
 21
1681.257932404496
 31
0.0
 12
1078.578219800759
 22
1685.007932404496
 32
0.0
 13
1078.578219800759
 23
1685.007932404496
 33
0.0
  0
POINT
  5
AF0C
330
9438
100
AcDbEntity
  8
DEFPOINTS
 62
     0
 48
15.0
100
AcDbPoint
 10
1067.078219800758
 20
1655.442454180446
 30
0.0
  0
POINT
  5
AF0D
330
9438
100
AcDbEntity
  8
DEFPOINTS
 62
     0
 48
15.0
100
AcDbPoint
 10
1078.578219800759
 20
1655.442454180445
 30
0.0
  0
POINT
  5
AF0E
330
9438
100
AcDbEntity
  8
DEFPOINTS
 62
     0
 48
15.0
100
AcDbPoint
 10
1078.578219800759
 20
1685.007932404496
 30
0.0
  0
ENDBLK
  5
9445
330
9438
100
AcDbEntity
  8
0
 48
20.0
100
AcDbBlockEnd
  0
BLOCK
  5
9453
330
9447
100
AcDbEntity
  8
0
 48
20.0
100
AcDbBlockBegin
  2
*D18
 70
     1
 10
0.0
 20
0.0
 30
0.0
  3
*D18
  1

  0
LINE
  5
AEF9
330
9447
100
AcDbEntity
  8
寸法引出
 48
15.0
370
    -2
100
AcDbLine
 10
1082.078219800759
 20
1655.442454180445
 30
0.0
 11
1150.519333576008
 21
1655.442454180445
 31
0.0
  0
LINE
  5
AEFA
330
9447
100
AcDbEntity
  8
寸法引出
 48
15.0
370
    -2
100
AcDbLine
 10
1093.898219800758
 20
1647.442454180446
 30
0.0
 11
1150.519333576008
 21
1647.442454180446
 31
0.0
  0
LINE
  5
AEFB
330
9447
100
AcDbEntity
  8
寸法引出
 48
15.0
370
    -2
100
AcDbLine
 10
1143.019333576008
 20
1677.942454180445
 30
0.0
 11
1143.019333576008
 21
1700.442454180445
 31
0.0
  0
LINE
  5
AEFC
330
9447
100
AcDbEntity
  8
寸法引出
 48
15.0
370
    -2
100
AcDbLine
 10
1143.019333576008
 20
1624.942454180446
 30
0.0
 11
1143.019333576008
 21
1602.442454180446
 31
0.0
  0
MTEXT
  5
AEFD
330
9447
100
AcDbEntity
  8
寸法引出
 48
15.0
100
AcDbMText
 10
1115.538675222744
 20
1628.268583834282
 30
0.0
 40
30.0
 41
0.0
 71
     5
 72
     1
  1
\A1;8
  7
SANWA
 11
0.0000000000000001
 21
1.0
 31
0.0
 73
     1
 44
1.0
  0
LINE
  5
AEFE
330
9447
100
AcDbEntity
  8
寸法引出
 48
15.0
370
    -2
100
AcDbLine
 10
1143.019333576008
 20
1655.442454180445
 30
0.0
 11
1143.019333576008
 21
1647.442454180446
 31
0.0
  0
SOLID
  5
AEFF
330
9447
100
AcDbEntity
  8
寸法引出
 48
15.0
100
AcDbTrace
 10
1139.269333576008
 20
1677.942454180445
 30
0.0
 11
1146.769333576008
 21
1677.942454180445
 31
0.0
 12
1143.019333576008
 22
1655.442454180445
 32
0.0
 13
1143.019333576008
 23
1655.442454180445
 33
0.0
  0
SOLID
  5
AF00
330
9447
100
AcDbEntity
  8
寸法引出
 48
15.0
100
AcDbTrace
 10
1139.269333576008
 20
1624.942454180446
 30
0.0
 11
1146.769333576008
 21
1624.942454180446
 31
0.0
 12
1143.019333576008
 22
1647.442454180446
 32
0.0
 13
1143.019333576008
 23
1647.442454180446
 33
0.0
  0
POINT
  5
AF01
330
9447
100
AcDbEntity
  8
DEFPOINTS
 62
     0
 48
15.0
100
AcDbPoint
 10
1067.078219800759
 20
1655.442454180445
 30
0.0
  0
POINT
  5
AF02
330
9447
100
AcDbEntity
  8
DEFPOINTS
 62
     0
 48
15.0
100
AcDbPoint
 10
1078.898219800758
 20
1647.442454180446
 30
0.0
  0
POINT
  5
AF03
330
9447
100
AcDbEntity
  8
DEFPOINTS
 62
     0
 48
15.0
100
AcDbPoint
 10
1143.019333576008
 20
1647.442454180446
 30
0.0
  0
ENDBLK
  5
9454
330
9447
100
AcDbEntity
  8
0
 48
20.0
100
AcDbBlockEnd
  0
BLOCK
  5
A10A
330
A100
100
AcDbEntity
  8
0
 48
20.0
100
AcDbBlockBegin
  2
*D19
 70
     1
 10
0.0
 20
0.0
 30
0.0
  3
*D19
  1

  0
LINE
  5
AE78
330
A100
100
AcDbEntity
  8
寸法引出
 48
15.0
370
    -2
100
AcDbLine
 10
998.0782198007592
 20
1735.442454180445
 30
0.0
 11
914.9843092664884
 21
1735.442454180445
 31
0.0
  0
LINE
  5
AE79
330
A100
100
AcDbEntity
  8
寸法引出
 48
15.0
370
    -2
100
AcDbLine
 10
993.5782198007592
 20
1655.442454180445
 30
0.0
 11
914.9843092664884
 21
1655.442454180445
 31
0.0
  0
LINE
  5
AE7A
330
A100
100
AcDbEntity
  8
寸法引出
 48
15.0
370
    -2
100
AcDbLine
 10
922.4843092664883
 20
1712.942454180445
 30
0.0
 11
922.4843092664883
 21
1677.942454180445
 31
0.0
  0
SOLID
  5
AE7B
330
A100
100
AcDbEntity
  8
寸法引出
 48
15.0
100
AcDbTrace
 10
918.7343092664884
 20
1712.942454180445
 30
0.0
 11
926.2343092664883
 21
1712.942454180445
 31
0.0
 12
922.4843092664883
 22
1735.442454180445
 32
0.0
 13
922.4843092664883
 23
1735.442454180445
 33
0.0
  0
SOLID
  5
AE7C
330
A100
100
AcDbEntity
  8
寸法引出
 48
15.0
100
AcDbTrace
 10
918.7343092664884
 20
1677.942454180445
 30
0.0
 11
926.2343092664883
 21
1677.942454180445
 31
0.0
 12
922.4843092664883
 22
1655.442454180445
 32
0.0
 13
922.4843092664883
 23
1655.442454180445
 33
0.0
  0
MTEXT
  5
AE7D
330
A100
100
AcDbEntity
  8
寸法引出
 48
15.0
100
AcDbMText
 10
892.4843092664881
 20
1695.442454180445
 30
0.0
 40
30.0
 41
0.0
 71
     5
 72
     1
  1
\A1;80
  7
SANWA
 11
0.0000000000000001
 21
1.0
 31
0.0
 73
     1
 44
1.0
  0
POINT
  5
AE7E
330
A100
100
AcDbEntity
  8
DEFPOINTS
 62
     0
 48
15.0
100
AcDbPoint
 10
1013.078219800759
 20
1735.442454180445
 30
0.0
  0
POINT
  5
AE7F
330
A100
100
AcDbEntity
  8
DEFPOINTS
 62
     0
 48
15.0
100
AcDbPoint
 10
1008.578219800759
 20
1655.442454180445
 30
0.0
  0
POINT
  5
AE80
330
A100
100
AcDbEntity
  8
DEFPOINTS
 62
     0
 48
15.0
100
AcDbPoint
 10
922.4843092664883
 20
1655.442454180445
 30
0.0
  0
ENDBLK
  5
A10B
330
A100
100
AcDbEntity
  8
0
 48
20.0
100
AcDbBlockEnd
  0
BLOCK
  5
A117
330
A10D
100
AcDbEntity
  8
0
 48
20.0
100
AcDbBlockBegin
  2
*D20
 70
     1
 10
0.0
 20
0.0
 30
0.0
  3
*D20
  1

  0
LINE
  5
AE8C
330
A10D
100
AcDbEntity
  8
寸法引出
 48
15.0
370
    -2
100
AcDbLine
 10
993.5782198007592
 20
1655.442454180445
 30
0.0
 11
914.9843092664884
 21
1655.442454180445
 31
0.0
  0
LINE
  5
AE8D
330
A10D
100
AcDbEntity
  8
寸法引出
 48
15.0
370
    -2
100
AcDbLine
 10
1025.57821980076
 20
1355.442454180445
 30
0.0
 11
914.9843092664884
 21
1355.442454180445
 31
0.0
  0
LINE
  5
AE8E
330
A10D
100
AcDbEntity
  8
寸法引出
 48
15.0
370
    -2
100
AcDbLine
 10
922.4843092664883
 20
1632.942454180445
 30
0.0
 11
922.4843092664883
 21
1377.942454180445
 31
0.0
  0
SOLID
  5
AE8F
330
A10D
100
AcDbEntity
  8
寸法引出
 48
15.0
100
AcDbTrace
 10
918.7343092664884
 20
1632.942454180445
 30
0.0
 11
926.2343092664883
 21
1632.942454180445
 31
0.0
 12
922.4843092664883
 22
1655.442454180445
 32
0.0
 13
922.4843092664883
 23
1655.442454180445
 33
0.0
  0
SOLID
  5
AE90
330
A10D
100
AcDbEntity
  8
寸法引出
 48
15.0
100
AcDbTrace
 10
918.7343092664884
 20
1377.942454180445
 30
0.0
 11
926.2343092664883
 21
1377.942454180445
 31
0.0
 12
922.4843092664883
 22
1355.442454180445
 32
0.0
 13
922.4843092664883
 23
1355.442454180445
 33
0.0
  0
MTEXT
  5
AE91
330
A10D
100
AcDbEntity
  8
寸法引出
 48
15.0
100
AcDbMText
 10
892.4843092664881
 20
1505.442454180445
 30
0.0
 40
30.0
 41
0.0
 71
     5
 72
     1
  1
\A1;300
  7
SANWA
 11
0.0000000000000001
 21
1.0
 31
0.0
 73
     1
 44
1.0
  0
POINT
  5
AE92
330
A10D
100
AcDbEntity
  8
DEFPOINTS
 62
     0
 48
15.0
100
AcDbPoint
 10
1008.578219800759
 20
1655.442454180445
 30
0.0
  0
POINT
  5
AE93
330
A10D
100
AcDbEntity
  8
DEFPOINTS
 62
     0
 48
15.0
100
AcDbPoint
 10
1040.57821980076
 20
1355.442454180445
 30
0.0
  0
POINT
  5
AE94
330
A10D
100
AcDbEntity
  8
DEFPOINTS
 62
     0
 48
15.0
100
AcDbPoint
 10
922.4843092664883
 20
1355.442454180445
 30
0.0
  0
ENDBLK
  5
A118
330
A10D
100
AcDbEntity
  8
0
 48
20.0
100
AcDbBlockEnd
  0
BLOCK
  5
A126
330
A11A
100
AcDbEntity
  8
0
 48
20.0
100
AcDbBlockBegin
  2
*D21
 70
     1
 10
0.0
 20
0.0
 30
0.0
  3
*D21
  1

  0
LINE
  5
AE81
330
A11A
100
AcDbEntity
  8
寸法引出
 48
15.0
370
    -2
100
AcDbLine
 10
1025.57821980076
 20
1355.442454180445
 30
0.0
 11
914.9843092664884
 21
1355.442454180445
 31
0.0
  0
LINE
  5
AE82
330
A11A
100
AcDbEntity
  8
寸法引出
 48
15.0
370
    -2
100
AcDbLine
 10
1031.444886467427
 20
1300.442454180445
 30
0.0
 11
914.9843092664884
 21
1300.442454180445
 31
0.0
  0
LINE
  5
AE83
330
A11A
100
AcDbEntity
  8
寸法引出
 48
15.0
370
    -2
100
AcDbLine
 10
922.4843092664883
 20
1377.942454180445
 30
0.0
 11
922.4843092664883
 21
1400.442454180445
 31
0.0
  0
LINE
  5
AE84
330
A11A
100
AcDbEntity
  8
寸法引出
 48
15.0
370
    -2
100
AcDbLine
 10
922.4843092664881
 20
1277.942454180445
 30
0.0
 11
922.4843092664881
 21
1255.442454180445
 31
0.0
  0
LINE
  5
AE85
330
A11A
100
AcDbEntity
  8
寸法引出
 48
15.0
370
    -2
100
AcDbLine
 10
922.4843092664883
 20
1355.442454180445
 30
0.0
 11
922.4843092664883
 21
1300.442454180445
 31
0.0
  0
SOLID
  5
AE86
330
A11A
100
AcDbEntity
  8
寸法引出
 48
15.0
100
AcDbTrace
 10
918.7343092664884
 20
1377.942454180445
 30
0.0
 11
926.2343092664883
 21
1377.942454180445
 31
0.0
 12
922.4843092664883
 22
1355.442454180445
 32
0.0
 13
922.4843092664883
 23
1355.442454180445
 33
0.0
  0
SOLID
  5
AE87
330
A11A
100
AcDbEntity
  8
寸法引出
 48
15.0
100
AcDbTrace
 10
918.7343092664882
 20
1277.942454180445
 30
0.0
 11
926.2343092664883
 21
1277.942454180445
 31
0.0
 12
922.4843092664883
 22
1300.442454180445
 32
0.0
 13
922.4843092664883
 23
1300.442454180445
 33
0.0
  0
MTEXT
  5
AE88
330
A11A
100
AcDbEntity
  8
寸法引出
 48
15.0
100
AcDbMText
 10
892.4843092664881
 20
1327.942454180445
 30
0.0
 40
30.0
 41
0.0
 71
     5
 72
     1
  1
\A1;55
  7
SANWA
 11
0.0000000000000001
 21
1.0
 31
0.0
 73
     1
 44
1.0
  0
POINT
  5
AE89
330
A11A
100
AcDbEntity
  8
DEFPOINTS
 62
     0
 48
15.0
100
AcDbPoint
 10
1040.57821980076
 20
1355.442454180445
 30
0.0
  0
POINT
  5
AE8A
330
A11A
100
AcDbEntity
  8
DEFPOINTS
 62
     0
 48
15.0
100
AcDbPoint
 10
1046.444886467427
 20
1300.442454180445
 30
0.0
  0
POINT
  5
AE8B
330
A11A
100
AcDbEntity
  8
DEFPOINTS
 62
     0
 48
15.0
100
AcDbPoint
 10
922.4843092664883
 20
1300.442454180445
 30
0.0
  0
ENDBLK
  5
A127
330
A11A
100
AcDbEntity
  8
0
 48
20.0
100
AcDbBlockEnd
  0
BLOCK
  5
A133
330
A129
100
AcDbEntity
  8
0
 48
20.0
100
AcDbBlockBegin
  2
*D22
 70
     1
 10
0.0
 20
0.0
 30
0.0
  3
*D22
  1

  0
LINE
  5
AE95
330
A129
100
AcDbEntity
  8
寸法引出
 48
15.0
370
    -2
100
AcDbLine
 10
998.0782198007592
 20
1735.442454180445
 30
0.0
 11
833.8646836455321
 21
1735.442454180445
 31
0.0
  0
LINE
  5
AE96
330
A129
100
AcDbEntity
  8
寸法引出
 48
15.0
370
    -2
100
AcDbLine
 10
1031.444886467427
 20
1300.442454180445
 30
0.0
 11
833.8646836455321
 21
1300.442454180445
 31
0.0
  0
LINE
  5
AE97
330
A129
100
AcDbEntity
  8
寸法引出
 48
15.0
370
    -2
100
AcDbLine
 10
841.3646836455322
 20
1712.942454180445
 30
0.0
 11
841.3646836455322
 21
1322.942454180445
 31
0.0
  0
SOLID
  5
AE98
330
A129
100
AcDbEntity
  8
寸法引出
 48
15.0
100
AcDbTrace
 10
837.6146836455321
 20
1712.942454180445
 30
0.0
 11
845.1146836455322
 21
1712.942454180445
 31
0.0
 12
841.3646836455322
 22
1735.442454180445
 32
0.0
 13
841.3646836455322
 23
1735.442454180445
 33
0.0
  0
SOLID
  5
AE99
330
A129
100
AcDbEntity
  8
寸法引出
 48
15.0
100
AcDbTrace
 10
837.6146836455321
 20
1322.942454180445
 30
0.0
 11
845.1146836455322
 21
1322.942454180445
 31
0.0
 12
841.3646836455322
 22
1300.442454180445
 32
0.0
 13
841.3646836455322
 23
1300.442454180445
 33
0.0
  0
MTEXT
  5
AE9A
330
A129
100
AcDbEntity
  8
寸法引出
 48
15.0
100
AcDbMText
 10
811.364683645532
 20
1517.942454180445
 30
0.0
 40
30.0
 41
0.0
 71
     5
 72
     1
  1
\A1;435
  7
SANWA
 11
0.0000000000000001
 21
1.0
 31
0.0
 73
     1
 44
1.0
  0
POINT
  5
AE9B
330
A129
100
AcDbEntity
  8
DEFPOINTS
 62
     0
 48
15.0
100
AcDbPoint
 10
1013.078219800759
 20
1735.442454180445
 30
0.0
  0
POINT
  5
AE9C
330
A129
100
AcDbEntity
  8
DEFPOINTS
 62
     0
 48
15.0
100
AcDbPoint
 10
1046.444886467427
 20
1300.442454180445
 30
0.0
  0
POINT
  5
AE9D
330
A129
100
AcDbEntity
  8
DEFPOINTS
 62
     0
 48
15.0
100
AcDbPoint
 10
841.3646836455322
 20
1300.442454180445
 30
0.0
  0
ENDBLK
  5
A134
330
A129
100
AcDbEntity
  8
0
 48
20.0
100
AcDbBlockEnd
  0
BLOCK
  5
A583
330
A579
100
AcDbEntity
  8
0
 48
20.0
100
AcDbBlockBegin
  2
*D23
 70
     1
 10
0.0
 20
0.0
 30
0.0
  3
*D23
  1

  0
LINE
  5
AD55
330
A579
100
AcDbEntity
  8
寸法引出
 48
15.0
370
    -2
100
AcDbLine
 10
1008.57821980076
 20
1330.948277296352
 30
0.0
 11
1008.57821980076
 21
1439.014265297749
 31
0.0
  0
LINE
  5
AD56
330
A579
100
AcDbEntity
  8
寸法引出
 48
15.0
370
    -2
100
AcDbLine
 10
1398.57821980076
 20
1330.948277296351
 30
0.0
 11
1398.57821980076
 21
1439.014265297749
 31
0.0
  0
LINE
  5
AD57
330
A579
100
AcDbEntity
  8
寸法引出
 48
15.0
370
    -2
100
AcDbLine
 10
1031.07821980076
 20
1431.514265297749
 30
0.0
 11
1376.07821980076
 21
1431.514265297749
 31
0.0
  0
SOLID
  5
AD58
330
A579
100
AcDbEntity
  8
寸法引出
 48
15.0
100
AcDbTrace
 10
1031.07821980076
 20
1435.264265297749
 30
0.0
 11
1031.07821980076
 21
1427.764265297749
 31
0.0
 12
1008.57821980076
 22
1431.514265297749
 32
0.0
 13
1008.57821980076
 23
1431.514265297749
 33
0.0
  0
SOLID
  5
AD59
330
A579
100
AcDbEntity
  8
寸法引出
 48
15.0
100
AcDbTrace
 10
1376.07821980076
 20
1435.264265297749
 30
0.0
 11
1376.07821980076
 21
1427.764265297749
 31
0.0
 12
1398.57821980076
 22
1431.514265297749
 32
0.0
 13
1398.57821980076
 23
1431.514265297749
 33
0.0
  0
MTEXT
  5
AD5A
330
A579
100
AcDbEntity
  8
寸法引出
 48
15.0
100
AcDbMText
 10
1203.57821980076
 20
1461.514265297749
 30
0.0
 40
30.0
 41
0.0
 71
     5
 72
     1
  1
\A1;390
  7
SANWA
 73
     1
 44
1.0
  0
POINT
  5
AD5B
330
A579
100
AcDbEntity
  8
DEFPOINTS
 62
     0
 48
15.0
100
AcDbPoint
 10
1008.57821980076
 20
1315.948277296351
 30
0.0
  0
POINT
  5
AD5C
330
A579
100
AcDbEntity
  8
DEFPOINTS
 62
     0
 48
15.0
100
AcDbPoint
 10
1398.57821980076
 20
1315.948277296351
 30
0.0
  0
POINT
  5
AD5D
330
A579
100
AcDbEntity
  8
DEFPOINTS
 62
     0
 48
15.0
100
AcDbPoint
 10
1398.57821980076
 20
1431.514265297749
 30
0.0
  0
ENDBLK
  5
A584
330
A579
100
AcDbEntity
  8
0
 48
20.0
100
AcDbBlockEnd
  0
BLOCK
  5
A5C3
330
A5B9
100
AcDbEntity
  8
0
 48
20.0
100
AcDbBlockBegin
  2
*D24
 70
     1
 10
0.0
 20
0.0
 30
0.0
  3
*D24
  1

  0
LINE
  5
AD43
330
A5B9
100
AcDbEntity
  8
寸法引出
 48
15.0
370
    -2
100
AcDbLine
 10
1872.493333821983
 20
1335.448277296352
 30
0.0
 11
1872.493333821983
 21
1439.01426529775
 31
0.0
  0
LINE
  5
AD44
330
A5B9
100
AcDbEntity
  8
寸法引出
 48
15.0
370
    -2
100
AcDbLine
 10
3870.493333821984
 20
1335.448277296352
 30
0.0
 11
3870.493333821984
 21
1439.01426529775
 31
0.0
  0
LINE
  5
AD45
330
A5B9
100
AcDbEntity
  8
寸法引出
 48
15.0
370
    -2
100
AcDbLine
 10
1894.993333821983
 20
1431.514265297749
 30
0.0
 11
3847.993333821984
 21
1431.514265297749
 31
0.0
  0
SOLID
  5
AD46
330
A5B9
100
AcDbEntity
  8
寸法引出
 48
15.0
100
AcDbTrace
 10
1894.993333821983
 20
1435.26426529775
 30
0.0
 11
1894.993333821983
 21
1427.764265297749
 31
0.0
 12
1872.493333821983
 22
1431.514265297749
 32
0.0
 13
1872.493333821983
 23
1431.514265297749
 33
0.0
  0
SOLID
  5
AD47
330
A5B9
100
AcDbEntity
  8
寸法引出
 48
15.0
100
AcDbTrace
 10
3847.993333821984
 20
1435.26426529775
 30
0.0
 11
3847.993333821984
 21
1427.764265297749
 31
0.0
 12
3870.493333821984
 22
1431.514265297749
 32
0.0
 13
3870.493333821984
 23
1431.514265297749
 33
0.0
  0
MTEXT
  5
AD48
330
A5B9
100
AcDbEntity
  8
寸法引出
 48
15.0
100
AcDbMText
 10
2871.493333821983
 20
1461.51426529775
 30
0.0
 40
30.0
 41
0.0
 71
     5
 72
     1
  1
\A1;1998
  7
SANWA
 73
     1
 44
1.0
  0
POINT
  5
AD49
330
A5B9
100
AcDbEntity
  8
DEFPOINTS
 62
     0
 48
15.0
100
AcDbPoint
 10
1872.493333821983
 20
1320.448277296353
 30
0.0
  0
POINT
  5
AD4A
330
A5B9
100
AcDbEntity
  8
DEFPOINTS
 62
     0
 48
15.0
100
AcDbPoint
 10
3870.493333821984
 20
1320.448277296353
 30
0.0
  0
POINT
  5
AD4B
330
A5B9
100
AcDbEntity
  8
DEFPOINTS
 62
     0
 48
15.0
100
AcDbPoint
 10
3870.493333821984
 20
1431.514265297749
 30
0.0
  0
ENDBLK
  5
A5C4
330
A5B9
100
AcDbEntity
  8
0
 48
20.0
100
AcDbBlockEnd
  0
BLOCK
  5
A5CF
330
A5C5
100
AcDbEntity
  8
0
 48
20.0
100
AcDbBlockBegin
  2
*D25
 70
     1
 10
0.0
 20
0.0
 30
0.0
  3
*D25
  1

  0
LINE
  5
AD67
330
A5C5
100
AcDbEntity
  8
寸法引出
 48
15.0
370
    -2
100
AcDbLine
 10
1857.493333821983
 20
1320.448277296353
 30
0.0
 11
1751.107486693144
 21
1320.448277296353
 31
0.0
  0
LINE
  5
AD68
330
A5C5
100
AcDbEntity
  8
寸法引出
 48
15.0
370
    -2
100
AcDbLine
 10
1857.493333821983
 20
885.4482772963526
 30
0.0
 11
1751.107486693144
 21
885.4482772963528
 31
0.0
  0
LINE
  5
AD69
330
A5C5
100
AcDbEntity
  8
寸法引出
 48
15.0
370
    -2
100
AcDbLine
 10
1758.607486693144
 20
1297.948277296352
 30
0.0
 11
1758.607486693144
 21
907.9482772963528
 31
0.0
  0
SOLID
  5
AD6A
330
A5C5
100
AcDbEntity
  8
寸法引出
 48
15.0
100
AcDbTrace
 10
1754.857486693143
 20
1297.948277296352
 30
0.0
 11
1762.357486693144
 21
1297.948277296352
 31
0.0
 12
1758.607486693144
 22
1320.448277296353
 32
0.0
 13
1758.607486693144
 23
1320.448277296353
 33
0.0
  0
SOLID
  5
AD6B
330
A5C5
100
AcDbEntity
  8
寸法引出
 48
15.0
100
AcDbTrace
 10
1754.857486693143
 20
907.9482772963528
 30
0.0
 11
1762.357486693144
 21
907.9482772963528
 31
0.0
 12
1758.607486693144
 22
885.4482772963528
 32
0.0
 13
1758.607486693144
 23
885.4482772963528
 33
0.0
  0
MTEXT
  5
AD6C
330
A5C5
100
AcDbEntity
  8
寸法引出
 48
15.0
100
AcDbMText
 10
1728.607486693143
 20
1102.948277296353
 30
0.0
 40
30.0
 41
0.0
 71
     5
 72
     1
  1
\A1;435
  7
SANWA
 11
0.0000000000000001
 21
1.0
 31
0.0
 73
     1
 44
1.0
  0
POINT
  5
AD6D
330
A5C5
100
AcDbEntity
  8
DEFPOINTS
 62
     0
 48
15.0
100
AcDbPoint
 10
1872.493333821983
 20
1320.448277296353
 30
0.0
  0
POINT
  5
AD6E
330
A5C5
100
AcDbEntity
  8
DEFPOINTS
 62
     0
 48
15.0
100
AcDbPoint
 10
1872.493333821983
 20
885.4482772963526
 30
0.0
  0
POINT
  5
AD6F
330
A5C5
100
AcDbEntity
  8
DEFPOINTS
 62
     0
 48
15.0
100
AcDbPoint
 10
1758.607486693144
 20
885.4482772963528
 30
0.0
  0
ENDBLK
  5
A5D0
330
A5C5
100
AcDbEntity
  8
0
 48
20.0
100
AcDbBlockEnd
  0
BLOCK
  5
A7E5
330
A7DB
100
AcDbEntity
  8
0
 48
15.0
100
AcDbBlockBegin
  2
*D26
 70
     1
 10
0.0
 20
0.0
 30
0.0
  3
*D26
  1

  0
LINE
  5
A88D
330
A7DB
100
AcDbEntity
  8
寸法引出
 48
15.0
370
    -2
100
AcDbLine
 10
1588.015739360597
 20
3840.125209908648
 30
0.0
 11
1519.40121397596
 21
3840.125209908648
 31
0.0
  0
LINE
  5
A88E
330
A7DB
100
AcDbEntity
  8
寸法引出
 48
15.0
370
    -2
100
AcDbLine
 10
1583.515739360596
 20
3760.125209908649
 30
0.0
 11
1519.40121397596
 21
3760.125209908649
 31
0.0
  0
LINE
  5
A88F
330
A7DB
100
AcDbEntity
  8
寸法引出
 48
15.0
370
    -2
100
AcDbLine
 10
1526.901213975961
 20
3817.625209908649
 30
0.0
 11
1526.901213975961
 21
3782.625209908649
 31
0.0
  0
SOLID
  5
A890
330
A7DB
100
AcDbEntity
  8
寸法引出
 48
15.0
100
AcDbTrace
 10
1523.15121397596
 20
3817.625209908649
 30
0.0
 11
1530.651213975961
 21
3817.625209908649
 31
0.0
 12
1526.901213975961
 22
3840.125209908648
 32
0.0
 13
1526.901213975961
 23
3840.125209908648
 33
0.0
  0
SOLID
  5
A891
330
A7DB
100
AcDbEntity
  8
寸法引出
 48
15.0
100
AcDbTrace
 10
1523.15121397596
 20
3782.625209908649
 30
0.0
 11
1530.651213975961
 21
3782.625209908649
 31
0.0
 12
1526.901213975961
 22
3760.125209908649
 32
0.0
 13
1526.901213975961
 23
3760.125209908649
 33
0.0
  0
MTEXT
  5
A892
330
A7DB
100
AcDbEntity
  8
寸法引出
 48
15.0
100
AcDbMText
 10
1496.90121397596
 20
3800.125209908649
 30
0.0
 40
30.0
 41
0.0
 71
     5
 72
     1
  1
\A1;80
  7
SANWA
 11
0.0000000000000001
 21
1.0
 31
0.0
 73
     1
 44
1.0
  0
POINT
  5
A893
330
A7DB
100
AcDbEntity
  8
DEFPOINTS
 62
     0
 48
15.0
100
AcDbPoint
 10
1603.015739360596
 20
3840.125209908648
 30
0.0
  0
POINT
  5
A894
330
A7DB
100
AcDbEntity
  8
DEFPOINTS
 62
     0
 48
15.0
100
AcDbPoint
 10
1598.515739360595
 20
3760.125209908649
 30
0.0
  0
POINT
  5
A895
330
A7DB
100
AcDbEntity
  8
DEFPOINTS
 62
     0
 48
15.0
100
AcDbPoint
 10
1526.901213975961
 20
3760.125209908649
 30
0.0
  0
ENDBLK
  5
A7E6
330
A7DB
100
AcDbEntity
  8
0
 48
15.0
100
AcDbBlockEnd
  0
BLOCK
  5
A7F1
330
A7E7
100
AcDbEntity
  8
0
 48
15.0
100
AcDbBlockBegin
  2
*D27
 70
     1
 10
0.0
 20
0.0
 30
0.0
  3
*D27
  1

  0
LINE
  5
A896
330
A7E7
100
AcDbEntity
  8
寸法引出
 48
15.0
370
    -2
100
AcDbLine
 10
1583.515739360596
 20
3760.125209908649
 30
0.0
 11
1519.40121397596
 21
3760.125209908649
 31
0.0
  0
LINE
  5
A897
330
A7E7
100
AcDbEntity
  8
寸法引出
 48
15.0
370
    -2
100
AcDbLine
 10
1613.515739360597
 20
3510.125209908649
 30
0.0
 11
1519.40121397596
 21
3510.125209908649
 31
0.0
  0
LINE
  5
A898
330
A7E7
100
AcDbEntity
  8
寸法引出
 48
15.0
370
    -2
100
AcDbLine
 10
1526.901213975961
 20
3737.625209908648
 30
0.0
 11
1526.901213975961
 21
3532.625209908649
 31
0.0
  0
SOLID
  5
A899
330
A7E7
100
AcDbEntity
  8
寸法引出
 48
15.0
100
AcDbTrace
 10
1523.15121397596
 20
3737.625209908648
 30
0.0
 11
1530.651213975962
 21
3737.625209908648
 31
0.0
 12
1526.901213975961
 22
3760.125209908649
 32
0.0
 13
1526.901213975961
 23
3760.125209908649
 33
0.0
  0
SOLID
  5
A89A
330
A7E7
100
AcDbEntity
  8
寸法引出
 48
15.0
100
AcDbTrace
 10
1523.15121397596
 20
3532.625209908649
 30
0.0
 11
1530.651213975961
 21
3532.625209908649
 31
0.0
 12
1526.901213975961
 22
3510.125209908649
 32
0.0
 13
1526.901213975961
 23
3510.125209908649
 33
0.0
  0
MTEXT
  5
A89B
330
A7E7
100
AcDbEntity
  8
寸法引出
 48
15.0
100
AcDbMText
 10
1496.90121397596
 20
3635.125209908649
 30
0.0
 40
30.0
 41
0.0
 71
     5
 72
     1
  1
\A1;250
  7
SANWA
 11
0.0000000000000001
 21
1.0
 31
0.0
 73
     1
 44
1.0
  0
POINT
  5
A89C
330
A7E7
100
AcDbEntity
  8
DEFPOINTS
 62
     0
 48
15.0
100
AcDbPoint
 10
1598.515739360595
 20
3760.125209908649
 30
0.0
  0
POINT
  5
A89D
330
A7E7
100
AcDbEntity
  8
DEFPOINTS
 62
     0
 48
15.0
100
AcDbPoint
 10
1628.515739360596
 20
3510.125209908649
 30
0.0
  0
POINT
  5
A89E
330
A7E7
100
AcDbEntity
  8
DEFPOINTS
 62
     0
 48
15.0
100
AcDbPoint
 10
1526.901213975961
 20
3510.125209908649
 30
0.0
  0
ENDBLK
  5
A7F2
330
A7E7
100
AcDbEntity
  8
0
 48
15.0
100
AcDbBlockEnd
  0
BLOCK
  5
A7FF
330
A7F3
100
AcDbEntity
  8
0
 48
15.0
100
AcDbBlockBegin
  2
*D28
 70
     1
 10
0.0
 20
0.0
 30
0.0
  3
*D28
  1

  0
LINE
  5
A89F
330
A7F3
100
AcDbEntity
  8
寸法引出
 48
15.0
370
    -2
100
AcDbLine
 10
1613.515739360597
 20
3510.125209908649
 30
0.0
 11
1519.40121397596
 21
3510.125209908649
 31
0.0
  0
LINE
  5
A8A0
330
A7F3
100
AcDbEntity
  8
寸法引出
 48
15.0
370
    -2
100
AcDbLine
 10
1640.115739360597
 20
3455.125209908649
 30
0.0
 11
1519.40121397596
 21
3455.125209908649
 31
0.0
  0
LINE
  5
A8A1
330
A7F3
100
AcDbEntity
  8
寸法引出
 48
15.0
370
    -2
100
AcDbLine
 10
1526.901213975961
 20
3532.625209908649
 30
0.0
 11
1526.901213975961
 21
3555.125209908648
 31
0.0
  0
LINE
  5
A8A2
330
A7F3
100
AcDbEntity
  8
寸法引出
 48
15.0
370
    -2
100
AcDbLine
 10
1526.901213975961
 20
3432.625209908648
 30
0.0
 11
1526.901213975961
 21
3410.125209908648
 31
0.0
  0
LINE
  5
A8A3
330
A7F3
100
AcDbEntity
  8
寸法引出
 48
15.0
370
    -2
100
AcDbLine
 10
1526.901213975961
 20
3510.125209908649
 30
0.0
 11
1526.901213975961
 21
3455.125209908649
 31
0.0
  0
SOLID
  5
A8A4
330
A7F3
100
AcDbEntity
  8
寸法引出
 48
15.0
100
AcDbTrace
 10
1523.15121397596
 20
3532.625209908649
 30
0.0
 11
1530.651213975961
 21
3532.625209908649
 31
0.0
 12
1526.901213975961
 22
3510.125209908649
 32
0.0
 13
1526.901213975961
 23
3510.125209908649
 33
0.0
  0
SOLID
  5
A8A5
330
A7F3
100
AcDbEntity
  8
寸法引出
 48
15.0
100
AcDbTrace
 10
1523.15121397596
 20
3432.625209908648
 30
0.0
 11
1530.651213975961
 21
3432.625209908648
 31
0.0
 12
1526.901213975961
 22
3455.125209908649
 32
0.0
 13
1526.901213975961
 23
3455.125209908649
 33
0.0
  0
MTEXT
  5
A8A6
330
A7F3
100
AcDbEntity
  8
寸法引出
 48
15.0
100
AcDbMText
 10
1496.90121397596
 20
3482.625209908649
 30
0.0
 40
30.0
 41
0.0
 71
     5
 72
     1
  1
\A1;55
  7
SANWA
 11
0.0000000000000001
 21
1.0
 31
0.0
 73
     1
 44
1.0
  0
POINT
  5
A8A7
330
A7F3
100
AcDbEntity
  8
DEFPOINTS
 62
     0
 48
15.0
100
AcDbPoint
 10
1628.515739360596
 20
3510.125209908649
 30
0.0
  0
POINT
  5
A8A8
330
A7F3
100
AcDbEntity
  8
DEFPOINTS
 62
     0
 48
15.0
100
AcDbPoint
 10
1655.115739360597
 20
3455.125209908649
 30
0.0
  0
POINT
  5
A8A9
330
A7F3
100
AcDbEntity
  8
DEFPOINTS
 62
     0
 48
15.0
100
AcDbPoint
 10
1526.901213975961
 20
3455.125209908649
 30
0.0
  0
ENDBLK
  5
A800
330
A7F3
100
AcDbEntity
  8
0
 48
15.0
100
AcDbBlockEnd
  0
BLOCK
  5
A80B
330
A801
100
AcDbEntity
  8
0
 48
15.0
100
AcDbBlockBegin
  2
*D29
 70
     1
 10
0.0
 20
0.0
 30
0.0
  3
*D29
  1

  0
LINE
  5
A8AA
330
A801
100
AcDbEntity
  8
寸法引出
 48
15.0
370
    -2
100
AcDbLine
 10
1588.015739360597
 20
3840.125209908648
 30
0.0
 11
1457.014921688338
 21
3840.125209908648
 31
0.0
  0
LINE
  5
A8AB
330
A801
100
AcDbEntity
  8
寸法引出
 48
15.0
370
    -2
100
AcDbLine
 10
1640.115739360597
 20
3455.125209908649
 30
0.0
 11
1457.014921688338
 21
3455.125209908649
 31
0.0
  0
LINE
  5
A8AC
330
A801
100
AcDbEntity
  8
寸法引出
 48
15.0
370
    -2
100
AcDbLine
 10
1464.514921688338
 20
3817.625209908649
 30
0.0
 11
1464.514921688338
 21
3477.625209908648
 31
0.0
  0
SOLID
  5
A8AD
330
A801
100
AcDbEntity
  8
寸法引出
 48
15.0
100
AcDbTrace
 10
1460.764921688338
 20
3817.625209908649
 30
0.0
 11
1468.264921688338
 21
3817.625209908649
 31
0.0
 12
1464.514921688338
 22
3840.125209908648
 32
0.0
 13
1464.514921688338
 23
3840.125209908648
 33
0.0
  0
SOLID
  5
A8AE
330
A801
100
AcDbEntity
  8
寸法引出
 48
15.0
100
AcDbTrace
 10
1460.764921688338
 20
3477.625209908648
 30
0.0
 11
1468.264921688338
 21
3477.625209908648
 31
0.0
 12
1464.514921688338
 22
3455.125209908649
 32
0.0
 13
1464.514921688338
 23
3455.125209908649
 33
0.0
  0
MTEXT
  5
A8AF
330
A801
100
AcDbEntity
  8
寸法引出
 48
15.0
100
AcDbMText
 10
1434.514921688337
 20
3647.625209908649
 30
0.0
 40
30.0
 41
0.0
 71
     5
 72
     1
  1
\A1;385
  7
SANWA
 11
0.0000000000000001
 21
1.0
 31
0.0
 73
     1
 44
1.0
  0
POINT
  5
A8B0
330
A801
100
AcDbEntity
  8
DEFPOINTS
 62
     0
 48
15.0
100
AcDbPoint
 10
1603.015739360596
 20
3840.125209908648
 30
0.0
  0
POINT
  5
A8B1
330
A801
100
AcDbEntity
  8
DEFPOINTS
 62
     0
 48
15.0
100
AcDbPoint
 10
1655.115739360597
 20
3455.125209908649
 30
0.0
  0
POINT
  5
A8B2
330
A801
100
AcDbEntity
  8
DEFPOINTS
 62
     0
 48
15.0
100
AcDbPoint
 10
1464.514921688338
 20
3455.125209908649
 30
0.0
  0
ENDBLK
  5
A80C
330
A801
100
AcDbEntity
  8
0
 48
15.0
100
AcDbBlockEnd
  0
BLOCK
  5
A819
330
A80D
100
AcDbEntity
  8
0
 48
15.0
100
AcDbBlockBegin
  2
*D30
 70
     1
 10
0.0
 20
0.0
 30
0.0
  3
*D30
  1

  0
LINE
  5
A8B3
330
A80D
100
AcDbEntity
  8
寸法引出
 48
15.0
370
    -2
100
AcDbLine
 10
1598.515739360595
 20
3850.625209908649
 30
0.0
 11
1598.515739360595
 21
3911.596490671893
 31
0.0
  0
LINE
  5
A8B4
330
A80D
100
AcDbEntity
  8
寸法引出
 48
15.0
370
    -2
100
AcDbLine
 10
1638.515739360595
 20
3855.125209908649
 30
0.0
 11
1638.515739360595
 21
3911.596490671893
 31
0.0
  0
LINE
  5
A8B5
330
A80D
100
AcDbEntity
  8
寸法引出
 48
15.0
370
    -2
100
AcDbLine
 10
1576.015739360595
 20
3904.096490671892
 30
0.0
 11
1553.515739360596
 21
3904.096490671892
 31
0.0
  0
LINE
  5
A8B6
330
A80D
100
AcDbEntity
  8
寸法引出
 48
15.0
370
    -2
100
AcDbLine
 10
1661.015739360597
 20
3904.096490671892
 30
0.0
 11
1683.515739360596
 21
3904.096490671892
 31
0.0
  0
MTEXT
  5
A8B7
330
A80D
100
AcDbEntity
  8
寸法引出
 48
15.0
100
AcDbMText
 10
1571.708552834836
 20
3934.270770230154
 30
0.0
 40
30.0
 41
0.0
 71
     5
 72
     1
  1
\A1;40
  7
SANWA
 73
     1
 44
1.0
  0
LINE
  5
A8B8
330
A80D
100
AcDbEntity
  8
寸法引出
 48
15.0
370
    -2
100
AcDbLine
 10
1598.515739360595
 20
3904.096490671892
 30
0.0
 11
1638.515739360595
 21
3904.096490671892
 31
0.0
  0
SOLID
  5
A8B9
330
A80D
100
AcDbEntity
  8
寸法引出
 48
15.0
100
AcDbTrace
 10
1576.015739360595
 20
3907.846490671893
 30
0.0
 11
1576.015739360595
 21
3900.346490671892
 31
0.0
 12
1598.515739360595
 22
3904.096490671892
 32
0.0
 13
1598.515739360595
 23
3904.096490671892
 33
0.0
  0
SOLID
  5
A8BA
330
A80D
100
AcDbEntity
  8
寸法引出
 48
15.0
100
AcDbTrace
 10
1661.015739360597
 20
3907.846490671893
 30
0.0
 11
1661.015739360597
 21
3900.346490671892
 31
0.0
 12
1638.515739360595
 22
3904.096490671892
 32
0.0
 13
1638.515739360595
 23
3904.096490671892
 33
0.0
  0
POINT
  5
A8BB
330
A80D
100
AcDbEntity
  8
DEFPOINTS
 62
     0
 48
15.0
100
AcDbPoint
 10
1598.515739360595
 20
3835.625209908648
 30
0.0
  0
POINT
  5
A8BC
330
A80D
100
AcDbEntity
  8
DEFPOINTS
 62
     0
 48
15.0
100
AcDbPoint
 10
1638.515739360595
 20
3840.125209908648
 30
0.0
  0
POINT
  5
A8BD
330
A80D
100
AcDbEntity
  8
DEFPOINTS
 62
     0
 48
15.0
100
AcDbPoint
 10
1638.515739360595
 20
3904.096490671892
 30
0.0
  0
ENDBLK
  5
A81A
330
A80D
100
AcDbEntity
  8
0
 48
15.0
100
AcDbBlockEnd
  0
BLOCK
  5
A827
330
A81B
100
AcDbEntity
  8
0
 48
15.0
100
AcDbBlockBegin
  2
*D31
 70
     1
 10
0.0
 20
0.0
 30
0.0
  3
*D31
  1

  0
LINE
  5
A8BE
330
A81B
100
AcDbEntity
  8
寸法引出
 48
15.0
370
    -2
100
AcDbLine
 10
1638.515739360595
 20
3855.125209908649
 30
0.0
 11
1638.515739360595
 21
3911.596490671893
 31
0.0
  0
LINE
  5
A8BF
330
A81B
100
AcDbEntity
  8
寸法引出
 48
15.0
370
    -2
100
AcDbLine
 10
1641.015739360596
 20
3775.125209908648
 30
0.0
 11
1641.015739360596
 21
3911.596490671893
 31
0.0
  0
LINE
  5
A8C0
330
A81B
100
AcDbEntity
  8
寸法引出
 48
15.0
370
    -2
100
AcDbLine
 10
1616.015739360596
 20
3904.096490671892
 30
0.0
 11
1593.515739360596
 21
3904.096490671892
 31
0.0
  0
LINE
  5
A8C1
330
A81B
100
AcDbEntity
  8
寸法引出
 48
15.0
370
    -2
100
AcDbLine
 10
1663.515739360597
 20
3904.096490671892
 30
0.0
 11
1686.015739360597
 21
3904.096490671892
 31
0.0
  0
MTEXT
  5
A8C2
330
A81B
100
AcDbEntity
  8
寸法引出
 48
15.0
100
AcDbMText
 10
1638.284633550741
 20
3968.313581093711
 30
0.0
 40
30.0
 41
0.0
 71
     5
 72
     1
  1
\A1;2.5
  7
SANWA
 73
     1
 44
1.0
  0
LINE
  5
A8C3
330
A81B
100
AcDbEntity
  8
寸法引出
 48
15.0
370
    -2
100
AcDbLine
 10
1638.515739360595
 20
3904.096490671892
 30
0.0
 11
1641.015739360596
 21
3904.096490671892
 31
0.0
  0
SOLID
  5
A8C4
330
A81B
100
AcDbEntity
  8
寸法引出
 48
15.0
100
AcDbTrace
 10
1616.015739360596
 20
3907.846490671893
 30
0.0
 11
1616.015739360596
 21
3900.346490671892
 31
0.0
 12
1638.515739360595
 22
3904.096490671892
 32
0.0
 13
1638.515739360595
 23
3904.096490671892
 33
0.0
  0
SOLID
  5
A8C5
330
A81B
100
AcDbEntity
  8
寸法引出
 48
15.0
100
AcDbTrace
 10
1663.515739360597
 20
3907.846490671893
 30
0.0
 11
1663.515739360597
 21
3900.346490671892
 31
0.0
 12
1641.015739360596
 22
3904.096490671892
 32
0.0
 13
1641.015739360596
 23
3904.096490671892
 33
0.0
  0
POINT
  5
A8C6
330
A81B
100
AcDbEntity
  8
DEFPOINTS
 62
     0
 48
15.0
100
AcDbPoint
 10
1638.515739360595
 20
3840.125209908648
 30
0.0
  0
POINT
  5
A8C7
330
A81B
100
AcDbEntity
  8
DEFPOINTS
 62
     0
 48
15.0
100
AcDbPoint
 10
1641.015739360596
 20
3760.125209908649
 30
0.0
  0
POINT
  5
A8C8
330
A81B
100
AcDbEntity
  8
DEFPOINTS
 62
     0
 48
15.0
100
AcDbPoint
 10
1641.015739360596
 20
3904.096490671892
 30
0.0
  0
ENDBLK
  5
A828
330
A81B
100
AcDbEntity
  8
0
 48
15.0
100
AcDbBlockEnd
  0
BLOCK
  5
A835
330
A829
100
AcDbEntity
  8
0
 48
15.0
100
AcDbBlockBegin
  2
*D32
 70
     1
 10
0.0
 20
0.0
 30
0.0
  3
*D32
  1

  0
LINE
  5
A8C9
330
A829
100
AcDbEntity
  8
寸法引出
 48
15.0
370
    -2
100
AcDbLine
 10
1641.015739360596
 20
3775.125209908648
 30
0.0
 11
1641.015739360596
 21
3911.596490671893
 31
0.0
  0
LINE
  5
A8CA
330
A829
100
AcDbEntity
  8
寸法引出
 48
15.0
370
    -2
100
AcDbLine
 10
1668.515739360596
 20
3775.125209908648
 30
0.0
 11
1668.515739360596
 21
3911.596490671893
 31
0.0
  0
LINE
  5
A8CB
330
A829
100
AcDbEntity
  8
寸法引出
 48
15.0
370
    -2
100
AcDbLine
 10
1618.515739360597
 20
3904.096490671892
 30
0.0
 11
1596.015739360597
 21
3904.096490671892
 31
0.0
  0
LINE
  5
A8CC
330
A829
100
AcDbEntity
  8
寸法引出
 48
15.0
370
    -2
100
AcDbLine
 10
1691.015739360596
 20
3904.096490671892
 30
0.0
 11
1713.515739360596
 21
3904.096490671892
 31
0.0
  0
MTEXT
  5
A8CD
330
A829
100
AcDbEntity
  8
寸法引出
 48
15.0
100
AcDbMText
 10
1653.767427771206
 20
3932.72337832801
 30
0.0
 40
30.0
 41
0.0
 71
     5
 72
     1
  1
\A1;27.5
  7
SANWA
 73
     1
 44
1.0
  0
LINE
  5
A8CE
330
A829
100
AcDbEntity
  8
寸法引出
 48
15.0
370
    -2
100
AcDbLine
 10
1641.015739360596
 20
3904.096490671892
 30
0.0
 11
1668.515739360596
 21
3904.096490671892
 31
0.0
  0
SOLID
  5
A8CF
330
A829
100
AcDbEntity
  8
寸法引出
 48
15.0
100
AcDbTrace
 10
1618.515739360597
 20
3907.846490671893
 30
0.0
 11
1618.515739360597
 21
3900.346490671892
 31
0.0
 12
1641.015739360596
 22
3904.096490671892
 32
0.0
 13
1641.015739360596
 23
3904.096490671892
 33
0.0
  0
SOLID
  5
A8D0
330
A829
100
AcDbEntity
  8
寸法引出
 48
15.0
100
AcDbTrace
 10
1691.015739360596
 20
3907.846490671893
 30
0.0
 11
1691.015739360596
 21
3900.346490671892
 31
0.0
 12
1668.515739360596
 22
3904.096490671892
 32
0.0
 13
1668.515739360596
 23
3904.096490671892
 33
0.0
  0
POINT
  5
A8D1
330
A829
100
AcDbEntity
  8
DEFPOINTS
 62
     0
 48
15.0
100
AcDbPoint
 10
1641.015739360596
 20
3760.125209908649
 30
0.0
  0
POINT
  5
A8D2
330
A829
100
AcDbEntity
  8
DEFPOINTS
 62
     0
 48
15.0
100
AcDbPoint
 10
1668.515739360596
 20
3760.125209908649
 30
0.0
  0
POINT
  5
A8D3
330
A829
100
AcDbEntity
  8
DEFPOINTS
 62
     0
 48
15.0
100
AcDbPoint
 10
1668.515739360596
 20
3904.096490671892
 30
0.0
  0
ENDBLK
  5
A836
330
A829
100
AcDbEntity
  8
0
 48
15.0
100
AcDbBlockEnd
  0
BLOCK
  5
A841
330
A837
100
AcDbEntity
  8
0
 48
15.0
100
AcDbBlockBegin
  2
*D33
 70
     1
 10
0.0
 20
0.0
 30
0.0
  3
*D33
  1

  0
LINE
  5
A8D4
330
A837
100
AcDbEntity
  8
寸法引出
 48
15.0
370
    -2
100
AcDbLine
 10
1668.515739360596
 20
3775.125209908648
 30
0.0
 11
1668.515739360596
 21
3911.596490671893
 31
0.0
  0
LINE
  5
A8D5
330
A837
100
AcDbEntity
  8
寸法引出
 48
15.0
370
    -2
100
AcDbLine
 10
1918.515739360596
 20
3775.125209908648
 30
0.0
 11
1918.515739360596
 21
3911.596490671893
 31
0.0
  0
LINE
  5
A8D6
330
A837
100
AcDbEntity
  8
寸法引出
 48
15.0
370
    -2
100
AcDbLine
 10
1691.015739360596
 20
3904.096490671892
 30
0.0
 11
1896.015739360596
 21
3904.096490671892
 31
0.0
  0
SOLID
  5
A8D7
330
A837
100
AcDbEntity
  8
寸法引出
 48
15.0
100
AcDbTrace
 10
1691.015739360596
 20
3907.846490671893
 30
0.0
 11
1691.015739360596
 21
3900.346490671892
 31
0.0
 12
1668.515739360596
 22
3904.096490671892
 32
0.0
 13
1668.515739360596
 23
3904.096490671892
 33
0.0
  0
SOLID
  5
A8D8
330
A837
100
AcDbEntity
  8
寸法引出
 48
15.0
100
AcDbTrace
 10
1896.015739360596
 20
3907.846490671893
 30
0.0
 11
1896.015739360596
 21
3900.346490671892
 31
0.0
 12
1918.515739360596
 22
3904.096490671892
 32
0.0
 13
1918.515739360596
 23
3904.096490671892
 33
0.0
  0
MTEXT
  5
A8D9
330
A837
100
AcDbEntity
  8
寸法引出
 48
15.0
100
AcDbMText
 10
1793.515739360596
 20
3934.096490671893
 30
0.0
 40
30.0
 41
0.0
 71
     5
 72
     1
  1
\A1;250
  7
SANWA
 73
     1
 44
1.0
  0
POINT
  5
A8DA
330
A837
100
AcDbEntity
  8
DEFPOINTS
 62
     0
 48
15.0
100
AcDbPoint
 10
1668.515739360596
 20
3760.125209908649
 30
0.0
  0
POINT
  5
A8DB
330
A837
100
AcDbEntity
  8
DEFPOINTS
 62
     0
 48
15.0
100
AcDbPoint
 10
1918.515739360596
 20
3760.125209908649
 30
0.0
  0
POINT
  5
A8DC
330
A837
100
AcDbEntity
  8
DEFPOINTS
 62
     0
 48
15.0
100
AcDbPoint
 10
1918.515739360596
 20
3904.096490671892
 30
0.0
  0
ENDBLK
  5
A842
330
A837
100
AcDbEntity
  8
0
 48
15.0
100
AcDbBlockEnd
  0
BLOCK
  5
A84F
330
A843
100
AcDbEntity
  8
0
 48
15.0
100
AcDbBlockBegin
  2
*D34
 70
     1
 10
0.0
 20
0.0
 30
0.0
  3
*D34
  1

  0
LINE
  5
A8DD
330
A843
100
AcDbEntity
  8
寸法引出
 48
15.0
370
    -2
100
AcDbLine
 10
1918.515739360596
 20
3775.125209908648
 30
0.0
 11
1918.515739360596
 21
3911.596490671893
 31
0.0
  0
LINE
  5
A8DE
330
A843
100
AcDbEntity
  8
寸法引出
 48
15.0
370
    -2
100
AcDbLine
 10
1988.515739360597
 20
3850.625209908648
 30
0.0
 11
1988.515739360597
 21
3911.596490671893
 31
0.0
  0
LINE
  5
A8DF
330
A843
100
AcDbEntity
  8
寸法引出
 48
15.0
370
    -2
100
AcDbLine
 10
1896.015739360596
 20
3904.096490671892
 30
0.0
 11
1873.515739360597
 21
3904.096490671892
 31
0.0
  0
LINE
  5
A8E0
330
A843
100
AcDbEntity
  8
寸法引出
 48
15.0
370
    -2
100
AcDbLine
 10
2011.015739360597
 20
3904.096490671892
 30
0.0
 11
2033.515739360596
 21
3904.096490671892
 31
0.0
  0
LINE
  5
A8E1
330
A843
100
AcDbEntity
  8
寸法引出
 48
15.0
370
    -2
100
AcDbLine
 10
1918.515739360596
 20
3904.096490671892
 30
0.0
 11
1988.515739360597
 21
3904.096490671892
 31
0.0
  0
SOLID
  5
A8E2
330
A843
100
AcDbEntity
  8
寸法引出
 48
15.0
100
AcDbTrace
 10
1896.015739360596
 20
3907.846490671893
 30
0.0
 11
1896.015739360596
 21
3900.346490671892
 31
0.0
 12
1918.515739360596
 22
3904.096490671892
 32
0.0
 13
1918.515739360596
 23
3904.096490671892
 33
0.0
  0
SOLID
  5
A8E3
330
A843
100
AcDbEntity
  8
寸法引出
 48
15.0
100
AcDbTrace
 10
2011.015739360597
 20
3907.846490671893
 30
0.0
 11
2011.015739360597
 21
3900.346490671892
 31
0.0
 12
1988.515739360597
 22
3904.096490671892
 32
0.0
 13
1988.515739360597
 23
3904.096490671892
 33
0.0
  0
MTEXT
  5
A8E4
330
A843
100
AcDbEntity
  8
寸法引出
 48
15.0
100
AcDbMText
 10
1953.515739360596
 20
3934.096490671893
 30
0.0
 40
30.0
 41
0.0
 71
     5
 72
     1
  1
\A1;70
  7
SANWA
 73
     1
 44
1.0
  0
POINT
  5
A8E5
330
A843
100
AcDbEntity
  8
DEFPOINTS
 62
     0
 48
15.0
100
AcDbPoint
 10
1918.515739360596
 20
3760.125209908649
 30
0.0
  0
POINT
  5
A8E6
330
A843
100
AcDbEntity
  8
DEFPOINTS
 62
     0
 48
15.0
100
AcDbPoint
 10
1988.515739360597
 20
3835.625209908647
 30
0.0
  0
POINT
  5
A8E7
330
A843
100
AcDbEntity
  8
DEFPOINTS
 62
     0
 48
15.0
100
AcDbPoint
 10
1988.515739360597
 20
3904.096490671892
 30
0.0
  0
ENDBLK
  5
A850
330
A843
100
AcDbEntity
  8
0
 48
15.0
100
AcDbBlockEnd
  0
BLOCK
  5
A85B
330
A851
100
AcDbEntity
  8
0
 48
15.0
100
AcDbBlockBegin
  2
*D35
 70
     1
 10
0.0
 20
0.0
 30
0.0
  3
*D35
  1

  0
LINE
  5
A8E8
330
A851
100
AcDbEntity
  8
寸法引出
 48
15.0
370
    -2
100
AcDbLine
 10
1598.515739360595
 20
3850.625209908649
 30
0.0
 11
1598.515739360595
 21
4005.631822360625
 31
0.0
  0
LINE
  5
A8E9
330
A851
100
AcDbEntity
  8
寸法引出
 48
15.0
370
    -2
100
AcDbLine
 10
1988.515739360597
 20
3850.625209908648
 30
0.0
 11
1988.515739360597
 21
4005.631822360625
 31
0.0
  0
LINE
  5
A8EA
330
A851
100
AcDbEntity
  8
寸法引出
 48
15.0
370
    -2
100
AcDbLine
 10
1621.015739360596
 20
3998.131822360626
 30
0.0
 11
1966.015739360596
 21
3998.131822360626
 31
0.0
  0
SOLID
  5
A8EB
330
A851
100
AcDbEntity
  8
寸法引出
 48
15.0
100
AcDbTrace
 10
1621.015739360596
 20
4001.881822360626
 30
0.0
 11
1621.015739360596
 21
3994.381822360627
 31
0.0
 12
1598.515739360595
 22
3998.131822360626
 32
0.0
 13
1598.515739360595
 23
3998.131822360626
 33
0.0
  0
SOLID
  5
A8EC
330
A851
100
AcDbEntity
  8
寸法引出
 48
15.0
100
AcDbTrace
 10
1966.015739360596
 20
4001.881822360626
 30
0.0
 11
1966.015739360596
 21
3994.381822360627
 31
0.0
 12
1988.515739360597
 22
3998.131822360626
 32
0.0
 13
1988.515739360597
 23
3998.131822360626
 33
0.0
  0
MTEXT
  5
A8ED
330
A851
100
AcDbEntity
  8
寸法引出
 48
15.0
100
AcDbMText
 10
1793.515739360596
 20
4028.131822360626
 30
0.0
 40
30.0
 41
0.0
 71
     5
 72
     1
  1
\A1;390
  7
SANWA
 73
     1
 44
1.0
  0
POINT
  5
A8EE
330
A851
100
AcDbEntity
  8
DEFPOINTS
 62
     0
 48
15.0
100
AcDbPoint
 10
1598.515739360595
 20
3835.625209908648
 30
0.0
  0
POINT
  5
A8EF
330
A851
100
AcDbEntity
  8
DEFPOINTS
 62
     0
 48
15.0
100
AcDbPoint
 10
1988.515739360597
 20
3835.625209908647
 30
0.0
  0
POINT
  5
A8F0
330
A851
100
AcDbEntity
  8
DEFPOINTS
 62
     0
 48
15.0
100
AcDbPoint
 10
1988.515739360597
 20
3998.131822360626
 30
0.0
  0
ENDBLK
  5
A85C
330
A851
100
AcDbEntity
  8
0
 48
15.0
100
AcDbBlockEnd
  0
BLOCK
  5
A916
330
A90C
100
AcDbEntity
  8
0
 48
15.0
100
AcDbBlockBegin
  2
*D36
 70
     1
 10
0.0
 20
0.0
 30
0.0
  3
*D36
  1

  0
LINE
  5
A90D
330
A90C
100
AcDbEntity
  8
0
 48
15.0
370
    -2
100
AcDbLine
 10
1678.515739360596
 20
3525.125209908648
 30
0.0
 11
1678.515739360596
 21
3553.554480269797
 31
0.0
  0
LINE
  5
A90E
330
A90C
100
AcDbEntity
  8
0
 48
15.0
370
    -2
100
AcDbLine
 10
1908.515739360598
 20
3525.125209908648
 30
0.0
 11
1908.515739360598
 21
3553.554480269797
 31
0.0
  0
LINE
  5
A90F
330
A90C
100
AcDbEntity
  8
0
 48
15.0
370
    -2
100
AcDbLine
 10
1701.015739360596
 20
3546.054480269798
 30
0.0
 11
1886.015739360598
 21
3546.054480269798
 31
0.0
  0
SOLID
  5
A910
330
A90C
100
AcDbEntity
  8
0
 48
15.0
100
AcDbTrace
 10
1701.015739360596
 20
3549.804480269797
 30
0.0
 11
1701.015739360596
 21
3542.304480269798
 31
0.0
 12
1678.515739360596
 22
3546.054480269798
 32
0.0
 13
1678.515739360596
 23
3546.054480269798
 33
0.0
  0
SOLID
  5
A911
330
A90C
100
AcDbEntity
  8
0
 48
15.0
100
AcDbTrace
 10
1886.015739360598
 20
3549.804480269797
 30
0.0
 11
1886.015739360598
 21
3542.304480269798
 31
0.0
 12
1908.515739360598
 22
3546.054480269798
 32
0.0
 13
1908.515739360598
 23
3546.054480269798
 33
0.0
  0
MTEXT
  5
A912
330
A90C
100
AcDbEntity
  8
0
 48
15.0
100
AcDbMText
 10
1793.515739360596
 20
3576.054480269798
 30
0.0
 40
30.0
 41
0.0
 71
     5
 72
     1
  1
\A1;230
  7
SANWA
 73
     1
 44
1.0
  0
POINT
  5
A913
330
A90C
100
AcDbEntity
  8
DEFPOINTS
 62
     0
 48
15.0
100
AcDbPoint
 10
1678.515739360596
 20
3510.125209908649
 30
0.0
  0
POINT
  5
A914
330
A90C
100
AcDbEntity
  8
DEFPOINTS
 62
     0
 48
15.0
100
AcDbPoint
 10
1908.515739360598
 20
3510.125209908649
 30
0.0
  0
POINT
  5
A915
330
A90C
100
AcDbEntity
  8
DEFPOINTS
 62
     0
 48
15.0
100
AcDbPoint
 10
1908.515739360598
 20
3546.054480269798
 30
0.0
  0
ENDBLK
  5
A917
330
A90C
100
AcDbEntity
  8
0
 48
15.0
100
AcDbBlockEnd
  0
BLOCK
  5
A923
330
A919
100
AcDbEntity
  8
0
 48
15.0
100
AcDbBlockBegin
  2
*D37
 70
     1
 10
0.0
 20
0.0
 30
0.0
  3
*D37
  1

  0
LINE
  5
A91A
330
A919
100
AcDbEntity
  8
0
 48
15.0
370
    -2
100
AcDbLine
 10
1680.515739360597
 20
3445.125209908648
 30
0.0
 11
1680.515739360597
 21
3398.875480385578
 31
0.0
  0
LINE
  5
A91B
330
A919
100
AcDbEntity
  8
0
 48
15.0
370
    -2
100
AcDbLine
 10
1906.515739360598
 20
3445.125209908649
 30
0.0
 11
1906.515739360598
 21
3398.875480385578
 31
0.0
  0
LINE
  5
A91C
330
A919
100
AcDbEntity
  8
0
 48
15.0
370
    -2
100
AcDbLine
 10
1703.015739360596
 20
3406.375480385578
 30
0.0
 11
1884.015739360598
 21
3406.375480385578
 31
0.0
  0
SOLID
  5
A91D
330
A919
100
AcDbEntity
  8
0
 48
15.0
100
AcDbTrace
 10
1703.015739360596
 20
3410.125480385578
 30
0.0
 11
1703.015739360596
 21
3402.625480385578
 31
0.0
 12
1680.515739360597
 22
3406.375480385578
 32
0.0
 13
1680.515739360597
 23
3406.375480385578
 33
0.0
  0
SOLID
  5
A91E
330
A919
100
AcDbEntity
  8
0
 48
15.0
100
AcDbTrace
 10
1884.015739360598
 20
3410.125480385578
 30
0.0
 11
1884.015739360598
 21
3402.625480385578
 31
0.0
 12
1906.515739360598
 22
3406.375480385578
 32
0.0
 13
1906.515739360598
 23
3406.375480385578
 33
0.0
  0
MTEXT
  5
A91F
330
A919
100
AcDbEntity
  8
0
 48
15.0
100
AcDbMText
 10
1793.515739360598
 20
3436.375480385578
 30
0.0
 40
30.0
 41
0.0
 71
     5
 72
     1
  1
\A1;226
  7
SANWA
 73
     1
 44
1.0
  0
POINT
  5
A920
330
A919
100
AcDbEntity
  8
DEFPOINTS
 62
     0
 48
15.0
100
AcDbPoint
 10
1680.515739360597
 20
3460.125209908648
 30
0.0
  0
POINT
  5
A921
330
A919
100
AcDbEntity
  8
DEFPOINTS
 62
     0
 48
15.0
100
AcDbPoint
 10
1906.515739360598
 20
3460.125209908648
 30
0.0
  0
POINT
  5
A922
330
A919
100
AcDbEntity
  8
DEFPOINTS
 62
     0
 48
15.0
100
AcDbPoint
 10
1906.515739360598
 20
3406.375480385578
 30
0.0
  0
ENDBLK
  5
A924
330
A919
100
AcDbEntity
  8
0
 48
15.0
100
AcDbBlockEnd
  0
BLOCK
  5
A930
330
A926
100
AcDbEntity
  8
0
 48
15.0
100
AcDbBlockBegin
  2
*D38
 70
     1
 10
0.0
 20
0.0
 30
0.0
  3
*D38
  1

  0
LINE
  5
A927
330
A926
100
AcDbEntity
  8
0
 48
15.0
370
    -2
100
AcDbLine
 10
1684.515739360598
 20
3345.125209908649
 30
0.0
 11
1684.515739360598
 21
3303.010158677177
 31
0.0
  0
LINE
  5
A928
330
A926
100
AcDbEntity
  8
0
 48
15.0
370
    -2
100
AcDbLine
 10
1902.515739360598
 20
3345.125209908649
 30
0.0
 11
1902.515739360598
 21
3303.010158677177
 31
0.0
  0
LINE
  5
A929
330
A926
100
AcDbEntity
  8
0
 48
15.0
370
    -2
100
AcDbLine
 10
1707.015739360598
 20
3310.510158677177
 30
0.0
 11
1880.015739360598
 21
3310.510158677177
 31
0.0
  0
SOLID
  5
A92A
330
A926
100
AcDbEntity
  8
0
 48
15.0
100
AcDbTrace
 10
1707.015739360598
 20
3314.260158677177
 30
0.0
 11
1707.015739360598
 21
3306.760158677177
 31
0.0
 12
1684.515739360598
 22
3310.510158677177
 32
0.0
 13
1684.515739360598
 23
3310.510158677177
 33
0.0
  0
SOLID
  5
A92B
330
A926
100
AcDbEntity
  8
0
 48
15.0
100
AcDbTrace
 10
1880.015739360598
 20
3314.260158677177
 30
0.0
 11
1880.015739360598
 21
3306.760158677177
 31
0.0
 12
1902.515739360598
 22
3310.510158677177
 32
0.0
 13
1902.515739360598
 23
3310.510158677177
 33
0.0
  0
MTEXT
  5
A92C
330
A926
100
AcDbEntity
  8
0
 48
15.0
100
AcDbMText
 10
1793.515739360598
 20
3340.510158677177
 30
0.0
 40
30.0
 41
0.0
 71
     5
 72
     1
  1
\A1;218
  7
SANWA
 73
     1
 44
1.0
  0
POINT
  5
A92D
330
A926
100
AcDbEntity
  8
DEFPOINTS
 62
     0
 48
15.0
100
AcDbPoint
 10
1684.515739360598
 20
3360.125209908648
 30
0.0
  0
POINT
  5
A92E
330
A926
100
AcDbEntity
  8
DEFPOINTS
 62
     0
 48
15.0
100
AcDbPoint
 10
1902.515739360598
 20
3360.125209908648
 30
0.0
  0
POINT
  5
A92F
330
A926
100
AcDbEntity
  8
DEFPOINTS
 62
     0
 48
15.0
100
AcDbPoint
 10
1902.515739360598
 20
3310.510158677177
 30
0.0
  0
ENDBLK
  5
A931
330
A926
100
AcDbEntity
  8
0
 48
15.0
100
AcDbBlockEnd
  0
BLOCK
  5
A93D
330
A933
100
AcDbEntity
  8
0
 48
15.0
100
AcDbBlockBegin
  2
*D39
 70
     1
 10
0.0
 20
0.0
 30
0.0
  3
*D39
  1

  0
LINE
  5
A934
330
A933
100
AcDbEntity
  8
0
 48
15.0
370
    -2
100
AcDbLine
 10
1688.515739360598
 20
3245.125209908648
 30
0.0
 11
1688.515739360598
 21
3176.002145639925
 31
0.0
  0
LINE
  5
A935
330
A933
100
AcDbEntity
  8
0
 48
15.0
370
    -2
100
AcDbLine
 10
1898.515739360598
 20
3245.125209908648
 30
0.0
 11
1898.515739360598
 21
3176.002145639925
 31
0.0
  0
LINE
  5
A936
330
A933
100
AcDbEntity
  8
0
 48
15.0
370
    -2
100
AcDbLine
 10
1711.015739360598
 20
3183.502145639925
 30
0.0
 11
1876.015739360598
 21
3183.502145639925
 31
0.0
  0
SOLID
  5
A937
330
A933
100
AcDbEntity
  8
0
 48
15.0
100
AcDbTrace
 10
1711.015739360598
 20
3187.252145639925
 30
0.0
 11
1711.015739360598
 21
3179.752145639925
 31
0.0
 12
1688.515739360598
 22
3183.502145639925
 32
0.0
 13
1688.515739360598
 23
3183.502145639925
 33
0.0
  0
SOLID
  5
A938
330
A933
100
AcDbEntity
  8
0
 48
15.0
100
AcDbTrace
 10
1876.015739360598
 20
3187.252145639925
 30
0.0
 11
1876.015739360598
 21
3179.752145639925
 31
0.0
 12
1898.515739360598
 22
3183.502145639925
 32
0.0
 13
1898.515739360598
 23
3183.502145639925
 33
0.0
  0
MTEXT
  5
A939
330
A933
100
AcDbEntity
  8
0
 48
15.0
100
AcDbMText
 10
1793.515739360598
 20
3213.502145639925
 30
0.0
 40
30.0
 41
0.0
 71
     5
 72
     1
  1
\A1;210
  7
SANWA
 73
     1
 44
1.0
  0
POINT
  5
A93A
330
A933
100
AcDbEntity
  8
DEFPOINTS
 62
     0
 48
15.0
100
AcDbPoint
 10
1688.515739360598
 20
3260.125209908649
 30
0.0
  0
POINT
  5
A93B
330
A933
100
AcDbEntity
  8
DEFPOINTS
 62
     0
 48
15.0
100
AcDbPoint
 10
1898.515739360598
 20
3260.125209908649
 30
0.0
  0
POINT
  5
A93C
330
A933
100
AcDbEntity
  8
DEFPOINTS
 62
     0
 48
15.0
100
AcDbPoint
 10
1898.515739360598
 20
3183.502145639925
 30
0.0
  0
ENDBLK
  5
A93E
330
A933
100
AcDbEntity
  8
0
 48
15.0
100
AcDbBlockEnd
  0
BLOCK
  5
A96A
330
A960
100
AcDbEntity
  8
0
 48
15.0
100
AcDbBlockBegin
  2
*D40
 70
     1
 10
0.0
 20
0.0
 30
0.0
  3
*D40
  1

  0
LINE
  5
AEB2
330
A960
100
AcDbEntity
  8
寸法引出
 48
15.0
370
    -2
100
AcDbLine
 10
1090.57821980076
 20
1370.442454180445
 30
0.0
 11
1090.57821980076
 21
1532.426042852417
 31
0.0
  0
LINE
  5
AEB3
330
A960
100
AcDbEntity
  8
寸法引出
 48
15.0
370
    -2
100
AcDbLine
 10
1316.578219800759
 20
1370.442454180444
 30
0.0
 11
1316.578219800759
 21
1532.426042852417
 31
0.0
  0
LINE
  5
AEB4
330
A960
100
AcDbEntity
  8
寸法引出
 48
15.0
370
    -2
100
AcDbLine
 10
1113.07821980076
 20
1524.926042852417
 30
0.0
 11
1294.078219800759
 21
1524.926042852417
 31
0.0
  0
SOLID
  5
AEB5
330
A960
100
AcDbEntity
  8
寸法引出
 48
15.0
100
AcDbTrace
 10
1113.07821980076
 20
1528.676042852417
 30
0.0
 11
1113.07821980076
 21
1521.176042852417
 31
0.0
 12
1090.57821980076
 22
1524.926042852417
 32
0.0
 13
1090.57821980076
 23
1524.926042852417
 33
0.0
  0
SOLID
  5
AEB6
330
A960
100
AcDbEntity
  8
寸法引出
 48
15.0
100
AcDbTrace
 10
1294.078219800759
 20
1528.676042852417
 30
0.0
 11
1294.078219800759
 21
1521.176042852417
 31
0.0
 12
1316.578219800759
 22
1524.926042852417
 32
0.0
 13
1316.578219800759
 23
1524.926042852417
 33
0.0
  0
MTEXT
  5
AEB7
330
A960
100
AcDbEntity
  8
寸法引出
 48
15.0
100
AcDbMText
 10
1203.578219800759
 20
1554.926042852417
 30
0.0
 40
30.0
 41
0.0
 71
     5
 72
     1
  1
\A1;226
  7
SANWA
 73
     1
 44
1.0
  0
POINT
  5
AEB8
330
A960
100
AcDbEntity
  8
DEFPOINTS
 62
     0
 48
15.0
100
AcDbPoint
 10
1090.57821980076
 20
1355.442454180445
 30
0.0
  0
POINT
  5
AEB9
330
A960
100
AcDbEntity
  8
DEFPOINTS
 62
     0
 48
15.0
100
AcDbPoint
 10
1316.578219800759
 20
1355.442454180444
 30
0.0
  0
POINT
  5
AEBA
330
A960
100
AcDbEntity
  8
DEFPOINTS
 62
     0
 48
15.0
100
AcDbPoint
 10
1316.578219800759
 20
1524.926042852417
 30
0.0
  0
ENDBLK
  5
A96B
330
A960
100
AcDbEntity
  8
0
 48
15.0
100
AcDbBlockEnd
  0
BLOCK
  5
A9F3
330
A9E7
100
AcDbEntity
  8
0
 48
15.0
100
AcDbBlockBegin
  2
*D41
 70
     1
 10
0.0
 20
0.0
 30
0.0
  3
*D41
  1

  0
LINE
  5
AEA7
330
A9E7
100
AcDbEntity
  8
寸法引出
 48
15.0
370
    -2
100
AcDbLine
 10
1040.57821980076
 20
1370.442454180445
 30
0.0
 11
1040.57821980076
 21
1532.426042852417
 31
0.0
  0
LINE
  5
AEA8
330
A9E7
100
AcDbEntity
  8
寸法引出
 48
15.0
370
    -2
100
AcDbLine
 10
1090.57821980076
 20
1370.442454180445
 30
0.0
 11
1090.57821980076
 21
1532.426042852417
 31
0.0
  0
LINE
  5
AEA9
330
A9E7
100
AcDbEntity
  8
寸法引出
 48
15.0
370
    -2
100
AcDbLine
 10
1018.07821980076
 20
1524.926042852417
 30
0.0
 11
995.57821980076
 21
1524.926042852417
 31
0.0
  0
LINE
  5
AEAA
330
A9E7
100
AcDbEntity
  8
寸法引出
 48
15.0
370
    -2
100
AcDbLine
 10
1113.07821980076
 20
1524.926042852417
 30
0.0
 11
1135.57821980076
 21
1524.926042852417
 31
0.0
  0
MTEXT
  5
AEAB
330
A9E7
100
AcDbEntity
  8
寸法引出
 48
15.0
100
AcDbMText
 10
1039.925779971086
 20
1556.249452950257
 30
0.0
 40
30.0
 41
0.0
 71
     5
 72
     1
  1
\A1;50
  7
SANWA
 73
     1
 44
1.0
  0
LINE
  5
AEAC
330
A9E7
100
AcDbEntity
  8
寸法引出
 48
15.0
370
    -2
100
AcDbLine
 10
1040.57821980076
 20
1524.926042852417
 30
0.0
 11
1090.57821980076
 21
1524.926042852417
 31
0.0
  0
SOLID
  5
AEAD
330
A9E7
100
AcDbEntity
  8
寸法引出
 48
15.0
100
AcDbTrace
 10
1018.07821980076
 20
1528.676042852417
 30
0.0
 11
1018.07821980076
 21
1521.176042852417
 31
0.0
 12
1040.57821980076
 22
1524.926042852417
 32
0.0
 13
1040.57821980076
 23
1524.926042852417
 33
0.0
  0
SOLID
  5
AEAE
330
A9E7
100
AcDbEntity
  8
寸法引出
 48
15.0
100
AcDbTrace
 10
1113.07821980076
 20
1528.676042852417
 30
0.0
 11
1113.07821980076
 21
1521.176042852417
 31
0.0
 12
1090.57821980076
 22
1524.926042852417
 32
0.0
 13
1090.57821980076
 23
1524.926042852417
 33
0.0
  0
POINT
  5
AEAF
330
A9E7
100
AcDbEntity
  8
DEFPOINTS
 62
     0
 48
15.0
100
AcDbPoint
 10
1040.57821980076
 20
1355.442454180445
 30
0.0
  0
POINT
  5
AEB0
330
A9E7
100
AcDbEntity
  8
DEFPOINTS
 62
     0
 48
15.0
100
AcDbPoint
 10
1090.57821980076
 20
1355.442454180445
 30
0.0
  0
POINT
  5
AEB1
330
A9E7
100
AcDbEntity
  8
DEFPOINTS
 62
     0
 48
15.0
100
AcDbPoint
 10
1090.57821980076
 20
1524.926042852417
 30
0.0
  0
ENDBLK
  5
A9F4
330
A9E7
100
AcDbEntity
  8
0
 48
15.0
100
AcDbBlockEnd
  0
BLOCK
  5
AC1E
330
AC14
100
AcDbEntity
  8
0
 48
15.0
100
AcDbBlockBegin
  2
*D42
 70
     1
 10
0.0
 20
0.0
 30
0.0
  3
*D42
  1

  0
LINE
  5
AD5E
330
AC14
100
AcDbEntity
  8
寸法引出
 48
15.0
370
    -2
100
AcDbLine
 10
998.0782198007601
 20
1320.448277296351
 30
0.0
 11
915.2550787208095
 21
1320.448277296351
 31
0.0
  0
LINE
  5
AD5F
330
AC14
100
AcDbEntity
  8
寸法引出
 48
15.0
370
    -2
100
AcDbLine
 10
1051.444886467427
 20
885.4482772963534
 30
0.0
 11
915.2550787208094
 21
885.4482772963534
 31
0.0
  0
LINE
  5
AD60
330
AC14
100
AcDbEntity
  8
寸法引出
 48
15.0
370
    -2
100
AcDbLine
 10
922.7550787208095
 20
1297.948277296351
 30
0.0
 11
922.7550787208093
 21
907.9482772963533
 31
0.0
  0
SOLID
  5
AD61
330
AC14
100
AcDbEntity
  8
寸法引出
 48
15.0
100
AcDbTrace
 10
919.0050787208095
 20
1297.948277296351
 30
0.0
 11
926.5050787208094
 21
1297.948277296351
 31
0.0
 12
922.7550787208095
 22
1320.448277296351
 32
0.0
 13
922.7550787208095
 23
1320.448277296351
 33
0.0
  0
SOLID
  5
AD62
330
AC14
100
AcDbEntity
  8
寸法引出
 48
15.0
100
AcDbTrace
 10
919.0050787208093
 20
907.9482772963533
 30
0.0
 11
926.5050787208094
 21
907.9482772963533
 31
0.0
 12
922.7550787208093
 22
885.4482772963534
 32
0.0
 13
922.7550787208093
 23
885.4482772963534
 33
0.0
  0
MTEXT
  5
AD63
330
AC14
100
AcDbEntity
  8
寸法引出
 48
15.0
100
AcDbMText
 10
892.7550787208092
 20
1102.948277296353
 30
0.0
 40
30.0
 41
0.0
 71
     5
 72
     1
  1
\A1;435
  7
SANWA
 11
0.0000000000000001
 21
1.0
 31
0.0
 73
     1
 44
1.0
  0
POINT
  5
AD64
330
AC14
100
AcDbEntity
  8
DEFPOINTS
 62
     0
 48
15.0
100
AcDbPoint
 10
1013.07821980076
 20
1320.448277296351
 30
0.0
  0
POINT
  5
AD65
330
AC14
100
AcDbEntity
  8
DEFPOINTS
 62
     0
 48
15.0
100
AcDbPoint
 10
1066.444886467427
 20
885.4482772963534
 30
0.0
  0
POINT
  5
AD66
330
AC14
100
AcDbEntity
  8
DEFPOINTS
 62
     0
 48
15.0
100
AcDbPoint
 10
922.7550787208093
 20
885.4482772963534
 30
0.0
  0
ENDBLK
  5
AC1F
330
AC14
100
AcDbEntity
  8
0
 48
15.0
100
AcDbBlockEnd
  0
BLOCK
  5
ACE9
330
ACDF
100
AcDbEntity
  8
0
 48
15.0
100
AcDbBlockBegin
  2
*D43
 70
     1
 10
0.0
 20
0.0
 30
0.0
  3
*D43
  1

  0
LINE
  5
AF2E
330
ACDF
100
AcDbEntity
  8
寸法引出
 48
15.0
370
    -2
100
AcDbLine
 10
3885.493333821983
 20
1735.442454180445
 30
0.0
 11
3979.73094336768
 21
1735.442454180445
 31
0.0
  0
LINE
  5
AF2F
330
ACDF
100
AcDbEntity
  8
寸法引出
 48
15.0
370
    -2
100
AcDbLine
 10
3885.493333821983
 20
1477.442454180445
 30
0.0
 11
3979.73094336768
 21
1477.442454180445
 31
0.0
  0
LINE
  5
AF30
330
ACDF
100
AcDbEntity
  8
寸法引出
 48
15.0
370
    -2
100
AcDbLine
 10
3972.230943367681
 20
1712.942454180445
 30
0.0
 11
3972.230943367681
 21
1499.942454180445
 31
0.0
  0
SOLID
  5
AF31
330
ACDF
100
AcDbEntity
  8
寸法引出
 48
15.0
100
AcDbTrace
 10
3968.480943367681
 20
1712.942454180445
 30
0.0
 11
3975.980943367681
 21
1712.942454180445
 31
0.0
 12
3972.230943367681
 22
1735.442454180445
 32
0.0
 13
3972.230943367681
 23
1735.442454180445
 33
0.0
  0
SOLID
  5
AF32
330
ACDF
100
AcDbEntity
  8
寸法引出
 48
15.0
100
AcDbTrace
 10
3968.480943367681
 20
1499.942454180445
 30
0.0
 11
3975.980943367681
 21
1499.942454180445
 31
0.0
 12
3972.230943367681
 22
1477.442454180445
 32
0.0
 13
3972.230943367681
 23
1477.442454180445
 33
0.0
  0
MTEXT
  5
AF33
330
ACDF
100
AcDbEntity
  8
寸法引出
 48
15.0
100
AcDbMText
 10
3942.230943367681
 20
1606.442454180446
 30
0.0
 40
30.0
 41
0.0
 71
     5
 72
     1
  1
\A1;258
  7
SANWA
 11
0.0000000000000001
 21
1.0
 31
0.0
 73
     1
 44
1.0
  0
POINT
  5
AF34
330
ACDF
100
AcDbEntity
  8
DEFPOINTS
 62
     0
 48
15.0
100
AcDbPoint
 10
3870.493333821984
 20
1735.442454180445
 30
0.0
  0
POINT
  5
AF35
330
ACDF
100
AcDbEntity
  8
DEFPOINTS
 62
     0
 48
15.0
100
AcDbPoint
 10
3870.493333821984
 20
1477.442454180445
 30
0.0
  0
POINT
  5
AF36
330
ACDF
100
AcDbEntity
  8
DEFPOINTS
 62
     0
 48
15.0
100
AcDbPoint
 10
3972.230943367681
 20
1477.442454180445
 30
0.0
  0
ENDBLK
  5
ACEA
330
ACDF
100
AcDbEntity
  8
0
 48
15.0
100
AcDbBlockEnd
  0
BLOCK
  5
ACF6
330
ACEC
100
AcDbEntity
  8
0
 48
15.0
100
AcDbBlockBegin
  2
*D44
 70
     1
 10
0.0
 20
0.0
 30
0.0
  3
*D44
  1

  0
LINE
  5
AF37
330
ACEC
100
AcDbEntity
  8
寸法引出
 48
15.0
370
    -2
100
AcDbLine
 10
3885.493333821983
 20
1477.442454180445
 30
0.0
 11
3979.73094336768
 21
1477.442454180445
 31
0.0
  0
LINE
  5
AF38
330
ACEC
100
AcDbEntity
  8
寸法引出
 48
15.0
370
    -2
100
AcDbLine
 10
3885.493333821983
 20
1300.442454180445
 30
0.0
 11
3979.73094336768
 21
1300.442454180445
 31
0.0
  0
LINE
  5
AF39
330
ACEC
100
AcDbEntity
  8
寸法引出
 48
15.0
370
    -2
100
AcDbLine
 10
3972.230943367681
 20
1454.942454180445
 30
0.0
 11
3972.230943367681
 21
1322.942454180445
 31
0.0
  0
SOLID
  5
AF3A
330
ACEC
100
AcDbEntity
  8
寸法引出
 48
15.0
100
AcDbTrace
 10
3968.480943367681
 20
1454.942454180445
 30
0.0
 11
3975.980943367681
 21
1454.942454180445
 31
0.0
 12
3972.230943367681
 22
1477.442454180445
 32
0.0
 13
3972.230943367681
 23
1477.442454180445
 33
0.0
  0
SOLID
  5
AF3B
330
ACEC
100
AcDbEntity
  8
寸法引出
 48
15.0
100
AcDbTrace
 10
3968.480943367681
 20
1322.942454180445
 30
0.0
 11
3975.980943367681
 21
1322.942454180445
 31
0.0
 12
3972.230943367681
 22
1300.442454180445
 32
0.0
 13
3972.230943367681
 23
1300.442454180445
 33
0.0
  0
MTEXT
  5
AF3C
330
ACEC
100
AcDbEntity
  8
寸法引出
 48
15.0
100
AcDbMText
 10
3942.230943367681
 20
1388.942454180446
 30
0.0
 40
30.0
 41
0.0
 71
     5
 72
     1
  1
\A1;177
  7
SANWA
 11
0.0000000000000001
 21
1.0
 31
0.0
 73
     1
 44
1.0
  0
POINT
  5
AF3D
330
ACEC
100
AcDbEntity
  8
DEFPOINTS
 62
     0
 48
15.0
100
AcDbPoint
 10
3870.493333821984
 20
1477.442454180445
 30
0.0
  0
POINT
  5
AF3E
330
ACEC
100
AcDbEntity
  8
DEFPOINTS
 62
     0
 48
15.0
100
AcDbPoint
 10
3870.493333821984
 20
1300.442454180445
 30
0.0
  0
POINT
  5
AF3F
330
ACEC
100
AcDbEntity
  8
DEFPOINTS
 62
     0
 48
15.0
100
AcDbPoint
 10
3972.230943367681
 20
1300.442454180445
 30
0.0
  0
ENDBLK
  5
ACF7
330
ACEC
100
AcDbEntity
  8
0
 48
15.0
100
AcDbBlockEnd
  0
ENDSEC
  0
SECTION
  2
ENTITIES
  0
LINE
  5
886A
330
747D
100
AcDbEntity
  8
0
 48
15.0
100
AcDbLine
 10
1398.57821980076
 20
1730.942454180444
 30
0.0
 11
1398.57821980076
 21
1655.442454180445
 31
0.0
  0
LINE
  5
886B
330
747D
100
AcDbEntity
  8
0
 48
15.0
100
AcDbLine
 10
1008.578219800759
 20
1730.942454180445
 30
0.0
 11
1008.578219800759
 21
1655.442454180445
 31
0.0
  0
LINE
  5
886C
330
747D
100
AcDbEntity
  8
0
 48
15.0
100
AcDbLine
 10
1013.078219800759
 20
1735.442454180445
 30
0.0
 11
1048.578219800759
 21
1735.442454180445
 31
0.0
  0
LINE
  5
886F
330
747D
100
AcDbEntity
  8
0
 48
15.0
100
AcDbLine
 10
1048.578219800759
 20
1735.442454180445
 30
0.0
 11
1051.078219800759
 21
1655.442454180445
 31
0.0
  0
LINE
  5
8870
330
747D
100
AcDbEntity
  8
0
 48
15.0
100
AcDbLine
 10
1051.078219800759
 20
1655.442454180445
 30
0.0
 11
1067.07821980076
 21
1655.442454180446
 31
0.0
  0
LINE
  5
8872
330
747D
100
AcDbEntity
  8
0
 48
15.0
100
AcDbLine
 10
1356.078219800759
 20
1655.442454180445
 30
0.0
 11
1340.07821980076
 21
1655.442454180445
 31
0.0
  0
LINE
  5
8873
330
747D
100
AcDbEntity
  8
0
 48
15.0
100
AcDbLine
 10
1358.57821980076
 20
1735.442454180445
 30
0.0
 11
1356.078219800759
 21
1655.442454180445
 31
0.0
  0
LINE
  5
8874
330
747D
100
AcDbEntity
  8
0
 48
15.0
100
AcDbLine
 10
1394.078219800759
 20
1735.442454180445
 30
0.0
 11
1358.57821980076
 21
1735.442454180445
 31
0.0
  0
LINE
  5
887A
330
747D
100
AcDbEntity
  8
0
 48
15.0
100
AcDbLine
 10
1078.898219800758
 20
1647.442454180445
 30
0.0
 11
1088.444345913607
 21
1408.789301359251
 31
0.0
  0
LINE
  5
887B
330
747D
100
AcDbEntity
  8
0
 48
15.0
100
AcDbLine
 10
1328.258219800761
 20
1647.442454180444
 30
0.0
 11
1318.712093687912
 21
1408.789301359251
 31
0.0
  0
LINE
  5
8880
330
747D
100
AcDbEntity
  8
0
 48
15.0
100
AcDbLine
 10
1066.444886467427
 20
1300.442454180445
 30
0.0
 11
1340.711553134093
 21
1300.442454180444
 31
0.0
  0
LINE
  5
8882
330
747D
100
AcDbEntity
  8
0
 48
15.0
100
AcDbLine
 10
1872.493333821983
 20
1735.442454180445
 30
0.0
 11
1872.493333821983
 21
1300.442454180445
 31
0.0
  0
LINE
  5
8883
330
747D
100
AcDbEntity
  8
0
 48
15.0
100
AcDbLine
 10
1872.493333821983
 20
1300.442454180445
 30
0.0
 11
3870.493333821984
 21
1300.442454180445
 31
0.0
  0
LINE
  5
8884
330
747D
100
AcDbEntity
  8
0
 48
15.0
100
AcDbLine
 10
1872.493333821983
 20
1735.442454180445
 30
0.0
 11
3870.493333821984
 21
1735.442454180445
 31
0.0
  0
LINE
  5
8885
330
747D
100
AcDbEntity
  8
0
 48
15.0
100
AcDbLine
 10
3870.493333821984
 20
1735.442454180445
 30
0.0
 11
3870.493333821984
 21
1300.442454180445
 31
0.0
  0
TEXT
  5
8888
330
747D
100
AcDbEntity
  8
0
100
AcDbText
 10
1399.474232270368
 20
2722.52899042226
 30
0.0
 40
42.00000000000001
  1
エコノミー側溝（Ｈタイプ）２５０×３００×１９９８
  7
SANWA
 72
     4
 11
2167.474232270368
 21
2743.76899042226
 31
0.0
100
AcDbText
  0
LINE
  5
8889
330
747D
100
AcDbEntity
  8
0
100
AcDbLine
 10
1393.896118833689
 20
2700.0
 30
0.0
 11
3286.10388116631
 21
2700.0
 31
0.0
  0
LINE
  5
888A
330
747D
100
AcDbEntity
  8
0
100
AcDbLine
 10
1393.896118833689
 20
2688.000000000001
 30
0.0
 11
3286.10388116631
 21
2688.000000000001
 31
0.0
  0
LINE
  5
888B
330
747D
100
AcDbEntity
  8
枠
100
AcDbLine
 10
375.0
 20
3000.0
 30
0.0
 11
4305.0
 21
3000.0
 31
0.0
  0
LINE
  5
888C
330
747D
100
AcDbEntity
  8
枠
100
AcDbLine
 10
375.0
 20
150.0
 30
0.0
 11
4305.0
 21
150.0000000000034
 31
0.0
  0
LINE
  5
888D
330
747D
100
AcDbEntity
  8
枠
100
AcDbLine
 10
375.0
 20
150.0
 30
0.0
 11
375.0
 21
3000.0
 31
0.0
  0
LINE
  5
888E
330
747D
100
AcDbEntity
  8
0
100
AcDbLine
 10
375.0
 20
0.0
 30
0.0
 11
0.0
 21
0.0
 31
0.0
  0
LINE
  5
888F
330
747D
100
AcDbEntity
  8
0
100
AcDbLine
 10
0.0
 20
0.0
 30
0.0
 11
0.0
 21
150.0
 31
0.0
  0
TEXT
  5
8890
330
747D
100
AcDbEntity
  8
0
100
AcDbText
 10
1007.968454745229
 20
2001.129972899698
 30
0.0
 40
36.0
  1
構造図
  7
SANWA
 72
     4
 11
1086.962740459515
 21
2019.644258613984
 31
0.0
100
AcDbText
  0
LINE
  5
8891
330
747D
100
AcDbEntity
  8
0
100
AcDbLine
 10
1010.800604762465
 20
1989.185865272284
 30
0.0
 11
1158.988473496014
 21
1989.185865272284
 31
0.0
  0
LINE
  5
8892
330
747D
100
AcDbEntity
  8
0
100
AcDbLine
 10
0.0
 20
3000.0
 30
0.0
 11
0.0
 21
3150.0
 31
0.0
  0
LINE
  5
8893
330
747D
100
AcDbEntity
  8
0
100
AcDbLine
 10
0.0
 20
3150.0
 30
0.0
 11
375.0
 21
3150.0
 31
0.0
  0
LINE
  5
8894
330
747D
100
AcDbEntity
  8
0
100
AcDbLine
 10
3646.531914893608
 20
306.0000000000012
 30
0.0
 11
3646.531914893608
 21
594.0000000000036
 31
0.0
  0
TEXT
  5
8895
330
747D
100
AcDbEntity
  8
0
 48
2.0
100
AcDbText
 10
3609.74309726096
 20
560.3768966870497
 30
0.0
 40
16.79999999999999
  1
品
  7
SANWA
100
AcDbText
  0
TEXT
  5
8896
330
747D
100
AcDbEntity
  8
0
 48
2.0
100
AcDbText
 10
3325.407362835249
 20
557.2772861648262
 30
0.0
 40
24.0
  1
図面
  7
SANWA
100
AcDbText
  0
LINE
  5
8897
330
747D
100
AcDbEntity
  8
0
100
AcDbLine
 10
3202.531914893616
 20
594.0000000000036
 30
0.0
 11
3202.531914893616
 21
522.0000000000026
 31
0.0
  0
TEXT
  5
8898
330
747D
100
AcDbEntity
  8
0
 48
2.0
100
AcDbText
 10
3392.339284911449
 20
558.6411916425953
 30
0.0
 40
24.0
  1
番号
  7
SANWA
100
AcDbText
  0
LINE
  5
8899
330
747D
100
AcDbEntity
  8
0
100
AcDbLine
 10
3598.531914893611
 20
150.0000000000034
 30
0.0
 11
3598.531914893611
 21
594.0000000000036
 31
0.0
  0
LINE
  5
889A
330
747D
100
AcDbEntity
  8
枠
100
AcDbLine
 10
4305.0
 20
150.0
 30
0.0
 11
4305.0
 21
3000.0
 31
0.0
  0
LINE
  5
889B
330
747D
100
AcDbEntity
  8
0
100
AcDbLine
 10
4455.0
 20
0.0
 30
0.0
 11
4305.0
 21
0.0
 31
0.0
  0
HATCH
  5
889C
330
747D
100
AcDbEntity
  8
0
100
AcDbHatch
 10
0.0
 20
0.0
 30
0.0
210
0.0
220
0.0
230
1.0
  2
SOLID
 70
     1
 71
     0
 91
        2
 92
        7
 72
     1
 73
     1
 93
        2
 10
3316.517041237145
 20
210.0000000000025
 42
1.0
 10
3220.546788550063
 20
210.0000000000025
 42
1.0
 97
        0
 92
       22
 72
     1
 73
     1
 93
        2
 10
3314.117041237151
 20
210.0000000000025
 42
-1.0
 10
3222.946788550071
 20
210.0000000000025
 42
-1.0
 97
        0
 75
     0
 76
     1
 47
0.0602706122334892
 98
        2
 10
3291.52220075993
 20
251.2492511007806
 10
3291.52220075993
 20
251.2492511007806
  0
CIRCLE
  5
889D
330
747D
100
AcDbEntity
  8
0
100
AcDbCircle
 10
3268.53191489361
 20
210.0000000000025
 30
0.0
 40
45.58512634354756
  0
CIRCLE
  5
889E
330
747D
100
AcDbEntity
  8
0
100
AcDbCircle
 10
3268.53191489361
 20
210.0000000000025
 30
0.0
 40
47.98512634354756
  0
ARC
  5
889F
330
747D
100
AcDbEntity
  8
0
100
AcDbCircle
 10
3680.136214331804
 20
223.2088158088008
 30
0.0
 40
33.0637889330479
100
AcDbArc
 50
274.1625874111285
 51
40.83741258887069
  0
ARC
  5
88A0
330
747D
100
AcDbEntity
  8
0
100
AcDbCircle
 10
3680.136214331804
 20
223.2088158088008
 30
0.0
 40
35.4637889330479
100
AcDbArc
 50
277.7788203119025
 51
37.2211796880979
  0
ARC
  5
88A1
330
747D
100
AcDbEntity
  8
0
100
AcDbCircle
 10
3680.136214331804
 20
223.2088158088008
 30
0.0
 40
43.8637889330479
100
AcDbArc
 50
273.1364954470843
 51
41.86350455291268
  0
ARC
  5
88A2
330
747D
100
AcDbEntity
  8
0
100
AcDbCircle
 10
3680.136214331804
 20
223.2088158088008
 30
0.0
 40
41.46378893304792
100
AcDbArc
 50
276.6476737862029
 51
38.35232621379395
  0
TEXT
  5
88A3
330
747D
100
AcDbEntity
  8
0
100
AcDbText
 10
3666.709002834941
 20
206.71887241068
 30
0.0
 40
18.0
  1
和
  7
SANWA
100
AcDbText
  0
LINE
  5
88A4
330
747D
100
AcDbEntity
  8
0
100
AcDbLine
 10
3466.531914893607
 20
150.0000000000034
 30
0.0
 11
3466.531914893607
 21
306.0000000000012
 31
0.0
  0
LINE
  5
88A5
330
747D
100
AcDbEntity
  8
0
100
AcDbLine
 10
3334.531914893604
 20
150.0000000000034
 30
0.0
 11
3334.531914893604
 21
342.0000000000026
 31
0.0
  0
LINE
  5
88A6
330
747D
100
AcDbEntity
  8
0
 62
     0
100
AcDbLine
 10
3202.531914893616
 20
378.0000000000022
 30
0.0
 11
3202.531914893616
 21
150.0000000000034
 31
0.0
  0
ARC
  5
88A7
330
747D
100
AcDbEntity
  8
0
100
AcDbCircle
 10
3680.136214331804
 20
223.2088158088008
 30
0.0
 40
41.46378893304792
100
AcDbArc
 50
141.6476737862061
 51
263.3523262137979
  0
ARC
  5
88A8
330
747D
100
AcDbEntity
  8
0
100
AcDbCircle
 10
3680.136214331804
 20
223.2088158088008
 30
0.0
 40
43.8637889330479
100
AcDbArc
 50
138.1364954470877
 51
266.8635045529164
  0
ARC
  5
88A9
330
747D
100
AcDbEntity
  8
0
100
AcDbCircle
 10
3680.136214331804
 20
223.2088158088008
 30
0.0
 40
35.4637889330479
100
AcDbArc
 50
142.7788203119019
 51
262.2211796880995
  0
ARC
  5
88AA
330
747D
100
AcDbEntity
  8
0
100
AcDbCircle
 10
3680.136214331804
 20
223.2088158088008
 30
0.0
 40
33.0637889330479
100
AcDbArc
 50
139.1625874111294
 51
265.8374125888726
  0
HATCH
  5
88AB
330
747D
100
AcDbEntity
  8
0
100
AcDbHatch
 10
0.0
 20
0.0
 30
0.0
210
0.0
220
0.0
230
1.0
  2
SOLID
 70
     1
 71
     0
 91
        6
 92
        7
 72
     1
 73
     1
 93
        4
 10
3650.863349880539
 20
255.8757928097576
 42
0.0
 10
3658.515314664834
 20
248.2238280254664
 42
-0.3722683533228753
 10
3701.757113998766
 20
248.2238280254664
 42
0.0
 10
3709.40907878306
 20
255.8757928097594
 42
0.3824979940290045
 97
        0
 92
       22
 72
     1
 73
     1
 93
        4
 10
3705.864308023094
 20
255.7251345994778
 42
0.0
 10
3701.588030276408
 20
251.448856852795
 42
0.3367429548951066
 10
3658.684398387205
 20
251.4488568527969
 42
0.0
 10
3654.40812064052
 20
255.7251345994763
 42
-0.347770427523089
 97
        0
 92
        7
 72
     1
 73
     1
 93
        4
 10
3705.151226548458
 20
244.8297154757716
 42
-0.6168583269099046
 10
3682.536214331801
 20
190.2322462690618
 42
0.0
 10
3682.536214331801
 20
179.4107338923163
 42
0.6292889159379735
 10
3712.803191332769
 20
252.4816802600628
 42
0.0
 97
        0
 92
       22
 72
     1
 73
     1
 93
        4
 10
3712.65253312248
 20
248.9369095000864
 42
-0.5873104908889239
 10
3684.936214331797
 20
182.0237967765786
 42
0.0
 10
3684.936214331797
 20
188.071366762408
 42
0.5741105922167471
 10
3708.376255375795
 20
244.6606317534053
 42
0.0
 97
        0
 92
        7
 72
     1
 73
     1
 93
        4
 10
3647.469237330846
 20
252.4816802600628
 42
0.6292889159379591
 10
3677.736214331813
 20
179.4107338923163
 42
0.0
 10
3677.736214331813
 20
190.2322462690618
 42
-0.6168583269099637
 10
3655.121202115139
 20
244.8297154757716
 42
0.0
 97
        0
 92
       22
 72
     1
 73
     1
 93
        4
 10
3651.896173287805
 20
244.6606317534053
 42
0.5741105922167496
 10
3675.336214331805
 20
188.071366762408
 42
0.0
 10
3675.336214331805
 20
182.0237967765786
 42
-0.5873104908889168
 10
3647.619895541135
 20
248.9369095000864
 42
0.0
 97
        0
 75
     0
 76
     1
 47
0.0143554168026844
 98
        6
 10
3699.348496783986
 20
260.8853257705129
 10
3699.348496783986
 20
260.8853257705129
 10
3708.313957346875
 20
246.9318614530628
 10
3708.313957346875
 20
246.9318614530628
 10
3652.969453356035
 20
246.4150661606038
 10
3652.969453356035
 20
246.4150661606038
  0
TEXT
  5
88AC
330
747D
100
AcDbEntity
  8
0
100
AcDbText
 10
3766.408313412449
 20
206.71887241068
 30
0.0
 40
24.0
  1
三和コンクリート工業株式会社
  7
SANWA
100
AcDbText
  0
LINE
  5
88AD
330
747D
100
AcDbEntity
  8
0
100
AcDbLine
 10
3677.736214331808
 20
179.4107338923163
 30
0.0
 11
3677.736214331808
 21
190.2322462690618
 31
0.0
  0
LINE
  5
88AE
330
747D
100
AcDbEntity
  8
0
100
AcDbLine
 10
3682.536214331804
 20
179.4107338923163
 30
0.0
 11
3682.536214331804
 21
190.2322462690618
 31
0.0
  0
LINE
  5
88AF
330
747D
100
AcDbEntity
  8
0
100
AcDbLine
 10
3684.9362143318
 20
182.0237967765786
 30
0.0
 11
3684.9362143318
 21
188.071366762408
 31
0.0
  0
LINE
  5
88B0
330
747D
100
AcDbEntity
  8
0
100
AcDbLine
 10
3675.336214331809
 20
182.0237967765786
 30
0.0
 11
3675.336214331809
 21
188.071366762408
 31
0.0
  0
TEXT
  5
88B1
330
747D
100
AcDbEntity
  8
0
 48
2.0
100
AcDbText
 10
3515.973620720816
 20
218.001897530876
 30
0.0
 40
24.0
  1
中
  7
SANWA
100
AcDbText
  0
TEXT
  5
88B2
330
747D
100
AcDbEntity
  8
0
 48
2.0
100
AcDbText
 10
3515.409250158043
 20
184.0310864446442
 30
0.0
 40
24.0
  1
川
  7
SANWA
100
AcDbText
  0
TEXT
  5
88B3
330
747D
100
AcDbEntity
  8
0
 48
2.0
100
AcDbText
 10
3424.24975579649
 20
80.91869382887693
 30
0.0
 40
24.0
  1
大
  7
SANWA
100
AcDbText
  0
TEXT
  5
88B4
330
747D
100
AcDbEntity
  8
0
 48
2.0
100
AcDbText
 10
3423.68538523373
 20
46.94788274264509
 30
0.0
 40
24.0
  1
嶋
  7
SANWA
100
AcDbText
  0
HATCH
  5
88B5
330
747D
100
AcDbEntity
  8
0
100
AcDbHatch
 10
0.0
 20
0.0
 30
0.0
210
0.0
220
0.0
230
1.0
  2
SOLID
 70
     1
 71
     0
 91
        4
 92
        7
 72
     1
 73
     1
 93
        2
 10
3580.51704123715
 20
210.0000000000025
 42
1.0
 10
3484.546788550069
 20
210.0000000000025
 42
1.0
 97
        0
 92
       22
 72
     1
 73
     1
 93
        2
 10
3578.117041237158
 20
210.0000000000025
 42
-1.0
 10
3486.946788550063
 20
210.0000000000025
 42
-1.0
 97
        0
 92
      136
 93
        4
 72
     1
 10
3507.985049292256
 20
206.0361832451618
 11
3559.070763577974
 21
206.0361832451618
 72
     1
 10
3559.070763577954
 20
206.0361832451618
 11
3559.070763577954
 21
253.9676118165904
 72
     1
 10
3559.070763577954
 20
253.9676118165904
 11
3507.985049292235
 21
253.9676118165904
 72
     1
 10
3507.985049292256
 20
253.9676118165904
 11
3507.985049292256
 21
206.0361832451618
 97
        0
 92
      136
 93
        4
 72
     1
 10
3507.900678729479
 20
173.6425150160728
 11
3558.026393015191
 21
173.6425150160728
 72
     1
 10
3558.026393015199
 20
173.6425150160728
 11
3558.026393015199
 21
218.6939435875014
 72
     1
 10
3558.026393015199
 20
218.6939435875014
 11
3507.900678729486
 21
218.6939435875014
 72
     1
 10
3507.900678729479
 20
218.6939435875014
 11
3507.900678729479
 21
173.6425150160728
 97
        0
 75
     0
 76
     1
 47
0.0602706122334892
 98
        2
 10
3555.522200759922
 20
251.2492511007806
 10
3555.522200759922
 20
251.2492511007806
  0
CIRCLE
  5
88B6
330
747D
100
AcDbEntity
  8
0
100
AcDbCircle
 10
3532.531914893608
 20
210.0000000000025
 30
0.0
 40
45.58512634354756
  0
CIRCLE
  5
88B7
330
747D
100
AcDbEntity
  8
0
100
AcDbCircle
 10
3532.531914893608
 20
210.0000000000025
 30
0.0
 40
47.98512634354756
  0
TEXT
  5
88B8
330
747D
100
AcDbEntity
  8
0
 48
2.0
100
AcDbText
 10
3302.854024831002
 20
79.62983329778467
 30
0.0
 40
24.0
  1
蒔
  7
SANWA
100
AcDbText
  0
CIRCLE
  5
88B9
330
747D
100
AcDbEntity
  8
0
100
AcDbCircle
 10
3320.649581970728
 20
72.91679629800341
 30
0.0
 40
45.58512634354756
  0
TEXT
  5
88BA
330
747D
100
AcDbEntity
  8
0
 48
2.0
100
AcDbText
 10
3302.289654268228
 20
43.08129504455904
 30
0.0
 40
24.0
  1
田
  7
SANWA
100
AcDbText
  0
TEXT
  5
88BB
330
747D
100
AcDbEntity
  8
0
 48
2.0
100
AcDbText
 10
3251.973620720832
 20
213.1710422595031
 30
0.0
 40
24.0
  1
河
  7
SANWA
100
AcDbText
  0
TEXT
  5
88BC
330
747D
100
AcDbEntity
  8
0
 48
2.0
100
AcDbText
 10
3251.409250158044
 20
179.2002311732713
 30
0.0
 40
24.0
  1
口
  7
SANWA
100
AcDbText
  0
CIRCLE
  5
88BD
330
747D
100
AcDbEntity
  8
0
100
AcDbCircle
 10
3320.649581970728
 20
72.91679629800341
 30
0.0
 40
47.98512634354756
  0
HATCH
  5
88BE
330
747D
100
AcDbEntity
  8
0
100
AcDbHatch
 10
0.0
 20
0.0
 30
0.0
210
0.0
220
0.0
230
1.0
  2
SOLID
 70
     1
 71
     0
 91
        4
 92
        7
 72
     1
 73
     1
 93
        2
 10
3368.634708314286
 20
72.91679629800341
 42
1.0
 10
3272.664455627189
 20
72.91679629800341
 42
1.0
 97
        0
 92
       22
 72
     1
 73
     1
 93
        2
 10
3366.234708314292
 20
72.91679629800341
 42
-1.0
 10
3275.064455627183
 20
72.91679629800341
 42
-1.0
 97
        0
 92
      136
 93
        4
 72
     1
 10
3296.47985922651
 20
71.11297954316267
 11
3346.811287797945
 21
71.11297954316267
 72
     1
 10
3346.811287797954
 20
71.11297954316267
 11
3346.811287797954
 21
116.7815509717341
 72
     1
 10
3346.811287797954
 20
116.7815509717341
 11
3296.479859226518
 21
116.7815509717341
 72
     1
 10
3296.47985922651
 20
116.7815509717341
 11
3296.47985922651
 21
71.11297954316267
 97
        0
 92
      136
 93
        4
 72
     1
 10
3295.538345806602
 20
35.39359702835938
 11
3346.624060092321
 21
35.39359702835938
 72
     1
 10
3346.624060092315
 20
35.39359702835938
 11
3346.624060092315
 21
83.32502559978797
 72
     1
 10
3346.624060092315
 20
83.32502559978797
 11
3295.538345806597
 21
83.32502559978797
 72
     1
 10
3295.538345806602
 20
83.32502559978797
 11
3295.538345806602
 21
35.39359702835938
 97
        0
 75
     0
 76
     1
 47
0.0602706122334892
 98
        2
 10
3343.639867837042
 20
114.1660473987815
 10
3343.639867837042
 20
114.1660473987815
  0
HATCH
  5
88BF
330
747D
100
AcDbEntity
  8
0
100
AcDbHatch
 10
0.0
 20
0.0
 30
0.0
210
0.0
220
0.0
230
1.0
  2
SOLID
 70
     1
 71
     0
 91
        4
 92
        7
 72
     1
 73
     1
 93
        2
 10
3488.793176312841
 20
72.91679629800341
 42
1.0
 10
3392.822923625742
 20
72.91679629800341
 42
1.0
 97
        0
 92
       22
 72
     1
 73
     1
 93
        2
 10
3486.393176312846
 20
72.91679629800341
 42
-1.0
 10
3395.222923625736
 20
72.91679629800341
 42
-1.0
 97
        0
 92
      136
 93
        4
 72
     1
 10
3416.638327225063
 20
71.11297954316267
 11
3466.969755796499
 21
71.11297954316267
 72
     1
 10
3466.969755796508
 20
71.11297954316267
 11
3466.969755796508
 21
116.7815509717341
 72
     1
 10
3466.969755796508
 20
116.7815509717341
 11
3416.638327225074
 21
116.7815509717341
 72
     1
 10
3416.638327225063
 20
116.7815509717341
 11
3416.638327225063
 21
71.11297954316267
 97
        0
 92
      136
 93
        4
 72
     1
 10
3415.696813805157
 20
35.39359702835938
 11
3466.782528090876
 21
35.39359702835938
 72
     1
 10
3466.782528090868
 20
35.39359702835938
 11
3466.782528090868
 21
83.32502559978797
 72
     1
 10
3466.782528090868
 20
83.32502559978797
 11
3415.69681380515
 21
83.32502559978797
 72
     1
 10
3415.696813805157
 20
83.32502559978797
 11
3415.696813805157
 21
35.39359702835938
 97
        0
 75
     0
 76
     1
 47
0.0602706122334892
 98
        2
 10
3463.798335835596
 20
114.1660473987815
 10
3463.798335835596
 20
114.1660473987815
  0
CIRCLE
  5
88C0
330
747D
100
AcDbEntity
  8
0
100
AcDbCircle
 10
3440.808049969282
 20
72.91679629800341
 30
0.0
 40
47.98512634354756
  0
CIRCLE
  5
88C1
330
747D
100
AcDbEntity
  8
0
100
AcDbCircle
 10
3440.808049969282
 20
72.91679629800341
 30
0.0
 40
45.58512634354756
  0
LINE
  5
88C2
330
747D
100
AcDbEntity
  8
0
 62
     0
100
AcDbLine
 10
3598.531914893611
 20
498.0000000000041
 30
0.0
 11
4305.0
 21
498.0000000000041
 31
0.0
  0
LINE
  5
88C3
330
747D
100
AcDbEntity
  8
0
 62
     0
100
AcDbLine
 10
3598.531914893611
 20
402.0000000000027
 30
0.0
 11
4305.0
 21
402.0000000000027
 31
0.0
  0
LINE
  5
88C4
330
747D
100
AcDbEntity
  8
0
100
AcDbLine
 10
3202.531914893616
 20
306.0000000000012
 30
0.0
 11
4305.0
 21
306.0000000000012
 31
0.0
  0
LINE
  5
88C5
330
747D
100
AcDbEntity
  8
0
100
AcDbLine
 10
3705.151226548464
 20
244.8297154757714
 30
0.0
 11
3712.803191332763
 21
252.4816802600628
 31
0.0
  0
LINE
  5
88C6
330
747D
100
AcDbEntity
  8
0
100
AcDbLine
 10
3708.3762553758
 20
244.6606317534053
 30
0.0
 11
3712.652533122477
 21
248.9369095000865
 31
0.0
  0
ARC
  5
88C7
330
747D
100
AcDbEntity
  8
0
100
AcDbCircle
 10
3680.136214331804
 20
223.2088158088008
 30
0.0
 40
33.0637889330479
100
AcDbArc
 50
49.16258741113066
 51
130.83741258887
  0
ARC
  5
88C8
330
747D
100
AcDbEntity
  8
0
100
AcDbCircle
 10
3680.136214331804
 20
223.2088158088008
 30
0.0
 40
35.4637889330479
100
AcDbArc
 50
52.77882031190562
 51
127.2211796880944
  0
LINE
  5
88C9
330
747D
100
AcDbEntity
  8
0
100
AcDbLine
 10
3658.515314664827
 20
248.2238280254664
 30
0.0
 11
3650.816888003564
 21
255.9222546867419
 31
0.0
  0
LINE
  5
88CA
330
747D
100
AcDbEntity
  8
0
100
AcDbLine
 10
3655.121202115133
 20
244.8297154757714
 30
0.0
 11
3647.422775453869
 21
252.528142137047
 31
0.0
  0
LINE
  5
88CB
330
747D
100
AcDbEntity
  8
0
100
AcDbLine
 10
3651.896173287809
 20
244.6606317534053
 30
0.0
 11
3647.619895541119
 21
248.9369095000865
 31
0.0
  0
LINE
  5
88CC
330
747D
100
AcDbEntity
  8
0
100
AcDbLine
 10
3658.684398387199
 20
251.4488568527966
 30
0.0
 11
3654.408120640509
 21
255.7251345994763
 31
0.0
  0
TEXT
  5
88CD
330
747D
100
AcDbEntity
  8
0
100
AcDbText
 10
3666.709002834941
 20
230.6320916026407
 30
0.0
 40
18.0
  1
三
  7
SANWA
100
AcDbText
  0
ARC
  5
88CE
330
747D
100
AcDbEntity
  8
0
100
AcDbCircle
 10
3680.136214331804
 20
223.2088158088008
 30
0.0
 40
41.46378893304792
100
AcDbArc
 50
51.64767378620884
 51
128.3523262138006
  0
ARC
  5
88CF
330
747D
100
AcDbEntity
  8
0
100
AcDbCircle
 10
3680.136214331804
 20
223.2088158088008
 30
0.0
 40
43.8637889330479
100
AcDbArc
 50
48.13649544708379
 51
131.8635045529163
  0
LINE
  5
88D0
330
747D
100
AcDbEntity
  8
0
100
AcDbLine
 10
3701.757113998769
 20
248.2238280254664
 30
0.0
 11
3709.409078783054
 21
255.8757928097593
 31
0.0
  0
LINE
  5
88D1
330
747D
100
AcDbEntity
  8
0
100
AcDbLine
 10
3701.588030276411
 20
251.4488568527966
 30
0.0
 11
3705.864308023087
 21
255.7251345994778
 31
0.0
  0
TEXT
  5
88D2
330
747D
100
AcDbEntity
  8
0
 48
2.0
100
AcDbText
 10
3608.833038597698
 20
520.9962632445932
 30
0.0
 40
16.79999999999999
  1
名
  7
SANWA
100
AcDbText
  0
LINE
  5
88D3
330
747D
100
AcDbEntity
  8
0
 62
     0
100
AcDbLine
 10
3202.531914893616
 20
546.0000000000031
 30
0.0
 11
3598.531914893611
 21
546.0000000000031
 31
0.0
  0
LINE
  5
88D4
330
747D
100
AcDbEntity
  8
0
 62
     0
100
AcDbLine
 10
3202.531914893616
 20
546.0000000000031
 30
0.0
 11
3598.531914893611
 21
546.0000000000031
 31
0.0
  0
TEXT
  5
88D6
330
747D
100
AcDbEntity
  8
0
 48
2.0
100
AcDbText
 10
3608.525134886859
 20
443.4326160008049
 30
0.0
 40
16.79999999999999
  1
び
  7
SANWA
100
AcDbText
  0
TEXT
  5
88D7
330
747D
100
AcDbEntity
  8
0
 48
2.0
100
AcDbText
 10
3608.865365864922
 20
419.9263485547304
 30
0.0
 40
16.79999999999999
  1
名
  7
SANWA
100
AcDbText
  0
TEXT
  5
88D8
330
747D
100
AcDbEntity
  8
0
 48
2.0
100
AcDbText
 10
3609.288067929337
 20
360.6846153128758
 30
0.0
 40
16.79999999999999
  1
規
  7
SANWA
100
AcDbText
  0
TEXT
  5
88D9
330
747D
100
AcDbEntity
  8
0
 48
2.0
100
AcDbText
 10
3609.288067929337
 20
324.9410917409396
 30
0.0
 40
16.79999999999999
  1
格
  7
SANWA
100
AcDbText
  0
TEXT
  5
88DA
330
747D
100
AcDbEntity
  8
0
 48
2.0
100
AcDbText
 10
3498.749396044367
 20
277.2513790084826
 30
0.0
 40
24.0
  1
製図
  7
SANWA
100
AcDbText
  0
LINE
  5
88DB
330
747D
100
AcDbEntity
  8
0
100
AcDbLine
 10
3202.531914893616
 20
402.0000000000027
 30
0.0
 11
3202.531914893616
 21
436.0565675878984
 31
0.0
  0
LINE
  5
88DC
330
747D
100
AcDbEntity
  8
0
100
AcDbLine
 10
3202.531914893616
 20
342.0000000000026
 30
0.0
 11
3202.531914893616
 21
378.0000000000022
 31
0.0
  0
TEXT
  5
88DD
330
747D
100
AcDbEntity
  8
0
 48
2.0
100
AcDbText
 10
3231.216179933126
 20
275.7717951156461
 30
0.0
 40
24.0
  1
検図
  7
SANWA
100
AcDbText
  0
LINE
  5
88DE
330
747D
100
AcDbEntity
  8
0
100
AcDbLine
 10
3202.531914893616
 20
342.0000000000026
 30
0.0
 11
3202.531914893616
 21
306.0000000000012
 31
0.0
  0
TEXT
  5
88DF
330
747D
100
AcDbEntity
  8
0
 48
2.0
100
AcDbText
 10
3234.749396044362
 20
313.2513790084821
 30
0.0
 40
24.0
  1
製図
  7
SANWA
100
AcDbText
  0
LINE
  5
88E0
330
747D
100
AcDbEntity
  8
0
100
AcDbLine
 10
3202.531914893616
 20
378.0000000000022
 30
0.0
 11
3202.531914893616
 21
299.9351497097658
 31
0.0
  0
LINE
  5
88E1
330
747D
100
AcDbEntity
  8
0
 62
     0
100
AcDbLine
 10
3202.531914893616
 20
474.0000000000036
 30
0.0
 11
3598.531914893611
 21
474.0000000000036
 31
0.0
  0
LINE
  5
88E2
330
747D
100
AcDbEntity
  8
0
 62
     0
100
AcDbLine
 10
3202.531914893616
 20
426.0000000000031
 30
0.0
 11
3598.531914893611
 21
426.0000000000031
 31
0.0
  0
TEXT
  5
88E3
330
747D
100
AcDbEntity
  8
0
 48
2.0
100
AcDbText
 10
3326.458873159408
 20
434.3839146702152
 30
0.0
 40
24.0
  1
縮    尺
  7
SANWA
100
AcDbText
  0
TEXT
  5
88E4
330
747D
100
AcDbEntity
  8
0
 48
2.0
100
AcDbText
 10
3342.663150318294
 20
378.5853012973511
 30
0.0
 40
24.0
  1
1 : 15
  7
SANWA
100
AcDbText
  0
LINE
  5
88E5
330
747D
100
AcDbEntity
  8
0
 62
     0
100
AcDbLine
 10
3202.531914893616
 20
342.0000000000026
 30
0.0
 11
3598.531914893611
 21
342.0000000000026
 31
0.0
  0
TEXT
  5
88E6
330
747D
100
AcDbEntity
  8
0
 48
2.0
100
AcDbText
 10
3369.075985825584
 20
277.1357177512963
 30
0.0
 40
24.0
  1
設計
  7
SANWA
100
AcDbText
  0
LINE
  5
88E7
330
747D
100
AcDbEntity
  8
0
 62
     0
100
AcDbLine
 10
3202.531914893616
 20
270.0000000000018
 30
0.0
 11
3598.531914893611
 21
270.0000000000018
 31
0.0
  0
TEXT
  5
88E8
330
747D
100
AcDbEntity
  8
0
 48
2.0
100
AcDbText
 10
3388.972302949391
 20
313.2513790084821
 30
0.0
 40
24.0
  1
2006. 1.20
  7
SANWA
100
AcDbText
  0
LINE
  5
88E9
330
747D
100
AcDbEntity
  8
0
 62
     0
100
AcDbLine
 10
3202.531914893616
 20
522.0000000000026
 30
0.0
 11
3202.531914893616
 21
378.0000000000022
 31
0.0
  0
LINE
  5
88EA
330
747D
100
AcDbEntity
  8
0
100
AcDbLine
 10
3202.531914893616
 20
436.0565675878984
 30
0.0
 11
3202.531914893616
 21
529.2701469420904
 31
0.0
  0
TEXT
  5
88EB
330
747D
100
AcDbEntity
  8
0
 48
2.0
100
AcDbText
 10
3608.763425308412
 20
466.4348193000683
 30
0.0
 40
16.79999999999999
  1
呼
  7
SANWA
100
AcDbText
  0
TEXT
  5
88EC
330
747D
100
AcDbEntity
  8
0
100
AcDbText
 10
3852.88595744681
 20
534.0000000000031
 30
0.0
 40
24.0
  1
エコノミー側溝
  7
SANWA
 72
     4
 11
3975.76595744681
 21
546.0000000000031
 31
0.0
100
AcDbText
  0
TEXT
  5
88ED
330
747D
100
AcDbEntity
  8
0
100
AcDbText
 10
3905.548814589666
 20
436.9028571428605
 30
0.0
 40
24.0
  1
Ｈタイプ
  7
SANWA
 72
     4
 11
3975.76595744681
 21
450.0000000000033
 31
0.0
100
AcDbText
  0
TEXT
  5
88EE
330
747D
100
AcDbEntity
  8
0
100
AcDbText
 10
3852.88595744681
 20
342.2742857142893
 30
0.0
 40
24.0
  1
250×300×1998
  7
SANWA
 72
     4
 11
3975.76595744681
 21
354.0000000000036
 31
0.0
100
AcDbText
  0
LINE
  5
88EF
330
747D
100
AcDbEntity
  8
0
100
AcDbLine
 10
4455.0
 20
150.0
 30
0.0
 11
4455.0
 21
0.0
 31
0.0
  0
LINE
  5
88F0
330
747D
100
AcDbEntity
  8
0
 62
     0
100
AcDbLine
 10
3202.531914893616
 20
594.0000000000036
 30
0.0
 11
4305.0
 21
594.0000000000036
 31
0.0
  0
LINE
  5
88F1
330
747D
100
AcDbEntity
  8
0
100
AcDbLine
 10
3598.531914893611
 20
594.0000000000036
 30
0.0
 11
3621.277272305447
 21
594.0000000000036
 31
0.0
  0
LINE
  5
88F2
330
747D
100
AcDbEntity
  8
0
100
AcDbLine
 10
4305.0
 20
3150.0
 30
0.0
 11
4455.0
 21
3150.0
 31
0.0
  0
TEXT
  5
88F5
330
747D
100
AcDbEntity
  8
0
100
AcDbText
 10
3083.762586563029
 20
2726.694704707974
 30
0.0
 40
36.0
  1
W=295㎏
  7
SANWA
 72
     4
 11
3175.922586563029
 21
2743.76899042226
 31
0.0
100
AcDbText
  0
LINE
  5
88F6
330
747D
100
AcDbEntity
  8
0
100
AcDbLine
 10
4455.0
 20
3150.0
 30
0.0
 11
4455.0
 21
3000.0
 31
0.0
  0
LINE
  5
88FB
330
747D
100
AcDbEntity
  8
0
 48
20.0
100
AcDbLine
 10
1008.578219800759
 20
1730.942454180445
 30
0.0
 11
1013.078219800759
 21
1735.442454180445
 31
0.0
  0
LINE
  5
88FC
330
747D
100
AcDbEntity
  8
0
 48
20.0
100
AcDbLine
 10
1398.57821980076
 20
1730.942454180445
 30
0.0
 11
1394.07821980076
 21
1735.442454180445
 31
0.0
  0
DIMENSION
  5
88FD
330
747D
100
AcDbEntity
  8
寸法引出
 48
20.0
100
AcDbDimension
  2
*D1
 10
1048.578219800759
 20
1799.413734943689
 30
0.0
 11
981.7710332749994
 21
1829.58801450195
 31
0.0
 70
   160
 71
     5
 42
39.99999999999988
  3
SANWA
100
AcDbAlignedDimension
 13
1008.578219800759
 23
1730.942454180445
 33
0.0
 14
1048.578219800759
 24
1735.442454180445
 34
0.0
100
AcDbRotatedDimension
1001
ACAD
1000
DSTYLE
1002
{
1070
    40
1040
15.0
1070
    41
1040
1.5
1070
    43
1040
5.0
1070
    44
1040
0.5
1070
   140
1040
2.0
1070
   147
1040
1.0
1070
   176
1070
   256
1070
   177
1070
   256
1070
   178
1070
   256
1070
   279
1070
     2
1002
}
  0
DIMENSION
  5
8917
330
747D
100
AcDbEntity
  8
寸法引出
 48
20.0
100
AcDbDimension
  2
*D2
 10
1051.078219800759
 20
1799.413734943689
 30
0.0
 11
1048.347113990905
 21
1863.630825365507
 31
0.0
 70
   160
 71
     5
 42
2.5
  3
SANWA
100
AcDbAlignedDimension
 13
1048.578219800759
 23
1735.442454180445
 33
0.0
 14
1051.078219800759
 24
1655.442454180445
 34
0.0
100
AcDbRotatedDimension
1001
ACAD
1000
DSTYLE
1002
{
1070
    40
1040
15.0
1070
    41
1040
1.5
1070
    43
1040
5.0
1070
    44
1040
0.5
1070
   140
1040
2.0
1070
   147
1040
1.0
1070
   176
1070
   256
1070
   177
1070
   256
1070
   178
1070
   256
1070
   279
1070
     2
1002
}
  0
DIMENSION
  5
8926
330
747D
100
AcDbEntity
  8
寸法引出
 48
20.0
100
AcDbDimension
  2
*D3
 10
1078.578219800759
 20
1799.413734943689
 30
0.0
 11
1063.829908211369
 21
1828.040622599808
 31
0.0
 70
   160
 71
     5
 42
27.5
  3
SANWA
100
AcDbAlignedDimension
 13
1051.078219800759
 23
1655.442454180445
 33
0.0
 14
1078.578219800759
 24
1655.442454180445
 34
0.0
100
AcDbRotatedDimension
1001
ACAD
1000
DSTYLE
1002
{
1070
    40
1040
15.0
1070
    41
1040
1.5
1070
    43
1040
5.0
1070
    44
1040
0.5
1070
   140
1040
2.0
1070
   147
1040
1.0
1070
   176
1070
   256
1070
   177
1070
   256
1070
   178
1070
   256
1070
   279
1070
     2
1002
}
  0
DIMENSION
  5
898D
330
747D
100
AcDbEntity
  8
寸法引出
 48
20.0
100
AcDbDimension
  2
*D4
 10
1328.578219800759
 20
1799.413734943689
 30
0.0
 11
1203.578219800759
 21
1829.413734943689
 31
0.0
 70
    32
 71
     5
 42
250.0
  3
SANWA
100
AcDbAlignedDimension
 13
1078.578219800759
 23
1655.442454180445
 33
0.0
 14
1328.578219800759
 24
1655.442454180445
 34
0.0
100
AcDbRotatedDimension
1001
ACAD
1000
DSTYLE
1002
{
1070
    40
1040
15.0
1070
    41
1040
1.5
1070
    43
1040
5.0
1070
    44
1040
0.5
1070
   140
1040
2.0
1070
   147
1040
1.0
1070
   176
1070
   256
1070
   177
1070
   256
1070
   178
1070
   256
1070
   279
1070
     2
1002
}
  0
DIMENSION
  5
899A
330
747D
100
AcDbEntity
  8
寸法引出
 48
20.0
100
AcDbDimension
  2
*D5
 10
1398.57821980076
 20
1799.413734943689
 30
0.0
 11
1363.578219800759
 21
1829.413734943689
 31
0.0
 70
    32
 71
     5
 42
70.00000000000091
  3
SANWA
100
AcDbAlignedDimension
 13
1328.578219800759
 23
1655.442454180445
 33
0.0
 14
1398.57821980076
 24
1730.942454180444
 34
0.0
100
AcDbRotatedDimension
1001
ACAD
1000
DSTYLE
1002
{
1070
    40
1040
15.0
1070
    41
1040
1.5
1070
    43
1040
5.0
1070
    44
1040
0.5
1070
   140
1040
2.0
1070
   147
1040
1.0
1070
   176
1070
   256
1070
   177
1070
   256
1070
   178
1070
   256
1070
   279
1070
     2
1002
}
  0
DIMENSION
  5
89A9
330
747D
100
AcDbEntity
  8
寸法引出
 48
20.0
100
AcDbDimension
  2
*D6
 10
1398.57821980076
 20
1893.449066632423
 30
0.0
 11
1203.578219800759
 21
1923.449066632423
 31
0.0
 70
    32
 71
     5
 42
390.0000000000007
  3
SANWA
100
AcDbAlignedDimension
 13
1008.578219800759
 23
1730.942454180445
 33
0.0
 14
1398.57821980076
 24
1730.942454180444
 34
0.0
100
AcDbRotatedDimension
1001
ACAD
1000
DSTYLE
1002
{
1070
    40
1040
15.0
1070
    41
1040
1.5
1070
    43
1040
5.0
1070
    44
1040
0.5
1070
   140
1040
2.0
1070
   147
1040
1.0
1070
   176
1070
   256
1070
   177
1070
   256
1070
   178
1070
   256
1070
   279
1070
     2
1002
}
  0
MTEXT
  5
8A79
330
747D
100
AcDbEntity
  8
寸法引出
 48
20.0
100
AcDbMText
 10
1197.568772500182
 20
1486.712486581835
 30
0.0
 40
30.0
 41
0.0
 71
     5
 72
     1
  1
50r
  7
SANWA
 73
     1
 44
1.0
  0
LEADER
  5
8A7B
330
747D
100
AcDbEntity
  8
寸法引出
 48
20.0
100
AcDbLeader
  3
SANWA
 76
     3
 10
1100.931563143838
 20
1377.685030289608
 30
0.0
 10
1157.794511310777
 20
1465.221251878937
 30
0.0
 10
1228.490272590493
 20
1465.221251878937
 30
0.0
1001
ACAD
1000
DSTYLE
1002
{
1070
    77
1070
     0
1070
    40
1040
15.0
1070
    41
1040
1.5
1070
    43
1040
5.0
1070
    44
1040
0.5
1070
   140
1040
2.0
1070
   147
1040
1.0
1070
   176
1070
   256
1070
   177
1070
   256
1070
   178
1070
   256
1070
   279
1070
     2
1002
}
  0
MTEXT
  5
8A7C
330
747D
100
AcDbEntity
  8
寸法引出
 48
20.0
100
AcDbMText
 10
1238.821923064175
 20
1439.574295547801
 30
0.0
 40
30.0
 41
0.0
 71
     5
 72
     1
  1
450r
  7
SANWA
 73
     1
 44
1.0
  0
LEADER
  5
8A7D
330
747D
100
AcDbEntity
  8
寸法引出
 48
20.0
100
AcDbLeader
  3
SANWA
 76
     3
 10
1145.311483669757
 20
1359.230635129627
 30
0.0
 10
1186.385332157544
 20
1415.970801821556
 30
0.0
 10
1281.690042671019
 20
1415.970801821556
 30
0.0
1001
ACAD
1000
DSTYLE
1002
{
1070
    77
1070
     0
1070
    40
1040
15.0
1070
    41
1040
1.5
1070
    43
1040
5.0
1070
    44
1040
0.5
1070
   140
1040
2.0
1070
   147
1040
1.0
1070
   176
1070
   256
1070
   177
1070
   256
1070
   178
1070
   256
1070
   279
1070
     2
1002
}
  0
MTEXT
  5
8AA9
330
747D
100
AcDbEntity
  8
寸法引出
 48
20.0
100
AcDbMText
 10
1516.545984399466
 20
1819.916963388099
 30
0.0
 40
30.0
 41
0.0
 71
     5
 72
     1
  1
4.5C
  7
SANWA
 73
     1
 44
1.0
  0
LEADER
  5
8AAB
330
747D
100
AcDbEntity
  8
寸法引出
 48
20.0
100
AcDbLeader
  3
SANWA
 76
     3
 10
1396.328219800759
 20
1733.192454180445
 30
0.0
 10
1467.579708870478
 20
1799.563367252619
 30
0.0
 10
1561.703492695927
 20
1799.563367252619
 30
0.0
1001
ACAD
1000
DSTYLE
1002
{
1070
    77
1070
     0
1070
    40
1040
15.0
1070
    41
1040
1.5
1070
    43
1040
5.0
1070
    44
1040
0.5
1070
   140
1040
2.0
1070
   147
1040
1.0
1070
   176
1070
   256
1070
   177
1070
   256
1070
   178
1070
   256
1070
   279
1070
     2
1002
}
  0
LINE
  5
8C77
330
747D
100
AcDbEntity
  8
0
  6
HIDDEN2
 48
15.0
100
AcDbLine
 10
1872.493333821983
 20
1655.442454180445
 30
0.0
 11
3870.493333821984
 21
1655.442454180445
 31
0.0
  0
LINE
  5
8C78
330
747D
100
AcDbEntity
  8
0
  6
HIDDEN2
 48
15.0
100
AcDbLine
 10
1872.493333821983
 20
1355.442454180445
 30
0.0
 11
3870.493333821984
 21
1355.442454180445
 31
0.0
  0
LINE
  5
8C79
330
747D
100
AcDbEntity
  8
0
 48
15.0
100
AcDbLine
 10
1872.493333821983
 20
1730.942454180445
 30
0.0
 11
3870.493333821984
 21
1730.942454180445
 31
0.0
  0
LINE
  5
8C7A
330
747D
100
AcDbEntity
  8
0
 48
15.0
100
AcDbLine
 10
1872.493333821983
 20
1320.442454180445
 30
0.0
 11
3870.493333821984
 21
1320.442454180445
 31
0.0
  0
LINE
  5
8C7C
330
747D
100
AcDbEntity
  8
0
 48
20.0
100
AcDbLine
 10
2821.493333821984
 20
1427.442454180445
 30
0.0
 11
2821.493333821985
 21
1527.442454180445
 31
0.0
  0
LINE
  5
8C7D
330
747D
100
AcDbEntity
  8
0
 48
20.0
100
AcDbLine
 10
2921.493333821984
 20
1427.442454180445
 30
0.0
 11
2921.493333821984
 21
1527.442454180445
 31
0.0
  0
LINE
  5
8C80
330
747D
100
AcDbEntity
  8
0
 48
15.0
100
AcDbLine
 10
2821.493333821985
 20
1527.442454180445
 30
0.0
 11
2921.493333821984
 21
1527.442454180445
 31
0.0
  0
LINE
  5
8C81
330
747D
100
AcDbEntity
  8
0
 48
15.0
100
AcDbLine
 10
2831.493333821983
 20
1517.442454180445
 30
0.0
 11
2911.493333821982
 21
1517.442454180445
 31
0.0
  0
LINE
  5
8C82
330
747D
100
AcDbEntity
  8
0
 48
15.0
100
AcDbLine
 10
2821.493333821984
 20
1427.442454180445
 30
0.0
 11
2921.493333821984
 21
1427.442454180445
 31
0.0
  0
LINE
  5
8C83
330
747D
100
AcDbEntity
  8
0
 48
20.0
100
AcDbLine
 10
2821.493333821984
 20
1527.442454180445
 30
0.0
 11
2831.493333821983
 21
1517.442454180445
 31
0.0
  0
LINE
  5
8C84
330
747D
100
AcDbEntity
  8
0
 48
20.0
100
AcDbLine
 10
2831.493333821983
 20
1517.442454180445
 30
0.0
 11
2821.493333821984
 21
1427.442454180445
 31
0.0
  0
LINE
  5
8C85
330
747D
100
AcDbEntity
  8
0
 48
20.0
100
AcDbLine
 10
2921.493333821984
 20
1527.442454180445
 30
0.0
 11
2911.493333821983
 21
1517.442454180445
 31
0.0
  0
LINE
  5
8C86
330
747D
100
AcDbEntity
  8
0
 48
20.0
100
AcDbLine
 10
2911.493333821983
 20
1517.442454180445
 30
0.0
 11
2921.493333821984
 21
1427.442454180445
 31
0.0
  0
CIRCLE
  5
8C89
330
747D
100
AcDbEntity
  8
0
 48
20.0
100
AcDbCircle
 10
2871.493333821983
 20
1477.442454180445
 30
0.0
 40
10.0
  0
DIMENSION
  5
8CB4
330
747D
100
AcDbEntity
  8
寸法引出
 48
20.0
100
AcDbDimension
  2
*D7
 10
2831.493333821983
 20
1552.455367075147
 30
0.0
 11
2799.903216517166
 21
1582.684049009396
 31
0.0
 70
   160
 71
     5
 42
9.999999999998181
  3
SANWA
100
AcDbAlignedDimension
 13
2821.493333821985
 23
1527.442454180445
 33
0.0
 14
2831.493333821983
 24
1517.442454180445
 34
0.0
100
AcDbRotatedDimension
1001
ACAD
1000
DSTYLE
1002
{
1070
    40
1040
15.0
1070
    41
1040
1.5
1070
    43
1040
5.0
1070
    44
1040
0.5
1070
   140
1040
2.0
1070
   147
1040
1.0
1070
   176
1070
   256
1070
   177
1070
   256
1070
   178
1070
   256
1070
   279
1070
     2
1002
}
  0
DIMENSION
  5
8CC3
330
747D
100
AcDbEntity
  8
寸法引出
 48
20.0
100
AcDbDimension
  2
*D8
 10
2911.493333821982
 20
1552.455367075147
 30
0.0
 11
2871.493333821982
 21
1582.455367075147
 31
0.0
 70
    32
 71
     5
 42
79.99999999999864
  3
SANWA
100
AcDbAlignedDimension
 13
2831.493333821983
 23
1517.442454180445
 33
0.0
 14
2911.493333821982
 24
1517.442454180445
 34
0.0
100
AcDbRotatedDimension
1001
ACAD
1000
DSTYLE
1002
{
1070
    40
1040
15.0
1070
    41
1040
1.5
1070
    43
1040
5.0
1070
    44
1040
0.5
1070
   140
1040
2.0
1070
   147
1040
1.0
1070
   176
1070
   256
1070
   177
1070
   256
1070
   178
1070
   256
1070
   279
1070
     2
1002
}
  0
DIMENSION
  5
8CD0
330
747D
100
AcDbEntity
  8
寸法引出
 48
20.0
100
AcDbDimension
  2
*D9
 10
2921.493333821984
 20
1552.455367075147
 30
0.0
 11
2940.275740850098
 21
1583.08261600591
 31
0.0
 70
   160
 71
     5
 42
10.00000000000227
  3
SANWA
100
AcDbAlignedDimension
 13
2911.493333821982
 23
1517.442454180445
 33
0.0
 14
2921.493333821984
 24
1527.442454180445
 34
0.0
100
AcDbRotatedDimension
1001
ACAD
1000
DSTYLE
1002
{
1070
    40
1040
15.0
1070
    41
1040
1.5
1070
    43
1040
5.0
1070
    44
1040
0.5
1070
   140
1040
2.0
1070
   147
1040
1.0
1070
   176
1070
   256
1070
   177
1070
   256
1070
   178
1070
   256
1070
   279
1070
     2
1002
}
  0
DIMENSION
  5
8DA3
330
747D
100
AcDbEntity
  8
寸法引出
 48
20.0
100
AcDbDimension
  2
*D10
 10
3870.493333821984
 20
1846.508442181842
 30
0.0
 11
2871.493333821983
 21
1876.508442181842
 31
0.0
 70
    32
 71
     5
 42
1998.0
  3
SANWA
100
AcDbAlignedDimension
 13
1872.493333821983
 23
1735.442454180445
 33
0.0
 14
3870.493333821984
 24
1735.442454180445
 34
0.0
100
AcDbRotatedDimension
1001
ACAD
1000
DSTYLE
1002
{
1070
    40
1040
15.0
1070
    41
1040
1.5
1070
    43
1040
5.0
1070
    44
1040
0.5
1070
   140
1040
2.0
1070
   147
1040
1.0
1070
   176
1070
   256
1070
   177
1070
   256
1070
   178
1070
   256
1070
   279
1070
     2
1002
}
  0
MTEXT
  5
8DCF
330
747D
100
AcDbEntity
  8
寸法引出
 48
20.0
100
AcDbMText
 10
3379.652028407618
 20
1261.472385327982
 30
0.0
 40
30.0
 41
0.0
 71
     5
 72
     1
  1
吊り用ｲﾝﾊﾞｰﾄﾊﾝｶﾞｰ（20×50-55）
  7
SANWA
 73
     1
 44
1.0
  0
LEADER
  5
8DD0
330
747D
100
AcDbEntity
  8
寸法引出
 48
20.0
100
AcDbLeader
  3
SANWA
 76
     3
 10
2871.493333821983
 20
1467.442454180444
 30
0.0
 10
3049.553653155719
 20
1235.148784991193
 30
0.0
 10
3697.608700464916
 20
1235.148784991193
 30
0.0
1001
ACAD
1000
DSTYLE
1002
{
1070
    77
1070
     0
1070
    40
1040
15.0
1070
    41
1040
1.5
1070
    43
1040
5.0
1070
    44
1040
0.5
1070
   140
1040
2.0
1070
   147
1040
1.0
1070
   176
1070
   256
1070
   177
1070
   256
1070
   178
1070
   256
1070
   279
1070
     2
1002
}
  0
MTEXT
  5
8DD1
330
747D
100
AcDbEntity
  8
寸法引出
 48
20.0
100
AcDbMText
 10
1476.403417298386
 20
1248.121855966149
 30
0.0
 40
30.0
 41
0.0
 71
     5
 72
     1
  1
20C
  7
SANWA
 73
     1
 44
1.0
  0
LEADER
  5
8DD2
330
747D
100
AcDbEntity
  8
寸法引出
 48
20.0
100
AcDbLeader
  3
SANWA
 76
     3
 10
1353.178219800761
 20
1310.442454180445
 30
0.0
 10
1423.743434082574
 20
1226.914386530785
 30
0.0
 10
1513.921219461316
 20
1226.914386530785
 30
0.0
1001
ACAD
1000
DSTYLE
1002
{
1070
    77
1070
     0
1070
    40
1040
15.0
1070
    41
1040
1.5
1070
    43
1040
5.0
1070
    44
1040
0.5
1070
   140
1040
2.0
1070
   147
1040
1.0
1070
   176
1070
   256
1070
   177
1070
   256
1070
   178
1070
   256
1070
   279
1070
     2
1002
}
  0
DIMENSION
  5
9083
330
747D
100
AcDbEntity
  8
寸法引出
 48
20.0
100
AcDbDimension
  2
*D11
 10
1758.607486693144
 20
1300.442454180445
 30
0.0
 11
1728.607486693143
 21
1517.942454180445
 31
0.0
 70
    32
 71
     5
 42
435.0
  3
SANWA
100
AcDbAlignedDimension
 13
1872.493333821983
 23
1735.442454180445
 33
0.0
 14
1872.493333821983
 24
1300.442454180445
 34
0.0
 50
90.0
100
AcDbRotatedDimension
1001
ACAD
1000
DSTYLE
1002
{
1070
    40
1040
15.0
1070
    41
1040
1.5
1070
    43
1040
5.0
1070
    44
1040
0.5
1070
   140
1040
2.0
1070
   147
1040
1.0
1070
   176
1070
   256
1070
   177
1070
   256
1070
   178
1070
   256
1070
   279
1070
     2
1002
}
  0
LINE
  5
91F4
330
747D
100
AcDbEntity
  8
0
 48
20.0
100
AcDbLine
 10
2208.486632061834
 20
451.8739091623646
 30
0.0
 11
2208.486632061834
 21
421.8739091623646
 31
0.0
  0
LINE
  5
91F7
330
747D
100
AcDbEntity
  8
0
 48
20.0
100
AcDbLine
 10
2183.486632061834
 20
346.8739091623646
 30
0.0
 11
2208.486632061834
 21
421.8739091623646
 31
0.0
  0
LINE
  5
91FA
330
747D
100
AcDbEntity
  8
0
 48
20.0
100
AcDbLine
 10
2233.486632061834
 20
326.8739091623646
 30
0.0
 11
2183.486632061834
 21
346.8739091623646
 31
0.0
  0
LINE
  5
91FB
330
747D
100
AcDbEntity
  8
0
 48
20.0
100
AcDbLine
 10
2208.486632061834
 20
451.8739091623646
 30
0.0
 11
2108.486632061834
 21
451.8739091623646
 31
0.0
  0
LINE
  5
91FC
330
747D
100
AcDbEntity
  8
0
 48
20.0
100
AcDbLine
 10
2258.486632061834
 20
451.8739091623646
 30
0.0
 11
2358.486632061834
 21
451.8739091623646
 31
0.0
  0
LINE
  5
91FD
330
747D
100
AcDbEntity
  8
0
 48
20.0
100
AcDbLine
 10
2233.486632061834
 20
326.8739091623646
 30
0.0
 11
2283.486632061834
 21
346.8739091623646
 31
0.0
  0
LINE
  5
91FE
330
747D
100
AcDbEntity
  8
0
 48
20.0
100
AcDbLine
 10
2283.486632061834
 20
346.8739091623646
 30
0.0
 11
2258.486632061834
 21
421.8739091623646
 31
0.0
  0
LINE
  5
91FF
330
747D
100
AcDbEntity
  8
0
 48
20.0
100
AcDbLine
 10
2258.486632061834
 20
451.8739091623646
 30
0.0
 11
2258.486632061834
 21
421.8739091623646
 31
0.0
  0
LINE
  5
9200
330
747D
100
AcDbEntity
  8
0
100
AcDbLine
 10
2068.753135859519
 20
595.0136253279237
 30
0.0
 11
2391.649022268593
 21
595.0136253279237
 31
0.0
  0
TEXT
  5
9201
330
747D
100
AcDbEntity
  8
0
100
AcDbText
 10
2066.954243841499
 20
606.8548758124807
 30
0.0
 40
36.0
  1
目地部詳細図
  7
SANWA
 72
     4
 11
2224.942815270071
 21
625.4720186696236
 31
0.0
100
AcDbText
  0
DIMENSION
  5
9202
330
747D
100
AcDbEntity
  8
寸法引出
 48
20.0
100
AcDbDimension
  2
*D12
 10
2208.486632061834
 20
516.3299438673075
 30
0.0
 11
2220.986632061834
 21
546.3299438673074
 31
0.0
 70
    32
  1
5
 71
     5
 42
25.0
  3
SANWA
100
AcDbAlignedDimension
 13
2233.486632061834
 23
326.8739091623646
 33
0.0
 14
2208.486632061834
 24
451.8739091623646
 34
0.0
100
AcDbRotatedDimension
1001
ACAD
1000
DSTYLE
1002
{
1070
    40
1040
15.0
1070
    41
1040
1.5
1070
    43
1040
5.0
1070
    44
1040
0.5
1070
   140
1040
2.0
1070
   147
1040
1.0
1070
   176
1070
   256
1070
   177
1070
   256
1070
   178
1070
   256
1070
   279
1070
     2
1002
}
  0
DIMENSION
  5
9241
330
747D
100
AcDbEntity
  8
寸法引出
 48
20.0
100
AcDbDimension
  2
*D13
 10
2067.998898564288
 20
421.8739091623647
 30
0.0
 11
2034.924780979257
 21
470.6177133631134
 31
0.0
 70
   160
  1
6
 71
     5
 42
29.99999999999994
  3
SANWA
100
AcDbAlignedDimension
 13
2108.486632061834
 23
451.8739091623646
 33
0.0
 14
2208.486632061834
 24
421.8739091623646
 34
0.0
 50
90.0
100
AcDbRotatedDimension
1001
ACAD
1000
DSTYLE
1002
{
1070
    40
1040
15.0
1070
    41
1040
1.5
1070
    43
1040
5.0
1070
    44
1040
0.5
1070
   140
1040
2.0
1070
   147
1040
1.0
1070
   176
1070
   256
1070
   177
1070
   256
1070
   178
1070
   256
1070
   279
1070
     2
1002
}
  0
DIMENSION
  5
9250
330
747D
100
AcDbEntity
  8
寸法引出
 48
20.0
100
AcDbDimension
  2
*D14
 10
2067.998898564288
 20
346.8739091623647
 30
0.0
 11
2037.998898564288
 21
384.373909162365
 31
0.0
 70
    32
  1
15
 71
     5
 42
75.0
  3
SANWA
100
AcDbAlignedDimension
 13
2208.486632061834
 23
421.8739091623646
 33
0.0
 14
2183.486632061834
 24
346.8739091623646
 34
0.0
 50
90.0
100
AcDbRotatedDimension
1001
ACAD
1000
DSTYLE
1002
{
1070
    40
1040
15.0
1070
    41
1040
1.5
1070
    43
1040
5.0
1070
    44
1040
0.5
1070
   140
1040
2.0
1070
   147
1040
1.0
1070
   176
1070
   256
1070
   177
1070
   256
1070
   178
1070
   256
1070
   279
1070
     2
1002
}
  0
DIMENSION
  5
925F
330
747D
100
AcDbEntity
  8
寸法引出
 48
20.0
100
AcDbDimension
  2
*D15
 10
2067.998898564288
 20
326.8739091623647
 30
0.0
 11
2037.526880556331
 21
310.2468665806245
 31
0.0
 70
   160
  1
4
 71
     5
 42
20.0
  3
SANWA
100
AcDbAlignedDimension
 13
2183.486632061834
 23
346.8739091623646
 33
0.0
 14
2233.486632061834
 24
326.8739091623646
 34
0.0
 50
90.0
100
AcDbRotatedDimension
1001
ACAD
1000
DSTYLE
1002
{
1070
    40
1040
15.0
1070
    41
1040
1.5
1070
    43
1040
5.0
1070
    44
1040
0.5
1070
   140
1040
2.0
1070
   147
1040
1.0
1070
   176
1070
   256
1070
   177
1070
   256
1070
   178
1070
   256
1070
   279
1070
     2
1002
}
  0
DIMENSION
  5
928F
330
747D
100
AcDbEntity
  8
寸法引出
 48
20.0
100
AcDbDimension
  2
*D16
 10
2233.486632061834
 20
257.277105649975
 30
0.0
 11
2208.486632061834
 21
287.2771056499749
 31
0.0
 70
    32
  1
10
 71
     5
 42
50.0
  3
SANWA
100
AcDbAlignedDimension
 13
2183.486632061834
 23
346.8739091623646
 33
0.0
 14
2233.486632061834
 24
326.8739091623646
 34
0.0
100
AcDbRotatedDimension
1001
ACAD
1000
DSTYLE
1002
{
1070
    40
1040
15.0
1070
    41
1040
1.5
1070
    43
1040
5.0
1070
    44
1040
0.5
1070
   140
1040
2.0
1070
   147
1040
1.0
1070
   176
1070
   256
1070
   177
1070
   256
1070
   178
1070
   256
1070
   279
1070
     2
1002
}
  0
MTEXT
  5
92EB
330
747D
100
AcDbEntity
  8
寸法引出
 48
20.0
100
AcDbMText
 10
2356.282737768199
 20
487.1812424162108
 30
0.0
 40
30.0
 41
0.0
 71
     5
 72
     1
  1
内面
  7
SANWA
 73
     1
 44
1.0
  0
DIMENSION
  5
9437
330
747D
100
AcDbEntity
  8
寸法引出
 48
20.0
100
AcDbDimension
  2
*D17
 10
1078.578219800759
 20
1685.007932404496
 30
0.0
 11
1096.119028623847
 21
1712.096397734348
 31
0.0
 70
   160
 71
     5
 42
11.5000000000009
  3
SANWA
100
AcDbAlignedDimension
 13
1067.078219800758
 23
1655.442454180446
 33
0.0
 14
1078.578219800759
 24
1655.442454180445
 34
0.0
100
AcDbRotatedDimension
1001
ACAD
1000
DSTYLE
1002
{
1070
    40
1040
15.0
1070
    41
1040
1.5
1070
    43
1040
5.0
1070
    44
1040
0.5
1070
   140
1040
2.0
1070
   147
1040
1.0
1070
   176
1070
   256
1070
   177
1070
   256
1070
   178
1070
   256
1070
   279
1070
     2
1002
}
  0
DIMENSION
  5
9446
330
747D
100
AcDbEntity
  8
寸法引出
 48
20.0
100
AcDbDimension
  2
*D18
 10
1143.019333576008
 20
1647.442454180446
 30
0.0
 11
1115.538675222744
 21
1628.268583834282
 31
0.0
 70
   160
 71
     5
 42
7.99999999999909
  3
SANWA
100
AcDbAlignedDimension
 13
1067.078219800759
 23
1655.442454180445
 33
0.0
 14
1078.898219800758
 24
1647.442454180446
 34
0.0
 50
90.0
100
AcDbRotatedDimension
1001
ACAD
1000
DSTYLE
1002
{
1070
    40
1040
15.0
1070
    41
1040
1.5
1070
    43
1040
5.0
1070
    44
1040
0.5
1070
   140
1040
2.0
1070
   147
1040
1.0
1070
   176
1070
   256
1070
   177
1070
   256
1070
   178
1070
   256
1070
   279
1070
     2
1002
}
  0
LINE
  5
A0B5
330
747D
100
AcDbEntity
  8
0
 48
20.0
100
AcDbLine
 10
1044.311553134094
 20
1320.442454180444
 30
0.0
 11
1008.578219800759
 21
1655.442454180445
 31
0.0
  0
LINE
  5
A0D4
330
747D
100
AcDbEntity
  8
0
 48
20.0
100
AcDbLine
 10
1067.078219800759
 20
1655.442454180446
 30
0.0
 11
1078.898219800758
 21
1647.442454180446
 31
0.0
  0
LINE
  5
A0D5
330
747D
100
AcDbEntity
  8
0
 48
20.0
100
AcDbLine
 10
1340.078219800761
 20
1655.442454180446
 30
0.0
 11
1328.258219800762
 21
1647.442454180446
 31
0.0
  0
LINE
  5
A0D6
330
747D
100
AcDbEntity
  8
0
 48
15.0
100
AcDbLine
 10
1054.358227794365
 20
1635.442454180446
 30
0.0
 11
1079.378219800759
 21
1635.442454180447
 31
0.0
  0
LINE
  5
A0D7
330
747D
100
AcDbEntity
  8
0
 48
15.0
100
AcDbLine
 10
1352.798211807154
 20
1635.442454180446
 30
0.0
 11
1327.778219800761
 21
1635.442454180446
 31
0.0
  0
LINE
  5
A0D8
330
747D
100
AcDbEntity
  8
0
 48
15.0
100
AcDbLine
 10
1073.373421719224
 20
1635.442454180447
 30
0.0
 11
1082.449140161277
 21
1408.549493129158
 31
0.0
  0
LINE
  5
A0DC
330
747D
100
AcDbEntity
  8
0
 48
15.0
100
AcDbLine
 10
1333.783017882295
 20
1635.442454180446
 30
0.0
 11
1324.707299440244
 21
1408.549493129158
 31
0.0
  0
LINE
  5
A0DD
330
747D
100
AcDbEntity
  8
0
 48
15.0
100
AcDbLine
 10
1058.361426515388
 20
1635.442454180446
 30
0.0
 11
1067.46112578045
 21
1407.949972553925
 31
0.0
  0
LINE
  5
A0E1
330
747D
100
AcDbEntity
  8
0
 48
15.0
100
AcDbLine
 10
1348.795013086131
 20
1635.442454180446
 30
0.0
 11
1339.695313821071
 21
1407.949972553925
 31
0.0
  0
LINE
  5
A0E2
330
747D
100
AcDbEntity
  8
0
 48
15.0
100
AcDbLine
 10
1054.358227794365
 20
1635.442454180446
 30
0.0
 11
1063.464321945562
 21
1407.79010040053
 31
0.0
  0
LINE
  5
A0E6
330
747D
100
AcDbEntity
  8
0
 48
15.0
100
AcDbLine
 10
1352.798211807154
 20
1635.442454180446
 30
0.0
 11
1343.692117655957
 21
1407.79010040053
 31
0.0
  0
DIMENSION
  5
A0FF
330
747D
100
AcDbEntity
  8
寸法引出
 48
20.0
100
AcDbDimension
  2
*D19
 10
922.4843092664883
 20
1655.442454180445
 30
0.0
 11
892.4843092664881
 21
1695.442454180445
 31
0.0
 70
    32
 71
     5
 42
80.0
  3
SANWA
100
AcDbAlignedDimension
 13
1013.078219800759
 23
1735.442454180445
 33
0.0
 14
1008.578219800759
 24
1655.442454180445
 34
0.0
 50
90.0
100
AcDbRotatedDimension
1001
ACAD
1000
DSTYLE
1002
{
1070
    40
1040
15.0
1070
    41
1040
1.5
1070
    43
1040
5.0
1070
    44
1040
0.5
1070
   140
1040
2.0
1070
   147
1040
1.0
1070
   176
1070
   256
1070
   177
1070
   256
1070
   178
1070
   256
1070
   279
1070
     2
1002
}
  0
DIMENSION
  5
A10C
330
747D
100
AcDbEntity
  8
寸法引出
 48
20.0
100
AcDbDimension
  2
*D20
 10
922.4843092664883
 20
1355.442454180445
 30
0.0
 11
892.4843092664881
 21
1505.442454180445
 31
0.0
 70
    32
 71
     5
 42
300.0
  3
SANWA
100
AcDbAlignedDimension
 13
1008.578219800759
 23
1655.442454180445
 33
0.0
 14
1040.57821980076
 24
1355.442454180445
 34
0.0
 50
90.0
100
AcDbRotatedDimension
1001
ACAD
1000
DSTYLE
1002
{
1070
    40
1040
15.0
1070
    41
1040
1.5
1070
    43
1040
5.0
1070
    44
1040
0.5
1070
   140
1040
2.0
1070
   147
1040
1.0
1070
   176
1070
   256
1070
   177
1070
   256
1070
   178
1070
   256
1070
   279
1070
     2
1002
}
  0
DIMENSION
  5
A119
330
747D
100
AcDbEntity
  8
寸法引出
 48
20.0
100
AcDbDimension
  2
*D21
 10
922.4843092664883
 20
1300.442454180445
 30
0.0
 11
892.4843092664881
 21
1327.942454180445
 31
0.0
 70
    32
 71
     5
 42
55.0
  3
SANWA
100
AcDbAlignedDimension
 13
1040.57821980076
 23
1355.442454180445
 33
0.0
 14
1046.444886467427
 24
1300.442454180445
 34
0.0
 50
90.0
100
AcDbRotatedDimension
1001
ACAD
1000
DSTYLE
1002
{
1070
    40
1040
15.0
1070
    41
1040
1.5
1070
    43
1040
5.0
1070
    44
1040
0.5
1070
   140
1040
2.0
1070
   147
1040
1.0
1070
   176
1070
   256
1070
   177
1070
   256
1070
   178
1070
   256
1070
   279
1070
     2
1002
}
  0
DIMENSION
  5
A128
330
747D
100
AcDbEntity
  8
寸法引出
 48
20.0
100
AcDbDimension
  2
*D22
 10
841.3646836455322
 20
1300.442454180445
 30
0.0
 11
811.364683645532
 21
1517.942454180445
 31
0.0
 70
    32
 71
     5
 42
435.0
  3
SANWA
100
AcDbAlignedDimension
 13
1013.078219800759
 23
1735.442454180445
 33
0.0
 14
1046.444886467427
 24
1300.442454180445
 34
0.0
 50
90.0
100
AcDbRotatedDimension
1001
ACAD
1000
DSTYLE
1002
{
1070
    40
1040
15.0
1070
    41
1040
1.5
1070
    43
1040
5.0
1070
    44
1040
0.5
1070
   140
1040
2.0
1070
   147
1040
1.0
1070
   176
1070
   256
1070
   177
1070
   256
1070
   178
1070
   256
1070
   279
1070
     2
1002
}
  0
LINE
  5
A41A
330
747D
100
AcDbEntity
  8
0
  6
HIDDEN2
 48
15.0
100
AcDbLine
 10
1374.25821980076
 20
1427.442454180443
 30
0.0
 11
1374.25821980076
 21
1517.442454180443
 31
0.0
  0
LINE
  5
A41B
330
747D
100
AcDbEntity
  8
0
  6
HIDDEN2
 48
15.0
100
AcDbLine
 10
1384.924886467427
 20
1527.442454180444
 30
0.0
 11
1374.25821980076
 21
1517.442454180443
 31
0.0
  0
LINE
  5
A41D
330
747D
100
AcDbEntity
  8
0
  6
HIDDEN2
 48
15.0
100
AcDbLine
 10
1374.258219800759
 20
1487.442454180444
 30
0.0
 11
1321.85821980076
 21
1487.442454180444
 31
0.0
  0
LINE
  5
A41E
330
747D
100
AcDbEntity
  8
0
  6
HIDDEN2
 48
15.0
100
AcDbLine
 10
1374.258219800759
 20
1467.442454180444
 30
0.0
 11
1321.05821980076
 21
1467.442454180443
 31
0.0
  0
DIMENSION
  5
A95F
330
747D
100
AcDbEntity
  8
寸法引出
 48
15.0
100
AcDbDimension
  2
*D40
 10
1316.578219800759
 20
1524.926042852417
 30
0.0
 11
1203.578219800759
 21
1554.926042852417
 31
0.0
 70
    32
 71
     5
 42
225.999999999999
  3
SANWA
100
AcDbAlignedDimension
 13
1090.57821980076
 23
1355.442454180445
 33
0.0
 14
1316.578219800759
 24
1355.442454180444
 34
0.0
100
AcDbRotatedDimension
1001
ACAD
1000
DSTYLE
1002
{
1070
    40
1040
15.0
1070
    41
1040
1.5
1070
    43
1040
5.0
1070
    44
1040
0.5
1070
   140
1040
2.0
1070
   147
1040
1.0
1070
   176
1070
   256
1070
   177
1070
   256
1070
   178
1070
   256
1070
   279
1070
     2
1002
}
  0
ARC
  5
A96C
330
747D
100
AcDbEntity
  8
0
 48
15.0
100
AcDbCircle
 10
1203.57821980076
 20
1805.442454180445
 30
0.0
 40
450.0
100
AcDbArc
 50
260.6227298946353
 51
279.3772701053642
  0
LINE
  5
A997
330
747D
100
AcDbEntity
  8
0
 48
20.0
100
AcDbLine
 10
1362.844886467426
 20
1320.442454180444
 30
0.0
 11
1398.578219800761
 21
1655.442454180445
 31
0.0
  0
DIMENSION
  5
A9E6
330
747D
100
AcDbEntity
  8
寸法引出
 48
15.0
100
AcDbDimension
  2
*D41
 10
1090.57821980076
 20
1524.926042852417
 30
0.0
 11
1039.925779971086
 21
1556.249452950257
 31
0.0
 70
   160
 71
     5
 42
50.0
  3
SANWA
100
AcDbAlignedDimension
 13
1040.57821980076
 23
1355.442454180445
 33
0.0
 14
1090.57821980076
 24
1355.442454180445
 34
0.0
100
AcDbRotatedDimension
1001
ACAD
1000
DSTYLE
1002
{
1070
    40
1040
15.0
1070
    41
1040
1.5
1070
    43
1040
5.0
1070
    44
1040
0.5
1070
   140
1040
2.0
1070
   147
1040
1.0
1070
   176
1070
   256
1070
   177
1070
   256
1070
   178
1070
   256
1070
   279
1070
     2
1002
}
  0
ARC
  5
A9F5
330
747D
100
AcDbEntity
  8
0
 48
15.0
100
AcDbCircle
 10
1138.404393849697
 20
1410.787703276695
 30
0.0
 40
50.0
100
AcDbArc
 50
182.2906100426388
 51
260.6227298946353
  0
ARC
  5
A9F6
330
747D
100
AcDbEntity
  8
0
 48
15.0
100
AcDbCircle
 10
1268.752045751822
 20
1410.787703276695
 30
0.0
 40
50.0
100
AcDbArc
 50
279.377270105364
 51
357.7093899573613
  0
LINE
  5
A9FA
330
747D
100
AcDbEntity
  8
0
 48
15.0
100
AcDbLine
 10
1044.311553134094
 20
1320.442454180445
 30
0.0
 11
1066.444886467427
 21
1300.442454180445
 31
0.0
  0
LINE
  5
A9FB
330
747D
100
AcDbEntity
  8
0
 48
15.0
100
AcDbLine
 10
1340.711553134093
 20
1300.442454180444
 30
0.0
 11
1362.844886467426
 21
1320.442454180445
 31
0.0
  0
ARC
  5
A9FD
330
747D
100
AcDbEntity
  8
0
 48
15.0
100
AcDbCircle
 10
1138.404393849697
 20
1410.787703276695
 30
0.0
 40
56.0
100
AcDbArc
 50
182.2906100426388
 51
260.6227298946353
  0
ARC
  5
A9FE
330
747D
100
AcDbEntity
  8
0
 48
15.0
100
AcDbCircle
 10
1203.57821980076
 20
1805.442454180445
 30
0.0
 40
456.0
100
AcDbArc
 50
260.6227298946353
 51
279.3772701053642
  0
ARC
  5
A9FF
330
747D
100
AcDbEntity
  8
0
 48
15.0
100
AcDbCircle
 10
1268.752045751822
 20
1410.787703276695
 30
0.0
 40
56.0
100
AcDbArc
 50
279.377270105364
 51
357.7093899573613
  0
ARC
  5
AA00
330
747D
100
AcDbEntity
  8
0
 48
15.0
100
AcDbCircle
 10
1138.404393849697
 20
1410.787703276695
 30
0.0
 40
71.0
100
AcDbArc
 50
182.2906100426388
 51
260.6227298946353
  0
ARC
  5
AA01
330
747D
100
AcDbEntity
  8
0
 48
15.0
100
AcDbCircle
 10
1203.57821980076
 20
1805.442454180445
 30
0.0
 40
471.0
100
AcDbArc
 50
260.6227298946353
 51
279.3772701053642
  0
ARC
  5
AA02
330
747D
100
AcDbEntity
  8
0
 48
15.0
100
AcDbCircle
 10
1268.752045751822
 20
1410.787703276695
 30
0.0
 40
71.0
100
AcDbArc
 50
279.377270105364
 51
357.7093899573613
  0
ARC
  5
AA03
330
747D
100
AcDbEntity
  8
0
 48
15.0
100
AcDbCircle
 10
1138.404393849697
 20
1410.787703276695
 30
0.0
 40
75.0
100
AcDbArc
 50
182.2906100426388
 51
260.6227298946353
  0
ARC
  5
AA04
330
747D
100
AcDbEntity
  8
0
 48
15.0
100
AcDbCircle
 10
1203.57821980076
 20
1805.442454180445
 30
0.0
 40
475.0
100
AcDbArc
 50
260.6227298946353
 51
279.3772701053642
  0
ARC
  5
AA05
330
747D
100
AcDbEntity
  8
0
 48
15.0
100
AcDbCircle
 10
1268.752045751822
 20
1410.787703276695
 30
0.0
 40
75.0
100
AcDbArc
 50
279.377270105364
 51
357.7093899573613
  0
DIMENSION
  5
ACDE
330
747D
100
AcDbEntity
  8
寸法引出
 48
15.0
100
AcDbDimension
  2
*D43
 10
3972.230943367681
 20
1477.442454180445
 30
0.0
 11
3942.230943367681
 21
1606.442454180446
 31
0.0
 70
    32
 71
     5
 42
258.0
  3
SANWA
100
AcDbAlignedDimension
 13
3870.493333821984
 23
1735.442454180445
 33
0.0
 14
3870.493333821984
 24
1477.442454180445
 34
0.0
 50
90.0
100
AcDbRotatedDimension
1001
ACAD
1000
DSTYLE
1002
{
1070
    40
1040
15.0
1070
    41
1040
1.5
1070
    43
1040
5.0
1070
    44
1040
0.5
1070
   140
1040
2.0
1070
   147
1040
1.0
1070
   176
1070
   256
1070
   177
1070
   256
1070
   178
1070
   256
1070
   279
1070
     2
1002
}
  0
DIMENSION
  5
ACEB
330
747D
100
AcDbEntity
  8
寸法引出
 48
15.0
100
AcDbDimension
  2
*D44
 10
3972.230943367681
 20
1300.442454180445
 30
0.0
 11
3942.230943367681
 21
1388.942454180446
 31
0.0
 70
    32
 71
     5
 42
177.0
  3
SANWA
100
AcDbAlignedDimension
 13
3870.493333821984
 23
1477.442454180445
 33
0.0
 14
3870.493333821984
 24
1300.442454180445
 34
0.0
 50
90.0
100
AcDbRotatedDimension
1001
ACAD
1000
DSTYLE
1002
{
1070
    40
1040
15.0
1070
    41
1040
1.5
1070
    43
1040
5.0
1070
    44
1040
0.5
1070
   140
1040
2.0
1070
   147
1040
1.0
1070
   176
1070
   256
1070
   177
1070
   256
1070
   178
1070
   256
1070
   279
1070
     2
1002
}
  0
LINE
  5
AD1B
330
747D
100
AcDbEntity
  8
0
  6
HIDDEN2
 48
15.0
100
AcDbLine
 10
1032.89821980076
 20
1427.442454180443
 30
0.0
 11
1032.89821980076
 21
1517.442454180443
 31
0.0
  0
LINE
  5
AD1C
330
747D
100
AcDbEntity
  8
0
  6
HIDDEN2
 48
15.0
100
AcDbLine
 10
1032.898219800761
 20
1487.442454180444
 30
0.0
 11
1085.298219800761
 21
1487.442454180444
 31
0.0
  0
LINE
  5
AD1D
330
747D
100
AcDbEntity
  8
0
  6
HIDDEN2
 48
15.0
100
AcDbLine
 10
1022.231553134093
 20
1527.442454180444
 30
0.0
 11
1032.89821980076
 21
1517.442454180443
 31
0.0
  0
LINE
  5
AD1E
330
747D
100
AcDbEntity
  8
0
  6
HIDDEN2
 48
15.0
100
AcDbLine
 10
1032.898219800761
 20
1467.442454180444
 30
0.0
 11
1086.098219800761
 21
1467.442454180443
 31
0.0
  0
VIEWPORT
  5
7540
330
747A
100
AcDbEntity
 67
     1
  8
0
100
AcDbViewport
 10
2878.243789599006
 20
970.3639114717196
 30
0.0
 40
6257.342359533289
 41
4285.736489239755
 68
     1
 69
     1
 12
2878.243789599006
 22
970.3639114717196
 13
0.0
 23
0.0
 14
10.0
 24
10.0
 15
10.0
 25
10.0
 16
0.0
 26
0.0
 36
1.0
 17
0.0
 27
0.0
 37
0.0
 42
50.0
 43
0.0
 44
0.0
 45
4285.736489239755
 50
0.0
 51
0.0
 72
   100
 90
    32800
  1

281
     0
 71
     1
 74
     0
110
0.0
120
0.0
130
0.0
111
1.0
121
0.0
131
0.0
112
0.0
122
1.0
132
0.0
 79
     0
146
0.0
  0
TEXT
  5
7737
330
747A
100
AcDbEntity
 67
     1
  8
0
 48
2.0
100
AcDbText
 10
331.8711968111848
 20
20.60428158404021
 30
0.0
 40
2.0
  1

  7
SANWA
100
AcDbText
  0
ENDSEC
  0
SECTION
  2
OBJECTS
  0
DICTIONARY
  5
7471
330
0
100
AcDbDictionary
281
     1
  3
ACAD_GROUP
350
7472
  3
ACAD_LAYOUT
350
7F6B
  3
ACAD_MLINESTYLE
350
7473
  3
ACAD_PLOTSETTINGS
350
7F6C
  3
ACAD_PLOTSTYLENAME
350
7F69
  3
AcadDim
350
A757
  3
ACDBVARIABLEDICTIONARY
350
789B
  3
ASE_INDEX_DICTIONARY
350
ACD2
  0
DICTIONARY
  5
7472
102
{ACAD_REACTORS
330
7471
102
}
330
7471
100
AcDbDictionary
281
     1
  0
DICTIONARY
  5
7F6B
102
{ACAD_REACTORS
330
7471
102
}
330
7471
100
AcDbDictionary
281
     1
  3
Model
350
7F6D
  3
ﾚｲｱｳﾄ1
350
7F6E
  0
DICTIONARY
  5
7473
102
{ACAD_REACTORS
330
7471
102
}
330
7471
100
AcDbDictionary
281
     1
  3
STANDARD
350
7480
  0
DICTIONARY
  5
7F6C
102
{ACAD_REACTORS
330
7471
102
}
330
7471
100
AcDbDictionary
281
     1
  0
ACDBDICTIONARYWDFLT
  5
7F69
102
{ACAD_REACTORS
330
7471
102
}
330
7471
100
AcDbDictionary
281
     1
  3
Normal
350
7F6A
100
AcDbDictionaryWithDefault
340
7F6A
  0
XRECORD
  5
A757
102
{ACAD_REACTORS
330
7471
102
}
330
7471
100
AcDbXrecord
280
     1
 90
   990106
  3

 60
     4
 61
     0
 62
     1
 63
     3
 64
     0
 65
     0
 66
     0
 67
     3
 68
     1
 69
     0
 70
     0
 71
     0
 72
     0
 40
0.0
170
     0
  0
DICTIONARY
  5
789B
102
{ACAD_REACTORS
330
7471
102
}
330
7471
100
AcDbDictionary
281
     1
  3
DIMASSOC
350
7F75
  3
SORTENTS
350
789C
  0
DICTIONARY
  5
ACD2
102
{ACAD_REACTORS
330
7471
102
}
330
7471
100
AcDbDictionary
281
     1
  3
ASEBlockHierarchyIndexRecord
350
ACD4
1001
DCO15
1040
1551433575.812
  0
LAYOUT
  5
7F6D
102
{ACAD_REACTORS
330
7F6B
102
}
330
7F6B
100
AcDbPlotSettings
  1

  2
DocuCentre Color f360
  4
A4
  6

 40
4.857749938964842
 41
4.942390441894531
 42
4.942413330078125
 43
4.857757568359375
 44
209.9733276367186
 45
297.0106506347656
 46
5.089999999999998
 47
12.61
 48
964.9375195598366
 49
150.0
140
4894.937519559837
141
3000.0
142
1.0
143
15.0
 70
 11940
 72
     1
 73
     1
 74
     4
  7
sanwa3.ctb
 75
     0
147
0.0666666666666667
148
-964.9375195598366
149
-150.0
100
AcDbLayout
  1
Model
 70
     1
 71
     0
 10
0.0
 20
0.0
 11
12.0
 21
9.0
 12
0.0
 22
0.0
 32
0.0
 14
0.0
 24
0.0
 34
0.0
 15
0.0
 25
0.0
 35
0.0
146
0.0
 13
0.0
 23
0.0
 33
0.0
 16
1.0
 26
0.0
 36
0.0
 17
0.0
 27
1.0
 37
0.0
 76
     0
330
747D
  0
LAYOUT
  5
7F6E
102
{ACAD_REACTORS
330
7F6B
102
}
330
7F6B
100
AcDbPlotSettings
  1

  2
RICOH NX-510
  4
A4
  6

 40
5.873749732971191
 41
4.921256542205809
 42
7.588241577148437
 43
5.81024169921875
 44
209.9944915771484
 45
296.989501953125
 46
0.0
 47
0.0
 48
0.0
 49
0.0
140
0.0
141
0.0
142
1.0
143
20.17331812743451
 70
   688
 72
     1
 73
     1
 74
     1
  7
sanwa3.ctb
 75
     0
147
0.0495704273180553
148
0.1762079097297828
149
1029.28590836146
100
AcDbLayout
  1
ﾚｲｱｳﾄ1
 70
     1
 71
     1
 10
-117.3880621053551
 20
-1147.778930325621
 11
5873.875641303368
 21
3088.506753269061
 12
0.0
 22
0.0
 32
0.0
 14
1.000000000000000E+20
 24
1.000000000000000E+20
 34
1.000000000000000E+20
 15
-1.000000000000000E+20
 25
-1.000000000000000E+20
 35
-1.000000000000000E+20
146
0.0
 13
0.0
 23
0.0
 33
0.0
 16
1.0
 26
0.0
 36
0.0
 17
0.0
 27
1.0
 37
0.0
 76
     0
330
747A
331
7540
  0
MLINESTYLE
  5
7480
102
{ACAD_REACTORS
330
7473
102
}
330
7473
100
AcDbMlineStyle
  2
STANDARD
 70
     0
  3

 62
     0
 51
90.0
 52
90.0
 71
     2
 49
0.5
 62
   256
  6
BYLAYER
 49
-0.5
 62
   256
  6
BYLAYER
  0
ACDBPLACEHOLDER
  5
7F6A
102
{ACAD_REACTORS
330
7F69
102
}
330
7F69
  0
DICTIONARYVAR
  5
7F75
102
{ACAD_REACTORS
330
789B
102
}
330
789B
100
DictionaryVariables
280
     0
  1
1
  0
DICTIONARYVAR
  5
789C
102
{ACAD_REACTORS
330
789B
102
}
330
789B
100
DictionaryVariables
280
     0
  1
96
  0
XRECORD
  5
ACD4
102
{ACAD_REACTORS
330
ACD2
102
}
330
ACD2
100
AcDbXrecord
280
     1
  0
ENDSEC
  0
EOF
