  0
SECTION
  2
HEADER
  9
$ACADVER
  1
AC1015
  9
$ACADMAINTVER
 70
    20
  9
$DWGCODEPAGE
  3
ANSI_932
  9
$INSBASE
 10
0.0
 20
0.0
 30
0.0
  9
$EXTMIN
 10
-0.2652655197853164
 20
-0.1346514188007859
 30
-0.0000000000000011
  9
$EXTMAX
 10
4455.003759084498
 20
3150.288552929371
 30
0.0000000000000141
  9
$LIMMIN
 10
0.0
 20
0.0
  9
$LIMMAX
 10
420.0
 20
297.0
  9
$ORTHOMODE
 70
     1
  9
$REGENMODE
 70
     1
  9
$FILLMODE
 70
     1
  9
$QTEXTMODE
 70
     0
  9
$MIRRTEXT
 70
     1
  9
$LTSCALE
 40
0.5
  9
$ATTMODE
 70
     1
  9
$TEXTSIZE
 40
2.799999999999999
  9
$TRACEWID
 40
1.0
  9
$TEXTSTYLE
  7
SANWA
  9
$CLAYER
  8
0
  9
$CELTYPE
  6
BYLAYER
  9
$CECOLOR
 62
   256
  9
$CELTSCALE
 40
15.0
  9
$DISPSILH
 70
     0
  9
$DIMSCALE
 40
15.0
  9
$DIMASZ
 40
1.5
  9
$DIMEXO
 40
1.0
  9
$DIMDLI
 40
5.0
  9
$DIMRND
 40
0.0
  9
$DIMDLE
 40
0.0
  9
$DIMEXE
 40
0.5
  9
$DIMTP
 40
0.0
  9
$DIMTM
 40
0.0
  9
$DIMTXT
 40
2.0
  9
$DIMCEN
 40
0.0
  9
$DIMTSZ
 40
0.0
  9
$DIMTOL
 70
     0
  9
$DIMLIM
 70
     0
  9
$DIMTIH
 70
     0
  9
$DIMTOH
 70
     0
  9
$DIMSE1
 70
     0
  9
$DIMSE2
 70
     0
  9
$DIMTAD
 70
     1
  9
$DIMZIN
 70
     8
  9
$DIMBLK
  1

  9
$DIMASO
 70
     1
  9
$DIMSHO
 70
     1
  9
$DIMPOST
  1

  9
$DIMAPOST
  1

  9
$DIMALT
 70
     0
  9
$DIMALTD
 70
     2
  9
$DIMALTF
 40
0.0394
  9
$DIMLFAC
 40
1.0
  9
$DIMTOFL
 70
     1
  9
$DIMTVP
 40
0.0
  9
$DIMTIX
 70
     1
  9
$DIMSOXD
 70
     0
  9
$DIMSAH
 70
     0
  9
$DIMBLK1
  1

  9
$DIMBLK2
  1

  9
$DIMSTYLE
  2
SANWA
  9
$DIMCLRD
 70
   256
  9
$DIMCLRE
 70
   256
  9
$DIMCLRT
 70
   256
  9
$DIMTFAC
 40
1.0
  9
$DIMGAP
 40
1.0
  9
$DIMJUST
 70
     0
  9
$DIMSD1
 70
     0
  9
$DIMSD2
 70
     0
  9
$DIMTOLJ
 70
     1
  9
$DIMTZIN
 70
     0
  9
$DIMALTZ
 70
     0
  9
$DIMALTTZ
 70
     0
  9
$DIMUPT
 70
     0
  9
$DIMDEC
 70
     4
  9
$DIMTDEC
 70
     4
  9
$DIMALTU
 70
     2
  9
$DIMALTTD
 70
     2
  9
$DIMTXSTY
  7
SANWA
  9
$DIMAUNIT
 70
     0
  9
$DIMADEC
 70
     0
  9
$DIMALTRND
 40
0.0
  9
$DIMAZIN
 70
     0
  9
$DIMDSEP
 70
    46
  9
$DIMATFIT
 70
     3
  9
$DIMFRAC
 70
     0
  9
$DIMLDRBLK
  1

  9
$DIMLUNIT
 70
     2
  9
$DIMLWD
 70
    -2
  9
$DIMLWE
 70
    -2
  9
$DIMTMOVE
 70
     0
  9
$LUNITS
 70
     2
  9
$LUPREC
 70
     4
  9
$SKETCHINC
 40
1.0
  9
$FILLETRAD
 40
30.0
  9
$AUNITS
 70
     0
  9
$AUPREC
 70
     0
  9
$MENU
  1
acad
  9
$ELEVATION
 40
0.0
  9
$PELEVATION
 40
0.0
  9
$THICKNESS
 40
0.0
  9
$LIMCHECK
 70
     0
  9
$CHAMFERA
 40
0.0
  9
$CHAMFERB
 40
0.0
  9
$CHAMFERC
 40
0.0
  9
$CHAMFERD
 40
0.0
  9
$SKPOLY
 70
     1
  9
$TDCREATE
 40
2451853.356564931
  9
$TDUCREATE
 40
2451852.981564931
  9
$TDUPDATE
 40
2454845.458338368
  9
$TDUUPDATE
 40
2454845.083338368
  9
$TDINDWG
 40
0.9163703125
  9
$TDUSRTIMER
 40
0.9163703125
  9
$USRTIMER
 70
     1
  9
$ANGBASE
 50
0.0
  9
$ANGDIR
 70
     0
  9
$PDMODE
 70
     0
  9
$PDSIZE
 40
0.0
  9
$PLINEWID
 40
0.0
  9
$SPLFRAME
 70
     0
  9
$SPLINETYPE
 70
     6
  9
$SPLINESEGS
 70
     8
  9
$HANDSEED
  5
D751
  9
$SURFTAB1
 70
     6
  9
$SURFTAB2
 70
     6
  9
$SURFTYPE
 70
     6
  9
$SURFU
 70
     6
  9
$SURFV
 70
     6
  9
$UCSBASE
  2

  9
$UCSNAME
  2

  9
$UCSORG
 10
0.0
 20
0.0
 30
0.0
  9
$UCSXDIR
 10
1.0
 20
0.0
 30
0.0
  9
$UCSYDIR
 10
0.0
 20
1.0
 30
0.0
  9
$UCSORTHOREF
  2

  9
$UCSORTHOVIEW
 70
     0
  9
$UCSORGTOP
 10
0.0
 20
0.0
 30
0.0
  9
$UCSORGBOTTOM
 10
0.0
 20
0.0
 30
0.0
  9
$UCSORGLEFT
 10
0.0
 20
0.0
 30
0.0
  9
$UCSORGRIGHT
 10
0.0
 20
0.0
 30
0.0
  9
$UCSORGFRONT
 10
0.0
 20
0.0
 30
0.0
  9
$UCSORGBACK
 10
0.0
 20
0.0
 30
0.0
  9
$PUCSBASE
  2

  9
$PUCSNAME
  2

  9
$PUCSORG
 10
0.0
 20
0.0
 30
0.0
  9
$PUCSXDIR
 10
1.0
 20
0.0
 30
0.0
  9
$PUCSYDIR
 10
0.0
 20
1.0
 30
0.0
  9
$PUCSORTHOREF
  2

  9
$PUCSORTHOVIEW
 70
     0
  9
$PUCSORGTOP
 10
0.0
 20
0.0
 30
0.0
  9
$PUCSORGBOTTOM
 10
0.0
 20
0.0
 30
0.0
  9
$PUCSORGLEFT
 10
0.0
 20
0.0
 30
0.0
  9
$PUCSORGRIGHT
 10
0.0
 20
0.0
 30
0.0
  9
$PUCSORGFRONT
 10
0.0
 20
0.0
 30
0.0
  9
$PUCSORGBACK
 10
0.0
 20
0.0
 30
0.0
  9
$USERI1
 70
     0
  9
$USERI2
 70
     0
  9
$USERI3
 70
     0
  9
$USERI4
 70
     0
  9
$USERI5
 70
     0
  9
$USERR1
 40
0.0
  9
$USERR2
 40
0.0
  9
$USERR3
 40
0.0
  9
$USERR4
 40
0.0
  9
$USERR5
 40
0.0
  9
$WORLDVIEW
 70
     1
  9
$SHADEDGE
 70
     3
  9
$SHADEDIF
 70
    70
  9
$TILEMODE
 70
     1
  9
$MAXACTVP
 70
    48
  9
$PINSBASE
 10
0.0
 20
0.0
 30
0.0
  9
$PLIMCHECK
 70
     0
  9
$PEXTMIN
 10
-0.2743414338947332
 20
-0.0961230370394333
 30
-0.0000000000000169
  9
$PEXTMAX
 10
8990.580384681475
 20
3150.096137705372
 30
0.0000000000000137
  9
$PLIMMIN
 10
-182.7636984612884
 20
-184.5801544421127
  9
$PLIMMAX
 10
9145.148299175419
 20
6410.973306330618
  9
$UNITMODE
 70
     0
  9
$VISRETAIN
 70
     1
  9
$PLINEGEN
 70
     0
  9
$PSLTSCALE
 70
     1
  9
$TREEDEPTH
 70
  3020
  9
$CMLSTYLE
  2
STANDARD
  9
$CMLJUST
 70
     0
  9
$CMLSCALE
 40
1.0
  9
$PROXYGRAPHICS
 70
     1
  9
$MEASUREMENT
 70
     1
  9
$CELWEIGHT
370
    -1
  9
$ENDCAPS
280
     0
  9
$JOINSTYLE
280
     0
  9
$LWDISPLAY
290
     0
  9
$INSUNITS
 70
     0
  9
$HYPERLINKBASE
  1

  9
$STYLESHEET
  1
sanwa3.ctb
  9
$XEDIT
290
     1
  9
$CEPSNTYPE
380
     0
  9
$PSTYLEMODE
290
     1
  9
$FINGERPRINTGUID
  2
{EE34F969-9ADC-4DF2-B019-C1469F8BD394}
  9
$VERSIONGUID
  2
{5847AC0C-30FA-4F28-BA6A-7203E84C30B8}
  9
$EXTNAMES
290
     1
  9
$PSVPSCALE
 40
0.0
  9
$OLESTARTUP
290
     0
  0
ENDSEC
  0
SECTION
  2
CLASSES
  0
CLASS
  1
DICTIONARYVAR
  2
AcDbDictionaryVar
  3
ObjectDBX Classes
 90
        0
280
     0
281
     0
  0
CLASS
  1
ACDBDICTIONARYWDFLT
  2
AcDbDictionaryWithDefault
  3
ObjectDBX Classes
 90
        0
280
     0
281
     0
  0
CLASS
  1
ACDBPLACEHOLDER
  2
AcDbPlaceHolder
  3
ObjectDBX Classes
 90
        0
280
     0
281
     0
  0
CLASS
  1
LAYOUT
  2
AcDbLayout
  3
ObjectDBX Classes
 90
        0
280
     0
281
     0
  0
CLASS
  1
MATERIAL
  2
AcDbMaterial
  3
ObjectDBX Classes
 90
     1153
280
     0
281
     0
  0
CLASS
  1
VISUALSTYLE
  2
AcDbVisualStyle
  3
ObjectDBX Classes
 90
     4095
280
     0
281
     0
  0
CLASS
  1
TABLESTYLE
  2
AcDbTableStyle
  3
ObjectDBX Classes
 90
     4095
280
     0
281
     0
  0
CLASS
  1
SCALE
  2
AcDbScale
  3
ObjectDBX Classes
 90
     1153
280
     0
281
     0
  0
CLASS
  1
MLEADERSTYLE
  2
AcDbMLeaderStyle
  3
ACDB_MLEADERSTYLE_CLASS
 90
     4095
280
     0
281
     0
  0
CLASS
  1
CELLSTYLEMAP
  2
AcDbCellStyleMap
  3
ObjectDBX Classes
 90
     1152
280
     0
281
     0
  0
ENDSEC
  0
SECTION
  2
TABLES
  0
TABLE
  2
VPORT
  5
746D
330
0
100
AcDbSymbolTable
 70
     1
  0
VPORT
  5
D30B
330
746D
100
AcDbSymbolTableRecord
100
AcDbViewportTableRecord
  2
*Active
 70
     0
 10
0.0
 20
0.0
 11
1.0
 21
1.0
 12
2227.369228669656
 22
1575.076946108252
 13
0.0
 23
0.0
 14
10.0
 24
10.0
 15
10.0
 25
10.0
 16
0.0
 26
0.0
 36
1.0
 17
0.0
 27
0.0
 37
0.0
 40
3540.312614319611
 41
1.353070175438596
 42
50.0
 43
0.0
 44
0.0
 50
0.0
 51
0.0
 71
     0
 72
   100
 73
     1
 74
     0
 75
     0
 76
     0
 77
     0
 78
     0
281
     0
 65
     1
110
0.0
120
0.0
130
0.0
111
1.0
121
0.0
131
0.0
112
0.0
122
1.0
132
0.0
 79
     0
146
0.0
  0
ENDTAB
  0
TABLE
  2
LTYPE
  5
746A
330
0
100
AcDbSymbolTable
 70
     5
  0
LTYPE
  5
7477
330
746A
100
AcDbSymbolTableRecord
100
AcDbLinetypeTableRecord
  2
BYBLOCK
 70
     0
  3

 72
    65
 73
     0
 40
0.0
  0
LTYPE
  5
7478
330
746A
100
AcDbSymbolTableRecord
100
AcDbLinetypeTableRecord
  2
BYLAYER
 70
     0
  3

 72
    65
 73
     0
 40
0.0
  0
LTYPE
  5
7479
330
746A
100
AcDbSymbolTableRecord
100
AcDbLinetypeTableRecord
  2
CONTINUOUS
 70
     0
  3
Solid line
 72
    65
 73
     0
 40
0.0
  0
LTYPE
  5
7D54
330
746A
100
AcDbSymbolTableRecord
100
AcDbLinetypeTableRecord
  2
CENTER2
 70
     0
  3
Center (.5x) ___ _ ___ _ ___ _ ___ _ ___ _ ___
 72
    65
 73
     4
 40
28.575
 49
19.05
 74
     0
 49
-3.174999999999999
 74
     0
 49
3.174999999999999
 74
     0
 49
-3.174999999999999
 74
     0
  0
LTYPE
  5
7D55
330
746A
100
AcDbSymbolTableRecord
100
AcDbLinetypeTableRecord
  2
DOT
 70
     0
  3
Dot . . . . . . . . . . . . . . . . . . . . . .
 72
    65
 73
     2
 40
6.349999999999999
 49
0.0
 74
     0
 49
-6.349999999999999
 74
     0
  0
LTYPE
  5
7D56
330
746A
100
AcDbSymbolTableRecord
100
AcDbLinetypeTableRecord
  2
HIDDEN2
 70
     0
  3
Hidden (.5x) _ _ _ _ _ _ _ _ _ _ _ _ _ _ _ _ _
 72
    65
 73
     2
 40
4.762499999999999
 49
3.174999999999999
 74
     0
 49
-1.587499999999999
 74
     0
  0
LTYPE
  5
7D57
330
746A
100
AcDbSymbolTableRecord
100
AcDbLinetypeTableRecord
  2
PHANTOM2
 70
     0
  3
Phantom (.5x) ___ _ _ ___ _ _ ___ _ _ ___ _ _
 72
    65
 73
     6
 40
31.75
 49
15.875
 74
     0
 49
-3.174999999999999
 74
     0
 49
3.174999999999999
 74
     0
 49
-3.174999999999999
 74
     0
 49
3.174999999999999
 74
     0
 49
-3.174999999999999
 74
     0
  0
ENDTAB
  0
TABLE
  2
LAYER
  5
7467
330
0
100
AcDbSymbolTable
 70
     7
  0
LAYER
  5
7474
102
{ACAD_XDICTIONARY
360
D485
102
}
330
7467
100
AcDbSymbolTableRecord
100
AcDbLayerTableRecord
  2
0
 70
     0
 62
     7
  6
CONTINUOUS
370
    -3
390
A475
  0
LAYER
  5
7485
330
7467
100
AcDbSymbolTableRecord
100
AcDbLayerTableRecord
  2
DEFPOINTS
 70
     0
 62
     7
  6
CONTINUOUS
290
     0
370
    -3
390
A475
  0
LAYER
  5
7486
102
{ACAD_XDICTIONARY
360
D487
102
}
330
7467
100
AcDbSymbolTableRecord
100
AcDbLayerTableRecord
  2
OBJECT
 70
     0
 62
     7
  6
CONTINUOUS
370
    -3
390
A475
  0
LAYER
  5
7950
102
{ACAD_XDICTIONARY
360
D489
102
}
330
7467
100
AcDbSymbolTableRecord
100
AcDbLayerTableRecord
  2
枠
 70
     0
 62
     3
  6
CONTINUOUS
370
    -3
390
A475
  0
LAYER
  5
7D58
102
{ACAD_XDICTIONARY
360
D48B
102
}
330
7467
100
AcDbSymbolTableRecord
100
AcDbLayerTableRecord
  2
寸法引出
 70
     0
 62
     2
  6
CONTINUOUS
370
    -3
390
A475
  0
LAYER
  5
7D59
102
{ACAD_XDICTIONARY
360
D48D
102
}
330
7467
100
AcDbSymbolTableRecord
100
AcDbLayerTableRecord
  2
鉄筋
 70
     0
 62
     4
  6
CONTINUOUS
370
    -3
390
A475
  0
LAYER
  5
7D5A
102
{ACAD_XDICTIONARY
360
D48F
102
}
330
7467
100
AcDbSymbolTableRecord
100
AcDbLayerTableRecord
  2
補助線
 70
     0
 62
     6
  6
CONTINUOUS
370
    -3
390
A475
  0
ENDTAB
  0
TABLE
  2
STYLE
  5
7468
330
0
100
AcDbSymbolTable
 70
     5
  0
STYLE
  5
7475
330
7468
100
AcDbSymbolTableRecord
100
AcDbTextStyleTableRecord
  2
STANDARD
 70
     0
 40
0.0
 41
1.0
 50
0.0
 71
     0
 42
3.5
  3
txt
  4

  0
STYLE
  5
7481
330
7468
100
AcDbSymbolTableRecord
100
AcDbTextStyleTableRecord
  2
ADESK1
 70
     0
 40
0.0
 41
1.0
 50
0.0
 71
     0
 42
5.0
  3
romans
  4
bigfont
  0
STYLE
  5
7731
330
7468
100
AcDbSymbolTableRecord
100
AcDbTextStyleTableRecord
  2
SANWA
 70
     0
 40
0.0
 41
1.0
 50
0.0
 71
     0
 42
2.799999999999999
  3
MSMINCHO.TTF
  4

1001
ACAD
1000
MS Mincho
1071
    32785
  0
STYLE
  5
7D45
330
7468
100
AcDbSymbolTableRecord
100
AcDbTextStyleTableRecord
  2

 70
     1
 40
0.0
 41
1.0
 50
0.0
 71
     0
 42
3.5
  3
ltypeshp.shx
  4

  0
ENDTAB
  0
TABLE
  2
VIEW
  5
746B
330
0
100
AcDbSymbolTable
 70
     0
  0
ENDTAB
  0
TABLE
  2
UCS
  5
746C
330
0
100
AcDbSymbolTable
 70
     0
  0
ENDTAB
  0
TABLE
  2
APPID
  5
746E
330
0
100
AcDbSymbolTable
 70
     3
  0
APPID
  5
7476
330
746E
100
AcDbSymbolTableRecord
100
AcDbRegAppTableRecord
  2
ACAD
 70
     0
  0
APPID
  5
D35E
330
746E
100
AcDbSymbolTableRecord
100
AcDbRegAppTableRecord
  2
ACAD_MLEADERVER
 70
     0
  0
APPID
  5
D4B4
330
746E
100
AcDbSymbolTableRecord
100
AcDbRegAppTableRecord
  2
ACAD_PSEXT
 70
     0
  0
ENDTAB
  0
TABLE
  2
DIMSTYLE
  5
746F
330
0
100
AcDbSymbolTable
 70
     5
100
AcDbDimStyleTable
 71
     1
340
796F
  0
DIMSTYLE
105
7484
330
746F
100
AcDbSymbolTableRecord
100
AcDbDimStyleTableRecord
  2
JIS
 70
     0
 41
2.5
 42
1.0
 43
7.0
 44
1.0
 73
     0
 74
     0
 77
     1
 78
     8
140
2.5
141
0.0
143
0.0394
147
0.0
172
     1
174
     1
176
     2
177
     2
178
     2
340
7731
  0
DIMSTYLE
105
796F
102
{ACAD_REACTORS
330
B06E
330
B076
330
B077
330
B078
330
B07B
330
B082
330
B083
330
B084
330
B085
330
B086
330
B08C
330
B08D
330
B08E
330
B096
330
B097
330
B098
330
B09A
330
B09C
330
B09E
330
B09F
330
B0A0
330
B0A5
330
B0A9
330
B0E7
330
B0EB
330
B0EE
330
B0F1
330
B0F2
330
B0F3
330
B0F4
330
B0F5
330
B0FC
330
B100
330
B101
330
B102
330
B103
330
B1B2
330
B1B3
330
B1B4
330
B1B5
330
B1B6
330
B1B7
330
B1B8
330
B1C1
330
B1C2
330
B1C7
330
B1C8
330
B1C9
330
B1CA
330
B1CB
330
B1CC
330
B1D1
330
B1D4
330
B1F1
330
B1F2
330
B1F4
330
B1F5
330
B1F6
330
B1F7
330
B1F8
330
B1F9
330
B226
330
B227
330
B248
330
C3C1
330
C3CE
330
CDBE
102
}
330
746F
100
AcDbSymbolTableRecord
100
AcDbDimStyleTableRecord
  2
SANWA
 70
     0
 41
2.5
 42
1.0
 43
7.0
 44
1.0
 73
     0
 74
     0
 77
     1
 78
     8
140
2.5
141
0.0
143
0.0394
147
0.0
172
     1
174
     1
176
     2
177
     2
178
     2
340
7731
  0
DIMSTYLE
105
7C9D
102
{ACAD_REACTORS
330
B081
102
}
330
746F
100
AcDbSymbolTableRecord
100
AcDbDimStyleTableRecord
  2
SANWA$4
 70
     0
 41
2.5
 42
1.0
 43
5.0
 44
1.0
 73
     0
 74
     0
 77
     1
 78
     8
140
2.5
141
0.0
143
0.0394
147
1.0
172
     1
174
     1
176
     2
177
     2
178
     2
289
     2
340
7731
  0
DIMSTYLE
105
7CB5
330
746F
100
AcDbSymbolTableRecord
100
AcDbDimStyleTableRecord
  2
SANWA$3
 70
     0
 41
2.5
 42
1.0
 43
7.0
 44
1.0
 73
     0
 74
     0
 77
     1
 78
     8
140
2.5
141
0.0
143
0.0394
147
0.0
172
     1
174
     1
176
     2
177
     2
178
     2
289
     0
340
7731
  0
ENDTAB
  0
TABLE
  2
BLOCK_RECORD
  5
7466
330
0
100
AcDbSymbolTable
 70
    69
  0
BLOCK_RECORD
  5
747D
330
7466
100
AcDbSymbolTableRecord
100
AcDbBlockTableRecord
  2
*MODEL_SPACE
340
A478
  0
BLOCK_RECORD
  5
747A
330
7466
100
AcDbSymbolTableRecord
100
AcDbBlockTableRecord
  2
*PAPER_SPACE
340
A479
  0
BLOCK_RECORD
  5
B50C
330
7466
100
AcDbSymbolTableRecord
100
AcDbBlockTableRecord
  2
*D0
340
0
  0
BLOCK_RECORD
  5
B518
330
7466
100
AcDbSymbolTableRecord
100
AcDbBlockTableRecord
  2
*D1
340
0
  0
BLOCK_RECORD
  5
B523
330
7466
100
AcDbSymbolTableRecord
100
AcDbBlockTableRecord
  2
*D2
340
0
  0
BLOCK_RECORD
  5
B530
330
7466
100
AcDbSymbolTableRecord
100
AcDbBlockTableRecord
  2
*D3
340
0
  0
BLOCK_RECORD
  5
B53E
330
7466
100
AcDbSymbolTableRecord
100
AcDbBlockTableRecord
  2
*D4
340
0
  0
BLOCK_RECORD
  5
B54A
330
7466
100
AcDbSymbolTableRecord
100
AcDbBlockTableRecord
  2
*D5
340
0
  0
BLOCK_RECORD
  5
B552
330
7466
100
AcDbSymbolTableRecord
100
AcDbBlockTableRecord
  2
*D6
340
0
  0
BLOCK_RECORD
  5
B560
330
7466
100
AcDbSymbolTableRecord
100
AcDbBlockTableRecord
  2
*D7
340
0
  0
BLOCK_RECORD
  5
B56E
330
7466
100
AcDbSymbolTableRecord
100
AcDbBlockTableRecord
  2
*D8
340
0
  0
BLOCK_RECORD
  5
B57B
330
7466
100
AcDbSymbolTableRecord
100
AcDbBlockTableRecord
  2
*D9
340
0
  0
BLOCK_RECORD
  5
B587
330
7466
100
AcDbSymbolTableRecord
100
AcDbBlockTableRecord
  2
*D10
340
0
  0
BLOCK_RECORD
  5
B594
330
7466
100
AcDbSymbolTableRecord
100
AcDbBlockTableRecord
  2
*D11
340
0
  0
BLOCK_RECORD
  5
B5A1
330
7466
100
AcDbSymbolTableRecord
100
AcDbBlockTableRecord
  2
*D12
340
0
  0
BLOCK_RECORD
  5
B5AC
330
7466
100
AcDbSymbolTableRecord
100
AcDbBlockTableRecord
  2
*D13
340
0
  0
BLOCK_RECORD
  5
B5BA
330
7466
100
AcDbSymbolTableRecord
100
AcDbBlockTableRecord
  2
*D14
340
0
  0
BLOCK_RECORD
  5
B5C6
330
7466
100
AcDbSymbolTableRecord
100
AcDbBlockTableRecord
  2
*D15
340
0
  0
BLOCK_RECORD
  5
B5D2
330
7466
100
AcDbSymbolTableRecord
100
AcDbBlockTableRecord
  2
*D16
340
0
  0
BLOCK_RECORD
  5
B5DF
330
7466
100
AcDbSymbolTableRecord
100
AcDbBlockTableRecord
  2
*D17
340
0
  0
BLOCK_RECORD
  5
B5EC
330
7466
100
AcDbSymbolTableRecord
100
AcDbBlockTableRecord
  2
*D18
340
0
  0
BLOCK_RECORD
  5
B5FA
330
7466
100
AcDbSymbolTableRecord
100
AcDbBlockTableRecord
  2
*D19
340
0
  0
BLOCK_RECORD
  5
B607
330
7466
100
AcDbSymbolTableRecord
100
AcDbBlockTableRecord
  2
*D20
340
0
  0
BLOCK_RECORD
  5
B615
330
7466
100
AcDbSymbolTableRecord
100
AcDbBlockTableRecord
  2
*D21
340
0
  0
BLOCK_RECORD
  5
B622
330
7466
100
AcDbSymbolTableRecord
100
AcDbBlockTableRecord
  2
*D22
340
0
  0
BLOCK_RECORD
  5
B62E
330
7466
100
AcDbSymbolTableRecord
100
AcDbBlockTableRecord
  2
*D23
340
0
  0
BLOCK_RECORD
  5
B63B
330
7466
100
AcDbSymbolTableRecord
100
AcDbBlockTableRecord
  2
*D24
340
0
  0
BLOCK_RECORD
  5
B649
330
7466
100
AcDbSymbolTableRecord
100
AcDbBlockTableRecord
  2
*D25
340
0
  0
BLOCK_RECORD
  5
B655
330
7466
100
AcDbSymbolTableRecord
100
AcDbBlockTableRecord
  2
*D26
340
0
  0
BLOCK_RECORD
  5
B663
330
7466
100
AcDbSymbolTableRecord
100
AcDbBlockTableRecord
  2
*D27
340
0
  0
BLOCK_RECORD
  5
B670
330
7466
100
AcDbSymbolTableRecord
100
AcDbBlockTableRecord
  2
*D28
340
0
  0
BLOCK_RECORD
  5
B67E
330
7466
100
AcDbSymbolTableRecord
100
AcDbBlockTableRecord
  2
*D29
340
0
  0
BLOCK_RECORD
  5
B689
330
7466
100
AcDbSymbolTableRecord
100
AcDbBlockTableRecord
  2
*D30
340
0
  0
BLOCK_RECORD
  5
B696
330
7466
100
AcDbSymbolTableRecord
100
AcDbBlockTableRecord
  2
*D31
340
0
  0
BLOCK_RECORD
  5
B6A2
330
7466
100
AcDbSymbolTableRecord
100
AcDbBlockTableRecord
  2
*D32
340
0
  0
BLOCK_RECORD
  5
B6BC
330
7466
100
AcDbSymbolTableRecord
100
AcDbBlockTableRecord
  2
*D33
340
0
  0
BLOCK_RECORD
  5
B6C9
330
7466
100
AcDbSymbolTableRecord
100
AcDbBlockTableRecord
  2
*D34
340
0
  0
BLOCK_RECORD
  5
B6D6
330
7466
100
AcDbSymbolTableRecord
100
AcDbBlockTableRecord
  2
*D35
340
0
  0
BLOCK_RECORD
  5
B6E3
330
7466
100
AcDbSymbolTableRecord
100
AcDbBlockTableRecord
  2
*D36
340
0
  0
BLOCK_RECORD
  5
B6F1
330
7466
100
AcDbSymbolTableRecord
100
AcDbBlockTableRecord
  2
*D37
340
0
  0
BLOCK_RECORD
  5
B6FF
330
7466
100
AcDbSymbolTableRecord
100
AcDbBlockTableRecord
  2
*D38
340
0
  0
BLOCK_RECORD
  5
B70C
330
7466
100
AcDbSymbolTableRecord
100
AcDbBlockTableRecord
  2
*D39
340
0
  0
BLOCK_RECORD
  5
B71A
330
7466
100
AcDbSymbolTableRecord
100
AcDbBlockTableRecord
  2
*D40
340
0
  0
BLOCK_RECORD
  5
B726
330
7466
100
AcDbSymbolTableRecord
100
AcDbBlockTableRecord
  2
*D41
340
0
  0
BLOCK_RECORD
  5
B732
330
7466
100
AcDbSymbolTableRecord
100
AcDbBlockTableRecord
  2
*D42
340
0
  0
BLOCK_RECORD
  5
B740
330
7466
100
AcDbSymbolTableRecord
100
AcDbBlockTableRecord
  2
*D43
340
0
  0
BLOCK_RECORD
  5
B74E
330
7466
100
AcDbSymbolTableRecord
100
AcDbBlockTableRecord
  2
*D44
340
0
  0
BLOCK_RECORD
  5
B75A
330
7466
100
AcDbSymbolTableRecord
100
AcDbBlockTableRecord
  2
*D45
340
0
  0
BLOCK_RECORD
  5
B766
330
7466
100
AcDbSymbolTableRecord
100
AcDbBlockTableRecord
  2
*D46
340
0
  0
BLOCK_RECORD
  5
B773
330
7466
100
AcDbSymbolTableRecord
100
AcDbBlockTableRecord
  2
*D47
340
0
  0
BLOCK_RECORD
  5
B780
330
7466
100
AcDbSymbolTableRecord
100
AcDbBlockTableRecord
  2
*D48
340
0
  0
BLOCK_RECORD
  5
B78E
330
7466
100
AcDbSymbolTableRecord
100
AcDbBlockTableRecord
  2
*D49
340
0
  0
BLOCK_RECORD
  5
B799
330
7466
100
AcDbSymbolTableRecord
100
AcDbBlockTableRecord
  2
*D50
340
0
  0
BLOCK_RECORD
  5
B7A6
330
7466
100
AcDbSymbolTableRecord
100
AcDbBlockTableRecord
  2
*D51
340
0
  0
BLOCK_RECORD
  5
B7B3
330
7466
100
AcDbSymbolTableRecord
100
AcDbBlockTableRecord
  2
*D52
340
0
  0
BLOCK_RECORD
  5
B7C0
330
7466
100
AcDbSymbolTableRecord
100
AcDbBlockTableRecord
  2
*D53
340
0
  0
BLOCK_RECORD
  5
B7CC
330
7466
100
AcDbSymbolTableRecord
100
AcDbBlockTableRecord
  2
*D54
340
0
  0
BLOCK_RECORD
  5
B7D7
330
7466
100
AcDbSymbolTableRecord
100
AcDbBlockTableRecord
  2
*D55
340
0
  0
BLOCK_RECORD
  5
B7E4
330
7466
100
AcDbSymbolTableRecord
100
AcDbBlockTableRecord
  2
*D56
340
0
  0
BLOCK_RECORD
  5
B7F0
330
7466
100
AcDbSymbolTableRecord
100
AcDbBlockTableRecord
  2
*D57
340
0
  0
BLOCK_RECORD
  5
B7FD
330
7466
100
AcDbSymbolTableRecord
100
AcDbBlockTableRecord
  2
*D58
340
0
  0
BLOCK_RECORD
  5
B808
330
7466
100
AcDbSymbolTableRecord
100
AcDbBlockTableRecord
  2
*D59
340
0
  0
BLOCK_RECORD
  5
B815
330
7466
100
AcDbSymbolTableRecord
100
AcDbBlockTableRecord
  2
*D60
340
0
  0
BLOCK_RECORD
  5
B821
330
7466
100
AcDbSymbolTableRecord
100
AcDbBlockTableRecord
  2
*D61
340
0
  0
BLOCK_RECORD
  5
B83B
330
7466
100
AcDbSymbolTableRecord
100
AcDbBlockTableRecord
  2
*D62
340
0
  0
BLOCK_RECORD
  5
B848
330
7466
100
AcDbSymbolTableRecord
100
AcDbBlockTableRecord
  2
*D63
340
0
  0
BLOCK_RECORD
  5
B853
330
7466
100
AcDbSymbolTableRecord
100
AcDbBlockTableRecord
  2
*D64
340
0
  0
BLOCK_RECORD
  5
C3C2
330
7466
100
AcDbSymbolTableRecord
100
AcDbBlockTableRecord
  2
*D65
340
0
  0
BLOCK_RECORD
  5
C3CF
330
7466
100
AcDbSymbolTableRecord
100
AcDbBlockTableRecord
  2
*D66
340
0
  0
BLOCK_RECORD
  5
CDBF
330
7466
100
AcDbSymbolTableRecord
100
AcDbBlockTableRecord
  2
*D67
340
0
  0
ENDTAB
  0
ENDSEC
  0
SECTION
  2
BLOCKS
  0
BLOCK
  5
7489
330
747D
100
AcDbEntity
  8
0
100
AcDbBlockBegin
  2
*MODEL_SPACE
 70
     0
 10
0.0
 20
0.0
 30
0.0
  3
*MODEL_SPACE
  1

  0
ENDBLK
  5
748A
330
747D
100
AcDbEntity
  8
0
100
AcDbBlockEnd
  0
BLOCK
  5
7487
330
747A
100
AcDbEntity
 67
     1
  8
0
100
AcDbBlockBegin
  2
*PAPER_SPACE
 70
     2
 10
0.0
 20
0.0
 30
0.0
  3
*PAPER_SPACE
  1

  0
ENDBLK
  5
7488
330
747A
100
AcDbEntity
 67
     1
  8
0
100
AcDbBlockEnd
  0
BLOCK
  5
B516
330
B50C
100
AcDbEntity
  8
0
 48
15.0
100
AcDbBlockBegin
  2
*D0
 70
     1
 10
0.0
 20
0.0
 30
0.0
  3
*D0
  1

  0
LINE
  5
D4B5
330
B50C
100
AcDbEntity
  8
寸法引出
 48
15.0
370
    -2
100
AcDbLine
 10
1954.505309803666
 20
1312.132126323732
 30
0.0
 11
1954.505309803666
 21
1393.082910689662
 31
0.0
  0
LINE
  5
D4B6
330
B50C
100
AcDbEntity
  8
寸法引出
 48
15.0
370
    -2
100
AcDbLine
 10
3952.505309803666
 20
1312.132126323732
 30
0.0
 11
3952.505309803666
 21
1393.082910689662
 31
0.0
  0
LINE
  5
D4B7
330
B50C
100
AcDbEntity
  8
寸法引出
 48
15.0
370
    -2
100
AcDbLine
 10
1977.005309803666
 20
1385.582910689661
 30
0.0
 11
3930.005309803667
 21
1385.582910689661
 31
0.0
  0
SOLID
  5
D4B8
330
B50C
100
AcDbEntity
  8
寸法引出
 48
15.0
100
AcDbTrace
 10
1977.005309803666
 20
1389.332910689662
 30
0.0
 11
1977.005309803666
 21
1381.832910689662
 31
0.0
 12
1954.505309803666
 22
1385.582910689661
 32
0.0
 13
1954.505309803666
 23
1385.582910689661
 33
0.0
  0
SOLID
  5
D4B9
330
B50C
100
AcDbEntity
  8
寸法引出
 48
15.0
100
AcDbTrace
 10
3930.005309803667
 20
1389.332910689662
 30
0.0
 11
3930.005309803667
 21
1381.832910689662
 31
0.0
 12
3952.505309803666
 22
1385.582910689661
 32
0.0
 13
3952.505309803666
 23
1385.582910689661
 33
0.0
  0
MTEXT
  5
D4BA
330
B50C
100
AcDbEntity
  8
寸法引出
 48
15.0
100
AcDbMText
 10
2953.505309803666
 20
1415.582910689662
 30
0.0
 40
30.0
 41
0.0
 71
     5
 72
     1
  1
\A1;1998
  7
SANWA
 73
     1
 44
1.0
1001
ACAD
1000
MTEXTBEGIN
1070
    73
1070
     1
1070
    44
1040
1.0
1070
    74
1070
     0
1000
MTEXTEND
  0
POINT
  5
D4BB
330
B50C
100
AcDbEntity
  8
DEFPOINTS
 62
     0
 48
15.0
100
AcDbPoint
 10
1954.505309803666
 20
1297.132126323732
 30
0.0
  0
POINT
  5
D4BC
330
B50C
100
AcDbEntity
  8
DEFPOINTS
 62
     0
 48
15.0
100
AcDbPoint
 10
3952.505309803666
 20
1297.132126323732
 30
0.0
  0
POINT
  5
D4BD
330
B50C
100
AcDbEntity
  8
DEFPOINTS
 62
     0
 48
15.0
100
AcDbPoint
 10
3952.505309803666
 20
1385.582910689661
 30
0.0
  0
ENDBLK
  5
B517
330
B50C
100
AcDbEntity
  8
0
 48
15.0
100
AcDbBlockEnd
  0
BLOCK
  5
B521
330
B518
100
AcDbEntity
  8
0
 48
15.0
100
AcDbBlockBegin
  2
*D1
 70
     1
 10
0.0
 20
0.0
 30
0.0
  3
*D1
  1

  0
LINE
  5
D4BE
330
B518
100
AcDbEntity
  8
寸法引出
 48
15.0
370
    -2
100
AcDbLine
 10
972.2814753471658
 20
916.8886189963341
 30
0.0
 11
1078.630691398964
 21
916.8886189963341
 31
0.0
  0
LINE
  5
D4BF
330
B518
100
AcDbEntity
  8
寸法引出
 48
15.0
370
    -2
100
AcDbLine
 10
1071.130691398964
 20
996.3886189963341
 30
0.0
 11
1071.130691398964
 21
939.3886189963341
 31
0.0
  0
SOLID
  5
D4C0
330
B518
100
AcDbEntity
  8
寸法引出
 48
15.0
100
AcDbTrace
 10
1067.380691398964
 20
996.3886189963341
 30
0.0
 11
1074.880691398965
 21
996.3886189963341
 31
0.0
 12
1071.130691398964
 22
1018.888618996334
 32
0.0
 13
1071.130691398964
 23
1018.888618996334
 33
0.0
  0
SOLID
  5
D4C1
330
B518
100
AcDbEntity
  8
寸法引出
 48
15.0
100
AcDbTrace
 10
1067.380691398964
 20
939.3886189963341
 30
0.0
 11
1074.880691398965
 21
939.3886189963341
 31
0.0
 12
1071.130691398964
 22
916.8886189963341
 32
0.0
 13
1071.130691398964
 23
916.8886189963341
 33
0.0
  0
MTEXT
  5
D4C2
330
B518
100
AcDbEntity
  8
寸法引出
 48
15.0
100
AcDbMText
 10
1041.130691398964
 20
967.8886189963343
 30
0.0
 40
30.0
 41
0.0
 71
     5
 72
     1
  1
\A1;34
  7
SANWA
 11
0.0000000000000001
 21
1.0
 31
0.0
 73
     1
 44
1.0
1001
ACAD
1000
MTEXTBEGIN
1070
    73
1070
     1
1070
    44
1040
1.0
1070
    74
1070
     0
1000
MTEXTEND
  0
POINT
  5
D4C3
330
B518
100
AcDbEntity
  8
DEFPOINTS
 62
     0
 48
15.0
100
AcDbPoint
 10
957.2814753471648
 20
1018.888618996334
 30
0.0
  0
POINT
  5
D4C4
330
B518
100
AcDbEntity
  8
DEFPOINTS
 62
     0
 48
15.0
100
AcDbPoint
 10
957.2814753471657
 20
916.8886189963341
 30
0.0
  0
POINT
  5
D4C5
330
B518
100
AcDbEntity
  8
DEFPOINTS
 62
     0
 48
15.0
100
AcDbPoint
 10
1071.130691398964
 20
916.8886189963341
 30
0.0
  0
ENDBLK
  5
B522
330
B518
100
AcDbEntity
  8
0
 48
15.0
100
AcDbBlockEnd
  0
BLOCK
  5
B52E
330
B523
100
AcDbEntity
  8
0
 48
15.0
100
AcDbBlockBegin
  2
*D2
 70
     1
 10
0.0
 20
0.0
 30
0.0
  3
*D2
  1

  0
LINE
  5
D4C6
330
B523
100
AcDbEntity
  8
寸法引出
 48
15.0
370
    -2
100
AcDbLine
 10
972.2814753471649
 20
1018.888618996334
 30
0.0
 11
1078.630691398964
 21
1018.888618996334
 31
0.0
  0
LINE
  5
D4C7
330
B523
100
AcDbEntity
  8
寸法引出
 48
15.0
370
    -2
100
AcDbLine
 10
1071.130691398964
 20
1068.388618996334
 30
0.0
 11
1071.130691398964
 21
1090.888618996334
 31
0.0
  0
LINE
  5
D4C8
330
B523
100
AcDbEntity
  8
寸法引出
 48
15.0
370
    -2
100
AcDbLine
 10
1071.130691398964
 20
996.3886189963341
 30
0.0
 11
1071.130691398964
 21
973.8886189963341
 31
0.0
  0
LINE
  5
D4C9
330
B523
100
AcDbEntity
  8
寸法引出
 48
15.0
370
    -2
100
AcDbLine
 10
1071.130691398964
 20
1045.888618996334
 30
0.0
 11
1071.130691398964
 21
1018.888618996334
 31
0.0
  0
SOLID
  5
D4CA
330
B523
100
AcDbEntity
  8
寸法引出
 48
15.0
100
AcDbTrace
 10
1067.380691398964
 20
1068.388618996334
 30
0.0
 11
1074.880691398965
 21
1068.388618996334
 31
0.0
 12
1071.130691398964
 22
1045.888618996334
 32
0.0
 13
1071.130691398964
 23
1045.888618996334
 33
0.0
  0
SOLID
  5
D4CB
330
B523
100
AcDbEntity
  8
寸法引出
 48
15.0
100
AcDbTrace
 10
1067.380691398964
 20
996.3886189963341
 30
0.0
 11
1074.880691398965
 21
996.3886189963341
 31
0.0
 12
1071.130691398964
 22
1018.888618996334
 32
0.0
 13
1071.130691398964
 23
1018.888618996334
 33
0.0
  0
MTEXT
  5
D4CC
330
B523
100
AcDbEntity
  8
寸法引出
 48
15.0
100
AcDbMText
 10
1041.130691398964
 20
1032.388618996334
 30
0.0
 40
30.0
 41
0.0
 71
     5
 72
     1
  1
\A1;9
  7
SANWA
 11
0.0000000000000001
 21
1.0
 31
0.0
 73
     1
 44
1.0
1001
ACAD
1000
MTEXTBEGIN
1070
    73
1070
     1
1070
    44
1040
1.0
1070
    74
1070
     0
1000
MTEXTEND
  0
POINT
  5
D4CD
330
B523
100
AcDbEntity
  8
DEFPOINTS
 62
     0
 48
15.0
100
AcDbPoint
 10
984.2814753471648
 20
1045.888618996334
 30
0.0
  0
POINT
  5
D4CE
330
B523
100
AcDbEntity
  8
DEFPOINTS
 62
     0
 48
15.0
100
AcDbPoint
 10
957.2814753471648
 20
1018.888618996334
 30
0.0
  0
POINT
  5
D4CF
330
B523
100
AcDbEntity
  8
DEFPOINTS
 62
     0
 48
15.0
100
AcDbPoint
 10
1071.130691398964
 20
1018.888618996334
 30
0.0
  0
ENDBLK
  5
B52F
330
B523
100
AcDbEntity
  8
0
 48
15.0
100
AcDbBlockEnd
  0
BLOCK
  5
B53C
330
B530
100
AcDbEntity
  8
0
 48
15.0
100
AcDbBlockBegin
  2
*D3
 70
     1
 10
0.0
 20
0.0
 30
0.0
  3
*D3
  1

  0
LINE
  5
D4D0
330
B530
100
AcDbEntity
  8
寸法引出
 48
15.0
370
    -2
100
AcDbLine
 10
999.2814753471648
 20
1108.888618996334
 30
0.0
 11
1078.630691398964
 21
1108.888618996334
 31
0.0
  0
LINE
  5
D4D1
330
B530
100
AcDbEntity
  8
寸法引出
 48
15.0
370
    -2
100
AcDbLine
 10
999.2814753471648
 20
1045.888618996334
 30
0.0
 11
1078.630691398964
 21
1045.888618996334
 31
0.0
  0
LINE
  5
D4D2
330
B530
100
AcDbEntity
  8
寸法引出
 48
15.0
370
    -2
100
AcDbLine
 10
1071.130691398964
 20
1131.388618996334
 30
0.0
 11
1071.130691398964
 21
1153.888618996334
 31
0.0
  0
LINE
  5
D4D3
330
B530
100
AcDbEntity
  8
寸法引出
 48
15.0
370
    -2
100
AcDbLine
 10
1071.130691398964
 20
1023.388618996334
 30
0.0
 11
1071.130691398964
 21
1000.888618996334
 31
0.0
  0
LINE
  5
D4D4
330
B530
100
AcDbEntity
  8
寸法引出
 48
15.0
370
    -2
100
AcDbLine
 10
1071.130691398964
 20
1108.888618996334
 30
0.0
 11
1071.130691398964
 21
1045.888618996334
 31
0.0
  0
SOLID
  5
D4D5
330
B530
100
AcDbEntity
  8
寸法引出
 48
15.0
100
AcDbTrace
 10
1067.380691398964
 20
1131.388618996334
 30
0.0
 11
1074.880691398965
 21
1131.388618996334
 31
0.0
 12
1071.130691398964
 22
1108.888618996334
 32
0.0
 13
1071.130691398964
 23
1108.888618996334
 33
0.0
  0
SOLID
  5
D4D6
330
B530
100
AcDbEntity
  8
寸法引出
 48
15.0
100
AcDbTrace
 10
1067.380691398964
 20
1023.388618996334
 30
0.0
 11
1074.880691398965
 21
1023.388618996334
 31
0.0
 12
1071.130691398964
 22
1045.888618996334
 32
0.0
 13
1071.130691398964
 23
1045.888618996334
 33
0.0
  0
MTEXT
  5
D4D7
330
B530
100
AcDbEntity
  8
寸法引出
 48
15.0
100
AcDbMText
 10
1041.130691398964
 20
1077.388618996334
 30
0.0
 40
30.0
 41
0.0
 71
     5
 72
     1
  1
\A1;21
  7
SANWA
 11
0.0000000000000001
 21
1.0
 31
0.0
 73
     1
 44
1.0
1001
ACAD
1000
MTEXTBEGIN
1070
    73
1070
     1
1070
    44
1040
1.0
1070
    74
1070
     0
1000
MTEXTEND
  0
POINT
  5
D4D8
330
B530
100
AcDbEntity
  8
DEFPOINTS
 62
     0
 48
15.0
100
AcDbPoint
 10
984.2814753471648
 20
1108.888618996334
 30
0.0
  0
POINT
  5
D4D9
330
B530
100
AcDbEntity
  8
DEFPOINTS
 62
     0
 48
15.0
100
AcDbPoint
 10
984.2814753471648
 20
1045.888618996334
 30
0.0
  0
POINT
  5
D4DA
330
B530
100
AcDbEntity
  8
DEFPOINTS
 62
     0
 48
15.0
100
AcDbPoint
 10
1071.130691398964
 20
1045.888618996334
 30
0.0
  0
ENDBLK
  5
B53D
330
B530
100
AcDbEntity
  8
0
 48
15.0
100
AcDbBlockEnd
  0
BLOCK
  5
B548
330
B53E
100
AcDbEntity
  8
0
 48
15.0
100
AcDbBlockBegin
  2
*D4
 70
     1
 10
0.0
 20
0.0
 30
0.0
  3
*D4
  1

  0
LINE
  5
D4DB
330
B53E
100
AcDbEntity
  8
寸法引出
 48
15.0
370
    -2
100
AcDbLine
 10
972.2814753471649
 20
1018.888618996334
 30
0.0
 11
1023.388318363864
 21
1018.888618996334
 31
0.0
  0
LINE
  5
D4DC
330
B53E
100
AcDbEntity
  8
寸法引出
 48
15.0
370
    -2
100
AcDbLine
 10
970.5167694648116
 20
922.8886189963342
 30
0.0
 11
1023.388318363864
 21
922.8886189963342
 31
0.0
  0
LINE
  5
D4DD
330
B53E
100
AcDbEntity
  8
寸法引出
 48
15.0
370
    -2
100
AcDbLine
 10
1015.888318363864
 20
996.3886189963341
 30
0.0
 11
1015.888318363864
 21
945.3886189963341
 31
0.0
  0
SOLID
  5
D4DE
330
B53E
100
AcDbEntity
  8
寸法引出
 48
15.0
100
AcDbTrace
 10
1012.138318363864
 20
996.3886189963341
 30
0.0
 11
1019.638318363864
 21
996.3886189963341
 31
0.0
 12
1015.888318363864
 22
1018.888618996334
 32
0.0
 13
1015.888318363864
 23
1018.888618996334
 33
0.0
  0
SOLID
  5
D4DF
330
B53E
100
AcDbEntity
  8
寸法引出
 48
15.0
100
AcDbTrace
 10
1012.138318363864
 20
945.3886189963341
 30
0.0
 11
1019.638318363864
 21
945.3886189963341
 31
0.0
 12
1015.888318363864
 22
922.8886189963342
 32
0.0
 13
1015.888318363864
 23
922.8886189963342
 33
0.0
  0
MTEXT
  5
D4E0
330
B53E
100
AcDbEntity
  8
寸法引出
 48
15.0
100
AcDbMText
 10
985.8883183638644
 20
970.8886189963342
 30
0.0
 40
30.0
 41
0.0
 71
     5
 72
     1
  1
\A1;32
  7
SANWA
 11
0.0000000000000001
 21
1.0
 31
0.0
 73
     1
 44
1.0
1001
ACAD
1000
MTEXTBEGIN
1070
    73
1070
     1
1070
    44
1040
1.0
1070
    74
1070
     0
1000
MTEXTEND
  0
POINT
  5
D4E1
330
B53E
100
AcDbEntity
  8
DEFPOINTS
 62
     0
 48
15.0
100
AcDbPoint
 10
957.2814753471648
 20
1018.888618996334
 30
0.0
  0
POINT
  5
D4E2
330
B53E
100
AcDbEntity
  8
DEFPOINTS
 62
     0
 48
15.0
100
AcDbPoint
 10
955.5167694648117
 20
922.8886189963342
 30
0.0
  0
POINT
  5
D4E3
330
B53E
100
AcDbEntity
  8
DEFPOINTS
 62
     0
 48
15.0
100
AcDbPoint
 10
1015.888318363864
 20
922.8886189963342
 30
0.0
  0
ENDBLK
  5
B549
330
B53E
100
AcDbEntity
  8
0
 48
15.0
100
AcDbBlockEnd
  0
BLOCK
  5
B550
330
B54A
100
AcDbEntity
  8
0
 48
15.0
100
AcDbBlockBegin
  2
*D5
 70
     1
 10
0.0
 20
0.0
 30
0.0
  3
*D5
  1

  0
LINE
  5
D4E4
330
B54A
100
AcDbEntity
  8
寸法引出
 48
15.0
370
    -2
100
AcDbLine
 10
829.8550474428061
 20
939.934799635904
 30
0.0
 11
768.6003138147371
 21
1022.502671131684
 31
0.0
  0
MTEXT
  5
D4E5
330
B54A
100
AcDbEntity
  8
寸法引出
 48
15.0
100
AcDbMText
 10
833.061203263951
 20
985.9643969636739
 30
0.0
 40
30.0
 41
0.0
 71
     5
 72
     1
  1
\A1;R9
  7
SANWA
 11
0.5958136738726744
 21
-0.8031226967446173
 31
0.0
 73
     1
 44
1.0
1001
ACAD
1000
MTEXTBEGIN
1070
    73
1070
     1
1070
    44
1040
1.0
1070
    74
1070
     0
1000
MTEXTEND
  0
SOLID
  5
D4E6
330
B54A
100
AcDbEntity
  8
寸法引出
 48
15.0
100
AcDbTrace
 10
771.6120239275293
 20
1024.736972408707
 30
0.0
 11
765.5886037019447
 21
1020.268369854662
 31
0.0
 12
755.1945061526018
 22
1040.572931808438
 32
0.0
 13
755.1945061526018
 23
1040.572931808438
 33
0.0
  0
POINT
  5
D4E7
330
B54A
100
AcDbEntity
  8
DEFPOINTS
 62
     0
 48
15.0
100
AcDbPoint
 10
755.1945061526018
 20
1040.572931808438
 30
0.0
  0
POINT
  5
D4E8
330
B54A
100
AcDbEntity
  8
DEFPOINTS
 62
     0
 48
15.0
100
AcDbPoint
 10
771.2814753471632
 20
1018.888618996335
 30
0.0
  0
ENDBLK
  5
B551
330
B54A
100
AcDbEntity
  8
0
 48
15.0
100
AcDbBlockEnd
  0
BLOCK
  5
B55E
330
B552
100
AcDbEntity
  8
0
 48
15.0
100
AcDbBlockBegin
  2
*D6
 70
     1
 10
0.0
 20
0.0
 30
0.0
  3
*D6
  1

  0
LINE
  5
D4E9
330
B552
100
AcDbEntity
  8
寸法引出
 48
15.0
370
    -2
100
AcDbLine
 10
729.2814753471648
 20
916.8886189963341
 30
0.0
 11
622.7178121301003
 21
916.8886189963341
 31
0.0
  0
LINE
  5
D4EA
330
B552
100
AcDbEntity
  8
寸法引出
 48
15.0
370
    -2
100
AcDbLine
 10
729.2814753471648
 20
991.8886189963341
 30
0.0
 11
622.7178121301003
 21
991.8886189963341
 31
0.0
  0
LINE
  5
D4EB
330
B552
100
AcDbEntity
  8
寸法引出
 48
15.0
370
    -2
100
AcDbLine
 10
630.2178121301003
 20
894.3886189963341
 30
0.0
 11
630.2178121301003
 21
871.888618996334
 31
0.0
  0
LINE
  5
D4EC
330
B552
100
AcDbEntity
  8
寸法引出
 48
15.0
370
    -2
100
AcDbLine
 10
630.2178121301003
 20
1014.388618996334
 30
0.0
 11
630.2178121301003
 21
1036.888618996334
 31
0.0
  0
LINE
  5
D4ED
330
B552
100
AcDbEntity
  8
寸法引出
 48
15.0
370
    -2
100
AcDbLine
 10
630.2178121301003
 20
916.8886189963341
 30
0.0
 11
630.2178121301003
 21
991.8886189963341
 31
0.0
  0
SOLID
  5
D4EE
330
B552
100
AcDbEntity
  8
寸法引出
 48
15.0
100
AcDbTrace
 10
626.4678121301003
 20
894.3886189963341
 30
0.0
 11
633.9678121301004
 21
894.3886189963341
 31
0.0
 12
630.2178121301003
 22
916.8886189963341
 32
0.0
 13
630.2178121301003
 23
916.8886189963341
 33
0.0
  0
SOLID
  5
D4EF
330
B552
100
AcDbEntity
  8
寸法引出
 48
15.0
100
AcDbTrace
 10
626.4678121301003
 20
1014.388618996334
 30
0.0
 11
633.9678121301004
 21
1014.388618996334
 31
0.0
 12
630.2178121301003
 22
991.8886189963341
 32
0.0
 13
630.2178121301003
 23
991.8886189963341
 33
0.0
  0
MTEXT
  5
D4F0
330
B552
100
AcDbEntity
  8
寸法引出
 48
15.0
100
AcDbMText
 10
600.2178121301002
 20
954.3886189963343
 30
0.0
 40
30.0
 41
0.0
 71
     5
 72
     1
  1
\A1;25
  7
SANWA
 11
0.0000000000000001
 21
1.0
 31
0.0
 73
     1
 44
1.0
1001
ACAD
1000
MTEXTBEGIN
1070
    73
1070
     1
1070
    44
1040
1.0
1070
    74
1070
     0
1000
MTEXTEND
  0
POINT
  5
D4F1
330
B552
100
AcDbEntity
  8
DEFPOINTS
 62
     0
 48
15.0
100
AcDbPoint
 10
744.2814753471648
 20
916.8886189963341
 30
0.0
  0
POINT
  5
D4F2
330
B552
100
AcDbEntity
  8
DEFPOINTS
 62
     0
 48
15.0
100
AcDbPoint
 10
744.2814753471648
 20
991.8886189963341
 30
0.0
  0
POINT
  5
D4F3
330
B552
100
AcDbEntity
  8
DEFPOINTS
 62
     0
 48
15.0
100
AcDbPoint
 10
630.2178121301003
 20
991.8886189963341
 30
0.0
  0
ENDBLK
  5
B55F
330
B552
100
AcDbEntity
  8
0
 48
15.0
100
AcDbBlockEnd
  0
BLOCK
  5
B56C
330
B560
100
AcDbEntity
  8
0
 48
15.0
100
AcDbBlockBegin
  2
*D7
 70
     1
 10
0.0
 20
0.0
 30
0.0
  3
*D7
  1

  0
LINE
  5
D4F4
330
B560
100
AcDbEntity
  8
寸法引出
 48
15.0
370
    -2
100
AcDbLine
 10
729.2814753471648
 20
916.8886189963341
 30
0.0
 11
689.6691270493356
 21
916.8886189963341
 31
0.0
  0
LINE
  5
D4F5
330
B560
100
AcDbEntity
  8
寸法引出
 48
15.0
370
    -2
100
AcDbLine
 10
729.2814753471648
 20
922.8886189963342
 30
0.0
 11
689.6691270493356
 21
922.8886189963342
 31
0.0
  0
LINE
  5
D4F6
330
B560
100
AcDbEntity
  8
寸法引出
 48
15.0
370
    -2
100
AcDbLine
 10
697.1691270493356
 20
894.3886189963341
 30
0.0
 11
697.1691270493356
 21
871.888618996334
 31
0.0
  0
LINE
  5
D4F7
330
B560
100
AcDbEntity
  8
寸法引出
 48
15.0
370
    -2
100
AcDbLine
 10
697.1691270493356
 20
945.3886189963341
 30
0.0
 11
697.1691270493356
 21
967.8886189963341
 31
0.0
  0
LINE
  5
D4F8
330
B560
100
AcDbEntity
  8
寸法引出
 48
15.0
370
    -2
100
AcDbLine
 10
697.1691270493356
 20
916.8886189963341
 30
0.0
 11
697.1691270493356
 21
922.8886189963342
 31
0.0
  0
SOLID
  5
D4F9
330
B560
100
AcDbEntity
  8
寸法引出
 48
15.0
100
AcDbTrace
 10
693.4191270493356
 20
894.3886189963341
 30
0.0
 11
700.9191270493356
 21
894.3886189963341
 31
0.0
 12
697.1691270493356
 22
916.8886189963341
 32
0.0
 13
697.1691270493356
 23
916.8886189963341
 33
0.0
  0
SOLID
  5
D4FA
330
B560
100
AcDbEntity
  8
寸法引出
 48
15.0
100
AcDbTrace
 10
693.4191270493356
 20
945.3886189963341
 30
0.0
 11
700.9191270493356
 21
945.3886189963341
 31
0.0
 12
697.1691270493356
 22
922.8886189963342
 32
0.0
 13
697.1691270493356
 23
922.8886189963342
 33
0.0
  0
MTEXT
  5
D4FB
330
B560
100
AcDbEntity
  8
寸法引出
 48
15.0
100
AcDbMText
 10
667.1691270493354
 20
919.8886189963342
 30
0.0
 40
30.0
 41
0.0
 71
     5
 72
     1
  1
\A1;2
  7
SANWA
 11
0.0000000000000001
 21
1.0
 31
0.0
 73
     1
 44
1.0
1001
ACAD
1000
MTEXTBEGIN
1070
    73
1070
     1
1070
    44
1040
1.0
1070
    74
1070
     0
1000
MTEXTEND
  0
POINT
  5
D4FC
330
B560
100
AcDbEntity
  8
DEFPOINTS
 62
     0
 48
15.0
100
AcDbPoint
 10
744.2814753471648
 20
916.8886189963341
 30
0.0
  0
POINT
  5
D4FD
330
B560
100
AcDbEntity
  8
DEFPOINTS
 62
     0
 48
15.0
100
AcDbPoint
 10
744.2814753471648
 20
922.8886189963342
 30
0.0
  0
POINT
  5
D4FE
330
B560
100
AcDbEntity
  8
DEFPOINTS
 62
     0
 48
15.0
100
AcDbPoint
 10
697.1691270493356
 20
922.8886189963342
 30
0.0
  0
ENDBLK
  5
B56D
330
B560
100
AcDbEntity
  8
0
 48
15.0
100
AcDbBlockEnd
  0
BLOCK
  5
B579
330
B56E
100
AcDbEntity
  8
0
 48
15.0
100
AcDbBlockBegin
  2
*D8
 70
     1
 10
0.0
 20
0.0
 30
0.0
  3
*D8
  1

  0
LINE
  5
D4FF
330
B56E
100
AcDbEntity
  8
寸法引出
 48
15.0
370
    -2
100
AcDbLine
 10
957.2814753471648
 20
901.8886189963341
 30
0.0
 11
957.2814753471648
 21
852.3189849473528
 31
0.0
  0
LINE
  5
D500
330
B56E
100
AcDbEntity
  8
寸法引出
 48
15.0
370
    -2
100
AcDbLine
 10
904.7814753471648
 20
859.8189849473529
 30
0.0
 11
882.2814753471648
 21
859.8189849473529
 31
0.0
  0
LINE
  5
D501
330
B56E
100
AcDbEntity
  8
寸法引出
 48
15.0
370
    -2
100
AcDbLine
 10
979.7814753471648
 20
859.8189849473529
 30
0.0
 11
1002.281475347165
 21
859.8189849473529
 31
0.0
  0
LINE
  5
D502
330
B56E
100
AcDbEntity
  8
寸法引出
 48
15.0
370
    -2
100
AcDbLine
 10
927.2814753471648
 20
859.8189849473529
 30
0.0
 11
957.2814753471648
 21
859.8189849473529
 31
0.0
  0
SOLID
  5
D503
330
B56E
100
AcDbEntity
  8
寸法引出
 48
15.0
100
AcDbTrace
 10
904.7814753471648
 20
863.5689849473529
 30
0.0
 11
904.7814753471648
 21
856.0689849473529
 31
0.0
 12
927.2814753471648
 22
859.8189849473529
 32
0.0
 13
927.2814753471648
 23
859.8189849473529
 33
0.0
  0
SOLID
  5
D504
330
B56E
100
AcDbEntity
  8
寸法引出
 48
15.0
100
AcDbTrace
 10
979.7814753471648
 20
863.5689849473529
 30
0.0
 11
979.7814753471648
 21
856.0689849473529
 31
0.0
 12
957.2814753471648
 22
859.8189849473529
 32
0.0
 13
957.2814753471648
 23
859.8189849473529
 33
0.0
  0
MTEXT
  5
D505
330
B56E
100
AcDbEntity
  8
寸法引出
 48
15.0
100
AcDbMText
 10
942.2814753471648
 20
889.8189849473528
 30
0.0
 40
30.0
 41
0.0
 71
     5
 72
     1
  1
\A1;10
  7
SANWA
 73
     1
 44
1.0
1001
ACAD
1000
MTEXTBEGIN
1070
    73
1070
     1
1070
    44
1040
1.0
1070
    74
1070
     0
1000
MTEXTEND
  0
POINT
  5
D506
330
B56E
100
AcDbEntity
  8
DEFPOINTS
 62
     0
 48
15.0
100
AcDbPoint
 10
927.2814753471648
 20
916.8886189963341
 30
0.0
  0
POINT
  5
D507
330
B56E
100
AcDbEntity
  8
DEFPOINTS
 62
     0
 48
15.0
100
AcDbPoint
 10
957.2814753471648
 20
916.8886189963341
 30
0.0
  0
POINT
  5
D508
330
B56E
100
AcDbEntity
  8
DEFPOINTS
 62
     0
 48
15.0
100
AcDbPoint
 10
957.2814753471648
 20
859.8189849473529
 30
0.0
  0
ENDBLK
  5
B57A
330
B56E
100
AcDbEntity
  8
0
 48
15.0
100
AcDbBlockEnd
  0
BLOCK
  5
B585
330
B57B
100
AcDbEntity
  8
0
 48
15.0
100
AcDbBlockBegin
  2
*D9
 70
     1
 10
0.0
 20
0.0
 30
0.0
  3
*D9
  1

  0
LINE
  5
D509
330
B57B
100
AcDbEntity
  8
寸法引出
 48
15.0
370
    -2
100
AcDbLine
 10
744.2814753471648
 20
901.8886189963341
 30
0.0
 11
744.2814753471648
 21
852.3189849473528
 31
0.0
  0
LINE
  5
D50A
330
B57B
100
AcDbEntity
  8
寸法引出
 48
15.0
370
    -2
100
AcDbLine
 10
927.2814753471648
 20
901.8886189963341
 30
0.0
 11
927.2814753471648
 21
852.3189849473528
 31
0.0
  0
LINE
  5
D50B
330
B57B
100
AcDbEntity
  8
寸法引出
 48
15.0
370
    -2
100
AcDbLine
 10
766.7814753471648
 20
859.8189849473529
 30
0.0
 11
904.7814753471648
 21
859.8189849473529
 31
0.0
  0
SOLID
  5
D50C
330
B57B
100
AcDbEntity
  8
寸法引出
 48
15.0
100
AcDbTrace
 10
766.7814753471648
 20
863.5689849473529
 30
0.0
 11
766.7814753471648
 21
856.0689849473529
 31
0.0
 12
744.2814753471648
 22
859.8189849473529
 32
0.0
 13
744.2814753471648
 23
859.8189849473529
 33
0.0
  0
SOLID
  5
D50D
330
B57B
100
AcDbEntity
  8
寸法引出
 48
15.0
100
AcDbTrace
 10
904.7814753471648
 20
863.5689849473529
 30
0.0
 11
904.7814753471648
 21
856.0689849473529
 31
0.0
 12
927.2814753471648
 22
859.8189849473529
 32
0.0
 13
927.2814753471648
 23
859.8189849473529
 33
0.0
  0
MTEXT
  5
D50E
330
B57B
100
AcDbEntity
  8
寸法引出
 48
15.0
100
AcDbMText
 10
835.7814753471648
 20
889.8189849473528
 30
0.0
 40
30.0
 41
0.0
 71
     5
 72
     1
  1
\A1;61
  7
SANWA
 73
     1
 44
1.0
1001
ACAD
1000
MTEXTBEGIN
1070
    73
1070
     1
1070
    44
1040
1.0
1070
    74
1070
     0
1000
MTEXTEND
  0
POINT
  5
D50F
330
B57B
100
AcDbEntity
  8
DEFPOINTS
 62
     0
 48
15.0
100
AcDbPoint
 10
744.2814753471648
 20
916.8886189963341
 30
0.0
  0
POINT
  5
D510
330
B57B
100
AcDbEntity
  8
DEFPOINTS
 62
     0
 48
15.0
100
AcDbPoint
 10
927.2814753471648
 20
916.8886189963341
 30
0.0
  0
POINT
  5
D511
330
B57B
100
AcDbEntity
  8
DEFPOINTS
 62
     0
 48
15.0
100
AcDbPoint
 10
927.2814753471648
 20
859.8189849473529
 30
0.0
  0
ENDBLK
  5
B586
330
B57B
100
AcDbEntity
  8
0
 48
15.0
100
AcDbBlockEnd
  0
BLOCK
  5
B592
330
B587
100
AcDbEntity
  8
0
 48
15.0
100
AcDbBlockBegin
  2
*D10
 70
     1
 10
0.0
 20
0.0
 30
0.0
  3
*D10
  1

  0
LINE
  5
D512
330
B587
100
AcDbEntity
  8
寸法引出
 48
15.0
370
    -2
100
AcDbLine
 10
972.2814753471649
 20
916.8886189963341
 30
0.0
 11
1023.388318363864
 21
916.8886189963341
 31
0.0
  0
LINE
  5
D513
330
B587
100
AcDbEntity
  8
寸法引出
 48
15.0
370
    -2
100
AcDbLine
 10
1015.888318363864
 20
945.3886189963341
 30
0.0
 11
1015.888318363864
 21
967.8886189963341
 31
0.0
  0
LINE
  5
D514
330
B587
100
AcDbEntity
  8
寸法引出
 48
15.0
370
    -2
100
AcDbLine
 10
1015.888318363864
 20
894.3886189963341
 30
0.0
 11
1015.888318363864
 21
871.888618996334
 31
0.0
  0
LINE
  5
D515
330
B587
100
AcDbEntity
  8
寸法引出
 48
15.0
370
    -2
100
AcDbLine
 10
1015.888318363864
 20
922.8886189963342
 30
0.0
 11
1015.888318363864
 21
916.8886189963341
 31
0.0
  0
SOLID
  5
D516
330
B587
100
AcDbEntity
  8
寸法引出
 48
15.0
100
AcDbTrace
 10
1012.138318363864
 20
945.3886189963341
 30
0.0
 11
1019.638318363864
 21
945.3886189963341
 31
0.0
 12
1015.888318363864
 22
922.8886189963342
 32
0.0
 13
1015.888318363864
 23
922.8886189963342
 33
0.0
  0
SOLID
  5
D517
330
B587
100
AcDbEntity
  8
寸法引出
 48
15.0
100
AcDbTrace
 10
1012.138318363864
 20
894.3886189963341
 30
0.0
 11
1019.638318363864
 21
894.3886189963341
 31
0.0
 12
1015.888318363864
 22
916.8886189963341
 32
0.0
 13
1015.888318363864
 23
916.8886189963341
 33
0.0
  0
MTEXT
  5
D518
330
B587
100
AcDbEntity
  8
寸法引出
 48
15.0
100
AcDbMText
 10
985.8883183638642
 20
919.8886189963342
 30
0.0
 40
30.0
 41
0.0
 71
     5
 72
     1
  1
\A1;2
  7
SANWA
 11
0.0000000000000001
 21
1.0
 31
0.0
 73
     1
 44
1.0
1001
ACAD
1000
MTEXTBEGIN
1070
    73
1070
     1
1070
    44
1040
1.0
1070
    74
1070
     0
1000
MTEXTEND
  0
POINT
  5
D519
330
B587
100
AcDbEntity
  8
DEFPOINTS
 62
     0
 48
15.0
100
AcDbPoint
 10
955.5167694648117
 20
922.8886189963342
 30
0.0
  0
POINT
  5
D51A
330
B587
100
AcDbEntity
  8
DEFPOINTS
 62
     0
 48
15.0
100
AcDbPoint
 10
957.2814753471648
 20
916.8886189963341
 30
0.0
  0
POINT
  5
D51B
330
B587
100
AcDbEntity
  8
DEFPOINTS
 62
     0
 48
15.0
100
AcDbPoint
 10
1015.888318363864
 20
916.8886189963341
 30
0.0
  0
ENDBLK
  5
B593
330
B587
100
AcDbEntity
  8
0
 48
15.0
100
AcDbBlockEnd
  0
BLOCK
  5
B59F
330
B594
100
AcDbEntity
  8
0
 48
15.0
100
AcDbBlockBegin
  2
*D11
 70
     1
 10
0.0
 20
0.0
 30
0.0
  3
*D11
  1

  0
LINE
  5
D51C
330
B594
100
AcDbEntity
  8
寸法引出
 48
15.0
370
    -2
100
AcDbLine
 10
984.2814753471648
 20
1123.888618996334
 30
0.0
 11
984.2814753471648
 21
1152.189743662504
 31
0.0
  0
LINE
  5
D51D
330
B594
100
AcDbEntity
  8
寸法引出
 48
15.0
370
    -2
100
AcDbLine
 10
934.7814753471649
 20
1144.689743662504
 30
0.0
 11
912.2814753471647
 21
1144.689743662504
 31
0.0
  0
LINE
  5
D51E
330
B594
100
AcDbEntity
  8
寸法引出
 48
15.0
370
    -2
100
AcDbLine
 10
1006.781475347165
 20
1144.689743662504
 30
0.0
 11
1029.281475347165
 21
1144.689743662504
 31
0.0
  0
LINE
  5
D51F
330
B594
100
AcDbEntity
  8
寸法引出
 48
15.0
370
    -2
100
AcDbLine
 10
957.2814753471648
 20
1144.689743662504
 30
0.0
 11
984.2814753471648
 21
1144.689743662504
 31
0.0
  0
SOLID
  5
D520
330
B594
100
AcDbEntity
  8
寸法引出
 48
15.0
100
AcDbTrace
 10
934.7814753471649
 20
1148.439743662504
 30
0.0
 11
934.7814753471649
 21
1140.939743662504
 31
0.0
 12
957.2814753471648
 22
1144.689743662504
 32
0.0
 13
957.2814753471648
 23
1144.689743662504
 33
0.0
  0
SOLID
  5
D521
330
B594
100
AcDbEntity
  8
寸法引出
 48
15.0
100
AcDbTrace
 10
1006.781475347165
 20
1148.439743662504
 30
0.0
 11
1006.781475347165
 21
1140.939743662504
 31
0.0
 12
984.2814753471648
 22
1144.689743662504
 32
0.0
 13
984.2814753471648
 23
1144.689743662504
 33
0.0
  0
MTEXT
  5
D522
330
B594
100
AcDbEntity
  8
寸法引出
 48
15.0
100
AcDbMText
 10
970.7814753471648
 20
1174.689743662504
 30
0.0
 40
30.0
 41
0.0
 71
     5
 72
     1
  1
\A1;9
  7
SANWA
 73
     1
 44
1.0
1001
ACAD
1000
MTEXTBEGIN
1070
    73
1070
     1
1070
    44
1040
1.0
1070
    74
1070
     0
1000
MTEXTEND
  0
POINT
  5
D523
330
B594
100
AcDbEntity
  8
DEFPOINTS
 62
     0
 48
15.0
100
AcDbPoint
 10
957.2814753471648
 20
1108.888618996334
 30
0.0
  0
POINT
  5
D524
330
B594
100
AcDbEntity
  8
DEFPOINTS
 62
     0
 48
15.0
100
AcDbPoint
 10
984.2814753471648
 20
1108.888618996334
 30
0.0
  0
POINT
  5
D525
330
B594
100
AcDbEntity
  8
DEFPOINTS
 62
     0
 48
15.0
100
AcDbPoint
 10
984.2814753471648
 20
1144.689743662504
 30
0.0
  0
ENDBLK
  5
B5A0
330
B594
100
AcDbEntity
  8
0
 48
15.0
100
AcDbBlockEnd
  0
BLOCK
  5
B5AA
330
B5A1
100
AcDbEntity
  8
0
 48
15.0
100
AcDbBlockBegin
  2
*D12
 70
     1
 10
0.0
 20
0.0
 30
0.0
  3
*D12
  1

  0
LINE
  5
D526
330
B5A1
100
AcDbEntity
  8
寸法引出
 48
15.0
370
    -2
100
AcDbLine
 10
957.2814753471648
 20
1123.888618996334
 30
0.0
 11
957.2814753471648
 21
1152.189743662504
 31
0.0
  0
LINE
  5
D527
330
B5A1
100
AcDbEntity
  8
寸法引出
 48
15.0
370
    -2
100
AcDbLine
 10
793.7814753471648
 20
1144.689743662504
 30
0.0
 11
934.7814753471649
 21
1144.689743662504
 31
0.0
  0
SOLID
  5
D528
330
B5A1
100
AcDbEntity
  8
寸法引出
 48
15.0
100
AcDbTrace
 10
793.7814753471648
 20
1148.439743662504
 30
0.0
 11
793.7814753471648
 21
1140.939743662504
 31
0.0
 12
771.2814753471648
 22
1144.689743662504
 32
0.0
 13
771.2814753471648
 23
1144.689743662504
 33
0.0
  0
SOLID
  5
D529
330
B5A1
100
AcDbEntity
  8
寸法引出
 48
15.0
100
AcDbTrace
 10
934.7814753471649
 20
1148.439743662504
 30
0.0
 11
934.7814753471649
 21
1140.939743662504
 31
0.0
 12
957.2814753471648
 22
1144.689743662504
 32
0.0
 13
957.2814753471648
 23
1144.689743662504
 33
0.0
  0
MTEXT
  5
D52A
330
B5A1
100
AcDbEntity
  8
寸法引出
 48
15.0
100
AcDbMText
 10
864.2814753471649
 20
1174.689743662504
 30
0.0
 40
30.0
 41
0.0
 71
     5
 72
     1
  1
\A1;62
  7
SANWA
 73
     1
 44
1.0
1001
ACAD
1000
MTEXTBEGIN
1070
    73
1070
     1
1070
    44
1040
1.0
1070
    74
1070
     0
1000
MTEXTEND
  0
POINT
  5
D52B
330
B5A1
100
AcDbEntity
  8
DEFPOINTS
 62
     0
 48
15.0
100
AcDbPoint
 10
771.2814753471648
 20
1045.888618996334
 30
0.0
  0
POINT
  5
D52C
330
B5A1
100
AcDbEntity
  8
DEFPOINTS
 62
     0
 48
15.0
100
AcDbPoint
 10
957.2814753471648
 20
1108.888618996334
 30
0.0
  0
POINT
  5
D52D
330
B5A1
100
AcDbEntity
  8
DEFPOINTS
 62
     0
 48
15.0
100
AcDbPoint
 10
957.2814753471648
 20
1144.689743662504
 30
0.0
  0
ENDBLK
  5
B5AB
330
B5A1
100
AcDbEntity
  8
0
 48
15.0
100
AcDbBlockEnd
  0
BLOCK
  5
B5B8
330
B5AC
100
AcDbEntity
  8
0
 48
15.0
100
AcDbBlockBegin
  2
*D13
 70
     1
 10
0.0
 20
0.0
 30
0.0
  3
*D13
  1

  0
LINE
  5
D52E
330
B5AC
100
AcDbEntity
  8
寸法引出
 48
15.0
370
    -2
100
AcDbLine
 10
744.2814753471648
 20
1033.888618996334
 30
0.0
 11
744.2814753471648
 21
1152.189743662504
 31
0.0
  0
LINE
  5
D52F
330
B5AC
100
AcDbEntity
  8
寸法引出
 48
15.0
370
    -2
100
AcDbLine
 10
771.2814753471648
 20
1060.888618996334
 30
0.0
 11
771.2814753471648
 21
1152.189743662504
 31
0.0
  0
LINE
  5
D530
330
B5AC
100
AcDbEntity
  8
寸法引出
 48
15.0
370
    -2
100
AcDbLine
 10
721.7814753471648
 20
1144.689743662504
 30
0.0
 11
699.2814753471648
 21
1144.689743662504
 31
0.0
  0
LINE
  5
D531
330
B5AC
100
AcDbEntity
  8
寸法引出
 48
15.0
370
    -2
100
AcDbLine
 10
793.7814753471648
 20
1144.689743662504
 30
0.0
 11
816.2814753471648
 21
1144.689743662504
 31
0.0
  0
LINE
  5
D532
330
B5AC
100
AcDbEntity
  8
寸法引出
 48
15.0
370
    -2
100
AcDbLine
 10
744.2814753471648
 20
1144.689743662504
 30
0.0
 11
771.2814753471648
 21
1144.689743662504
 31
0.0
  0
SOLID
  5
D533
330
B5AC
100
AcDbEntity
  8
寸法引出
 48
15.0
100
AcDbTrace
 10
721.7814753471648
 20
1148.439743662504
 30
0.0
 11
721.7814753471648
 21
1140.939743662504
 31
0.0
 12
744.2814753471648
 22
1144.689743662504
 32
0.0
 13
744.2814753471648
 23
1144.689743662504
 33
0.0
  0
SOLID
  5
D534
330
B5AC
100
AcDbEntity
  8
寸法引出
 48
15.0
100
AcDbTrace
 10
793.7814753471648
 20
1148.439743662504
 30
0.0
 11
793.7814753471648
 21
1140.939743662504
 31
0.0
 12
771.2814753471648
 22
1144.689743662504
 32
0.0
 13
771.2814753471648
 23
1144.689743662504
 33
0.0
  0
MTEXT
  5
D535
330
B5AC
100
AcDbEntity
  8
寸法引出
 48
15.0
100
AcDbMText
 10
757.7814753471648
 20
1174.689743662504
 30
0.0
 40
30.0
 41
0.0
 71
     5
 72
     1
  1
\A1;9
  7
SANWA
 73
     1
 44
1.0
1001
ACAD
1000
MTEXTBEGIN
1070
    73
1070
     1
1070
    44
1040
1.0
1070
    74
1070
     0
1000
MTEXTEND
  0
POINT
  5
D536
330
B5AC
100
AcDbEntity
  8
DEFPOINTS
 62
     0
 48
15.0
100
AcDbPoint
 10
744.2814753471648
 20
1018.888618996334
 30
0.0
  0
POINT
  5
D537
330
B5AC
100
AcDbEntity
  8
DEFPOINTS
 62
     0
 48
15.0
100
AcDbPoint
 10
771.2814753471648
 20
1045.888618996334
 30
0.0
  0
POINT
  5
D538
330
B5AC
100
AcDbEntity
  8
DEFPOINTS
 62
     0
 48
15.0
100
AcDbPoint
 10
771.2814753471648
 20
1144.689743662504
 30
0.0
  0
ENDBLK
  5
B5B9
330
B5AC
100
AcDbEntity
  8
0
 48
15.0
100
AcDbBlockEnd
  0
BLOCK
  5
B5C4
330
B5BA
100
AcDbEntity
  8
0
 48
15.0
100
AcDbBlockBegin
  2
*D14
 70
     1
 10
0.0
 20
0.0
 30
0.0
  3
*D14
  1

  0
LINE
  5
D539
330
B5BA
100
AcDbEntity
  8
寸法引出
 48
15.0
370
    -2
100
AcDbLine
 10
1410.083522135108
 20
922.8886189963342
 30
0.0
 11
1476.220896202205
 21
922.8886189963342
 31
0.0
  0
LINE
  5
D53A
330
B5BA
100
AcDbEntity
  8
寸法引出
 48
15.0
370
    -2
100
AcDbLine
 10
1410.083522135108
 20
1018.888618996334
 30
0.0
 11
1476.220896202205
 21
1018.888618996334
 31
0.0
  0
LINE
  5
D53B
330
B5BA
100
AcDbEntity
  8
寸法引出
 48
15.0
370
    -2
100
AcDbLine
 10
1468.720896202205
 20
945.3886189963341
 30
0.0
 11
1468.720896202205
 21
996.3886189963341
 31
0.0
  0
SOLID
  5
D53C
330
B5BA
100
AcDbEntity
  8
寸法引出
 48
15.0
100
AcDbTrace
 10
1464.970896202205
 20
945.3886189963341
 30
0.0
 11
1472.470896202205
 21
945.3886189963341
 31
0.0
 12
1468.720896202205
 22
922.8886189963342
 32
0.0
 13
1468.720896202205
 23
922.8886189963342
 33
0.0
  0
SOLID
  5
D53D
330
B5BA
100
AcDbEntity
  8
寸法引出
 48
15.0
100
AcDbTrace
 10
1464.970896202205
 20
996.3886189963341
 30
0.0
 11
1472.470896202205
 21
996.3886189963341
 31
0.0
 12
1468.720896202205
 22
1018.888618996334
 32
0.0
 13
1468.720896202205
 23
1018.888618996334
 33
0.0
  0
MTEXT
  5
D53E
330
B5BA
100
AcDbEntity
  8
寸法引出
 48
15.0
100
AcDbMText
 10
1438.720896202205
 20
970.8886189963344
 30
0.0
 40
30.0
 41
0.0
 71
     5
 72
     1
  1
\A1;32
  7
SANWA
 11
0.0000000000000001
 21
1.0
 31
0.0
 73
     1
 44
1.0
1001
ACAD
1000
MTEXTBEGIN
1070
    73
1070
     1
1070
    44
1040
1.0
1070
    74
1070
     0
1000
MTEXTEND
  0
POINT
  5
D53F
330
B5BA
100
AcDbEntity
  8
DEFPOINTS
 62
     0
 48
15.0
100
AcDbPoint
 10
1395.083522135108
 20
922.8886189963342
 30
0.0
  0
POINT
  5
D540
330
B5BA
100
AcDbEntity
  8
DEFPOINTS
 62
     0
 48
15.0
100
AcDbPoint
 10
1395.083522135108
 20
1018.888618996334
 30
0.0
  0
POINT
  5
D541
330
B5BA
100
AcDbEntity
  8
DEFPOINTS
 62
     0
 48
15.0
100
AcDbPoint
 10
1468.720896202205
 20
1018.888618996334
 30
0.0
  0
ENDBLK
  5
B5C5
330
B5BA
100
AcDbEntity
  8
0
 48
15.0
100
AcDbBlockEnd
  0
BLOCK
  5
B5D0
330
B5C6
100
AcDbEntity
  8
0
 48
15.0
100
AcDbBlockBegin
  2
*D15
 70
     1
 10
0.0
 20
0.0
 30
0.0
  3
*D15
  1

  0
LINE
  5
D542
330
B5C6
100
AcDbEntity
  8
寸法引出
 48
15.0
370
    -2
100
AcDbLine
 10
1410.083522135108
 20
922.8886189963342
 30
0.0
 11
1557.888433725086
 21
922.8886189963342
 31
0.0
  0
LINE
  5
D543
330
B5C6
100
AcDbEntity
  8
寸法引出
 48
15.0
370
    -2
100
AcDbLine
 10
1410.083522135108
 20
1108.888618996334
 30
0.0
 11
1557.888433725086
 21
1108.888618996334
 31
0.0
  0
LINE
  5
D544
330
B5C6
100
AcDbEntity
  8
寸法引出
 48
15.0
370
    -2
100
AcDbLine
 10
1550.388433725085
 20
945.3886189963341
 30
0.0
 11
1550.388433725085
 21
1086.388618996334
 31
0.0
  0
SOLID
  5
D545
330
B5C6
100
AcDbEntity
  8
寸法引出
 48
15.0
100
AcDbTrace
 10
1546.638433725085
 20
945.3886189963341
 30
0.0
 11
1554.138433725086
 21
945.3886189963341
 31
0.0
 12
1550.388433725085
 22
922.8886189963342
 32
0.0
 13
1550.388433725085
 23
922.8886189963342
 33
0.0
  0
SOLID
  5
D546
330
B5C6
100
AcDbEntity
  8
寸法引出
 48
15.0
100
AcDbTrace
 10
1546.638433725085
 20
1086.388618996334
 30
0.0
 11
1554.138433725086
 21
1086.388618996334
 31
0.0
 12
1550.388433725085
 22
1108.888618996334
 32
0.0
 13
1550.388433725085
 23
1108.888618996334
 33
0.0
  0
MTEXT
  5
D547
330
B5C6
100
AcDbEntity
  8
寸法引出
 48
15.0
100
AcDbMText
 10
1520.388433725085
 20
1015.888618996334
 30
0.0
 40
30.0
 41
0.0
 71
     5
 72
     1
  1
\A1;62
  7
SANWA
 11
0.0000000000000001
 21
1.0
 31
0.0
 73
     1
 44
1.0
1001
ACAD
1000
MTEXTBEGIN
1070
    73
1070
     1
1070
    44
1040
1.0
1070
    74
1070
     0
1000
MTEXTEND
  0
POINT
  5
D548
330
B5C6
100
AcDbEntity
  8
DEFPOINTS
 62
     0
 48
15.0
100
AcDbPoint
 10
1395.083522135108
 20
922.8886189963342
 30
0.0
  0
POINT
  5
D549
330
B5C6
100
AcDbEntity
  8
DEFPOINTS
 62
     0
 48
15.0
100
AcDbPoint
 10
1395.083522135108
 20
1108.888618996334
 30
0.0
  0
POINT
  5
D54A
330
B5C6
100
AcDbEntity
  8
DEFPOINTS
 62
     0
 48
15.0
100
AcDbPoint
 10
1550.388433725085
 20
1108.888618996334
 30
0.0
  0
ENDBLK
  5
B5D1
330
B5C6
100
AcDbEntity
  8
0
 48
15.0
100
AcDbBlockEnd
  0
BLOCK
  5
B5DD
330
B5D2
100
AcDbEntity
  8
0
 48
15.0
100
AcDbBlockBegin
  2
*D16
 70
     1
 10
0.0
 20
0.0
 30
0.0
  3
*D16
  1

  0
LINE
  5
D54B
330
B5D2
100
AcDbEntity
  8
寸法引出
 48
15.0
370
    -2
100
AcDbLine
 10
1410.083522135108
 20
1045.888618996334
 30
0.0
 11
1476.220896202205
 21
1045.888618996334
 31
0.0
  0
LINE
  5
D54C
330
B5D2
100
AcDbEntity
  8
寸法引出
 48
15.0
370
    -2
100
AcDbLine
 10
1468.720896202205
 20
996.3886189963341
 30
0.0
 11
1468.720896202205
 21
973.8886189963341
 31
0.0
  0
LINE
  5
D54D
330
B5D2
100
AcDbEntity
  8
寸法引出
 48
15.0
370
    -2
100
AcDbLine
 10
1468.720896202205
 20
1068.388618996334
 30
0.0
 11
1468.720896202205
 21
1090.888618996334
 31
0.0
  0
LINE
  5
D54E
330
B5D2
100
AcDbEntity
  8
寸法引出
 48
15.0
370
    -2
100
AcDbLine
 10
1468.720896202205
 20
1018.888618996334
 30
0.0
 11
1468.720896202205
 21
1045.888618996334
 31
0.0
  0
SOLID
  5
D54F
330
B5D2
100
AcDbEntity
  8
寸法引出
 48
15.0
100
AcDbTrace
 10
1464.970896202205
 20
996.3886189963341
 30
0.0
 11
1472.470896202205
 21
996.3886189963341
 31
0.0
 12
1468.720896202205
 22
1018.888618996334
 32
0.0
 13
1468.720896202205
 23
1018.888618996334
 33
0.0
  0
SOLID
  5
D550
330
B5D2
100
AcDbEntity
  8
寸法引出
 48
15.0
100
AcDbTrace
 10
1464.970896202205
 20
1068.388618996334
 30
0.0
 11
1472.470896202205
 21
1068.388618996334
 31
0.0
 12
1468.720896202205
 22
1045.888618996334
 32
0.0
 13
1468.720896202205
 23
1045.888618996334
 33
0.0
  0
MTEXT
  5
D551
330
B5D2
100
AcDbEntity
  8
寸法引出
 48
15.0
100
AcDbMText
 10
1438.720896202205
 20
1032.388618996334
 30
0.0
 40
30.0
 41
0.0
 71
     5
 72
     1
  1
\A1;9
  7
SANWA
 11
0.0000000000000001
 21
1.0
 31
0.0
 73
     1
 44
1.0
1001
ACAD
1000
MTEXTBEGIN
1070
    73
1070
     1
1070
    44
1040
1.0
1070
    74
1070
     0
1000
MTEXTEND
  0
POINT
  5
D552
330
B5D2
100
AcDbEntity
  8
DEFPOINTS
 62
     0
 48
15.0
100
AcDbPoint
 10
1395.083522135108
 20
1018.888618996334
 30
0.0
  0
POINT
  5
D553
330
B5D2
100
AcDbEntity
  8
DEFPOINTS
 62
     0
 48
15.0
100
AcDbPoint
 10
1395.083522135108
 20
1045.888618996334
 30
0.0
  0
POINT
  5
D554
330
B5D2
100
AcDbEntity
  8
DEFPOINTS
 62
     0
 48
15.0
100
AcDbPoint
 10
1468.720896202205
 20
1045.888618996334
 30
0.0
  0
ENDBLK
  5
B5DE
330
B5D2
100
AcDbEntity
  8
0
 48
15.0
100
AcDbBlockEnd
  0
BLOCK
  5
B5EA
330
B5DF
100
AcDbEntity
  8
0
 48
15.0
100
AcDbBlockBegin
  2
*D17
 70
     1
 10
0.0
 20
0.0
 30
0.0
  3
*D17
  1

  0
LINE
  5
D555
330
B5DF
100
AcDbEntity
  8
寸法引出
 48
15.0
370
    -2
100
AcDbLine
 10
1266.083522135108
 20
991.8886189963343
 30
0.0
 11
1212.234362921197
 21
991.8886189963343
 31
0.0
  0
LINE
  5
D556
330
B5DF
100
AcDbEntity
  8
寸法引出
 48
15.0
370
    -2
100
AcDbLine
 10
1219.734362921197
 20
945.3886189963341
 30
0.0
 11
1219.734362921197
 21
922.8886189963342
 31
0.0
  0
LINE
  5
D557
330
B5DF
100
AcDbEntity
  8
寸法引出
 48
15.0
370
    -2
100
AcDbLine
 10
1219.734362921197
 20
1014.388618996334
 30
0.0
 11
1219.734362921197
 21
1036.888618996334
 31
0.0
  0
MTEXT
  5
D558
330
B5DF
100
AcDbEntity
  8
寸法引出
 48
15.0
100
AcDbMText
 10
1189.734362921197
 20
1012.888618996334
 30
0.0
 40
30.0
 41
0.0
 71
     5
 72
     1
  1
\A1;8
  7
SANWA
 11
0.0000000000000001
 21
1.0
 31
0.0
 73
     1
 44
1.0
1001
ACAD
1000
MTEXTBEGIN
1070
    73
1070
     1
1070
    44
1040
1.0
1070
    74
1070
     0
1000
MTEXTEND
  0
LINE
  5
D559
330
B5DF
100
AcDbEntity
  8
寸法引出
 48
15.0
370
    -2
100
AcDbLine
 10
1219.734362921197
 20
967.8886189963343
 30
0.0
 11
1219.734362921197
 21
991.8886189963343
 31
0.0
  0
SOLID
  5
D55A
330
B5DF
100
AcDbEntity
  8
寸法引出
 48
15.0
100
AcDbTrace
 10
1215.984362921197
 20
945.3886189963341
 30
0.0
 11
1223.484362921197
 21
945.3886189963341
 31
0.0
 12
1219.734362921197
 22
967.8886189963343
 32
0.0
 13
1219.734362921197
 23
967.8886189963343
 33
0.0
  0
SOLID
  5
D55B
330
B5DF
100
AcDbEntity
  8
寸法引出
 48
15.0
100
AcDbTrace
 10
1215.984362921197
 20
1014.388618996334
 30
0.0
 11
1223.484362921197
 21
1014.388618996334
 31
0.0
 12
1219.734362921197
 22
991.8886189963343
 32
0.0
 13
1219.734362921197
 23
991.8886189963343
 33
0.0
  0
POINT
  5
D55C
330
B5DF
100
AcDbEntity
  8
DEFPOINTS
 62
     0
 48
15.0
100
AcDbPoint
 10
1281.083522135108
 20
967.8886189963341
 30
0.0
  0
POINT
  5
D55D
330
B5DF
100
AcDbEntity
  8
DEFPOINTS
 62
     0
 48
15.0
100
AcDbPoint
 10
1281.083522135108
 20
991.8886189963341
 30
0.0
  0
POINT
  5
D55E
330
B5DF
100
AcDbEntity
  8
DEFPOINTS
 62
     0
 48
15.0
100
AcDbPoint
 10
1219.734362921197
 20
991.8886189963343
 30
0.0
  0
ENDBLK
  5
B5EB
330
B5DF
100
AcDbEntity
  8
0
 48
15.0
100
AcDbBlockEnd
  0
BLOCK
  5
B5F8
330
B5EC
100
AcDbEntity
  8
0
 48
15.0
100
AcDbBlockBegin
  2
*D18
 70
     1
 10
0.0
 20
0.0
 30
0.0
  3
*D18
  1

  0
LINE
  5
D55F
330
B5EC
100
AcDbEntity
  8
寸法引出
 48
15.0
370
    -2
100
AcDbLine
 10
1266.083522135108
 20
922.8886189963342
 30
0.0
 11
1212.234362921197
 21
922.8886189963342
 31
0.0
  0
LINE
  5
D560
330
B5EC
100
AcDbEntity
  8
寸法引出
 48
15.0
370
    -2
100
AcDbLine
 10
1266.083522135108
 20
967.8886189963343
 30
0.0
 11
1212.234362921197
 21
967.8886189963343
 31
0.0
  0
LINE
  5
D561
330
B5EC
100
AcDbEntity
  8
寸法引出
 48
15.0
370
    -2
100
AcDbLine
 10
1219.734362921197
 20
900.3886189963342
 30
0.0
 11
1219.734362921197
 21
877.8886189963342
 31
0.0
  0
LINE
  5
D562
330
B5EC
100
AcDbEntity
  8
寸法引出
 48
15.0
370
    -2
100
AcDbLine
 10
1219.734362921197
 20
990.3886189963342
 30
0.0
 11
1219.734362921197
 21
1012.888618996334
 31
0.0
  0
LINE
  5
D563
330
B5EC
100
AcDbEntity
  8
寸法引出
 48
15.0
370
    -2
100
AcDbLine
 10
1219.734362921197
 20
922.8886189963342
 30
0.0
 11
1219.734362921197
 21
967.8886189963343
 31
0.0
  0
SOLID
  5
D564
330
B5EC
100
AcDbEntity
  8
寸法引出
 48
15.0
100
AcDbTrace
 10
1215.984362921197
 20
900.3886189963342
 30
0.0
 11
1223.484362921197
 21
900.3886189963342
 31
0.0
 12
1219.734362921197
 22
922.8886189963342
 32
0.0
 13
1219.734362921197
 23
922.8886189963342
 33
0.0
  0
SOLID
  5
D565
330
B5EC
100
AcDbEntity
  8
寸法引出
 48
15.0
100
AcDbTrace
 10
1215.984362921197
 20
990.3886189963342
 30
0.0
 11
1223.484362921197
 21
990.3886189963342
 31
0.0
 12
1219.734362921197
 22
967.8886189963343
 32
0.0
 13
1219.734362921197
 23
967.8886189963343
 33
0.0
  0
MTEXT
  5
D566
330
B5EC
100
AcDbEntity
  8
寸法引出
 48
15.0
100
AcDbMText
 10
1189.734362921197
 20
945.3886189963343
 30
0.0
 40
30.0
 41
0.0
 71
     5
 72
     1
  1
\A1;15
  7
SANWA
 11
0.0000000000000001
 21
1.0
 31
0.0
 73
     1
 44
1.0
1001
ACAD
1000
MTEXTBEGIN
1070
    73
1070
     1
1070
    44
1040
1.0
1070
    74
1070
     0
1000
MTEXTEND
  0
POINT
  5
D567
330
B5EC
100
AcDbEntity
  8
DEFPOINTS
 62
     0
 48
15.0
100
AcDbPoint
 10
1281.083522135108
 20
922.8886189963342
 30
0.0
  0
POINT
  5
D568
330
B5EC
100
AcDbEntity
  8
DEFPOINTS
 62
     0
 48
15.0
100
AcDbPoint
 10
1281.083522135108
 20
967.8886189963341
 30
0.0
  0
POINT
  5
D569
330
B5EC
100
AcDbEntity
  8
DEFPOINTS
 62
     0
 48
15.0
100
AcDbPoint
 10
1219.734362921197
 20
967.8886189963343
 30
0.0
  0
ENDBLK
  5
B5F9
330
B5EC
100
AcDbEntity
  8
0
 48
15.0
100
AcDbBlockEnd
  0
BLOCK
  5
B605
330
B5FA
100
AcDbEntity
  8
0
 48
15.0
100
AcDbBlockBegin
  2
*D19
 70
     1
 10
0.0
 20
0.0
 30
0.0
  3
*D19
  1

  0
LINE
  5
D56A
330
B5FA
100
AcDbEntity
  8
寸法引出
 48
15.0
370
    -2
100
AcDbLine
 10
1395.083522135108
 20
907.8886189963341
 30
0.0
 11
1395.083522135108
 21
852.3189849473528
 31
0.0
  0
LINE
  5
D56B
330
B5FA
100
AcDbEntity
  8
寸法引出
 48
15.0
370
    -2
100
AcDbLine
 10
1339.583522135108
 20
859.8189849473529
 30
0.0
 11
1317.083522135108
 21
859.8189849473529
 31
0.0
  0
LINE
  5
D56C
330
B5FA
100
AcDbEntity
  8
寸法引出
 48
15.0
370
    -2
100
AcDbLine
 10
1417.583522135108
 20
859.8189849473529
 30
0.0
 11
1440.083522135108
 21
859.8189849473529
 31
0.0
  0
MTEXT
  5
D56D
330
B5FA
100
AcDbEntity
  8
寸法引出
 48
15.0
100
AcDbMText
 10
1425.267512523016
 20
889.8189849473528
 30
0.0
 40
30.0
 41
0.0
 71
     5
 72
     1
  1
\A1;11
  7
SANWA
 73
     1
 44
1.0
1001
ACAD
1000
MTEXTBEGIN
1070
    73
1070
     1
1070
    44
1040
1.0
1070
    74
1070
     0
1000
MTEXTEND
  0
LINE
  5
D56E
330
B5FA
100
AcDbEntity
  8
寸法引出
 48
15.0
370
    -2
100
AcDbLine
 10
1362.083522135108
 20
859.8189849473529
 30
0.0
 11
1395.083522135108
 21
859.8189849473529
 31
0.0
  0
SOLID
  5
D56F
330
B5FA
100
AcDbEntity
  8
寸法引出
 48
15.0
100
AcDbTrace
 10
1339.583522135108
 20
863.5689849473529
 30
0.0
 11
1339.583522135108
 21
856.0689849473529
 31
0.0
 12
1362.083522135108
 22
859.8189849473529
 32
0.0
 13
1362.083522135108
 23
859.8189849473529
 33
0.0
  0
SOLID
  5
D570
330
B5FA
100
AcDbEntity
  8
寸法引出
 48
15.0
100
AcDbTrace
 10
1417.583522135108
 20
863.5689849473529
 30
0.0
 11
1417.583522135108
 21
856.0689849473529
 31
0.0
 12
1395.083522135108
 22
859.8189849473529
 32
0.0
 13
1395.083522135108
 23
859.8189849473529
 33
0.0
  0
POINT
  5
D571
330
B5FA
100
AcDbEntity
  8
DEFPOINTS
 62
     0
 48
15.0
100
AcDbPoint
 10
1362.083522135108
 20
922.8886189963342
 30
0.0
  0
POINT
  5
D572
330
B5FA
100
AcDbEntity
  8
DEFPOINTS
 62
     0
 48
15.0
100
AcDbPoint
 10
1395.083522135108
 20
922.8886189963342
 30
0.0
  0
POINT
  5
D573
330
B5FA
100
AcDbEntity
  8
DEFPOINTS
 62
     0
 48
15.0
100
AcDbPoint
 10
1395.083522135108
 20
859.8189849473529
 30
0.0
  0
ENDBLK
  5
B606
330
B5FA
100
AcDbEntity
  8
0
 48
15.0
100
AcDbBlockEnd
  0
BLOCK
  5
B613
330
B607
100
AcDbEntity
  8
0
 48
15.0
100
AcDbBlockBegin
  2
*D20
 70
     1
 10
0.0
 20
0.0
 30
0.0
  3
*D20
  1

  0
LINE
  5
D574
330
B607
100
AcDbEntity
  8
寸法引出
 48
15.0
370
    -2
100
AcDbLine
 10
1314.083522135108
 20
907.8886189963341
 30
0.0
 11
1314.083522135108
 21
852.3189849473528
 31
0.0
  0
LINE
  5
D575
330
B607
100
AcDbEntity
  8
寸法引出
 48
15.0
370
    -2
100
AcDbLine
 10
1362.083522135108
 20
907.8886189963341
 30
0.0
 11
1362.083522135108
 21
852.3189849473528
 31
0.0
  0
LINE
  5
D576
330
B607
100
AcDbEntity
  8
寸法引出
 48
15.0
370
    -2
100
AcDbLine
 10
1291.583522135108
 20
859.8189849473529
 30
0.0
 11
1269.083522135108
 21
859.8189849473529
 31
0.0
  0
LINE
  5
D577
330
B607
100
AcDbEntity
  8
寸法引出
 48
15.0
370
    -2
100
AcDbLine
 10
1384.583522135108
 20
859.8189849473529
 30
0.0
 11
1407.083522135108
 21
859.8189849473529
 31
0.0
  0
LINE
  5
D578
330
B607
100
AcDbEntity
  8
寸法引出
 48
15.0
370
    -2
100
AcDbLine
 10
1314.083522135108
 20
859.8189849473529
 30
0.0
 11
1362.083522135108
 21
859.8189849473529
 31
0.0
  0
SOLID
  5
D579
330
B607
100
AcDbEntity
  8
寸法引出
 48
15.0
100
AcDbTrace
 10
1291.583522135108
 20
863.5689849473529
 30
0.0
 11
1291.583522135108
 21
856.0689849473529
 31
0.0
 12
1314.083522135108
 22
859.8189849473529
 32
0.0
 13
1314.083522135108
 23
859.8189849473529
 33
0.0
  0
SOLID
  5
D57A
330
B607
100
AcDbEntity
  8
寸法引出
 48
15.0
100
AcDbTrace
 10
1384.583522135108
 20
863.5689849473529
 30
0.0
 11
1384.583522135108
 21
856.0689849473529
 31
0.0
 12
1362.083522135108
 22
859.8189849473529
 32
0.0
 13
1362.083522135108
 23
859.8189849473529
 33
0.0
  0
MTEXT
  5
D57B
330
B607
100
AcDbEntity
  8
寸法引出
 48
15.0
100
AcDbMText
 10
1338.083522135108
 20
889.8189849473528
 30
0.0
 40
30.0
 41
0.0
 71
     5
 72
     1
  1
\A1;16
  7
SANWA
 73
     1
 44
1.0
1001
ACAD
1000
MTEXTBEGIN
1070
    73
1070
     1
1070
    44
1040
1.0
1070
    74
1070
     0
1000
MTEXTEND
  0
POINT
  5
D57C
330
B607
100
AcDbEntity
  8
DEFPOINTS
 62
     0
 48
15.0
100
AcDbPoint
 10
1314.083522135108
 20
922.8886189963342
 30
0.0
  0
POINT
  5
D57D
330
B607
100
AcDbEntity
  8
DEFPOINTS
 62
     0
 48
15.0
100
AcDbPoint
 10
1362.083522135108
 20
922.8886189963342
 30
0.0
  0
POINT
  5
D57E
330
B607
100
AcDbEntity
  8
DEFPOINTS
 62
     0
 48
15.0
100
AcDbPoint
 10
1362.083522135108
 20
859.8189849473529
 30
0.0
  0
ENDBLK
  5
B614
330
B607
100
AcDbEntity
  8
0
 48
15.0
100
AcDbBlockEnd
  0
BLOCK
  5
B620
330
B615
100
AcDbEntity
  8
0
 48
15.0
100
AcDbBlockBegin
  2
*D21
 70
     1
 10
0.0
 20
0.0
 30
0.0
  3
*D21
  1

  0
LINE
  5
D57F
330
B615
100
AcDbEntity
  8
寸法引出
 48
15.0
370
    -2
100
AcDbLine
 10
1281.083522135108
 20
907.8886189963341
 30
0.0
 11
1281.083522135108
 21
852.3189849473528
 31
0.0
  0
LINE
  5
D580
330
B615
100
AcDbEntity
  8
寸法引出
 48
15.0
370
    -2
100
AcDbLine
 10
1336.583522135108
 20
859.8189849473529
 30
0.0
 11
1359.083522135108
 21
859.8189849473529
 31
0.0
  0
LINE
  5
D581
330
B615
100
AcDbEntity
  8
寸法引出
 48
15.0
370
    -2
100
AcDbLine
 10
1258.583522135108
 20
859.8189849473529
 30
0.0
 11
1236.083522135108
 21
859.8189849473529
 31
0.0
  0
MTEXT
  5
D582
330
B615
100
AcDbEntity
  8
寸法引出
 48
15.0
100
AcDbMText
 10
1254.697750419
 20
889.8189849473528
 30
0.0
 40
30.0
 41
0.0
 71
     5
 72
     1
  1
\A1;11
  7
SANWA
 73
     1
 44
1.0
1001
ACAD
1000
MTEXTBEGIN
1070
    73
1070
     1
1070
    44
1040
1.0
1070
    74
1070
     0
1000
MTEXTEND
  0
LINE
  5
D583
330
B615
100
AcDbEntity
  8
寸法引出
 48
15.0
370
    -2
100
AcDbLine
 10
1314.083522135108
 20
859.8189849473529
 30
0.0
 11
1281.083522135108
 21
859.8189849473529
 31
0.0
  0
SOLID
  5
D584
330
B615
100
AcDbEntity
  8
寸法引出
 48
15.0
100
AcDbTrace
 10
1336.583522135108
 20
863.5689849473529
 30
0.0
 11
1336.583522135108
 21
856.0689849473529
 31
0.0
 12
1314.083522135108
 22
859.8189849473529
 32
0.0
 13
1314.083522135108
 23
859.8189849473529
 33
0.0
  0
SOLID
  5
D585
330
B615
100
AcDbEntity
  8
寸法引出
 48
15.0
100
AcDbTrace
 10
1258.583522135108
 20
863.5689849473529
 30
0.0
 11
1258.583522135108
 21
856.0689849473529
 31
0.0
 12
1281.083522135108
 22
859.8189849473529
 32
0.0
 13
1281.083522135108
 23
859.8189849473529
 33
0.0
  0
POINT
  5
D586
330
B615
100
AcDbEntity
  8
DEFPOINTS
 62
     0
 48
15.0
100
AcDbPoint
 10
1314.083522135108
 20
922.8886189963342
 30
0.0
  0
POINT
  5
D587
330
B615
100
AcDbEntity
  8
DEFPOINTS
 62
     0
 48
15.0
100
AcDbPoint
 10
1281.083522135108
 20
922.8886189963342
 30
0.0
  0
POINT
  5
D588
330
B615
100
AcDbEntity
  8
DEFPOINTS
 62
     0
 48
15.0
100
AcDbPoint
 10
1281.083522135108
 20
859.8189849473529
 30
0.0
  0
ENDBLK
  5
B621
330
B615
100
AcDbEntity
  8
0
 48
15.0
100
AcDbBlockEnd
  0
BLOCK
  5
B62C
330
B622
100
AcDbEntity
  8
0
 48
15.0
100
AcDbBlockBegin
  2
*D22
 70
     1
 10
0.0
 20
0.0
 30
0.0
  3
*D22
  1

  0
LINE
  5
D589
330
B622
100
AcDbEntity
  8
寸法引出
 48
15.0
370
    -2
100
AcDbLine
 10
1281.083522135108
 20
1123.888618996334
 30
0.0
 11
1281.083522135108
 21
1152.189743662504
 31
0.0
  0
LINE
  5
D58A
330
B622
100
AcDbEntity
  8
寸法引出
 48
15.0
370
    -2
100
AcDbLine
 10
1395.083522135108
 20
1123.888618996334
 30
0.0
 11
1395.083522135108
 21
1152.189743662504
 31
0.0
  0
LINE
  5
D58B
330
B622
100
AcDbEntity
  8
寸法引出
 48
15.0
370
    -2
100
AcDbLine
 10
1303.583522135108
 20
1144.689743662504
 30
0.0
 11
1372.583522135108
 21
1144.689743662504
 31
0.0
  0
SOLID
  5
D58C
330
B622
100
AcDbEntity
  8
寸法引出
 48
15.0
100
AcDbTrace
 10
1303.583522135108
 20
1148.439743662504
 30
0.0
 11
1303.583522135108
 21
1140.939743662504
 31
0.0
 12
1281.083522135108
 22
1144.689743662504
 32
0.0
 13
1281.083522135108
 23
1144.689743662504
 33
0.0
  0
SOLID
  5
D58D
330
B622
100
AcDbEntity
  8
寸法引出
 48
15.0
100
AcDbTrace
 10
1372.583522135108
 20
1148.439743662504
 30
0.0
 11
1372.583522135108
 21
1140.939743662504
 31
0.0
 12
1395.083522135108
 22
1144.689743662504
 32
0.0
 13
1395.083522135108
 23
1144.689743662504
 33
0.0
  0
MTEXT
  5
D58E
330
B622
100
AcDbEntity
  8
寸法引出
 48
15.0
100
AcDbMText
 10
1338.083522135108
 20
1174.689743662504
 30
0.0
 40
30.0
 41
0.0
 71
     5
 72
     1
  1
\A1;38
  7
SANWA
 73
     1
 44
1.0
1001
ACAD
1000
MTEXTBEGIN
1070
    73
1070
     1
1070
    44
1040
1.0
1070
    74
1070
     0
1000
MTEXTEND
  0
POINT
  5
D58F
330
B622
100
AcDbEntity
  8
DEFPOINTS
 62
     0
 48
15.0
100
AcDbPoint
 10
1281.083522135108
 20
1108.888618996334
 30
0.0
  0
POINT
  5
D590
330
B622
100
AcDbEntity
  8
DEFPOINTS
 62
     0
 48
15.0
100
AcDbPoint
 10
1395.083522135108
 20
1108.888618996334
 30
0.0
  0
POINT
  5
D591
330
B622
100
AcDbEntity
  8
DEFPOINTS
 62
     0
 48
15.0
100
AcDbPoint
 10
1395.083522135108
 20
1144.689743662504
 30
0.0
  0
ENDBLK
  5
B62D
330
B622
100
AcDbEntity
  8
0
 48
15.0
100
AcDbBlockEnd
  0
BLOCK
  5
B639
330
B62E
100
AcDbEntity
  8
0
 48
15.0
100
AcDbBlockBegin
  2
*D23
 70
     1
 10
0.0
 20
0.0
 30
0.0
  3
*D23
  1

  0
LINE
  5
D592
330
B62E
100
AcDbEntity
  8
寸法引出
 48
15.0
370
    -2
100
AcDbLine
 10
1410.083522135108
 20
1108.888618996334
 30
0.0
 11
1476.220896202205
 21
1108.888618996334
 31
0.0
  0
LINE
  5
D593
330
B62E
100
AcDbEntity
  8
寸法引出
 48
15.0
370
    -2
100
AcDbLine
 10
1468.720896202205
 20
1023.388618996334
 30
0.0
 11
1468.720896202205
 21
1000.888618996334
 31
0.0
  0
LINE
  5
D594
330
B62E
100
AcDbEntity
  8
寸法引出
 48
15.0
370
    -2
100
AcDbLine
 10
1468.720896202205
 20
1131.388618996334
 30
0.0
 11
1468.720896202205
 21
1153.888618996334
 31
0.0
  0
LINE
  5
D595
330
B62E
100
AcDbEntity
  8
寸法引出
 48
15.0
370
    -2
100
AcDbLine
 10
1468.720896202205
 20
1045.888618996334
 30
0.0
 11
1468.720896202205
 21
1108.888618996334
 31
0.0
  0
SOLID
  5
D596
330
B62E
100
AcDbEntity
  8
寸法引出
 48
15.0
100
AcDbTrace
 10
1464.970896202205
 20
1023.388618996334
 30
0.0
 11
1472.470896202205
 21
1023.388618996334
 31
0.0
 12
1468.720896202205
 22
1045.888618996334
 32
0.0
 13
1468.720896202205
 23
1045.888618996334
 33
0.0
  0
SOLID
  5
D597
330
B62E
100
AcDbEntity
  8
寸法引出
 48
15.0
100
AcDbTrace
 10
1464.970896202205
 20
1131.388618996334
 30
0.0
 11
1472.470896202205
 21
1131.388618996334
 31
0.0
 12
1468.720896202205
 22
1108.888618996334
 32
0.0
 13
1468.720896202205
 23
1108.888618996334
 33
0.0
  0
MTEXT
  5
D598
330
B62E
100
AcDbEntity
  8
寸法引出
 48
15.0
100
AcDbMText
 10
1438.720896202205
 20
1077.388618996334
 30
0.0
 40
30.0
 41
0.0
 71
     5
 72
     1
  1
\A1;21
  7
SANWA
 11
0.0000000000000001
 21
1.0
 31
0.0
 73
     1
 44
1.0
1001
ACAD
1000
MTEXTBEGIN
1070
    73
1070
     1
1070
    44
1040
1.0
1070
    74
1070
     0
1000
MTEXTEND
  0
POINT
  5
D599
330
B62E
100
AcDbEntity
  8
DEFPOINTS
 62
     0
 48
15.0
100
AcDbPoint
 10
1395.083522135108
 20
1045.888618996334
 30
0.0
  0
POINT
  5
D59A
330
B62E
100
AcDbEntity
  8
DEFPOINTS
 62
     0
 48
15.0
100
AcDbPoint
 10
1395.083522135108
 20
1108.888618996334
 30
0.0
  0
POINT
  5
D59B
330
B62E
100
AcDbEntity
  8
DEFPOINTS
 62
     0
 48
15.0
100
AcDbPoint
 10
1468.720896202205
 20
1108.888618996334
 30
0.0
  0
ENDBLK
  5
B63A
330
B62E
100
AcDbEntity
  8
0
 48
15.0
100
AcDbBlockEnd
  0
BLOCK
  5
B647
330
B63B
100
AcDbEntity
  8
0
 48
15.0
100
AcDbBlockBegin
  2
*D24
 70
     1
 10
0.0
 20
0.0
 30
0.0
  3
*D24
  1

  0
LINE
  5
D59C
330
B63B
100
AcDbEntity
  8
寸法引出
 48
15.0
370
    -2
100
AcDbLine
 10
2121.203327098927
 20
441.5699268843336
 30
0.0
 11
2121.203327098927
 21
531.8483803067119
 31
0.0
  0
LINE
  5
D59D
330
B63B
100
AcDbEntity
  8
寸法引出
 48
15.0
370
    -2
100
AcDbLine
 10
2155.20332709892
 20
441.5699268842818
 30
0.0
 11
2155.20332709892
 21
531.8483803067119
 31
0.0
  0
LINE
  5
D59E
330
B63B
100
AcDbEntity
  8
寸法引出
 48
15.0
370
    -2
100
AcDbLine
 10
2098.703327098927
 20
524.3483803067119
 30
0.0
 11
2076.203327098927
 21
524.3483803067119
 31
0.0
  0
LINE
  5
D59F
330
B63B
100
AcDbEntity
  8
寸法引出
 48
15.0
370
    -2
100
AcDbLine
 10
2177.70332709892
 20
524.3483803067119
 30
0.0
 11
2200.20332709892
 21
524.3483803067119
 31
0.0
  0
LINE
  5
D5A0
330
B63B
100
AcDbEntity
  8
寸法引出
 48
15.0
370
    -2
100
AcDbLine
 10
2121.203327098927
 20
524.3483803067119
 30
0.0
 11
2155.20332709892
 21
524.3483803067119
 31
0.0
  0
SOLID
  5
D5A1
330
B63B
100
AcDbEntity
  8
寸法引出
 48
15.0
100
AcDbTrace
 10
2098.703327098927
 20
528.098380306712
 30
0.0
 11
2098.703327098927
 21
520.598380306712
 31
0.0
 12
2121.203327098927
 22
524.3483803067119
 32
0.0
 13
2121.203327098927
 23
524.3483803067119
 33
0.0
  0
SOLID
  5
D5A2
330
B63B
100
AcDbEntity
  8
寸法引出
 48
15.0
100
AcDbTrace
 10
2177.70332709892
 20
528.098380306712
 30
0.0
 11
2177.70332709892
 21
520.598380306712
 31
0.0
 12
2155.20332709892
 22
524.3483803067119
 32
0.0
 13
2155.20332709892
 23
524.3483803067119
 33
0.0
  0
MTEXT
  5
D5A3
330
B63B
100
AcDbEntity
  8
寸法引出
 48
15.0
100
AcDbMText
 10
2138.203327098923
 20
554.3483803067119
 30
0.0
 40
30.0
 41
0.0
 71
     5
 72
     1
  1
\A1;15
  7
SANWA
 73
     1
 44
1.0
1001
ACAD
1000
MTEXTBEGIN
1070
    73
1070
     1
1070
    44
1040
1.0
1070
    74
1070
     0
1000
MTEXTEND
  0
POINT
  5
D5A4
330
B63B
100
AcDbEntity
  8
DEFPOINTS
 62
     0
 48
15.0
100
AcDbPoint
 10
2121.203327098927
 20
426.5699268843336
 30
0.0
  0
POINT
  5
D5A5
330
B63B
100
AcDbEntity
  8
DEFPOINTS
 62
     0
 48
15.0
100
AcDbPoint
 10
2155.20332709892
 20
426.5699268842817
 30
0.0
  0
POINT
  5
D5A6
330
B63B
100
AcDbEntity
  8
DEFPOINTS
 62
     0
 48
15.0
100
AcDbPoint
 10
2155.20332709892
 20
524.3483803067119
 30
0.0
  0
ENDBLK
  5
B648
330
B63B
100
AcDbEntity
  8
0
 48
15.0
100
AcDbBlockEnd
  0
BLOCK
  5
B653
330
B649
100
AcDbEntity
  8
0
 48
15.0
100
AcDbBlockBegin
  2
*D25
 70
     1
 10
0.0
 20
0.0
 30
0.0
  3
*D25
  1

  0
LINE
  5
D5A7
330
B649
100
AcDbEntity
  8
寸法引出
 48
15.0
370
    -2
100
AcDbLine
 10
2106.203327098927
 20
426.5699268842817
 30
0.0
 11
1962.785270824341
 21
426.5699268842817
 31
0.0
  0
LINE
  5
D5A8
330
B649
100
AcDbEntity
  8
寸法引出
 48
15.0
370
    -2
100
AcDbLine
 10
2093.203327098927
 20
266.56992688428
 30
0.0
 11
1962.785270824341
 21
266.56992688428
 31
0.0
  0
LINE
  5
D5A9
330
B649
100
AcDbEntity
  8
寸法引出
 48
15.0
370
    -2
100
AcDbLine
 10
1970.285270824341
 20
404.0699268842818
 30
0.0
 11
1970.285270824341
 21
289.06992688428
 31
0.0
  0
SOLID
  5
D5AA
330
B649
100
AcDbEntity
  8
寸法引出
 48
15.0
100
AcDbTrace
 10
1966.535270824341
 20
404.0699268842818
 30
0.0
 11
1974.035270824341
 21
404.0699268842818
 31
0.0
 12
1970.285270824341
 22
426.5699268842817
 32
0.0
 13
1970.285270824341
 23
426.5699268842817
 33
0.0
  0
SOLID
  5
D5AB
330
B649
100
AcDbEntity
  8
寸法引出
 48
15.0
100
AcDbTrace
 10
1966.535270824341
 20
289.06992688428
 30
0.0
 11
1974.035270824341
 21
289.06992688428
 31
0.0
 12
1970.285270824341
 22
266.56992688428
 32
0.0
 13
1970.285270824341
 23
266.56992688428
 33
0.0
  0
MTEXT
  5
D5AC
330
B649
100
AcDbEntity
  8
寸法引出
 48
15.0
100
AcDbMText
 10
1940.285270824341
 20
346.5699268842812
 30
0.0
 40
30.0
 41
0.0
 71
     5
 72
     1
  1
\A1;80
  7
SANWA
 11
0.0000000000000001
 21
1.0
 31
0.0
 73
     1
 44
1.0
1001
ACAD
1000
MTEXTBEGIN
1070
    73
1070
     1
1070
    44
1040
1.0
1070
    74
1070
     0
1000
MTEXTEND
  0
POINT
  5
D5AD
330
B649
100
AcDbEntity
  8
DEFPOINTS
 62
     0
 48
15.0
100
AcDbPoint
 10
2121.203327098927
 20
426.5699268842817
 30
0.0
  0
POINT
  5
D5AE
330
B649
100
AcDbEntity
  8
DEFPOINTS
 62
     0
 48
15.0
100
AcDbPoint
 10
2108.203327098927
 20
266.56992688428
 30
0.0
  0
POINT
  5
D5AF
330
B649
100
AcDbEntity
  8
DEFPOINTS
 62
     0
 48
15.0
100
AcDbPoint
 10
1970.285270824341
 20
266.56992688428
 30
0.0
  0
ENDBLK
  5
B654
330
B649
100
AcDbEntity
  8
0
 48
15.0
100
AcDbBlockEnd
  0
BLOCK
  5
B661
330
B655
100
AcDbEntity
  8
0
 48
15.0
100
AcDbBlockBegin
  2
*D26
 70
     1
 10
0.0
 20
0.0
 30
0.0
  3
*D26
  1

  0
LINE
  5
D5B0
330
B655
100
AcDbEntity
  8
寸法引出
 48
15.0
370
    -2
100
AcDbLine
 10
1223.392084909995
 20
408.410470708517
 30
0.0
 11
1313.37730032191
 21
408.410470708517
 31
0.0
  0
LINE
  5
D5B1
330
B655
100
AcDbEntity
  8
寸法引出
 48
15.0
370
    -2
100
AcDbLine
 10
1203.392084909995
 20
363.4104707085171
 30
0.0
 11
1313.37730032191
 21
363.4104707085171
 31
0.0
  0
LINE
  5
D5B2
330
B655
100
AcDbEntity
  8
寸法引出
 48
15.0
370
    -2
100
AcDbLine
 10
1305.87730032191
 20
430.9104707085171
 30
0.0
 11
1305.87730032191
 21
453.410470708517
 31
0.0
  0
LINE
  5
D5B3
330
B655
100
AcDbEntity
  8
寸法引出
 48
15.0
370
    -2
100
AcDbLine
 10
1305.87730032191
 20
340.9104707085171
 30
0.0
 11
1305.87730032191
 21
318.4104707085171
 31
0.0
  0
LINE
  5
D5B4
330
B655
100
AcDbEntity
  8
寸法引出
 48
15.0
370
    -2
100
AcDbLine
 10
1305.87730032191
 20
408.410470708517
 30
0.0
 11
1305.87730032191
 21
363.4104707085171
 31
0.0
  0
SOLID
  5
D5B5
330
B655
100
AcDbEntity
  8
寸法引出
 48
15.0
100
AcDbTrace
 10
1302.12730032191
 20
430.9104707085171
 30
0.0
 11
1309.62730032191
 21
430.9104707085171
 31
0.0
 12
1305.87730032191
 22
408.410470708517
 32
0.0
 13
1305.87730032191
 23
408.410470708517
 33
0.0
  0
SOLID
  5
D5B6
330
B655
100
AcDbEntity
  8
寸法引出
 48
15.0
100
AcDbTrace
 10
1302.12730032191
 20
340.9104707085171
 30
0.0
 11
1309.62730032191
 21
340.9104707085171
 31
0.0
 12
1305.87730032191
 22
363.4104707085171
 32
0.0
 13
1305.87730032191
 23
363.4104707085171
 33
0.0
  0
MTEXT
  5
D5B7
330
B655
100
AcDbEntity
  8
寸法引出
 48
15.0
100
AcDbMText
 10
1275.87730032191
 20
385.9104707085173
 30
0.0
 40
30.0
 41
0.0
 71
     5
 72
     1
  1
\A1;4.5
  7
SANWA
 11
0.0000000000000001
 21
1.0
 31
0.0
 73
     1
 44
1.0
1001
ACAD
1000
MTEXTBEGIN
1070
    73
1070
     1
1070
    44
1040
1.0
1070
    74
1070
     0
1000
MTEXTEND
  0
POINT
  5
D5B8
330
B655
100
AcDbEntity
  8
DEFPOINTS
 62
     0
 48
15.0
100
AcDbPoint
 10
1208.392084909995
 20
408.410470708517
 30
0.0
  0
POINT
  5
D5B9
330
B655
100
AcDbEntity
  8
DEFPOINTS
 62
     0
 48
15.0
100
AcDbPoint
 10
1188.392084909995
 20
363.4104707085171
 30
0.0
  0
POINT
  5
D5BA
330
B655
100
AcDbEntity
  8
DEFPOINTS
 62
     0
 48
15.0
100
AcDbPoint
 10
1305.87730032191
 20
363.4104707085171
 30
0.0
  0
ENDBLK
  5
B662
330
B655
100
AcDbEntity
  8
0
 48
15.0
100
AcDbBlockEnd
  0
BLOCK
  5
B66E
330
B663
100
AcDbEntity
  8
0
 48
15.0
100
AcDbBlockBegin
  2
*D27
 70
     1
 10
0.0
 20
0.0
 30
0.0
  3
*D27
  1

  0
LINE
  5
D5BB
330
B663
100
AcDbEntity
  8
寸法引出
 48
15.0
370
    -2
100
AcDbLine
 10
1208.392084909995
 20
423.410470708518
 30
0.0
 11
1208.392084909995
 21
457.8896070394512
 31
0.0
  0
LINE
  5
D5BC
330
B663
100
AcDbEntity
  8
寸法引出
 48
15.0
370
    -2
100
AcDbLine
 10
1165.892084909995
 20
450.3896070394512
 30
0.0
 11
1143.392084909995
 21
450.3896070394512
 31
0.0
  0
LINE
  5
D5BD
330
B663
100
AcDbEntity
  8
寸法引出
 48
15.0
370
    -2
100
AcDbLine
 10
1230.892084909995
 20
450.3896070394512
 30
0.0
 11
1253.392084909995
 21
450.3896070394512
 31
0.0
  0
MTEXT
  5
D5BE
330
B663
100
AcDbEntity
  8
寸法引出
 48
15.0
100
AcDbMText
 10
1233.392084909995
 20
480.3896070394512
 30
0.0
 40
30.0
 41
0.0
 71
     5
 72
     1
  1
\A1;2
  7
SANWA
 73
     1
 44
1.0
1001
ACAD
1000
MTEXTBEGIN
1070
    73
1070
     1
1070
    44
1040
1.0
1070
    74
1070
     0
1000
MTEXTEND
  0
LINE
  5
D5BF
330
B663
100
AcDbEntity
  8
寸法引出
 48
15.0
370
    -2
100
AcDbLine
 10
1188.392084909995
 20
450.3896070394512
 30
0.0
 11
1208.392084909995
 21
450.3896070394512
 31
0.0
  0
SOLID
  5
D5C0
330
B663
100
AcDbEntity
  8
寸法引出
 48
15.0
100
AcDbTrace
 10
1165.892084909995
 20
454.1396070394512
 30
0.0
 11
1165.892084909995
 21
446.6396070394512
 31
0.0
 12
1188.392084909995
 22
450.3896070394512
 32
0.0
 13
1188.392084909995
 23
450.3896070394512
 33
0.0
  0
SOLID
  5
D5C1
330
B663
100
AcDbEntity
  8
寸法引出
 48
15.0
100
AcDbTrace
 10
1230.892084909995
 20
454.1396070394512
 30
0.0
 11
1230.892084909995
 21
446.6396070394512
 31
0.0
 12
1208.392084909995
 22
450.3896070394512
 32
0.0
 13
1208.392084909995
 23
450.3896070394512
 33
0.0
  0
POINT
  5
D5C2
330
B663
100
AcDbEntity
  8
DEFPOINTS
 62
     0
 48
15.0
100
AcDbPoint
 10
1188.392084909995
 20
363.4104707085171
 30
0.0
  0
POINT
  5
D5C3
330
B663
100
AcDbEntity
  8
DEFPOINTS
 62
     0
 48
15.0
100
AcDbPoint
 10
1208.392084909995
 20
408.4104707085179
 30
0.0
  0
POINT
  5
D5C4
330
B663
100
AcDbEntity
  8
DEFPOINTS
 62
     0
 48
15.0
100
AcDbPoint
 10
1208.392084909995
 20
450.3896070394512
 30
0.0
  0
ENDBLK
  5
B66F
330
B663
100
AcDbEntity
  8
0
 48
15.0
100
AcDbBlockEnd
  0
BLOCK
  5
B67C
330
B670
100
AcDbEntity
  8
0
 48
15.0
100
AcDbBlockBegin
  2
*D28
 70
     1
 10
0.0
 20
0.0
 30
0.0
  3
*D28
  1

  0
LINE
  5
D5C5
330
B670
100
AcDbEntity
  8
寸法引出
 48
15.0
370
    -2
100
AcDbLine
 10
1128.392084909995
 20
378.4104707085171
 30
0.0
 11
1128.392084909995
 21
457.8896070394512
 31
0.0
  0
LINE
  5
D5C6
330
B670
100
AcDbEntity
  8
寸法引出
 48
15.0
370
    -2
100
AcDbLine
 10
1188.392084909995
 20
378.4104707085171
 30
0.0
 11
1188.392084909995
 21
457.8896070394512
 31
0.0
  0
LINE
  5
D5C7
330
B670
100
AcDbEntity
  8
寸法引出
 48
15.0
370
    -2
100
AcDbLine
 10
1105.892084909995
 20
450.3896070394512
 30
0.0
 11
1083.392084909995
 21
450.3896070394512
 31
0.0
  0
LINE
  5
D5C8
330
B670
100
AcDbEntity
  8
寸法引出
 48
15.0
370
    -2
100
AcDbLine
 10
1210.892084909995
 20
450.3896070394512
 30
0.0
 11
1233.392084909995
 21
450.3896070394512
 31
0.0
  0
LINE
  5
D5C9
330
B670
100
AcDbEntity
  8
寸法引出
 48
15.0
370
    -2
100
AcDbLine
 10
1128.392084909995
 20
450.3896070394512
 30
0.0
 11
1188.392084909995
 21
450.3896070394512
 31
0.0
  0
SOLID
  5
D5CA
330
B670
100
AcDbEntity
  8
寸法引出
 48
15.0
100
AcDbTrace
 10
1105.892084909995
 20
454.1396070394512
 30
0.0
 11
1105.892084909995
 21
446.6396070394512
 31
0.0
 12
1128.392084909995
 22
450.3896070394512
 32
0.0
 13
1128.392084909995
 23
450.3896070394512
 33
0.0
  0
SOLID
  5
D5CB
330
B670
100
AcDbEntity
  8
寸法引出
 48
15.0
100
AcDbTrace
 10
1210.892084909995
 20
454.1396070394512
 30
0.0
 11
1210.892084909995
 21
446.6396070394512
 31
0.0
 12
1188.392084909995
 22
450.3896070394512
 32
0.0
 13
1188.392084909995
 23
450.3896070394512
 33
0.0
  0
MTEXT
  5
D5CC
330
B670
100
AcDbEntity
  8
寸法引出
 48
15.0
100
AcDbMText
 10
1158.392084909995
 20
480.3896070394512
 30
0.0
 40
30.0
 41
0.0
 71
     5
 72
     1
  1
\A1;6
  7
SANWA
 73
     1
 44
1.0
1001
ACAD
1000
MTEXTBEGIN
1070
    73
1070
     1
1070
    44
1040
1.0
1070
    74
1070
     0
1000
MTEXTEND
  0
POINT
  5
D5CD
330
B670
100
AcDbEntity
  8
DEFPOINTS
 62
     0
 48
15.0
100
AcDbPoint
 10
1128.392084909995
 20
363.4104707085171
 30
0.0
  0
POINT
  5
D5CE
330
B670
100
AcDbEntity
  8
DEFPOINTS
 62
     0
 48
15.0
100
AcDbPoint
 10
1188.392084909995
 20
363.4104707085171
 30
0.0
  0
POINT
  5
D5CF
330
B670
100
AcDbEntity
  8
DEFPOINTS
 62
     0
 48
15.0
100
AcDbPoint
 10
1188.392084909995
 20
450.3896070394512
 30
0.0
  0
ENDBLK
  5
B67D
330
B670
100
AcDbEntity
  8
0
 48
15.0
100
AcDbBlockEnd
  0
BLOCK
  5
B687
330
B67E
100
AcDbEntity
  8
0
 48
15.0
100
AcDbBlockBegin
  2
*D29
 70
     1
 10
0.0
 20
0.0
 30
0.0
  3
*D29
  1

  0
LINE
  5
D5D0
330
B67E
100
AcDbEntity
  8
寸法引出
 48
15.0
370
    -2
100
AcDbLine
 10
1208.392084909995
 20
423.4104707085171
 30
0.0
 11
1208.392084909995
 21
519.1752961416386
 31
0.0
  0
LINE
  5
D5D1
330
B67E
100
AcDbEntity
  8
寸法引出
 48
15.0
370
    -2
100
AcDbLine
 10
1130.892084909995
 20
511.6752961416387
 30
0.0
 11
1185.892084909995
 21
511.6752961416387
 31
0.0
  0
SOLID
  5
D5D2
330
B67E
100
AcDbEntity
  8
寸法引出
 48
15.0
100
AcDbTrace
 10
1130.892084909995
 20
515.4252961416387
 30
0.0
 11
1130.892084909995
 21
507.9252961416386
 31
0.0
 12
1108.392084909995
 22
511.6752961416387
 32
0.0
 13
1108.392084909995
 23
511.6752961416387
 33
0.0
  0
SOLID
  5
D5D3
330
B67E
100
AcDbEntity
  8
寸法引出
 48
15.0
100
AcDbTrace
 10
1185.892084909995
 20
515.4252961416387
 30
0.0
 11
1185.892084909995
 21
507.9252961416386
 31
0.0
 12
1208.392084909995
 22
511.6752961416387
 32
0.0
 13
1208.392084909995
 23
511.6752961416387
 33
0.0
  0
MTEXT
  5
D5D4
330
B67E
100
AcDbEntity
  8
寸法引出
 48
15.0
100
AcDbMText
 10
1158.392084909995
 20
541.6752961416387
 30
0.0
 40
30.0
 41
0.0
 71
     5
 72
     1
  1
\A1;10
  7
SANWA
 73
     1
 44
1.0
1001
ACAD
1000
MTEXTBEGIN
1070
    73
1070
     1
1070
    44
1040
1.0
1070
    74
1070
     0
1000
MTEXTEND
  0
POINT
  5
D5D5
330
B67E
100
AcDbEntity
  8
DEFPOINTS
 62
     0
 48
15.0
100
AcDbPoint
 10
1108.392084909995
 20
408.410470708517
 30
0.0
  0
POINT
  5
D5D6
330
B67E
100
AcDbEntity
  8
DEFPOINTS
 62
     0
 48
15.0
100
AcDbPoint
 10
1208.392084909995
 20
408.410470708517
 30
0.0
  0
POINT
  5
D5D7
330
B67E
100
AcDbEntity
  8
DEFPOINTS
 62
     0
 48
15.0
100
AcDbPoint
 10
1208.392084909995
 20
511.6752961416387
 30
0.0
  0
ENDBLK
  5
B688
330
B67E
100
AcDbEntity
  8
0
 48
15.0
100
AcDbBlockEnd
  0
BLOCK
  5
B694
330
B689
100
AcDbEntity
  8
0
 48
15.0
100
AcDbBlockBegin
  2
*D30
 70
     1
 10
0.0
 20
0.0
 30
0.0
  3
*D30
  1

  0
LINE
  5
D5D8
330
B689
100
AcDbEntity
  8
寸法引出
 48
15.0
370
    -2
100
AcDbLine
 10
1108.392084909995
 20
423.4104707085171
 30
0.0
 11
1108.392084909995
 21
457.8896070394512
 31
0.0
  0
LINE
  5
D5D9
330
B689
100
AcDbEntity
  8
寸法引出
 48
15.0
370
    -2
100
AcDbLine
 10
1150.892084909995
 20
450.3896070394512
 30
0.0
 11
1173.392084909995
 21
450.3896070394512
 31
0.0
  0
LINE
  5
D5DA
330
B689
100
AcDbEntity
  8
寸法引出
 48
15.0
370
    -2
100
AcDbLine
 10
1085.892084909995
 20
450.3896070394512
 30
0.0
 11
1063.392084909995
 21
450.3896070394512
 31
0.0
  0
MTEXT
  5
D5DB
330
B689
100
AcDbEntity
  8
寸法引出
 48
15.0
100
AcDbMText
 10
1083.392084909995
 20
480.3896070394512
 30
0.0
 40
30.0
 41
0.0
 71
     5
 72
     1
  1
\A1;2
  7
SANWA
 73
     1
 44
1.0
1001
ACAD
1000
MTEXTBEGIN
1070
    73
1070
     1
1070
    44
1040
1.0
1070
    74
1070
     0
1000
MTEXTEND
  0
LINE
  5
D5DC
330
B689
100
AcDbEntity
  8
寸法引出
 48
15.0
370
    -2
100
AcDbLine
 10
1128.392084909995
 20
450.3896070394512
 30
0.0
 11
1108.392084909995
 21
450.3896070394512
 31
0.0
  0
SOLID
  5
D5DD
330
B689
100
AcDbEntity
  8
寸法引出
 48
15.0
100
AcDbTrace
 10
1150.892084909995
 20
454.1396070394512
 30
0.0
 11
1150.892084909995
 21
446.6396070394512
 31
0.0
 12
1128.392084909995
 22
450.3896070394512
 32
0.0
 13
1128.392084909995
 23
450.3896070394512
 33
0.0
  0
SOLID
  5
D5DE
330
B689
100
AcDbEntity
  8
寸法引出
 48
15.0
100
AcDbTrace
 10
1085.892084909995
 20
454.1396070394512
 30
0.0
 11
1085.892084909995
 21
446.6396070394512
 31
0.0
 12
1108.392084909995
 22
450.3896070394512
 32
0.0
 13
1108.392084909995
 23
450.3896070394512
 33
0.0
  0
POINT
  5
D5DF
330
B689
100
AcDbEntity
  8
DEFPOINTS
 62
     0
 48
15.0
100
AcDbPoint
 10
1128.392084909995
 20
363.4104707085171
 30
0.0
  0
POINT
  5
D5E0
330
B689
100
AcDbEntity
  8
DEFPOINTS
 62
     0
 48
15.0
100
AcDbPoint
 10
1108.392084909995
 20
408.410470708517
 30
0.0
  0
POINT
  5
D5E1
330
B689
100
AcDbEntity
  8
DEFPOINTS
 62
     0
 48
15.0
100
AcDbPoint
 10
1108.392084909995
 20
450.3896070394512
 30
0.0
  0
ENDBLK
  5
B695
330
B689
100
AcDbEntity
  8
0
 48
15.0
100
AcDbBlockEnd
  0
BLOCK
  5
B6A0
330
B696
100
AcDbEntity
  8
0
 48
15.0
100
AcDbBlockBegin
  2
*D31
 70
     1
 10
0.0
 20
0.0
 30
0.0
  3
*D31
  1

  0
LINE
  5
D5E2
330
B696
100
AcDbEntity
  8
寸法引出
 48
15.0
370
    -2
100
AcDbLine
 10
958.392084909995
 20
423.4104707085171
 30
0.0
 11
958.392084909995
 21
519.1752961416386
 31
0.0
  0
LINE
  5
D5E3
330
B696
100
AcDbEntity
  8
寸法引出
 48
15.0
370
    -2
100
AcDbLine
 10
1108.392084909995
 20
423.4104707085171
 30
0.0
 11
1108.392084909995
 21
519.1752961416386
 31
0.0
  0
LINE
  5
D5E4
330
B696
100
AcDbEntity
  8
寸法引出
 48
15.0
370
    -2
100
AcDbLine
 10
980.8920849099949
 20
511.6752961416387
 30
0.0
 11
1085.892084909995
 21
511.6752961416387
 31
0.0
  0
SOLID
  5
D5E5
330
B696
100
AcDbEntity
  8
寸法引出
 48
15.0
100
AcDbTrace
 10
980.8920849099949
 20
515.4252961416387
 30
0.0
 11
980.8920849099949
 21
507.9252961416386
 31
0.0
 12
958.392084909995
 22
511.6752961416387
 32
0.0
 13
958.392084909995
 23
511.6752961416387
 33
0.0
  0
SOLID
  5
D5E6
330
B696
100
AcDbEntity
  8
寸法引出
 48
15.0
100
AcDbTrace
 10
1085.892084909995
 20
515.4252961416387
 30
0.0
 11
1085.892084909995
 21
507.9252961416386
 31
0.0
 12
1108.392084909995
 22
511.6752961416387
 32
0.0
 13
1108.392084909995
 23
511.6752961416387
 33
0.0
  0
MTEXT
  5
D5E7
330
B696
100
AcDbEntity
  8
寸法引出
 48
15.0
100
AcDbMText
 10
1033.392084909995
 20
541.6752961416387
 30
0.0
 40
30.0
 41
0.0
 71
     5
 72
     1
  1
\A1;15
  7
SANWA
 73
     1
 44
1.0
1001
ACAD
1000
MTEXTBEGIN
1070
    73
1070
     1
1070
    44
1040
1.0
1070
    74
1070
     0
1000
MTEXTEND
  0
POINT
  5
D5E8
330
B696
100
AcDbEntity
  8
DEFPOINTS
 62
     0
 48
15.0
100
AcDbPoint
 10
958.392084909995
 20
408.410470708517
 30
0.0
  0
POINT
  5
D5E9
330
B696
100
AcDbEntity
  8
DEFPOINTS
 62
     0
 48
15.0
100
AcDbPoint
 10
1108.392084909995
 20
408.410470708517
 30
0.0
  0
POINT
  5
D5EA
330
B696
100
AcDbEntity
  8
DEFPOINTS
 62
     0
 48
15.0
100
AcDbPoint
 10
1108.392084909995
 20
511.6752961416387
 30
0.0
  0
ENDBLK
  5
B6A1
330
B696
100
AcDbEntity
  8
0
 48
15.0
100
AcDbBlockEnd
  0
BLOCK
  5
B6AC
330
B6A2
100
AcDbEntity
  8
0
 48
15.0
100
AcDbBlockBegin
  2
*D32
 70
     1
 10
0.0
 20
0.0
 30
0.0
  3
*D32
  1

  0
LINE
  5
D5EB
330
B6A2
100
AcDbEntity
  8
寸法引出
 48
15.0
370
    -2
100
AcDbLine
 10
2110.203327098927
 20
414.5699268842808
 30
0.0
 11
2033.708717814759
 21
414.5699268842808
 31
0.0
  0
LINE
  5
D5EC
330
B6A2
100
AcDbEntity
  8
寸法引出
 48
15.0
370
    -2
100
AcDbLine
 10
2093.203327098927
 20
266.56992688428
 30
0.0
 11
2033.708717814759
 21
266.56992688428
 31
0.0
  0
LINE
  5
D5ED
330
B6A2
100
AcDbEntity
  8
寸法引出
 48
15.0
370
    -2
100
AcDbLine
 10
2041.208717814759
 20
392.0699268842809
 30
0.0
 11
2041.208717814759
 21
289.06992688428
 31
0.0
  0
SOLID
  5
D5EE
330
B6A2
100
AcDbEntity
  8
寸法引出
 48
15.0
100
AcDbTrace
 10
2037.45871781476
 20
392.0699268842809
 30
0.0
 11
2044.958717814759
 21
392.0699268842809
 31
0.0
 12
2041.208717814759
 22
414.5699268842808
 32
0.0
 13
2041.208717814759
 23
414.5699268842808
 33
0.0
  0
SOLID
  5
D5EF
330
B6A2
100
AcDbEntity
  8
寸法引出
 48
15.0
100
AcDbTrace
 10
2037.45871781476
 20
289.06992688428
 30
0.0
 11
2044.958717814759
 21
289.06992688428
 31
0.0
 12
2041.208717814759
 22
266.56992688428
 32
0.0
 13
2041.208717814759
 23
266.56992688428
 33
0.0
  0
MTEXT
  5
D5F0
330
B6A2
100
AcDbEntity
  8
寸法引出
 48
15.0
100
AcDbMText
 10
2011.208717814759
 20
340.5699268842808
 30
0.0
 40
30.0
 41
0.0
 71
     5
 72
     1
  1
\A1;74
  7
SANWA
 11
0.0000000000000001
 21
1.0
 31
0.0
 73
     1
 44
1.0
1001
ACAD
1000
MTEXTBEGIN
1070
    73
1070
     1
1070
    44
1040
1.0
1070
    74
1070
     0
1000
MTEXTEND
  0
POINT
  5
D5F1
330
B6A2
100
AcDbEntity
  8
DEFPOINTS
 62
     0
 48
15.0
100
AcDbPoint
 10
2125.203327098927
 20
414.5699268842808
 30
0.0
  0
POINT
  5
D5F2
330
B6A2
100
AcDbEntity
  8
DEFPOINTS
 62
     0
 48
15.0
100
AcDbPoint
 10
2108.203327098927
 20
266.56992688428
 30
0.0
  0
POINT
  5
D5F3
330
B6A2
100
AcDbEntity
  8
DEFPOINTS
 62
     0
 48
15.0
100
AcDbPoint
 10
2041.208717814759
 20
266.56992688428
 30
0.0
  0
ENDBLK
  5
B6AD
330
B6A2
100
AcDbEntity
  8
0
 48
15.0
100
AcDbBlockEnd
  0
BLOCK
  5
B6C7
330
B6BC
100
AcDbEntity
  8
0
 48
15.0
100
AcDbBlockBegin
  2
*D33
 70
     1
 10
0.0
 20
0.0
 30
0.0
  3
*D33
  1

  0
LINE
  5
D5F4
330
B6BC
100
AcDbEntity
  8
寸法引出
 48
15.0
370
    -2
100
AcDbLine
 10
2106.203327098953
 20
426.5699268842817
 30
0.0
 11
2033.708717814759
 21
426.5699268842817
 31
0.0
  0
LINE
  5
D5F5
330
B6BC
100
AcDbEntity
  8
寸法引出
 48
15.0
370
    -2
100
AcDbLine
 10
2041.208717814759
 20
392.0699268842809
 30
0.0
 11
2041.208717814759
 21
369.5699268842809
 31
0.0
  0
LINE
  5
D5F6
330
B6BC
100
AcDbEntity
  8
寸法引出
 48
15.0
370
    -2
100
AcDbLine
 10
2041.208717814759
 20
449.0699268842818
 30
0.0
 11
2041.208717814759
 21
471.5699268842818
 31
0.0
  0
MTEXT
  5
D5F7
330
B6BC
100
AcDbEntity
  8
寸法引出
 48
15.0
100
AcDbMText
 10
2011.131219827079
 20
459.0726576377765
 30
0.0
 40
30.0
 41
0.0
 71
     5
 72
     1
  1
\A1;6
  7
SANWA
 11
0.0000000000000001
 21
1.0
 31
0.0
 73
     1
 44
1.0
1001
ACAD
1000
MTEXTBEGIN
1070
    73
1070
     1
1070
    44
1040
1.0
1070
    74
1070
     0
1000
MTEXTEND
  0
LINE
  5
D5F8
330
B6BC
100
AcDbEntity
  8
寸法引出
 48
15.0
370
    -2
100
AcDbLine
 10
2041.208717814759
 20
414.5699268842808
 30
0.0
 11
2041.208717814759
 21
426.5699268842817
 31
0.0
  0
SOLID
  5
D5F9
330
B6BC
100
AcDbEntity
  8
寸法引出
 48
15.0
100
AcDbTrace
 10
2037.45871781476
 20
392.0699268842809
 30
0.0
 11
2044.958717814759
 21
392.0699268842809
 31
0.0
 12
2041.208717814759
 22
414.5699268842808
 32
0.0
 13
2041.208717814759
 23
414.5699268842808
 33
0.0
  0
SOLID
  5
D5FA
330
B6BC
100
AcDbEntity
  8
寸法引出
 48
15.0
100
AcDbTrace
 10
2037.45871781476
 20
449.0699268842818
 30
0.0
 11
2044.958717814759
 21
449.0699268842818
 31
0.0
 12
2041.208717814759
 22
426.5699268842817
 32
0.0
 13
2041.208717814759
 23
426.5699268842817
 33
0.0
  0
POINT
  5
D5FB
330
B6BC
100
AcDbEntity
  8
DEFPOINTS
 62
     0
 48
15.0
100
AcDbPoint
 10
2125.203327098927
 20
414.5699268842808
 30
0.0
  0
POINT
  5
D5FC
330
B6BC
100
AcDbEntity
  8
DEFPOINTS
 62
     0
 48
15.0
100
AcDbPoint
 10
2121.203327098952
 20
426.5699268842817
 30
0.0
  0
POINT
  5
D5FD
330
B6BC
100
AcDbEntity
  8
DEFPOINTS
 62
     0
 48
15.0
100
AcDbPoint
 10
2041.208717814759
 20
426.5699268842817
 30
0.0
  0
ENDBLK
  5
B6C8
330
B6BC
100
AcDbEntity
  8
0
 48
15.0
100
AcDbBlockEnd
  0
BLOCK
  5
B6D4
330
B6C9
100
AcDbEntity
  8
0
 48
15.0
100
AcDbBlockBegin
  2
*D34
 70
     1
 10
0.0
 20
0.0
 30
0.0
  3
*D34
  1

  0
LINE
  5
D5FE
330
B6C9
100
AcDbEntity
  8
寸法引出
 48
15.0
370
    -2
100
AcDbLine
 10
2155.20332709892
 20
441.5699268842818
 30
0.0
 11
2155.20332709892
 21
469.6648437405364
 31
0.0
  0
LINE
  5
D5FF
330
B6C9
100
AcDbEntity
  8
寸法引出
 48
15.0
370
    -2
100
AcDbLine
 10
2128.70332709892
 20
462.1648437405365
 30
0.0
 11
2106.20332709892
 21
462.1648437405365
 31
0.0
  0
LINE
  5
D600
330
B6C9
100
AcDbEntity
  8
寸法引出
 48
15.0
370
    -2
100
AcDbLine
 10
2177.70332709892
 20
462.1648437405365
 30
0.0
 11
2200.20332709892
 21
462.1648437405365
 31
0.0
  0
MTEXT
  5
D601
330
B6C9
100
AcDbEntity
  8
寸法引出
 48
15.0
100
AcDbMText
 10
2185.580608200053
 20
492.1648437405365
 30
0.0
 40
30.0
 41
0.0
 71
     5
 72
     1
  1
\A1;1
  7
SANWA
 73
     1
 44
1.0
1001
ACAD
1000
MTEXTBEGIN
1070
    73
1070
     1
1070
    44
1040
1.0
1070
    74
1070
     0
1000
MTEXTEND
  0
LINE
  5
D602
330
B6C9
100
AcDbEntity
  8
寸法引出
 48
15.0
370
    -2
100
AcDbLine
 10
2151.20332709892
 20
462.1648437405365
 30
0.0
 11
2155.20332709892
 21
462.1648437405365
 31
0.0
  0
SOLID
  5
D603
330
B6C9
100
AcDbEntity
  8
寸法引出
 48
15.0
100
AcDbTrace
 10
2128.70332709892
 20
465.9148437405365
 30
0.0
 11
2128.70332709892
 21
458.4148437405365
 31
0.0
 12
2151.20332709892
 22
462.1648437405365
 32
0.0
 13
2151.20332709892
 23
462.1648437405365
 33
0.0
  0
SOLID
  5
D604
330
B6C9
100
AcDbEntity
  8
寸法引出
 48
15.0
100
AcDbTrace
 10
2177.70332709892
 20
465.9148437405365
 30
0.0
 11
2177.70332709892
 21
458.4148437405365
 31
0.0
 12
2155.20332709892
 22
462.1648437405365
 32
0.0
 13
2155.20332709892
 23
462.1648437405365
 33
0.0
  0
POINT
  5
D605
330
B6C9
100
AcDbEntity
  8
DEFPOINTS
 62
     0
 48
15.0
100
AcDbPoint
 10
2151.20332709892
 20
414.5699268842808
 30
0.0
  0
POINT
  5
D606
330
B6C9
100
AcDbEntity
  8
DEFPOINTS
 62
     0
 48
15.0
100
AcDbPoint
 10
2155.20332709892
 20
426.5699268842817
 30
0.0
  0
POINT
  5
D607
330
B6C9
100
AcDbEntity
  8
DEFPOINTS
 62
     0
 48
15.0
100
AcDbPoint
 10
2155.20332709892
 20
462.1648437405365
 30
0.0
  0
ENDBLK
  5
B6D5
330
B6C9
100
AcDbEntity
  8
0
 48
15.0
100
AcDbBlockEnd
  0
BLOCK
  5
B6E1
330
B6D6
100
AcDbEntity
  8
0
 48
15.0
100
AcDbBlockBegin
  2
*D35
 70
     1
 10
0.0
 20
0.0
 30
0.0
  3
*D35
  1

  0
LINE
  5
D608
330
B6D6
100
AcDbEntity
  8
寸法引出
 48
15.0
370
    -2
100
AcDbLine
 10
2121.203327098927
 20
441.5699268843336
 30
0.0
 11
2121.203327098927
 21
469.6648437405364
 31
0.0
  0
LINE
  5
D609
330
B6D6
100
AcDbEntity
  8
寸法引出
 48
15.0
370
    -2
100
AcDbLine
 10
2147.703327098927
 20
462.1648437405365
 30
0.0
 11
2170.203327098927
 21
462.1648437405365
 31
0.0
  0
LINE
  5
D60A
330
B6D6
100
AcDbEntity
  8
寸法引出
 48
15.0
370
    -2
100
AcDbLine
 10
2098.703327098927
 20
462.1648437405365
 30
0.0
 11
2076.203327098927
 21
462.1648437405365
 31
0.0
  0
MTEXT
  5
D60B
330
B6D6
100
AcDbEntity
  8
寸法引出
 48
15.0
100
AcDbMText
 10
2091.845584628605
 20
492.1648437405365
 30
0.0
 40
30.0
 41
0.0
 71
     5
 72
     1
  1
\A1;1
  7
SANWA
 73
     1
 44
1.0
1001
ACAD
1000
MTEXTBEGIN
1070
    73
1070
     1
1070
    44
1040
1.0
1070
    74
1070
     0
1000
MTEXTEND
  0
LINE
  5
D60C
330
B6D6
100
AcDbEntity
  8
寸法引出
 48
15.0
370
    -2
100
AcDbLine
 10
2125.203327098927
 20
462.1648437405365
 30
0.0
 11
2121.203327098927
 21
462.1648437405365
 31
0.0
  0
SOLID
  5
D60D
330
B6D6
100
AcDbEntity
  8
寸法引出
 48
15.0
100
AcDbTrace
 10
2147.703327098927
 20
465.9148437405365
 30
0.0
 11
2147.703327098927
 21
458.4148437405365
 31
0.0
 12
2125.203327098927
 22
462.1648437405365
 32
0.0
 13
2125.203327098927
 23
462.1648437405365
 33
0.0
  0
SOLID
  5
D60E
330
B6D6
100
AcDbEntity
  8
寸法引出
 48
15.0
100
AcDbTrace
 10
2098.703327098927
 20
465.9148437405365
 30
0.0
 11
2098.703327098927
 21
458.4148437405365
 31
0.0
 12
2121.203327098927
 22
462.1648437405365
 32
0.0
 13
2121.203327098927
 23
462.1648437405365
 33
0.0
  0
POINT
  5
D60F
330
B6D6
100
AcDbEntity
  8
DEFPOINTS
 62
     0
 48
15.0
100
AcDbPoint
 10
2125.203327098927
 20
414.5699268842808
 30
0.0
  0
POINT
  5
D610
330
B6D6
100
AcDbEntity
  8
DEFPOINTS
 62
     0
 48
15.0
100
AcDbPoint
 10
2121.203327098927
 20
426.5699268843336
 30
0.0
  0
POINT
  5
D611
330
B6D6
100
AcDbEntity
  8
DEFPOINTS
 62
     0
 48
15.0
100
AcDbPoint
 10
2121.203327098927
 20
462.1648437405365
 30
0.0
  0
ENDBLK
  5
B6E2
330
B6D6
100
AcDbEntity
  8
0
 48
15.0
100
AcDbBlockEnd
  0
BLOCK
  5
B6EF
330
B6E3
100
AcDbEntity
  8
0
 48
15.0
100
AcDbBlockBegin
  2
*D36
 70
     1
 10
0.0
 20
0.0
 30
0.0
  3
*D36
  1

  0
LINE
  5
D612
330
B6E3
100
AcDbEntity
  8
寸法引出
 48
15.0
370
    -2
100
AcDbLine
 10
2125.203327098927
 20
429.5699268842809
 30
0.0
 11
2125.203327098927
 21
469.6648437405364
 31
0.0
  0
LINE
  5
D613
330
B6E3
100
AcDbEntity
  8
寸法引出
 48
15.0
370
    -2
100
AcDbLine
 10
2151.20332709892
 20
429.5699268842809
 30
0.0
 11
2151.20332709892
 21
469.6648437405364
 31
0.0
  0
LINE
  5
D614
330
B6E3
100
AcDbEntity
  8
寸法引出
 48
15.0
370
    -2
100
AcDbLine
 10
2102.703327098927
 20
462.1648437405365
 30
0.0
 11
2080.203327098927
 21
462.1648437405365
 31
0.0
  0
LINE
  5
D615
330
B6E3
100
AcDbEntity
  8
寸法引出
 48
15.0
370
    -2
100
AcDbLine
 10
2173.70332709892
 20
462.1648437405365
 30
0.0
 11
2196.20332709892
 21
462.1648437405365
 31
0.0
  0
LINE
  5
D616
330
B6E3
100
AcDbEntity
  8
寸法引出
 48
15.0
370
    -2
100
AcDbLine
 10
2125.203327098927
 20
462.1648437405365
 30
0.0
 11
2151.20332709892
 21
462.1648437405365
 31
0.0
  0
SOLID
  5
D617
330
B6E3
100
AcDbEntity
  8
寸法引出
 48
15.0
100
AcDbTrace
 10
2102.703327098927
 20
465.9148437405365
 30
0.0
 11
2102.703327098927
 21
458.4148437405365
 31
0.0
 12
2125.203327098927
 22
462.1648437405365
 32
0.0
 13
2125.203327098927
 23
462.1648437405365
 33
0.0
  0
SOLID
  5
D618
330
B6E3
100
AcDbEntity
  8
寸法引出
 48
15.0
100
AcDbTrace
 10
2173.70332709892
 20
465.9148437405365
 30
0.0
 11
2173.70332709892
 21
458.4148437405365
 31
0.0
 12
2151.20332709892
 22
462.1648437405365
 32
0.0
 13
2151.20332709892
 23
462.1648437405365
 33
0.0
  0
MTEXT
  5
D619
330
B6E3
100
AcDbEntity
  8
寸法引出
 48
15.0
100
AcDbMText
 10
2138.203327098923
 20
492.1648437405365
 30
0.0
 40
30.0
 41
0.0
 71
     5
 72
     1
  1
\A1;13
  7
SANWA
 73
     1
 44
1.0
1001
ACAD
1000
MTEXTBEGIN
1070
    73
1070
     1
1070
    44
1040
1.0
1070
    74
1070
     0
1000
MTEXTEND
  0
POINT
  5
D61A
330
B6E3
100
AcDbEntity
  8
DEFPOINTS
 62
     0
 48
15.0
100
AcDbPoint
 10
2125.203327098927
 20
414.5699268842808
 30
0.0
  0
POINT
  5
D61B
330
B6E3
100
AcDbEntity
  8
DEFPOINTS
 62
     0
 48
15.0
100
AcDbPoint
 10
2151.20332709892
 20
414.5699268842808
 30
0.0
  0
POINT
  5
D61C
330
B6E3
100
AcDbEntity
  8
DEFPOINTS
 62
     0
 48
15.0
100
AcDbPoint
 10
2151.20332709892
 20
462.1648437405365
 30
0.0
  0
ENDBLK
  5
B6F0
330
B6E3
100
AcDbEntity
  8
0
 48
15.0
100
AcDbBlockEnd
  0
BLOCK
  5
B6FD
330
B6F1
100
AcDbEntity
  8
0
 48
15.0
100
AcDbBlockBegin
  2
*D37
 70
     1
 10
0.0
 20
0.0
 30
0.0
  3
*D37
  1

  0
LINE
  5
D61D
330
B6F1
100
AcDbEntity
  8
寸法引出
 48
15.0
370
    -2
100
AcDbLine
 10
1371.660006630031
 20
2118.460474313588
 30
0.0
 11
1371.660006630031
 21
2044.732369316906
 31
0.0
  0
LINE
  5
D61E
330
B6F1
100
AcDbEntity
  8
寸法引出
 48
15.0
370
    -2
100
AcDbLine
 10
1337.660006630031
 20
2152.460474313587
 30
0.0
 11
1337.660006630031
 21
2044.732369316906
 31
0.0
  0
LINE
  5
D61F
330
B6F1
100
AcDbEntity
  8
寸法引出
 48
15.0
370
    -2
100
AcDbLine
 10
1394.160006630031
 20
2052.232369316906
 30
0.0
 11
1416.66000663003
 21
2052.232369316906
 31
0.0
  0
LINE
  5
D620
330
B6F1
100
AcDbEntity
  8
寸法引出
 48
15.0
370
    -2
100
AcDbLine
 10
1315.160006630031
 20
2052.232369316906
 30
0.0
 11
1292.660006630031
 21
2052.232369316906
 31
0.0
  0
LINE
  5
D621
330
B6F1
100
AcDbEntity
  8
寸法引出
 48
15.0
370
    -2
100
AcDbLine
 10
1371.660006630031
 20
2052.232369316906
 30
0.0
 11
1337.660006630031
 21
2052.232369316906
 31
0.0
  0
SOLID
  5
D622
330
B6F1
100
AcDbEntity
  8
寸法引出
 48
15.0
100
AcDbTrace
 10
1394.160006630031
 20
2055.982369316906
 30
0.0
 11
1394.160006630031
 21
2048.482369316905
 31
0.0
 12
1371.660006630031
 22
2052.232369316906
 32
0.0
 13
1371.660006630031
 23
2052.232369316906
 33
0.0
  0
SOLID
  5
D623
330
B6F1
100
AcDbEntity
  8
寸法引出
 48
15.0
100
AcDbTrace
 10
1315.160006630031
 20
2055.982369316906
 30
0.0
 11
1315.160006630031
 21
2048.482369316905
 31
0.0
 12
1337.660006630031
 22
2052.232369316906
 32
0.0
 13
1337.660006630031
 23
2052.232369316906
 33
0.0
  0
MTEXT
  5
D624
330
B6F1
100
AcDbEntity
  8
寸法引出
 48
15.0
100
AcDbMText
 10
1354.66000663003
 20
2082.232369316906
 30
0.0
 40
30.0
 41
0.0
 71
     5
 72
     1
  1
\A1;34
  7
SANWA
 73
     1
 44
1.0
1001
ACAD
1000
MTEXTBEGIN
1070
    73
1070
     1
1070
    44
1040
1.0
1070
    74
1070
     0
1000
MTEXTEND
  0
POINT
  5
D625
330
B6F1
100
AcDbEntity
  8
DEFPOINTS
 62
     0
 48
15.0
100
AcDbPoint
 10
1371.660006630031
 20
2133.460474313587
 30
0.0
  0
POINT
  5
D626
330
B6F1
100
AcDbEntity
  8
DEFPOINTS
 62
     0
 48
15.0
100
AcDbPoint
 10
1337.660006630031
 20
2167.460474313587
 30
0.0
  0
POINT
  5
D627
330
B6F1
100
AcDbEntity
  8
DEFPOINTS
 62
     0
 48
15.0
100
AcDbPoint
 10
1337.660006630031
 20
2052.232369316906
 30
0.0
  0
ENDBLK
  5
B6FE
330
B6F1
100
AcDbEntity
  8
0
 48
15.0
100
AcDbBlockEnd
  0
BLOCK
  5
B70A
330
B6FF
100
AcDbEntity
  8
0
 48
15.0
100
AcDbBlockBegin
  2
*D38
 70
     1
 10
0.0
 20
0.0
 30
0.0
  3
*D38
  1

  0
LINE
  5
D628
330
B6FF
100
AcDbEntity
  8
寸法引出
 48
15.0
370
    -2
100
AcDbLine
 10
1386.66000663003
 20
2133.460474313587
 30
0.0
 11
1450.636199113909
 21
2133.460474313587
 31
0.0
  0
LINE
  5
D629
330
B6FF
100
AcDbEntity
  8
寸法引出
 48
15.0
370
    -2
100
AcDbLine
 10
1443.136199113909
 20
2189.960474313586
 30
0.0
 11
1443.136199113909
 21
2212.460474313587
 31
0.0
  0
LINE
  5
D62A
330
B6FF
100
AcDbEntity
  8
寸法引出
 48
15.0
370
    -2
100
AcDbLine
 10
1443.136199113909
 20
2110.960474313587
 30
0.0
 11
1443.136199113909
 21
2088.460474313587
 31
0.0
  0
MTEXT
  5
D62B
330
B6FF
100
AcDbEntity
  8
寸法引出
 48
15.0
100
AcDbMText
 10
1413.136199113909
 20
2108.814373444283
 30
0.0
 40
30.0
 41
0.0
 71
     5
 72
     1
  1
\A1;34
  7
SANWA
 11
0.0000000000000001
 21
1.0
 31
0.0
 73
     1
 44
1.0
1001
ACAD
1000
MTEXTBEGIN
1070
    73
1070
     1
1070
    44
1040
1.0
1070
    74
1070
     0
1000
MTEXTEND
  0
LINE
  5
D62C
330
B6FF
100
AcDbEntity
  8
寸法引出
 48
15.0
370
    -2
100
AcDbLine
 10
1443.136199113909
 20
2167.460474313587
 30
0.0
 11
1443.136199113909
 21
2133.460474313587
 31
0.0
  0
SOLID
  5
D62D
330
B6FF
100
AcDbEntity
  8
寸法引出
 48
15.0
100
AcDbTrace
 10
1439.386199113909
 20
2189.960474313586
 30
0.0
 11
1446.886199113909
 21
2189.960474313586
 31
0.0
 12
1443.136199113909
 22
2167.460474313587
 32
0.0
 13
1443.136199113909
 23
2167.460474313587
 33
0.0
  0
SOLID
  5
D62E
330
B6FF
100
AcDbEntity
  8
寸法引出
 48
15.0
100
AcDbTrace
 10
1439.386199113909
 20
2110.960474313587
 30
0.0
 11
1446.886199113909
 21
2110.960474313587
 31
0.0
 12
1443.136199113909
 22
2133.460474313587
 32
0.0
 13
1443.136199113909
 23
2133.460474313587
 33
0.0
  0
POINT
  5
D62F
330
B6FF
100
AcDbEntity
  8
DEFPOINTS
 62
     0
 48
15.0
100
AcDbPoint
 10
1371.660006630031
 20
2167.460474313587
 30
0.0
  0
POINT
  5
D630
330
B6FF
100
AcDbEntity
  8
DEFPOINTS
 62
     0
 48
15.0
100
AcDbPoint
 10
1371.660006630031
 20
2133.460474313587
 30
0.0
  0
POINT
  5
D631
330
B6FF
100
AcDbEntity
  8
DEFPOINTS
 62
     0
 48
15.0
100
AcDbPoint
 10
1443.136199113909
 20
2133.460474313587
 30
0.0
  0
ENDBLK
  5
B70B
330
B6FF
100
AcDbEntity
  8
0
 48
15.0
100
AcDbBlockEnd
  0
BLOCK
  5
B718
330
B70C
100
AcDbEntity
  8
0
 48
15.0
100
AcDbBlockBegin
  2
*D39
 70
     1
 10
0.0
 20
0.0
 30
0.0
  3
*D39
  1

  0
LINE
  5
D632
330
B70C
100
AcDbEntity
  8
寸法引出
 48
15.0
370
    -2
100
AcDbLine
 10
1386.66000663003
 20
2217.460474313587
 30
0.0
 11
1450.636199113909
 21
2217.460474313587
 31
0.0
  0
LINE
  5
D633
330
B70C
100
AcDbEntity
  8
寸法引出
 48
15.0
370
    -2
100
AcDbLine
 10
1386.66000663003
 20
2167.460474313587
 30
0.0
 11
1450.636199113909
 21
2167.460474313587
 31
0.0
  0
LINE
  5
D634
330
B70C
100
AcDbEntity
  8
寸法引出
 48
15.0
370
    -2
100
AcDbLine
 10
1443.136199113909
 20
2239.960474313587
 30
0.0
 11
1443.136199113909
 21
2262.460474313586
 31
0.0
  0
LINE
  5
D635
330
B70C
100
AcDbEntity
  8
寸法引出
 48
15.0
370
    -2
100
AcDbLine
 10
1443.136199113909
 20
2144.960474313586
 30
0.0
 11
1443.136199113909
 21
2122.460474313587
 31
0.0
  0
LINE
  5
D636
330
B70C
100
AcDbEntity
  8
寸法引出
 48
15.0
370
    -2
100
AcDbLine
 10
1443.136199113909
 20
2217.460474313587
 30
0.0
 11
1443.136199113909
 21
2167.460474313587
 31
0.0
  0
SOLID
  5
D637
330
B70C
100
AcDbEntity
  8
寸法引出
 48
15.0
100
AcDbTrace
 10
1439.386199113909
 20
2239.960474313587
 30
0.0
 11
1446.886199113909
 21
2239.960474313587
 31
0.0
 12
1443.136199113909
 22
2217.460474313587
 32
0.0
 13
1443.136199113909
 23
2217.460474313587
 33
0.0
  0
SOLID
  5
D638
330
B70C
100
AcDbEntity
  8
寸法引出
 48
15.0
100
AcDbTrace
 10
1439.386199113909
 20
2144.960474313586
 30
0.0
 11
1446.886199113909
 21
2144.960474313586
 31
0.0
 12
1443.136199113909
 22
2167.460474313587
 32
0.0
 13
1443.136199113909
 23
2167.460474313587
 33
0.0
  0
MTEXT
  5
D639
330
B70C
100
AcDbEntity
  8
寸法引出
 48
15.0
100
AcDbMText
 10
1413.136199113909
 20
2192.460474313587
 30
0.0
 40
30.0
 41
0.0
 71
     5
 72
     1
  1
\A1;50
  7
SANWA
 11
0.0000000000000001
 21
1.0
 31
0.0
 73
     1
 44
1.0
1001
ACAD
1000
MTEXTBEGIN
1070
    73
1070
     1
1070
    44
1040
1.0
1070
    74
1070
     0
1000
MTEXTEND
  0
POINT
  5
D63A
330
B70C
100
AcDbEntity
  8
DEFPOINTS
 62
     0
 48
15.0
100
AcDbPoint
 10
1371.660006630031
 20
2217.460474313587
 30
0.0
  0
POINT
  5
D63B
330
B70C
100
AcDbEntity
  8
DEFPOINTS
 62
     0
 48
15.0
100
AcDbPoint
 10
1371.660006630031
 20
2167.460474313587
 30
0.0
  0
POINT
  5
D63C
330
B70C
100
AcDbEntity
  8
DEFPOINTS
 62
     0
 48
15.0
100
AcDbPoint
 10
1443.136199113909
 20
2167.460474313587
 30
0.0
  0
ENDBLK
  5
B719
330
B70C
100
AcDbEntity
  8
0
 48
15.0
100
AcDbBlockEnd
  0
BLOCK
  5
B724
330
B71A
100
AcDbEntity
  8
0
 48
15.0
100
AcDbBlockBegin
  2
*D40
 70
     1
 10
0.0
 20
0.0
 30
0.0
  3
*D40
  1

  0
LINE
  5
D63D
330
B71A
100
AcDbEntity
  8
寸法引出
 48
15.0
370
    -2
100
AcDbLine
 10
1386.66000663003
 20
1837.460474313586
 30
0.0
 11
1515.065483022558
 21
1837.460474313586
 31
0.0
  0
LINE
  5
D63E
330
B71A
100
AcDbEntity
  8
寸法引出
 48
15.0
370
    -2
100
AcDbLine
 10
1386.66000663003
 20
2192.460474313587
 30
0.0
 11
1515.065483022558
 21
2192.460474313587
 31
0.0
  0
LINE
  5
D63F
330
B71A
100
AcDbEntity
  8
寸法引出
 48
15.0
370
    -2
100
AcDbLine
 10
1507.565483022557
 20
1859.960474313586
 30
0.0
 11
1507.565483022557
 21
2169.960474313587
 31
0.0
  0
SOLID
  5
D640
330
B71A
100
AcDbEntity
  8
寸法引出
 48
15.0
100
AcDbTrace
 10
1503.815483022557
 20
1859.960474313586
 30
0.0
 11
1511.315483022557
 21
1859.960474313586
 31
0.0
 12
1507.565483022557
 22
1837.460474313586
 32
0.0
 13
1507.565483022557
 23
1837.460474313586
 33
0.0
  0
SOLID
  5
D641
330
B71A
100
AcDbEntity
  8
寸法引出
 48
15.0
100
AcDbTrace
 10
1503.815483022557
 20
2169.960474313587
 30
0.0
 11
1511.315483022557
 21
2169.960474313587
 31
0.0
 12
1507.565483022557
 22
2192.460474313587
 32
0.0
 13
1507.565483022557
 23
2192.460474313587
 33
0.0
  0
MTEXT
  5
D642
330
B71A
100
AcDbEntity
  8
寸法引出
 48
15.0
100
AcDbMText
 10
1477.565483022557
 20
2014.960474313587
 30
0.0
 40
30.0
 41
0.0
 71
     5
 72
     1
  1
\A1;355
  7
SANWA
 11
0.0000000000000001
 21
1.0
 31
0.0
 73
     1
 44
1.0
1001
ACAD
1000
MTEXTBEGIN
1070
    73
1070
     1
1070
    44
1040
1.0
1070
    74
1070
     0
1000
MTEXTEND
  0
POINT
  5
D643
330
B71A
100
AcDbEntity
  8
DEFPOINTS
 62
     0
 48
15.0
100
AcDbPoint
 10
1371.660006630031
 20
1837.460474313586
 30
0.0
  0
POINT
  5
D644
330
B71A
100
AcDbEntity
  8
DEFPOINTS
 62
     0
 48
15.0
100
AcDbPoint
 10
1371.660006630031
 20
2192.460474313587
 30
0.0
  0
POINT
  5
D645
330
B71A
100
AcDbEntity
  8
DEFPOINTS
 62
     0
 48
15.0
100
AcDbPoint
 10
1507.565483022557
 20
2192.460474313587
 30
0.0
  0
ENDBLK
  5
B725
330
B71A
100
AcDbEntity
  8
0
 48
15.0
100
AcDbBlockEnd
  0
BLOCK
  5
B730
330
B726
100
AcDbEntity
  8
0
 48
15.0
100
AcDbBlockBegin
  2
*D41
 70
     1
 10
0.0
 20
0.0
 30
0.0
  3
*D41
  1

  0
LINE
  5
D646
330
B726
100
AcDbEntity
  8
寸法引出
 48
15.0
370
    -2
100
AcDbLine
 10
956.6600066300306
 20
2292.460474313587
 30
0.0
 11
832.8643201661471
 21
2292.460474313587
 31
0.0
  0
LINE
  5
D647
330
B726
100
AcDbEntity
  8
寸法引出
 48
15.0
370
    -2
100
AcDbLine
 10
956.6600066300306
 20
1937.460474313586
 30
0.0
 11
832.8643201661471
 21
1937.460474313586
 31
0.0
  0
LINE
  5
D648
330
B726
100
AcDbEntity
  8
寸法引出
 48
15.0
370
    -2
100
AcDbLine
 10
840.364320166147
 20
2269.960474313586
 30
0.0
 11
840.364320166147
 21
1959.960474313587
 31
0.0
  0
SOLID
  5
D649
330
B726
100
AcDbEntity
  8
寸法引出
 48
15.0
100
AcDbTrace
 10
836.614320166147
 20
2269.960474313586
 30
0.0
 11
844.1143201661471
 21
2269.960474313586
 31
0.0
 12
840.364320166147
 22
2292.460474313587
 32
0.0
 13
840.364320166147
 23
2292.460474313587
 33
0.0
  0
SOLID
  5
D64A
330
B726
100
AcDbEntity
  8
寸法引出
 48
15.0
100
AcDbTrace
 10
836.614320166147
 20
1959.960474313587
 30
0.0
 11
844.1143201661471
 21
1959.960474313587
 31
0.0
 12
840.364320166147
 22
1937.460474313586
 32
0.0
 13
840.364320166147
 23
1937.460474313586
 33
0.0
  0
MTEXT
  5
D64B
330
B726
100
AcDbEntity
  8
寸法引出
 48
15.0
100
AcDbMText
 10
810.3643201661467
 20
2114.960474313587
 30
0.0
 40
30.0
 41
0.0
 71
     5
 72
     1
  1
\A1;355
  7
SANWA
 11
0.0000000000000001
 21
1.0
 31
0.0
 73
     1
 44
1.0
1001
ACAD
1000
MTEXTBEGIN
1070
    73
1070
     1
1070
    44
1040
1.0
1070
    74
1070
     0
1000
MTEXTEND
  0
POINT
  5
D64C
330
B726
100
AcDbEntity
  8
DEFPOINTS
 62
     0
 48
15.0
100
AcDbPoint
 10
971.6600066300307
 20
2292.460474313587
 30
0.0
  0
POINT
  5
D64D
330
B726
100
AcDbEntity
  8
DEFPOINTS
 62
     0
 48
15.0
100
AcDbPoint
 10
971.6600066300307
 20
1937.460474313586
 30
0.0
  0
POINT
  5
D64E
330
B726
100
AcDbEntity
  8
DEFPOINTS
 62
     0
 48
15.0
100
AcDbPoint
 10
840.364320166147
 20
1937.460474313586
 30
0.0
  0
ENDBLK
  5
B731
330
B726
100
AcDbEntity
  8
0
 48
15.0
100
AcDbBlockEnd
  0
BLOCK
  5
B73E
330
B732
100
AcDbEntity
  8
0
 48
15.0
100
AcDbBlockBegin
  2
*D42
 70
     1
 10
0.0
 20
0.0
 30
0.0
  3
*D42
  1

  0
LINE
  5
D64F
330
B732
100
AcDbEntity
  8
寸法引出
 48
15.0
370
    -2
100
AcDbLine
 10
1090.993339963364
 20
2197.460474313587
 30
0.0
 11
1090.993339963364
 21
2086.100936789693
 31
0.0
  0
LINE
  5
D650
330
B732
100
AcDbEntity
  8
寸法引出
 48
15.0
370
    -2
100
AcDbLine
 10
1025.993339963364
 20
2132.460474313587
 30
0.0
 11
1025.993339963364
 21
2086.100936789693
 31
0.0
  0
LINE
  5
D651
330
B732
100
AcDbEntity
  8
寸法引出
 48
15.0
370
    -2
100
AcDbLine
 10
1113.493339963365
 20
2093.600936789693
 30
0.0
 11
1135.993339963365
 21
2093.600936789693
 31
0.0
  0
LINE
  5
D652
330
B732
100
AcDbEntity
  8
寸法引出
 48
15.0
370
    -2
100
AcDbLine
 10
1003.493339963364
 20
2093.600936789693
 30
0.0
 11
980.9933399633646
 21
2093.600936789693
 31
0.0
  0
LINE
  5
D653
330
B732
100
AcDbEntity
  8
寸法引出
 48
15.0
370
    -2
100
AcDbLine
 10
1090.993339963364
 20
2093.600936789693
 30
0.0
 11
1025.993339963364
 21
2093.600936789693
 31
0.0
  0
SOLID
  5
D654
330
B732
100
AcDbEntity
  8
寸法引出
 48
15.0
100
AcDbTrace
 10
1113.493339963365
 20
2097.350936789693
 30
0.0
 11
1113.493339963365
 21
2089.850936789693
 31
0.0
 12
1090.993339963364
 22
2093.600936789693
 32
0.0
 13
1090.993339963364
 23
2093.600936789693
 33
0.0
  0
SOLID
  5
D655
330
B732
100
AcDbEntity
  8
寸法引出
 48
15.0
100
AcDbTrace
 10
1003.493339963364
 20
2097.350936789693
 30
0.0
 11
1003.493339963364
 21
2089.850936789693
 31
0.0
 12
1025.993339963364
 22
2093.600936789693
 32
0.0
 13
1025.993339963364
 23
2093.600936789693
 33
0.0
  0
MTEXT
  5
D656
330
B732
100
AcDbEntity
  8
寸法引出
 48
15.0
100
AcDbMText
 10
1058.493339963364
 20
2123.600936789693
 30
0.0
 40
30.0
 41
0.0
 71
     5
 72
     1
  1
\A1;65
  7
SANWA
 73
     1
 44
1.0
1001
ACAD
1000
MTEXTBEGIN
1070
    73
1070
     1
1070
    44
1040
1.0
1070
    74
1070
     0
1000
MTEXTEND
  0
POINT
  5
D657
330
B732
100
AcDbEntity
  8
DEFPOINTS
 62
     0
 48
15.0
100
AcDbPoint
 10
1090.993339963364
 20
2212.460474313587
 30
0.0
  0
POINT
  5
D658
330
B732
100
AcDbEntity
  8
DEFPOINTS
 62
     0
 48
15.0
100
AcDbPoint
 10
1025.993339963364
 20
2147.460474313587
 30
0.0
  0
POINT
  5
D659
330
B732
100
AcDbEntity
  8
DEFPOINTS
 62
     0
 48
15.0
100
AcDbPoint
 10
1025.993339963364
 20
2093.600936789693
 30
0.0
  0
ENDBLK
  5
B73F
330
B732
100
AcDbEntity
  8
0
 48
15.0
100
AcDbBlockEnd
  0
BLOCK
  5
B74C
330
B740
100
AcDbEntity
  8
0
 48
15.0
100
AcDbBlockBegin
  2
*D43
 70
     1
 10
0.0
 20
0.0
 30
0.0
  3
*D43
  1

  0
LINE
  5
D65A
330
B740
100
AcDbEntity
  8
寸法引出
 48
15.0
370
    -2
100
AcDbLine
 10
1105.993339963364
 20
2212.460474313587
 30
0.0
 11
1133.823053048145
 21
2212.460474313587
 31
0.0
  0
LINE
  5
D65B
330
B740
100
AcDbEntity
  8
寸法引出
 48
15.0
370
    -2
100
AcDbLine
 10
1040.993339963364
 20
2147.460474313587
 30
0.0
 11
1133.823053048145
 21
2147.460474313587
 31
0.0
  0
LINE
  5
D65C
330
B740
100
AcDbEntity
  8
寸法引出
 48
15.0
370
    -2
100
AcDbLine
 10
1126.323053048145
 20
2234.960474313587
 30
0.0
 11
1126.323053048145
 21
2257.460474313587
 31
0.0
  0
LINE
  5
D65D
330
B740
100
AcDbEntity
  8
寸法引出
 48
15.0
370
    -2
100
AcDbLine
 10
1126.323053048145
 20
2124.960474313587
 30
0.0
 11
1126.323053048145
 21
2102.460474313586
 31
0.0
  0
LINE
  5
D65E
330
B740
100
AcDbEntity
  8
寸法引出
 48
15.0
370
    -2
100
AcDbLine
 10
1126.323053048145
 20
2212.460474313587
 30
0.0
 11
1126.323053048145
 21
2147.460474313587
 31
0.0
  0
SOLID
  5
D65F
330
B740
100
AcDbEntity
  8
寸法引出
 48
15.0
100
AcDbTrace
 10
1122.573053048145
 20
2234.960474313587
 30
0.0
 11
1130.073053048145
 21
2234.960474313587
 31
0.0
 12
1126.323053048145
 22
2212.460474313587
 32
0.0
 13
1126.323053048145
 23
2212.460474313587
 33
0.0
  0
SOLID
  5
D660
330
B740
100
AcDbEntity
  8
寸法引出
 48
15.0
100
AcDbTrace
 10
1122.573053048145
 20
2124.960474313587
 30
0.0
 11
1130.073053048145
 21
2124.960474313587
 31
0.0
 12
1126.323053048145
 22
2147.460474313587
 32
0.0
 13
1126.323053048145
 23
2147.460474313587
 33
0.0
  0
MTEXT
  5
D661
330
B740
100
AcDbEntity
  8
寸法引出
 48
15.0
100
AcDbMText
 10
1096.323053048145
 20
2179.960474313587
 30
0.0
 40
30.0
 41
0.0
 71
     5
 72
     1
  1
\A1;65
  7
SANWA
 11
0.0000000000000001
 21
1.0
 31
0.0
 73
     1
 44
1.0
1001
ACAD
1000
MTEXTBEGIN
1070
    73
1070
     1
1070
    44
1040
1.0
1070
    74
1070
     0
1000
MTEXTEND
  0
POINT
  5
D662
330
B740
100
AcDbEntity
  8
DEFPOINTS
 62
     0
 48
15.0
100
AcDbPoint
 10
1090.993339963364
 20
2212.460474313587
 30
0.0
  0
POINT
  5
D663
330
B740
100
AcDbEntity
  8
DEFPOINTS
 62
     0
 48
15.0
100
AcDbPoint
 10
1025.993339963364
 20
2147.460474313587
 30
0.0
  0
POINT
  5
D664
330
B740
100
AcDbEntity
  8
DEFPOINTS
 62
     0
 48
15.0
100
AcDbPoint
 10
1126.323053048145
 20
2147.460474313587
 30
0.0
  0
ENDBLK
  5
B74D
330
B740
100
AcDbEntity
  8
0
 48
15.0
100
AcDbBlockEnd
  0
BLOCK
  5
B758
330
B74E
100
AcDbEntity
  8
0
 48
15.0
100
AcDbBlockBegin
  2
*D44
 70
     1
 10
0.0
 20
0.0
 30
0.0
  3
*D44
  1

  0
LINE
  5
D665
330
B74E
100
AcDbEntity
  8
寸法引出
 48
15.0
370
    -2
100
AcDbLine
 10
956.6600066300306
 20
2292.460474313587
 30
0.0
 11
682.7854551456148
 21
2292.460474313587
 31
0.0
  0
LINE
  5
D666
330
B74E
100
AcDbEntity
  8
寸法引出
 48
15.0
370
    -2
100
AcDbLine
 10
956.6600066300306
 20
1837.460474313586
 30
0.0
 11
682.7854551456148
 21
1837.460474313586
 31
0.0
  0
LINE
  5
D667
330
B74E
100
AcDbEntity
  8
寸法引出
 48
15.0
370
    -2
100
AcDbLine
 10
690.2854551456148
 20
2269.960474313586
 30
0.0
 11
690.2854551456148
 21
1859.960474313586
 31
0.0
  0
SOLID
  5
D668
330
B74E
100
AcDbEntity
  8
寸法引出
 48
15.0
100
AcDbTrace
 10
686.5354551456148
 20
2269.960474313586
 30
0.0
 11
694.0354551456148
 21
2269.960474313586
 31
0.0
 12
690.2854551456148
 22
2292.460474313587
 32
0.0
 13
690.2854551456148
 23
2292.460474313587
 33
0.0
  0
SOLID
  5
D669
330
B74E
100
AcDbEntity
  8
寸法引出
 48
15.0
100
AcDbTrace
 10
686.5354551456148
 20
1859.960474313586
 30
0.0
 11
694.0354551456148
 21
1859.960474313586
 31
0.0
 12
690.2854551456148
 22
1837.460474313586
 32
0.0
 13
690.2854551456148
 23
1837.460474313586
 33
0.0
  0
MTEXT
  5
D66A
330
B74E
100
AcDbEntity
  8
寸法引出
 48
15.0
100
AcDbMText
 10
660.2854551456145
 20
2064.960474313586
 30
0.0
 40
30.0
 41
0.0
 71
     5
 72
     1
  1
\A1;455
  7
SANWA
 11
0.0000000000000001
 21
1.0
 31
0.0
 73
     1
 44
1.0
1001
ACAD
1000
MTEXTBEGIN
1070
    73
1070
     1
1070
    44
1040
1.0
1070
    74
1070
     0
1000
MTEXTEND
  0
POINT
  5
D66B
330
B74E
100
AcDbEntity
  8
DEFPOINTS
 62
     0
 48
15.0
100
AcDbPoint
 10
971.6600066300307
 20
2292.460474313587
 30
0.0
  0
POINT
  5
D66C
330
B74E
100
AcDbEntity
  8
DEFPOINTS
 62
     0
 48
15.0
100
AcDbPoint
 10
971.6600066300307
 20
1837.460474313586
 30
0.0
  0
POINT
  5
D66D
330
B74E
100
AcDbEntity
  8
DEFPOINTS
 62
     0
 48
15.0
100
AcDbPoint
 10
690.2854551456148
 20
1837.460474313586
 30
0.0
  0
ENDBLK
  5
B759
330
B74E
100
AcDbEntity
  8
0
 48
15.0
100
AcDbBlockEnd
  0
BLOCK
  5
B764
330
B75A
100
AcDbEntity
  8
0
 48
15.0
100
AcDbBlockBegin
  2
*D45
 70
     1
 10
0.0
 20
0.0
 30
0.0
  3
*D45
  1

  0
LINE
  5
D66E
330
B75A
100
AcDbEntity
  8
寸法引出
 48
15.0
370
    -2
100
AcDbLine
 10
956.6600066300306
 20
2212.460474313587
 30
0.0
 11
760.9546500267206
 21
2212.460474313587
 31
0.0
  0
LINE
  5
D66F
330
B75A
100
AcDbEntity
  8
寸法引出
 48
15.0
370
    -2
100
AcDbLine
 10
956.6600066300306
 20
1912.460474313586
 30
0.0
 11
760.9546500267206
 21
1912.460474313586
 31
0.0
  0
LINE
  5
D670
330
B75A
100
AcDbEntity
  8
寸法引出
 48
15.0
370
    -2
100
AcDbLine
 10
768.4546500267206
 20
2189.960474313586
 30
0.0
 11
768.4546500267206
 21
1934.960474313587
 31
0.0
  0
SOLID
  5
D671
330
B75A
100
AcDbEntity
  8
寸法引出
 48
15.0
100
AcDbTrace
 10
764.7046500267206
 20
2189.960474313586
 30
0.0
 11
772.2046500267206
 21
2189.960474313586
 31
0.0
 12
768.4546500267206
 22
2212.460474313587
 32
0.0
 13
768.4546500267206
 23
2212.460474313587
 33
0.0
  0
SOLID
  5
D672
330
B75A
100
AcDbEntity
  8
寸法引出
 48
15.0
100
AcDbTrace
 10
764.7046500267206
 20
1934.960474313587
 30
0.0
 11
772.2046500267206
 21
1934.960474313587
 31
0.0
 12
768.4546500267206
 22
1912.460474313586
 32
0.0
 13
768.4546500267206
 23
1912.460474313586
 33
0.0
  0
MTEXT
  5
D673
330
B75A
100
AcDbEntity
  8
寸法引出
 48
15.0
100
AcDbMText
 10
738.4546500267203
 20
2062.460474313587
 30
0.0
 40
30.0
 41
0.0
 71
     5
 72
     1
  1
\A1;300
  7
SANWA
 11
0.0000000000000001
 21
1.0
 31
0.0
 73
     1
 44
1.0
1001
ACAD
1000
MTEXTBEGIN
1070
    73
1070
     1
1070
    44
1040
1.0
1070
    74
1070
     0
1000
MTEXTEND
  0
POINT
  5
D674
330
B75A
100
AcDbEntity
  8
DEFPOINTS
 62
     0
 48
15.0
100
AcDbPoint
 10
971.6600066300307
 20
2212.460474313587
 30
0.0
  0
POINT
  5
D675
330
B75A
100
AcDbEntity
  8
DEFPOINTS
 62
     0
 48
15.0
100
AcDbPoint
 10
971.6600066300307
 20
1912.460474313586
 30
0.0
  0
POINT
  5
D676
330
B75A
100
AcDbEntity
  8
DEFPOINTS
 62
     0
 48
15.0
100
AcDbPoint
 10
768.4546500267206
 20
1912.460474313586
 30
0.0
  0
ENDBLK
  5
B765
330
B75A
100
AcDbEntity
  8
0
 48
15.0
100
AcDbBlockEnd
  0
BLOCK
  5
B771
330
B766
100
AcDbEntity
  8
0
 48
15.0
100
AcDbBlockBegin
  2
*D46
 70
     1
 10
0.0
 20
0.0
 30
0.0
  3
*D46
  1

  0
LINE
  5
D677
330
B766
100
AcDbEntity
  8
寸法引出
 48
15.0
370
    -2
100
AcDbLine
 10
956.6600066300306
 20
1996.460474313585
 30
0.0
 11
904.530648979402
 21
1996.460474313585
 31
0.0
  0
LINE
  5
D678
330
B766
100
AcDbEntity
  8
寸法引出
 48
15.0
370
    -2
100
AcDbLine
 10
912.0306489794019
 20
1939.960474313586
 30
0.0
 11
912.0306489794019
 21
1917.460474313586
 31
0.0
  0
LINE
  5
D679
330
B766
100
AcDbEntity
  8
寸法引出
 48
15.0
370
    -2
100
AcDbLine
 10
912.0306489794019
 20
2018.960474313586
 30
0.0
 11
912.0306489794019
 21
2041.460474313586
 31
0.0
  0
MTEXT
  5
D67A
330
B766
100
AcDbEntity
  8
寸法引出
 48
15.0
100
AcDbMText
 10
882.030648979402
 20
2019.047437875708
 30
0.0
 40
30.0
 41
0.0
 71
     5
 72
     1
  1
\A1;34
  7
SANWA
 11
0.0000000000000001
 21
1.0
 31
0.0
 73
     1
 44
1.0
1001
ACAD
1000
MTEXTBEGIN
1070
    73
1070
     1
1070
    44
1040
1.0
1070
    74
1070
     0
1000
MTEXTEND
  0
LINE
  5
D67B
330
B766
100
AcDbEntity
  8
寸法引出
 48
15.0
370
    -2
100
AcDbLine
 10
912.0306489794019
 20
1962.460474313586
 30
0.0
 11
912.0306489794019
 21
1996.460474313585
 31
0.0
  0
SOLID
  5
D67C
330
B766
100
AcDbEntity
  8
寸法引出
 48
15.0
100
AcDbTrace
 10
908.280648979402
 20
1939.960474313586
 30
0.0
 11
915.7806489794021
 21
1939.960474313586
 31
0.0
 12
912.0306489794019
 22
1962.460474313586
 32
0.0
 13
912.0306489794019
 23
1962.460474313586
 33
0.0
  0
SOLID
  5
D67D
330
B766
100
AcDbEntity
  8
寸法引出
 48
15.0
100
AcDbTrace
 10
908.280648979402
 20
2018.960474313586
 30
0.0
 11
915.7806489794021
 21
2018.960474313586
 31
0.0
 12
912.0306489794019
 22
1996.460474313585
 32
0.0
 13
912.0306489794019
 23
1996.460474313585
 33
0.0
  0
POINT
  5
D67E
330
B766
100
AcDbEntity
  8
DEFPOINTS
 62
     0
 48
15.0
100
AcDbPoint
 10
971.6600066300307
 20
1962.460474313586
 30
0.0
  0
POINT
  5
D67F
330
B766
100
AcDbEntity
  8
DEFPOINTS
 62
     0
 48
15.0
100
AcDbPoint
 10
971.6600066300307
 20
1996.460474313585
 30
0.0
  0
POINT
  5
D680
330
B766
100
AcDbEntity
  8
DEFPOINTS
 62
     0
 48
15.0
100
AcDbPoint
 10
912.0306489794019
 20
1996.460474313585
 30
0.0
  0
ENDBLK
  5
B772
330
B766
100
AcDbEntity
  8
0
 48
15.0
100
AcDbBlockEnd
  0
BLOCK
  5
B77E
330
B773
100
AcDbEntity
  8
0
 48
15.0
100
AcDbBlockBegin
  2
*D47
 70
     1
 10
0.0
 20
0.0
 30
0.0
  3
*D47
  1

  0
LINE
  5
D681
330
B773
100
AcDbEntity
  8
寸法引出
 48
15.0
370
    -2
100
AcDbLine
 10
956.6600066300306
 20
1878.460474313585
 30
0.0
 11
904.530648979402
 21
1878.460474313585
 31
0.0
  0
LINE
  5
D682
330
B773
100
AcDbEntity
  8
寸法引出
 48
15.0
370
    -2
100
AcDbLine
 10
912.0306489794019
 20
1934.960474313587
 30
0.0
 11
912.0306489794019
 21
1957.460474313586
 31
0.0
  0
LINE
  5
D683
330
B773
100
AcDbEntity
  8
寸法引出
 48
15.0
370
    -2
100
AcDbLine
 10
912.0306489794019
 20
1855.960474313586
 30
0.0
 11
912.0306489794019
 21
1833.460474313585
 31
0.0
  0
MTEXT
  5
D684
330
B773
100
AcDbEntity
  8
寸法引出
 48
15.0
100
AcDbMText
 10
882.030648979402
 20
1855.944702794134
 30
0.0
 40
30.0
 41
0.0
 71
     5
 72
     1
  1
\A1;34
  7
SANWA
 11
0.0000000000000001
 21
1.0
 31
0.0
 73
     1
 44
1.0
1001
ACAD
1000
MTEXTBEGIN
1070
    73
1070
     1
1070
    44
1040
1.0
1070
    74
1070
     0
1000
MTEXTEND
  0
LINE
  5
D685
330
B773
100
AcDbEntity
  8
寸法引出
 48
15.0
370
    -2
100
AcDbLine
 10
912.0306489794019
 20
1912.460474313586
 30
0.0
 11
912.0306489794019
 21
1878.460474313585
 31
0.0
  0
SOLID
  5
D686
330
B773
100
AcDbEntity
  8
寸法引出
 48
15.0
100
AcDbTrace
 10
908.280648979402
 20
1934.960474313587
 30
0.0
 11
915.7806489794021
 21
1934.960474313587
 31
0.0
 12
912.0306489794019
 22
1912.460474313586
 32
0.0
 13
912.0306489794019
 23
1912.460474313586
 33
0.0
  0
SOLID
  5
D687
330
B773
100
AcDbEntity
  8
寸法引出
 48
15.0
100
AcDbTrace
 10
908.280648979402
 20
1855.960474313586
 30
0.0
 11
915.7806489794021
 21
1855.960474313586
 31
0.0
 12
912.0306489794019
 22
1878.460474313585
 32
0.0
 13
912.0306489794019
 23
1878.460474313585
 33
0.0
  0
POINT
  5
D688
330
B773
100
AcDbEntity
  8
DEFPOINTS
 62
     0
 48
15.0
100
AcDbPoint
 10
971.6600066300307
 20
1912.460474313586
 30
0.0
  0
POINT
  5
D689
330
B773
100
AcDbEntity
  8
DEFPOINTS
 62
     0
 48
15.0
100
AcDbPoint
 10
971.6600066300307
 20
1878.460474313585
 30
0.0
  0
POINT
  5
D68A
330
B773
100
AcDbEntity
  8
DEFPOINTS
 62
     0
 48
15.0
100
AcDbPoint
 10
912.0306489794019
 20
1878.460474313585
 30
0.0
  0
ENDBLK
  5
B77F
330
B773
100
AcDbEntity
  8
0
 48
15.0
100
AcDbBlockEnd
  0
BLOCK
  5
B78C
330
B780
100
AcDbEntity
  8
0
 48
15.0
100
AcDbBlockBegin
  2
*D48
 70
     1
 10
0.0
 20
0.0
 30
0.0
  3
*D48
  1

  0
LINE
  5
D68B
330
B780
100
AcDbEntity
  8
寸法引出
 48
15.0
370
    -2
100
AcDbLine
 10
956.6600066300306
 20
1962.460474313586
 30
0.0
 11
904.530648979402
 21
1962.460474313586
 31
0.0
  0
LINE
  5
D68C
330
B780
100
AcDbEntity
  8
寸法引出
 48
15.0
370
    -2
100
AcDbLine
 10
956.6600066300306
 20
1912.460474313586
 30
0.0
 11
904.530648979402
 21
1912.460474313586
 31
0.0
  0
LINE
  5
D68D
330
B780
100
AcDbEntity
  8
寸法引出
 48
15.0
370
    -2
100
AcDbLine
 10
912.0306489794019
 20
1984.960474313586
 30
0.0
 11
912.0306489794019
 21
2007.460474313587
 31
0.0
  0
LINE
  5
D68E
330
B780
100
AcDbEntity
  8
寸法引出
 48
15.0
370
    -2
100
AcDbLine
 10
912.0306489794019
 20
1889.960474313586
 30
0.0
 11
912.0306489794019
 21
1867.460474313586
 31
0.0
  0
LINE
  5
D68F
330
B780
100
AcDbEntity
  8
寸法引出
 48
15.0
370
    -2
100
AcDbLine
 10
912.0306489794019
 20
1962.460474313586
 30
0.0
 11
912.0306489794019
 21
1912.460474313586
 31
0.0
  0
SOLID
  5
D690
330
B780
100
AcDbEntity
  8
寸法引出
 48
15.0
100
AcDbTrace
 10
908.280648979402
 20
1984.960474313586
 30
0.0
 11
915.7806489794021
 21
1984.960474313586
 31
0.0
 12
912.0306489794019
 22
1962.460474313586
 32
0.0
 13
912.0306489794019
 23
1962.460474313586
 33
0.0
  0
SOLID
  5
D691
330
B780
100
AcDbEntity
  8
寸法引出
 48
15.0
100
AcDbTrace
 10
908.280648979402
 20
1889.960474313586
 30
0.0
 11
915.7806489794021
 21
1889.960474313586
 31
0.0
 12
912.0306489794019
 22
1912.460474313586
 32
0.0
 13
912.0306489794019
 23
1912.460474313586
 33
0.0
  0
MTEXT
  5
D692
330
B780
100
AcDbEntity
  8
寸法引出
 48
15.0
100
AcDbMText
 10
882.0306489794017
 20
1937.460474313587
 30
0.0
 40
30.0
 41
0.0
 71
     5
 72
     1
  1
\A1;50
  7
SANWA
 11
0.0000000000000001
 21
1.0
 31
0.0
 73
     1
 44
1.0
1001
ACAD
1000
MTEXTBEGIN
1070
    73
1070
     1
1070
    44
1040
1.0
1070
    74
1070
     0
1000
MTEXTEND
  0
POINT
  5
D693
330
B780
100
AcDbEntity
  8
DEFPOINTS
 62
     0
 48
15.0
100
AcDbPoint
 10
971.6600066300307
 20
1962.460474313586
 30
0.0
  0
POINT
  5
D694
330
B780
100
AcDbEntity
  8
DEFPOINTS
 62
     0
 48
15.0
100
AcDbPoint
 10
971.6600066300307
 20
1912.460474313586
 30
0.0
  0
POINT
  5
D695
330
B780
100
AcDbEntity
  8
DEFPOINTS
 62
     0
 48
15.0
100
AcDbPoint
 10
912.0306489794019
 20
1912.460474313586
 30
0.0
  0
ENDBLK
  5
B78D
330
B780
100
AcDbEntity
  8
0
 48
15.0
100
AcDbBlockEnd
  0
BLOCK
  5
B797
330
B78E
100
AcDbEntity
  8
0
 48
15.0
100
AcDbBlockBegin
  2
*D49
 70
     1
 10
0.0
 20
0.0
 30
0.0
  3
*D49
  1

  0
LINE
  5
D696
330
B78E
100
AcDbEntity
  8
寸法引出
 48
15.0
370
    -2
100
AcDbLine
 10
956.6600066300306
 20
1837.460474313586
 30
0.0
 11
832.8643201661471
 21
1837.460474313586
 31
0.0
  0
LINE
  5
D697
330
B78E
100
AcDbEntity
  8
寸法引出
 48
15.0
370
    -2
100
AcDbLine
 10
840.364320166147
 20
1914.960474313586
 30
0.0
 11
840.364320166147
 21
1859.960474313586
 31
0.0
  0
SOLID
  5
D698
330
B78E
100
AcDbEntity
  8
寸法引出
 48
15.0
100
AcDbTrace
 10
836.614320166147
 20
1914.960474313586
 30
0.0
 11
844.1143201661471
 21
1914.960474313586
 31
0.0
 12
840.364320166147
 22
1937.460474313586
 32
0.0
 13
840.364320166147
 23
1937.460474313586
 33
0.0
  0
SOLID
  5
D699
330
B78E
100
AcDbEntity
  8
寸法引出
 48
15.0
100
AcDbTrace
 10
836.614320166147
 20
1859.960474313586
 30
0.0
 11
844.1143201661471
 21
1859.960474313586
 31
0.0
 12
840.364320166147
 22
1837.460474313586
 32
0.0
 13
840.364320166147
 23
1837.460474313586
 33
0.0
  0
MTEXT
  5
D69A
330
B78E
100
AcDbEntity
  8
寸法引出
 48
15.0
100
AcDbMText
 10
810.3643201661467
 20
1887.460474313587
 30
0.0
 40
30.0
 41
0.0
 71
     5
 72
     1
  1
\A1;100
  7
SANWA
 11
0.0000000000000001
 21
1.0
 31
0.0
 73
     1
 44
1.0
1001
ACAD
1000
MTEXTBEGIN
1070
    73
1070
     1
1070
    44
1040
1.0
1070
    74
1070
     0
1000
MTEXTEND
  0
POINT
  5
D69B
330
B78E
100
AcDbEntity
  8
DEFPOINTS
 62
     0
 48
15.0
100
AcDbPoint
 10
971.6600066300307
 20
1937.460474313586
 30
0.0
  0
POINT
  5
D69C
330
B78E
100
AcDbEntity
  8
DEFPOINTS
 62
     0
 48
15.0
100
AcDbPoint
 10
971.6600066300307
 20
1837.460474313586
 30
0.0
  0
POINT
  5
D69D
330
B78E
100
AcDbEntity
  8
DEFPOINTS
 62
     0
 48
15.0
100
AcDbPoint
 10
840.364320166147
 20
1837.460474313586
 30
0.0
  0
ENDBLK
  5
B798
330
B78E
100
AcDbEntity
  8
0
 48
15.0
100
AcDbBlockEnd
  0
BLOCK
  5
B7A4
330
B799
100
AcDbEntity
  8
0
 48
15.0
100
AcDbBlockBegin
  2
*D50
 70
     1
 10
0.0
 20
0.0
 30
0.0
  3
*D50
  1

  0
LINE
  5
D69E
330
B799
100
AcDbEntity
  8
寸法引出
 48
15.0
370
    -2
100
AcDbLine
 10
971.6600066300307
 20
1822.460474313587
 30
0.0
 11
971.6600066300307
 21
1759.403553160717
 31
0.0
  0
LINE
  5
D69F
330
B799
100
AcDbEntity
  8
寸法引出
 48
15.0
370
    -2
100
AcDbLine
 10
1064.16000663003
 20
1766.903553160717
 30
0.0
 11
1086.66000663003
 21
1766.903553160717
 31
0.0
  0
LINE
  5
D6A0
330
B799
100
AcDbEntity
  8
寸法引出
 48
15.0
370
    -2
100
AcDbLine
 10
949.1600066300307
 20
1766.903553160717
 30
0.0
 11
926.6600066300307
 21
1766.903553160717
 31
0.0
  0
LINE
  5
D6A1
330
B799
100
AcDbEntity
  8
寸法引出
 48
15.0
370
    -2
100
AcDbLine
 10
1041.66000663003
 20
1766.903553160717
 30
0.0
 11
971.6600066300307
 21
1766.903553160717
 31
0.0
  0
SOLID
  5
D6A2
330
B799
100
AcDbEntity
  8
寸法引出
 48
15.0
100
AcDbTrace
 10
1064.16000663003
 20
1770.653553160717
 30
0.0
 11
1064.16000663003
 21
1763.153553160717
 31
0.0
 12
1041.66000663003
 22
1766.903553160717
 32
0.0
 13
1041.66000663003
 23
1766.903553160717
 33
0.0
  0
SOLID
  5
D6A3
330
B799
100
AcDbEntity
  8
寸法引出
 48
15.0
100
AcDbTrace
 10
949.1600066300307
 20
1770.653553160717
 30
0.0
 11
949.1600066300307
 21
1763.153553160717
 31
0.0
 12
971.6600066300307
 22
1766.903553160717
 32
0.0
 13
971.6600066300307
 23
1766.903553160717
 33
0.0
  0
MTEXT
  5
D6A4
330
B799
100
AcDbEntity
  8
寸法引出
 48
15.0
100
AcDbMText
 10
1006.66000663003
 20
1796.903553160717
 30
0.0
 40
30.0
 41
0.0
 71
     5
 72
     1
  1
\A1;70
  7
SANWA
 73
     1
 44
1.0
1001
ACAD
1000
MTEXTBEGIN
1070
    73
1070
     1
1070
    44
1040
1.0
1070
    74
1070
     0
1000
MTEXTEND
  0
POINT
  5
D6A5
330
B799
100
AcDbEntity
  8
DEFPOINTS
 62
     0
 48
15.0
100
AcDbPoint
 10
1041.66000663003
 20
1837.460474313586
 30
0.0
  0
POINT
  5
D6A6
330
B799
100
AcDbEntity
  8
DEFPOINTS
 62
     0
 48
15.0
100
AcDbPoint
 10
971.6600066300307
 20
1837.460474313586
 30
0.0
  0
POINT
  5
D6A7
330
B799
100
AcDbEntity
  8
DEFPOINTS
 62
     0
 48
15.0
100
AcDbPoint
 10
971.6600066300307
 20
1766.903553160717
 30
0.0
  0
ENDBLK
  5
B7A5
330
B799
100
AcDbEntity
  8
0
 48
15.0
100
AcDbBlockEnd
  0
BLOCK
  5
B7B1
330
B7A6
100
AcDbEntity
  8
0
 48
15.0
100
AcDbBlockBegin
  2
*D51
 70
     1
 10
0.0
 20
0.0
 30
0.0
  3
*D51
  1

  0
LINE
  5
D6A8
330
B7A6
100
AcDbEntity
  8
寸法引出
 48
15.0
370
    -2
100
AcDbLine
 10
956.6600066300306
 20
1837.460474313586
 30
0.0
 11
760.9546500267206
 21
1837.460474313586
 31
0.0
  0
LINE
  5
D6A9
330
B7A6
100
AcDbEntity
  8
寸法引出
 48
15.0
370
    -2
100
AcDbLine
 10
768.4546500267206
 20
1934.960474313587
 30
0.0
 11
768.4546500267206
 21
1957.460474313586
 31
0.0
  0
LINE
  5
D6AA
330
B7A6
100
AcDbEntity
  8
寸法引出
 48
15.0
370
    -2
100
AcDbLine
 10
768.4546500267206
 20
1814.960474313586
 30
0.0
 11
768.4546500267206
 21
1792.460474313586
 31
0.0
  0
LINE
  5
D6AB
330
B7A6
100
AcDbEntity
  8
寸法引出
 48
15.0
370
    -2
100
AcDbLine
 10
768.4546500267206
 20
1912.460474313586
 30
0.0
 11
768.4546500267206
 21
1837.460474313586
 31
0.0
  0
SOLID
  5
D6AC
330
B7A6
100
AcDbEntity
  8
寸法引出
 48
15.0
100
AcDbTrace
 10
764.7046500267206
 20
1934.960474313587
 30
0.0
 11
772.2046500267206
 21
1934.960474313587
 31
0.0
 12
768.4546500267206
 22
1912.460474313586
 32
0.0
 13
768.4546500267206
 23
1912.460474313586
 33
0.0
  0
SOLID
  5
D6AD
330
B7A6
100
AcDbEntity
  8
寸法引出
 48
15.0
100
AcDbTrace
 10
764.7046500267206
 20
1814.960474313586
 30
0.0
 11
772.2046500267206
 21
1814.960474313586
 31
0.0
 12
768.4546500267206
 22
1837.460474313586
 32
0.0
 13
768.4546500267206
 23
1837.460474313586
 33
0.0
  0
MTEXT
  5
D6AE
330
B7A6
100
AcDbEntity
  8
寸法引出
 48
15.0
100
AcDbMText
 10
738.4546500267203
 20
1874.960474313587
 30
0.0
 40
30.0
 41
0.0
 71
     5
 72
     1
  1
\A1;75
  7
SANWA
 11
0.0000000000000001
 21
1.0
 31
0.0
 73
     1
 44
1.0
1001
ACAD
1000
MTEXTBEGIN
1070
    73
1070
     1
1070
    44
1040
1.0
1070
    74
1070
     0
1000
MTEXTEND
  0
POINT
  5
D6AF
330
B7A6
100
AcDbEntity
  8
DEFPOINTS
 62
     0
 48
15.0
100
AcDbPoint
 10
971.6600066300307
 20
1912.460474313586
 30
0.0
  0
POINT
  5
D6B0
330
B7A6
100
AcDbEntity
  8
DEFPOINTS
 62
     0
 48
15.0
100
AcDbPoint
 10
971.6600066300307
 20
1837.460474313586
 30
0.0
  0
POINT
  5
D6B1
330
B7A6
100
AcDbEntity
  8
DEFPOINTS
 62
     0
 48
15.0
100
AcDbPoint
 10
768.4546500267206
 20
1837.460474313586
 30
0.0
  0
ENDBLK
  5
B7B2
330
B7A6
100
AcDbEntity
  8
0
 48
15.0
100
AcDbBlockEnd
  0
BLOCK
  5
B7BE
330
B7B3
100
AcDbEntity
  8
0
 48
15.0
100
AcDbBlockBegin
  2
*D52
 70
     1
 10
0.0
 20
0.0
 30
0.0
  3
*D52
  1

  0
LINE
  5
D6B2
330
B7B3
100
AcDbEntity
  8
寸法引出
 48
15.0
370
    -2
100
AcDbLine
 10
1371.660006630031
 20
1822.460474313587
 30
0.0
 11
1371.660006630031
 21
1759.403553160717
 31
0.0
  0
LINE
  5
D6B3
330
B7B3
100
AcDbEntity
  8
寸法引出
 48
15.0
370
    -2
100
AcDbLine
 10
1279.160006630031
 20
1766.903553160717
 30
0.0
 11
1256.660006630031
 21
1766.903553160717
 31
0.0
  0
LINE
  5
D6B4
330
B7B3
100
AcDbEntity
  8
寸法引出
 48
15.0
370
    -2
100
AcDbLine
 10
1394.160006630031
 20
1766.903553160717
 30
0.0
 11
1416.66000663003
 21
1766.903553160717
 31
0.0
  0
LINE
  5
D6B5
330
B7B3
100
AcDbEntity
  8
寸法引出
 48
15.0
370
    -2
100
AcDbLine
 10
1301.660006630031
 20
1766.903553160717
 30
0.0
 11
1371.660006630031
 21
1766.903553160717
 31
0.0
  0
SOLID
  5
D6B6
330
B7B3
100
AcDbEntity
  8
寸法引出
 48
15.0
100
AcDbTrace
 10
1279.160006630031
 20
1770.653553160717
 30
0.0
 11
1279.160006630031
 21
1763.153553160717
 31
0.0
 12
1301.660006630031
 22
1766.903553160717
 32
0.0
 13
1301.660006630031
 23
1766.903553160717
 33
0.0
  0
SOLID
  5
D6B7
330
B7B3
100
AcDbEntity
  8
寸法引出
 48
15.0
100
AcDbTrace
 10
1394.160006630031
 20
1770.653553160717
 30
0.0
 11
1394.160006630031
 21
1763.153553160717
 31
0.0
 12
1371.660006630031
 22
1766.903553160717
 32
0.0
 13
1371.660006630031
 23
1766.903553160717
 33
0.0
  0
MTEXT
  5
D6B8
330
B7B3
100
AcDbEntity
  8
寸法引出
 48
15.0
100
AcDbMText
 10
1336.660006630031
 20
1796.903553160717
 30
0.0
 40
30.0
 41
0.0
 71
     5
 72
     1
  1
\A1;70
  7
SANWA
 73
     1
 44
1.0
1001
ACAD
1000
MTEXTBEGIN
1070
    73
1070
     1
1070
    44
1040
1.0
1070
    74
1070
     0
1000
MTEXTEND
  0
POINT
  5
D6B9
330
B7B3
100
AcDbEntity
  8
DEFPOINTS
 62
     0
 48
15.0
100
AcDbPoint
 10
1301.660006630031
 20
1837.460474313586
 30
0.0
  0
POINT
  5
D6BA
330
B7B3
100
AcDbEntity
  8
DEFPOINTS
 62
     0
 48
15.0
100
AcDbPoint
 10
1371.660006630031
 20
1837.460474313586
 30
0.0
  0
POINT
  5
D6BB
330
B7B3
100
AcDbEntity
  8
DEFPOINTS
 62
     0
 48
15.0
100
AcDbPoint
 10
1371.660006630031
 20
1766.903553160717
 30
0.0
  0
ENDBLK
  5
B7BF
330
B7B3
100
AcDbEntity
  8
0
 48
15.0
100
AcDbBlockEnd
  0
BLOCK
  5
B7CA
330
B7C0
100
AcDbEntity
  8
0
 48
15.0
100
AcDbBlockBegin
  2
*D53
 70
     1
 10
0.0
 20
0.0
 30
0.0
  3
*D53
  1

  0
LINE
  5
D6BC
330
B7C0
100
AcDbEntity
  8
寸法引出
 48
15.0
370
    -2
100
AcDbLine
 10
1041.66000663003
 20
1822.460474313587
 30
0.0
 11
1041.66000663003
 21
1759.403553160717
 31
0.0
  0
LINE
  5
D6BD
330
B7C0
100
AcDbEntity
  8
寸法引出
 48
15.0
370
    -2
100
AcDbLine
 10
1301.660006630031
 20
1822.460474313587
 30
0.0
 11
1301.660006630031
 21
1759.403553160717
 31
0.0
  0
LINE
  5
D6BE
330
B7C0
100
AcDbEntity
  8
寸法引出
 48
15.0
370
    -2
100
AcDbLine
 10
1064.16000663003
 20
1766.903553160717
 30
0.0
 11
1279.160006630031
 21
1766.903553160717
 31
0.0
  0
SOLID
  5
D6BF
330
B7C0
100
AcDbEntity
  8
寸法引出
 48
15.0
100
AcDbTrace
 10
1064.16000663003
 20
1770.653553160717
 30
0.0
 11
1064.16000663003
 21
1763.153553160717
 31
0.0
 12
1041.66000663003
 22
1766.903553160717
 32
0.0
 13
1041.66000663003
 23
1766.903553160717
 33
0.0
  0
SOLID
  5
D6C0
330
B7C0
100
AcDbEntity
  8
寸法引出
 48
15.0
100
AcDbTrace
 10
1279.160006630031
 20
1770.653553160717
 30
0.0
 11
1279.160006630031
 21
1763.153553160717
 31
0.0
 12
1301.660006630031
 22
1766.903553160717
 32
0.0
 13
1301.660006630031
 23
1766.903553160717
 33
0.0
  0
MTEXT
  5
D6C1
330
B7C0
100
AcDbEntity
  8
寸法引出
 48
15.0
100
AcDbMText
 10
1171.66000663003
 20
1796.903553160717
 30
0.0
 40
30.0
 41
0.0
 71
     5
 72
     1
  1
\A1;260
  7
SANWA
 73
     1
 44
1.0
1001
ACAD
1000
MTEXTBEGIN
1070
    73
1070
     1
1070
    44
1040
1.0
1070
    74
1070
     0
1000
MTEXTEND
  0
POINT
  5
D6C2
330
B7C0
100
AcDbEntity
  8
DEFPOINTS
 62
     0
 48
15.0
100
AcDbPoint
 10
1041.66000663003
 20
1837.460474313586
 30
0.0
  0
POINT
  5
D6C3
330
B7C0
100
AcDbEntity
  8
DEFPOINTS
 62
     0
 48
15.0
100
AcDbPoint
 10
1301.660006630031
 20
1837.460474313586
 30
0.0
  0
POINT
  5
D6C4
330
B7C0
100
AcDbEntity
  8
DEFPOINTS
 62
     0
 48
15.0
100
AcDbPoint
 10
1301.660006630031
 20
1766.903553160717
 30
0.0
  0
ENDBLK
  5
B7CB
330
B7C0
100
AcDbEntity
  8
0
 48
15.0
100
AcDbBlockEnd
  0
BLOCK
  5
B7D5
330
B7CC
100
AcDbEntity
  8
0
 48
15.0
100
AcDbBlockBegin
  2
*D54
 70
     1
 10
0.0
 20
0.0
 30
0.0
  3
*D54
  1

  0
LINE
  5
D6C5
330
B7CC
100
AcDbEntity
  8
寸法引出
 48
15.0
370
    -2
100
AcDbLine
 10
956.6600066300306
 20
2292.460474313587
 30
0.0
 11
760.9546500267206
 21
2292.460474313587
 31
0.0
  0
LINE
  5
D6C6
330
B7CC
100
AcDbEntity
  8
寸法引出
 48
15.0
370
    -2
100
AcDbLine
 10
768.4546500267206
 20
2234.960474313587
 30
0.0
 11
768.4546500267206
 21
2269.960474313586
 31
0.0
  0
SOLID
  5
D6C7
330
B7CC
100
AcDbEntity
  8
寸法引出
 48
15.0
100
AcDbTrace
 10
764.7046500267206
 20
2234.960474313587
 30
0.0
 11
772.2046500267206
 21
2234.960474313587
 31
0.0
 12
768.4546500267206
 22
2212.460474313587
 32
0.0
 13
768.4546500267206
 23
2212.460474313587
 33
0.0
  0
SOLID
  5
D6C8
330
B7CC
100
AcDbEntity
  8
寸法引出
 48
15.0
100
AcDbTrace
 10
764.7046500267206
 20
2269.960474313586
 30
0.0
 11
772.2046500267206
 21
2269.960474313586
 31
0.0
 12
768.4546500267206
 22
2292.460474313587
 32
0.0
 13
768.4546500267206
 23
2292.460474313587
 33
0.0
  0
MTEXT
  5
D6C9
330
B7CC
100
AcDbEntity
  8
寸法引出
 48
15.0
100
AcDbMText
 10
738.4546500267203
 20
2252.460474313586
 30
0.0
 40
30.0
 41
0.0
 71
     5
 72
     1
  1
\A1;80
  7
SANWA
 11
0.0000000000000001
 21
1.0
 31
0.0
 73
     1
 44
1.0
1001
ACAD
1000
MTEXTBEGIN
1070
    73
1070
     1
1070
    44
1040
1.0
1070
    74
1070
     0
1000
MTEXTEND
  0
POINT
  5
D6CA
330
B7CC
100
AcDbEntity
  8
DEFPOINTS
 62
     0
 48
15.0
100
AcDbPoint
 10
971.6600066300307
 20
2212.460474313587
 30
0.0
  0
POINT
  5
D6CB
330
B7CC
100
AcDbEntity
  8
DEFPOINTS
 62
     0
 48
15.0
100
AcDbPoint
 10
971.6600066300307
 20
2292.460474313587
 30
0.0
  0
POINT
  5
D6CC
330
B7CC
100
AcDbEntity
  8
DEFPOINTS
 62
     0
 48
15.0
100
AcDbPoint
 10
768.4546500267206
 20
2292.460474313587
 30
0.0
  0
ENDBLK
  5
B7D6
330
B7CC
100
AcDbEntity
  8
0
 48
15.0
100
AcDbBlockEnd
  0
BLOCK
  5
B7E2
330
B7D7
100
AcDbEntity
  8
0
 48
15.0
100
AcDbBlockBegin
  2
*D55
 70
     1
 10
0.0
 20
0.0
 30
0.0
  3
*D55
  1

  0
LINE
  5
D6CD
330
B7D7
100
AcDbEntity
  8
寸法引出
 48
15.0
370
    -2
100
AcDbLine
 10
971.6600066300307
 20
2307.460474313586
 30
0.0
 11
971.6600066300307
 21
2438.709806978057
 31
0.0
  0
LINE
  5
D6CE
330
B7D7
100
AcDbEntity
  8
寸法引出
 48
15.0
370
    -2
100
AcDbLine
 10
1044.16000663003
 20
2431.209806978057
 30
0.0
 11
1066.66000663003
 21
2431.209806978057
 31
0.0
  0
LINE
  5
D6CF
330
B7D7
100
AcDbEntity
  8
寸法引出
 48
15.0
370
    -2
100
AcDbLine
 10
949.1600066300307
 20
2431.209806978057
 30
0.0
 11
926.6600066300307
 21
2431.209806978057
 31
0.0
  0
LINE
  5
D6D0
330
B7D7
100
AcDbEntity
  8
寸法引出
 48
15.0
370
    -2
100
AcDbLine
 10
1021.66000663003
 20
2431.209806978057
 30
0.0
 11
971.6600066300307
 21
2431.209806978057
 31
0.0
  0
SOLID
  5
D6D1
330
B7D7
100
AcDbEntity
  8
寸法引出
 48
15.0
100
AcDbTrace
 10
1044.16000663003
 20
2434.959806978057
 30
0.0
 11
1044.16000663003
 21
2427.459806978057
 31
0.0
 12
1021.66000663003
 22
2431.209806978057
 32
0.0
 13
1021.66000663003
 23
2431.209806978057
 33
0.0
  0
SOLID
  5
D6D2
330
B7D7
100
AcDbEntity
  8
寸法引出
 48
15.0
100
AcDbTrace
 10
949.1600066300307
 20
2434.959806978057
 30
0.0
 11
949.1600066300307
 21
2427.459806978057
 31
0.0
 12
971.6600066300307
 22
2431.209806978057
 32
0.0
 13
971.6600066300307
 23
2431.209806978057
 33
0.0
  0
MTEXT
  5
D6D3
330
B7D7
100
AcDbEntity
  8
寸法引出
 48
15.0
100
AcDbMText
 10
996.6600066300307
 20
2461.209806978057
 30
0.0
 40
30.0
 41
0.0
 71
     5
 72
     1
  1
\A1;50
  7
SANWA
 73
     1
 44
1.0
1001
ACAD
1000
MTEXTBEGIN
1070
    73
1070
     1
1070
    44
1040
1.0
1070
    74
1070
     0
1000
MTEXTEND
  0
POINT
  5
D6D4
330
B7D7
100
AcDbEntity
  8
DEFPOINTS
 62
     0
 48
15.0
100
AcDbPoint
 10
1021.66000663003
 20
2292.460474313587
 30
0.0
  0
POINT
  5
D6D5
330
B7D7
100
AcDbEntity
  8
DEFPOINTS
 62
     0
 48
15.0
100
AcDbPoint
 10
971.6600066300307
 20
2292.460474313587
 30
0.0
  0
POINT
  5
D6D6
330
B7D7
100
AcDbEntity
  8
DEFPOINTS
 62
     0
 48
15.0
100
AcDbPoint
 10
971.6600066300307
 20
2431.209806978057
 30
0.0
  0
ENDBLK
  5
B7E3
330
B7D7
100
AcDbEntity
  8
0
 48
15.0
100
AcDbBlockEnd
  0
BLOCK
  5
B7EE
330
B7E4
100
AcDbEntity
  8
0
 48
15.0
100
AcDbBlockBegin
  2
*D56
 70
     1
 10
0.0
 20
0.0
 30
0.0
  3
*D56
  1

  0
LINE
  5
D6D7
330
B7E4
100
AcDbEntity
  8
寸法引出
 48
15.0
370
    -2
100
AcDbLine
 10
971.6600066300307
 20
2307.460474313586
 30
0.0
 11
971.6600066300307
 21
2514.94234799428
 31
0.0
  0
LINE
  5
D6D8
330
B7E4
100
AcDbEntity
  8
寸法引出
 48
15.0
370
    -2
100
AcDbLine
 10
1371.660006630031
 20
2307.460474313586
 30
0.0
 11
1371.660006630031
 21
2514.94234799428
 31
0.0
  0
LINE
  5
D6D9
330
B7E4
100
AcDbEntity
  8
寸法引出
 48
15.0
370
    -2
100
AcDbLine
 10
994.1600066300306
 20
2507.44234799428
 30
0.0
 11
1349.160006630031
 21
2507.44234799428
 31
0.0
  0
SOLID
  5
D6DA
330
B7E4
100
AcDbEntity
  8
寸法引出
 48
15.0
100
AcDbTrace
 10
994.1600066300306
 20
2511.19234799428
 30
0.0
 11
994.1600066300306
 21
2503.69234799428
 31
0.0
 12
971.6600066300307
 22
2507.44234799428
 32
0.0
 13
971.6600066300307
 23
2507.44234799428
 33
0.0
  0
SOLID
  5
D6DB
330
B7E4
100
AcDbEntity
  8
寸法引出
 48
15.0
100
AcDbTrace
 10
1349.160006630031
 20
2511.19234799428
 30
0.0
 11
1349.160006630031
 21
2503.69234799428
 31
0.0
 12
1371.660006630031
 22
2507.44234799428
 32
0.0
 13
1371.660006630031
 23
2507.44234799428
 33
0.0
  0
MTEXT
  5
D6DC
330
B7E4
100
AcDbEntity
  8
寸法引出
 48
15.0
100
AcDbMText
 10
1171.66000663003
 20
2537.44234799428
 30
0.0
 40
30.0
 41
0.0
 71
     5
 72
     1
  1
\A1;400
  7
SANWA
 73
     1
 44
1.0
1001
ACAD
1000
MTEXTBEGIN
1070
    73
1070
     1
1070
    44
1040
1.0
1070
    74
1070
     0
1000
MTEXTEND
  0
POINT
  5
D6DD
330
B7E4
100
AcDbEntity
  8
DEFPOINTS
 62
     0
 48
15.0
100
AcDbPoint
 10
971.6600066300307
 20
2292.460474313587
 30
0.0
  0
POINT
  5
D6DE
330
B7E4
100
AcDbEntity
  8
DEFPOINTS
 62
     0
 48
15.0
100
AcDbPoint
 10
1371.660006630031
 20
2292.460474313587
 30
0.0
  0
POINT
  5
D6DF
330
B7E4
100
AcDbEntity
  8
DEFPOINTS
 62
     0
 48
15.0
100
AcDbPoint
 10
1371.660006630031
 20
2507.44234799428
 30
0.0
  0
ENDBLK
  5
B7EF
330
B7E4
100
AcDbEntity
  8
0
 48
15.0
100
AcDbBlockEnd
  0
BLOCK
  5
B7FB
330
B7F0
100
AcDbEntity
  8
0
 48
15.0
100
AcDbBlockBegin
  2
*D57
 70
     1
 10
0.0
 20
0.0
 30
0.0
  3
*D57
  1

  0
LINE
  5
D6E0
330
B7F0
100
AcDbEntity
  8
寸法引出
 48
15.0
370
    -2
100
AcDbLine
 10
1371.660006630031
 20
2307.460474313586
 30
0.0
 11
1371.660006630031
 21
2438.709806978057
 31
0.0
  0
LINE
  5
D6E1
330
B7F0
100
AcDbEntity
  8
寸法引出
 48
15.0
370
    -2
100
AcDbLine
 10
1299.160006630031
 20
2431.209806978057
 30
0.0
 11
1276.660006630031
 21
2431.209806978057
 31
0.0
  0
LINE
  5
D6E2
330
B7F0
100
AcDbEntity
  8
寸法引出
 48
15.0
370
    -2
100
AcDbLine
 10
1394.160006630031
 20
2431.209806978057
 30
0.0
 11
1416.66000663003
 21
2431.209806978057
 31
0.0
  0
LINE
  5
D6E3
330
B7F0
100
AcDbEntity
  8
寸法引出
 48
15.0
370
    -2
100
AcDbLine
 10
1321.660006630031
 20
2431.209806978057
 30
0.0
 11
1371.660006630031
 21
2431.209806978057
 31
0.0
  0
SOLID
  5
D6E4
330
B7F0
100
AcDbEntity
  8
寸法引出
 48
15.0
100
AcDbTrace
 10
1299.160006630031
 20
2434.959806978057
 30
0.0
 11
1299.160006630031
 21
2427.459806978057
 31
0.0
 12
1321.660006630031
 22
2431.209806978057
 32
0.0
 13
1321.660006630031
 23
2431.209806978057
 33
0.0
  0
SOLID
  5
D6E5
330
B7F0
100
AcDbEntity
  8
寸法引出
 48
15.0
100
AcDbTrace
 10
1394.160006630031
 20
2434.959806978057
 30
0.0
 11
1394.160006630031
 21
2427.459806978057
 31
0.0
 12
1371.660006630031
 22
2431.209806978057
 32
0.0
 13
1371.660006630031
 23
2431.209806978057
 33
0.0
  0
MTEXT
  5
D6E6
330
B7F0
100
AcDbEntity
  8
寸法引出
 48
15.0
100
AcDbMText
 10
1346.66000663003
 20
2461.209806978057
 30
0.0
 40
30.0
 41
0.0
 71
     5
 72
     1
  1
\A1;50
  7
SANWA
 73
     1
 44
1.0
1001
ACAD
1000
MTEXTBEGIN
1070
    73
1070
     1
1070
    44
1040
1.0
1070
    74
1070
     0
1000
MTEXTEND
  0
POINT
  5
D6E7
330
B7F0
100
AcDbEntity
  8
DEFPOINTS
 62
     0
 48
15.0
100
AcDbPoint
 10
1321.660006630031
 20
2292.460474313587
 30
0.0
  0
POINT
  5
D6E8
330
B7F0
100
AcDbEntity
  8
DEFPOINTS
 62
     0
 48
15.0
100
AcDbPoint
 10
1371.660006630031
 20
2292.460474313587
 30
0.0
  0
POINT
  5
D6E9
330
B7F0
100
AcDbEntity
  8
DEFPOINTS
 62
     0
 48
15.0
100
AcDbPoint
 10
1371.660006630031
 20
2431.209806978057
 30
0.0
  0
ENDBLK
  5
B7FC
330
B7F0
100
AcDbEntity
  8
0
 48
15.0
100
AcDbBlockEnd
  0
BLOCK
  5
B806
330
B7FD
100
AcDbEntity
  8
0
 48
15.0
100
AcDbBlockBegin
  2
*D58
 70
     1
 10
0.0
 20
0.0
 30
0.0
  3
*D58
  1

  0
LINE
  5
D6EA
330
B7FD
100
AcDbEntity
  8
寸法引出
 48
15.0
370
    -2
100
AcDbLine
 10
1371.660006630031
 20
2307.460474313586
 30
0.0
 11
1371.660006630031
 21
2363.394661296838
 31
0.0
  0
LINE
  5
D6EB
330
B7FD
100
AcDbEntity
  8
寸法引出
 48
15.0
370
    -2
100
AcDbLine
 10
1201.660006630031
 20
2355.894661296838
 30
0.0
 11
1349.160006630031
 21
2355.894661296838
 31
0.0
  0
SOLID
  5
D6EC
330
B7FD
100
AcDbEntity
  8
寸法引出
 48
15.0
100
AcDbTrace
 10
1201.660006630031
 20
2359.644661296838
 30
0.0
 11
1201.660006630031
 21
2352.144661296838
 31
0.0
 12
1179.16000663003
 22
2355.894661296838
 32
0.0
 13
1179.16000663003
 23
2355.894661296838
 33
0.0
  0
SOLID
  5
D6ED
330
B7FD
100
AcDbEntity
  8
寸法引出
 48
15.0
100
AcDbTrace
 10
1349.160006630031
 20
2359.644661296838
 30
0.0
 11
1349.160006630031
 21
2352.144661296838
 31
0.0
 12
1371.660006630031
 22
2355.894661296838
 32
0.0
 13
1371.660006630031
 23
2355.894661296838
 33
0.0
  0
MTEXT
  5
D6EE
330
B7FD
100
AcDbEntity
  8
寸法引出
 48
15.0
100
AcDbMText
 10
1275.41000663003
 20
2385.894661296838
 30
0.0
 40
30.0
 41
0.0
 71
     5
 72
     1
  1
\A1;192.5
  7
SANWA
 73
     1
 44
1.0
1001
ACAD
1000
MTEXTBEGIN
1070
    73
1070
     1
1070
    44
1040
1.0
1070
    74
1070
     0
1000
MTEXTEND
  0
POINT
  5
D6EF
330
B7FD
100
AcDbEntity
  8
DEFPOINTS
 62
     0
 48
15.0
100
AcDbPoint
 10
1179.16000663003
 20
2292.460474313589
 30
0.0
  0
POINT
  5
D6F0
330
B7FD
100
AcDbEntity
  8
DEFPOINTS
 62
     0
 48
15.0
100
AcDbPoint
 10
1371.660006630031
 20
2292.460474313587
 30
0.0
  0
POINT
  5
D6F1
330
B7FD
100
AcDbEntity
  8
DEFPOINTS
 62
     0
 48
15.0
100
AcDbPoint
 10
1371.660006630031
 20
2355.894661296838
 30
0.0
  0
ENDBLK
  5
B807
330
B7FD
100
AcDbEntity
  8
0
 48
15.0
100
AcDbBlockEnd
  0
BLOCK
  5
B813
330
B808
100
AcDbEntity
  8
0
 48
15.0
100
AcDbBlockBegin
  2
*D59
 70
     1
 10
0.0
 20
0.0
 30
0.0
  3
*D59
  1

  0
LINE
  5
D6F2
330
B808
100
AcDbEntity
  8
寸法引出
 48
15.0
370
    -2
100
AcDbLine
 10
1179.16000663003
 20
2307.460474313588
 30
0.0
 11
1179.16000663003
 21
2363.394661296838
 31
0.0
  0
LINE
  5
D6F3
330
B808
100
AcDbEntity
  8
寸法引出
 48
15.0
370
    -2
100
AcDbLine
 10
1141.66000663003
 20
2355.894661296838
 30
0.0
 11
1119.16000663003
 21
2355.894661296838
 31
0.0
  0
LINE
  5
D6F4
330
B808
100
AcDbEntity
  8
寸法引出
 48
15.0
370
    -2
100
AcDbLine
 10
1201.660006630031
 20
2355.894661296838
 30
0.0
 11
1224.160006630031
 21
2355.894661296838
 31
0.0
  0
LINE
  5
D6F5
330
B808
100
AcDbEntity
  8
寸法引出
 48
15.0
370
    -2
100
AcDbLine
 10
1164.160006630031
 20
2355.894661296838
 30
0.0
 11
1179.16000663003
 21
2355.894661296838
 31
0.0
  0
SOLID
  5
D6F6
330
B808
100
AcDbEntity
  8
寸法引出
 48
15.0
100
AcDbTrace
 10
1141.66000663003
 20
2359.644661296838
 30
0.0
 11
1141.66000663003
 21
2352.144661296838
 31
0.0
 12
1164.160006630031
 22
2355.894661296838
 32
0.0
 13
1164.160006630031
 23
2355.894661296838
 33
0.0
  0
SOLID
  5
D6F7
330
B808
100
AcDbEntity
  8
寸法引出
 48
15.0
100
AcDbTrace
 10
1201.660006630031
 20
2359.644661296838
 30
0.0
 11
1201.660006630031
 21
2352.144661296838
 31
0.0
 12
1179.16000663003
 22
2355.894661296838
 32
0.0
 13
1179.16000663003
 23
2355.894661296838
 33
0.0
  0
MTEXT
  5
D6F8
330
B808
100
AcDbEntity
  8
寸法引出
 48
15.0
100
AcDbMText
 10
1171.66000663003
 20
2385.894661296838
 30
0.0
 40
30.0
 41
0.0
 71
     5
 72
     1
  1
\A1;15
  7
SANWA
 73
     1
 44
1.0
1001
ACAD
1000
MTEXTBEGIN
1070
    73
1070
     1
1070
    44
1040
1.0
1070
    74
1070
     0
1000
MTEXTEND
  0
POINT
  5
D6F9
330
B808
100
AcDbEntity
  8
DEFPOINTS
 62
     0
 48
15.0
100
AcDbPoint
 10
1164.160006630031
 20
2292.460474313589
 30
0.0
  0
POINT
  5
D6FA
330
B808
100
AcDbEntity
  8
DEFPOINTS
 62
     0
 48
15.0
100
AcDbPoint
 10
1179.16000663003
 20
2292.460474313589
 30
0.0
  0
POINT
  5
D6FB
330
B808
100
AcDbEntity
  8
DEFPOINTS
 62
     0
 48
15.0
100
AcDbPoint
 10
1179.16000663003
 20
2355.894661296838
 30
0.0
  0
ENDBLK
  5
B814
330
B808
100
AcDbEntity
  8
0
 48
15.0
100
AcDbBlockEnd
  0
BLOCK
  5
B81F
330
B815
100
AcDbEntity
  8
0
 48
15.0
100
AcDbBlockBegin
  2
*D60
 70
     1
 10
0.0
 20
0.0
 30
0.0
  3
*D60
  1

  0
LINE
  5
D6FC
330
B815
100
AcDbEntity
  8
寸法引出
 48
15.0
370
    -2
100
AcDbLine
 10
971.6600066300307
 20
2307.460474313586
 30
0.0
 11
971.6600066300307
 21
2363.394661296838
 31
0.0
  0
LINE
  5
D6FD
330
B815
100
AcDbEntity
  8
寸法引出
 48
15.0
370
    -2
100
AcDbLine
 10
1164.160006630031
 20
2307.460474313588
 30
0.0
 11
1164.160006630031
 21
2363.394661296838
 31
0.0
  0
LINE
  5
D6FE
330
B815
100
AcDbEntity
  8
寸法引出
 48
15.0
370
    -2
100
AcDbLine
 10
994.1600066300306
 20
2355.894661296838
 30
0.0
 11
1141.66000663003
 21
2355.894661296838
 31
0.0
  0
SOLID
  5
D6FF
330
B815
100
AcDbEntity
  8
寸法引出
 48
15.0
100
AcDbTrace
 10
994.1600066300306
 20
2359.644661296838
 30
0.0
 11
994.1600066300306
 21
2352.144661296838
 31
0.0
 12
971.6600066300307
 22
2355.894661296838
 32
0.0
 13
971.6600066300307
 23
2355.894661296838
 33
0.0
  0
SOLID
  5
D700
330
B815
100
AcDbEntity
  8
寸法引出
 48
15.0
100
AcDbTrace
 10
1141.66000663003
 20
2359.644661296838
 30
0.0
 11
1141.66000663003
 21
2352.144661296838
 31
0.0
 12
1164.160006630031
 22
2355.894661296838
 32
0.0
 13
1164.160006630031
 23
2355.894661296838
 33
0.0
  0
MTEXT
  5
D701
330
B815
100
AcDbEntity
  8
寸法引出
 48
15.0
100
AcDbMText
 10
1067.910006630031
 20
2385.894661296838
 30
0.0
 40
30.0
 41
0.0
 71
     5
 72
     1
  1
\A1;192.5
  7
SANWA
 73
     1
 44
1.0
1001
ACAD
1000
MTEXTBEGIN
1070
    73
1070
     1
1070
    44
1040
1.0
1070
    74
1070
     0
1000
MTEXTEND
  0
POINT
  5
D702
330
B815
100
AcDbEntity
  8
DEFPOINTS
 62
     0
 48
15.0
100
AcDbPoint
 10
971.6600066300307
 20
2292.460474313587
 30
0.0
  0
POINT
  5
D703
330
B815
100
AcDbEntity
  8
DEFPOINTS
 62
     0
 48
15.0
100
AcDbPoint
 10
1164.160006630031
 20
2292.460474313589
 30
0.0
  0
POINT
  5
D704
330
B815
100
AcDbEntity
  8
DEFPOINTS
 62
     0
 48
15.0
100
AcDbPoint
 10
1164.160006630031
 20
2355.894661296838
 30
0.0
  0
ENDBLK
  5
B820
330
B815
100
AcDbEntity
  8
0
 48
15.0
100
AcDbBlockEnd
  0
BLOCK
  5
B82B
330
B821
100
AcDbEntity
  8
0
 48
15.0
100
AcDbBlockBegin
  2
*D61
 70
     1
 10
0.0
 20
0.0
 30
0.0
  3
*D61
  1

  0
LINE
  5
D705
330
B821
100
AcDbEntity
  8
寸法引出
 48
15.0
370
    -2
100
AcDbLine
 10
1021.66000663003
 20
2307.460474313587
 30
0.0
 11
1021.66000663003
 21
2438.709806978057
 31
0.0
  0
LINE
  5
D706
330
B821
100
AcDbEntity
  8
寸法引出
 48
15.0
370
    -2
100
AcDbLine
 10
1321.660006630031
 20
2307.460474313587
 30
0.0
 11
1321.660006630031
 21
2438.709806978057
 31
0.0
  0
LINE
  5
D707
330
B821
100
AcDbEntity
  8
寸法引出
 48
15.0
370
    -2
100
AcDbLine
 10
1044.16000663003
 20
2431.209806978057
 30
0.0
 11
1299.160006630031
 21
2431.209806978057
 31
0.0
  0
SOLID
  5
D708
330
B821
100
AcDbEntity
  8
寸法引出
 48
15.0
100
AcDbTrace
 10
1044.16000663003
 20
2434.959806978057
 30
0.0
 11
1044.16000663003
 21
2427.459806978057
 31
0.0
 12
1021.66000663003
 22
2431.209806978057
 32
0.0
 13
1021.66000663003
 23
2431.209806978057
 33
0.0
  0
SOLID
  5
D709
330
B821
100
AcDbEntity
  8
寸法引出
 48
15.0
100
AcDbTrace
 10
1299.160006630031
 20
2434.959806978057
 30
0.0
 11
1299.160006630031
 21
2427.459806978057
 31
0.0
 12
1321.660006630031
 22
2431.209806978057
 32
0.0
 13
1321.660006630031
 23
2431.209806978057
 33
0.0
  0
MTEXT
  5
D70A
330
B821
100
AcDbEntity
  8
寸法引出
 48
15.0
100
AcDbMText
 10
1171.66000663003
 20
2461.209806978057
 30
0.0
 40
30.0
 41
0.0
 71
     5
 72
     1
  1
\A1;300
  7
SANWA
 73
     1
 44
1.0
1001
ACAD
1000
MTEXTBEGIN
1070
    73
1070
     1
1070
    44
1040
1.0
1070
    74
1070
     0
1000
MTEXTEND
  0
POINT
  5
D70B
330
B821
100
AcDbEntity
  8
DEFPOINTS
 62
     0
 48
15.0
100
AcDbPoint
 10
1021.66000663003
 20
2292.460474313587
 30
0.0
  0
POINT
  5
D70C
330
B821
100
AcDbEntity
  8
DEFPOINTS
 62
     0
 48
15.0
100
AcDbPoint
 10
1321.660006630031
 20
2292.460474313587
 30
0.0
  0
POINT
  5
D70D
330
B821
100
AcDbEntity
  8
DEFPOINTS
 62
     0
 48
15.0
100
AcDbPoint
 10
1321.660006630031
 20
2431.209806978057
 30
0.0
  0
ENDBLK
  5
B82C
330
B821
100
AcDbEntity
  8
0
 48
15.0
100
AcDbBlockEnd
  0
BLOCK
  5
B846
330
B83B
100
AcDbEntity
  8
0
 48
15.0
100
AcDbBlockBegin
  2
*D62
 70
     1
 10
0.0
 20
0.0
 30
0.0
  3
*D62
  1

  0
LINE
  5
D70E
330
B83B
100
AcDbEntity
  8
寸法引出
 48
15.0
370
    -2
100
AcDbLine
 10
1386.66000663003
 20
2251.460474313587
 30
0.0
 11
1450.636199113909
 21
2251.460474313587
 31
0.0
  0
LINE
  5
D70F
330
B83B
100
AcDbEntity
  8
寸法引出
 48
15.0
370
    -2
100
AcDbLine
 10
1443.136199113909
 20
2194.960474313587
 30
0.0
 11
1443.136199113909
 21
2172.460474313587
 31
0.0
  0
LINE
  5
D710
330
B83B
100
AcDbEntity
  8
寸法引出
 48
15.0
370
    -2
100
AcDbLine
 10
1443.136199113909
 20
2273.960474313588
 30
0.0
 11
1443.136199113909
 21
2296.460474313588
 31
0.0
  0
MTEXT
  5
D711
330
B83B
100
AcDbEntity
  8
寸法引出
 48
15.0
100
AcDbMText
 10
1413.136199113909
 20
2279.738213022532
 30
0.0
 40
30.0
 41
0.0
 71
     5
 72
     1
  1
\A1;34
  7
SANWA
 11
0.0000000000000001
 21
1.0
 31
0.0
 73
     1
 44
1.0
1001
ACAD
1000
MTEXTBEGIN
1070
    73
1070
     1
1070
    44
1040
1.0
1070
    74
1070
     0
1000
MTEXTEND
  0
LINE
  5
D712
330
B83B
100
AcDbEntity
  8
寸法引出
 48
15.0
370
    -2
100
AcDbLine
 10
1443.136199113909
 20
2217.460474313587
 30
0.0
 11
1443.136199113909
 21
2251.460474313587
 31
0.0
  0
SOLID
  5
D713
330
B83B
100
AcDbEntity
  8
寸法引出
 48
15.0
100
AcDbTrace
 10
1439.386199113909
 20
2194.960474313587
 30
0.0
 11
1446.886199113909
 21
2194.960474313587
 31
0.0
 12
1443.136199113909
 22
2217.460474313587
 32
0.0
 13
1443.136199113909
 23
2217.460474313587
 33
0.0
  0
SOLID
  5
D714
330
B83B
100
AcDbEntity
  8
寸法引出
 48
15.0
100
AcDbTrace
 10
1439.386199113909
 20
2273.960474313588
 30
0.0
 11
1446.886199113909
 21
2273.960474313588
 31
0.0
 12
1443.136199113909
 22
2251.460474313587
 32
0.0
 13
1443.136199113909
 23
2251.460474313587
 33
0.0
  0
POINT
  5
D715
330
B83B
100
AcDbEntity
  8
DEFPOINTS
 62
     0
 48
15.0
100
AcDbPoint
 10
1371.660006630031
 20
2217.460474313587
 30
0.0
  0
POINT
  5
D716
330
B83B
100
AcDbEntity
  8
DEFPOINTS
 62
     0
 48
15.0
100
AcDbPoint
 10
1371.660006630031
 20
2251.460474313587
 30
0.0
  0
POINT
  5
D717
330
B83B
100
AcDbEntity
  8
DEFPOINTS
 62
     0
 48
15.0
100
AcDbPoint
 10
1443.136199113909
 20
2251.460474313587
 30
0.0
  0
ENDBLK
  5
B847
330
B83B
100
AcDbEntity
  8
0
 48
15.0
100
AcDbBlockEnd
  0
BLOCK
  5
B851
330
B848
100
AcDbEntity
  8
0
 48
15.0
100
AcDbBlockBegin
  2
*D63
 70
     1
 10
0.0
 20
0.0
 30
0.0
  3
*D63
  1

  0
LINE
  5
D718
330
B848
100
AcDbEntity
  8
寸法引出
 48
15.0
370
    -2
100
AcDbLine
 10
1386.66000663003
 20
2292.460474313587
 30
0.0
 11
1515.065483022558
 21
2292.460474313587
 31
0.0
  0
LINE
  5
D719
330
B848
100
AcDbEntity
  8
寸法引出
 48
15.0
370
    -2
100
AcDbLine
 10
1507.565483022557
 20
2214.960474313587
 30
0.0
 11
1507.565483022557
 21
2269.960474313586
 31
0.0
  0
SOLID
  5
D71A
330
B848
100
AcDbEntity
  8
寸法引出
 48
15.0
100
AcDbTrace
 10
1503.815483022557
 20
2214.960474313587
 30
0.0
 11
1511.315483022557
 21
2214.960474313587
 31
0.0
 12
1507.565483022557
 22
2192.460474313587
 32
0.0
 13
1507.565483022557
 23
2192.460474313587
 33
0.0
  0
SOLID
  5
D71B
330
B848
100
AcDbEntity
  8
寸法引出
 48
15.0
100
AcDbTrace
 10
1503.815483022557
 20
2269.960474313586
 30
0.0
 11
1511.315483022557
 21
2269.960474313586
 31
0.0
 12
1507.565483022557
 22
2292.460474313587
 32
0.0
 13
1507.565483022557
 23
2292.460474313587
 33
0.0
  0
MTEXT
  5
D71C
330
B848
100
AcDbEntity
  8
寸法引出
 48
15.0
100
AcDbMText
 10
1477.565483022557
 20
2242.460474313587
 30
0.0
 40
30.0
 41
0.0
 71
     5
 72
     1
  1
\A1;100
  7
SANWA
 11
0.0000000000000001
 21
1.0
 31
0.0
 73
     1
 44
1.0
1001
ACAD
1000
MTEXTBEGIN
1070
    73
1070
     1
1070
    44
1040
1.0
1070
    74
1070
     0
1000
MTEXTEND
  0
POINT
  5
D71D
330
B848
100
AcDbEntity
  8
DEFPOINTS
 62
     0
 48
15.0
100
AcDbPoint
 10
1371.660006630031
 20
2192.460474313587
 30
0.0
  0
POINT
  5
D71E
330
B848
100
AcDbEntity
  8
DEFPOINTS
 62
     0
 48
15.0
100
AcDbPoint
 10
1371.660006630031
 20
2292.460474313587
 30
0.0
  0
POINT
  5
D71F
330
B848
100
AcDbEntity
  8
DEFPOINTS
 62
     0
 48
15.0
100
AcDbPoint
 10
1507.565483022557
 20
2292.460474313587
 30
0.0
  0
ENDBLK
  5
B852
330
B848
100
AcDbEntity
  8
0
 48
15.0
100
AcDbBlockEnd
  0
BLOCK
  5
B85D
330
B853
100
AcDbEntity
  8
0
 48
15.0
100
AcDbBlockBegin
  2
*D64
 70
     1
 10
0.0
 20
0.0
 30
0.0
  3
*D64
  1

  0
LINE
  5
D720
330
B853
100
AcDbEntity
  8
寸法引出
 48
15.0
370
    -2
100
AcDbLine
 10
1954.505309803666
 20
2307.460474313586
 30
0.0
 11
1954.505309803666
 21
2438.709806978057
 31
0.0
  0
LINE
  5
D721
330
B853
100
AcDbEntity
  8
寸法引出
 48
15.0
370
    -2
100
AcDbLine
 10
3952.505309803666
 20
2307.460474313586
 30
0.0
 11
3952.505309803666
 21
2438.709806978057
 31
0.0
  0
LINE
  5
D722
330
B853
100
AcDbEntity
  8
寸法引出
 48
15.0
370
    -2
100
AcDbLine
 10
1977.005309803666
 20
2431.209806978057
 30
0.0
 11
3930.005309803667
 21
2431.209806978057
 31
0.0
  0
SOLID
  5
D723
330
B853
100
AcDbEntity
  8
寸法引出
 48
15.0
100
AcDbTrace
 10
1977.005309803666
 20
2434.959806978057
 30
0.0
 11
1977.005309803666
 21
2427.459806978057
 31
0.0
 12
1954.505309803666
 22
2431.209806978057
 32
0.0
 13
1954.505309803666
 23
2431.209806978057
 33
0.0
  0
SOLID
  5
D724
330
B853
100
AcDbEntity
  8
寸法引出
 48
15.0
100
AcDbTrace
 10
3930.005309803667
 20
2434.959806978057
 30
0.0
 11
3930.005309803667
 21
2427.459806978057
 31
0.0
 12
3952.505309803666
 22
2431.209806978057
 32
0.0
 13
3952.505309803666
 23
2431.209806978057
 33
0.0
  0
MTEXT
  5
D725
330
B853
100
AcDbEntity
  8
寸法引出
 48
15.0
100
AcDbMText
 10
2953.505309803666
 20
2461.209806978057
 30
0.0
 40
30.0
 41
0.0
 71
     5
 72
     1
  1
\A1;1998
  7
SANWA
 73
     1
 44
1.0
1001
ACAD
1000
MTEXTBEGIN
1070
    73
1070
     1
1070
    44
1040
1.0
1070
    74
1070
     0
1000
MTEXTEND
  0
POINT
  5
D726
330
B853
100
AcDbEntity
  8
DEFPOINTS
 62
     0
 48
15.0
100
AcDbPoint
 10
1954.505309803666
 20
2292.460474313587
 30
0.0
  0
POINT
  5
D727
330
B853
100
AcDbEntity
  8
DEFPOINTS
 62
     0
 48
15.0
100
AcDbPoint
 10
3952.505309803666
 20
2292.460474313587
 30
0.0
  0
POINT
  5
D728
330
B853
100
AcDbEntity
  8
DEFPOINTS
 62
     0
 48
15.0
100
AcDbPoint
 10
3952.505309803666
 20
2431.209806978057
 30
0.0
  0
ENDBLK
  5
B85E
330
B853
100
AcDbEntity
  8
0
 48
15.0
100
AcDbBlockEnd
  0
BLOCK
  5
C3CC
330
C3C2
100
AcDbEntity
  8
0
 48
15.0
100
AcDbBlockBegin
  2
*D65
 70
     1
 10
0.0
 20
0.0
 30
0.0
  3
*D65
  1

  0
LINE
  5
D729
330
C3C2
100
AcDbEntity
  8
寸法引出
 48
15.0
370
    -2
100
AcDbLine
 10
1954.505309803666
 20
1837.460474313586
 30
0.0
 11
1860.303701822639
 21
1837.460474313586
 31
0.0
  0
LINE
  5
D72A
330
C3C2
100
AcDbEntity
  8
寸法引出
 48
15.0
370
    -2
100
AcDbLine
 10
1939.505309803666
 20
2092.460474313587
 30
0.0
 11
1860.303701822639
 21
2092.460474313587
 31
0.0
  0
LINE
  5
D72B
330
C3C2
100
AcDbEntity
  8
寸法引出
 48
15.0
370
    -2
100
AcDbLine
 10
1867.803701822639
 20
1859.960474313586
 30
0.0
 11
1867.803701822639
 21
2069.960474313587
 31
0.0
  0
SOLID
  5
D72C
330
C3C2
100
AcDbEntity
  8
寸法引出
 48
15.0
100
AcDbTrace
 10
1864.053701822638
 20
1859.960474313586
 30
0.0
 11
1871.553701822639
 21
1859.960474313586
 31
0.0
 12
1867.803701822639
 22
1837.460474313586
 32
0.0
 13
1867.803701822639
 23
1837.460474313586
 33
0.0
  0
SOLID
  5
D72D
330
C3C2
100
AcDbEntity
  8
寸法引出
 48
15.0
100
AcDbTrace
 10
1864.053701822638
 20
2069.960474313587
 30
0.0
 11
1871.553701822639
 21
2069.960474313587
 31
0.0
 12
1867.803701822639
 22
2092.460474313587
 32
0.0
 13
1867.803701822639
 23
2092.460474313587
 33
0.0
  0
MTEXT
  5
D72E
330
C3C2
100
AcDbEntity
  8
寸法引出
 48
15.0
100
AcDbMText
 10
1837.803701822639
 20
1964.960474313587
 30
0.0
 40
30.0
 41
0.0
 71
     5
 72
     1
  1
\A1;255
  7
SANWA
 11
0.0000000000000001
 21
1.0
 31
0.0
 73
     1
 44
1.0
1001
ACAD
1000
MTEXTBEGIN
1070
    73
1070
     1
1070
    44
1040
1.0
1070
    74
1070
     0
1000
MTEXTEND
  0
POINT
  5
D72F
330
C3C2
100
AcDbEntity
  8
DEFPOINTS
 62
     0
 48
15.0
100
AcDbPoint
 10
1969.505309803666
 20
1837.460474313586
 30
0.0
  0
POINT
  5
D730
330
C3C2
100
AcDbEntity
  8
DEFPOINTS
 62
     0
 48
15.0
100
AcDbPoint
 10
1954.505309803666
 20
2092.460474313587
 30
0.0
  0
POINT
  5
D731
330
C3C2
100
AcDbEntity
  8
DEFPOINTS
 62
     0
 48
15.0
100
AcDbPoint
 10
1867.803701822639
 20
2092.460474313587
 30
0.0
  0
ENDBLK
  5
C3CD
330
C3C2
100
AcDbEntity
  8
0
 48
15.0
100
AcDbBlockEnd
  0
BLOCK
  5
C3D9
330
C3CF
100
AcDbEntity
  8
0
 48
15.0
100
AcDbBlockBegin
  2
*D66
 70
     1
 10
0.0
 20
0.0
 30
0.0
  3
*D66
  1

  0
LINE
  5
D732
330
C3CF
100
AcDbEntity
  8
寸法引出
 48
15.0
370
    -2
100
AcDbLine
 10
1939.505309803666
 20
2092.460474313587
 30
0.0
 11
1860.303701822639
 21
2092.460474313587
 31
0.0
  0
LINE
  5
D733
330
C3CF
100
AcDbEntity
  8
寸法引出
 48
15.0
370
    -2
100
AcDbLine
 10
1945.505309803666
 20
2292.460474313587
 30
0.0
 11
1860.303701822639
 21
2292.460474313587
 31
0.0
  0
LINE
  5
D734
330
C3CF
100
AcDbEntity
  8
寸法引出
 48
15.0
370
    -2
100
AcDbLine
 10
1867.803701822639
 20
2114.960474313587
 30
0.0
 11
1867.803701822639
 21
2269.960474313586
 31
0.0
  0
SOLID
  5
D735
330
C3CF
100
AcDbEntity
  8
寸法引出
 48
15.0
100
AcDbTrace
 10
1864.053701822638
 20
2114.960474313587
 30
0.0
 11
1871.553701822639
 21
2114.960474313587
 31
0.0
 12
1867.803701822639
 22
2092.460474313587
 32
0.0
 13
1867.803701822639
 23
2092.460474313587
 33
0.0
  0
SOLID
  5
D736
330
C3CF
100
AcDbEntity
  8
寸法引出
 48
15.0
100
AcDbTrace
 10
1864.053701822638
 20
2269.960474313586
 30
0.0
 11
1871.553701822639
 21
2269.960474313586
 31
0.0
 12
1867.803701822639
 22
2292.460474313587
 32
0.0
 13
1867.803701822639
 23
2292.460474313587
 33
0.0
  0
MTEXT
  5
D737
330
C3CF
100
AcDbEntity
  8
寸法引出
 48
15.0
100
AcDbMText
 10
1837.803701822639
 20
2192.460474313587
 30
0.0
 40
30.0
 41
0.0
 71
     5
 72
     1
  1
\A1;200
  7
SANWA
 11
0.0000000000000001
 21
1.0
 31
0.0
 73
     1
 44
1.0
1001
ACAD
1000
MTEXTBEGIN
1070
    73
1070
     1
1070
    44
1040
1.0
1070
    74
1070
     0
1000
MTEXTEND
  0
POINT
  5
D738
330
C3CF
100
AcDbEntity
  8
DEFPOINTS
 62
     0
 48
15.0
100
AcDbPoint
 10
1954.505309803666
 20
2092.460474313587
 30
0.0
  0
POINT
  5
D739
330
C3CF
100
AcDbEntity
  8
DEFPOINTS
 62
     0
 48
15.0
100
AcDbPoint
 10
1960.505309803666
 20
2292.460474313587
 30
0.0
  0
POINT
  5
D73A
330
C3CF
100
AcDbEntity
  8
DEFPOINTS
 62
     0
 48
15.0
100
AcDbPoint
 10
1867.803701822639
 20
2292.460474313587
 30
0.0
  0
ENDBLK
  5
C3DA
330
C3CF
100
AcDbEntity
  8
0
 48
15.0
100
AcDbBlockEnd
  0
BLOCK
  5
CDC9
330
CDBF
100
AcDbEntity
  8
0
 48
15.0
100
AcDbBlockBegin
  2
*D67
 70
     1
 10
0.0
 20
0.0
 30
0.0
  3
*D67
  1

  0
LINE
  5
D73B
330
CDBF
100
AcDbEntity
  8
寸法引出
 48
15.0
370
    -2
100
AcDbLine
 10
1939.505309803666
 20
897.1321263237323
 30
0.0
 11
1860.303701822638
 21
897.1321263237323
 31
0.0
  0
LINE
  5
D73C
330
CDBF
100
AcDbEntity
  8
寸法引出
 48
15.0
370
    -2
100
AcDbLine
 10
1939.505309803666
 20
1297.132126323732
 30
0.0
 11
1860.303701822638
 21
1297.132126323732
 31
0.0
  0
LINE
  5
D73D
330
CDBF
100
AcDbEntity
  8
寸法引出
 48
15.0
370
    -2
100
AcDbLine
 10
1867.803701822638
 20
919.6321263237322
 30
0.0
 11
1867.803701822638
 21
1274.632126323732
 31
0.0
  0
SOLID
  5
D73E
330
CDBF
100
AcDbEntity
  8
寸法引出
 48
15.0
100
AcDbTrace
 10
1864.053701822638
 20
919.6321263237322
 30
0.0
 11
1871.553701822638
 21
919.6321263237322
 31
0.0
 12
1867.803701822638
 22
897.1321263237323
 32
0.0
 13
1867.803701822638
 23
897.1321263237323
 33
0.0
  0
SOLID
  5
D73F
330
CDBF
100
AcDbEntity
  8
寸法引出
 48
15.0
100
AcDbTrace
 10
1864.053701822638
 20
1274.632126323732
 30
0.0
 11
1871.553701822638
 21
1274.632126323732
 31
0.0
 12
1867.803701822638
 22
1297.132126323732
 32
0.0
 13
1867.803701822638
 23
1297.132126323732
 33
0.0
  0
MTEXT
  5
D740
330
CDBF
100
AcDbEntity
  8
寸法引出
 48
15.0
100
AcDbMText
 10
1837.803701822638
 20
1097.132126323733
 30
0.0
 40
30.0
 41
0.0
 71
     5
 72
     1
  1
\A1;400
  7
SANWA
 11
0.0000000000000001
 21
1.0
 31
0.0
 73
     1
 44
1.0
1001
ACAD
1000
MTEXTBEGIN
1070
    73
1070
     1
1070
    44
1040
1.0
1070
    74
1070
     0
1000
MTEXTEND
  0
POINT
  5
D741
330
CDBF
100
AcDbEntity
  8
DEFPOINTS
 62
     0
 48
15.0
100
AcDbPoint
 10
1954.505309803666
 20
897.1321263237323
 30
0.0
  0
POINT
  5
D742
330
CDBF
100
AcDbEntity
  8
DEFPOINTS
 62
     0
 48
15.0
100
AcDbPoint
 10
1954.505309803666
 20
1297.132126323732
 30
0.0
  0
POINT
  5
D743
330
CDBF
100
AcDbEntity
  8
DEFPOINTS
 62
     0
 48
15.0
100
AcDbPoint
 10
1867.803701822638
 20
1297.132126323732
 30
0.0
  0
ENDBLK
  5
CDCA
330
CDBF
100
AcDbEntity
  8
0
 48
15.0
100
AcDbBlockEnd
  0
ENDSEC
  0
SECTION
  2
ENTITIES
  0
DIMENSION
  5
B06E
330
747D
100
AcDbEntity
  8
寸法引出
 48
15.0
100
AcDbDimension
  2
*D0
 10
3952.505309803666
 20
1385.582910689661
 30
0.0
 11
2953.505309803666
 21
1415.582910689662
 31
0.0
 70
    32
 71
     5
 42
1998.0
  3
SANWA
100
AcDbAlignedDimension
 13
1954.505309803666
 23
1297.132126323732
 33
0.0
 14
3952.505309803666
 24
1297.132126323732
 34
0.0
100
AcDbRotatedDimension
1001
ACAD
1000
DSTYLE
1002
{
1070
   140
1040
2.0
1070
    40
1040
15.0
1070
   147
1040
1.0
1070
    44
1040
0.5
1070
    43
1040
5.0
1070
   178
1070
   256
1070
   177
1070
   256
1070
   176
1070
   256
1070
    41
1040
1.5
1002
}
  0
LINE
  5
B070
330
747D
100
AcDbEntity
  8
枠
100
AcDbLine
 10
4304.999992975976
 20
150.000000272139
 30
0.0
 11
4304.999992975976
 21
3000.000000272139
 31
0.0
  0
LINE
  5
B071
330
747D
100
AcDbEntity
  8
枠
100
AcDbLine
 10
374.9999929759761
 20
150.000000272139
 30
0.0
 11
374.9999929759761
 21
3000.000000272139
 31
0.0
  0
MTEXT
  5
B072
330
747D
100
AcDbEntity
  8
寸法引出
 48
15.0
100
AcDbMText
 10
922.7339528553493
 20
323.1905592643852
 30
0.0
 40
30.0
 41
0.0
 71
     6
 72
     1
  1
流水面
  7
SANWA
 73
     1
 44
1.0
1001
ACAD
1000
MTEXTBEGIN
1070
    73
1070
     1
1070
    44
1040
1.0
1070
    74
1070
     0
1000
MTEXTEND
  0
LINE
  5
B073
330
747D
100
AcDbEntity
  8
枠
100
AcDbLine
 10
374.9999929759761
 20
150.000000272139
 30
0.0
 11
4304.999992975976
 21
150.000000272139
 31
0.0
  0
LINE
  5
B074
330
747D
100
AcDbEntity
  8
0
100
AcDbLine
 10
374.9999929759761
 20
0.0000002721390047
 30
0.0
 11
-0.0000070240239438
 21
0.0000002721390047
 31
0.0
  0
LINE
  5
B075
330
747D
100
AcDbEntity
  8
0
100
AcDbLine
 10
-0.0000070240239438
 20
0.0000002721390047
 30
0.0
 11
-0.0000070240239438
 21
150.000000272139
 31
0.0
  0
DIMENSION
  5
B076
330
747D
100
AcDbEntity
  8
寸法引出
 48
15.0
100
AcDbDimension
  2
*D1
 10
1071.130691398964
 20
916.8886189963341
 30
0.0
 11
1041.130691398964
 21
967.8886189963343
 31
0.0
 70
    32
  1
34
 71
     5
 42
102.0
  3
SANWA
100
AcDbAlignedDimension
 13
957.2814753471648
 23
1018.888618996334
 33
0.0
 14
957.2814753471657
 24
916.8886189963341
 34
0.0
 50
90.0
100
AcDbRotatedDimension
1001
ACAD
1000
DSTYLE
1002
{
1070
    40
1040
15.0
1070
    41
1040
1.5
1070
    43
1040
5.0
1070
    44
1040
0.5
1070
    75
1070
     1
1070
   140
1040
2.0
1070
   147
1040
1.0
1070
   176
1070
   256
1070
   177
1070
   256
1070
   178
1070
   256
1070
   279
1070
     1
1002
}
  0
DIMENSION
  5
B077
330
747D
100
AcDbEntity
  8
寸法引出
 48
15.0
100
AcDbDimension
  2
*D2
 10
1071.130691398964
 20
1018.888618996334
 30
0.0
 11
1041.130691398964
 21
1032.388618996334
 31
0.0
 70
    32
  1
9
 71
     5
 42
27.0
  3
SANWA
100
AcDbAlignedDimension
 13
984.2814753471648
 23
1045.888618996334
 33
0.0
 14
957.2814753471648
 24
1018.888618996334
 34
0.0
 50
90.0
100
AcDbRotatedDimension
1001
ACAD
1000
DSTYLE
1002
{
1070
    40
1040
15.0
1070
    41
1040
1.5
1070
    43
1040
5.0
1070
    44
1040
0.5
1070
    75
1070
     1
1070
   140
1040
2.0
1070
   147
1040
1.0
1070
   176
1070
   256
1070
   177
1070
   256
1070
   178
1070
   256
1070
   279
1070
     1
1002
}
  0
DIMENSION
  5
B078
330
747D
100
AcDbEntity
  8
寸法引出
 48
15.0
100
AcDbDimension
  2
*D3
 10
1071.130691398964
 20
1045.888618996334
 30
0.0
 11
1041.130691398964
 21
1077.388618996334
 31
0.0
 70
    32
  1
21
 71
     5
 42
63.0
  3
SANWA
100
AcDbAlignedDimension
 13
984.2814753471648
 23
1108.888618996334
 33
0.0
 14
984.2814753471648
 24
1045.888618996334
 34
0.0
 50
90.0
100
AcDbRotatedDimension
1001
ACAD
1000
DSTYLE
1002
{
1070
    40
1040
15.0
1070
    41
1040
1.5
1070
    43
1040
5.0
1070
    44
1040
0.5
1070
   140
1040
2.0
1070
   147
1040
1.0
1070
   176
1070
   256
1070
   177
1070
   256
1070
   178
1070
   256
1070
   279
1070
     1
1002
}
  0
LINE
  5
B079
330
747D
100
AcDbEntity
  8
0
100
AcDbLine
 10
744.2814753471648
 20
1225.888618996334
 30
0.0
 11
1077.881755211525
 21
1225.888618996334
 31
0.0
  0
LINE
  5
B07A
330
747D
100
AcDbEntity
  8
0
 48
15.0
100
AcDbLine
 10
771.2814753471648
 20
916.8886189963341
 30
0.0
 11
1077.881755211526
 21
916.8886189963341
 31
0.0
  0
DIMENSION
  5
B07B
330
747D
100
AcDbEntity
  8
寸法引出
 48
15.0
100
AcDbDimension
  2
*D4
 10
1015.888318363864
 20
922.8886189963342
 30
0.0
 11
985.8883183638644
 21
970.8886189963342
 31
0.0
 70
    32
  1
32
 71
     5
 42
96.0
  3
SANWA
100
AcDbAlignedDimension
 13
957.2814753471648
 23
1018.888618996334
 33
0.0
 14
955.5167694648117
 24
922.8886189963342
 34
0.0
 50
90.0
100
AcDbRotatedDimension
1001
ACAD
1000
DSTYLE
1002
{
1070
    40
1040
15.0
1070
    41
1040
1.5
1070
    43
1040
5.0
1070
    44
1040
0.5
1070
   140
1040
2.0
1070
   147
1040
1.0
1070
   176
1070
   256
1070
   177
1070
   256
1070
   178
1070
   256
1070
   279
1070
     1
1002
}
  0
LINE
  5
B07C
330
747D
100
AcDbEntity
  8
0
 48
15.0
100
AcDbLine
 10
927.2814753471648
 20
1018.888618996334
 30
0.0
 11
957.2814753471648
 21
916.8886189963341
 31
0.0
  0
LINE
  5
B07D
330
747D
100
AcDbEntity
  8
0
100
AcDbLine
 10
744.2814753471648
 20
916.8886189963341
 30
0.0
 11
744.2814753471648
 21
1018.888618996334
 31
0.0
  0
LINE
  5
B07E
330
747D
100
AcDbEntity
  8
0
100
AcDbLine
 10
771.2814753471648
 20
916.8886189963341
 30
0.0
 11
771.2814753471648
 21
1018.888618996334
 31
0.0
  0
ARC
  5
B07F
330
747D
100
AcDbEntity
  8
0
100
AcDbCircle
 10
795.7367156263262
 20
996.5893986910813
 30
0.0
 40
22.33995363486258
100
AcDbArc
 50
93.46048892146253
 51
178.1751428070458
  0
LINE
  5
B080
330
747D
100
AcDbEntity
  8
0
 48
15.0
100
AcDbLine
 10
744.2814753471648
 20
916.8886189963341
 30
0.0
 11
744.2814753471648
 21
1225.888618996334
 31
0.0
  0
DIMENSION
  5
B081
330
747D
100
AcDbEntity
  8
寸法引出
 48
15.0
100
AcDbDimension
  2
*D5
 10
771.2814753471632
 20
1018.888618996335
 30
0.0
 11
808.9675223616126
 21
968.0899867474938
 31
0.0
 70
   164
  1
R9
 71
     5
 42
26.99999999999846
  3
SANWA$4
100
AcDbRadialDimension
 15
755.1945061526018
 25
1040.572931808438
 35
0.0
 40
0.0
1001
ACAD
1000
DSTYLE
1002
{
1070
    40
1040
15.0
1070
    41
1040
1.5
1070
    44
1040
0.5
1070
   140
1040
2.0
1070
   176
1070
   256
1070
   177
1070
   256
1070
   178
1070
   256
1070
   279
1070
     1
1070
   289
1070
     3
1002
}
  0
DIMENSION
  5
B082
330
747D
100
AcDbEntity
  8
寸法引出
 48
15.0
100
AcDbDimension
  2
*D6
 10
630.2178121301003
 20
991.8886189963341
 30
0.0
 11
600.2178121301002
 21
954.3886189963343
 31
0.0
 70
    32
  1
25
 71
     5
 42
75.0
  3
SANWA
100
AcDbAlignedDimension
 13
744.2814753471648
 23
916.8886189963341
 33
0.0
 14
744.2814753471648
 24
991.8886189963341
 34
0.0
 50
90.0
100
AcDbRotatedDimension
1001
ACAD
1000
DSTYLE
1002
{
1070
    40
1040
15.0
1070
    41
1040
1.5
1070
    43
1040
5.0
1070
    44
1040
0.5
1070
   140
1040
2.0
1070
   147
1040
1.0
1070
   176
1070
   256
1070
   177
1070
   256
1070
   178
1070
   256
1070
   279
1070
     1
1002
}
  0
DIMENSION
  5
B083
330
747D
100
AcDbEntity
  8
寸法引出
 48
15.0
100
AcDbDimension
  2
*D7
 10
697.1691270493356
 20
922.8886189963342
 30
0.0
 11
667.1691270493354
 21
919.8886189963342
 31
0.0
 70
    32
  1
2
 71
     5
 42
6.0
  3
SANWA
100
AcDbAlignedDimension
 13
744.2814753471648
 23
916.8886189963341
 33
0.0
 14
744.2814753471648
 24
922.8886189963342
 34
0.0
 50
90.0
100
AcDbRotatedDimension
1001
ACAD
1000
DSTYLE
1002
{
1070
    40
1040
15.0
1070
    41
1040
1.5
1070
    43
1040
5.0
1070
    44
1040
0.5
1070
   140
1040
2.0
1070
   147
1040
1.0
1070
   176
1070
   256
1070
   177
1070
   256
1070
   178
1070
   256
1070
   279
1070
     1
1002
}
  0
DIMENSION
  5
B084
330
747D
100
AcDbEntity
  8
寸法引出
 48
15.0
100
AcDbDimension
  2
*D8
 10
957.2814753471648
 20
859.8189849473529
 30
0.0
 11
942.2814753471648
 21
889.8189849473528
 31
0.0
 70
    32
  1
10
 71
     5
 42
30.0
  3
SANWA
100
AcDbAlignedDimension
 13
927.2814753471648
 23
916.8886189963341
 33
0.0
 14
957.2814753471648
 24
916.8886189963341
 34
0.0
100
AcDbRotatedDimension
1001
ACAD
1000
DSTYLE
1002
{
1070
    40
1040
15.0
1070
    41
1040
1.5
1070
    43
1040
5.0
1070
    44
1040
0.5
1070
    75
1070
     1
1070
   140
1040
2.0
1070
   147
1040
1.0
1070
   176
1070
   256
1070
   177
1070
   256
1070
   178
1070
   256
1070
   279
1070
     1
1002
}
  0
DIMENSION
  5
B085
330
747D
100
AcDbEntity
  8
寸法引出
 48
15.0
100
AcDbDimension
  2
*D9
 10
927.2814753471648
 20
859.8189849473529
 30
0.0
 11
835.7814753471648
 21
889.8189849473528
 31
0.0
 70
    32
  1
61
 71
     5
 42
183.0
  3
SANWA
100
AcDbAlignedDimension
 13
744.2814753471648
 23
916.8886189963341
 33
0.0
 14
927.2814753471648
 24
916.8886189963341
 34
0.0
100
AcDbRotatedDimension
1001
ACAD
1000
DSTYLE
1002
{
1070
    40
1040
15.0
1070
    41
1040
1.5
1070
    43
1040
5.0
1070
    44
1040
0.5
1070
   140
1040
2.0
1070
   147
1040
1.0
1070
   176
1070
   256
1070
   177
1070
   256
1070
   178
1070
   256
1070
   279
1070
     1
1002
}
  0
DIMENSION
  5
B086
330
747D
100
AcDbEntity
  8
寸法引出
 48
15.0
100
AcDbDimension
  2
*D10
 10
1015.888318363864
 20
916.8886189963341
 30
0.0
 11
985.8883183638642
 21
919.8886189963342
 31
0.0
 70
    32
  1
2
 71
     5
 42
6.0
  3
SANWA
100
AcDbAlignedDimension
 13
955.5167694648117
 23
922.8886189963342
 33
0.0
 14
957.2814753471648
 24
916.8886189963341
 34
0.0
 50
90.0
100
AcDbRotatedDimension
1001
ACAD
1000
DSTYLE
1002
{
1070
    40
1040
15.0
1070
    41
1040
1.5
1070
    43
1040
5.0
1070
    44
1040
0.5
1070
    75
1070
     1
1070
   140
1040
2.0
1070
   147
1040
1.0
1070
   176
1070
   256
1070
   177
1070
   256
1070
   178
1070
   256
1070
   279
1070
     1
1002
}
  0
LINE
  5
B087
330
747D
100
AcDbEntity
  8
0
100
AcDbLine
 10
771.2814753471648
 20
922.8886189963342
 30
0.0
 11
744.2814753471648
 21
922.8886189963342
 31
0.0
  0
LINE
  5
B088
330
747D
100
AcDbEntity
  8
0
100
AcDbLine
 10
771.2814753471648
 20
916.8886189963341
 30
0.0
 11
744.2814753471648
 21
916.8886189963341
 31
0.0
  0
LINE
  5
B089
330
747D
100
AcDbEntity
  8
0
 48
15.0
100
AcDbLine
 10
773.4080919432435
 20
997.3008007061372
 30
0.0
 11
771.2814753471648
 21
916.8886189963341
 31
0.0
  0
LINE
  5
B08A
330
747D
100
AcDbEntity
  8
0
 48
15.0
100
AcDbLine
 10
771.2814753471648
 20
991.8886189963341
 30
0.0
 11
744.2814753471648
 21
991.8886189963341
 31
0.0
  0
MTEXT
  5
B08B
330
747D
100
AcDbEntity
  8
寸法引出
 48
15.0
100
AcDbMText
 10
661.2743842660384
 20
1085.056835513122
 30
0.0
 40
30.0
 41
0.0
 71
     6
 72
     1
  1
接続面
  7
SANWA
 73
     1
 44
1.0
1001
ACAD
1000
MTEXTBEGIN
1070
    73
1070
     1
1070
    44
1040
1.0
1070
    74
1070
     0
1000
MTEXTEND
  0
DIMENSION
  5
B08C
330
747D
100
AcDbEntity
  8
寸法引出
 48
15.0
100
AcDbDimension
  2
*D11
 10
984.2814753471648
 20
1144.689743662504
 30
0.0
 11
970.7814753471648
 21
1174.689743662504
 31
0.0
 70
    32
  1
9
 71
     5
 42
27.0
  3
SANWA
100
AcDbAlignedDimension
 13
957.2814753471648
 23
1108.888618996334
 33
0.0
 14
984.2814753471648
 24
1108.888618996334
 34
0.0
100
AcDbRotatedDimension
1001
ACAD
1000
DSTYLE
1002
{
1070
    40
1040
15.0
1070
    41
1040
1.5
1070
    43
1040
5.0
1070
    44
1040
0.5
1070
    75
1070
     1
1070
   140
1040
2.0
1070
   147
1040
1.0
1070
   176
1070
   256
1070
   177
1070
   256
1070
   178
1070
   256
1070
   279
1070
     1
1002
}
  0
DIMENSION
  5
B08D
330
747D
100
AcDbEntity
  8
寸法引出
 48
15.0
100
AcDbDimension
  2
*D12
 10
957.2814753471648
 20
1144.689743662504
 30
0.0
 11
864.2814753471649
 21
1174.689743662504
 31
0.0
 70
    32
  1
62
 71
     5
 42
186.0
  3
SANWA
100
AcDbAlignedDimension
 13
771.2814753471648
 23
1045.888618996334
 33
0.0
 14
957.2814753471648
 24
1108.888618996334
 34
0.0
100
AcDbRotatedDimension
1001
ACAD
1000
DSTYLE
1002
{
1070
    40
1040
15.0
1070
    41
1040
1.5
1070
    43
1040
5.0
1070
    44
1040
0.5
1070
    75
1070
     1
1070
   140
1040
2.0
1070
   147
1040
1.0
1070
   176
1070
   256
1070
   177
1070
   256
1070
   178
1070
   256
1070
   279
1070
     1
1002
}
  0
DIMENSION
  5
B08E
330
747D
100
AcDbEntity
  8
寸法引出
 48
15.0
100
AcDbDimension
  2
*D13
 10
771.2814753471648
 20
1144.689743662504
 30
0.0
 11
757.7814753471648
 21
1174.689743662504
 31
0.0
 70
    32
  1
9
 71
     5
 42
27.0
  3
SANWA
100
AcDbAlignedDimension
 13
744.2814753471648
 23
1018.888618996334
 33
0.0
 14
771.2814753471648
 24
1045.888618996334
 34
0.0
100
AcDbRotatedDimension
1001
ACAD
1000
DSTYLE
1002
{
1070
    40
1040
15.0
1070
    41
1040
1.5
1070
    43
1040
5.0
1070
    44
1040
0.5
1070
   140
1040
2.0
1070
   147
1040
1.0
1070
   176
1070
   256
1070
   177
1070
   256
1070
   178
1070
   256
1070
   279
1070
     1
1002
}
  0
LINE
  5
B08F
330
747D
100
AcDbEntity
  8
0
100
AcDbLine
 10
771.2814753471648
 20
1045.888618996334
 30
0.0
 11
957.2814753471648
 21
1045.888618996334
 31
0.0
  0
LINE
  5
B090
330
747D
100
AcDbEntity
  8
0
100
AcDbLine
 10
771.2814753471648
 20
1018.888618996334
 30
0.0
 11
957.2814753471648
 21
1018.888618996334
 31
0.0
  0
ARC
  5
B091
330
747D
100
AcDbEntity
  8
0
100
AcDbCircle
 10
771.2814753471648
 20
1018.888618996334
 30
0.0
 40
27.0
100
AcDbArc
 50
90.0
 51
180.0
  0
LINE
  5
B092
330
747D
100
AcDbEntity
  8
0
100
AcDbLine
 10
957.2814753471648
 20
1108.888618996334
 30
0.0
 11
984.2814753471648
 21
1108.888618996334
 31
0.0
  0
ARC
  5
B093
330
747D
100
AcDbEntity
  8
0
100
AcDbCircle
 10
957.2814753471648
 20
1045.888618996334
 30
0.0
 40
27.0
100
AcDbArc
 50
270.0
 51
0.0
  0
LINE
  5
B094
330
747D
100
AcDbEntity
  8
0
100
AcDbLine
 10
984.2814753471648
 20
1108.888618996334
 30
0.0
 11
984.2814753471648
 21
1045.888618996334
 31
0.0
  0
LINE
  5
B095
330
747D
100
AcDbEntity
  8
0
100
AcDbLine
 10
957.2814753471648
 20
1108.888618996334
 30
0.0
 11
957.2814753471648
 21
1045.888618996334
 31
0.0
  0
DIMENSION
  5
B096
330
747D
100
AcDbEntity
  8
寸法引出
 48
15.0
100
AcDbDimension
  2
*D14
 10
1468.720896202205
 20
1018.888618996334
 30
0.0
 11
1438.720896202205
 21
970.8886189963344
 31
0.0
 70
    32
  1
32
 71
     5
 42
96.0
  3
SANWA
100
AcDbAlignedDimension
 13
1395.083522135108
 23
922.8886189963342
 33
0.0
 14
1395.083522135108
 24
1018.888618996334
 34
0.0
 50
90.0
100
AcDbRotatedDimension
1001
ACAD
1000
DSTYLE
1002
{
1070
    40
1040
15.0
1070
    41
1040
1.5
1070
    43
1040
5.0
1070
    44
1040
0.5
1070
   140
1040
2.0
1070
   147
1040
1.0
1070
   176
1070
   256
1070
   177
1070
   256
1070
   178
1070
   256
1070
   279
1070
     1
1002
}
  0
DIMENSION
  5
B097
330
747D
100
AcDbEntity
  8
寸法引出
 48
15.0
100
AcDbDimension
  2
*D15
 10
1550.388433725085
 20
1108.888618996334
 30
0.0
 11
1520.388433725085
 21
1015.888618996334
 31
0.0
 70
    32
  1
62
 71
     5
 42
185.9999999999999
  3
SANWA
100
AcDbAlignedDimension
 13
1395.083522135108
 23
922.8886189963342
 33
0.0
 14
1395.083522135108
 24
1108.888618996334
 34
0.0
 50
90.0
100
AcDbRotatedDimension
1001
ACAD
1000
DSTYLE
1002
{
1070
    40
1040
15.0
1070
    41
1040
1.5
1070
    43
1040
5.0
1070
    44
1040
0.5
1070
   140
1040
2.0
1070
   147
1040
1.0
1070
   176
1070
   256
1070
   177
1070
   256
1070
   178
1070
   256
1070
   279
1070
     1
1002
}
  0
DIMENSION
  5
B098
330
747D
100
AcDbEntity
  8
寸法引出
 48
15.0
100
AcDbDimension
  2
*D16
 10
1468.720896202205
 20
1045.888618996334
 30
0.0
 11
1438.720896202205
 21
1032.388618996334
 31
0.0
 70
    32
  1
9
 71
     5
 42
26.99999999999989
  3
SANWA
100
AcDbAlignedDimension
 13
1395.083522135108
 23
1018.888618996334
 33
0.0
 14
1395.083522135108
 24
1045.888618996334
 34
0.0
 50
90.0
100
AcDbRotatedDimension
1001
ACAD
1000
DSTYLE
1002
{
1070
    40
1040
15.0
1070
    41
1040
1.5
1070
    43
1040
5.0
1070
    44
1040
0.5
1070
    75
1070
     1
1070
   140
1040
2.0
1070
   147
1040
1.0
1070
   176
1070
   256
1070
   177
1070
   256
1070
   178
1070
   256
1070
   279
1070
     1
1002
}
  0
LINE
  5
B099
330
747D
100
AcDbEntity
  8
0
100
AcDbLine
 10
1395.083522135108
 20
922.8886189963342
 30
0.0
 11
1395.083522135108
 21
1108.888618996334
 31
0.0
  0
DIMENSION
  5
B09A
330
747D
100
AcDbEntity
  8
寸法引出
 48
15.0
100
AcDbDimension
  2
*D17
 10
1219.734362921197
 20
991.8886189963343
 30
0.0
 11
1219.734362921197
 21
1012.888618996334
 31
0.0
 70
   160
  1
8
 71
     5
 42
24.0
  3
SANWA
100
AcDbAlignedDimension
 13
1281.083522135108
 23
967.8886189963341
 33
0.0
 14
1281.083522135108
 24
991.8886189963341
 34
0.0
 50
90.0
100
AcDbRotatedDimension
1001
ACAD
1000
DSTYLE
1002
{
1070
    40
1040
15.0
1070
    41
1040
1.5
1070
    43
1040
5.0
1070
    44
1040
0.5
1070
    75
1070
     1
1070
   140
1040
2.0
1070
   147
1040
1.0
1070
   176
1070
   256
1070
   177
1070
   256
1070
   178
1070
   256
1070
   279
1070
     1
1002
}
  0
LINE
  5
B09B
330
747D
100
AcDbEntity
  8
0
100
AcDbLine
 10
1281.083522135108
 20
1108.888618996334
 30
0.0
 11
1281.083522135108
 21
922.8886189963342
 31
0.0
  0
DIMENSION
  5
B09C
330
747D
100
AcDbEntity
  8
寸法引出
 48
15.0
100
AcDbDimension
  2
*D18
 10
1219.734362921197
 20
967.8886189963343
 30
0.0
 11
1189.734362921197
 21
945.3886189963343
 31
0.0
 70
    32
  1
15
 71
     5
 42
45.0
  3
SANWA
100
AcDbAlignedDimension
 13
1281.083522135108
 23
922.8886189963342
 33
0.0
 14
1281.083522135108
 24
967.8886189963341
 34
0.0
 50
90.0
100
AcDbRotatedDimension
1001
ACAD
1000
DSTYLE
1002
{
1070
    40
1040
15.0
1070
    41
1040
1.5
1070
    43
1040
5.0
1070
    44
1040
0.5
1070
   140
1040
2.0
1070
   147
1040
1.0
1070
   176
1070
   256
1070
   177
1070
   256
1070
   178
1070
   256
1070
   279
1070
     1
1002
}
  0
LINE
  5
B09D
330
747D
100
AcDbEntity
  8
0
100
AcDbLine
 10
1362.083522135108
 20
922.8886189963342
 30
0.0
 11
1395.083522135108
 21
922.8886189963342
 31
0.0
  0
DIMENSION
  5
B09E
330
747D
100
AcDbEntity
  8
寸法引出
 48
15.0
100
AcDbDimension
  2
*D19
 10
1395.083522135108
 20
859.8189849473529
 30
0.0
 11
1425.267512523016
 21
859.8189849473529
 31
0.0
 70
   160
  1
11
 71
     5
 42
33.0
  3
SANWA
100
AcDbAlignedDimension
 13
1362.083522135108
 23
922.8886189963342
 33
0.0
 14
1395.083522135108
 24
922.8886189963342
 34
0.0
100
AcDbRotatedDimension
1001
ACAD
1000
DSTYLE
1002
{
1070
    40
1040
15.0
1070
    41
1040
1.5
1070
    43
1040
5.0
1070
    44
1040
0.5
1070
    75
1070
     1
1070
   140
1040
2.0
1070
   147
1040
1.0
1070
   176
1070
   256
1070
   177
1070
   256
1070
   178
1070
   256
1070
   279
1070
     1
1002
}
  0
DIMENSION
  5
B09F
330
747D
100
AcDbEntity
  8
寸法引出
 48
15.0
100
AcDbDimension
  2
*D20
 10
1362.083522135108
 20
859.8189849473529
 30
0.0
 11
1338.083522135108
 21
889.8189849473528
 31
0.0
 70
    32
  1
16
 71
     5
 42
48.0
  3
SANWA
100
AcDbAlignedDimension
 13
1314.083522135108
 23
922.8886189963342
 33
0.0
 14
1362.083522135108
 24
922.8886189963342
 34
0.0
100
AcDbRotatedDimension
1001
ACAD
1000
DSTYLE
1002
{
1070
    40
1040
15.0
1070
    41
1040
1.5
1070
    43
1040
5.0
1070
    44
1040
0.5
1070
   140
1040
2.0
1070
   147
1040
1.0
1070
   176
1070
   256
1070
   177
1070
   256
1070
   178
1070
   256
1070
   279
1070
     1
1002
}
  0
DIMENSION
  5
B0A0
330
747D
100
AcDbEntity
  8
寸法引出
 48
15.0
100
AcDbDimension
  2
*D21
 10
1281.083522135108
 20
859.8189849473529
 30
0.0
 11
1254.697750419
 21
859.8189849473529
 31
0.0
 70
   160
  1
11
 71
     5
 42
33.0
  3
SANWA
100
AcDbAlignedDimension
 13
1314.083522135108
 23
922.8886189963342
 33
0.0
 14
1281.083522135108
 24
922.8886189963342
 34
0.0
100
AcDbRotatedDimension
1001
ACAD
1000
DSTYLE
1002
{
1070
    40
1040
15.0
1070
    41
1040
1.5
1070
    43
1040
5.0
1070
    44
1040
0.5
1070
    75
1070
     1
1070
   140
1040
2.0
1070
   147
1040
1.0
1070
   176
1070
   256
1070
   177
1070
   256
1070
   178
1070
   256
1070
   279
1070
     1
1002
}
  0
LINE
  5
B0A1
330
747D
100
AcDbEntity
  8
0
100
AcDbLine
 10
1362.083522135108
 20
922.8886189963342
 30
0.0
 11
1362.083522135108
 21
967.8886189963368
 31
0.0
  0
LINE
  5
B0A2
330
747D
100
AcDbEntity
  8
0
100
AcDbLine
 10
1314.083522135108
 20
967.8886189963368
 30
0.0
 11
1314.083522135108
 21
922.8886189963342
 31
0.0
  0
ARC
  5
B0A3
330
747D
100
AcDbEntity
  8
0
 48
15.0
100
AcDbCircle
 10
1338.083522135108
 20
967.8886189963341
 30
0.0
 40
24.0
100
AcDbArc
 50
0.0
 51
180.0
  0
LINE
  5
B0A4
330
747D
100
AcDbEntity
  8
0
100
AcDbLine
 10
1281.083522135108
 20
922.8886189963342
 30
0.0
 11
1314.083522135108
 21
922.8886189963342
 31
0.0
  0
DIMENSION
  5
B0A5
330
747D
100
AcDbEntity
  8
寸法引出
 48
15.0
100
AcDbDimension
  2
*D22
 10
1395.083522135108
 20
1144.689743662504
 30
0.0
 11
1338.083522135108
 21
1174.689743662504
 31
0.0
 70
    32
  1
38
 71
     5
 42
114.0
  3
SANWA
100
AcDbAlignedDimension
 13
1281.083522135108
 23
1108.888618996334
 33
0.0
 14
1395.083522135108
 24
1108.888618996334
 34
0.0
100
AcDbRotatedDimension
1001
ACAD
1000
DSTYLE
1002
{
1070
    40
1040
15.0
1070
    41
1040
1.5
1070
    43
1040
5.0
1070
    44
1040
0.5
1070
   140
1040
2.0
1070
   147
1040
1.0
1070
   176
1070
   256
1070
   177
1070
   256
1070
   178
1070
   256
1070
   279
1070
     1
1002
}
  0
LINE
  5
B0A6
330
747D
100
AcDbEntity
  8
0
 48
15.0
100
AcDbLine
 10
1281.083522135108
 20
1045.888618996337
 30
0.0
 11
1395.083522135108
 21
1045.888618996334
 31
0.0
  0
LINE
  5
B0A7
330
747D
100
AcDbEntity
  8
0
 48
15.0
100
AcDbLine
 10
1281.083522135108
 20
1018.888618996334
 30
0.0
 11
1395.083522135108
 21
1018.888618996334
 31
0.0
  0
LINE
  5
B0A8
330
747D
100
AcDbEntity
  8
0
100
AcDbLine
 10
1395.083522135108
 20
1108.888618996334
 30
0.0
 11
1281.083522135108
 21
1108.888618996334
 31
0.0
  0
DIMENSION
  5
B0A9
330
747D
100
AcDbEntity
  8
寸法引出
 48
15.0
100
AcDbDimension
  2
*D23
 10
1468.720896202205
 20
1108.888618996334
 30
0.0
 11
1438.720896202205
 21
1077.388618996334
 31
0.0
 70
    32
  1
21
 71
     5
 42
63.0
  3
SANWA
100
AcDbAlignedDimension
 13
1395.083522135108
 23
1045.888618996334
 33
0.0
 14
1395.083522135108
 24
1108.888618996334
 34
0.0
 50
90.0
100
AcDbRotatedDimension
1001
ACAD
1000
DSTYLE
1002
{
1070
    40
1040
15.0
1070
    41
1040
1.5
1070
    43
1040
5.0
1070
    44
1040
0.5
1070
    75
1070
     1
1070
   140
1040
2.0
1070
   147
1040
1.0
1070
   176
1070
   256
1070
   177
1070
   256
1070
   178
1070
   256
1070
   279
1070
     1
1002
}
  0
TEXT
  5
B0B2
330
747D
100
AcDbEntity
  8
0
100
AcDbText
 10
948.9647091590214
 20
1366.457801570013
 30
0.0
 40
32.0
  1
フランジ詳細図
  7
SANWA
 72
     4
 11
1112.804709159021
 21
1383.097801570013
 31
0.0
100
AcDbText
  0
LINE
  5
B0B3
330
747D
100
AcDbEntity
  8
0
100
AcDbLine
 10
912.6740610152118
 20
1352.639408228317
 30
0.0
 11
1309.913752768898
 21
1352.639408228317
 31
0.0
  0
MTEXT
  5
B0B4
330
747D
100
AcDbEntity
  8
寸法引出
 48
15.0
100
AcDbMText
 10
983.9486055373381
 20
1278.896965581556
 30
0.0
 40
30.0
 41
0.0
 71
     6
 72
     1
  1
流水面
  7
SANWA
 73
     1
 44
1.0
1001
ACAD
1000
MTEXTBEGIN
1070
    73
1070
     1
1070
    44
1040
1.0
1070
    74
1070
     0
1000
MTEXTEND
  0
DIMENSION
  5
B0E7
330
747D
100
AcDbEntity
  8
寸法引出
 48
15.0
100
AcDbDimension
  2
*D24
 10
2155.20332709892
 20
524.3483803067119
 30
0.0
 11
2138.203327098923
 21
554.3483803067119
 31
0.0
 70
    32
  1
15
 71
     5
 42
33.99999999999272
  3
SANWA
100
AcDbAlignedDimension
 13
2121.203327098927
 23
426.5699268843336
 33
0.0
 14
2155.20332709892
 24
426.5699268842817
 34
0.0
100
AcDbRotatedDimension
1001
ACAD
1000
DSTYLE
1002
{
1070
   140
1040
2.0
1070
    40
1040
15.0
1070
   147
1040
1.0
1070
    44
1040
0.5
1070
    43
1040
5.0
1070
   178
1070
   256
1070
   177
1070
   256
1070
   176
1070
   256
1070
    41
1040
1.5
1002
}
  0
LINE
  5
B0E8
330
747D
100
AcDbEntity
  8
0
100
AcDbLine
 10
3646.531907869584
 20
306.0000002721404
 30
0.0
 11
3646.531907869584
 21
594.0000002721444
 31
0.0
  0
LINE
  5
B0E9
330
747D
100
AcDbEntity
  8
0
100
AcDbLine
 10
3598.531907869587
 20
150.000000272139
 30
0.0
 11
3598.531907869587
 21
594.0000002721444
 31
0.0
  0
LINE
  5
B0EA
330
747D
100
AcDbEntity
  8
0
100
AcDbLine
 10
3202.531907869579
 20
594.0000002721444
 30
0.0
 11
3202.531907869579
 21
522.0000002721417
 31
0.0
  0
DIMENSION
  5
B0EB
330
747D
100
AcDbEntity
  8
寸法引出
 48
15.0
100
AcDbDimension
  2
*D25
 10
1970.285270824341
 20
266.56992688428
 30
0.0
 11
1940.285270824341
 21
346.5699268842812
 31
0.0
 70
    32
  1
80
 71
     5
 42
160.0000000000018
  3
SANWA
100
AcDbAlignedDimension
 13
2121.203327098927
 23
426.5699268842817
 33
0.0
 14
2108.203327098927
 24
266.56992688428
 34
0.0
 50
90.0
100
AcDbRotatedDimension
1001
ACAD
1000
DSTYLE
1002
{
1070
   140
1040
2.0
1070
    40
1040
15.0
1070
   147
1040
1.0
1070
    44
1040
0.5
1070
    43
1040
5.0
1070
   178
1070
   256
1070
   177
1070
   256
1070
   176
1070
   256
1070
    41
1040
1.5
1002
}
  0
LINE
  5
B0EC
330
747D
100
AcDbEntity
  8
0
 48
15.0
100
AcDbLine
 10
1923.203327098927
 20
266.56992688428
 30
0.0
 11
2108.203327098927
 21
266.56992688428
 31
0.0
  0
LINE
  5
B0ED
330
747D
100
AcDbEntity
  8
0
 48
15.0
100
AcDbLine
 10
1923.203327098927
 20
426.5699268842809
 30
0.0
 11
2121.203327098927
 21
426.5699268842817
 31
0.0
  0
DIMENSION
  5
B0EE
330
747D
100
AcDbEntity
  8
寸法引出
 48
15.0
100
AcDbDimension
  2
*D26
 10
1305.87730032191
 20
363.4104707085171
 30
0.0
 11
1275.87730032191
 21
385.9104707085173
 31
0.0
 70
    32
  1
4.5
 71
     5
 42
45.0
  3
SANWA
100
AcDbAlignedDimension
 13
1208.392084909995
 23
408.410470708517
 33
0.0
 14
1188.392084909995
 24
363.4104707085171
 34
0.0
 50
90.0
100
AcDbRotatedDimension
1001
ACAD
1000
DSTYLE
1002
{
1070
    40
1040
15.0
1070
    41
1040
1.5
1070
    43
1040
5.0
1070
    44
1040
0.5
1070
   140
1040
2.0
1070
   147
1040
1.0
1070
   176
1070
   256
1070
   177
1070
   256
1070
   178
1070
   256
1070
   279
1070
     1
1002
}
  0
LINE
  5
B0EF
330
747D
100
AcDbEntity
  8
0
 48
15.0
100
AcDbLine
 10
958.392084909995
 20
408.410470708517
 30
0.0
 11
958.3920849099959
 21
251.1980590199055
 31
0.0
  0
LINE
  5
B0F0
330
747D
100
AcDbEntity
  8
0
 48
15.0
100
AcDbLine
 10
1188.392084909995
 20
363.4104707085171
 30
0.0
 11
1208.392084909995
 21
408.4104707085179
 31
0.0
  0
DIMENSION
  5
B0F1
330
747D
100
AcDbEntity
  8
寸法引出
 48
15.0
100
AcDbDimension
  2
*D27
 10
1208.392084909995
 20
450.3896070394512
 30
0.0
 11
1233.392084909995
 21
450.3896070394512
 31
0.0
 70
   160
  1
2
 71
     5
 42
20.0
  3
SANWA
100
AcDbAlignedDimension
 13
1188.392084909995
 23
363.4104707085171
 33
0.0
 14
1208.392084909995
 24
408.4104707085179
 34
0.0
100
AcDbRotatedDimension
1001
ACAD
1000
DSTYLE
1002
{
1070
    40
1040
15.0
1070
    41
1040
1.5
1070
    43
1040
5.0
1070
    44
1040
0.5
1070
    75
1070
     1
1070
   140
1040
2.0
1070
   147
1040
1.0
1070
   176
1070
   256
1070
   177
1070
   256
1070
   178
1070
   256
1070
   279
1070
     1
1002
}
  0
DIMENSION
  5
B0F2
330
747D
100
AcDbEntity
  8
寸法引出
 48
15.0
100
AcDbDimension
  2
*D28
 10
1188.392084909995
 20
450.3896070394512
 30
0.0
 11
1158.392084909995
 21
480.3896070394512
 31
0.0
 70
    32
  1
6
 71
     5
 42
60.0
  3
SANWA
100
AcDbAlignedDimension
 13
1128.392084909995
 23
363.4104707085171
 33
0.0
 14
1188.392084909995
 24
363.4104707085171
 34
0.0
100
AcDbRotatedDimension
1001
ACAD
1000
DSTYLE
1002
{
1070
    40
1040
15.0
1070
    41
1040
1.5
1070
    43
1040
5.0
1070
    44
1040
0.5
1070
   140
1040
2.0
1070
   147
1040
1.0
1070
   176
1070
   256
1070
   177
1070
   256
1070
   178
1070
   256
1070
   279
1070
     1
1002
}
  0
DIMENSION
  5
B0F3
330
747D
100
AcDbEntity
  8
寸法引出
 48
15.0
100
AcDbDimension
  2
*D29
 10
1208.392084909995
 20
511.6752961416387
 30
0.0
 11
1158.392084909995
 21
541.6752961416387
 31
0.0
 70
    32
  1
10
 71
     5
 42
100.0
  3
SANWA
100
AcDbAlignedDimension
 13
1108.392084909995
 23
408.410470708517
 33
0.0
 14
1208.392084909995
 24
408.410470708517
 34
0.0
100
AcDbRotatedDimension
1001
ACAD
1000
DSTYLE
1002
{
1070
    40
1040
15.0
1070
    41
1040
1.5
1070
    43
1040
5.0
1070
    44
1040
0.5
1070
    75
1070
     1
1070
   140
1040
2.0
1070
   147
1040
1.0
1070
   176
1070
   256
1070
   177
1070
   256
1070
   178
1070
   256
1070
   279
1070
     1
1002
}
  0
DIMENSION
  5
B0F4
330
747D
100
AcDbEntity
  8
寸法引出
 48
15.0
100
AcDbDimension
  2
*D30
 10
1108.392084909995
 20
450.3896070394512
 30
0.0
 11
1083.392084909995
 21
450.3896070394512
 31
0.0
 70
   160
  1
2
 71
     5
 42
20.0
  3
SANWA
100
AcDbAlignedDimension
 13
1128.392084909995
 23
363.4104707085171
 33
0.0
 14
1108.392084909995
 24
408.410470708517
 34
0.0
100
AcDbRotatedDimension
1001
ACAD
1000
DSTYLE
1002
{
1070
    40
1040
15.0
1070
    41
1040
1.5
1070
    43
1040
5.0
1070
    44
1040
0.5
1070
    75
1070
     1
1070
   140
1040
2.0
1070
   147
1040
1.0
1070
   176
1070
   256
1070
   177
1070
   256
1070
   178
1070
   256
1070
   279
1070
     1
1002
}
  0
DIMENSION
  5
B0F5
330
747D
100
AcDbEntity
  8
寸法引出
 48
15.0
100
AcDbDimension
  2
*D31
 10
1108.392084909995
 20
511.6752961416387
 30
0.0
 11
1033.392084909995
 21
541.6752961416387
 31
0.0
 70
    32
  1
15
 71
     5
 42
150.0
  3
SANWA
100
AcDbAlignedDimension
 13
958.392084909995
 23
408.410470708517
 33
0.0
 14
1108.392084909995
 24
408.410470708517
 34
0.0
100
AcDbRotatedDimension
1001
ACAD
1000
DSTYLE
1002
{
1070
    40
1040
15.0
1070
    41
1040
1.5
1070
    43
1040
5.0
1070
    44
1040
0.5
1070
   140
1040
2.0
1070
   147
1040
1.0
1070
   176
1070
   256
1070
   177
1070
   256
1070
   178
1070
   256
1070
   279
1070
     1
1002
}
  0
LINE
  5
B0F6
330
747D
100
AcDbEntity
  8
0
 48
15.0
100
AcDbLine
 10
958.392084909995
 20
408.410470708517
 30
0.0
 11
1108.392084909995
 21
408.410470708517
 31
0.0
  0
LINE
  5
B0F7
330
747D
100
AcDbEntity
  8
0
 48
15.0
100
AcDbLine
 10
1108.392084909995
 20
408.410470708517
 30
0.0
 11
1128.392084909995
 21
363.4104707085171
 31
0.0
  0
LINE
  5
B0F8
330
747D
100
AcDbEntity
  8
0
 48
15.0
100
AcDbLine
 10
1128.392084909995
 20
363.4104707085171
 30
0.0
 11
1188.392084909996
 21
363.4104707085171
 31
0.0
  0
LINE
  5
B0F9
330
747D
100
AcDbEntity
  8
0
 48
15.0
100
AcDbLine
 10
1208.392084909996
 20
408.410470708517
 30
0.0
 11
1338.074212647476
 21
408.410470708517
 31
0.0
  0
DIMENSION
  5
B0FC
330
747D
100
AcDbEntity
  8
寸法引出
 48
15.0
100
AcDbDimension
  2
*D32
 10
2041.208717814759
 20
266.56992688428
 30
0.0
 11
2011.208717814759
 21
340.5699268842808
 31
0.0
 70
    32
  1
74
 71
     5
 42
148.0000000000009
  3
SANWA
100
AcDbAlignedDimension
 13
2125.203327098927
 23
414.5699268842808
 33
0.0
 14
2108.203327098927
 24
266.56992688428
 34
0.0
 50
90.0
100
AcDbRotatedDimension
1001
ACAD
1000
DSTYLE
1002
{
1070
   140
1040
2.0
1070
    40
1040
15.0
1070
   147
1040
1.0
1070
    44
1040
0.5
1070
    43
1040
5.0
1070
   178
1070
   256
1070
   177
1070
   256
1070
   176
1070
   256
1070
    41
1040
1.5
1002
}
  0
LINE
  5
B0FD
330
747D
100
AcDbEntity
  8
0
 48
15.0
100
AcDbLine
 10
2168.203327098924
 20
266.56992688428
 30
0.0
 11
2353.203327098923
 21
266.56992688428
 31
0.0
  0
LINE
  5
B0FF
330
747D
100
AcDbEntity
  8
0
 48
15.0
100
AcDbLine
 10
2155.20332709892
 20
426.5699268842817
 30
0.0
 11
2353.203327098923
 21
426.5699268842809
 31
0.0
  0
DIMENSION
  5
B100
330
747D
100
AcDbEntity
  8
寸法引出
 48
15.0
100
AcDbDimension
  2
*D33
 10
2041.208717814759
 20
426.5699268842817
 30
0.0
 11
2041.131219827079
 21
459.0726576377765
 31
0.0
 70
   160
  1
6
 71
     5
 42
12.00000000000091
  3
SANWA
100
AcDbAlignedDimension
 13
2125.203327098927
 23
414.5699268842808
 33
0.0
 14
2121.203327098952
 24
426.5699268842817
 34
0.0
 50
90.0
100
AcDbRotatedDimension
1001
ACAD
1000
DSTYLE
1002
{
1070
    40
1040
15.0
1070
    41
1040
1.5
1070
    43
1040
5.0
1070
    44
1040
0.5
1070
    75
1070
     1
1070
   140
1040
2.0
1070
   147
1040
1.0
1070
   176
1070
   256
1070
   177
1070
   256
1070
   178
1070
   256
1070
   279
1070
     1
1002
}
  0
DIMENSION
  5
B101
330
747D
100
AcDbEntity
  8
寸法引出
 48
15.0
100
AcDbDimension
  2
*D34
 10
2155.20332709892
 20
462.1648437405365
 30
0.0
 11
2185.580608200053
 21
462.1648437405365
 31
0.0
 70
   160
  1
1
 71
     5
 42
4.0
  3
SANWA
100
AcDbAlignedDimension
 13
2151.20332709892
 23
414.5699268842808
 33
0.0
 14
2155.20332709892
 24
426.5699268842817
 34
0.0
100
AcDbRotatedDimension
1001
ACAD
1000
DSTYLE
1002
{
1070
    40
1040
15.0
1070
    41
1040
1.5
1070
    43
1040
5.0
1070
    44
1040
0.5
1070
    75
1070
     1
1070
   140
1040
2.0
1070
   147
1040
1.0
1070
   176
1070
   256
1070
   177
1070
   256
1070
   178
1070
   256
1070
   279
1070
     1
1002
}
  0
DIMENSION
  5
B102
330
747D
100
AcDbEntity
  8
寸法引出
 48
15.0
100
AcDbDimension
  2
*D35
 10
2121.203327098927
 20
462.1648437405365
 30
0.0
 11
2091.845584628605
 21
462.1648437405365
 31
0.0
 70
   160
  1
1
 71
     5
 42
4.0
  3
SANWA
100
AcDbAlignedDimension
 13
2125.203327098927
 23
414.5699268842808
 33
0.0
 14
2121.203327098927
 24
426.5699268843336
 34
0.0
100
AcDbRotatedDimension
1001
ACAD
1000
DSTYLE
1002
{
1070
    40
1040
15.0
1070
    41
1040
1.5
1070
    43
1040
5.0
1070
    44
1040
0.5
1070
    75
1070
     1
1070
   140
1040
2.0
1070
   147
1040
1.0
1070
   176
1070
   256
1070
   177
1070
   256
1070
   178
1070
   256
1070
   279
1070
     1
1002
}
  0
DIMENSION
  5
B103
330
747D
100
AcDbEntity
  8
寸法引出
 48
15.0
100
AcDbDimension
  2
*D36
 10
2151.20332709892
 20
462.1648437405365
 30
0.0
 11
2138.203327098923
 21
492.1648437405365
 31
0.0
 70
    32
  1
13
 71
     5
 42
25.99999999999273
  3
SANWA
100
AcDbAlignedDimension
 13
2125.203327098927
 23
414.5699268842808
 33
0.0
 14
2151.20332709892
 24
414.5699268842808
 34
0.0
100
AcDbRotatedDimension
1001
ACAD
1000
DSTYLE
1002
{
1070
   140
1040
2.0
1070
    40
1040
15.0
1070
   147
1040
1.0
1070
    44
1040
0.5
1070
    43
1040
5.0
1070
   178
1070
   256
1070
   177
1070
   256
1070
   176
1070
   256
1070
    41
1040
1.5
1002
}
  0
LINE
  5
B104
330
747D
100
AcDbEntity
  8
0
 48
15.0
100
AcDbLine
 10
2121.203327098927
 20
426.5699268843336
 30
0.0
 11
2125.203327098927
 21
414.5699268842808
 31
0.0
  0
LINE
  5
B105
330
747D
100
AcDbEntity
  8
0
 48
15.0
100
AcDbLine
 10
2151.20332709892
 20
414.5699268842808
 30
0.0
 11
2155.203327098923
 21
426.56992688428
 31
0.0
  0
CIRCLE
  5
B106
102
{ACAD_REACTORS
330
B109
102
}
330
747D
100
AcDbEntity
  8
0
100
AcDbCircle
 10
3560.966510943812
 20
72.91679657013901
 30
0.0
 40
47.98512634354756
  0
CIRCLE
  5
B107
102
{ACAD_REACTORS
330
B109
102
}
330
747D
100
AcDbEntity
  8
0
100
AcDbCircle
 10
3560.966510943812
 20
72.91679657013901
 30
0.0
 40
45.58512634354756
  0
TEXT
  5
B108
102
{ACAD_REACTORS
330
B109
102
}
330
747D
100
AcDbEntity
  8
0
 48
2.0
100
AcDbText
 10
3544.408216771021
 20
80.91869410101253
 30
0.0
 40
24.0
  1
中
  7
SANWA
100
AcDbText
  0
HATCH
  5
B109
330
747D
100
AcDbEntity
  8
0
100
AcDbHatch
 10
0.0
 20
0.0
 30
0.0
210
0.0
220
0.0
230
1.0
  2
SOLID
 70
     1
 71
     1
 91
        4
 92
        7
 72
     1
 73
     1
 93
        2
 10
3608.95163728736
 20
72.91679657013901
 42
1.0
 10
3512.981384600265
 20
72.91679657013901
 42
1.0
 97
        1
330
B106
 92
       22
 72
     1
 73
     1
 93
        2
 10
3606.55163728736
 20
72.91679657013901
 42
1.0
 10
3515.381384600265
 20
72.91679657013901
 42
1.0
 97
        1
330
B107
 92
      136
 93
        4
 72
     1
 10
3536.419645342449
 20
68.95297981529825
 11
3587.505359628163
 21
68.95297981529825
 72
     1
 10
3587.505359628163
 20
68.95297981529825
 11
3587.505359628163
 21
116.8844083867268
 72
     1
 10
3587.505359628163
 20
116.8844083867268
 11
3536.419645342449
 21
116.8844083867268
 72
     1
 10
3536.419645342449
 20
116.8844083867268
 11
3536.419645342449
 21
68.95297981529825
 97
        1
330
B108
 92
      136
 93
        4
 72
     1
 10
3536.335274779675
 20
36.55931158621268
 11
3586.460989065389
 21
36.55931158621268
 72
     1
 10
3586.460989065389
 20
36.55931158621268
 11
3586.460989065389
 21
81.61074015764127
 72
     1
 10
3586.460989065389
 20
81.61074015764127
 11
3536.335274779675
 21
81.61074015764127
 72
     1
 10
3536.335274779675
 20
81.61074015764127
 11
3536.335274779675
 21
36.55931158621268
 97
        1
330
B110
 75
     0
 76
     1
 47
0.0602706122334892
 98
        2
 10
3583.956796810122
 20
114.1660476709153
 10
3583.956796810122
 20
114.1660476709153
  0
CIRCLE
  5
B10A
102
{ACAD_REACTORS
330
B10D
102
}
330
747D
100
AcDbEntity
  8
0
100
AcDbCircle
 10
3319.412311979758
 20
72.91679657013901
 30
0.0
 40
47.98512634354756
  0
CIRCLE
  5
B10B
102
{ACAD_REACTORS
330
B10D
102
}
330
747D
100
AcDbEntity
  8
0
100
AcDbCircle
 10
3319.412311979758
 20
72.91679657013901
 30
0.0
 40
45.58512634354756
  0
TEXT
  5
B10C
102
{ACAD_REACTORS
330
B10D
102
}
330
747D
100
AcDbEntity
  8
0
 48
2.0
100
AcDbText
 10
3302.85401780698
 20
79.62983356992708
 30
0.0
 40
24.0
  1
蒔
  7
SANWA
100
AcDbText
  0
HATCH
  5
B10D
330
747D
100
AcDbEntity
  8
0
100
AcDbHatch
 10
0.0
 20
0.0
 30
0.0
210
0.0
220
0.0
230
1.0
  2
SOLID
 70
     1
 71
     1
 91
        4
 92
        7
 72
     1
 73
     1
 93
        2
 10
3367.397438323305
 20
72.91679657013901
 42
1.0
 10
3271.42718563621
 20
72.91679657013901
 42
1.0
 97
        1
330
B10A
 92
       22
 72
     1
 73
     1
 93
        2
 10
3364.997438323305
 20
72.91679657013901
 42
1.0
 10
3273.827185636211
 20
72.91679657013901
 42
1.0
 97
        1
330
B10B
 92
      136
 93
        4
 72
     1
 10
3294.93401780698
 20
68.28126214135565
 11
3345.882589235551
 21
68.28126214135565
 72
     1
 10
3345.882589235551
 20
68.28126214135565
 11
3345.882589235551
 21
115.8012621413556
 72
     1
 10
3345.882589235551
 20
115.8012621413556
 11
3294.93401780698
 21
115.8012621413556
 72
     1
 10
3294.93401780698
 20
115.8012621413556
 11
3294.93401780698
 21
68.28126214135565
 97
        1
330
B10C
 92
       24
 93
        4
 72
     1
 10
3295.123932958491
 20
32.6241524595518
 11
3344.563932958492
 21
32.6241524595518
 72
     1
 10
3344.563932958492
 20
32.6241524595518
 11
3344.563932958492
 21
75.6184381738375
 72
     1
 10
3344.563932958492
 20
75.6184381738375
 11
3295.123932958491
 21
75.6184381738375
 72
     1
 10
3295.123932958491
 20
75.6184381738375
 11
3295.123932958491
 21
32.6241524595518
 97
        1
330
B10F
 75
     0
 76
     1
 47
0.0602706122334892
 98
        2
 10
3342.402597846074
 20
114.1660476709153
 10
3342.402597846074
 20
114.1660476709153
  0
LINE
  5
B10E
330
747D
100
AcDbEntity
  8
0
100
AcDbLine
 10
4454.999992975976
 20
150.000000272139
 30
0.0
 11
4454.999992975976
 21
0.0000002721390047
 31
0.0
  0
TEXT
  5
B10F
102
{ACAD_REACTORS
330
B10D
102
}
330
747D
100
AcDbEntity
  8
0
 48
2.0
100
AcDbText
 10
3302.289647244206
 20
43.08129531669464
 30
0.0
 40
24.0
  1
田
  7
SANWA
100
AcDbText
  0
TEXT
  5
B110
102
{ACAD_REACTORS
330
B109
102
}
330
747D
100
AcDbEntity
  8
0
 48
2.0
100
AcDbText
 10
3543.843846208246
 20
46.94788301478411
 30
0.0
 40
24.0
  1
川
  7
SANWA
100
AcDbText
  0
LINE
  5
B111
330
747D
100
AcDbEntity
  8
0
100
AcDbLine
 10
4454.999992975976
 20
0.0000002721390047
 30
0.0
 11
4304.999992975976
 21
0.0000002721390047
 31
0.0
  0
LINE
  5
B112
330
747D
100
AcDbEntity
  8
0
 62
     0
100
AcDbLine
 10
3598.531907869587
 20
402.0000002721417
 30
0.0
 11
4304.999992975976
 21
402.0000002721417
 31
0.0
  0
LINE
  5
B113
330
747D
100
AcDbEntity
  8
0
 62
     0
100
AcDbLine
 10
3598.531907869587
 20
498.0000002721431
 30
0.0
 11
4304.999992975976
 21
498.0000002721431
 31
0.0
  0
TEXT
  5
B114
330
747D
100
AcDbEntity
  8
0
100
AcDbText
 10
3766.408306388438
 20
206.7188726828158
 30
0.0
 40
24.0
  1
三和コンクリート工業株式会社
  7
SANWA
100
AcDbText
  0
LINE
  5
B115
330
747D
100
AcDbEntity
  8
0
100
AcDbLine
 10
3202.531907869579
 20
306.0000002721404
 30
0.0
 11
4304.999992975976
 21
306.0000002721404
 31
0.0
  0
TEXT
  5
B116
330
747D
100
AcDbEntity
  8
0
 48
2.0
100
AcDbText
 10
3609.288060905314
 20
324.9410920130754
 30
0.0
 40
16.79999999999999
  1
格
  7
SANWA
100
AcDbText
  0
LINE
  5
B117
330
747D
100
AcDbEntity
  8
0
100
AcDbLine
 10
3202.531907869579
 20
378.0000002721431
 30
0.0
 11
3202.531907869579
 21
299.9351499819068
 31
0.0
  0
LINE
  5
B118
330
747D
100
AcDbEntity
  8
0
100
AcDbLine
 10
3202.531907869579
 20
342.0000002721417
 30
0.0
 11
3202.531907869579
 21
378.0000002721431
 31
0.0
  0
LINE
  5
B119
330
747D
100
AcDbEntity
  8
0
 62
     0
100
AcDbLine
 10
3202.531907869579
 20
378.0000002721431
 30
0.0
 11
3202.531907869579
 21
150.000000272139
 31
0.0
  0
TEXT
  5
B11A
330
747D
100
AcDbEntity
  8
0
 48
2.0
100
AcDbText
 10
3388.972295925368
 20
313.251379280623
 30
0.0
 40
24.0
  1
2003. 8.19
  7
SANWA
100
AcDbText
  0
LINE
  5
B11B
330
747D
100
AcDbEntity
  8
0
 62
     0
100
AcDbLine
 10
3202.531907869579
 20
270.000000272139
 30
0.0
 11
3598.531907869587
 21
270.000000272139
 31
0.0
  0
LINE
  5
B11C
330
747D
100
AcDbEntity
  8
0
 62
     0
100
AcDbLine
 10
3202.531907869579
 20
342.0000002721417
 30
0.0
 11
3598.531907869587
 21
342.0000002721417
 31
0.0
  0
TEXT
  5
B11D
330
747D
100
AcDbEntity
  8
0
 48
2.0
100
AcDbText
 10
3251.965822759876
 20
211.5439497662905
 30
0.0
 40
24.0
  1
河
  7
SANWA
100
AcDbText
  0
CIRCLE
  5
B11E
102
{ACAD_REACTORS
330
B120
102
}
330
747D
100
AcDbEntity
  8
0
100
AcDbCircle
 10
3268.524116932654
 20
208.3729075067831
 30
0.0
 40
47.98512634354756
  0
CIRCLE
  5
B11F
102
{ACAD_REACTORS
330
B120
102
}
330
747D
100
AcDbEntity
  8
0
100
AcDbCircle
 10
3268.524116932654
 20
208.3729075067831
 30
0.0
 40
45.58512634354756
  0
HATCH
  5
B120
330
747D
100
AcDbEntity
  8
0
100
AcDbHatch
 10
0.0
 20
0.0
 30
0.0
210
0.0
220
0.0
230
1.0
  2
SOLID
 70
     1
 71
     1
 91
        2
 92
        7
 72
     1
 73
     1
 93
        2
 10
3316.509243276202
 20
208.3729075067831
 42
1.0
 10
3220.538990589106
 20
208.3729075067831
 42
1.0
 97
        1
330
B11E
 92
       22
 72
     1
 73
     1
 93
        2
 10
3314.109243276202
 20
208.3729075067831
 42
1.0
 10
3222.938990589106
 20
208.3729075067831
 42
1.0
 97
        1
330
B11F
 75
     0
 76
     1
 47
0.0602706122334892
 98
        2
 10
3291.51440279897
 20
249.6221586075594
 10
3291.51440279897
 20
249.6221586075594
  0
LINE
  5
B121
330
747D
100
AcDbEntity
  8
0
100
AcDbLine
 10
3334.531907869581
 20
150.000000272139
 30
0.0
 11
3334.531907869581
 21
342.0000002721417
 31
0.0
  0
TEXT
  5
B122
330
747D
100
AcDbEntity
  8
0
 48
2.0
100
AcDbText
 10
3251.401452197088
 20
177.5731386800553
 30
0.0
 40
24.0
  1
口
  7
SANWA
100
AcDbText
  0
TEXT
  5
B123
330
747D
100
AcDbEntity
  8
0
 48
2.0
100
AcDbText
 10
3234.749389020339
 20
313.251379280623
 30
0.0
 40
24.0
  1
製図
  7
SANWA
100
AcDbText
  0
TEXT
  5
B124
330
747D
100
AcDbEntity
  8
0
 48
2.0
100
AcDbText
 10
3231.216172909102
 20
275.7717953877886
 30
0.0
 40
24.0
  1
検図
  7
SANWA
100
AcDbText
  0
LINE
  5
B125
330
747D
100
AcDbEntity
  8
0
100
AcDbLine
 10
3202.531907869579
 20
342.0000002721417
 30
0.0
 11
3202.531907869579
 21
306.0000002721404
 31
0.0
  0
TEXT
  5
B126
330
747D
100
AcDbEntity
  8
0
 48
2.0
100
AcDbText
 10
3369.075978801561
 20
277.1357180234372
 30
0.0
 40
24.0
  1
設計
  7
SANWA
100
AcDbText
  0
TEXT
  5
B127
102
{ACAD_REACTORS
330
B12A
102
}
330
747D
100
AcDbEntity
  8
0
 48
2.0
100
AcDbText
 10
3516.680785447562
 20
217.0202911071415
 30
0.0
 40
24.0
  1
大
  7
SANWA
100
AcDbText
  0
CIRCLE
  5
B128
102
{ACAD_REACTORS
330
B12A
102
}
330
747D
100
AcDbEntity
  8
0
100
AcDbCircle
 10
3533.23907962034
 20
209.0183935762679
 30
0.0
 40
45.58512634354756
  0
CIRCLE
  5
B129
102
{ACAD_REACTORS
330
B12A
102
}
330
747D
100
AcDbEntity
  8
0
100
AcDbCircle
 10
3533.23907962034
 20
209.0183935762679
 30
0.0
 40
47.98512634354756
  0
HATCH
  5
B12A
330
747D
100
AcDbEntity
  8
0
100
AcDbHatch
 10
0.0
 20
0.0
 30
0.0
210
0.0
220
0.0
230
1.0
  2
SOLID
 70
     1
 71
     1
 91
        4
 92
        7
 72
     1
 73
     1
 93
        2
 10
3581.224205963888
 20
209.0183935762679
 42
1.0
 10
3485.253953276793
 20
209.0183935762679
 42
1.0
 97
        1
330
B129
 92
       22
 72
     1
 73
     1
 93
        2
 10
3578.824205963888
 20
209.0183935762679
 42
1.0
 10
3487.653953276793
 20
209.0183935762679
 42
1.0
 97
        1
330
B128
 92
      136
 93
        4
 72
     1
 10
3509.069356876134
 20
207.2145768214272
 11
3559.400785447562
 21
207.2145768214272
 72
     1
 10
3559.400785447562
 20
207.2145768214272
 11
3559.400785447562
 21
252.8831482499986
 72
     1
 10
3559.400785447562
 20
252.8831482499986
 11
3509.069356876134
 21
252.8831482499986
 72
     1
 10
3509.069356876134
 20
252.8831482499986
 11
3509.069356876134
 21
207.2145768214272
 97
        1
330
B127
 92
      136
 93
        4
 72
     1
 10
3508.127843456203
 20
171.4951943066273
 11
3559.213557741917
 21
171.4951943066273
 72
     1
 10
3559.213557741917
 20
171.4951943066273
 11
3559.213557741917
 21
219.4266228780559
 72
     1
 10
3559.213557741917
 20
219.4266228780559
 11
3508.127843456203
 21
219.4266228780559
 72
     1
 10
3508.127843456203
 20
219.4266228780559
 11
3508.127843456203
 21
171.4951943066273
 97
        1
330
B136
 75
     0
 76
     1
 47
0.0602706122334892
 98
        2
 10
3556.22936548665
 20
250.2676446770442
 10
3556.22936548665
 20
250.2676446770442
  0
HATCH
  5
B12B
330
747D
100
AcDbEntity
  8
0
100
AcDbHatch
 10
0.0
 20
0.0
 30
0.0
210
0.0
220
0.0
230
1.0
  2
SOLID
 70
     1
 71
     1
 91
        3
 92
        7
 72
     1
 73
     1
 93
        4
 10
3650.863342856516
 20
255.8757930818951
 42
0.0
 10
3658.515307640804
 20
248.2238282976073
 42
-0.3722683533228755
 10
3701.757106974746
 20
248.2238282976073
 42
0.0
 10
3709.409071759032
 20
255.8757930819002
 42
0.3824979940289552
 97
        4
330
B144
330
B148
330
B141
330
B145
 92
        7
 72
     1
 73
     1
 93
        4
 10
3712.80318430874
 20
252.4816805321984
 42
0.0
 10
3705.151219524441
 20
244.8297157479124
 42
-0.6168583269098919
 10
3682.53620730778
 20
190.2322465412044
 42
0.0
 10
3682.53620730778
 20
179.4107341644553
 42
0.6292889159379609
 97
        4
330
B142
330
B130
330
B139
330
B12E
 92
        7
 72
     1
 73
     1
 93
        4
 10
3647.469230306822
 20
252.4816805322
 42
0.6292889159379957
 10
3677.736207307784
 20
179.4107341644553
 42
0.0
 10
3677.736207307784
 20
190.2322465411976
 42
-0.6168583269101598
 10
3655.12119509111
 20
244.8297157479124
 42
0.0
 97
        4
330
B133
330
B13A
330
B131
330
B143
 75
     0
 76
     1
 47
0.0143554168026844
 98
        4
 10
3699.348489759959
 20
260.8853260426481
 10
3708.313950322849
 20
246.9318617251997
 10
3708.313950322849
 20
246.9318617251997
 10
3652.969446332023
 20
246.4150664327394
  0
TEXT
  5
B12C
330
747D
100
AcDbEntity
  8
0
100
AcDbText
 10
3666.708995810904
 20
206.7188726828158
 30
0.0
 40
18.0
  1
和
  7
SANWA
100
AcDbText
  0
ARC
  5
B12D
102
{ACAD_REACTORS
330
B12B
102
}
330
747D
100
AcDbEntity
  8
0
100
AcDbCircle
 10
3680.136207307782
 20
223.2088160809417
 30
0.0
 40
41.46378893304791
100
AcDbArc
 50
276.6476737862027
 51
38.35232621379853
  0
ARC
  5
B12E
102
{ACAD_REACTORS
330
B12B
102
}
330
747D
100
AcDbEntity
  8
0
100
AcDbCircle
 10
3680.136207307782
 20
223.2088160809417
 30
0.0
 40
43.86378893304791
100
AcDbArc
 50
273.1364954470844
 51
41.86350455291712
  0
ARC
  5
B12F
102
{ACAD_REACTORS
330
B12B
102
}
330
747D
100
AcDbEntity
  8
0
100
AcDbCircle
 10
3680.136207307782
 20
223.2088160809417
 30
0.0
 40
35.46378893304791
100
AcDbArc
 50
277.7788203119023
 51
37.22117968809818
  0
ARC
  5
B130
102
{ACAD_REACTORS
330
B12B
102
}
330
747D
100
AcDbEntity
  8
0
100
AcDbCircle
 10
3680.136207307782
 20
223.2088160809417
 30
0.0
 40
33.06378893304791
100
AcDbArc
 50
274.1625874111288
 51
40.83741258887306
  0
ARC
  5
B131
102
{ACAD_REACTORS
330
B12B
102
}
330
747D
100
AcDbEntity
  8
0
100
AcDbCircle
 10
3680.136207307782
 20
223.2088160809417
 30
0.0
 40
33.06378893304791
100
AcDbArc
 50
139.1625874111273
 51
265.8374125888725
  0
ARC
  5
B132
102
{ACAD_REACTORS
330
B12B
102
}
330
747D
100
AcDbEntity
  8
0
100
AcDbCircle
 10
3680.136207307782
 20
223.2088160809417
 30
0.0
 40
35.46378893304791
100
AcDbArc
 50
142.7788203119012
 51
262.2211796880999
  0
ARC
  5
B133
102
{ACAD_REACTORS
330
B12B
102
}
330
747D
100
AcDbEntity
  8
0
100
AcDbCircle
 10
3680.136207307782
 20
223.2088160809417
 30
0.0
 40
43.86378893304791
100
AcDbArc
 50
138.1364954470837
 51
266.8635045529165
  0
ARC
  5
B134
102
{ACAD_REACTORS
330
B12B
102
}
330
747D
100
AcDbEntity
  8
0
100
AcDbCircle
 10
3680.136207307782
 20
223.2088160809417
 30
0.0
 40
41.46378893304791
100
AcDbArc
 50
141.6476737862016
 51
263.3523262137983
  0
LINE
  5
B135
330
747D
100
AcDbEntity
  8
0
100
AcDbLine
 10
3466.531907869584
 20
150.000000272139
 30
0.0
 11
3466.531907869584
 21
306.0000002721404
 31
0.0
  0
TEXT
  5
B136
102
{ACAD_REACTORS
330
B12A
102
}
330
747D
100
AcDbEntity
  8
0
 48
2.0
100
AcDbText
 10
3516.116414884774
 20
183.049480020913
 30
0.0
 40
24.0
  1
嶋
  7
SANWA
100
AcDbText
  0
LINE
  5
B137
102
{ACAD_REACTORS
330
B12B
102
}
330
747D
100
AcDbEntity
  8
0
100
AcDbLine
 10
3675.336207307786
 20
182.023797048721
 30
0.0
 11
3675.336207307786
 21
188.0713670345471
 31
0.0
  0
LINE
  5
B138
102
{ACAD_REACTORS
330
B12B
102
}
330
747D
100
AcDbEntity
  8
0
100
AcDbLine
 10
3684.936207307777
 20
182.023797048721
 30
0.0
 11
3684.936207307777
 21
188.0713670345471
 31
0.0
  0
LINE
  5
B139
102
{ACAD_REACTORS
330
B12B
102
}
330
747D
100
AcDbEntity
  8
0
100
AcDbLine
 10
3682.53620730778
 20
179.4107341644553
 30
0.0
 11
3682.53620730778
 21
190.2322465412044
 31
0.0
  0
LINE
  5
B13A
102
{ACAD_REACTORS
330
B12B
102
}
330
747D
100
AcDbEntity
  8
0
100
AcDbLine
 10
3677.736207307784
 20
179.4107341644553
 30
0.0
 11
3677.736207307784
 21
190.2322465411976
 31
0.0
  0
TEXT
  5
B13B
330
747D
100
AcDbEntity
  8
0
 48
2.0
100
AcDbText
 10
3498.749389020344
 20
277.2513792806217
 30
0.0
 40
24.0
  1
製図
  7
SANWA
100
AcDbText
  0
TEXT
  5
B13C
330
747D
100
AcDbEntity
  8
0
100
AcDbText
 10
3666.708995810904
 20
230.6320918747815
 30
0.0
 40
18.0
  1
三
  7
SANWA
100
AcDbText
  0
LINE
  5
B13D
102
{ACAD_REACTORS
330
B12B
102
}
330
747D
100
AcDbEntity
  8
0
100
AcDbLine
 10
3708.376248351778
 20
244.660632025541
 30
0.0
 11
3712.652526098454
 21
248.9369097722238
 31
0.0
  0
LINE
  5
B13E
102
{ACAD_REACTORS
330
B12B
102
}
330
747D
100
AcDbEntity
  8
0
100
AcDbLine
 10
3701.588023252388
 20
251.4488571249376
 30
0.0
 11
3705.864300999064
 21
255.7251348716204
 31
0.0
  0
LINE
  5
B13F
102
{ACAD_REACTORS
330
B12B
102
}
330
747D
100
AcDbEntity
  8
0
100
AcDbLine
 10
3658.684391363176
 20
251.4488571249376
 30
0.0
 11
3654.4081136165
 21
255.7251348716136
 31
0.0
  0
LINE
  5
B140
102
{ACAD_REACTORS
330
B12B
102
}
330
747D
100
AcDbEntity
  8
0
100
AcDbLine
 10
3651.896166263786
 20
244.660632025541
 30
0.0
 11
3647.61988851711
 21
248.9369097722238
 31
0.0
  0
LINE
  5
B141
102
{ACAD_REACTORS
330
B12B
102
}
330
747D
100
AcDbEntity
  8
0
100
AcDbLine
 10
3701.757106974746
 20
248.2238282976073
 30
0.0
 11
3709.409071759032
 21
255.8757930819002
 31
0.0
  0
LINE
  5
B142
102
{ACAD_REACTORS
330
B12B
102
}
330
747D
100
AcDbEntity
  8
0
100
AcDbLine
 10
3705.151219524441
 20
244.8297157479124
 30
0.0
 11
3712.80318430874
 21
252.4816805321984
 31
0.0
  0
LINE
  5
B143
102
{ACAD_REACTORS
330
B12B
102
}
330
747D
100
AcDbEntity
  8
0
100
AcDbLine
 10
3655.12119509111
 20
244.8297157479124
 30
0.0
 11
3647.422768429832
 21
252.5281424091895
 31
0.0
  0
LINE
  5
B144
102
{ACAD_REACTORS
330
B12B
102
}
330
747D
100
AcDbEntity
  8
0
100
AcDbLine
 10
3658.515307640804
 20
248.2238282976073
 30
0.0
 11
3650.816880979527
 21
255.9222549588844
 31
0.0
  0
ARC
  5
B145
102
{ACAD_REACTORS
330
B12B
102
}
330
747D
100
AcDbEntity
  8
0
100
AcDbCircle
 10
3680.136207307782
 20
223.2088160809417
 30
0.0
 40
43.86378893304791
100
AcDbArc
 50
48.13649544708374
 51
131.8635045529165
  0
ARC
  5
B146
102
{ACAD_REACTORS
330
B12B
102
}
330
747D
100
AcDbEntity
  8
0
100
AcDbCircle
 10
3680.136207307782
 20
223.2088160809417
 30
0.0
 40
41.46378893304791
100
AcDbArc
 50
51.64767378620499
 51
128.3523262137973
  0
ARC
  5
B147
102
{ACAD_REACTORS
330
B12B
102
}
330
747D
100
AcDbEntity
  8
0
100
AcDbCircle
 10
3680.136207307782
 20
223.2088160809417
 30
0.0
 40
35.46378893304791
100
AcDbArc
 50
52.77882031190202
 51
127.2211796880981
  0
ARC
  5
B148
102
{ACAD_REACTORS
330
B12B
102
}
330
747D
100
AcDbEntity
  8
0
100
AcDbCircle
 10
3680.136207307782
 20
223.2088160809417
 30
0.0
 40
33.06378893304791
100
AcDbArc
 50
49.16258741112848
 51
130.8374125888727
  0
TEXT
  5
B149
330
747D
100
AcDbEntity
  8
0
 48
2.0
100
AcDbText
 10
3329.555521505681
 20
374.9397258590152
 30
0.0
 40
24.0
  1
１：１５
  7
SANWA
100
AcDbText
  0
TEXT
  5
B14A
330
747D
100
AcDbEntity
  8
0
 48
2.0
100
AcDbText
 10
3326.458866135399
 20
434.3839149423525
 30
0.0
 40
24.0
  1
縮    尺
  7
SANWA
100
AcDbText
  0
TEXT
  5
B14B
330
747D
100
AcDbEntity
  8
0
 48
2.0
100
AcDbText
 10
3392.339277887439
 20
558.6411919147326
 30
0.0
 40
24.0
  1
番号
  7
SANWA
100
AcDbText
  0
LINE
  5
B14C
330
747D
100
AcDbEntity
  8
0
 62
     0
100
AcDbLine
 10
3202.531907869579
 20
426.0000002721403
 30
0.0
 11
3598.531907869587
 21
426.0000002721403
 31
0.0
  0
LINE
  5
B14D
330
747D
100
AcDbEntity
  8
0
 62
     0
100
AcDbLine
 10
3202.531907869579
 20
474.0000002721444
 30
0.0
 11
3598.531907869587
 21
474.0000002721444
 31
0.0
  0
LINE
  5
B14E
330
747D
100
AcDbEntity
  8
0
 62
     0
100
AcDbLine
 10
3202.531907869579
 20
546.0000002721403
 30
0.0
 11
3598.531907869587
 21
546.0000002721403
 31
0.0
  0
LINE
  5
B14F
330
747D
100
AcDbEntity
  8
0
 62
     0
100
AcDbLine
 10
3202.531907869579
 20
546.0000002721403
 30
0.0
 11
3598.531907869587
 21
546.0000002721403
 31
0.0
  0
LINE
  5
B150
330
747D
100
AcDbEntity
  8
0
100
AcDbLine
 10
3202.531907869579
 20
436.0565678600392
 30
0.0
 11
3202.531907869579
 21
529.2701472142312
 31
0.0
  0
LINE
  5
B151
330
747D
100
AcDbEntity
  8
0
 62
     0
100
AcDbLine
 10
3202.531907869579
 20
522.0000002721417
 30
0.0
 11
3202.531907869579
 21
378.0000002721431
 31
0.0
  0
LINE
  5
B152
330
747D
100
AcDbEntity
  8
0
100
AcDbLine
 10
3202.531907869579
 20
402.0000002721417
 30
0.0
 11
3202.531907869579
 21
436.0565678600392
 31
0.0
  0
TEXT
  5
B153
330
747D
100
AcDbEntity
  8
0
 48
2.0
100
AcDbText
 10
3325.407355811226
 20
557.2772864369653
 30
0.0
 40
24.0
  1
図面
  7
SANWA
100
AcDbText
  0
TEXT
  5
B154
330
747D
100
AcDbEntity
  8
0
 48
2.0
100
AcDbText
 10
3608.763418284388
 20
466.4348195722072
 30
0.0
 40
16.79999999999999
  1
呼
  7
SANWA
100
AcDbText
  0
TEXT
  5
B155
330
747D
100
AcDbEntity
  8
0
 48
2.0
100
AcDbText
 10
3609.288060905314
 20
360.6846155850167
 30
0.0
 40
16.79999999999999
  1
規
  7
SANWA
100
AcDbText
  0
TEXT
  5
B156
330
747D
100
AcDbEntity
  8
0
 48
2.0
100
AcDbText
 10
3608.865358840898
 20
419.9263488268729
 30
0.0
 40
16.79999999999999
  1
名
  7
SANWA
100
AcDbText
  0
TEXT
  5
B157
330
747D
100
AcDbEntity
  8
0
 48
2.0
100
AcDbText
 10
3608.525127862821
 20
443.432616272944
 30
0.0
 40
16.79999999999999
  1
び
  7
SANWA
100
AcDbText
  0
TEXT
  5
B158
330
747D
100
AcDbEntity
  8
0
 48
2.0
100
AcDbText
 10
3608.833031573676
 20
520.9962635167289
 30
0.0
 40
16.79999999999999
  1
名
  7
SANWA
100
AcDbText
  0
TEXT
  5
B159
330
747D
100
AcDbEntity
  8
0
 48
2.0
100
AcDbText
 10
3609.743090236952
 20
560.3768969591851
 30
0.0
 40
16.79999999999999
  1
品
  7
SANWA
100
AcDbText
  0
TEXT
  5
B15A
330
747D
100
AcDbEntity
  8
0
100
AcDbText
 10
3852.885950422787
 20
342.2742859864302
 30
0.0
 40
24.0
  1
300×300×1998
  7
SANWA
 72
     4
 11
3975.765950422787
 21
354.0000002721445
 31
0.0
100
AcDbText
  0
TEXT
  5
B15B
330
747D
100
AcDbEntity
  8
0
100
AcDbText
 10
3870.440236137073
 20
438.0000002721458
 30
0.0
 40
24.0
  1
暗渠（T-25）
  7
SANWA
 72
     4
 11
3975.765950422787
 21
450.0000002721458
 31
0.0
100
AcDbText
  0
TEXT
  5
B15C
330
747D
100
AcDbEntity
  8
0
100
AcDbText
 10
3835.331664708501
 20
534.0000002721403
 30
0.0
 40
24.0
  1
バリアフリー側溝
  7
SANWA
 72
     4
 11
3975.765950422787
 21
546.0000002721403
 31
0.0
100
AcDbText
  0
LINE
  5
B168
330
747D
100
AcDbEntity
  8
0
 48
15.0
100
AcDbLine
 10
1954.505309803666
 20
1104.632126323732
 30
0.0
 11
3952.505309803667
 21
1104.632126323732
 31
0.0
  0
LINE
  5
B169
330
747D
100
AcDbEntity
  8
0
 48
15.0
100
AcDbLine
 10
3952.505309803666
 20
897.1321263237323
 30
0.0
 11
1954.505309803666
 21
897.1321263237323
 31
0.0
  0
LINE
  5
B16A
330
747D
100
AcDbEntity
  8
0
 48
15.0
100
AcDbLine
 10
1954.505309803666
 20
1297.132126323732
 30
0.0
 11
3952.505309803666
 21
1297.132126323732
 31
0.0
  0
LINE
  5
B16B
330
747D
100
AcDbEntity
  8
0
 48
15.0
100
AcDbLine
 10
1960.505309803666
 20
903.1321263237323
 30
0.0
 11
1960.505309803666
 21
1089.632126323732
 31
0.0
  0
LINE
  5
B16E
330
747D
100
AcDbEntity
  8
0
 48
15.0
100
AcDbLine
 10
1954.505309803666
 20
897.1321263237323
 30
0.0
 11
1954.505309803666
 21
1297.132126323732
 31
0.0
  0
LINE
  5
B16F
330
747D
100
AcDbEntity
  8
0
 48
15.0
100
AcDbLine
 10
3946.505309803666
 20
903.1321263237323
 30
0.0
 11
1960.505309803666
 21
903.1321263237323
 31
0.0
  0
TEXT
  5
B170
330
747D
100
AcDbEntity
  8
0
100
AcDbText
 10
977.6182312816036
 20
605.4519196327813
 30
0.0
 40
32.0
  1
本体目地詳細図
  7
SANWA
 72
     4
 11
1141.458231281603
 21
622.0919196327813
 31
0.0
100
AcDbText
  0
LINE
  5
B171
330
747D
100
AcDbEntity
  8
0
100
AcDbLine
 10
941.3275831377941
 20
591.6335262910852
 30
0.0
 11
1338.56727489148
 21
591.6335262910852
 31
0.0
  0
LINE
  5
B172
330
747D
100
AcDbEntity
  8
0
 48
15.0
100
AcDbLine
 10
1954.505309803666
 20
897.1321263237323
 30
0.0
 11
1960.505309803666
 21
903.1321263237323
 31
0.0
  0
TEXT
  5
B173
330
747D
100
AcDbEntity
  8
0
100
AcDbText
 10
2023.81870419311
 20
604.1608520912753
 30
0.0
 40
32.0
  1
天端詳細図
  7
SANWA
 72
     4
 11
2140.847275621682
 21
620.8008520912754
 31
0.0
100
AcDbText
  0
LINE
  5
B174
330
747D
100
AcDbEntity
  8
0
100
AcDbLine
 10
2011.302778159614
 20
590.3424587495792
 30
0.0
 11
2269.320919474234
 21
590.3424587495792
 31
0.0
  0
LINE
  5
B175
330
747D
100
AcDbEntity
  8
0
 48
15.0
100
AcDbLine
 10
1960.505309803666
 20
1291.132126323732
 30
0.0
 11
3946.505309803666
 21
1291.132126323732
 31
0.0
  0
LINE
  5
B176
330
747D
100
AcDbEntity
  8
0
  6
HIDDEN2
 48
15.0
100
AcDbLine
 10
3952.505309803666
 20
1016.465426323732
 30
0.0
 11
1954.505309803666
 21
1016.465426323732
 31
0.0
  0
LINE
  5
B177
330
747D
100
AcDbEntity
  8
0
  6
HIDDEN2
 48
15.0
100
AcDbLine
 10
1954.505309803666
 20
1177.798826323732
 30
0.0
 11
3952.505309803666
 21
1177.798826323733
 31
0.0
  0
LINE
  5
B178
330
747D
100
AcDbEntity
  8
0
  6
HIDDEN2
 48
15.0
100
AcDbLine
 10
3952.505309803666
 20
951.4654263237325
 30
0.0
 11
1954.505309803666
 21
951.4654263237325
 31
0.0
  0
LINE
  5
B179
330
747D
100
AcDbEntity
  8
0
  6
HIDDEN2
 48
15.0
100
AcDbLine
 10
1954.505309803666
 20
1242.798826323732
 30
0.0
 11
3952.505309803666
 21
1242.798826323732
 31
0.0
  0
LINE
  5
B17B
330
747D
100
AcDbEntity
  8
0
 48
15.0
100
AcDbLine
 10
3952.505309803666
 20
1089.632126323732
 30
0.0
 11
1954.505309803666
 21
1089.632126323732
 31
0.0
  0
LINE
  5
B17C
330
747D
100
AcDbEntity
  8
0
 48
15.0
100
AcDbLine
 10
1960.505309803666
 20
1104.632126323732
 30
0.0
 11
1960.505309803666
 21
1291.132126323732
 31
0.0
  0
LINE
  5
B17D
330
747D
100
AcDbEntity
  8
0
 48
15.0
100
AcDbLine
 10
1954.505309803666
 20
1297.132126323732
 30
0.0
 11
1960.505309803666
 21
1291.132126323732
 31
0.0
  0
LINE
  5
B18D
330
747D
100
AcDbEntity
  8
0
 48
15.0
100
AcDbLine
 10
3952.505309803666
 20
1297.132126323732
 30
0.0
 11
3952.505309803666
 21
897.1321263237323
 31
0.0
  0
LINE
  5
B18E
330
747D
100
AcDbEntity
  8
0
 62
     0
100
AcDbLine
 10
3202.531907869579
 20
594.0000002721444
 30
0.0
 11
4304.999992975976
 21
594.0000002721444
 31
0.0
  0
LINE
  5
B18F
330
747D
100
AcDbEntity
  8
0
100
AcDbLine
 10
3598.531907869587
 20
594.0000002721444
 30
0.0
 11
3621.277265281423
 21
594.0000002721444
 31
0.0
  0
TEXT
  5
B1AD
330
747D
100
AcDbEntity
  8
0
100
AcDbText
 10
1323.398847813381
 20
2794.235077321163
 30
0.0
 40
42.0
  1
バリアフリー側溝 暗渠 ３００×３００×１９９８（T-25）
  7
SANWA
 72
     4
 11
2152.838847813381
 21
2815.235077321162
 31
0.0
100
AcDbText
  0
LINE
  5
B1AE
330
747D
100
AcDbEntity
  8
0
100
AcDbLine
 10
1302.372127044117
 20
2759.466086898906
 30
0.0
 11
3492.082906992582
 21
2759.466086898906
 31
0.0
  0
LINE
  5
B1AF
330
747D
100
AcDbEntity
  8
0
100
AcDbLine
 10
1302.372127044117
 20
2771.466086898902
 30
0.0
 11
3492.082906992582
 21
2771.466086898902
 31
0.0
  0
LINE
  5
B1B0
330
747D
100
AcDbEntity
  8
枠
100
AcDbLine
 10
374.9999929759761
 20
3000.000000272139
 30
0.0
 11
4304.999992975976
 21
3000.000000272139
 31
0.0
  0
DIMENSION
  5
B1B2
330
747D
100
AcDbEntity
  8
寸法引出
 48
15.0
100
AcDbDimension
  2
*D37
 10
1337.660006630031
 20
2052.232369316906
 30
0.0
 11
1354.66000663003
 21
2052.232369316906
 31
0.0
 70
   160
 71
     5
 42
34.0
  3
SANWA
100
AcDbAlignedDimension
 13
1371.660006630031
 23
2133.460474313587
 33
0.0
 14
1337.660006630031
 24
2167.460474313587
 34
0.0
100
AcDbRotatedDimension
1001
ACAD
1000
DSTYLE
1002
{
1070
   140
1040
2.0
1070
    40
1040
15.0
1070
   147
1040
1.0
1070
    44
1040
0.5
1070
    43
1040
5.0
1070
   178
1070
   256
1070
   177
1070
   256
1070
   176
1070
   256
1070
    41
1040
1.5
1002
}
  0
DIMENSION
  5
B1B3
330
747D
100
AcDbEntity
  8
寸法引出
 48
15.0
100
AcDbDimension
  2
*D38
 10
1443.136199113909
 20
2133.460474313587
 30
0.0
 11
1443.136199113909
 21
2108.814373444283
 31
0.0
 70
   160
 71
     5
 42
33.99999999999909
  3
SANWA
100
AcDbAlignedDimension
 13
1371.660006630031
 23
2167.460474313587
 33
0.0
 14
1371.660006630031
 24
2133.460474313587
 34
0.0
 50
90.0
100
AcDbRotatedDimension
1001
ACAD
1000
DSTYLE
1002
{
1070
    40
1040
15.0
1070
    41
1040
1.5
1070
    43
1040
5.0
1070
    44
1040
0.5
1070
    75
1070
     1
1070
   140
1040
2.0
1070
   147
1040
1.0
1070
   176
1070
   256
1070
   177
1070
   256
1070
   178
1070
   256
1070
   279
1070
     1
1002
}
  0
DIMENSION
  5
B1B4
330
747D
100
AcDbEntity
  8
寸法引出
 48
15.0
100
AcDbDimension
  2
*D39
 10
1443.136199113909
 20
2167.460474313587
 30
0.0
 11
1413.136199113909
 21
2192.460474313587
 31
0.0
 70
    32
 71
     5
 42
50.0
  3
SANWA
100
AcDbAlignedDimension
 13
1371.660006630031
 23
2217.460474313587
 33
0.0
 14
1371.660006630031
 24
2167.460474313587
 34
0.0
 50
90.0
100
AcDbRotatedDimension
1001
ACAD
1000
DSTYLE
1002
{
1070
   140
1040
2.0
1070
    40
1040
15.0
1070
   147
1040
1.0
1070
    44
1040
0.5
1070
    43
1040
5.0
1070
   178
1070
   256
1070
   177
1070
   256
1070
   176
1070
   256
1070
    41
1040
1.5
1002
}
  0
DIMENSION
  5
B1B5
330
747D
100
AcDbEntity
  8
寸法引出
 48
15.0
100
AcDbDimension
  2
*D40
 10
1507.565483022557
 20
2192.460474313587
 30
0.0
 11
1477.565483022557
 21
2014.960474313587
 31
0.0
 70
    32
 71
     5
 42
355.0000000000002
  3
SANWA
100
AcDbAlignedDimension
 13
1371.660006630031
 23
1837.460474313586
 33
0.0
 14
1371.660006630031
 24
2192.460474313587
 34
0.0
 50
90.0
100
AcDbRotatedDimension
1001
ACAD
1000
DSTYLE
1002
{
1070
   140
1040
2.0
1070
    40
1040
15.0
1070
   147
1040
1.0
1070
    44
1040
0.5
1070
    43
1040
5.0
1070
   178
1070
   256
1070
   177
1070
   256
1070
   176
1070
   256
1070
    41
1040
1.5
1002
}
  0
DIMENSION
  5
B1B6
330
747D
100
AcDbEntity
  8
寸法引出
 48
15.0
100
AcDbDimension
  2
*D41
 10
840.364320166147
 20
1937.460474313586
 30
0.0
 11
810.3643201661467
 21
2114.960474313587
 31
0.0
 70
    32
 71
     5
 42
354.9999999999998
  3
SANWA
100
AcDbAlignedDimension
 13
971.6600066300307
 23
2292.460474313587
 33
0.0
 14
971.6600066300307
 24
1937.460474313586
 34
0.0
 50
90.0
100
AcDbRotatedDimension
1001
ACAD
1000
DSTYLE
1002
{
1070
   140
1040
2.0
1070
    40
1040
15.0
1070
   147
1040
1.0
1070
    44
1040
0.5
1070
    43
1040
5.0
1070
   178
1070
   256
1070
   177
1070
   256
1070
   176
1070
   256
1070
    41
1040
1.5
1002
}
  0
DIMENSION
  5
B1B7
330
747D
100
AcDbEntity
  8
寸法引出
 48
15.0
100
AcDbDimension
  2
*D42
 10
1025.993339963364
 20
2093.600936789693
 30
0.0
 11
1058.493339963364
 21
2093.600936789693
 31
0.0
 70
   160
 71
     5
 42
65.0
  3
SANWA
100
AcDbAlignedDimension
 13
1090.993339963364
 23
2212.460474313587
 33
0.0
 14
1025.993339963364
 24
2147.460474313587
 34
0.0
100
AcDbRotatedDimension
1001
ACAD
1000
DSTYLE
1002
{
1070
   140
1040
2.0
1070
    40
1040
15.0
1070
   147
1040
1.0
1070
    44
1040
0.5
1070
    43
1040
5.0
1070
   178
1070
   256
1070
   177
1070
   256
1070
   176
1070
   256
1070
    41
1040
1.5
1002
}
  0
DIMENSION
  5
B1B8
330
747D
100
AcDbEntity
  8
寸法引出
 48
15.0
100
AcDbDimension
  2
*D43
 10
1126.323053048145
 20
2147.460474313587
 30
0.0
 11
1096.323053048145
 21
2179.960474313587
 31
0.0
 70
    32
 71
     5
 42
65.0
  3
SANWA
100
AcDbAlignedDimension
 13
1090.993339963364
 23
2212.460474313587
 33
0.0
 14
1025.993339963364
 24
2147.460474313587
 34
0.0
 50
90.0
100
AcDbRotatedDimension
1001
ACAD
1000
DSTYLE
1002
{
1070
   140
1040
2.0
1070
    40
1040
15.0
1070
   147
1040
1.0
1070
    44
1040
0.5
1070
    43
1040
5.0
1070
   178
1070
   256
1070
   177
1070
   256
1070
   176
1070
   256
1070
    41
1040
1.5
1002
}
  0
LINE
  5
B1B9
330
747D
100
AcDbEntity
  8
0
 48
15.0
100
AcDbLine
 10
1340.275731927399
 20
2145.930537071539
 30
0.0
 11
1327.720668558986
 21
1957.604586545351
 31
0.0
  0
LINE
  5
B1BA
330
747D
100
AcDbEntity
  8
0
 48
15.0
100
AcDbLine
 10
1334.289020980259
 20
2146.329651134683
 30
0.0
 11
1321.733957611846
 21
1958.003700608494
 31
0.0
  0
LINE
  5
B1BB
330
747D
100
AcDbEntity
  8
0
 48
15.0
100
AcDbLine
 10
1009.030992279802
 20
2146.329651134683
 30
0.0
 11
1021.586055648215
 21
1958.003700608494
 31
0.0
  0
LINE
  5
B1BC
330
747D
100
AcDbEntity
  8
0
 48
15.0
100
AcDbLine
 10
1003.044281332662
 20
2145.93053707154
 30
0.0
 11
1015.599344701075
 21
1957.604586545351
 31
0.0
  0
LINE
  5
B1BD
330
747D
100
AcDbEntity
  8
0
 48
15.0
100
AcDbLine
 10
1001.04871101695
 20
2145.797499050493
 30
0.0
 11
1013.603774385362
 21
1957.471548524303
 31
0.0
  0
LINE
  5
B1BE
330
747D
100
AcDbEntity
  8
0
 48
15.0
100
AcDbLine
 10
1342.271302243111
 20
2145.797499050492
 30
0.0
 11
1329.716238874699
 21
1957.471548524303
 31
0.0
  0
LINE
  5
B1BF
330
747D
100
AcDbEntity
  8
0
 48
15.0
100
AcDbLine
 10
1011.026562595516
 20
2146.46268915573
 30
0.0
 11
1023.581625963927
 21
1958.136738629541
 31
0.0
  0
LINE
  5
B1C0
330
747D
100
AcDbEntity
  8
0
 48
15.0
100
AcDbLine
 10
1332.293450664546
 20
2146.46268915573
 30
0.0
 11
1319.738387296134
 21
1958.136738629541
 31
0.0
  0
DIMENSION
  5
B1C1
330
747D
100
AcDbEntity
  8
寸法引出
 48
15.0
100
AcDbDimension
  2
*D44
 10
690.2854551456148
 20
1837.460474313586
 30
0.0
 11
660.2854551456145
 21
2064.960474313586
 31
0.0
 70
    32
 71
     5
 42
454.9999999999998
  3
SANWA
100
AcDbAlignedDimension
 13
971.6600066300307
 23
2292.460474313587
 33
0.0
 14
971.6600066300307
 24
1837.460474313586
 34
0.0
 50
90.0
100
AcDbRotatedDimension
1001
ACAD
1000
DSTYLE
1002
{
1070
   140
1040
2.0
1070
    40
1040
15.0
1070
   147
1040
1.0
1070
    44
1040
0.5
1070
    43
1040
5.0
1070
   178
1070
   256
1070
   177
1070
   256
1070
   176
1070
   256
1070
    41
1040
1.5
1002
}
  0
DIMENSION
  5
B1C2
330
747D
100
AcDbEntity
  8
寸法引出
 48
15.0
100
AcDbDimension
  2
*D45
 10
768.4546500267206
 20
1912.460474313586
 30
0.0
 11
738.4546500267203
 21
2062.460474313587
 31
0.0
 70
    32
 71
     5
 42
299.9999999999998
  3
SANWA
100
AcDbAlignedDimension
 13
971.6600066300307
 23
2212.460474313587
 33
0.0
 14
971.6600066300307
 24
1912.460474313586
 34
0.0
 50
90.0
100
AcDbRotatedDimension
1001
ACAD
1000
DSTYLE
1002
{
1070
   140
1040
2.0
1070
    40
1040
15.0
1070
   147
1040
1.0
1070
    44
1040
0.5
1070
    43
1040
5.0
1070
   178
1070
   256
1070
   177
1070
   256
1070
   176
1070
   256
1070
    41
1040
1.5
1002
}
  0
LINE
  5
B1C3
330
747D
100
AcDbEntity
  8
0
 48
15.0
100
AcDbLine
 10
1025.993339963364
 20
2147.460474313587
 30
0.0
 11
1038.548403331777
 21
1959.134523787398
 31
0.0
  0
LINE
  5
B1C4
330
747D
100
AcDbEntity
  8
0
 48
15.0
100
AcDbLine
 10
1317.326673296697
 20
2147.460474313587
 30
0.0
 11
1304.771609928284
 21
1959.134523787398
 31
0.0
  0
LINE
  5
B1C5
330
747D
100
AcDbEntity
  8
0
 48
15.0
100
AcDbLine
 10
971.6600066300307
 20
1837.460474313586
 30
0.0
 11
971.6600066300307
 21
2286.460474313587
 31
0.0
  0
LINE
  5
B1C6
330
747D
100
AcDbEntity
  8
0
 48
15.0
100
AcDbLine
 10
1371.660006630031
 20
2286.460474313587
 30
0.0
 11
1371.660006630031
 21
1837.460474313586
 31
0.0
  0
DIMENSION
  5
B1C7
330
747D
100
AcDbEntity
  8
寸法引出
 48
15.0
100
AcDbDimension
  2
*D46
 10
912.0306489794019
 20
1996.460474313585
 30
0.0
 11
912.0306489794019
 21
2019.047437875708
 31
0.0
 70
   160
 71
     5
 42
33.99999999999909
  3
SANWA
100
AcDbAlignedDimension
 13
971.6600066300307
 23
1962.460474313586
 33
0.0
 14
971.6600066300307
 24
1996.460474313585
 34
0.0
 50
90.0
100
AcDbRotatedDimension
1001
ACAD
1000
DSTYLE
1002
{
1070
    40
1040
15.0
1070
    41
1040
1.5
1070
    43
1040
5.0
1070
    44
1040
0.5
1070
    75
1070
     1
1070
   140
1040
2.0
1070
   147
1040
1.0
1070
   176
1070
   256
1070
   177
1070
   256
1070
   178
1070
   256
1070
   279
1070
     1
1002
}
  0
DIMENSION
  5
B1C8
330
747D
100
AcDbEntity
  8
寸法引出
 48
15.0
100
AcDbDimension
  2
*D47
 10
912.0306489794019
 20
1878.460474313585
 30
0.0
 11
912.0306489794019
 21
1855.944702794134
 31
0.0
 70
   160
 71
     5
 42
34.00000000000091
  3
SANWA
100
AcDbAlignedDimension
 13
971.6600066300307
 23
1912.460474313586
 33
0.0
 14
971.6600066300307
 24
1878.460474313585
 34
0.0
 50
90.0
100
AcDbRotatedDimension
1001
ACAD
1000
DSTYLE
1002
{
1070
    40
1040
15.0
1070
    41
1040
1.5
1070
    43
1040
5.0
1070
    44
1040
0.5
1070
    75
1070
     1
1070
   140
1040
2.0
1070
   147
1040
1.0
1070
   176
1070
   256
1070
   177
1070
   256
1070
   178
1070
   256
1070
   279
1070
     1
1002
}
  0
DIMENSION
  5
B1C9
330
747D
100
AcDbEntity
  8
寸法引出
 48
15.0
100
AcDbDimension
  2
*D48
 10
912.0306489794019
 20
1912.460474313586
 30
0.0
 11
882.0306489794017
 21
1937.460474313587
 31
0.0
 70
    32
 71
     5
 42
50.0
  3
SANWA
100
AcDbAlignedDimension
 13
971.6600066300307
 23
1962.460474313586
 33
0.0
 14
971.6600066300307
 24
1912.460474313586
 34
0.0
 50
90.0
100
AcDbRotatedDimension
1001
ACAD
1000
DSTYLE
1002
{
1070
   140
1040
2.0
1070
    40
1040
15.0
1070
   147
1040
1.0
1070
    44
1040
0.5
1070
    43
1040
5.0
1070
   178
1070
   256
1070
   177
1070
   256
1070
   176
1070
   256
1070
    41
1040
1.5
1002
}
  0
DIMENSION
  5
B1CA
330
747D
100
AcDbEntity
  8
寸法引出
 48
15.0
100
AcDbDimension
  2
*D49
 10
840.364320166147
 20
1837.460474313586
 30
0.0
 11
810.3643201661467
 21
1887.460474313587
 31
0.0
 70
    32
 71
     5
 42
100.0
  3
SANWA
100
AcDbAlignedDimension
 13
971.6600066300307
 23
1937.460474313586
 33
0.0
 14
971.6600066300307
 24
1837.460474313586
 34
0.0
 50
90.0
100
AcDbRotatedDimension
1001
ACAD
1000
DSTYLE
1002
{
1070
    40
1040
15.0
1070
    41
1040
1.5
1070
    43
1040
5.0
1070
    44
1040
0.5
1070
    75
1070
     1
1070
   140
1040
2.0
1070
   147
1040
1.0
1070
   176
1070
   256
1070
   177
1070
   256
1070
   178
1070
   256
1070
   279
1070
     1
1002
}
  0
DIMENSION
  5
B1CB
330
747D
100
AcDbEntity
  8
寸法引出
 48
15.0
100
AcDbDimension
  2
*D50
 10
971.6600066300307
 20
1766.903553160717
 30
0.0
 11
1006.66000663003
 21
1796.903553160717
 31
0.0
 70
    32
 71
     5
 42
70.0
  3
SANWA
100
AcDbAlignedDimension
 13
1041.66000663003
 23
1837.460474313586
 33
0.0
 14
971.6600066300307
 24
1837.460474313586
 34
0.0
100
AcDbRotatedDimension
1001
ACAD
1000
DSTYLE
1002
{
1070
    40
1040
15.0
1070
    41
1040
1.5
1070
    43
1040
5.0
1070
    44
1040
0.5
1070
    75
1070
     1
1070
   140
1040
2.0
1070
   147
1040
1.0
1070
   176
1070
   256
1070
   177
1070
   256
1070
   178
1070
   256
1070
   279
1070
     1
1002
}
  0
DIMENSION
  5
B1CC
330
747D
100
AcDbEntity
  8
寸法引出
 48
15.0
100
AcDbDimension
  2
*D51
 10
768.4546500267206
 20
1837.460474313586
 30
0.0
 11
738.4546500267203
 21
1874.960474313587
 31
0.0
 70
    32
 71
     5
 42
75.0
  3
SANWA
100
AcDbAlignedDimension
 13
971.6600066300307
 23
1912.460474313586
 33
0.0
 14
971.6600066300307
 24
1837.460474313586
 34
0.0
 50
90.0
100
AcDbRotatedDimension
1001
ACAD
1000
DSTYLE
1002
{
1070
    40
1040
15.0
1070
    41
1040
1.5
1070
    43
1040
5.0
1070
    44
1040
0.5
1070
    75
1070
     1
1070
   140
1040
2.0
1070
   147
1040
1.0
1070
   176
1070
   256
1070
   177
1070
   256
1070
   178
1070
   256
1070
   279
1070
     1
1002
}
  0
ARC
  5
B1CD
330
747D
100
AcDbEntity
  8
0
 48
15.0
100
AcDbCircle
 10
1254.882352035454
 20
1962.460474313586
 30
0.0
 40
73.0
100
AcDbArc
 50
270.0
 51
356.1859251657095
  0
ARC
  5
B1CE
330
747D
100
AcDbEntity
  8
0
 48
15.0
100
AcDbCircle
 10
1088.437661224607
 20
1962.460474313586
 30
0.0
 40
73.0
100
AcDbArc
 50
183.8140748342901
 51
270.0
  0
ARC
  5
B1CF
330
747D
100
AcDbEntity
  8
0
 48
15.0
100
AcDbCircle
 10
1254.882352035454
 20
1962.460474313586
 30
0.0
 40
75.0
100
AcDbArc
 50
270.0
 51
356.1859251657095
  0
ARC
  5
B1D0
330
747D
100
AcDbEntity
  8
0
 48
15.0
100
AcDbCircle
 10
1088.437661224607
 20
1962.460474313586
 30
0.0
 40
75.0
100
AcDbArc
 50
183.8140748342901
 51
270.0
  0
DIMENSION
  5
B1D1
330
747D
100
AcDbEntity
  8
寸法引出
 48
15.0
100
AcDbDimension
  2
*D52
 10
1371.660006630031
 20
1766.903553160717
 30
0.0
 11
1336.660006630031
 21
1796.903553160717
 31
0.0
 70
    32
 71
     5
 42
70.0
  3
SANWA
100
AcDbAlignedDimension
 13
1301.660006630031
 23
1837.460474313586
 33
0.0
 14
1371.660006630031
 24
1837.460474313586
 34
0.0
100
AcDbRotatedDimension
1001
ACAD
1000
DSTYLE
1002
{
1070
    40
1040
15.0
1070
    41
1040
1.5
1070
    43
1040
5.0
1070
    44
1040
0.5
1070
    75
1070
     1
1070
   140
1040
2.0
1070
   147
1040
1.0
1070
   176
1070
   256
1070
   177
1070
   256
1070
   178
1070
   256
1070
   279
1070
     1
1002
}
  0
LINE
  5
B1D2
330
747D
100
AcDbEntity
  8
0
 48
15.0
100
AcDbLine
 10
1371.660006630031
 20
1852.460474313586
 30
0.0
 11
971.6600066300307
 21
1852.460474313586
 31
0.0
  0
LINE
  5
B1D3
330
747D
100
AcDbEntity
  8
0
 48
15.0
100
AcDbLine
 10
1371.660006630031
 20
1837.460474313586
 30
0.0
 11
971.6600066300307
 21
1837.460474313586
 31
0.0
  0
DIMENSION
  5
B1D4
330
747D
100
AcDbEntity
  8
寸法引出
 48
15.0
100
AcDbDimension
  2
*D53
 10
1301.660006630031
 20
1766.903553160717
 30
0.0
 11
1171.66000663003
 21
1796.903553160717
 31
0.0
 70
    32
 71
     5
 42
260.0
  3
SANWA
100
AcDbAlignedDimension
 13
1041.66000663003
 23
1837.460474313586
 33
0.0
 14
1301.660006630031
 24
1837.460474313586
 34
0.0
100
AcDbRotatedDimension
1001
ACAD
1000
DSTYLE
1002
{
1070
   140
1040
2.0
1070
    40
1040
15.0
1070
   147
1040
1.0
1070
    44
1040
0.5
1070
    43
1040
5.0
1070
   178
1070
   256
1070
   177
1070
   256
1070
   176
1070
   256
1070
    41
1040
1.5
1002
}
  0
ARC
  5
B1D5
330
747D
100
AcDbEntity
  8
0
 48
15.0
100
AcDbCircle
 10
1254.882352035454
 20
1962.460474313586
 30
0.0
 40
67.0
100
AcDbArc
 50
270.0
 51
356.1859251657095
  0
ARC
  5
B1D6
330
747D
100
AcDbEntity
  8
0
 48
15.0
100
AcDbCircle
 10
1254.882352035454
 20
1962.460474313586
 30
0.0
 40
65.0
100
AcDbArc
 50
270.0
 51
356.1859251657095
  0
ARC
  5
B1D7
330
747D
100
AcDbEntity
  8
0
 48
15.0
100
AcDbCircle
 10
1254.882352035454
 20
1962.460474313586
 30
0.0
 40
50.0
100
AcDbArc
 50
270.0
 51
356.1859251657095
  0
MTEXT
  5
B1D8
102
{ACAD_REACTORS
330
B1D9
102
}
330
747D
100
AcDbEntity
  8
寸法引出
 48
15.0
100
AcDbMText
 10
1116.574259662819
 20
2006.202936154261
 30
0.0
 40
30.0
 41
0.0
 71
     4
 72
     1
  1
\A1;50r
  7
SANWA
 73
     1
 44
1.0
1001
ACAD
1000
MTEXTBEGIN
1070
    73
1070
     1
1070
    44
1040
1.0
1070
    74
1070
     0
1000
MTEXTEND
  0
LEADER
  5
B1D9
330
747D
100
AcDbEntity
  8
寸法引出
 48
15.0
100
AcDbLeader
  3
SANWA
 73
     0
 74
     0
 75
     1
 40
30.0
 41
61.37142857142857
 76
     3
 10
1054.278456947497
 20
1925.948164565301
 30
0.0
 10
1079.074259662819
 20
1976.202936154261
 30
0.0
 10
1101.574259662819
 20
1976.202936154261
 30
0.0
340
B1D8
1001
ACAD
1000
DSTYLE
1002
{
1070
   140
1040
2.0
1070
    40
1040
15.0
1070
   147
1040
1.0
1070
    44
1040
0.5
1070
    43
1040
5.0
1070
   178
1070
   256
1070
   177
1070
   256
1070
   176
1070
   256
1070
    41
1040
1.5
1002
}
  0
LINE
  5
B1DA
330
747D
100
AcDbEntity
  8
0
 48
15.0
100
AcDbLine
 10
1088.437661224607
 20
1895.460474313586
 30
0.0
 11
1254.882352035454
 21
1895.460474313586
 31
0.0
  0
LINE
  5
B1DB
330
747D
100
AcDbEntity
  8
0
 48
15.0
100
AcDbLine
 10
1088.437661224607
 20
1889.460474313586
 30
0.0
 11
1254.882352035454
 21
1889.460474313586
 31
0.0
  0
LINE
  5
B1DC
330
747D
100
AcDbEntity
  8
0
 48
15.0
100
AcDbLine
 10
1088.437661224607
 20
1887.460474313586
 30
0.0
 11
1254.882352035454
 21
1887.460474313586
 31
0.0
  0
LINE
  5
B1DD
330
747D
100
AcDbEntity
  8
0
 48
15.0
100
AcDbLine
 10
1088.437661224607
 20
1897.460474313587
 30
0.0
 11
1254.882352035454
 21
1897.460474313587
 31
0.0
  0
LINE
  5
B1DE
330
747D
100
AcDbEntity
  8
0
 48
15.0
100
AcDbLine
 10
1088.437661224607
 20
1912.460474313586
 30
0.0
 11
1254.882352035454
 21
1912.460474313586
 31
0.0
  0
ARC
  5
B1DF
330
747D
100
AcDbEntity
  8
0
 48
15.0
100
AcDbCircle
 10
1088.437661224607
 20
1962.460474313586
 30
0.0
 40
67.0
100
AcDbArc
 50
183.8140748342901
 51
270.0
  0
ARC
  5
B1E0
330
747D
100
AcDbEntity
  8
0
 48
15.0
100
AcDbCircle
 10
1088.437661224607
 20
1962.460474313586
 30
0.0
 40
65.0
100
AcDbArc
 50
183.8140748342901
 51
270.0
  0
LINE
  5
B1E1
330
747D
100
AcDbEntity
  8
0
100
AcDbLine
 10
988.6600066300307
 20
1945.460474313586
 30
0.0
 11
973.6600066300306
 21
1945.460474313586
 31
0.0
  0
LINE
  5
B1E2
330
747D
100
AcDbEntity
  8
0
100
AcDbLine
 10
973.6600066300306
 20
1929.460474313586
 30
0.0
 11
988.6600066300307
 21
1929.460474313586
 31
0.0
  0
LINE
  5
B1E3
330
747D
100
AcDbEntity
  8
0
100
AcDbLine
 10
1005.66000663003
 20
1956.460474313587
 30
0.0
 11
973.6600066300306
 21
1956.460474313587
 31
0.0
  0
LINE
  5
B1E4
330
747D
100
AcDbEntity
  8
0
100
AcDbLine
 10
973.6600066300306
 20
1918.460474313586
 30
0.0
 11
1005.66000663003
 21
1918.460474313586
 31
0.0
  0
LINE
  5
B1E5
330
747D
100
AcDbEntity
  8
0
 48
15.0
100
AcDbLine
 10
1005.66000663003
 20
1912.460474313586
 30
0.0
 11
971.6600066300307
 21
1878.460474313585
 31
0.0
  0
LINE
  5
B1E6
330
747D
100
AcDbEntity
  8
0
 48
15.0
100
AcDbLine
 10
1005.66000663003
 20
1962.460474313586
 30
0.0
 11
1005.66000663003
 21
1912.460474313586
 31
0.0
  0
LINE
  5
B1E7
330
747D
100
AcDbEntity
  8
0
 48
15.0
100
AcDbLine
 10
1005.66000663003
 20
1956.460474313587
 30
0.0
 11
1005.66000663003
 21
1918.460474313586
 31
0.0
  0
ARC
  5
B1E8
330
747D
100
AcDbEntity
  8
0
 48
15.0
100
AcDbCircle
 10
988.6600066300298
 20
1937.460474313587
 30
0.0
 40
8.0
100
AcDbArc
 50
270.0
 51
89.99999999999998
  0
LINE
  5
B1E9
330
747D
100
AcDbEntity
  8
0
100
AcDbLine
 10
973.6600066300306
 20
1956.460474313587
 30
0.0
 11
973.6600066300306
 21
1945.460474313586
 31
0.0
  0
LINE
  5
B1EA
330
747D
100
AcDbEntity
  8
0
100
AcDbLine
 10
973.6600066300306
 20
1929.460474313586
 30
0.0
 11
973.6600066300306
 21
1918.460474313586
 31
0.0
  0
LINE
  5
B1EB
330
747D
100
AcDbEntity
  8
0
 48
15.0
100
AcDbLine
 10
1005.66000663003
 20
1962.460474313586
 30
0.0
 11
971.6600066300307
 21
1996.460474313585
 31
0.0
  0
ARC
  5
B1EC
330
747D
100
AcDbEntity
  8
0
 48
15.0
100
AcDbCircle
 10
1088.437661224607
 20
1962.460474313586
 30
0.0
 40
50.0
100
AcDbArc
 50
183.8140748342901
 51
270.0
  0
LINE
  5
B1ED
330
747D
100
AcDbEntity
  8
0
 48
15.0
100
AcDbLine
 10
1046.66000663003
 20
1912.460474313586
 30
0.0
 11
1036.660006630031
 21
1912.460474313586
 31
0.0
  0
LINE
  5
B1EE
330
747D
100
AcDbEntity
  8
0
 48
15.0
100
AcDbLine
 10
1041.66000663003
 20
1907.460474313586
 30
0.0
 11
1041.66000663003
 21
1917.460474313586
 31
0.0
  0
LINE
  5
B1EF
330
747D
100
AcDbEntity
  8
0
 48
15.0
100
AcDbLine
 10
1306.66000663003
 20
1912.460474313586
 30
0.0
 11
1296.660006630031
 21
1912.460474313586
 31
0.0
  0
LINE
  5
B1F0
330
747D
100
AcDbEntity
  8
0
 48
15.0
100
AcDbLine
 10
1301.660006630031
 20
1917.460474313586
 30
0.0
 11
1301.660006630031
 21
1907.460474313586
 31
0.0
  0
DIMENSION
  5
B1F1
330
747D
100
AcDbEntity
  8
寸法引出
 48
15.0
100
AcDbDimension
  2
*D54
 10
768.4546500267206
 20
2292.460474313587
 30
0.0
 11
738.4546500267203
 21
2252.460474313586
 31
0.0
 70
    32
 71
     5
 42
80.0
  3
SANWA
100
AcDbAlignedDimension
 13
971.6600066300307
 23
2212.460474313587
 33
0.0
 14
971.6600066300307
 24
2292.460474313587
 34
0.0
 50
90.0
100
AcDbRotatedDimension
1001
ACAD
1000
DSTYLE
1002
{
1070
    40
1040
15.0
1070
    41
1040
1.5
1070
    43
1040
5.0
1070
    44
1040
0.5
1070
    75
1070
     1
1070
   140
1040
2.0
1070
   147
1040
1.0
1070
   176
1070
   256
1070
   177
1070
   256
1070
   178
1070
   256
1070
   279
1070
     1
1002
}
  0
DIMENSION
  5
B1F2
330
747D
100
AcDbEntity
  8
寸法引出
 48
15.0
100
AcDbDimension
  2
*D55
 10
971.6600066300307
 20
2431.209806978057
 30
0.0
 11
996.6600066300307
 21
2461.209806978057
 31
0.0
 70
    32
 71
     5
 42
50.0
  3
SANWA
100
AcDbAlignedDimension
 13
1021.66000663003
 23
2292.460474313587
 33
0.0
 14
971.6600066300307
 24
2292.460474313587
 34
0.0
100
AcDbRotatedDimension
1001
ACAD
1000
DSTYLE
1002
{
1070
    40
1040
15.0
1070
    41
1040
1.5
1070
    43
1040
5.0
1070
    44
1040
0.5
1070
    75
1070
     1
1070
   140
1040
2.0
1070
   147
1040
1.0
1070
   176
1070
   256
1070
   177
1070
   256
1070
   178
1070
   256
1070
   279
1070
     1
1002
}
  0
MTEXT
  5
B1F3
102
{ACAD_REACTORS
330
B239
102
}
330
747D
100
AcDbEntity
  8
寸法引出
 48
15.0
100
AcDbMText
 10
1457.782514010087
 20
2389.066909333698
 30
0.0
 40
30.0
 41
0.0
 71
     4
 72
     1
  1
\A1;6C
  7
SANWA
 73
     1
 44
1.0
1001
ACAD
1000
MTEXTBEGIN
1070
    73
1070
     1
1070
    44
1040
1.0
1070
    74
1070
     0
1000
MTEXTEND
  0
DIMENSION
  5
B1F4
330
747D
100
AcDbEntity
  8
寸法引出
 48
15.0
100
AcDbDimension
  2
*D56
 10
1371.660006630031
 20
2507.44234799428
 30
0.0
 11
1171.66000663003
 21
2537.44234799428
 31
0.0
 70
    32
 71
     5
 42
400.0
  3
SANWA
100
AcDbAlignedDimension
 13
971.6600066300307
 23
2292.460474313587
 33
0.0
 14
1371.660006630031
 24
2292.460474313587
 34
0.0
100
AcDbRotatedDimension
1001
ACAD
1000
DSTYLE
1002
{
1070
   140
1040
2.0
1070
    40
1040
15.0
1070
   147
1040
1.0
1070
    44
1040
0.5
1070
    43
1040
5.0
1070
   178
1070
   256
1070
   177
1070
   256
1070
   176
1070
   256
1070
    41
1040
1.5
1002
}
  0
DIMENSION
  5
B1F5
330
747D
100
AcDbEntity
  8
寸法引出
 48
15.0
100
AcDbDimension
  2
*D57
 10
1371.660006630031
 20
2431.209806978057
 30
0.0
 11
1346.66000663003
 21
2461.209806978057
 31
0.0
 70
    32
 71
     5
 42
50.0
  3
SANWA
100
AcDbAlignedDimension
 13
1321.660006630031
 23
2292.460474313587
 33
0.0
 14
1371.660006630031
 24
2292.460474313587
 34
0.0
100
AcDbRotatedDimension
1001
ACAD
1000
DSTYLE
1002
{
1070
    40
1040
15.0
1070
    41
1040
1.5
1070
    43
1040
5.0
1070
    44
1040
0.5
1070
    75
1070
     1
1070
   140
1040
2.0
1070
   147
1040
1.0
1070
   176
1070
   256
1070
   177
1070
   256
1070
   178
1070
   256
1070
   279
1070
     1
1002
}
  0
DIMENSION
  5
B1F6
330
747D
100
AcDbEntity
  8
寸法引出
 48
15.0
100
AcDbDimension
  2
*D58
 10
1371.660006630031
 20
2355.894661296838
 30
0.0
 11
1275.41000663003
 21
2385.894661296838
 31
0.0
 70
    32
 71
     5
 42
192.5
  3
SANWA
100
AcDbAlignedDimension
 13
1179.16000663003
 23
2292.460474313589
 33
0.0
 14
1371.660006630031
 24
2292.460474313587
 34
0.0
100
AcDbRotatedDimension
1001
ACAD
1000
DSTYLE
1002
{
1070
    40
1040
15.0
1070
    41
1040
1.5
1070
    43
1040
5.0
1070
    44
1040
0.5
1070
    75
1070
     1
1070
   140
1040
2.0
1070
   147
1040
1.0
1070
   176
1070
   256
1070
   177
1070
   256
1070
   178
1070
   256
1070
   279
1070
     1
1002
}
  0
DIMENSION
  5
B1F7
330
747D
100
AcDbEntity
  8
寸法引出
 48
15.0
100
AcDbDimension
  2
*D59
 10
1179.16000663003
 20
2355.894661296838
 30
0.0
 11
1171.66000663003
 21
2385.894661296838
 31
0.0
 70
    32
 71
     5
 42
15.0
  3
SANWA
100
AcDbAlignedDimension
 13
1164.160006630031
 23
2292.460474313589
 33
0.0
 14
1179.16000663003
 24
2292.460474313589
 34
0.0
100
AcDbRotatedDimension
1001
ACAD
1000
DSTYLE
1002
{
1070
    40
1040
15.0
1070
    41
1040
1.5
1070
    43
1040
5.0
1070
    44
1040
0.5
1070
    75
1070
     1
1070
   140
1040
2.0
1070
   147
1040
1.0
1070
   176
1070
   256
1070
   177
1070
   256
1070
   178
1070
   256
1070
   279
1070
     1
1002
}
  0
DIMENSION
  5
B1F8
330
747D
100
AcDbEntity
  8
寸法引出
 48
15.0
100
AcDbDimension
  2
*D60
 10
1164.160006630031
 20
2355.894661296838
 30
0.0
 11
1067.910006630031
 21
2385.894661296838
 31
0.0
 70
    32
 71
     5
 42
192.5
  3
SANWA
100
AcDbAlignedDimension
 13
971.6600066300307
 23
2292.460474313587
 33
0.0
 14
1164.160006630031
 24
2292.460474313589
 34
0.0
100
AcDbRotatedDimension
1001
ACAD
1000
DSTYLE
1002
{
1070
   140
1040
2.0
1070
    40
1040
15.0
1070
   147
1040
1.0
1070
    44
1040
0.5
1070
    43
1040
5.0
1070
   178
1070
   256
1070
   177
1070
   256
1070
   176
1070
   256
1070
    41
1040
1.5
1002
}
  0
DIMENSION
  5
B1F9
330
747D
100
AcDbEntity
  8
寸法引出
 48
15.0
100
AcDbDimension
  2
*D61
 10
1321.660006630031
 20
2431.209806978057
 30
0.0
 11
1171.66000663003
 21
2461.209806978057
 31
0.0
 70
    32
 71
     5
 42
300.0
  3
SANWA
100
AcDbAlignedDimension
 13
1021.66000663003
 23
2292.460474313587
 33
0.0
 14
1321.660006630031
 24
2292.460474313587
 34
0.0
100
AcDbRotatedDimension
1001
ACAD
1000
DSTYLE
1002
{
1070
   140
1040
2.0
1070
    40
1040
15.0
1070
   147
1040
1.0
1070
    44
1040
0.5
1070
    43
1040
5.0
1070
   178
1070
   256
1070
   177
1070
   256
1070
   176
1070
   256
1070
    41
1040
1.5
1002
}
  0
LINE
  5
B1FA
330
747D
100
AcDbEntity
  8
0
 48
15.0
100
AcDbLine
 10
1178.16000663003
 20
2286.460474313588
 30
0.0
 11
1371.660006630031
 21
2286.460474313587
 31
0.0
  0
LINE
  5
B1FB
330
747D
100
AcDbEntity
  8
0
 48
15.0
100
AcDbLine
 10
1264.347488576868
 20
2224.481289593757
 30
0.0
 11
1329.347488576868
 21
2159.481289593758
 31
0.0
  0
LINE
  5
B1FC
330
747D
100
AcDbEntity
  8
0
 48
15.0
100
AcDbLine
 10
1268.590129263987
 20
2228.723930280877
 30
0.0
 11
1333.590129263987
 21
2163.723930280877
 31
0.0
  0
LINE
  5
B1FD
330
747D
100
AcDbEntity
  8
0
 48
15.0
100
AcDbLine
 10
1270.00434282636
 20
2230.13814384325
 30
0.0
 11
1335.00434282636
 21
2165.13814384325
 31
0.0
  0
LINE
  5
B1FE
330
747D
100
AcDbEntity
  8
0
 48
15.0
100
AcDbLine
 10
1262.933275014495
 20
2223.067076031385
 30
0.0
 11
1327.933275014495
 21
2158.067076031385
 31
0.0
  0
LINE
  5
B1FF
330
747D
100
AcDbEntity
  8
0
 48
15.0
100
AcDbLine
 10
1179.16000663003
 20
2292.460474313589
 30
0.0
 11
1365.660006630031
 21
2292.460474313587
 31
0.0
  0
LINE
  5
B200
330
747D
100
AcDbEntity
  8
0
 48
15.0
100
AcDbLine
 10
1252.326673296697
 20
2212.460474313587
 30
0.0
 11
1317.326673296697
 21
2147.460474313587
 31
0.0
  0
LINE
  5
B208
330
747D
100
AcDbEntity
  8
0
 48
15.0
100
AcDbLine
 10
1090.993339963364
 20
2212.460474313587
 30
0.0
 11
1252.326673296696
 21
2212.460474313587
 31
0.0
  0
LINE
  5
B20B
330
747D
100
AcDbEntity
  8
0
 48
15.0
100
AcDbLine
 10
1013.972524683193
 20
2159.481289593759
 30
0.0
 11
1078.972524683193
 21
2224.481289593757
 31
0.0
  0
LINE
  5
B20C
330
747D
100
AcDbEntity
  8
0
 48
15.0
100
AcDbLine
 10
1009.729883996074
 20
2163.723930280878
 30
0.0
 11
1074.729883996074
 21
2228.723930280877
 31
0.0
  0
ARC
  5
B20D
330
747D
100
AcDbEntity
  8
0
 48
15.0
100
AcDbCircle
 10
1025.993339963364
 20
2147.460474313587
 30
0.0
 40
23.0
100
AcDbArc
 50
135.0
 51
183.8140748342901
  0
ARC
  5
B20E
330
747D
100
AcDbEntity
  8
0
 48
15.0
100
AcDbCircle
 10
1025.993339963364
 20
2147.460474313587
 30
0.0
 40
17.0
100
AcDbArc
 50
135.0
 51
183.8140748342901
  0
ARC
  5
B20F
330
747D
100
AcDbEntity
  8
0
 48
15.0
100
AcDbCircle
 10
1025.993339963364
 20
2147.460474313587
 30
0.0
 40
25.0
100
AcDbArc
 50
135.0
 51
183.8140748342901
  0
LINE
  5
B210
330
747D
100
AcDbEntity
  8
0
 48
15.0
100
AcDbLine
 10
1008.315670433701
 20
2165.138143843251
 30
0.0
 11
1073.315670433701
 21
2230.13814384325
 31
0.0
  0
ARC
  5
B212
330
747D
100
AcDbEntity
  8
0
 48
15.0
100
AcDbCircle
 10
1025.993339963364
 20
2147.460474313587
 30
0.0
 40
15.0
100
AcDbArc
 50
135.0
 51
183.8140748342901
  0
LINE
  5
B214
330
747D
100
AcDbEntity
  8
0
 48
15.0
100
AcDbLine
 10
1015.386738245566
 20
2158.067076031385
 30
0.0
 11
1080.386738245566
 21
2223.067076031384
 31
0.0
  0
LINE
  5
B215
330
747D
100
AcDbEntity
  8
0
 48
15.0
100
AcDbLine
 10
1025.993339963364
 20
2147.460474313587
 30
0.0
 11
1090.993339963364
 21
2212.460474313587
 31
0.0
  0
LINE
  5
B216
330
747D
100
AcDbEntity
  8
0
 48
15.0
100
AcDbLine
 10
1016.66000663003
 20
2212.460474313587
 30
0.0
 11
1026.660006630031
 21
2212.460474313587
 31
0.0
  0
LINE
  5
B217
330
747D
100
AcDbEntity
  8
0
 48
15.0
100
AcDbLine
 10
1021.66000663003
 20
2207.460474313586
 30
0.0
 11
1021.66000663003
 21
2217.460474313587
 31
0.0
  0
LINE
  5
B223
330
747D
100
AcDbEntity
  8
0
 48
15.0
100
AcDbLine
 10
971.6600066300307
 20
2286.460474313587
 30
0.0
 11
1165.16000663003
 21
2286.460474313588
 31
0.0
  0
LINE
  5
B224
330
747D
100
AcDbEntity
  8
0
 48
15.0
100
AcDbLine
 10
977.6600066300307
 20
2292.460474313587
 30
0.0
 11
1164.160006630031
 21
2292.460474313589
 31
0.0
  0
LINE
  5
B225
330
747D
100
AcDbEntity
  8
0
 48
15.0
100
AcDbLine
 10
977.6600066300307
 20
2292.460474313587
 30
0.0
 11
971.6600066300307
 21
2286.460474313587
 31
0.0
  0
DIMENSION
  5
B226
330
747D
100
AcDbEntity
  8
寸法引出
 48
15.0
100
AcDbDimension
  2
*D62
 10
1443.136199113909
 20
2251.460474313587
 30
0.0
 11
1443.136199113909
 21
2279.738213022532
 31
0.0
 70
   160
 71
     5
 42
34.00000000000091
  3
SANWA
100
AcDbAlignedDimension
 13
1371.660006630031
 23
2217.460474313587
 33
0.0
 14
1371.660006630031
 24
2251.460474313587
 34
0.0
 50
90.0
100
AcDbRotatedDimension
1001
ACAD
1000
DSTYLE
1002
{
1070
    40
1040
15.0
1070
    41
1040
1.5
1070
    43
1040
5.0
1070
    44
1040
0.5
1070
    75
1070
     1
1070
   140
1040
2.0
1070
   147
1040
1.0
1070
   176
1070
   256
1070
   177
1070
   256
1070
   178
1070
   256
1070
   279
1070
     1
1002
}
  0
DIMENSION
  5
B227
330
747D
100
AcDbEntity
  8
寸法引出
 48
15.0
100
AcDbDimension
  2
*D63
 10
1507.565483022557
 20
2292.460474313587
 30
0.0
 11
1477.565483022557
 21
2242.460474313587
 31
0.0
 70
    32
 71
     5
 42
100.0
  3
SANWA
100
AcDbAlignedDimension
 13
1371.660006630031
 23
2192.460474313587
 33
0.0
 14
1371.660006630031
 24
2292.460474313587
 34
0.0
 50
90.0
100
AcDbRotatedDimension
1001
ACAD
1000
DSTYLE
1002
{
1070
    40
1040
15.0
1070
    41
1040
1.5
1070
    43
1040
5.0
1070
    44
1040
0.5
1070
    75
1070
     1
1070
   140
1040
2.0
1070
   147
1040
1.0
1070
   176
1070
   256
1070
   177
1070
   256
1070
   178
1070
   256
1070
   279
1070
     1
1002
}
  0
LINE
  5
B228
330
747D
100
AcDbEntity
  8
0
 48
15.0
100
AcDbLine
 10
1337.660006630031
 20
2217.460474313587
 30
0.0
 11
1371.660006630031
 21
2251.460474313587
 31
0.0
  0
ARC
  5
B229
330
747D
100
AcDbEntity
  8
0
 48
15.0
100
AcDbCircle
 10
1317.326673296697
 20
2147.460474313587
 30
0.0
 40
23.0
100
AcDbArc
 50
356.1859251657095
 51
44.99999999999994
  0
ARC
  5
B22A
330
747D
100
AcDbEntity
  8
0
 48
15.0
100
AcDbCircle
 10
1317.326673296697
 20
2147.460474313587
 30
0.0
 40
17.0
100
AcDbArc
 50
356.1859251657095
 51
44.99999999999994
  0
ARC
  5
B22B
330
747D
100
AcDbEntity
  8
0
 48
15.0
100
AcDbCircle
 10
1317.326673296697
 20
2147.460474313587
 30
0.0
 40
25.0
100
AcDbArc
 50
356.1859251657095
 51
44.99999999999994
  0
ARC
  5
B22C
330
747D
100
AcDbEntity
  8
0
 48
15.0
100
AcDbCircle
 10
1317.326673296697
 20
2147.460474313587
 30
0.0
 40
15.0
100
AcDbArc
 50
356.1859251657095
 51
44.99999999999994
  0
LINE
  5
B22D
330
747D
100
AcDbEntity
  8
0
100
AcDbLine
 10
1369.660006630031
 20
2200.460474313587
 30
0.0
 11
1369.660006630031
 21
2211.460474313586
 31
0.0
  0
LINE
  5
B22E
330
747D
100
AcDbEntity
  8
0
100
AcDbLine
 10
1369.660006630031
 20
2173.460474313587
 30
0.0
 11
1369.660006630031
 21
2184.460474313587
 31
0.0
  0
ARC
  5
B22F
330
747D
100
AcDbEntity
  8
0
 48
15.0
100
AcDbCircle
 10
1354.660006630031
 20
2192.460474313586
 30
0.0
 40
8.0
100
AcDbArc
 50
90.00000000000003
 51
270.0
  0
LINE
  5
B230
330
747D
100
AcDbEntity
  8
0
 48
15.0
100
AcDbLine
 10
1337.660006630031
 20
2173.460474313587
 30
0.0
 11
1337.660006630031
 21
2211.460474313586
 31
0.0
  0
LINE
  5
B231
330
747D
100
AcDbEntity
  8
0
 48
15.0
100
AcDbLine
 10
1337.660006630031
 20
2167.460474313587
 30
0.0
 11
1337.660006630031
 21
2217.460474313587
 31
0.0
  0
LINE
  5
B232
330
747D
100
AcDbEntity
  8
0
100
AcDbLine
 10
1369.660006630031
 20
2211.460474313586
 30
0.0
 11
1337.660006630031
 21
2211.460474313586
 31
0.0
  0
LINE
  5
B233
330
747D
100
AcDbEntity
  8
0
100
AcDbLine
 10
1337.660006630031
 20
2173.460474313587
 30
0.0
 11
1369.660006630031
 21
2173.460474313587
 31
0.0
  0
LINE
  5
B234
330
747D
100
AcDbEntity
  8
0
100
AcDbLine
 10
1369.660006630031
 20
2200.460474313587
 30
0.0
 11
1354.66000663003
 21
2200.460474313587
 31
0.0
  0
LINE
  5
B235
330
747D
100
AcDbEntity
  8
0
100
AcDbLine
 10
1354.66000663003
 20
2184.460474313587
 30
0.0
 11
1369.660006630031
 21
2184.460474313587
 31
0.0
  0
LINE
  5
B236
330
747D
100
AcDbEntity
  8
0
 48
15.0
100
AcDbLine
 10
1337.660006630031
 20
2167.460474313587
 30
0.0
 11
1371.660006630031
 21
2133.460474313587
 31
0.0
  0
LINE
  5
B237
330
747D
100
AcDbEntity
  8
0
 48
15.0
100
AcDbLine
 10
1316.66000663003
 20
2212.460474313587
 30
0.0
 11
1326.660006630031
 21
2212.460474313587
 31
0.0
  0
LINE
  5
B238
330
747D
100
AcDbEntity
  8
0
 48
15.0
100
AcDbLine
 10
1321.660006630031
 20
2217.460474313587
 30
0.0
 11
1321.660006630031
 21
2207.460474313586
 31
0.0
  0
LEADER
  5
B239
330
747D
100
AcDbEntity
  8
寸法引出
 48
15.0
100
AcDbLeader
  3
SANWA
 73
     0
 74
     0
 75
     1
 40
30.0
 41
40.28571428571428
 76
     3
 10
1368.660006630031
 20
2289.460474313587
 30
0.0
 10
1420.282514010087
 20
2359.066909333698
 30
0.0
 10
1442.782514010087
 20
2359.066909333698
 30
0.0
340
B1F3
1001
ACAD
1000
DSTYLE
1002
{
1070
   140
1040
2.0
1070
    40
1040
15.0
1070
   147
1040
1.0
1070
    44
1040
0.5
1070
    43
1040
5.0
1070
   178
1070
   256
1070
   177
1070
   256
1070
   176
1070
   256
1070
    41
1040
1.5
1002
}
  0
LINE
  5
B23A
330
747D
100
AcDbEntity
  8
0
 48
15.0
100
AcDbLine
 10
1365.660006630031
 20
2292.460474313587
 30
0.0
 11
1371.660006630031
 21
2286.460474313587
 31
0.0
  0
LINE
  5
B23C
330
747D
100
AcDbEntity
  8
0
100
AcDbLine
 10
-0.0000070240239438
 20
3150.000000272139
 30
0.0
 11
374.9999929759761
 21
3150.000000272139
 31
0.0
  0
LINE
  5
B23D
330
747D
100
AcDbEntity
  8
0
100
AcDbLine
 10
-0.0000070240239438
 20
3000.000000272139
 30
0.0
 11
-0.0000070240239438
 21
3150.000000272139
 31
0.0
  0
DIMENSION
  5
B248
330
747D
100
AcDbEntity
  8
寸法引出
 48
15.0
100
AcDbDimension
  2
*D64
 10
3952.505309803666
 20
2431.209806978057
 30
0.0
 11
2953.505309803666
 21
2461.209806978057
 31
0.0
 70
    32
 71
     5
 42
1998.0
  3
SANWA
100
AcDbAlignedDimension
 13
1954.505309803666
 23
2292.460474313587
 33
0.0
 14
3952.505309803666
 24
2292.460474313587
 34
0.0
100
AcDbRotatedDimension
1001
ACAD
1000
DSTYLE
1002
{
1070
   140
1040
2.0
1070
    40
1040
15.0
1070
   147
1040
1.0
1070
    44
1040
0.5
1070
    43
1040
5.0
1070
   178
1070
   256
1070
   177
1070
   256
1070
   176
1070
   256
1070
    41
1040
1.5
1002
}
  0
LINE
  5
B249
330
747D
100
AcDbEntity
  8
0
 48
15.0
100
AcDbLine
 10
3937.505309803666
 20
1837.460474313586
 30
0.0
 11
1969.505309803666
 21
1837.460474313586
 31
0.0
  0
LINE
  5
B24A
330
747D
100
AcDbEntity
  8
0
 48
15.0
100
AcDbLine
 10
1960.505309803666
 20
2292.460474313587
 30
0.0
 11
3946.505309803666
 21
2292.460474313587
 31
0.0
  0
LINE
  5
B24D
330
747D
100
AcDbEntity
  8
0
  6
CENTER2
 48
15.0
100
AcDbLine
 10
2953.505309803666
 20
2112.460474313587
 30
0.0
 11
2953.505309803666
 21
2072.460474313587
 31
0.0
  0
LINE
  5
B24E
330
747D
100
AcDbEntity
  8
0
 48
15.0
100
AcDbLine
 10
1954.505309803666
 20
1852.460474313586
 30
0.0
 11
1954.505309803666
 21
2286.460474313587
 31
0.0
  0
LINE
  5
B24F
330
747D
100
AcDbEntity
  8
0
  6
HIDDEN2
 48
15.0
100
AcDbLine
 10
1954.505309803666
 20
1912.460474313586
 30
0.0
 11
3952.505309803666
 21
1912.460474313586
 31
0.0
  0
MTEXT
  5
B250
102
{ACAD_REACTORS
330
B251
102
}
330
747D
100
AcDbEntity
  8
寸法引出
 48
15.0
100
AcDbMText
 10
1891.408830530166
 20
1796.251806196702
 30
0.0
 40
30.0
 41
0.0
 71
     6
 72
     1
  1
\A1;15C
  7
SANWA
 73
     1
 44
1.0
1001
ACAD
1000
MTEXTBEGIN
1070
    73
1070
     1
1070
    44
1040
1.0
1070
    74
1070
     0
1000
MTEXTEND
  0
LEADER
  5
B251
330
747D
100
AcDbEntity
  8
寸法引出
 48
15.0
100
AcDbLeader
  3
SANWA
 73
     0
 75
     1
 40
30.0
 41
59.31428571428572
 76
     3
 10
1962.005309803666
 20
1844.960474313586
 30
0.0
 10
1928.908830530166
 20
1766.251806196702
 30
0.0
 10
1906.408830530166
 20
1766.251806196702
 30
0.0
340
B250
1001
ACAD
1000
DSTYLE
1002
{
1070
   140
1040
2.0
1070
    40
1040
15.0
1070
   147
1040
1.0
1070
    44
1040
0.5
1070
    43
1040
5.0
1070
   178
1070
   256
1070
   177
1070
   256
1070
   176
1070
   256
1070
    41
1040
1.5
1002
}
  0
LINE
  5
B252
330
747D
100
AcDbEntity
  8
0
 48
15.0
100
AcDbLine
 10
1954.505309803666
 20
1852.460474313586
 30
0.0
 11
1969.505309803666
 21
1837.460474313586
 31
0.0
  0
LINE
  5
B253
330
747D
100
AcDbEntity
  8
0
  6
HIDDEN2
 48
15.0
100
AcDbLine
 10
1956.505309803665
 20
1962.460474313587
 30
0.0
 11
2027.505309803667
 21
1962.460474313587
 31
0.0
  0
LINE
  5
B254
330
747D
100
AcDbEntity
  8
0
  6
HIDDEN2
 48
15.0
100
AcDbLine
 10
1956.505309803666
 20
1947.460474313587
 30
0.0
 11
2017.505309803666
 21
1947.460474313587
 31
0.0
  0
LINE
  5
B255
330
747D
100
AcDbEntity
  8
0
  6
HIDDEN2
 48
15.0
100
AcDbLine
 10
1956.505309803666
 20
1902.460474313588
 30
0.0
 11
2017.505309803666
 21
1902.460474313588
 31
0.0
  0
LINE
  5
B256
330
747D
100
AcDbEntity
  8
0
  6
HIDDEN2
 48
15.0
100
AcDbLine
 10
1956.505309803666
 20
1887.460474313587
 30
0.0
 11
2027.505309803666
 21
1887.460474313588
 31
0.0
  0
LINE
  5
B257
330
747D
100
AcDbEntity
  8
0
  6
HIDDEN2
 48
15.0
100
AcDbLine
 10
2027.505309803666
 20
1962.460474313587
 30
0.0
 11
2027.505309803666
 21
1887.460474313587
 31
0.0
  0
LINE
  5
B258
330
747D
100
AcDbEntity
  8
0
  6
HIDDEN2
 48
15.0
100
AcDbLine
 10
2027.505309803666
 20
1887.460474313587
 30
0.0
 11
2017.505309803666
 21
1902.460474313587
 31
0.0
  0
LINE
  5
B259
330
747D
100
AcDbEntity
  8
0
  6
HIDDEN2
 48
15.0
100
AcDbLine
 10
2027.505309803666
 20
1962.460474313587
 30
0.0
 11
2017.505309803666
 21
1947.460474313587
 31
0.0
  0
LINE
  5
B25A
330
747D
100
AcDbEntity
  8
0
  6
HIDDEN2
 48
15.0
100
AcDbLine
 10
2017.505309803666
 20
1947.460474313587
 30
0.0
 11
2017.505309803666
 21
1902.460474313586
 31
0.0
  0
LINE
  5
B25C
330
747D
100
AcDbEntity
  8
0
 48
15.0
100
AcDbLine
 10
1954.505309803666
 20
2286.460474313587
 30
0.0
 11
3952.505309803667
 21
2286.460474313587
 31
0.0
  0
LINE
  5
B25D
330
747D
100
AcDbEntity
  8
0
  6
HIDDEN2
 48
15.0
100
AcDbLine
 10
1954.505309803666
 20
2147.460474313587
 30
0.0
 11
3952.505309803666
 21
2147.460474313587
 31
0.0
  0
LINE
  5
B25E
330
747D
100
AcDbEntity
  8
0
  6
HIDDEN2
 48
15.0
100
AcDbLine
 10
1954.505309803666
 20
2212.460474313587
 30
0.0
 11
3952.505309803666
 21
2212.460474313587
 31
0.0
  0
MTEXT
  5
B25F
102
{ACAD_REACTORS
330
B268
102
}
330
747D
100
AcDbEntity
  8
寸法引出
 48
15.0
100
AcDbMText
 10
1870.231580225942
 20
2389.066909333698
 30
0.0
 40
30.0
 41
0.0
 71
     6
 72
     1
  1
\A1;6C
  7
SANWA
 73
     1
 44
1.0
1001
ACAD
1000
MTEXTBEGIN
1070
    73
1070
     1
1070
    44
1040
1.0
1070
    74
1070
     0
1000
MTEXTEND
  0
LINE
  5
B260
330
747D
100
AcDbEntity
  8
0
 48
15.0
100
AcDbLine
 10
1956.505309803666
 20
2242.460474313586
 30
0.0
 11
2027.505309803666
 21
2242.460474313585
 31
0.0
  0
LINE
  5
B261
330
747D
100
AcDbEntity
  8
0
 48
15.0
100
AcDbLine
 10
1956.505309803666
 20
2227.460474313585
 30
0.0
 11
2017.505309803666
 21
2227.460474313585
 31
0.0
  0
LINE
  5
B262
330
747D
100
AcDbEntity
  8
0
 48
15.0
100
AcDbLine
 10
1956.505309803666
 20
2182.460474313586
 30
0.0
 11
2017.505309803666
 21
2182.460474313586
 31
0.0
  0
LINE
  5
B263
330
747D
100
AcDbEntity
  8
0
 48
15.0
100
AcDbLine
 10
1956.505309803665
 20
2167.460474313585
 30
0.0
 11
2027.505309803667
 21
2167.460474313585
 31
0.0
  0
LINE
  5
B264
330
747D
100
AcDbEntity
  8
0
 48
15.0
100
AcDbLine
 10
2017.505309803666
 20
2182.460474313586
 30
0.0
 11
2017.505309803666
 21
2227.460474313586
 31
0.0
  0
LINE
  5
B265
330
747D
100
AcDbEntity
  8
0
 48
15.0
100
AcDbLine
 10
2027.505309803666
 20
2167.460474313585
 30
0.0
 11
2017.505309803666
 21
2182.460474313586
 31
0.0
  0
LINE
  5
B266
330
747D
100
AcDbEntity
  8
0
 48
15.0
100
AcDbLine
 10
2027.505309803666
 20
2242.460474313586
 30
0.0
 11
2017.505309803666
 21
2227.460474313586
 31
0.0
  0
LINE
  5
B267
330
747D
100
AcDbEntity
  8
0
 48
15.0
100
AcDbLine
 10
2027.505309803666
 20
2167.460474313585
 30
0.0
 11
2027.505309803666
 21
2242.460474313586
 31
0.0
  0
LEADER
  5
B268
330
747D
100
AcDbEntity
  8
寸法引出
 48
15.0
100
AcDbLeader
  3
SANWA
 73
     0
 75
     1
 40
30.0
 41
40.28571428571428
 76
     3
 10
1957.505309803666
 20
2289.460474313587
 30
0.0
 10
1907.731580225942
 20
2359.066909333698
 30
0.0
 10
1885.231580225941
 20
2359.066909333698
 30
0.0
340
B25F
1001
ACAD
1000
DSTYLE
1002
{
1070
   140
1040
2.0
1070
    40
1040
15.0
1070
   147
1040
1.0
1070
    44
1040
0.5
1070
    43
1040
5.0
1070
   178
1070
   256
1070
   177
1070
   256
1070
   176
1070
   256
1070
    41
1040
1.5
1002
}
  0
LINE
  5
B269
330
747D
100
AcDbEntity
  8
0
 48
15.0
100
AcDbLine
 10
1954.505309803666
 20
2286.460474313587
 30
0.0
 11
1960.505309803666
 21
2292.460474313587
 31
0.0
  0
MTEXT
  5
B26B
102
{ACAD_REACTORS
330
B26C
102
}
330
747D
100
AcDbEntity
  8
寸法引出
 48
15.0
100
AcDbMText
 10
2220.772134718456
 20
2259.598078866726
 30
0.0
 40
30.0
 41
0.0
 71
     4
 72
     1
  1
\A1;6C
  7
SANWA
 73
     1
 44
1.0
1001
ACAD
1000
MTEXTBEGIN
1070
    73
1070
     1
1070
    44
1040
1.0
1070
    74
1070
     0
1000
MTEXTEND
  0
LEADER
  5
B26C
330
747D
100
AcDbEntity
  8
寸法引出
 48
15.0
100
AcDbLeader
  3
SANWA
 73
     0
 74
     0
 75
     1
 40
30.0
 41
40.28571428571428
 76
     3
 10
2146.170693306169
 20
2289.460474313587
 30
0.0
 10
2183.272134718456
 20
2229.598078866726
 30
0.0
 10
2205.772134718456
 20
2229.598078866726
 30
0.0
340
B26B
1001
ACAD
1000
DSTYLE
1002
{
1070
   140
1040
2.0
1070
    40
1040
15.0
1070
   147
1040
1.0
1070
    44
1040
0.5
1070
    43
1040
5.0
1070
   178
1070
   256
1070
   177
1070
   256
1070
   176
1070
   256
1070
    41
1040
1.5
1002
}
  0
LINE
  5
B277
330
747D
100
AcDbEntity
  8
0
 48
15.0
100
AcDbLine
 10
3952.505309803666
 20
2286.460474313587
 30
0.0
 11
3952.505309803666
 21
1852.460474313586
 31
0.0
  0
LINE
  5
B278
330
747D
100
AcDbEntity
  8
0
  6
HIDDEN2
 48
15.0
100
AcDbLine
 10
3952.505309803666
 20
1902.460474313588
 30
0.0
 11
3891.505309803666
 21
1902.460474313588
 31
0.0
  0
LINE
  5
B279
330
747D
100
AcDbEntity
  8
0
  6
HIDDEN2
 48
15.0
100
AcDbLine
 10
3952.505309803666
 20
1947.460474313587
 30
0.0
 11
3891.505309803666
 21
1947.460474313587
 31
0.0
  0
LINE
  5
B27A
330
747D
100
AcDbEntity
  8
0
  6
HIDDEN2
 48
15.0
100
AcDbLine
 10
3952.505309803667
 20
1962.460474313587
 30
0.0
 11
3881.505309803665
 21
1962.460474313587
 31
0.0
  0
LINE
  5
B27B
330
747D
100
AcDbEntity
  8
0
  6
HIDDEN2
 48
15.0
100
AcDbLine
 10
3952.505309803666
 20
1887.460474313587
 30
0.0
 11
3881.505309803666
 21
1887.460474313588
 31
0.0
  0
LINE
  5
B286
330
747D
100
AcDbEntity
  8
0
  6
HIDDEN2
 48
15.0
100
AcDbLine
 10
3881.505309803666
 20
1887.460474313587
 30
0.0
 11
3891.505309803666
 21
1902.460474313587
 31
0.0
  0
LINE
  5
B287
330
747D
100
AcDbEntity
  8
0
  6
HIDDEN2
 48
15.0
100
AcDbLine
 10
3881.505309803666
 20
1962.460474313587
 30
0.0
 11
3881.505309803666
 21
1887.460474313587
 31
0.0
  0
LINE
  5
B288
330
747D
100
AcDbEntity
  8
0
  6
HIDDEN2
 48
15.0
100
AcDbLine
 10
3881.505309803666
 20
1962.460474313587
 30
0.0
 11
3891.505309803666
 21
1947.460474313587
 31
0.0
  0
LINE
  5
B289
330
747D
100
AcDbEntity
  8
0
  6
HIDDEN2
 48
15.0
100
AcDbLine
 10
3891.505309803666
 20
1947.460474313587
 30
0.0
 11
3891.505309803666
 21
1902.460474313586
 31
0.0
  0
LINE
  5
B28A
330
747D
100
AcDbEntity
  8
0
 48
15.0
100
AcDbLine
 10
3952.505309803666
 20
1852.460474313586
 30
0.0
 11
3937.505309803666
 21
1837.460474313586
 31
0.0
  0
LINE
  5
B28D
330
747D
100
AcDbEntity
  8
0
 48
15.0
100
AcDbLine
 10
3952.505309803666
 20
2242.460474313586
 30
0.0
 11
3881.505309803666
 21
2242.460474313585
 31
0.0
  0
LINE
  5
B28E
330
747D
100
AcDbEntity
  8
0
 48
15.0
100
AcDbLine
 10
3952.505309803667
 20
2167.460474313585
 30
0.0
 11
3881.505309803665
 21
2167.460474313585
 31
0.0
  0
LINE
  5
B28F
330
747D
100
AcDbEntity
  8
0
 48
15.0
100
AcDbLine
 10
3952.505309803666
 20
2182.460474313586
 30
0.0
 11
3891.505309803666
 21
2182.460474313586
 31
0.0
  0
LINE
  5
B290
330
747D
100
AcDbEntity
  8
0
 48
15.0
100
AcDbLine
 10
3952.505309803666
 20
2227.460474313585
 30
0.0
 11
3891.505309803666
 21
2227.460474313585
 31
0.0
  0
LINE
  5
B295
330
747D
100
AcDbEntity
  8
0
 48
15.0
100
AcDbLine
 10
3891.505309803666
 20
2182.460474313586
 30
0.0
 11
3891.505309803666
 21
2227.460474313586
 31
0.0
  0
LINE
  5
B296
330
747D
100
AcDbEntity
  8
0
 48
15.0
100
AcDbLine
 10
3881.505309803666
 20
2167.460474313585
 30
0.0
 11
3891.505309803666
 21
2182.460474313586
 31
0.0
  0
LINE
  5
B297
330
747D
100
AcDbEntity
  8
0
 48
15.0
100
AcDbLine
 10
3881.505309803666
 20
2167.460474313585
 30
0.0
 11
3881.505309803666
 21
2242.460474313586
 31
0.0
  0
LINE
  5
B298
330
747D
100
AcDbEntity
  8
0
 48
15.0
100
AcDbLine
 10
3881.505309803666
 20
2242.460474313586
 30
0.0
 11
3891.505309803666
 21
2227.460474313586
 31
0.0
  0
LINE
  5
B29C
330
747D
100
AcDbEntity
  8
0
 48
15.0
100
AcDbLine
 10
3946.505309803666
 20
2292.460474313587
 30
0.0
 11
3952.505309803666
 21
2286.460474313587
 31
0.0
  0
LINE
  5
B29D
330
747D
100
AcDbEntity
  8
0
100
AcDbLine
 10
4454.999992975976
 20
3150.000000272139
 30
0.0
 11
4454.999992975976
 21
3000.000000272139
 31
0.0
  0
TEXT
  5
B29E
330
747D
100
AcDbEntity
  8
0
100
AcDbText
 10
3256.970806547255
 20
2789.304935394329
 30
0.0
 40
40.0
  1
W=496kg
  7
SANWA
 72
     4
 11
3359.370806547255
 21
2806.10493539433
 31
0.0
100
AcDbText
  0
LINE
  5
B29F
330
747D
100
AcDbEntity
  8
0
100
AcDbLine
 10
4304.999992975976
 20
3150.000000272139
 30
0.0
 11
4454.999992975976
 21
3150.000000272139
 31
0.0
  0
LINE
  5
C2BF
330
747D
100
AcDbEntity
  8
0
 48
15.0
100
AcDbLine
 10
1073.315670433701
 20
2230.13814384325
 30
0.0
 11
1080.386738245566
 21
2223.067076031384
 31
0.0
  0
LINE
  5
C2C0
330
747D
100
AcDbEntity
  8
0
 48
15.0
100
AcDbLine
 10
1270.00434282636
 20
2230.13814384325
 30
0.0
 11
1262.933275014495
 21
2223.067076031385
 31
0.0
  0
LINE
  5
C2D5
330
747D
100
AcDbEntity
  8
0
 48
15.0
100
AcDbLine
 10
2108.203327098927
 20
266.56992688428
 30
0.0
 11
2168.203327098924
 21
266.56992688428
 31
0.0
  0
LINE
  5
C3C0
330
747D
100
AcDbEntity
  8
0
 48
15.0
100
AcDbLine
 10
2973.505309803666
 20
2092.460474313587
 30
0.0
 11
2933.505309803666
 21
2092.460474313587
 31
0.0
  0
DIMENSION
  5
C3C1
330
747D
100
AcDbEntity
  8
寸法引出
 48
15.0
100
AcDbDimension
  2
*D65
 10
1867.803701822639
 20
2092.460474313587
 30
0.0
 11
1837.803701822639
 21
1964.960474313587
 31
0.0
 70
    32
 71
     5
 42
255.0
  3
SANWA
100
AcDbAlignedDimension
 13
1969.505309803666
 23
1837.460474313586
 33
0.0
 14
1954.505309803666
 24
2092.460474313587
 34
0.0
 50
90.0
100
AcDbRotatedDimension
1001
ACAD
1000
DSTYLE
1002
{
1070
    40
1040
15.0
1070
    41
1040
1.5
1070
    43
1040
5.0
1070
    44
1040
0.5
1070
   140
1040
2.0
1070
   147
1040
1.0
1070
   176
1070
   256
1070
   177
1070
   256
1070
   178
1070
   256
1002
}
  0
DIMENSION
  5
C3CE
330
747D
100
AcDbEntity
  8
寸法引出
 48
15.0
100
AcDbDimension
  2
*D66
 10
1867.803701822639
 20
2292.460474313587
 30
0.0
 11
1837.803701822639
 21
2192.460474313587
 31
0.0
 70
    32
 71
     5
 42
200.0
  3
SANWA
100
AcDbAlignedDimension
 13
1954.505309803666
 23
2092.460474313587
 33
0.0
 14
1960.505309803666
 24
2292.460474313587
 34
0.0
 50
90.0
100
AcDbRotatedDimension
1001
ACAD
1000
DSTYLE
1002
{
1070
   279
1070
     1
1070
    40
1040
15.0
1070
    41
1040
1.5
1070
    43
1040
5.0
1070
    44
1040
0.5
1070
   140
1040
2.0
1070
   147
1040
1.0
1070
   176
1070
   256
1070
   177
1070
   256
1070
   178
1070
   256
1002
}
  0
CIRCLE
  5
C3DB
330
747D
100
AcDbEntity
  8
0
 48
15.0
100
AcDbCircle
 10
2953.505309803666
 20
2092.460474313587
 30
0.0
 40
10.0
  0
LEADER
  5
C3DF
330
747D
100
AcDbEntity
  8
寸法引出
 48
15.0
100
AcDbLeader
  3
SANWA
 73
     0
 75
     1
 40
37.20000000000001
 41
193.7142857142857
 76
     3
 10
2947.054057368515
 20
2084.819705895557
 30
0.0
 10
2905.083014202181
 20
2017.491549311413
 30
0.0
 10
2882.583014202181
 20
2017.491549311413
 30
0.0
340
C3E0
1001
ACAD
1000
DSTYLE
1002
{
1070
    77
1070
     1
1070
    40
1040
15.0
1070
    41
1040
1.5
1070
    43
1040
5.0
1070
    44
1040
0.5
1070
   140
1040
2.0
1070
   147
1040
1.0
1070
   176
1070
   256
1070
   177
1070
   256
1070
   178
1070
   256
1002
}
  0
MTEXT
  5
C3E0
102
{ACAD_REACTORS
330
C3DF
102
}
330
747D
100
AcDbEntity
  8
寸法引出
 48
15.0
100
AcDbMText
 10
2867.58301420218
 20
2032.491549311413
 30
0.0
 40
30.0
 41
0.0
 71
     9
 72
     1
  1
\A1;ｲﾝｻｰﾄ M20
  7
SANWA
 73
     1
 44
1.0
1001
ACAD
1000
MTEXTBEGIN
1070
    73
1070
     1
1070
    44
1040
1.0
1070
    74
1070
     0
1000
MTEXTEND
  0
LINE
  5
C4A6
330
747D
100
AcDbEntity
  8
0
 48
15.0
100
AcDbLine
 10
1164.160006630031
 20
2292.460474313589
 30
0.0
 11
1165.16000663003
 21
2286.460474313588
 31
0.0
  0
LINE
  5
C4A7
330
747D
100
AcDbEntity
  8
0
 48
15.0
100
AcDbLine
 10
1179.16000663003
 20
2292.460474313589
 30
0.0
 11
1178.16000663003
 21
2286.460474313588
 31
0.0
  0
LINE
  5
C4A8
330
747D
100
AcDbEntity
  8
0
 48
15.0
100
AcDbLine
 10
1165.16000663003
 20
2286.460474313588
 30
0.0
 11
1178.16000663003
 21
2286.460474313588
 31
0.0
  0
LINE
  5
CD21
330
747D
100
AcDbEntity
  8
0
  6
HIDDEN2
 48
15.0
100
AcDbLine
 10
1954.505309803666
 20
1103.632126323732
 30
0.0
 11
3952.505309803667
 21
1103.632126323732
 31
0.0
  0
LINE
  5
CD22
330
747D
100
AcDbEntity
  8
0
  6
HIDDEN2
 48
15.0
100
AcDbLine
 10
3952.505309803666
 20
1090.632126323732
 30
0.0
 11
1954.505309803666
 21
1090.632126323732
 31
0.0
  0
LINE
  5
CD23
330
747D
100
AcDbEntity
  8
0
 48
15.0
100
AcDbLine
 10
3952.505309803666
 20
897.1321263237323
 30
0.0
 11
3952.505309803666
 21
1297.132126323732
 31
0.0
  0
LINE
  5
CD24
330
747D
100
AcDbEntity
  8
0
 48
15.0
100
AcDbLine
 10
3946.505309803666
 20
903.1321263237323
 30
0.0
 11
3946.505309803666
 21
1089.632126323732
 31
0.0
  0
LINE
  5
CD25
330
747D
100
AcDbEntity
  8
0
 48
15.0
100
AcDbLine
 10
3952.505309803666
 20
897.1321263237323
 30
0.0
 11
3946.505309803666
 21
903.1321263237323
 31
0.0
  0
LINE
  5
CD26
330
747D
100
AcDbEntity
  8
0
 48
15.0
100
AcDbLine
 10
3946.505309803666
 20
1104.632126323732
 30
0.0
 11
3946.505309803666
 21
1291.132126323732
 31
0.0
  0
LINE
  5
CD27
330
747D
100
AcDbEntity
  8
0
 48
15.0
100
AcDbLine
 10
3952.505309803666
 20
1297.132126323732
 30
0.0
 11
3946.505309803666
 21
1291.132126323732
 31
0.0
  0
LINE
  5
CD29
330
747D
100
AcDbEntity
  8
0
 48
15.0
100
AcDbLine
 10
2125.203327098927
 20
414.5699268842808
 30
0.0
 11
2151.20332709892
 21
414.5699268842808
 31
0.0
  0
DIMENSION
  5
CDBE
330
747D
100
AcDbEntity
  8
寸法引出
 48
15.0
100
AcDbDimension
  2
*D67
 10
1867.803701822638
 20
1297.132126323732
 30
0.0
 11
1837.803701822638
 21
1097.132126323733
 31
0.0
 70
    32
 71
     5
 42
400.0
  3
SANWA
100
AcDbAlignedDimension
 13
1954.505309803666
 23
897.1321263237323
 33
0.0
 14
1954.505309803666
 24
1297.132126323732
 34
0.0
 50
90.0
100
AcDbRotatedDimension
1001
ACAD
1000
DSTYLE
1002
{
1070
    40
1040
15.0
1070
    41
1040
1.5
1070
    43
1040
5.0
1070
    44
1040
0.5
1070
   140
1040
2.0
1070
   147
1040
1.0
1070
   176
1070
   256
1070
   177
1070
   256
1070
   178
1070
   256
1002
}
  0
LINE
  5
CE76
330
747D
100
AcDbEntity
  8
0
100
AcDbLine
 10
720.3979417471728
 20
2510.307769815553
 30
0.0
 11
891.0697032269309
 21
2510.307769815553
 31
0.0
  0
TEXT
  5
CE77
330
747D
100
AcDbEntity
  8
0
100
AcDbText
 10
728.8077313169062
 20
2526.613235111727
 30
0.0
 40
36.0
  1
正面図
  7
SANWA
 72
     4
 11
807.8020170311919
 21
2544.510377968869
 31
0.0
100
AcDbText
  0
LINE
  5
CE78
330
747D
100
AcDbEntity
  8
0
100
AcDbLine
 10
1711.803591565977
 20
2510.307769815553
 30
0.0
 11
1882.475353045735
 21
2510.307769815553
 31
0.0
  0
TEXT
  5
CE79
330
747D
100
AcDbEntity
  8
0
100
AcDbText
 10
1720.21338113571
 20
2526.407520826012
 30
0.0
 40
36.0
  1
側面図
  7
SANWA
 72
     4
 11
1799.207666849996
 21
2544.510377968869
 31
0.0
100
AcDbText
  0
TEXT
  5
CE7A
330
747D
100
AcDbEntity
  8
0
100
AcDbText
 10
1720.21338113571
 20
1505.104277440338
 30
0.0
 40
36.0
  1
平面図
  7
SANWA
 72
     4
 11
1799.207666849996
 21
1522.898563154623
 31
0.0
100
AcDbText
  0
LINE
  5
CE7B
330
747D
100
AcDbEntity
  8
0
100
AcDbLine
 10
1711.803591565977
 20
1488.695955001307
 30
0.0
 11
1882.475353045735
 21
1488.695955001307
 31
0.0
  0
VIEWPORT
  5
7540
102
{ACAD_XDICTIONARY
360
D747
102
}
330
747A
100
AcDbEntity
 67
     1
  8
0
100
AcDbViewport
 10
4481.192300357065
 20
3113.196575944253
 30
0.0
 40
10342.73089517229
 41
6677.655786010565
 68
     1
 69
     1
 12
4481.192300357065
 22
3113.196575944253
 13
0.0
 23
0.0
 14
10.0
 24
10.0
 15
10.0
 25
10.0
 16
0.0
 26
0.0
 36
1.0
 17
0.0
 27
0.0
 37
0.0
 42
50.0
 43
0.0
 44
0.0
 45
6677.655786010565
 50
0.0
 51
0.0
 72
   100
 90
    32800
  1

281
     0
 71
     1
 74
     0
110
0.0
120
0.0
130
0.0
111
1.0
121
0.0
131
0.0
112
0.0
122
1.0
132
0.0
 79
     0
146
0.0
  0
TEXT
  5
7737
330
747A
100
AcDbEntity
 67
     1
  8
0
 48
2.0
100
AcDbText
 10
331.871196811185
 20
20.60428158404022
 30
0.0
 40
2.0
  1

  7
SANWA
100
AcDbText
  0
ENDSEC
  0
SECTION
  2
OBJECTS
  0
DICTIONARY
  5
7471
330
0
100
AcDbDictionary
281
     1
  3
ACAD_COLOR
350
D337
  3
ACAD_GROUP
350
7472
  3
ACAD_LAYOUT
350
A476
  3
ACAD_MATERIAL
350
D30D
  3
ACAD_MLEADERSTYLE
350
D35C
  3
ACAD_MLINESTYLE
350
7473
  3
ACAD_PLOTSETTINGS
350
A477
  3
ACAD_PLOTSTYLENAME
350
A474
  3
ACAD_SCALELIST
350
D33A
  3
ACAD_TABLESTYLE
350
D338
  3
ACAD_VISUALSTYLE
350
D326
  3
AcadDim
350
CE93
  3
ACDB_RECOMPOSE_DATA
350
D49B
  3
ACDBVARIABLEDICTIONARY
350
789B
  3
DWGPROPS
350
D746
  0
DICTIONARY
  5
D485
330
7474
100
AcDbDictionary
280
     1
281
     1
  3
ADSK_XREC_LAYER_RECONCILED
360
D486
  0
DICTIONARY
  5
D487
330
7486
100
AcDbDictionary
280
     1
281
     1
  3
ADSK_XREC_LAYER_RECONCILED
360
D488
  0
DICTIONARY
  5
D489
330
7950
100
AcDbDictionary
280
     1
281
     1
  3
ADSK_XREC_LAYER_RECONCILED
360
D48A
  0
DICTIONARY
  5
D48B
330
7D58
100
AcDbDictionary
280
     1
281
     1
  3
ADSK_XREC_LAYER_RECONCILED
360
D48C
  0
DICTIONARY
  5
D48D
330
7D59
100
AcDbDictionary
280
     1
281
     1
  3
ADSK_XREC_LAYER_RECONCILED
360
D48E
  0
DICTIONARY
  5
D48F
330
7D5A
100
AcDbDictionary
280
     1
281
     1
  3
ADSK_XREC_LAYER_RECONCILED
360
D490
  0
DICTIONARY
  5
D747
330
7540
100
AcDbDictionary
280
     1
281
     1
  3
ACAD_XREC_ROUNDTRIP
360
D748
  0
DICTIONARY
  5
D337
102
{ACAD_REACTORS
330
7471
102
}
330
7471
100
AcDbDictionary
281
     1
  0
DICTIONARY
  5
7472
102
{ACAD_REACTORS
330
7471
102
}
330
0
100
AcDbDictionary
281
     1
  0
DICTIONARY
  5
A476
102
{ACAD_REACTORS
330
7471
102
}
330
7471
100
AcDbDictionary
281
     1
  3
Model
350
A478
  3
ﾚｲｱｳﾄ1
350
A479
  0
DICTIONARY
  5
D30D
102
{ACAD_REACTORS
330
7471
102
}
330
7471
100
AcDbDictionary
281
     1
  3
ByBlock
350
D316
  3
ByLayer
350
D30E
  3
Global
350
D31E
  0
DICTIONARY
  5
D35C
102
{ACAD_REACTORS
330
7471
102
}
330
7471
100
AcDbDictionary
281
     1
  3
Standard
350
D35D
  0
DICTIONARY
  5
7473
102
{ACAD_REACTORS
330
7471
102
}
330
0
100
AcDbDictionary
281
     1
  3
STANDARD
350
7480
  0
DICTIONARY
  5
A477
102
{ACAD_REACTORS
330
7471
102
}
330
7471
100
AcDbDictionary
281
     1
  0
ACDBDICTIONARYWDFLT
  5
A474
102
{ACAD_REACTORS
330
7471
102
}
330
7471
100
AcDbDictionary
281
     1
  3
Normal
350
A475
100
AcDbDictionaryWithDefault
340
A475
  0
DICTIONARY
  5
D33A
102
{ACAD_REACTORS
330
7471
102
}
330
7471
100
AcDbDictionary
281
     1
  3
A0
350
D33B
  3
A1
350
D33C
  3
A2
350
D33D
  3
A3
350
D33E
  3
A4
350
D33F
  3
A5
350
D340
  3
A6
350
D341
  3
A7
350
D342
  3
A8
350
D343
  3
A9
350
D344
  3
B0
350
D345
  3
B1
350
D346
  3
B2
350
D347
  3
B3
350
D348
  3
B4
350
D349
  3
B5
350
D34A
  3
B6
350
D34B
  3
B7
350
D34C
  3
B8
350
D34D
  3
B9
350
D34E
  3
C0
350
D34F
  3
C1
350
D350
  3
C2
350
D351
  3
C3
350
D352
  3
C4
350
D353
  3
C5
350
D354
  3
C6
350
D355
  3
C7
350
D356
  3
C8
350
D357
  3
C9
350
D358
  3
D0
350
D359
  3
D1
350
D35A
  3
D2
350
D35B
  0
DICTIONARY
  5
D338
102
{ACAD_REACTORS
330
7471
102
}
330
7471
100
AcDbDictionary
281
     1
  3
Standard
350
D339
  0
DICTIONARY
  5
D326
102
{ACAD_REACTORS
330
7471
102
}
330
7471
100
AcDbDictionary
281
     1
  3
2dWireframe
350
D32C
  3
3D Hidden
350
D32E
  3
3dWireframe
350
D32D
  3
Basic
350
D32B
  3
Brighten
350
D332
  3
ColorChange
350
D336
  3
Conceptual
350
D32F
  3
Dim
350
D331
  3
Facepattern
350
D335
  3
Flat
350
D327
  3
FlatWithEdges
350
D328
  3
Gouraud
350
D329
  3
GouraudWithEdges
350
D32A
  3
Linepattern
350
D334
  3
Realistic
350
D330
  3
Thicken
350
D333
  0
XRECORD
  5
CE93
102
{ACAD_REACTORS
330
7471
102
}
330
7471
100
AcDbXrecord
280
     1
 90
   990106
  3

 60
     4
 61
     0
 62
     4
 63
     4
 64
     1
 65
     0
 66
     0
 67
     3
 68
     1
 69
     0
 70
     0
 71
     0
 72
     0
 40
0.0
170
     0
340
C3E0
  0
XRECORD
  5
D49B
102
{ACAD_REACTORS
330
7471
102
}
330
7471
100
AcDbXrecord
280
     1
 90
        1
330
D339
  0
DICTIONARY
  5
789B
102
{ACAD_REACTORS
330
7471
102
}
330
7471
100
AcDbDictionary
281
     1
  3
CANNOSCALE
350
D49F
  3
CMLEADERSTYLE
350
D49D
  3
CTABLESTYLE
350
D49C
  3
DIMASSOC
350
C1BF
  3
INDEXCTL
350
D744
  3
LIGHTINGUNITS
350
D4A0
  3
MSLTSCALE
350
D49E
  3
SORTENTS
350
789C
  0
XRECORD
  5
D746
102
{ACAD_REACTORS
330
7471
102
}
330
7471
100
AcDbXrecord
280
     1
  1
DWGPROPS COOKIE
  2

  3

  4

  6

  7

  8
ooshima
  9

300
=
301
=
302
=
303
=
304
=
305
=
306
=
307
=
308
=
309
=
 40
0.9163701273148149
 41
2451853.356564931
 42
2454845.458338368
  1

 90
        0
  0
XRECORD
  5
D486
102
{ACAD_REACTORS
330
D485
102
}
330
D485
100
AcDbXrecord
280
     1
290
     1
  0
XRECORD
  5
D488
102
{ACAD_REACTORS
330
D487
102
}
330
D487
100
AcDbXrecord
280
     1
290
     1
  0
XRECORD
  5
D48A
102
{ACAD_REACTORS
330
D489
102
}
330
D489
100
AcDbXrecord
280
     1
290
     1
  0
XRECORD
  5
D48C
102
{ACAD_REACTORS
330
D48B
102
}
330
D48B
100
AcDbXrecord
280
     1
290
     1
  0
XRECORD
  5
D48E
102
{ACAD_REACTORS
330
D48D
102
}
330
D48D
100
AcDbXrecord
280
     1
290
     1
  0
XRECORD
  5
D490
102
{ACAD_REACTORS
330
D48F
102
}
330
D48F
100
AcDbXrecord
280
     1
290
     1
  0
XRECORD
  5
D748
102
{ACAD_REACTORS
330
D747
102
}
330
D747
100
AcDbXrecord
280
     1
102
SHADEPLOT
 70
     0
  0
LAYOUT
  5
A478
102
{ACAD_XDICTIONARY
360
D749
102
}
102
{ACAD_REACTORS
330
A476
102
}
330
A476
100
AcDbPlotSettings
  1

  2
DocuWorks Printer
  4
A4
  6

 40
5.408082962036132
 41
5.408079147338867
 42
5.4080810546875
 43
5.4080810546875
 44
210.0156707763672
 45
297.0106506347656
 46
4.599753379821777
 47
12.09724521636963
 48
374.9999929759761
 49
150.000000272139
140
4304.999992975976
141
3000.000000272139
142
1.0
143
15.0
 70
 11940
 72
     1
 73
     1
 74
     4
  7
sanwa3.ctb
 75
     0
147
0.0666666666666667
148
-374.9999929759761
149
-150.000000272139
100
AcDbLayout
  1
Model
 70
     1
 71
     0
 10
0.0
 20
0.0
 11
12.0
 21
9.0
 12
0.0
 22
0.0
 32
0.0
 14
0.0
 24
0.0
 34
0.0
 15
0.0
 25
0.0
 35
0.0
146
0.0
 13
0.0
 23
0.0
 33
0.0
 16
1.0
 26
0.0
 36
0.0
 17
0.0
 27
1.0
 37
0.0
 76
     0
330
747D
331
D30B
1001
ACAD_PSEXT
1000
DocuWorks Printer
1000
DocuWorks Printer Driver
1000
DocuWorks Port
1000

1070
     0
  0
LAYOUT
  5
A479
102
{ACAD_XDICTIONARY
360
D74B
102
}
102
{ACAD_REACTORS
330
A476
102
}
330
A476
100
AcDbPlotSettings
  1

  2
RICOH NX-510
  4
A4
  6

 40
5.873749732971191
 41
4.92125654220581
 42
7.588241577148437
 43
5.81024169921875
 44
209.9944915771484
 45
296.989501953125
 46
0.0
 47
0.0
 48
0.0
 49
0.0
140
0.0
141
0.0
142
1.0
143
31.40822128826953
 70
   688
 72
     1
 73
     1
 74
     1
  7
sanwa3.ctb
 75
     0
147
0.0318387975817492
148
0.2743414338947332
149
0.0961230370394333
100
AcDbLayout
  1
ﾚｲｱｳﾄ1
 70
     1
 71
     1
 10
-182.7636984612884
 20
-184.5801544421127
 11
9145.148299175419
 21
6410.973306330618
 12
0.0
 22
0.0
 32
0.0
 14
-0.2743414338947332
 24
-0.0961230370394333
 34
-0.0000000000000169
 15
8990.580384681475
 25
3150.096137705372
 35
0.0000000000000137
146
0.0
 13
0.0
 23
0.0
 33
0.0
 16
1.0
 26
0.0
 36
0.0
 17
0.0
 27
1.0
 37
0.0
 76
     0
330
747A
331
7540
  0
MATERIAL
  5
D316
102
{ACAD_XDICTIONARY
360
D317
102
}
102
{ACAD_REACTORS
330
D30D
102
}
330
D30D
100
AcDbMaterial
  1
ByBlock
 72
     0
 43
0.0208333333333333
 43
0.0
 43
0.0
 43
0.0
 43
0.0
 43
0.0208333333333333
 43
0.0
 43
0.0
 43
0.0
 43
0.0
 43
1.0
 43
0.0
 43
0.0
 43
0.0
 43
0.0
 43
1.0
 77
     0
 47
0.0208333333333333
 47
0.0
 47
0.0
 47
0.0
 47
0.0
 47
0.0208333333333333
 47
0.0
 47
0.0
 47
0.0
 47
0.0
 47
1.0
 47
0.0
 47
0.0
 47
0.0
 47
0.0
 47
1.0
171
     0
 49
0.0208333333333333
 49
0.0
 49
0.0
 49
0.0
 49
0.0
 49
0.0208333333333333
 49
0.0
 49
0.0
 49
0.0
 49
0.0
 49
1.0
 49
0.0
 49
0.0
 49
0.0
 49
0.0
 49
1.0
175
     0
142
0.0208333333333333
142
0.0
142
0.0
142
0.0
142
0.0
142
0.0208333333333333
142
0.0
142
0.0
142
0.0
142
0.0
142
1.0
142
0.0
142
0.0
142
0.0
142
0.0
142
1.0
179
     0
144
0.0208333333333333
144
0.0
144
0.0
144
0.0
144
0.0
144
0.0208333333333333
144
0.0
144
0.0
144
0.0
144
0.0
144
1.0
144
0.0
144
0.0
144
0.0
144
0.0
144
1.0
147
0.0208333333333333
147
0.0
147
0.0
147
0.0
147
0.0
147
0.0208333333333333
147
0.0
147
0.0
147
0.0
147
0.0
147
1.0
147
0.0
147
0.0
147
0.0
147
0.0
147
1.0
  0
MATERIAL
  5
D30E
102
{ACAD_XDICTIONARY
360
D30F
102
}
102
{ACAD_REACTORS
330
D30D
102
}
330
D30D
100
AcDbMaterial
  1
ByLayer
 72
     0
 43
0.0208333333333333
 43
0.0
 43
0.0
 43
0.0
 43
0.0
 43
0.0208333333333333
 43
0.0
 43
0.0
 43
0.0
 43
0.0
 43
1.0
 43
0.0
 43
0.0
 43
0.0
 43
0.0
 43
1.0
 77
     0
 47
0.0208333333333333
 47
0.0
 47
0.0
 47
0.0
 47
0.0
 47
0.0208333333333333
 47
0.0
 47
0.0
 47
0.0
 47
0.0
 47
1.0
 47
0.0
 47
0.0
 47
0.0
 47
0.0
 47
1.0
171
     0
 49
0.0208333333333333
 49
0.0
 49
0.0
 49
0.0
 49
0.0
 49
0.0208333333333333
 49
0.0
 49
0.0
 49
0.0
 49
0.0
 49
1.0
 49
0.0
 49
0.0
 49
0.0
 49
0.0
 49
1.0
175
     0
142
0.0208333333333333
142
0.0
142
0.0
142
0.0
142
0.0
142
0.0208333333333333
142
0.0
142
0.0
142
0.0
142
0.0
142
1.0
142
0.0
142
0.0
142
0.0
142
0.0
142
1.0
179
     0
144
0.0208333333333333
144
0.0
144
0.0
144
0.0
144
0.0
144
0.0208333333333333
144
0.0
144
0.0
144
0.0
144
0.0
144
1.0
144
0.0
144
0.0
144
0.0
144
0.0
144
1.0
147
0.0208333333333333
147
0.0
147
0.0
147
0.0
147
0.0
147
0.0208333333333333
147
0.0
147
0.0
147
0.0
147
0.0
147
1.0
147
0.0
147
0.0
147
0.0
147
0.0
147
1.0
  0
MATERIAL
  5
D31E
102
{ACAD_XDICTIONARY
360
D31F
102
}
102
{ACAD_REACTORS
330
D30D
102
}
330
D30D
100
AcDbMaterial
  1
Global
 72
     0
 43
0.0208333333333333
 43
0.0
 43
0.0
 43
0.0
 43
0.0
 43
0.0208333333333333
 43
0.0
 43
0.0
 43
0.0
 43
0.0
 43
1.0
 43
0.0
 43
0.0
 43
0.0
 43
0.0
 43
1.0
 77
     0
 47
0.0208333333333333
 47
0.0
 47
0.0
 47
0.0
 47
0.0
 47
0.0208333333333333
 47
0.0
 47
0.0
 47
0.0
 47
0.0
 47
1.0
 47
0.0
 47
0.0
 47
0.0
 47
0.0
 47
1.0
171
     0
 49
0.0208333333333333
 49
0.0
 49
0.0
 49
0.0
 49
0.0
 49
0.0208333333333333
 49
0.0
 49
0.0
 49
0.0
 49
0.0
 49
1.0
 49
0.0
 49
0.0
 49
0.0
 49
0.0
 49
1.0
175
     0
142
0.0208333333333333
142
0.0
142
0.0
142
0.0
142
0.0
142
0.0208333333333333
142
0.0
142
0.0
142
0.0
142
0.0
142
1.0
142
0.0
142
0.0
142
0.0
142
0.0
142
1.0
179
     0
144
0.0208333333333333
144
0.0
144
0.0
144
0.0
144
0.0
144
0.0208333333333333
144
0.0
144
0.0
144
0.0
144
0.0
144
1.0
144
0.0
144
0.0
144
0.0
144
0.0
144
1.0
147
0.0208333333333333
147
0.0
147
0.0
147
0.0
147
0.0
147
0.0208333333333333
147
0.0
147
0.0
147
0.0
147
0.0
147
1.0
147
0.0
147
0.0
147
0.0
147
0.0
147
1.0
  0
MLEADERSTYLE
  5
D35D
102
{ACAD_REACTORS
330
D35C
102
}
330
D35C
100
AcDbMLeaderStyle
170
     2
171
     1
172
     0
 90
        2
 40
0.0
 41
0.0
173
     1
 91
-1056964608
340
7477
 92
       -2
290
     1
 42
2.0
291
     1
 43
0.36
  3
Standard
 44
4.0
300

342
7475
174
     1
178
     6
175
     1
176
     0
 93
-1056964608
 45
4.0
292
     0
297
     0
 46
4.0
 94
-1056964608
 47
1.0
 49
1.0
140
1.0
293
     1
141
0.0
294
     1
177
     0
142
1.0
295
     0
296
     0
143
0.125
1001
ACAD_MLEADERVER
1070
     2
  0
MLINESTYLE
  5
7480
102
{ACAD_REACTORS
330
7473
102
}
330
0
100
AcDbMlineStyle
  2
STANDARD
 70
     0
  3

 62
     0
 51
90.0
 52
90.0
 71
     2
 49
0.5
 62
   256
  6
BYLAYER
 49
-0.5
 62
   256
  6
BYLAYER
  0
ACDBPLACEHOLDER
  5
A475
102
{ACAD_REACTORS
330
A474
102
}
330
A474
  0
SCALE
  5
D33B
102
{ACAD_REACTORS
330
D33A
102
}
330
D33A
100
AcDbScale
 70
     0
300
1:1
140
1.0
141
1.0
290
     1
  0
SCALE
  5
D33C
102
{ACAD_REACTORS
330
D33A
102
}
330
D33A
100
AcDbScale
 70
     0
300
1:2
140
1.0
141
2.0
290
     0
  0
SCALE
  5
D33D
102
{ACAD_REACTORS
330
D33A
102
}
330
D33A
100
AcDbScale
 70
     0
300
1:4
140
1.0
141
4.0
290
     0
  0
SCALE
  5
D33E
102
{ACAD_REACTORS
330
D33A
102
}
330
D33A
100
AcDbScale
 70
     0
300
1:5
140
1.0
141
5.0
290
     0
  0
SCALE
  5
D33F
102
{ACAD_REACTORS
330
D33A
102
}
330
D33A
100
AcDbScale
 70
     0
300
1:8
140
1.0
141
8.0
290
     0
  0
SCALE
  5
D340
102
{ACAD_REACTORS
330
D33A
102
}
330
D33A
100
AcDbScale
 70
     0
300
1:10
140
1.0
141
10.0
290
     0
  0
SCALE
  5
D341
102
{ACAD_REACTORS
330
D33A
102
}
330
D33A
100
AcDbScale
 70
     0
300
1:16
140
1.0
141
16.0
290
     0
  0
SCALE
  5
D342
102
{ACAD_REACTORS
330
D33A
102
}
330
D33A
100
AcDbScale
 70
     0
300
1:20
140
1.0
141
20.0
290
     0
  0
SCALE
  5
D343
102
{ACAD_REACTORS
330
D33A
102
}
330
D33A
100
AcDbScale
 70
     0
300
1:30
140
1.0
141
30.0
290
     0
  0
SCALE
  5
D344
102
{ACAD_REACTORS
330
D33A
102
}
330
D33A
100
AcDbScale
 70
     0
300
1:40
140
1.0
141
40.0
290
     0
  0
SCALE
  5
D345
102
{ACAD_REACTORS
330
D33A
102
}
330
D33A
100
AcDbScale
 70
     0
300
1:50
140
1.0
141
50.0
290
     0
  0
SCALE
  5
D346
102
{ACAD_REACTORS
330
D33A
102
}
330
D33A
100
AcDbScale
 70
     0
300
1:100
140
1.0
141
100.0
290
     0
  0
SCALE
  5
D347
102
{ACAD_REACTORS
330
D33A
102
}
330
D33A
100
AcDbScale
 70
     0
300
2:1
140
2.0
141
1.0
290
     0
  0
SCALE
  5
D348
102
{ACAD_REACTORS
330
D33A
102
}
330
D33A
100
AcDbScale
 70
     0
300
4:1
140
4.0
141
1.0
290
     0
  0
SCALE
  5
D349
102
{ACAD_REACTORS
330
D33A
102
}
330
D33A
100
AcDbScale
 70
     0
300
8:1
140
8.0
141
1.0
290
     0
  0
SCALE
  5
D34A
102
{ACAD_REACTORS
330
D33A
102
}
330
D33A
100
AcDbScale
 70
     0
300
10:1
140
10.0
141
1.0
290
     0
  0
SCALE
  5
D34B
102
{ACAD_REACTORS
330
D33A
102
}
330
D33A
100
AcDbScale
 70
     0
300
100:1
140
100.0
141
1.0
290
     0
  0
SCALE
  5
D34C
102
{ACAD_REACTORS
330
D33A
102
}
330
D33A
100
AcDbScale
 70
     0
300
1/128" = 1'-0"
140
0.0078125
141
12.0
290
     0
  0
SCALE
  5
D34D
102
{ACAD_REACTORS
330
D33A
102
}
330
D33A
100
AcDbScale
 70
     0
300
1/64" = 1'-0"
140
0.015625
141
12.0
290
     0
  0
SCALE
  5
D34E
102
{ACAD_REACTORS
330
D33A
102
}
330
D33A
100
AcDbScale
 70
     0
300
1/32" = 1'-0"
140
0.03125
141
12.0
290
     0
  0
SCALE
  5
D34F
102
{ACAD_REACTORS
330
D33A
102
}
330
D33A
100
AcDbScale
 70
     0
300
1/16" = 1'-0"
140
0.0625
141
12.0
290
     0
  0
SCALE
  5
D350
102
{ACAD_REACTORS
330
D33A
102
}
330
D33A
100
AcDbScale
 70
     0
300
3/32" = 1'-0"
140
0.09375
141
12.0
290
     0
  0
SCALE
  5
D351
102
{ACAD_REACTORS
330
D33A
102
}
330
D33A
100
AcDbScale
 70
     0
300
1/8" = 1'-0"
140
0.125
141
12.0
290
     0
  0
SCALE
  5
D352
102
{ACAD_REACTORS
330
D33A
102
}
330
D33A
100
AcDbScale
 70
     0
300
3/16" = 1'-0"
140
0.1875
141
12.0
290
     0
  0
SCALE
  5
D353
102
{ACAD_REACTORS
330
D33A
102
}
330
D33A
100
AcDbScale
 70
     0
300
1/4" = 1'-0"
140
0.25
141
12.0
290
     0
  0
SCALE
  5
D354
102
{ACAD_REACTORS
330
D33A
102
}
330
D33A
100
AcDbScale
 70
     0
300
3/8" = 1'-0"
140
0.375
141
12.0
290
     0
  0
SCALE
  5
D355
102
{ACAD_REACTORS
330
D33A
102
}
330
D33A
100
AcDbScale
 70
     0
300
1/2" = 1'-0"
140
0.5
141
12.0
290
     0
  0
SCALE
  5
D356
102
{ACAD_REACTORS
330
D33A
102
}
330
D33A
100
AcDbScale
 70
     0
300
3/4" = 1'-0"
140
0.75
141
12.0
290
     0
  0
SCALE
  5
D357
102
{ACAD_REACTORS
330
D33A
102
}
330
D33A
100
AcDbScale
 70
     0
300
1" = 1'-0"
140
1.0
141
12.0
290
     0
  0
SCALE
  5
D358
102
{ACAD_REACTORS
330
D33A
102
}
330
D33A
100
AcDbScale
 70
     0
300
1-1/2" = 1'-0"
140
1.5
141
12.0
290
     0
  0
SCALE
  5
D359
102
{ACAD_REACTORS
330
D33A
102
}
330
D33A
100
AcDbScale
 70
     0
300
3" = 1'-0"
140
3.0
141
12.0
290
     0
  0
SCALE
  5
D35A
102
{ACAD_REACTORS
330
D33A
102
}
330
D33A
100
AcDbScale
 70
     0
300
6" = 1'-0"
140
6.0
141
12.0
290
     0
  0
SCALE
  5
D35B
102
{ACAD_REACTORS
330
D33A
102
}
330
D33A
100
AcDbScale
 70
     0
300
1'-0" = 1'-0"
140
12.0
141
12.0
290
     0
  0
TABLESTYLE
  5
D339
102
{ACAD_XDICTIONARY
360
D499
102
}
102
{ACAD_REACTORS
330
D338
102
}
330
D338
100
AcDbTableStyle
  3
Standard
 70
     0
 71
     0
 40
1.5
 41
1.5
280
     0
281
     0
  7
STANDARD
140
4.5
170
     2
 62
     0
 63
     7
283
     0
274
    -2
284
     1
 64
     0
275
    -2
285
     1
 65
     0
276
    -2
286
     1
 66
     0
277
    -2
287
     1
 67
     0
278
    -2
288
     1
 68
     0
279
    -2
289
     1
 69
     0
  7
STANDARD
140
6.0
170
     5
 62
     0
 63
     7
283
     0
274
    -2
284
     1
 64
     0
275
    -2
285
     1
 65
     0
276
    -2
286
     1
 66
     0
277
    -2
287
     1
 67
     0
278
    -2
288
     1
 68
     0
279
    -2
289
     1
 69
     0
  7
STANDARD
140
4.5
170
     5
 62
     0
 63
     7
283
     0
274
    -2
284
     1
 64
     0
275
    -2
285
     1
 65
     0
276
    -2
286
     1
 66
     0
277
    -2
287
     1
 67
     0
278
    -2
288
     1
 68
     0
279
    -2
289
     1
 69
     0
  0
VISUALSTYLE
  5
D32C
102
{ACAD_REACTORS
330
D326
102
}
330
D326
100
AcDbVisualStyle
  2
2dWireframe
 70
     4
 71
     0
 72
     2
 73
     0
 90
        0
 40
-0.6
 41
-30.0
 62
     5
 63
     7
 74
     1
 91
        4
 64
     7
 65
   257
 75
     1
175
     1
 42
1.0
 92
        0
 66
   257
 43
1.0
 76
     1
 77
     6
 78
     2
 67
     7
 79
     5
170
     0
171
     0
290
     0
174
     0
 93
        1
 44
0.0
173
     0
291
     0
 45
0.0
1001
ACAD
1000
AcDbSavedByObjectVersion
1070
     0
  0
VISUALSTYLE
  5
D32E
102
{ACAD_REACTORS
330
D326
102
}
330
D326
100
AcDbVisualStyle
  2
3D Hidden
 70
     6
 71
     1
 72
     2
 73
     2
 90
        0
 40
-0.6
 41
-30.0
 62
     5
 63
     7
 74
     2
 91
        2
 64
     7
 65
   257
 75
     2
175
     1
 42
40.0
 92
        0
 66
   257
 43
1.0
 76
     1
 77
     6
 78
     2
 67
     7
 79
     3
170
     0
171
     0
290
     0
174
     0
 93
        1
 44
0.0
173
     0
291
     0
 45
0.0
1001
ACAD
1000
AcDbSavedByObjectVersion
1070
     0
  0
VISUALSTYLE
  5
D32D
102
{ACAD_REACTORS
330
D326
102
}
330
D326
100
AcDbVisualStyle
  2
3dWireframe
 70
     5
 71
     0
 72
     2
 73
     0
 90
        0
 40
-0.6
 41
-30.0
 62
     5
 63
     7
 74
     1
 91
        4
 64
     7
 65
   257
 75
     1
175
     1
 42
1.0
 92
        0
 66
   257
 43
1.0
 76
     1
 77
     6
 78
     2
 67
     7
 79
     5
170
     0
171
     0
290
     0
174
     0
 93
        1
 44
0.0
173
     0
291
     0
 45
0.0
1001
ACAD
1000
AcDbSavedByObjectVersion
1070
     0
  0
VISUALSTYLE
  5
D32B
102
{ACAD_REACTORS
330
D326
102
}
330
D326
100
AcDbVisualStyle
  2
Basic
 70
     7
 71
     1
 72
     0
 73
     1
 90
        0
 40
-0.6
 41
-30.0
 62
     5
 63
     7
 74
     0
 91
        4
 64
     7
 65
   257
 75
     1
175
     1
 42
1.0
 92
        8
 66
     7
 43
1.0
 76
     1
 77
     6
 78
     2
 67
     7
 79
     5
170
     0
171
     0
290
     0
174
     0
 93
        1
 44
0.0
173
     0
291
     1
 45
0.0
1001
ACAD
1000
AcDbSavedByObjectVersion
1070
     0
  0
VISUALSTYLE
  5
D332
102
{ACAD_REACTORS
330
D326
102
}
330
D326
100
AcDbVisualStyle
  2
Brighten
 70
    12
 71
     2
 72
     2
 73
     0
 90
        0
 40
-0.6
 41
-30.0
 62
     5
 63
     7
 74
     1
 91
        4
 64
     7
 65
   257
 75
     1
175
     1
 42
1.0
 92
        8
 66
     7
 43
1.0
 76
     1
 77
     6
 78
     2
 67
     7
 79
     5
170
     0
171
     0
290
     0
174
     0
 93
        1
 44
50.0
173
     0
291
     1
 45
0.0
1001
ACAD
1000
AcDbSavedByObjectVersion
1070
     0
  0
VISUALSTYLE
  5
D336
102
{ACAD_REACTORS
330
D326
102
}
330
D326
100
AcDbVisualStyle
  2
ColorChange
 70
    16
 71
     2
 72
     2
 73
     3
 90
        0
 40
-0.6
 41
-30.0
 62
     5
 63
     8
 74
     1
 91
        4
 64
     7
 65
   257
 75
     1
175
     1
 42
1.0
 92
        8
 66
     8
 43
1.0
 76
     1
 77
     6
 78
     2
 67
     7
 79
     5
170
     0
171
     0
290
     0
174
     0
 93
        1
 44
0.0
173
     0
291
     1
 45
0.0
1001
ACAD
1000
AcDbSavedByObjectVersion
1070
     0
  0
VISUALSTYLE
  5
D32F
102
{ACAD_REACTORS
330
D326
102
}
330
D326
100
AcDbVisualStyle
  2
Conceptual
 70
     9
 71
     3
 72
     2
 73
     0
 90
        0
 40
-0.6
 41
-30.0
 62
     5
 63
     7
 74
     2
 91
        2
 64
     7
 65
   257
 75
     1
175
     1
 42
40.0
 92
        8
 66
     7
 43
1.0
 76
     1
 77
     6
 78
     2
 67
     7
 79
     3
170
     0
171
     0
290
     0
174
     0
 93
        1
 44
0.0
173
     0
291
     0
 45
0.0
1001
ACAD
1000
AcDbSavedByObjectVersion
1070
     0
  0
VISUALSTYLE
  5
D331
102
{ACAD_REACTORS
330
D326
102
}
330
D326
100
AcDbVisualStyle
  2
Dim
 70
    11
 71
     2
 72
     2
 73
     0
 90
        0
 40
-0.6
 41
-30.0
 62
     5
 63
     7
 74
     1
 91
        4
 64
     7
 65
   257
 75
     1
175
     1
 42
1.0
 92
        8
 66
     7
 43
1.0
 76
     1
 77
     6
 78
     2
 67
     7
 79
     5
170
     0
171
     0
290
     0
174
     0
 93
        1
 44
-50.0
173
     0
291
     1
 45
0.0
1001
ACAD
1000
AcDbSavedByObjectVersion
1070
     0
  0
VISUALSTYLE
  5
D335
102
{ACAD_REACTORS
330
D326
102
}
330
D326
100
AcDbVisualStyle
  2
Facepattern
 70
    15
 71
     2
 72
     2
 73
     0
 90
        0
 40
-0.6
 41
-30.0
 62
     5
 63
     7
 74
     1
 91
        4
 64
     7
 65
   257
 75
     1
175
     1
 42
1.0
 92
        8
 66
     7
 43
1.0
 76
     1
 77
     6
 78
     2
 67
     7
 79
     5
170
     0
171
     0
290
     0
174
     0
 93
        1
 44
0.0
173
     0
291
     1
 45
0.0
1001
ACAD
1000
AcDbSavedByObjectVersion
1070
     0
  0
VISUALSTYLE
  5
D327
102
{ACAD_REACTORS
330
D326
102
}
330
D326
100
AcDbVisualStyle
  2
Flat
 70
     0
 71
     2
 72
     1
 73
     1
 90
        2
 40
-0.6
 41
30.0
 62
     5
 63
     7
 74
     0
 91
        4
 64
     7
 65
   257
 75
     1
175
     1
 42
1.0
 92
        8
 66
     7
 43
1.0
 76
     1
 77
     6
 78
     2
 67
     7
 79
     5
170
     0
171
     0
290
     0
174
     0
 93
       13
 44
0.0
173
     0
291
     1
 45
0.0
1001
ACAD
1000
AcDbSavedByObjectVersion
1070
     0
  0
VISUALSTYLE
  5
D328
102
{ACAD_REACTORS
330
D326
102
}
330
D326
100
AcDbVisualStyle
  2
FlatWithEdges
 70
     1
 71
     2
 72
     1
 73
     1
 90
        2
 40
-0.6
 41
30.0
 62
     5
 63
     7
 74
     1
 91
        4
 64
     7
 65
   257
 75
     1
175
     1
 42
1.0
 92
        0
 66
   257
 43
1.0
 76
     1
 77
     6
 78
     2
 67
     7
 79
     5
170
     0
171
     0
290
     0
174
     0
 93
       13
 44
0.0
173
     0
291
     1
 45
0.0
1001
ACAD
1000
AcDbSavedByObjectVersion
1070
     0
  0
VISUALSTYLE
  5
D329
102
{ACAD_REACTORS
330
D326
102
}
330
D326
100
AcDbVisualStyle
  2
Gouraud
 70
     2
 71
     2
 72
     2
 73
     1
 90
        2
 40
-0.6
 41
30.0
 62
     5
 63
     7
 74
     0
 91
        4
 64
     7
 65
   257
 75
     1
175
     1
 42
1.0
 92
        0
 66
     7
 43
1.0
 76
     1
 77
     6
 78
     2
 67
     7
 79
     5
170
     0
171
     0
290
     0
174
     0
 93
       13
 44
0.0
173
     0
291
     1
 45
0.0
1001
ACAD
1000
AcDbSavedByObjectVersion
1070
     0
  0
VISUALSTYLE
  5
D32A
102
{ACAD_REACTORS
330
D326
102
}
330
D326
100
AcDbVisualStyle
  2
GouraudWithEdges
 70
     3
 71
     2
 72
     2
 73
     1
 90
        2
 40
-0.6
 41
30.0
 62
     5
 63
     7
 74
     1
 91
        4
 64
     7
 65
   257
 75
     1
175
     1
 42
1.0
 92
        0
 66
   257
 43
1.0
 76
     1
 77
     6
 78
     2
 67
     7
 79
     5
170
     0
171
     0
290
     0
174
     0
 93
       13
 44
0.0
173
     0
291
     1
 45
0.0
1001
ACAD
1000
AcDbSavedByObjectVersion
1070
     0
  0
VISUALSTYLE
  5
D334
102
{ACAD_REACTORS
330
D326
102
}
330
D326
100
AcDbVisualStyle
  2
Linepattern
 70
    14
 71
     2
 72
     2
 73
     0
 90
        0
 40
-0.6
 41
-30.0
 62
     5
 63
     7
 74
     1
 91
        4
 64
     7
 65
   257
 75
     7
175
     7
 42
1.0
 92
        8
 66
     7
 43
1.0
 76
     1
 77
     6
 78
     2
 67
     7
 79
     5
170
     0
171
     0
290
     0
174
     0
 93
        1
 44
0.0
173
     0
291
     1
 45
0.0
1001
ACAD
1000
AcDbSavedByObjectVersion
1070
     0
  0
VISUALSTYLE
  5
D330
102
{ACAD_REACTORS
330
D326
102
}
330
D326
100
AcDbVisualStyle
  2
Realistic
 70
     8
 71
     2
 72
     2
 73
     0
 90
        0
 40
-0.6
 41
-30.0
 62
     5
 63
     7
 74
     1
 91
        0
 64
     7
 65
   257
 75
     1
175
     1
 42
1.0
 92
        8
 66
     8
 43
1.0
 76
     1
 77
     6
 78
     2
 67
     7
 79
     5
170
     0
171
     0
290
     0
174
     0
 93
       13
 44
0.0
173
     0
291
     0
 45
0.0
1001
ACAD
1000
AcDbSavedByObjectVersion
1070
     0
  0
VISUALSTYLE
  5
D333
102
{ACAD_REACTORS
330
D326
102
}
330
D326
100
AcDbVisualStyle
  2
Thicken
 70
    13
 71
     2
 72
     2
 73
     0
 90
        0
 40
-0.6
 41
-30.0
 62
     5
 63
     7
 74
     1
 91
        4
 64
     7
 65
   257
 75
     1
175
     1
 42
1.0
 92
       12
 66
     7
 43
1.0
 76
     1
 77
     6
 78
     2
 67
     7
 79
     5
170
     0
171
     0
290
     0
174
     0
 93
        1
 44
0.0
173
     0
291
     1
 45
0.0
1001
ACAD
1000
AcDbSavedByObjectVersion
1070
     0
  0
DICTIONARYVAR
  5
D49F
102
{ACAD_REACTORS
330
789B
102
}
330
789B
100
DictionaryVariables
280
     0
  1
1:1
  0
DICTIONARYVAR
  5
D49D
102
{ACAD_REACTORS
330
789B
102
}
330
789B
100
DictionaryVariables
280
     0
  1
STANDARD
  0
DICTIONARYVAR
  5
D49C
102
{ACAD_REACTORS
330
789B
102
}
330
789B
100
DictionaryVariables
280
     0
  1
STANDARD
  0
DICTIONARYVAR
  5
C1BF
102
{ACAD_REACTORS
330
789B
102
}
330
789B
100
DictionaryVariables
280
     0
  1
1
  0
DICTIONARYVAR
  5
D744
102
{ACAD_REACTORS
330
789B
102
}
330
789B
100
DictionaryVariables
280
     0
  1
0
  0
DICTIONARYVAR
  5
D4A0
102
{ACAD_REACTORS
330
789B
102
}
330
789B
100
DictionaryVariables
280
     0
  1
0
  0
DICTIONARYVAR
  5
D49E
102
{ACAD_REACTORS
330
789B
102
}
330
789B
100
DictionaryVariables
280
     0
  1
0
  0
DICTIONARYVAR
  5
789C
102
{ACAD_REACTORS
330
789B
102
}
330
789B
100
DictionaryVariables
280
     0
  1
96
  0
DICTIONARY
  5
D749
330
A478
100
AcDbDictionary
280
     1
281
     1
  3
ACAD_XREC_ROUNDTRIP
360
D74A
  0
DICTIONARY
  5
D74B
330
A479
100
AcDbDictionary
280
     1
281
     1
  3
ACAD_XREC_ROUNDTRIP
360
D74C
  0
DICTIONARY
  5
D317
330
D316
100
AcDbDictionary
280
     1
281
     1
  3
ACAD_XREC_ROUNDTRIP
360
D74E
  3
BUMPTILE
360
D319
  3
DIFFUSETILE
360
D318
  3
OPACITYTILE
360
D31C
  3
REFLECTIONTILE
360
D31B
  3
REFRACTIONTILE
360
D31D
  3
SPECULARTILE
360
D31A
  0
DICTIONARY
  5
D30F
330
D30E
100
AcDbDictionary
280
     1
281
     1
  3
ACAD_XREC_ROUNDTRIP
360
D74D
  3
BUMPTILE
360
D311
  3
DIFFUSETILE
360
D310
  3
OPACITYTILE
360
D314
  3
REFLECTIONTILE
360
D313
  3
REFRACTIONTILE
360
D315
  3
SPECULARTILE
360
D312
  0
DICTIONARY
  5
D31F
330
D31E
100
AcDbDictionary
280
     1
281
     1
  3
ACAD_XREC_ROUNDTRIP
360
D74F
  3
BUMPTILE
360
D321
  3
DIFFUSETILE
360
D320
  3
OPACITYTILE
360
D324
  3
REFLECTIONTILE
360
D323
  3
REFRACTIONTILE
360
D325
  3
SPECULARTILE
360
D322
  0
DICTIONARY
  5
D499
330
D339
100
AcDbDictionary
280
     1
281
     1
  3
ACAD_ROUNDTRIP_2008_TABLESTYLE_CELLSTYLEMAP
360
D745
  3
ACAD_XREC_ROUNDTRIP
360
D750
  0
XRECORD
  5
D74A
102
{ACAD_REACTORS
330
D749
102
}
330
D749
100
AcDbXrecord
280
     1
102
SHADEPLOT
 70
     0
102
SHADEPLOTRESLEVEL
 70
     2
102
SHADEPLOTCUSTOMDPI
 70
   300
  0
XRECORD
  5
D74C
102
{ACAD_REACTORS
330
D74B
102
}
330
D74B
100
AcDbXrecord
280
     1
102
SHADEPLOT
 70
     0
102
SHADEPLOTRESLEVEL
 70
     2
102
SHADEPLOTCUSTOMDPI
 70
   300
  0
XRECORD
  5
D74E
102
{ACAD_REACTORS
330
D317
102
}
330
D317
100
AcDbXrecord
280
     1
102
MATERIAL
148
0.0
149
0.0
149
0.0
 93
        0
 94
      127
282
     0
 72
     0
 77
     0
171
     0
175
     0
179
     0
273
     0
  0
XRECORD
  5
D319
102
{ACAD_REACTORS
330
D317
102
}
330
D317
100
AcDbXrecord
280
     1
270
     1
271
     1
  0
XRECORD
  5
D318
102
{ACAD_REACTORS
330
D317
102
}
330
D317
100
AcDbXrecord
280
     1
270
     1
271
     1
  0
XRECORD
  5
D31C
102
{ACAD_REACTORS
330
D317
102
}
330
D317
100
AcDbXrecord
280
     1
270
     1
271
     1
  0
XRECORD
  5
D31B
102
{ACAD_REACTORS
330
D317
102
}
330
D317
100
AcDbXrecord
280
     1
270
     1
271
     1
  0
XRECORD
  5
D31D
102
{ACAD_REACTORS
330
D317
102
}
330
D317
100
AcDbXrecord
280
     1
270
     1
271
     1
  0
XRECORD
  5
D31A
102
{ACAD_REACTORS
330
D317
102
}
330
D317
100
AcDbXrecord
280
     1
270
     1
271
     1
  0
XRECORD
  5
D74D
102
{ACAD_REACTORS
330
D30F
102
}
330
D30F
100
AcDbXrecord
280
     1
102
MATERIAL
148
0.0
149
0.0
149
0.0
 93
        0
 94
      127
282
     0
 72
     0
 77
     0
171
     0
175
     0
179
     0
273
     0
  0
XRECORD
  5
D311
102
{ACAD_REACTORS
330
D30F
102
}
330
D30F
100
AcDbXrecord
280
     1
270
     1
271
     1
  0
XRECORD
  5
D310
102
{ACAD_REACTORS
330
D30F
102
}
330
D30F
100
AcDbXrecord
280
     1
270
     1
271
     1
  0
XRECORD
  5
D314
102
{ACAD_REACTORS
330
D30F
102
}
330
D30F
100
AcDbXrecord
280
     1
270
     1
271
     1
  0
XRECORD
  5
D313
102
{ACAD_REACTORS
330
D30F
102
}
330
D30F
100
AcDbXrecord
280
     1
270
     1
271
     1
  0
XRECORD
  5
D315
102
{ACAD_REACTORS
330
D30F
102
}
330
D30F
100
AcDbXrecord
280
     1
270
     1
271
     1
  0
XRECORD
  5
D312
102
{ACAD_REACTORS
330
D30F
102
}
330
D30F
100
AcDbXrecord
280
     1
270
     1
271
     1
  0
XRECORD
  5
D74F
102
{ACAD_REACTORS
330
D31F
102
}
330
D31F
100
AcDbXrecord
280
     1
102
MATERIAL
148
0.0
149
0.0
149
0.0
 93
        0
 94
      127
282
     0
 72
     0
 77
     0
171
     0
175
     0
179
     0
273
     0
  0
XRECORD
  5
D321
102
{ACAD_REACTORS
330
D31F
102
}
330
D31F
100
AcDbXrecord
280
     1
270
     1
271
     1
  0
XRECORD
  5
D320
102
{ACAD_REACTORS
330
D31F
102
}
330
D31F
100
AcDbXrecord
280
     1
270
     1
271
     1
  0
XRECORD
  5
D324
102
{ACAD_REACTORS
330
D31F
102
}
330
D31F
100
AcDbXrecord
280
     1
270
     1
271
     1
  0
XRECORD
  5
D323
102
{ACAD_REACTORS
330
D31F
102
}
330
D31F
100
AcDbXrecord
280
     1
270
     1
271
     1
  0
XRECORD
  5
D325
102
{ACAD_REACTORS
330
D31F
102
}
330
D31F
100
AcDbXrecord
280
     1
270
     1
271
     1
  0
XRECORD
  5
D322
102
{ACAD_REACTORS
330
D31F
102
}
330
D31F
100
AcDbXrecord
280
     1
270
     1
271
     1
  0
CELLSTYLEMAP
  5
D745
102
{ACAD_REACTORS
330
D499
102
}
330
D499
100
AcDbCellStyleMap
 90
        3
300
CELLSTYLE
  1
TABLEFORMAT_BEGIN
 90
        5
170
     1
 91
        0
 92
    32768
 62
   257
 93
        1
300
CONTENTFORMAT
  1
CONTENTFORMAT_BEGIN
 90
        0
 91
        0
 92
      512
 93
        0
300

 40
0.0
140
1.0
 94
        5
 62
     0
340
7475
144
6.0
309
CONTENTFORMAT_END
171
     1
301
MARGIN
  1
CELLMARGIN_BEGIN
 40
1.5
 40
1.5
 40
1.5
 40
1.5
 40
4.5
 40
4.5
309
CELLMARGIN_END
 94
        6
 95
        1
302
GRIDFORMAT
  1
GRIDFORMAT_BEGIN
 90
        0
 91
        1
 62
     0
 92
       -2
340
0
 93
        0
 40
1.125
309
GRIDFORMAT_END
 95
        2
302
GRIDFORMAT
  1
GRIDFORMAT_BEGIN
 90
        0
 91
        1
 62
     0
 92
       -2
340
0
 93
        0
 40
1.125
309
GRIDFORMAT_END
 95
        4
302
GRIDFORMAT
  1
GRIDFORMAT_BEGIN
 90
        0
 91
        1
 62
     0
 92
       -2
340
0
 93
        0
 40
1.125
309
GRIDFORMAT_END
 95
        8
302
GRIDFORMAT
  1
GRIDFORMAT_BEGIN
 90
        0
 91
        1
 62
     0
 92
       -2
340
0
 93
        0
 40
1.125
309
GRIDFORMAT_END
 95
       16
302
GRIDFORMAT
  1
GRIDFORMAT_BEGIN
 90
        0
 91
        1
 62
     0
 92
       -2
340
0
 93
        0
 40
1.125
309
GRIDFORMAT_END
 95
       32
302
GRIDFORMAT
  1
GRIDFORMAT_BEGIN
 90
        0
 91
        1
 62
     0
 92
       -2
340
0
 93
        0
 40
1.125
309
GRIDFORMAT_END
309
TABLEFORMAT_END
  1
CELLSTYLE_BEGIN
 90
        1
 91
        1
300
_TITLE
309
CELLSTYLE_END
300
CELLSTYLE
  1
TABLEFORMAT_BEGIN
 90
        5
170
     1
 91
        0
 92
        0
 62
   257
 93
        1
300
CONTENTFORMAT
  1
CONTENTFORMAT_BEGIN
 90
        0
 91
        0
 92
      512
 93
        0
300

 40
0.0
140
1.0
 94
        5
 62
     0
340
7475
144
4.5
309
CONTENTFORMAT_END
171
     1
301
MARGIN
  1
CELLMARGIN_BEGIN
 40
1.5
 40
1.5
 40
1.5
 40
1.5
 40
4.5
 40
4.5
309
CELLMARGIN_END
 94
        6
 95
        1
302
GRIDFORMAT
  1
GRIDFORMAT_BEGIN
 90
        0
 91
        1
 62
     0
 92
       -2
340
0
 93
        0
 40
1.125
309
GRIDFORMAT_END
 95
        2
302
GRIDFORMAT
  1
GRIDFORMAT_BEGIN
 90
        0
 91
        1
 62
     0
 92
       -2
340
0
 93
        0
 40
1.125
309
GRIDFORMAT_END
 95
        4
302
GRIDFORMAT
  1
GRIDFORMAT_BEGIN
 90
        0
 91
        1
 62
     0
 92
       -2
340
0
 93
        0
 40
1.125
309
GRIDFORMAT_END
 95
        8
302
GRIDFORMAT
  1
GRIDFORMAT_BEGIN
 90
        0
 91
        1
 62
     0
 92
       -2
340
0
 93
        0
 40
1.125
309
GRIDFORMAT_END
 95
       16
302
GRIDFORMAT
  1
GRIDFORMAT_BEGIN
 90
        0
 91
        1
 62
     0
 92
       -2
340
0
 93
        0
 40
1.125
309
GRIDFORMAT_END
 95
       32
302
GRIDFORMAT
  1
GRIDFORMAT_BEGIN
 90
        0
 91
        1
 62
     0
 92
       -2
340
0
 93
        0
 40
1.125
309
GRIDFORMAT_END
309
TABLEFORMAT_END
  1
CELLSTYLE_BEGIN
 90
        2
 91
        1
300
_HEADER
309
CELLSTYLE_END
300
CELLSTYLE
  1
TABLEFORMAT_BEGIN
 90
        5
170
     1
 91
        0
 92
        0
 62
   257
 93
        1
300
CONTENTFORMAT
  1
CONTENTFORMAT_BEGIN
 90
        0
 91
        0
 92
      512
 93
        0
300

 40
0.0
140
1.0
 94
        2
 62
     0
340
7475
144
4.5
309
CONTENTFORMAT_END
171
     1
301
MARGIN
  1
CELLMARGIN_BEGIN
 40
1.5
 40
1.5
 40
1.5
 40
1.5
 40
4.5
 40
4.5
309
CELLMARGIN_END
 94
        6
 95
        1
302
GRIDFORMAT
  1
GRIDFORMAT_BEGIN
 90
        0
 91
        1
 62
     0
 92
       -2
340
0
 93
        0
 40
1.125
309
GRIDFORMAT_END
 95
        2
302
GRIDFORMAT
  1
GRIDFORMAT_BEGIN
 90
        0
 91
        1
 62
     0
 92
       -2
340
0
 93
        0
 40
1.125
309
GRIDFORMAT_END
 95
        4
302
GRIDFORMAT
  1
GRIDFORMAT_BEGIN
 90
        0
 91
        1
 62
     0
 92
       -2
340
0
 93
        0
 40
1.125
309
GRIDFORMAT_END
 95
        8
302
GRIDFORMAT
  1
GRIDFORMAT_BEGIN
 90
        0
 91
        1
 62
     0
 92
       -2
340
0
 93
        0
 40
1.125
309
GRIDFORMAT_END
 95
       16
302
GRIDFORMAT
  1
GRIDFORMAT_BEGIN
 90
        0
 91
        1
 62
     0
 92
       -2
340
0
 93
        0
 40
1.125
309
GRIDFORMAT_END
 95
       32
302
GRIDFORMAT
  1
GRIDFORMAT_BEGIN
 90
        0
 91
        1
 62
     0
 92
       -2
340
0
 93
        0
 40
1.125
309
GRIDFORMAT_END
309
TABLEFORMAT_END
  1
CELLSTYLE_BEGIN
 90
        3
 91
        2
300
_DATA
309
CELLSTYLE_END
  0
XRECORD
  5
D750
102
{ACAD_REACTORS
330
D499
102
}
330
D499
100
AcDbXrecord
280
     1
102
ACAD_ROUNDTRIP_PRE2007_TABLESTYLE
 90
      512
 91
        0
  1

 92
      512
 93
        0
  2

 94
      512
 95
        0
  3

  0
ENDSEC
  0
EOF
